  0
SECTION
  2
HEADER
  9
$ACADVER
  1
AC1018
  9
$ACADMAINTVER
 70
     0
  9
$DWGCODEPAGE
  3
ANSI_1252
  9
$INSBASE
 10
0.0
 20
0.0
 30
0.0
  9
$EXTMIN
 10
-216.0937507165774
 20
-8.6901691681943
 30
0.0
  9
$EXTMAX
 10
80.90624928342066
 20
201.3098308318058
 30
0.0
  9
$LIMMIN
 10
0.0
 20
0.0
  9
$LIMMAX
 10
12.0
 20
9.0
  9
$ORTHOMODE
 70
     0
  9
$REGENMODE
 70
     1
  9
$FILLMODE
 70
     1
  9
$QTEXTMODE
 70
     0
  9
$MIRRTEXT
 70
     1
  9
$LTSCALE
 40
1.0
  9
$ATTMODE
 70
     1
  9
$TEXTSIZE
 40
0.2
  9
$TRACEWID
 40
0.05
  9
$TEXTSTYLE
  7
Standard
  9
$CLAYER
  8
0
  9
$CELTYPE
  6
ByLayer
  9
$CECOLOR
 62
   256
  9
$CELTSCALE
 40
1.0
  9
$DISPSILH
 70
     0
  9
$DIMSCALE
 40
1.0
  9
$DIMASZ
 40
0.18
  9
$DIMEXO
 40
0.0625
  9
$DIMDLI
 40
0.38
  9
$DIMRND
 40
0.0
  9
$DIMDLE
 40
0.0
  9
$DIMEXE
 40
0.18
  9
$DIMTP
 40
0.0
  9
$DIMTM
 40
0.0
  9
$DIMTXT
 40
0.18
  9
$DIMCEN
 40
0.09
  9
$DIMTSZ
 40
0.0
  9
$DIMTOL
 70
     0
  9
$DIMLIM
 70
     0
  9
$DIMTIH
 70
     1
  9
$DIMTOH
 70
     1
  9
$DIMSE1
 70
     0
  9
$DIMSE2
 70
     0
  9
$DIMTAD
 70
     0
  9
$DIMZIN
 70
     0
  9
$DIMBLK
  1

  9
$DIMASO
 70
     1
  9
$DIMSHO
 70
     1
  9
$DIMPOST
  1

  9
$DIMAPOST
  1

  9
$DIMALT
 70
     0
  9
$DIMALTD
 70
     2
  9
$DIMALTF
 40
25.4
  9
$DIMLFAC
 40
1.0
  9
$DIMTOFL
 70
     0
  9
$DIMTVP
 40
0.0
  9
$DIMTIX
 70
     0
  9
$DIMSOXD
 70
     0
  9
$DIMSAH
 70
     0
  9
$DIMBLK1
  1

  9
$DIMBLK2
  1

  9
$DIMSTYLE
  2
Standard
  9
$DIMCLRD
 70
     0
  9
$DIMCLRE
 70
     0
  9
$DIMCLRT
 70
     0
  9
$DIMTFAC
 40
1.0
  9
$DIMGAP
 40
0.09
  9
$DIMJUST
 70
     0
  9
$DIMSD1
 70
     0
  9
$DIMSD2
 70
     0
  9
$DIMTOLJ
 70
     1
  9
$DIMTZIN
 70
     0
  9
$DIMALTZ
 70
     0
  9
$DIMALTTZ
 70
     0
  9
$DIMUPT
 70
     0
  9
$DIMDEC
 70
     4
  9
$DIMTDEC
 70
     4
  9
$DIMALTU
 70
     2
  9
$DIMALTTD
 70
     2
  9
$DIMTXSTY
  7
Standard
  9
$DIMAUNIT
 70
     0
  9
$DIMADEC
 70
     0
  9
$DIMALTRND
 40
0.0
  9
$DIMAZIN
 70
     0
  9
$DIMDSEP
 70
    46
  9
$DIMATFIT
 70
     3
  9
$DIMFRAC
 70
     0
  9
$DIMLDRBLK
  1

  9
$DIMLUNIT
 70
     2
  9
$DIMLWD
 70
    -2
  9
$DIMLWE
 70
    -2
  9
$DIMTMOVE
 70
     0
  9
$LUNITS
 70
     2
  9
$LUPREC
 70
     4
  9
$SKETCHINC
 40
0.1
  9
$FILLETRAD
 40
0.5
  9
$AUNITS
 70
     0
  9
$AUPREC
 70
     0
  9
$MENU
  1
.
  9
$ELEVATION
 40
0.0
  9
$PELEVATION
 40
0.0
  9
$THICKNESS
 40
0.0
  9
$LIMCHECK
 70
     0
  9
$CHAMFERA
 40
0.5
  9
$CHAMFERB
 40
0.5
  9
$CHAMFERC
 40
1.0
  9
$CHAMFERD
 40
0.0
  9
$SKPOLY
 70
     0
  9
$TDCREATE
 40
2458170.693238773
  9
$TDUCREATE
 40
2458170.651572106
  9
$TDUPDATE
 40
2458170.693239317
  9
$TDUUPDATE
 40
2458170.65157265
  9
$TDINDWG
 40
0.0000000116
  9
$TDUSRTIMER
 40
0.0000000116
  9
$USRTIMER
 70
     1
  9
$ANGBASE
 50
0.0
  9
$ANGDIR
 70
     0
  9
$PDMODE
 70
     0
  9
$PDSIZE
 40
0.0
  9
$PLINEWID
 40
0.0
  9
$SPLFRAME
 70
     0
  9
$SPLINETYPE
 70
     6
  9
$SPLINESEGS
 70
     8
  9
$HANDSEED
  5
4A7
  9
$SURFTAB1
 70
     6
  9
$SURFTAB2
 70
     6
  9
$SURFTYPE
 70
     6
  9
$SURFU
 70
     6
  9
$SURFV
 70
     6
  9
$UCSBASE
  2

  9
$UCSNAME
  2

  9
$UCSORG
 10
0.0
 20
0.0
 30
0.0
  9
$UCSXDIR
 10
1.0
 20
0.0
 30
0.0
  9
$UCSYDIR
 10
0.0
 20
1.0
 30
0.0
  9
$UCSORTHOREF
  2

  9
$UCSORTHOVIEW
 70
     0
  9
$UCSORGTOP
 10
0.0
 20
0.0
 30
0.0
  9
$UCSORGBOTTOM
 10
0.0
 20
0.0
 30
0.0
  9
$UCSORGLEFT
 10
0.0
 20
0.0
 30
0.0
  9
$UCSORGRIGHT
 10
0.0
 20
0.0
 30
0.0
  9
$UCSORGFRONT
 10
0.0
 20
0.0
 30
0.0
  9
$UCSORGBACK
 10
0.0
 20
0.0
 30
0.0
  9
$PUCSBASE
  2

  9
$PUCSNAME
  2

  9
$PUCSORG
 10
0.0
 20
0.0
 30
0.0
  9
$PUCSXDIR
 10
1.0
 20
0.0
 30
0.0
  9
$PUCSYDIR
 10
0.0
 20
1.0
 30
0.0
  9
$PUCSORTHOREF
  2

  9
$PUCSORTHOVIEW
 70
     0
  9
$PUCSORGTOP
 10
0.0
 20
0.0
 30
0.0
  9
$PUCSORGBOTTOM
 10
0.0
 20
0.0
 30
0.0
  9
$PUCSORGLEFT
 10
0.0
 20
0.0
 30
0.0
  9
$PUCSORGRIGHT
 10
0.0
 20
0.0
 30
0.0
  9
$PUCSORGFRONT
 10
0.0
 20
0.0
 30
0.0
  9
$PUCSORGBACK
 10
0.0
 20
0.0
 30
0.0
  9
$USERI1
 70
     0
  9
$USERI2
 70
     0
  9
$USERI3
 70
     0
  9
$USERI4
 70
     0
  9
$USERI5
 70
     0
  9
$USERR1
 40
18.1
  9
$USERR2
 40
0.0
  9
$USERR3
 40
0.0
  9
$USERR4
 40
0.0
  9
$USERR5
 40
0.0
  9
$WORLDVIEW
 70
     1
  9
$SHADEDGE
 70
     3
  9
$SHADEDIF
 70
    70
  9
$TILEMODE
 70
     1
  9
$MAXACTVP
 70
    64
  9
$PINSBASE
 10
0.0
 20
0.0
 30
0.0
  9
$PLIMCHECK
 70
     0
  9
$PEXTMIN
 10
1.00000000000000E+20
 20
1.00000000000000E+20
 30
1.00000000000000E+20
  9
$PEXTMAX
 10
-1.00000000000000E+20
 20
-1.00000000000000E+20
 30
-1.00000000000000E+20
  9
$PLIMMIN
 10
0.0
 20
0.0
  9
$PLIMMAX
 10
12.0
 20
9.0
  9
$UNITMODE
 70
     0
  9
$VISRETAIN
 70
     1
  9
$PLINEGEN
 70
     0
  9
$PSLTSCALE
 70
     1
  9
$TREEDEPTH
 70
  3020
  9
$CMLSTYLE
  2
Standard
  9
$CMLJUST
 70
     0
  9
$CMLSCALE
 40
1.0
  9
$PROXYGRAPHICS
 70
     1
  9
$MEASUREMENT
 70
     1
  9
$CELWEIGHT
370
    -1
  9
$ENDCAPS
280
     0
  9
$JOINSTYLE
280
     0
  9
$LWDISPLAY
290
     0
  9
$INSUNITS
 70
     4
  9
$HYPERLINKBASE
  1

  9
$STYLESHEET
  1

  9
$XEDIT
290
     1
  9
$CEPSNTYPE
380
     0
  9
$PSTYLEMODE
290
     1
  9
$FINGERPRINTGUID
  2
{74D66882-579B-4057-8006-BB886EDDB061}
  9
$VERSIONGUID
  2
{FAEB1C32-E019-11D5-929B-00C0DF256EC4}
  9
$EXTNAMES
290
     1
  9
$PSVPSCALE
 40
0.0
  9
$OLESTARTUP
290
     0
  9
$SORTENTS
280
   127
  9
$INDEXCTL
280
     0
  9
$HIDETEXT
280
     1
  9
$XCLIPFRAME
290
     0
  9
$HALOGAP
280
     0
  9
$OBSCOLOR
 70
   257
  9
$OBSLTYPE
280
     0
  9
$INTERSECTIONDISPLAY
280
     0
  9
$INTERSECTIONCOLOR
 70
   257
  9
$DIMASSOC
280
     2
  9
$PROJECTNAME
  1

  0
ENDSEC
  0
SECTION
  2
CLASSES
  0
CLASS
  1
ACDBDICTIONARYWDFLT
  2
AcDbDictionaryWithDefault
  3
ObjectDBX Classes
 90
        0
 91
        4
280
     0
281
     0
  0
CLASS
  1
VISUALSTYLE
  2
AcDbVisualStyle
  3
ObjectDBX Classes
 90
     4095
 91
        4
280
     0
281
     0
  0
CLASS
  1
MATERIAL
  2
AcDbMaterial
  3
ObjectDBX Classes
 90
     1153
 91
        4
280
     0
281
     0
  0
ENDSEC
  0
SECTION
  2
TABLES
  0
TABLE
  2
VPORT
  5
8
330
0
100
AcDbSymbolTable
 70
     1
  0
VPORT
  5
29
330
8
100
AcDbSymbolTableRecord
100
AcDbViewportTableRecord
  2
*Active
 70
     0
 10
0.0
 20
0.0
 11
1.0
 21
1.0
 12
-67.59375071657837
 22
96.30983083180575
 13
0.0
 23
0.0
 14
0.5
 24
0.5
 15
0.5
 25
0.5
 16
0.0
 26
0.0
 36
1.0
 17
0.0
 27
0.0
 37
0.0
 40
231.0000000000001
 41
1.60267857142857
 42
50.0
 43
0.0
 44
0.0
 50
0.0
 51
0.0
 71
     0
 72
   100
 73
     1
 74
     3
 75
     0
 76
     0
 77
     0
 78
     0
281
     0
 65
     1
110
0.0
120
0.0
130
0.0
111
1.0
121
0.0
131
0.0
112
0.0
122
1.0
132
0.0
 79
     0
146
0.0
  0
ENDTAB
  0
TABLE
  2
LTYPE
  5
5
330
0
100
AcDbSymbolTable
 70
     8
  0
LTYPE
  5
14
330
5
100
AcDbSymbolTableRecord
100
AcDbLinetypeTableRecord
  2
ByBlock
 70
     0
  3

 72
    65
 73
     0
 40
0.0
  0
LTYPE
  5
15
330
5
100
AcDbSymbolTableRecord
100
AcDbLinetypeTableRecord
  2
ByLayer
 70
     0
  3

 72
    65
 73
     0
 40
0.0
  0
LTYPE
  5
16
330
5
100
AcDbSymbolTableRecord
100
AcDbLinetypeTableRecord
  2
Continuous
 70
     0
  3
Solid line
 72
    65
 73
     0
 40
0.0
  0
LTYPE
  5
3F
330
5
100
AcDbSymbolTableRecord
100
AcDbLinetypeTableRecord
  2
DASHED
 70
     0
  3
Dashed
 72
    65
 73
     2
 40
15.0
 49
7.0
 74
     0
 49
-8.0
 74
     0
  0
LTYPE
  5
40
330
5
100
AcDbSymbolTableRecord
100
AcDbLinetypeTableRecord
  2
DOTTED
 70
     0
  3
Dotted
 72
    65
 73
     2
 40
1.0
 49
0.0
 74
     0
 49
-1.0
 74
     0
  0
LTYPE
  5
41
330
5
100
AcDbSymbolTableRecord
100
AcDbLinetypeTableRecord
  2
DOT_CENTER
 70
     0
  3
Dot_Center
 72
    65
 73
     4
 40
14.0
 49
12.0
 74
     0
 49
-1.0
 74
     0
 49
0.0
 74
     0
 49
-1.0
 74
     0
  0
LTYPE
  5
42
330
5
100
AcDbSymbolTableRecord
100
AcDbLinetypeTableRecord
  2
LONG_DASHED
 70
     0
  3
Long_Dashed
 72
    65
 73
     2
 40
15.0
 49
10.0
 74
     0
 49
-5.0
 74
     0
  0
LTYPE
  5
43
330
5
100
AcDbSymbolTableRecord
100
AcDbLinetypeTableRecord
  2
DASH_CENTER
 70
     0
  3
Dash_Center
 72
    65
 73
     4
 40
14.0
 49
11.0
 74
     0
 49
-1.0
 74
     0
 49
1.0
 74
     0
 49
-1.0
 74
     0
  0
LTYPE
  5
44
330
5
100
AcDbSymbolTableRecord
100
AcDbLinetypeTableRecord
  2
PHANTOM
 70
     0
  3
Phantom
 72
    65
 73
     6
 40
13.0
 49
10.0
 74
     0
 49
-1.0
 74
     0
 49
0.0
 74
     0
 49
-1.0
 74
     0
 49
0.0
 74
     0
 49
-1.0
 74
     0
  0
LTYPE
  5
45
330
5
100
AcDbSymbolTableRecord
100
AcDbLinetypeTableRecord
  2
CENTER_DASH_DASH
 70
     0
  3
Center_Dash_Dash
 72
    65
 73
     6
 40
14.0
 49
9.0
 74
     0
 49
-1.0
 74
     0
 49
1.0
 74
     0
 49
-1.0
 74
     0
 49
1.0
 74
     0
 49
-1.0
 74
     0
  0
ENDTAB
  0
TABLE
  2
LAYER
  5
2
330
0
100
AcDbSymbolTable
 70
     2
  0
LAYER
  5
10
330
2
100
AcDbSymbolTableRecord
100
AcDbLayerTableRecord
  2
0
 70
     0
 62
     7
  6
Continuous
370
    -3
390
F
  0
LAYER
  5
46
330
2
100
AcDbSymbolTableRecord
100
AcDbLayerTableRecord
  2
1
 70
     0
 62
     7
  6
Continuous
370
    -3
390
F
  0
ENDTAB
  0
TABLE
  2
STYLE
  5
3
330
0
100
AcDbSymbolTable
 70
     5
  0
STYLE
  5
11
330
3
100
AcDbSymbolTableRecord
100
AcDbTextStyleTableRecord
  2
Standard
 70
     0
 40
0.0
 41
1.0
 50
0.0
 71
     0
 42
0.2
  3
txt
  4

  0
STYLE
  5
153
330
3
100
AcDbSymbolTableRecord
100
AcDbTextStyleTableRecord
  2
CONVERTER_11
 70
     0
 40
0.0
 41
0.9
 50
0.0
 71
     0
 42
0.2
  3
txt.shx
  4

  0
STYLE
  5
442
330
3
100
AcDbSymbolTableRecord
100
AcDbTextStyleTableRecord
  2
CONVERTER_12
 70
     0
 40
0.0
 41
0.81
 50
0.0
 71
     0
 42
0.2
  3
txt.shx
  4

  0
STYLE
  5
458
330
3
100
AcDbSymbolTableRecord
100
AcDbTextStyleTableRecord
  2
CONVERTER_13
 70
     0
 40
0.0
 41
0.72
 50
0.0
 71
     0
 42
0.2
  3
txt.shx
  4

  0
STYLE
  5
45B
330
3
100
AcDbSymbolTableRecord
100
AcDbTextStyleTableRecord
  2
CONVERTER_14
 70
     0
 40
0.0
 41
0.855
 50
0.0
 71
     0
 42
0.2
  3
txt.shx
  4

  0
ENDTAB
  0
TABLE
  2
VIEW
  5
6
330
0
100
AcDbSymbolTable
 70
     0
  0
ENDTAB
  0
TABLE
  2
UCS
  5
7
330
0
100
AcDbSymbolTable
 70
     0
  0
ENDTAB
  0
TABLE
  2
APPID
  5
9
330
0
100
AcDbSymbolTable
 70
     1
  0
APPID
  5
12
330
9
100
AcDbSymbolTableRecord
100
AcDbRegAppTableRecord
  2
ACAD
 70
     0
  0
ENDTAB
  0
TABLE
  2
DIMSTYLE
  5
A
330
0
100
AcDbSymbolTable
 70
     8
100
AcDbDimStyleTable
  0
DIMSTYLE
105
27
330
A
100
AcDbSymbolTableRecord
100
AcDbDimStyleTableRecord
  2
Standard
 70
     0
178
     0
340
11
  0
DIMSTYLE
105
1A7
102
{ACAD_REACTORS
330
1A8
102
}
330
A
100
AcDbSymbolTableRecord
100
AcDbDimStyleTableRecord
  2
ME10_DIM_10
 70
     0
 41
3.5
 42
0.0
 44
1.5
 73
     0
 74
     0
 77
     1
 78
     8
140
3.5
147
1.5
172
     1
173
     1
174
     1
175
     1
176
     2
177
     2
178
     3
340
153
  0
DIMSTYLE
105
30D
102
{ACAD_REACTORS
330
30E
102
}
330
A
100
AcDbSymbolTableRecord
100
AcDbDimStyleTableRecord
  2
ME10_DIM_11
 70
     0
 41
3.5
 42
0.0
 44
1.5
 73
     0
 74
     0
 77
     1
 78
     8
140
3.5
147
1.5
172
     1
173
     1
174
     1
175
     1
176
     2
177
     2
178
     3
340
153
  0
DIMSTYLE
105
318
102
{ACAD_REACTORS
330
319
102
}
330
A
100
AcDbSymbolTableRecord
100
AcDbDimStyleTableRecord
  2
ME10_DIM_12
 70
     0
 41
3.5
 42
0.0
 44
1.5
 73
     0
 74
     0
 77
     1
 78
     8
140
3.5
147
1.5
172
     1
173
     1
174
     1
175
     1
176
     2
177
     2
178
     3
340
153
  0
DIMSTYLE
105
323
102
{ACAD_REACTORS
330
324
102
}
330
A
100
AcDbSymbolTableRecord
100
AcDbDimStyleTableRecord
  2
ME10_DIM_13
 70
     0
 41
3.5
 42
0.0
 44
1.5
 73
     0
 74
     0
 77
     1
 78
     8
140
3.5
147
1.5
172
     1
173
     1
174
     1
175
     1
176
     2
177
     2
178
     3
340
153
  0
DIMSTYLE
105
32E
102
{ACAD_REACTORS
330
32F
102
}
330
A
100
AcDbSymbolTableRecord
100
AcDbDimStyleTableRecord
  2
ME10_DIM_14
 70
     0
 41
3.5
 42
0.0
 44
1.5
 73
     0
 74
     0
 77
     1
 78
     8
140
3.5
147
1.5
172
     1
173
     1
174
     1
175
     1
176
     2
177
     2
271
     2
178
     3
271
     2
340
153
  0
DIMSTYLE
105
339
102
{ACAD_REACTORS
330
33A
102
}
330
A
100
AcDbSymbolTableRecord
100
AcDbDimStyleTableRecord
  2
ME10_DIM_15
 70
     0
 41
3.5
 42
0.0
 44
1.5
 73
     0
 74
     0
 77
     1
 78
     8
140
3.5
147
1.5
172
     1
173
     1
174
     1
175
     1
176
     2
177
     2
178
     3
340
153
  0
DIMSTYLE
105
344
102
{ACAD_REACTORS
330
345
102
}
330
A
100
AcDbSymbolTableRecord
100
AcDbDimStyleTableRecord
  2
ME10_DIM_16
 70
     0
 41
3.5
 42
0.0
 44
1.5
 73
     0
 74
     0
 77
     1
 78
     8
140
3.5
147
1.5
172
     1
173
     1
174
     1
175
     1
176
     2
177
     2
178
     3
340
153
  0
ENDTAB
  0
TABLE
  2
BLOCK_RECORD
  5
1
330
0
100
AcDbSymbolTable
 70
    24
  0
BLOCK_RECORD
  5
1F
330
1
100
AcDbSymbolTableRecord
100
AcDbBlockTableRecord
  2
*Model_Space
340
22
  0
BLOCK_RECORD
  5
1B
330
1
100
AcDbSymbolTableRecord
100
AcDbBlockTableRecord
  2
*Paper_Space
340
1E
  0
BLOCK_RECORD
  5
23
330
1
100
AcDbSymbolTableRecord
100
AcDbBlockTableRecord
  2
*Paper_Space0
340
26
  0
BLOCK_RECORD
  5
47
330
1
100
AcDbSymbolTableRecord
100
AcDbBlockTableRecord
  2
URKN-A-select__1
340
0
102
{BLKREFS
331
4B
102
}
  0
BLOCK_RECORD
  5
4A
330
1
100
AcDbSymbolTableRecord
100
AcDbBlockTableRecord
  2
AllgSicht1
340
0
102
{BLKREFS
331
7D
102
}
  0
BLOCK_RECORD
  5
4E
330
1
100
AcDbSymbolTableRecord
100
AcDbBlockTableRecord
  2
URKN-A-select__2
340
0
102
{BLKREFS
331
52
102
}
  0
BLOCK_RECORD
  5
51
330
1
100
AcDbSymbolTableRecord
100
AcDbBlockTableRecord
  2
Drfsicht1
340
0
102
{BLKREFS
331
7E
102
}
  0
BLOCK_RECORD
  5
55
330
1
100
AcDbSymbolTableRecord
100
AcDbBlockTableRecord
  2
URKN-A-select__3
340
0
102
{BLKREFS
331
59
102
}
  0
BLOCK_RECORD
  5
58
330
1
100
AcDbSymbolTableRecord
100
AcDbBlockTableRecord
  2
Rckans1
340
0
102
{BLKREFS
331
7F
102
}
  0
BLOCK_RECORD
  5
5C
330
1
100
AcDbSymbolTableRecord
100
AcDbBlockTableRecord
  2
URKN-A-select__4
340
0
102
{BLKREFS
331
60
102
}
  0
BLOCK_RECORD
  5
5F
330
1
100
AcDbSymbolTableRecord
100
AcDbBlockTableRecord
  2
SA_Rechts1
340
0
102
{BLKREFS
331
80
102
}
  0
BLOCK_RECORD
  5
63
330
1
100
AcDbSymbolTableRecord
100
AcDbBlockTableRecord
  2
URKN-A-select__5
340
0
102
{BLKREFS
331
67
102
}
  0
BLOCK_RECORD
  5
66
330
1
100
AcDbSymbolTableRecord
100
AcDbBlockTableRecord
  2
SA_links1
340
0
102
{BLKREFS
331
81
102
}
  0
BLOCK_RECORD
  5
6A
330
1
100
AcDbSymbolTableRecord
100
AcDbBlockTableRecord
  2
URKN-A-select__6
340
0
102
{BLKREFS
331
6E
102
}
  0
BLOCK_RECORD
  5
6D
330
1
100
AcDbSymbolTableRecord
100
AcDbBlockTableRecord
  2
Vordans1
340
0
102
{BLKREFS
331
82
102
}
  0
BLOCK_RECORD
  5
71
330
1
100
AcDbSymbolTableRecord
100
AcDbBlockTableRecord
  2
_rahmen
340
0
102
{BLKREFS
331
78
102
}
  0
BLOCK_RECORD
  5
74
330
1
100
AcDbSymbolTableRecord
100
AcDbBlockTableRecord
  2
_punkt
340
0
102
{BLKREFS
331
79
102
}
  0
BLOCK_RECORD
  5
77
330
1
100
AcDbSymbolTableRecord
100
AcDbBlockTableRecord
  2
A4I_CS
340
0
102
{BLKREFS
331
83
102
}
  0
BLOCK_RECORD
  5
7C
330
1
100
AcDbSymbolTableRecord
100
AcDbBlockTableRecord
  2
1
340
0
102
{BLKREFS
331
86
102
}
  0
BLOCK_RECORD
  5
19D
330
1
100
AcDbSymbolTableRecord
100
AcDbBlockTableRecord
  2
*D17
340
0
  0
BLOCK_RECORD
  5
304
330
1
100
AcDbSymbolTableRecord
100
AcDbBlockTableRecord
  2
*D18
340
0
  0
BLOCK_RECORD
  5
30F
330
1
100
AcDbSymbolTableRecord
100
AcDbBlockTableRecord
  2
*D19
340
0
  0
BLOCK_RECORD
  5
31A
330
1
100
AcDbSymbolTableRecord
100
AcDbBlockTableRecord
  2
*D20
340
0
  0
BLOCK_RECORD
  5
325
330
1
100
AcDbSymbolTableRecord
100
AcDbBlockTableRecord
  2
*D21
340
0
  0
BLOCK_RECORD
  5
330
330
1
100
AcDbSymbolTableRecord
100
AcDbBlockTableRecord
  2
*D22
340
0
  0
BLOCK_RECORD
  5
33B
330
1
100
AcDbSymbolTableRecord
100
AcDbBlockTableRecord
  2
*D23
340
0
  0
ENDTAB
  0
ENDSEC
  0
SECTION
  2
BLOCKS
  0
BLOCK
  5
20
330
1F
100
AcDbEntity
  8
0
100
AcDbBlockBegin
  2
*Model_Space
 70
     0
 10
0.0
 20
0.0
 30
0.0
  3
*Model_Space
  1

  0
ENDBLK
  5
21
330
1F
100
AcDbEntity
  8
0
100
AcDbBlockEnd
  0
BLOCK
  5
1C
330
1B
100
AcDbEntity
 67
     1
  8
0
100
AcDbBlockBegin
  2
*Paper_Space
 70
     0
 10
0.0
 20
0.0
 30
0.0
  3
*Paper_Space
  1

  0
ENDBLK
  5
1D
330
1B
100
AcDbEntity
 67
     1
  8
0
100
AcDbBlockEnd
  0
BLOCK
  5
24
330
23
100
AcDbEntity
  8
0
100
AcDbBlockBegin
  2
*Paper_Space0
 70
     0
 10
0.0
 20
0.0
 30
0.0
  3
*Paper_Space0
  1

  0
ENDBLK
  5
25
330
23
100
AcDbEntity
  8
0
100
AcDbBlockEnd
  0
BLOCK
  5
48
330
47
100
AcDbEntity
  8
0
100
AcDbBlockBegin
  2
URKN-A-select__1
 70
     0
 10
5.11506510991067
 20
36.46341112254336
 30
0.0
  3
URKN-A-select__1
  1

  0
LINE
  5
87
330
47
100
AcDbEntity
  8
0
  6
Continuous
 62
     7
100
AcDbLine
 10
66.60096225518546
 20
47.80726810051755
 30
0.0
 11
66.60096225518546
 21
49.97233160997865
 31
0.0
  0
LINE
  5
88
330
47
100
AcDbEntity
  8
0
  6
Continuous
 62
     7
100
AcDbLine
 10
65.86891144761668
 20
50.33835701376309
 30
0.0
 11
66.60096225518546
 21
49.97233160997865
 31
0.0
  0
LINE
  5
89
330
47
100
AcDbEntity
  8
0
  6
Continuous
 62
     7
100
AcDbLine
 10
66.60096225518546
 20
47.80726810051755
 30
0.0
 11
65.26891144761657
 21
46.65367826203134
 31
0.0
  0
LINE
  5
8A
330
47
100
AcDbEntity
  8
0
  6
Continuous
 62
     7
100
AcDbLine
 10
65.26891144761666
 20
48.81874177149244
 30
0.0
 11
66.60096225518546
 21
49.97233160997865
 31
0.0
  0
LINE
  5
8B
330
47
100
AcDbEntity
  8
0
  6
Continuous
 62
     7
100
AcDbLine
 10
65.26891144761657
 20
46.65367826203134
 30
0.0
 11
64.26891144761657
 21
46.7876528582469
 31
0.0
  0
LINE
  5
8C
330
47
100
AcDbEntity
  8
0
  6
Continuous
 62
     7
100
AcDbLine
 10
65.26891144761666
 20
48.81874177149244
 30
0.0
 11
65.26891144761657
 21
46.65367826203134
 31
0.0
  0
LINE
  5
8D
330
47
100
AcDbEntity
  8
0
  6
Continuous
 62
     7
100
AcDbLine
 10
65.26891144761666
 20
48.81874177149244
 30
0.0
 11
64.26891144761666
 21
48.95271636770801
 31
0.0
  0
LINE
  5
8E
330
47
100
AcDbEntity
  8
0
  6
Continuous
 62
     7
100
AcDbLine
 10
64.26891144761657
 20
46.7876528582469
 30
0.0
 11
64.26891144761666
 21
48.95271636770801
 31
0.0
  0
LINE
  5
8F
330
47
100
AcDbEntity
  8
0
  6
Continuous
 62
     7
100
AcDbLine
 10
53.87660660220337
 20
51.95271636770794
 30
0.0
 11
53.87660660220337
 21
49.78765285824684
 31
0.0
  0
LINE
  5
90
330
47
100
AcDbEntity
  8
0
  6
Continuous
 62
     7
100
AcDbLine
 10
53.87660660220337
 20
49.78765285824684
 30
0.0
 11
53.30160660220338
 21
49.28968825107079
 31
0.0
  0
LINE
  5
91
330
47
100
AcDbEntity
  8
0
  6
Continuous
 62
     7
100
AcDbLine
 10
56.05160660220338
 20
53.17236881137101
 30
0.0
 11
56.05160660220338
 21
53.83632162093907
 31
0.0
  0
LINE
  5
92
330
47
100
AcDbEntity
  8
0
  6
Continuous
 62
     7
100
AcDbLine
 10
53.87660660220337
 20
51.95271636770794
 30
0.0
 11
53.30160660220338
 21
51.45475176053189
 31
0.0
  0
LINE
  5
93
330
47
100
AcDbEntity
  8
0
  6
Continuous
 62
     7
100
AcDbLine
 10
56.05160660220338
 20
53.83632162093907
 30
0.0
 11
55.47660660220336
 21
53.33835701376302
 31
0.0
  0
LINE
  5
94
330
47
100
AcDbEntity
  8
0
  6
Continuous
 62
     7
100
AcDbLine
 10
34.73313391933846
 20
36.46341112254336
 30
0.0
 11
38.03895708095746
 21
39.32633796092441
 31
0.0
  0
LINE
  5
95
330
47
100
AcDbEntity
  8
0
  6
Continuous
 62
     7
100
AcDbLine
 10
8.06519955659226
 20
44.16178066407476
 30
0.0
 11
5.11506510991067
 21
45.01341112254336
 31
0.0
  0
LINE
  5
96
330
47
100
AcDbEntity
  8
0
  6
Continuous
 62
     7
100
AcDbLine
 10
5.11506510991067
 20
45.01341112254336
 30
0.0
 11
5.11506510991067
 21
47.17847463200445
 31
0.0
  0
LINE
  5
97
330
47
100
AcDbEntity
  8
0
  6
Continuous
 62
     7
100
AcDbLine
 10
7.28012861937177
 20
49.2149124597706
 30
0.0
 11
5.22075097644897
 21
47.43143910501367
 31
0.0
  0
LINE
  5
98
330
47
100
AcDbEntity
  8
0
  6
Continuous
 62
     2
100
AcDbLine
 10
6.12293950224627
 20
47.13912166741432
 30
0.0
 11
7.28012861937177
 21
48.14127683982795
 31
0.0
  0
LINE
  5
99
330
47
100
AcDbEntity
  8
0
  6
Continuous
 62
     7
100
AcDbLine
 10
6.12293950224627
 20
47.13912166741432
 30
0.0
 11
6.07814508480897
 21
47.19908684020592
 31
0.0
  0
LINE
  5
9A
330
47
100
AcDbEntity
  8
0
  6
Continuous
 62
     2
100
AcDbLine
 10
6.07814508480897
 20
47.19908684020592
 30
0.0
 11
7.28012861937177
 21
48.24003511606793
 31
0.0
  0
LINE
  5
9B
330
47
100
AcDbEntity
  8
0
  6
Continuous
 62
     7
100
AcDbLine
 10
5.76458416274897
 20
47.42398733389666
 30
0.0
 11
5.54807781180287
 21
47.48648733389666
 31
0.0
  0
LINE
  5
9C
330
47
100
AcDbEntity
  8
0
  6
Continuous
 62
     2
100
AcDbLine
 10
5.76458416274897
 20
47.42398733389666
 30
0.0
 11
7.28012861937177
 21
48.73648733389668
 31
0.0
  0
LINE
  5
9D
330
47
100
AcDbEntity
  8
0
  6
Continuous
 62
     2
100
AcDbLine
 10
5.54807781180287
 20
47.48648733389666
 30
0.0
 11
7.28012861937177
 21
48.98648733389666
 31
0.0
  0
LINE
  5
9E
330
47
100
AcDbEntity
  8
0
  6
Continuous
 62
     7
100
AcDbLine
 10
6.41942717216207
 20
55.07395858734927
 30
0.0
 11
5.52642717670827
 21
58.66446683542232
 31
0.0
  0
LINE
  5
9F
330
47
100
AcDbEntity
  8
0
  6
Continuous
 62
     7
100
AcDbLine
 10
6.02439178388437
 20
45.660237796517
 30
0.0
 11
6.02439178388437
 21
46.19323720340231
 31
0.0
  0
LINE
  5
A0
330
47
100
AcDbEntity
  8
0
  6
Continuous
 62
     2
100
AcDbLine
 10
6.02439178388437
 20
46.19323720340231
 30
0.0
 11
7.28012861937177
 21
47.28073720340233
 31
0.0
  0
LINE
  5
A1
330
47
100
AcDbEntity
  8
0
  6
Continuous
 62
     7
100
AcDbLine
 10
7.28012861937187
 20
45.29773779651697
 30
0.0
 11
6.02439178388437
 21
45.660237796517
 31
0.0
  0
LINE
  5
A2
330
47
100
AcDbEntity
  8
0
  6
Continuous
 62
     7
100
AcDbLine
 10
6.02439178388437
 20
45.660237796517
 30
0.0
 11
7.28012861937177
 21
46.747737796517
 31
0.0
  0
LINE
  5
A3
330
47
100
AcDbEntity
  8
0
  6
Continuous
 62
     7
100
AcDbLine
 10
7.28012861937177
 20
47.33397911885774
 30
0.0
 11
6.14152348519328
 21
46.34791814777977
 31
0.0
  0
LINE
  5
A4
330
47
100
AcDbEntity
  8
0
  6
Continuous
 62
     7
100
AcDbLine
 10
7.28012861937187
 20
45.29773779651697
 30
0.0
 11
7.28012861937177
 21
53.48167786227997
 31
0.0
  0
LINE
  5
A5
330
47
100
AcDbEntity
  8
0
  6
Continuous
 62
     7
100
AcDbLine
 10
9.27222895677777
 20
48.05686576806011
 30
0.0
 11
9.27222895677777
 21
47.88366068730321
 31
0.0
  0
LINE
  5
A6
330
47
100
AcDbEntity
  8
0
  6
Continuous
 62
     7
100
AcDbLine
 10
12.50662173218527
 20
50.68472699662293
 30
0.0
 11
9.27222895677777
 21
47.88366068730321
 31
0.0
  0
LINE
  5
A7
330
47
100
AcDbEntity
  8
0
  6
Continuous
 62
     7
100
AcDbLine
 10
8.06519955659226
 20
44.16178066407476
 30
0.0
 11
13.14019955659227
 21
48.55685958828077
 31
0.0
  0
LINE
  5
A8
330
47
100
AcDbEntity
  8
0
  6
Continuous
 62
     7
100
AcDbLine
 10
64.26891144761666
 20
48.95271636770801
 30
0.0
 11
53.87660660220337
 21
51.95271636770794
 31
0.0
  0
LINE
  5
A9
330
47
100
AcDbEntity
  8
0
  6
Continuous
 62
     7
100
AcDbLine
 10
64.26891144761657
 20
46.7876528582469
 30
0.0
 11
53.87660660220337
 21
49.78765285824684
 31
0.0
  0
LINE
  5
AA
330
47
100
AcDbEntity
  8
0
  6
Continuous
 62
     7
100
AcDbLine
 10
55.47660660220336
 20
53.33835701376302
 30
0.0
 11
65.86891144761668
 21
50.33835701376309
 31
0.0
  0
LINE
  5
AB
330
47
100
AcDbEntity
  8
0
  6
Continuous
 62
     7
100
AcDbLine
 10
43.16551953943917
 20
57.55621453818294
 30
0.0
 11
56.05160660220338
 21
53.83632162093907
 31
0.0
  0
LINE
  5
AC
330
47
100
AcDbEntity
  8
0
  6
Continuous
 62
     7
100
AcDbLine
 10
37.76004236559047
 20
74.78675418404879
 30
0.0
 11
42.83504236559048
 21
79.1818331082548
 31
0.0
  0
LINE
  5
AD
330
47
100
AcDbEntity
  8
0
  6
Continuous
 62
     7
100
AcDbLine
 10
9.18538450769756
 20
50.07379402979136
 30
0.0
 11
9.18538450769756
 21
49.46793296483009
 31
0.0
  0
LINE
  5
AE
330
47
100
AcDbEntity
  8
0
  6
Continuous
 62
     7
100
AcDbLine
 10
8.49256418466997
 20
51.47379402979136
 30
0.0
 11
9.18538450769756
 21
50.07379402979136
 31
0.0
  0
LINE
  5
AF
330
47
100
AcDbEntity
  8
0
  6
Continuous
 62
     7
100
AcDbLine
 10
40.84279348301226
 20
68.55735902784076
 30
0.0
 11
42.76551953943908
 21
64.672056605945
 31
0.0
  0
LINE
  5
B0
330
47
100
AcDbEntity
  8
0
  6
Continuous
 62
     7
100
AcDbLine
 10
36.58185199612478
 20
73.52158707850305
 30
0.0
 11
41.65685199612477
 21
77.91666600270906
 31
0.0
  0
LINE
  5
B1
330
47
100
AcDbEntity
  8
0
  6
Continuous
 62
     7
100
AcDbLine
 10
42.83504236559048
 20
79.1818331082548
 30
0.0
 11
41.65685199612477
 21
77.91666600270906
 31
0.0
  0
LINE
  5
B2
330
47
100
AcDbEntity
  8
0
  6
Continuous
 62
     7
100
AcDbLine
 10
25.09347428331446
 20
75.15732790901555
 30
0.0
 11
27.52347243283307
 21
74.45584786613811
 31
0.0
  0
LINE
  5
B3
330
47
100
AcDbEntity
  8
0
  6
Continuous
 62
     7
100
AcDbLine
 10
35.84051953943907
 20
78.66558375542843
 30
0.0
 11
37.76004236559047
 21
74.78675418404879
 31
0.0
  0
LINE
  5
B4
330
47
100
AcDbEntity
  8
0
  6
Continuous
 62
     7
100
AcDbLine
 10
37.76004236559047
 20
74.78675418404879
 30
0.0
 11
36.58185199612478
 21
73.52158707850305
 31
0.0
  0
LINE
  5
B5
330
47
100
AcDbEntity
  8
0
  6
Continuous
 62
     7
100
AcDbLine
 10
38.00237981862478
 20
39.37347416938417
 30
0.0
 11
38.00237981862478
 21
39.76318560108715
 31
0.0
  0
LINE
  5
B6
330
47
100
AcDbEntity
  8
0
  6
Continuous
 62
     7
100
AcDbLine
 10
39.09207059403556
 20
68.44912323720321
 30
0.0
 11
38.86348385247786
 21
68.91103439590339
 31
0.0
  0
LINE
  5
B7
330
47
100
AcDbEntity
  8
0
  6
Continuous
 62
     7
100
AcDbLine
 10
35.55076525456738
 20
73.75183644169091
 30
0.0
 11
38.28957059403567
 21
68.2174614416909
 31
0.0
  0
LINE
  5
B8
330
47
100
AcDbEntity
  8
0
  6
Continuous
 62
     7
100
AcDbLine
 10
27.52347243283307
 20
69.46176803764786
 30
0.0
 11
20.76847428331448
 21
71.41176803764786
 31
0.0
  0
LINE
  5
B9
330
47
100
AcDbEntity
  8
0
  6
Continuous
 62
     7
100
AcDbLine
 10
20.76847428331448
 20
71.41176803764786
 30
0.0
 11
25.09347428331446
 21
75.15732790901555
 31
0.0
  0
LINE
  5
BA
330
47
100
AcDbEntity
  8
0
  6
Continuous
 62
     7
100
AcDbLine
 10
35.84051953943907
 20
78.66558375542843
 30
0.0
 11
40.91551953943917
 21
83.06066267963446
 31
0.0
  0
LINE
  5
BB
330
47
100
AcDbEntity
  8
0
  6
Continuous
 62
     7
100
AcDbLine
 10
40.91551953943917
 20
83.06066267963446
 30
0.0
 11
42.83504236559048
 21
79.1818331082548
 31
0.0
  0
LINE
  5
BC
330
47
100
AcDbEntity
  8
0
  6
Continuous
 62
     7
100
AcDbLine
 10
26.95542890145097
 20
80.16239049323596
 30
0.0
 11
27.52347243283307
 21
79.99841045035852
 31
0.0
  0
LINE
  5
BD
330
47
100
AcDbEntity
  8
0
  6
Continuous
 62
     7
100
AcDbLine
 10
27.52347243283307
 20
80.65433062186827
 30
0.0
 11
26.95542890145097
 21
80.16239049323596
 31
0.0
  0
LINE
  5
BE
330
47
100
AcDbEntity
  8
0
  6
Continuous
 62
     7
100
AcDbLine
 10
36.58185199612478
 20
73.52158707850305
 30
0.0
 11
36.35326525456716
 21
73.98349823720328
 31
0.0
  0
LINE
  5
BF
330
47
100
AcDbEntity
  8
0
  6
Continuous
 62
     7
100
AcDbLine
 10
34.73313391933846
 20
37.56759351236855
 30
0.0
 11
34.73313391933846
 21
36.46341112254336
 31
0.0
  0
LINE
  5
C0
330
47
100
AcDbEntity
  8
0
  6
Continuous
 62
     7
100
AcDbLine
 10
34.71148328424388
 20
43.97647494683545
 30
0.0
 11
34.71148328424388
 21
45.12991516038775
 31
0.0
  0
LINE
  5
C1
330
47
100
AcDbEntity
  8
0
  6
Continuous
 62
     7
100
AcDbLine
 10
33.41244517856728
 20
45.50491516038775
 30
0.0
 11
33.41244517856728
 21
44.5744729831271
 31
0.0
  0
LINE
  5
C2
330
47
100
AcDbEntity
  8
0
  6
Continuous
 62
     7
100
AcDbLine
 10
34.73313391933846
 20
36.46341112254336
 30
0.0
 11
32.17835897817437
 21
37.20091112254336
 31
0.0
  0
LINE
  5
C3
330
47
100
AcDbEntity
  8
0
  6
Continuous
 62
     7
100
AcDbLine
 10
34.47332629820318
 20
39.4828974954105
 30
0.0
 11
34.47332629820318
 21
39.04988479351827
 31
0.0
  0
LINE
  5
C4
330
47
100
AcDbEntity
  8
0
  6
Continuous
 62
     7
100
AcDbLine
 10
34.47332629820318
 20
39.04988479351827
 30
0.0
 11
33.73720470498637
 21
39.26238479351827
 31
0.0
  0
LINE
  5
C5
330
47
100
AcDbEntity
  8
0
  6
Continuous
 62
     7
100
AcDbLine
 10
33.73720470498637
 20
39.26238479351827
 30
0.0
 11
33.73720470498637
 21
37.96334668784161
 31
0.0
  0
LINE
  5
C6
330
47
100
AcDbEntity
  8
0
  6
Continuous
 62
     7
100
AcDbLine
 10
34.27847058235167
 20
45.68792786227997
 30
0.0
 11
33.84545788045946
 21
45.81292786227997
 31
0.0
  0
LINE
  5
C7
330
47
100
AcDbEntity
  8
0
  6
Continuous
 62
     7
100
AcDbLine
 10
18.38690442290717
 20
50.27542786227997
 30
0.0
 11
18.28937454881637
 21
50.30358231181015
 31
0.0
  0
LINE
  5
C8
330
47
100
AcDbEntity
  8
0
  6
Continuous
 62
     7
100
AcDbLine
 10
18.81991712479947
 20
47.68225546149435
 30
0.0
 11
18.81991712479947
 21
49.71741516038775
 31
0.0
  0
LINE
  5
C9
330
47
100
AcDbEntity
  8
0
  6
Continuous
 62
     7
100
AcDbLine
 10
32.17835897817437
 20
38.62985303878772
 30
0.0
 11
31.62410271975236
 21
38.78985303878775
 31
0.0
  0
LINE
  5
CA
330
47
100
AcDbEntity
  8
0
  6
Continuous
 62
     7
100
AcDbLine
 10
32.17835897817437
 20
37.20091112254336
 30
0.0
 11
32.17835897817437
 21
38.62985303878772
 31
0.0
  0
LINE
  5
CB
330
47
100
AcDbEntity
  8
0
  6
Continuous
 62
     7
100
AcDbLine
 10
33.41244517856728
 20
44.5744729831271
 30
0.0
 11
34.47332629820318
 21
39.4828974954105
 31
0.0
  0
LINE
  5
CC
330
47
100
AcDbEntity
  8
0
  6
Continuous
 62
     7
100
AcDbLine
 10
36.35326525456716
 20
73.98349823720328
 30
0.0
 11
35.55076525456738
 21
73.75183644169091
 31
0.0
  0
LINE
  5
CD
330
47
100
AcDbEntity
  8
0
  6
Continuous
 62
     7
100
AcDbLine
 10
27.52347243283307
 20
81.06650844835934
 30
0.0
 11
35.84051953943907
 21
78.66558375542843
 31
0.0
  0
LINE
  5
CE
330
47
100
AcDbEntity
  8
0
  6
Continuous
 62
     7
100
AcDbLine
 10
30.73651781469647
 20
85.99908737256536
 30
0.0
 11
40.91551953943917
 21
83.06066267963446
 31
0.0
  0
LINE
  5
CF
330
47
100
AcDbEntity
  8
0
  6
Continuous
 62
     7
100
AcDbLine
 10
33.73720470498637
 20
37.96334668784161
 30
0.0
 11
34.73313391933846
 21
37.56759351236855
 31
0.0
  0
LINE
  5
D0
330
47
100
AcDbEntity
  8
0
  6
Continuous
 62
     7
100
AcDbLine
 10
41.82600355865577
 20
37.44696493799552
 30
0.0
 11
38.82510395221996
 21
38.3132500357889
 31
0.0
  0
LINE
  5
D1
330
47
100
AcDbEntity
  8
0
  6
Continuous
 62
     7
100
AcDbLine
 10
41.01485199612486
 20
77.36067769347956
 30
0.0
 11
43.29648385247788
 21
72.7501250108798
 31
0.0
  0
LINE
  5
D2
330
47
100
AcDbEntity
  8
0
  6
Continuous
 62
     7
100
AcDbLine
 10
43.16551953943906
 20
64.1311607878113
 30
0.0
 11
47.44051953943907
 21
67.83341938898977
 31
0.0
  0
LINE
  5
D3
330
47
100
AcDbEntity
  8
0
  6
Continuous
 62
     7
100
AcDbLine
 10
47.44051953943918
 20
56.32212833779013
 30
0.0
 11
47.44051953943907
 21
67.83341938898977
 31
0.0
  0
LINE
  5
D4
330
47
100
AcDbEntity
  8
0
  6
Continuous
 62
     7
100
AcDbLine
 10
45.91779348301228
 20
72.9524379520468
 30
0.0
 11
47.84051953943907
 21
69.06713553015102
 31
0.0
  0
LINE
  5
D5
330
47
100
AcDbEntity
  8
0
  6
Continuous
 62
     7
100
AcDbLine
 10
43.38912964153627
 20
57.49166386186329
 30
0.0
 11
43.38912964153627
 21
64.32481281677029
 31
0.0
  0
LINE
  5
D6
330
47
100
AcDbEntity
  8
0
  6
Continuous
 62
     7
100
AcDbLine
 10
43.93848385247787
 20
73.30611332010942
 30
0.0
 11
45.91779348301228
 21
72.9524379520468
 31
0.0
  0
LINE
  5
D7
330
47
100
AcDbEntity
  8
0
  6
Continuous
 62
     7
100
AcDbLine
 10
38.28957059403567
 20
68.2174614416909
 30
0.0
 11
39.09207059403556
 21
68.44912323720321
 31
0.0
  0
LINE
  5
D8
330
47
100
AcDbEntity
  8
0
  6
Continuous
 62
     7
100
AcDbLine
 10
38.93157059403546
 20
68.77344975092042
 30
0.0
 11
38.28957059403567
 21
68.2174614416909
 31
0.0
  0
LINE
  5
D9
330
47
100
AcDbEntity
  8
0
  6
Continuous
 62
     7
100
AcDbLine
 10
38.86348385247786
 20
68.91103439590339
 30
0.0
 11
40.84279348301226
 21
68.55735902784076
 31
0.0
  0
LINE
  5
DA
330
47
100
AcDbEntity
  8
0
  6
Continuous
 62
     7
100
AcDbLine
 10
9.18538450769756
 20
49.46793296483009
 30
0.0
 11
8.20106663559767
 21
49.57851926059787
 31
0.0
  0
LINE
  5
DB
330
47
100
AcDbEntity
  8
0
  6
Continuous
 62
     7
100
AcDbLine
 10
17.58583092440657
 20
49.12103721622491
 30
0.0
 11
12.56288358245686
 21
50.57103721622489
 31
0.0
  0
LINE
  5
DC
330
47
100
AcDbEntity
  8
0
  6
Continuous
 62
     7
100
AcDbLine
 10
40.84279348301226
 20
68.55735902784076
 30
0.0
 11
45.91779348301228
 21
72.9524379520468
 31
0.0
  0
LINE
  5
DD
330
47
100
AcDbEntity
  8
0
  6
Continuous
 62
     7
100
AcDbLine
 10
53.30160660220338
 20
49.28968825107079
 30
0.0
 11
43.16551953943917
 21
52.21572454817892
 31
0.0
  0
LINE
  5
DE
330
47
100
AcDbEntity
  8
0
  6
Continuous
 62
     7
100
AcDbLine
 10
53.30160660220338
 20
49.28968825107079
 30
0.0
 11
53.30160660220338
 21
51.45475176053189
 31
0.0
  0
LINE
  5
DF
330
47
100
AcDbEntity
  8
0
  6
Continuous
 62
     7
100
AcDbLine
 10
43.16551953943917
 20
54.38078805764003
 30
0.0
 11
53.30160660220338
 21
51.45475176053189
 31
0.0
  0
LINE
  5
E0
330
47
100
AcDbEntity
  8
0
  6
Continuous
 62
     7
100
AcDbLine
 10
43.15724983776178
 20
48.16874113148023
 30
0.0
 11
43.16551953943917
 21
48.26087699693591
 31
0.0
  0
LINE
  5
E1
330
47
100
AcDbEntity
  8
0
  6
Continuous
 62
     7
100
AcDbLine
 10
43.16551953943917
 20
48.26087699693591
 30
0.0
 11
43.16551953943906
 21
64.1311607878113
 31
0.0
  0
LINE
  5
E2
330
47
100
AcDbEntity
  8
0
  6
Continuous
 62
     7
100
AcDbLine
 10
42.76551953943917
 20
47.91446683542223
 30
0.0
 11
43.16551953943917
 21
48.26087699693591
 31
0.0
  0
LINE
  5
E3
330
47
100
AcDbEntity
  8
0
  6
Continuous
 62
     7
100
AcDbLine
 10
42.76551953943908
 20
64.672056605945
 30
0.0
 11
42.76551953943917
 21
47.91446683542223
 31
0.0
  0
LINE
  5
E4
330
47
100
AcDbEntity
  8
0
  6
Continuous
 62
     7
100
AcDbLine
 10
12.56288358245686
 20
50.57103721622489
 30
0.0
 11
12.31288358245686
 21
51.07621870176581
 31
0.0
  0
LINE
  5
E5
330
47
100
AcDbEntity
  8
0
  6
Continuous
 62
     7
100
AcDbLine
 10
8.49256418466997
 20
52.5231047495906
 30
0.0
 11
8.49256418466997
 21
51.47379402979136
 31
0.0
  0
LINE
  5
E6
330
47
100
AcDbEntity
  8
0
  6
Continuous
 62
     7
100
AcDbLine
 10
12.31288358245686
 20
51.07621870176581
 30
0.0
 11
8.49256418466997
 21
52.5231047495906
 31
0.0
  0
LINE
  5
E7
330
47
100
AcDbEntity
  8
0
  6
Continuous
 62
     7
100
AcDbLine
 10
12.44662173218526
 20
50.80597055315275
 30
0.0
 11
9.27222895677777
 21
48.05686576806011
 31
0.0
  0
LINE
  5
E8
330
47
100
AcDbEntity
  8
0
  6
Continuous
 62
     7
100
AcDbLine
 10
38.86348385247786
 20
68.91103439590339
 30
0.0
 11
43.93848385247787
 21
73.30611332010942
 31
0.0
  0
LINE
  5
E9
330
47
100
AcDbEntity
  8
0
  6
Continuous
 62
     7
100
AcDbLine
 10
31.84847243283306
 20
84.81206831972703
 30
0.0
 11
29.98651781469647
 21
85.34956831972704
 31
0.0
  0
LINE
  5
EA
330
47
100
AcDbEntity
  8
0
  6
Continuous
 62
     7
100
AcDbLine
 10
30.73651781469647
 20
85.99908737256536
 30
0.0
 11
29.98651781469647
 21
85.34956831972704
 31
0.0
  0
LINE
  5
EB
330
47
100
AcDbEntity
  8
0
  6
Continuous
 62
     7
100
AcDbLine
 10
29.98651781469647
 20
85.34956831972704
 30
0.0
 11
29.98651781469647
 21
83.19956831972704
 31
0.0
  0
LINE
  5
EC
330
47
100
AcDbEntity
  8
0
  6
Continuous
 62
     7
100
AcDbLine
 10
25.09347428331446
 20
75.15732790901555
 30
0.0
 11
25.09347428331446
 21
86.76206831972704
 31
0.0
  0
LINE
  5
ED
330
47
100
AcDbEntity
  8
0
  6
Continuous
 62
     7
100
AcDbLine
 10
26.95542890145097
 20
86.22456831972704
 30
0.0
 11
27.70542890145097
 21
86.87408737256536
 31
0.0
  0
LINE
  5
EE
330
47
100
AcDbEntity
  8
0
  6
Continuous
 62
     7
100
AcDbLine
 10
26.95542890145097
 20
86.22456831972704
 30
0.0
 11
26.95542890145097
 21
80.16239049323596
 31
0.0
  0
LINE
  5
EF
330
47
100
AcDbEntity
  8
0
  6
Continuous
 62
     7
100
AcDbLine
 10
26.95542890145097
 20
86.22456831972704
 30
0.0
 11
25.09347428331446
 21
86.76206831972704
 31
0.0
  0
LINE
  5
F0
330
47
100
AcDbEntity
  8
0
  6
Continuous
 62
     7
100
AcDbLine
 10
9.42846286366967
 20
77.40819304164873
 30
0.0
 11
9.19987612211197
 21
77.07825649972006
 31
0.0
  0
LINE
  5
F1
330
47
100
AcDbEntity
  8
0
  6
Continuous
 62
     7
100
AcDbLine
 10
9.42846286366967
 20
77.40819304164873
 30
0.0
 11
12.63846286366928
 21
80.18813458779647
 31
0.0
  0
LINE
  5
F2
330
47
100
AcDbEntity
  8
0
  6
Continuous
 62
     7
100
AcDbLine
 10
9.19987612211197
 20
77.07825649972006
 30
0.0
 11
10.00237612211187
 21
76.38327111318307
 31
0.0
  0
LINE
  5
F3
330
47
100
AcDbEntity
  8
0
  6
Continuous
 62
     7
100
AcDbLine
 10
11.71009472002257
 20
80.70144495779131
 30
0.0
 11
12.01487704209947
 21
80.9653941913343
 31
0.0
  0
LINE
  5
F4
330
47
100
AcDbEntity
  8
0
  6
Continuous
 62
     7
100
AcDbLine
 10
11.93868146158027
 20
81.03138149972006
 30
0.0
 11
11.71009472002257
 21
80.70144495779131
 31
0.0
  0
LINE
  5
F5
330
47
100
AcDbEntity
  8
0
  6
Continuous
 62
     7
100
AcDbLine
 10
12.74118146158027
 20
80.33639611318306
 30
0.0
 11
11.93868146158027
 21
81.03138149972006
 31
0.0
  0
LINE
  5
F6
330
47
100
AcDbEntity
  8
0
  6
Continuous
 62
     7
100
AcDbLine
 10
10.00237612211187
 20
76.38327111318307
 30
0.0
 11
12.74118146158027
 21
80.33639611318306
 31
0.0
  0
LINE
  5
F7
330
47
100
AcDbEntity
  8
0
  6
Continuous
 62
     7
100
AcDbLine
 10
12.40987612211187
 20
79.85819804586802
 30
0.0
 11
9.19987612211197
 21
77.07825649972006
 31
0.0
  0
LINE
  5
F8
330
47
100
AcDbEntity
  8
0
  6
Continuous
 62
     7
100
AcDbLine
 10
11.24219484168557
 20
54.11327994003813
 30
0.0
 11
8.54202010790597
 21
54.89275324474142
 31
0.0
  0
LINE
  5
F9
330
47
100
AcDbEntity
  8
0
  6
Continuous
 62
     7
100
AcDbLine
 10
8.60138061501436
 20
54.87561734236228
 30
0.0
 11
8.42063792524117
 21
54.7190895814703
 31
0.0
  0
LINE
  5
FA
330
47
100
AcDbEntity
  8
0
  6
Continuous
 62
     2
100
AcDbLine
 10
11.69219484168556
 20
53.59366469776742
 30
0.0
 11
11.24219484168557
 21
53.20395326606441
 31
0.0
  0
LINE
  5
FB
330
47
100
AcDbEntity
  8
0
  6
Continuous
 62
     7
100
AcDbLine
 10
27.52347243283307
 20
81.06650844835934
 30
0.0
 11
27.52347243283307
 21
69.46176803764786
 31
0.0
  0
LINE
  5
FC
330
47
100
AcDbEntity
  8
0
  6
Continuous
 62
     7
100
AcDbLine
 10
8.20106663559767
 20
49.57851926059787
 30
0.0
 11
8.38431100919696
 21
48.48639068184401
 31
0.0
  0
LINE
  5
FD
330
47
100
AcDbEntity
  8
0
  6
Continuous
 62
     7
100
AcDbLine
 10
25.09347428331446
 20
86.76206831972704
 30
0.0
 11
20.76847428331448
 21
83.01650844835933
 31
0.0
  0
LINE
  5
FE
330
47
100
AcDbEntity
  8
0
  6
Continuous
 62
     7
100
AcDbLine
 10
27.52347243283307
 20
81.06650844835934
 30
0.0
 11
31.84847243283306
 21
84.81206831972703
 31
0.0
  0
LINE
  5
FF
330
47
100
AcDbEntity
  8
0
  6
Continuous
 62
     7
100
AcDbLine
 10
47.71424037400337
 20
50.90262194902688
 30
0.0
 11
46.90100355865576
 21
41.84204386220154
 31
0.0
  0
LINE
  5
100
330
47
100
AcDbEntity
  8
0
  6
Continuous
 62
     7
100
AcDbLine
 10
47.84051953943907
 20
69.06713553015102
 30
0.0
 11
47.84051953943916
 21
56.20665828395221
 31
0.0
  0
LINE
  5
101
330
47
100
AcDbEntity
  8
0
  6
Continuous
 62
     7
100
AcDbLine
 10
46.66410771073657
 20
51.20576913693783
 30
0.0
 11
43.15724983776178
 21
48.16874113148023
 31
0.0
  0
LINE
  5
102
330
47
100
AcDbEntity
  8
0
  6
Continuous
 62
     7
100
AcDbLine
 10
42.76551953943908
 20
64.672056605945
 30
0.0
 11
47.84051953943907
 21
69.06713553015102
 31
0.0
  0
LINE
  5
103
330
47
100
AcDbEntity
  8
0
  6
Continuous
 62
     7
100
AcDbLine
 10
37.41220470498638
 20
41.14599004674942
 30
0.0
 11
33.73720470498637
 21
37.96334668784161
 31
0.0
  0
LINE
  5
104
330
47
100
AcDbEntity
  8
0
  6
Continuous
 62
     7
100
AcDbLine
 10
38.50188391933847
 20
40.83142675288114
 30
0.0
 11
34.73313391933846
 21
37.56759351236855
 31
0.0
  0
LINE
  5
105
330
47
100
AcDbEntity
  8
0
  6
Continuous
 62
     7
100
AcDbLine
 10
42.76551953943917
 20
47.91446683542223
 30
0.0
 11
41.82600355865577
 21
37.44696493799552
 31
0.0
  0
LINE
  5
106
330
47
100
AcDbEntity
  8
0
  6
Continuous
 62
     7
100
AcDbLine
 10
36.64832629820316
 20
41.36650274864164
 30
0.0
 11
34.47332629820318
 21
39.4828974954105
 31
0.0
  0
LINE
  5
107
330
47
100
AcDbEntity
  8
0
  6
Continuous
 62
     7
100
AcDbLine
 10
37.02332629820316
 20
41.25824957316857
 30
0.0
 11
34.47332629820318
 21
39.04988479351827
 31
0.0
  0
LINE
  5
108
330
47
100
AcDbEntity
  8
0
  6
Continuous
 62
     7
100
AcDbLine
 10
38.82510395221996
 20
38.3132500357889
 30
0.0
 11
38.00237981862478
 21
39.37347416938417
 31
0.0
  0
LINE
  5
109
330
47
100
AcDbEntity
  8
0
  6
Continuous
 62
     7
100
AcDbLine
 10
38.00237981862478
 20
39.76318560108715
 30
0.0
 11
38.69520014165238
 21
39.73639068184402
 31
0.0
  0
LINE
  5
10A
330
47
100
AcDbEntity
  8
0
  6
Continuous
 62
     7
100
AcDbLine
 10
38.69520014165227
 20
40.36318560108711
 30
0.0
 11
38.00237981862478
 21
39.76318560108715
 31
0.0
  0
LINE
  5
10B
330
47
100
AcDbEntity
  8
0
  6
Continuous
 62
     7
100
AcDbLine
 10
38.69520014165238
 20
39.73639068184402
 30
0.0
 11
38.69520014165227
 21
40.77562116638534
 31
0.0
  0
LINE
  5
10C
330
47
100
AcDbEntity
  8
0
  6
Continuous
 62
     2
100
AcDbLine
 10
33.78359892304627
 20
45.82634373181632
 30
0.0
 11
33.41244517856728
 21
45.50491516038775
 31
0.0
  0
LINE
  5
10D
330
47
100
AcDbEntity
  8
0
  6
Continuous
 62
     7
100
AcDbLine
 10
33.41244517856728
 20
44.5744729831271
 30
0.0
 11
34.52594992535606
 21
45.53879638108079
 31
0.0
  0
LINE
  5
10E
330
47
100
AcDbEntity
  8
0
  6
Continuous
 62
     2
100
AcDbLine
 10
20.53193521472657
 20
45.72143975364365
 30
0.0
 11
19.51021125843727
 21
44.83660085184194
 31
0.0
  0
LINE
  5
10F
330
47
100
AcDbEntity
  8
0
  6
Continuous
 62
     7
100
AcDbLine
 10
35.16614662123078
 20
41.79437116638532
 30
0.0
 11
34.71148328424388
 21
43.97647494683545
 31
0.0
  0
LINE
  5
110
330
47
100
AcDbEntity
  8
0
  6
Continuous
 62
     2
100
AcDbLine
 10
18.81991712479947
 20
47.72244784035902
 30
0.0
 11
18.56010950366407
 21
47.49744784035902
 31
0.0
  0
LINE
  5
111
330
47
100
AcDbEntity
  8
0
  6
Continuous
 62
     7
100
AcDbLine
 10
17.87111639694747
 20
50.10338227222503
 30
0.0
 11
17.58583092440657
 21
49.12103721622491
 31
0.0
  0
LINE
  5
112
330
47
100
AcDbEntity
  8
0
  6
Continuous
 62
     7
100
AcDbLine
 10
18.81991712479947
 20
48.04224301658251
 30
0.0
 11
18.10185193416847
 21
47.42038031992282
 31
0.0
  0
LINE
  5
113
330
47
100
AcDbEntity
  8
0
  6
Continuous
 62
     7
100
AcDbLine
 10
20.70824711873996
 20
45.70030409141504
 30
0.0
 11
19.42818875459646
 21
44.59174102974002
 31
0.0
  0
LINE
  5
114
330
47
100
AcDbEntity
  8
0
  6
Continuous
 62
     7
100
AcDbLine
 10
38.69520014165227
 20
40.77562116638534
 30
0.0
 11
35.16614662123078
 21
41.79437116638532
 31
0.0
  0
LINE
  5
115
330
47
100
AcDbEntity
  8
0
  6
Continuous
 62
     7
100
AcDbLine
 10
41.82600355865577
 20
37.44696493799552
 30
0.0
 11
46.90100355865576
 21
41.84204386220154
 31
0.0
  0
LINE
  5
116
330
47
100
AcDbEntity
  8
0
  6
Continuous
 62
     7
100
AcDbLine
 10
17.52642717670837
 20
89.81251206549626
 30
0.0
 11
27.70542890145097
 21
86.87408737256536
 31
0.0
  0
LINE
  5
117
330
47
100
AcDbEntity
  8
0
  6
Continuous
 62
     7
100
AcDbLine
 10
27.70542890145097
 20
86.87408737256536
 30
0.0
 11
27.70542890145097
 21
81.22408737256536
 31
0.0
  0
LINE
  5
118
330
47
100
AcDbEntity
  8
0
  6
Continuous
 62
     7
100
AcDbLine
 10
5.52642717670827
 20
58.66446683542232
 30
0.0
 11
5.52642717670837
 21
75.42205660594496
 31
0.0
  0
LINE
  5
119
330
47
100
AcDbEntity
  8
0
  6
Continuous
 62
     7
100
AcDbLine
 10
5.52642717670837
 20
75.42205660594496
 30
0.0
 11
7.44915323313526
 21
78.19727262158477
 31
0.0
  0
LINE
  5
11A
330
47
100
AcDbEntity
  8
0
  6
Continuous
 62
     7
100
AcDbLine
 10
7.88585145213017
 20
54.65063836095639
 30
0.0
 11
6.41942717216207
 21
55.07395858734927
 31
0.0
  0
LINE
  5
11B
330
47
100
AcDbEntity
  8
0
  6
Continuous
 62
     7
100
AcDbLine
 10
11.66021494506587
 20
51.32340671066395
 30
0.0
 11
8.38431100919696
 21
48.48639068184401
 31
0.0
  0
LINE
  5
11C
330
47
100
AcDbEntity
  8
0
  6
Continuous
 62
     7
100
AcDbLine
 10
8.22415787070116
 20
54.62210683137907
 30
0.0
 11
7.49150035244827
 21
53.98760680829842
 31
0.0
  0
LINE
  5
11D
330
47
100
AcDbEntity
  8
0
  6
Continuous
 62
     7
100
AcDbLine
 10
8.14615402315627
 20
54.09770326606441
 30
0.0
 11
11.24219484168557
 21
53.20395326606441
 31
0.0
  0
LINE
  5
11E
330
47
100
AcDbEntity
  8
0
  6
Continuous
 62
     2
100
AcDbLine
 10
8.93365402315627
 20
54.77969827154465
 30
0.0
 11
8.14615402315627
 21
54.09770326606441
 31
0.0
  0
LINE
  5
11F
330
47
100
AcDbEntity
  8
0
  6
Continuous
 62
     7
100
AcDbLine
 10
7.44915323313526
 20
78.19727262158477
 30
0.0
 11
9.42846286366967
 21
77.40819304164873
 31
0.0
  0
LINE
  5
120
330
47
100
AcDbEntity
  8
0
  6
Continuous
 62
     7
100
AcDbLine
 10
10.53190435055697
 20
82.64684059030483
 30
0.0
 11
12.45142717670836
 21
85.41743314129023
 31
0.0
  0
LINE
  5
121
330
47
100
AcDbEntity
  8
0
  6
Continuous
 62
     2
100
AcDbLine
 10
18.11870093636257
 20
50.31779677294283
 30
0.0
 11
17.87111639694747
 21
50.10338227222503
 31
0.0
  0
LINE
  5
122
330
47
100
AcDbEntity
  8
0
  6
Continuous
 62
     7
100
AcDbLine
 10
11.71009472002257
 20
80.70144495779131
 30
0.0
 11
10.53190435055697
 21
82.64684059030483
 31
0.0
  0
LINE
  5
123
330
47
100
AcDbEntity
  8
0
  6
Continuous
 62
     7
100
AcDbLine
 10
8.38431100919696
 20
48.48639068184401
 30
0.0
 11
9.27222895677777
 21
48.05686576806011
 31
0.0
  0
LINE
  5
124
330
47
100
AcDbEntity
  8
0
  6
Continuous
 62
     7
100
AcDbLine
 10
9.33554673342127
 20
52.2038383319569
 30
0.0
 11
8.49256418466997
 21
51.47379402979136
 31
0.0
  0
LINE
  5
125
330
47
100
AcDbEntity
  8
0
  6
Continuous
 62
     7
100
AcDbLine
 10
10.94228253216068
 20
51.59531235083514
 30
0.0
 11
9.18538450769756
 21
50.07379402979136
 31
0.0
  0
LINE
  5
126
330
47
100
AcDbEntity
  8
0
  6
Continuous
 62
     7
100
AcDbLine
 10
11.42901186322857
 20
51.41097125134564
 30
0.0
 11
9.18538450769756
 21
49.46793296483009
 31
0.0
  0
LINE
  5
127
330
47
100
AcDbEntity
  8
0
  6
Continuous
 62
     7
100
AcDbLine
 10
20.76847428331448
 20
71.41176803764786
 30
0.0
 11
20.76847428331448
 21
83.01650844835933
 31
0.0
  0
LINE
  5
128
330
47
100
AcDbEntity
  8
0
  6
Continuous
 62
     7
100
AcDbLine
 10
18.68380266925617
 20
50.07190863990211
 30
0.0
 11
17.58583092440657
 21
49.12103721622491
 31
0.0
  0
LINE
  5
129
330
47
100
AcDbEntity
  8
0
  6
Continuous
 62
     7
100
AcDbLine
 10
12.45142717670836
 20
85.41743314129023
 30
0.0
 11
20.76847428331448
 21
83.01650844835933
 31
0.0
  0
LINE
  5
12A
330
47
100
AcDbEntity
  8
0
  6
Continuous
 62
     7
100
AcDbLine
 10
7.44915323313526
 20
78.19727262158477
 30
0.0
 11
11.23897117592956
 21
81.47935123576278
 31
0.0
  0
LINE
  5
12B
330
47
100
AcDbEntity
  8
0
  6
Continuous
 62
     7
100
AcDbLine
 10
12.45142717670836
 20
85.41743314129023
 30
0.0
 11
17.52642717670837
 21
89.81251206549626
 31
0.0
  0
SPLINE
  5
12C
330
47
100
AcDbEntity
  8
0
  6
Continuous
 62
     7
100
AcDbSpline
210
0.0
220
0.0
230
1.0
 70
     8
 71
     3
 72
     9
 73
     5
 74
     3
 42
0.000000001
 43
0.0000000001
 44
0.00000001
 40
0.0
 40
0.0
 40
0.0
 40
0.0
 40
0.1347351597551421
 40
0.2806984683898252
 40
0.2806984683898252
 40
0.2806984683898252
 40
0.2806984683898252
 10
5.220750976448969
 20
47.43143910501367
 30
0.0
 10
5.190358492747808
 20
47.39673763872357
 30
0.0
 10
5.12704078567417
 20
47.32444285129971
 30
0.0
 10
5.119162047293393
 20
47.22841115369303
 30
0.0
 10
5.115065109910674
 20
47.17847463200445
 30
0.0
 11
5.220750976448969
 21
47.43143910501367
 31
0.0
 11
5.142346650631721
 21
47.32186572527967
 31
0.0
 11
5.115065109910674
 21
47.17847463200445
 31
0.0
  0
SPLINE
  5
12D
330
47
100
AcDbEntity
  8
0
  6
Continuous
 62
     7
100
AcDbSpline
210
0.0
220
0.0
230
1.0
 70
     8
 71
     3
 72
    11
 73
     7
 74
     5
 42
0.000000001
 43
0.0000000001
 44
0.00000001
 40
0.0
 40
0.0
 40
0.0
 40
0.0
 40
0.0935705952108654
 40
0.1815181363975431
 40
0.2647690944695545
 40
0.3453217744505553
 40
0.3453217744505553
 40
0.3453217744505553
 40
0.3453217744505553
 10
5.54807781180287
 20
47.48648733389666
 30
0.0
 10
5.517547504546528
 20
47.49352773421318
 30
0.0
 10
5.458321583399021
 20
47.50718543293332
 30
0.0
 10
5.369289307792558
 20
47.50271194385877
 30
0.0
 10
5.287052072275853
 20
47.47974732939547
 30
0.0
 10
5.242607298271897
 20
47.44736403782655
 30
0.0
 10
5.220750976448969
 20
47.43143910501367
 30
0.0
 11
5.54807781180287
 21
47.48648733389666
 31
0.0
 11
5.456005370660876
 21
47.50316432217735
 31
0.0
 11
5.368143884009619
 21
47.49927464798214
 31
0.0
 11
5.288511773694752
 21
47.47499606688518
 31
0.0
 11
5.220750976448969
 21
47.43143910501367
 31
0.0
  0
SPLINE
  5
12E
330
47
100
AcDbEntity
  8
0
  6
Continuous
 62
     7
100
AcDbSpline
210
0.0
220
0.0
230
1.0
 70
     8
 71
     3
 72
    11
 73
     7
 74
     5
 42
0.000000001
 43
0.0000000001
 44
0.00000001
 40
0.0
 40
0.0
 40
0.0
 40
0.0
 40
0.1010495858332015
 40
0.201156214691924
 40
0.2986299914395343
 40
0.3920887822125186
 40
0.3920887822125186
 40
0.3920887822125186
 40
0.3920887822125186
 10
6.078145084808966
 20
47.19908684020592
 30
0.0
 10
6.05678745088455
 20
47.22523051575497
 30
0.0
 10
6.014271473382412
 20
47.27727389390217
 30
0.0
 10
5.937181969168108
 20
47.34099611426039
 30
0.0
 10
5.854327909220565
 20
47.3926452756605
 30
0.0
 10
5.794076418067491
 20
47.413687479586
 30
0.0
 10
5.764584162748974
 20
47.42398733389666
 30
0.0
 11
6.078145084808966
 21
47.19908684020592
 31
0.0
 11
6.011697251893778
 21
47.27521636395852
 31
0.0
 11
5.935156222554319
 21
47.33973619256096
 31
0.0
 11
5.851648234396985
 21
47.39001097169621
 31
0.0
 11
5.764584162748974
 21
47.42398733389666
 31
0.0
  0
SPLINE
  5
12F
330
47
100
AcDbEntity
  8
0
  6
Continuous
 62
     7
100
AcDbSpline
210
0.0
220
0.0
230
1.0
 70
     8
 71
     3
 72
     9
 73
     5
 74
     3
 42
0.000000001
 43
0.0000000001
 44
0.00000001
 40
0.0
 40
0.0
 40
0.0
 40
0.0
 40
0.0355940948216779
 40
0.0710538863243957
 40
0.0710538863243957
 40
0.0710538863243957
 40
0.0710538863243957
 10
6.083776383001066
 20
46.30665045664573
 30
0.0
 10
6.093899754413617
 20
46.3128689251044
 30
0.0
 10
6.114108288596075
 20
46.32528241505722
 30
0.0
 10
6.132396612943375
 20
46.3403824120382
 30
0.0
 10
6.141523485193275
 20
46.34791814777977
 30
0.0
 11
6.083776383001066
 21
46.30665045664573
 31
0.0
 11
6.113664622876692
 21
46.32598003854488
 31
0.0
 11
6.141523485193275
 21
46.34791814777977
 31
0.0
  0
SPLINE
  5
130
330
47
100
AcDbEntity
  8
0
  6
Continuous
 62
     7
100
AcDbSpline
210
0.0
220
0.0
230
1.0
 70
     8
 71
     3
 72
    13
 73
     9
 74
     7
 42
0.000000001
 43
0.0000000001
 44
0.00000001
 40
0.0
 40
0.0
 40
0.0
 40
0.0
 40
0.1248411886603865
 40
0.255077371536803
 40
0.3943177140035253
 40
0.5436156424344804
 40
0.7016670892362598
 40
0.8654408283585897
 40
0.8654408283585897
 40
0.8654408283585897
 40
0.8654408283585897
 10
6.141523485193275
 20
46.34791814777977
 30
0.0
 10
6.17043282643927
 20
46.37835841468551
 30
0.0
 10
6.229500811089542
 20
46.44055442922347
 30
0.0
 10
6.276333017255324
 20
46.56675023601925
 30
0.0
 10
6.289950595922794
 20
46.70679334050027
 30
0.0
 10
6.267335292650358
 20
46.85519268459667
 30
0.0
 10
6.213144859732565
 20
47.00412955752752
 30
0.0
 10
6.153362285113145
 20
47.0935940514122
 30
0.0
 10
6.122939502246268
 20
47.13912166741432
 30
0.0
 11
6.141523485193275
 21
46.34791814777977
 31
0.0
 11
6.221359312614053
 21
46.44389504089259
 31
0.0
 11
6.269834853089918
 21
46.56477343625115
 31
0.0
 11
6.284035905514266
 21
46.70328770959854
 31
0.0
 11
6.263109268251817
 21
46.85111175299809
 31
0.0
 11
6.208312413242738
 21
46.99936007399857
 31
0.0
 11
6.122939502246268
 21
47.13912166741432
 31
0.0
  0
SPLINE
  5
131
330
47
100
AcDbEntity
  8
0
  6
Continuous
 62
     7
100
AcDbSpline
210
0.0
220
0.0
230
1.0
 70
     8
 71
     3
 72
     9
 73
     5
 74
     3
 42
0.000000001
 43
0.0000000001
 44
0.00000001
 40
0.0
 40
0.0
 40
0.0
 40
0.0
 40
0.0105463981386352
 40
0.0210530027012946
 40
0.0210530027012946
 40
0.0210530027012946
 40
0.0210530027012946
 10
6.083776383001066
 20
46.30665045664573
 30
0.0
 10
6.080776865638516
 20
46.30480794752992
 30
0.0
 10
6.074789159894275
 20
46.30112986493252
 30
0.0
 10
6.069370388859913
 20
46.2966558031266
 30
0.0
 10
6.066666130499669
 20
46.294422992606
 30
0.0
 11
6.083776383001066
 21
46.30665045664573
 31
0.0
 11
6.074920608223115
 21
46.30092317312004
 31
0.0
 11
6.066666130499669
 21
46.294422992606
 31
0.0
  0
SPLINE
  5
132
330
47
100
AcDbEntity
  8
0
  6
Continuous
 62
     7
100
AcDbSpline
210
0.0
220
0.0
230
1.0
 70
     8
 71
     3
 72
     9
 73
     5
 74
     3
 42
0.000000001
 43
0.0000000001
 44
0.00000001
 40
0.0
 40
0.0
 40
0.0
 40
0.0
 40
0.0538940626129694
 40
0.1122793847777698
 40
0.1122793847777698
 40
0.1122793847777698
 40
0.1122793847777698
 10
6.066666130499669
 20
46.294422992606
 30
0.0
 10
6.054509137309993
 20
46.28054240642197
 30
0.0
 10
6.029182065071005
 20
46.25162448635172
 30
0.0
 10
6.026030558801275
 20
46.21321181163673
 30
0.0
 10
6.024391783884369
 20
46.19323720340231
 30
0.0
 11
6.066666130499669
 21
46.294422992606
 31
0.0
 11
6.035304400172793
 21
46.2505936407124
 31
0.0
 11
6.024391783884369
 21
46.19323720340231
 31
0.0
  0
SPLINE
  5
133
330
47
100
AcDbEntity
  8
0
  6
Continuous
 62
     7
100
AcDbSpline
210
0.0
220
0.0
230
1.0
 70
     8
 71
     3
 72
    11
 73
     7
 74
     5
 42
0.000000001
 43
0.0000000001
 44
0.00000001
 40
0.0
 40
0.0
 40
0.0
 40
0.0
 40
0.9475859412047924
 40
1.920473026474571
 40
2.926545669604445
 40
3.970811136095588
 40
3.970811136095588
 40
3.970811136095588
 40
3.970811136095588
 10
8.065199556592262
 20
44.16178066407476
 30
0.0
 10
8.241267693205105
 20
44.42497240467286
 30
0.0
 10
8.598105084263594
 20
44.95838327960098
 30
0.0
 10
8.960267710995177
 20
45.87051315649258
 30
0.0
 10
9.205614481808205
 20
46.85230825219244
 30
0.0
 10
9.249750090355224
 20
47.53563364379664
 30
0.0
 10
9.272228956777766
 20
47.88366068730321
 30
0.0
 11
8.065199556592262
 21
44.16178066407476
 31
0.0
 11
8.56438955030363
 21
44.96721748229078
 31
0.0
 11
8.935787463763965
 21
45.86642428489232
 31
0.0
 11
9.173078692062594
 21
46.8441129056505
 31
0.0
 11
9.272228956777766
 21
47.88366068730321
 31
0.0
  0
SPLINE
  5
134
330
47
100
AcDbEntity
  8
0
  6
Continuous
 62
     7
100
AcDbSpline
210
0.0
220
0.0
230
1.0
 70
     8
 71
     3
 72
    11
 73
     7
 74
     5
 42
0.000000001
 43
0.0000000001
 44
0.00000001
 40
0.0
 40
0.0
 40
0.0
 40
0.0
 40
1.501716589123627
 40
3.011982928025917
 40
4.507380582629328
 40
5.965940896288378
 40
5.965940896288378
 40
5.965940896288378
 40
5.965940896288378
 10
30.19373626394398
 20
39.95805932195448
 30
0.0
 10
29.92717796870067
 20
40.3829005621381
 30
0.0
 10
29.39254376478404
 20
41.23500179023274
 30
0.0
 10
28.37152791951939
 20
42.34595454331738
 30
0.0
 10
27.23482906420098
 20
43.31725872206361
 30
0.0
 10
26.37627445697581
 20
43.80356131414131
 30
0.0
 10
25.95235045323688
 20
44.04368038497736
 30
0.0
 11
30.19373626394398
 21
39.95805932195448
 31
0.0
 11
29.35735991460795
 21
41.20530721954687
 31
0.0
 11
28.34683325003722
 21
42.32768874069457
 31
0.0
 11
27.1981803235509
 21
43.28519101455613
 31
0.0
 11
25.95235045323688
 21
44.04368038497736
 31
0.0
  0
SPLINE
  5
135
330
47
100
AcDbEntity
  8
0
  6
Continuous
 62
     7
100
AcDbSpline
210
0.0
220
0.0
230
1.0
 70
     8
 71
     3
 72
    11
 73
     7
 74
     5
 42
0.000000001
 43
0.0000000001
 44
0.00000001
 40
0.0
 40
0.0
 40
0.0
 40
0.0
 40
0.0935705952108659
 40
0.1815181363975441
 40
0.2647690944695547
 40
0.3453217744505541
 40
0.3453217744505541
 40
0.3453217744505541
 40
0.3453217744505541
 10
18.28937454881637
 20
50.30358231181015
 30
0.0
 10
18.25884424156002
 20
50.31062271212665
 30
0.0
 10
18.19961832041253
 20
50.3242804108468
 30
0.0
 10
18.11058604480605
 20
50.31980692177227
 30
0.0
 10
18.02834880928935
 20
50.29684230730896
 30
0.0
 10
17.98390403528539
 20
50.26445901574002
 30
0.0
 10
17.96204771346247
 20
50.24853408292716
 30
0.0
 11
18.28937454881637
 21
50.30358231181015
 31
0.0
 11
18.19730210767437
 21
50.32025930009083
 31
0.0
 11
18.10944062102311
 21
50.31636962589563
 31
0.0
 11
18.02980851070825
 21
50.29209104479867
 31
0.0
 11
17.96204771346247
 21
50.24853408292716
 31
0.0
  0
SPLINE
  5
136
330
47
100
AcDbEntity
  8
0
  6
Continuous
 62
     7
100
AcDbSpline
210
0.0
220
0.0
230
1.0
 70
     8
 71
     3
 72
    11
 73
     7
 74
     5
 42
0.000000001
 43
0.0000000001
 44
0.00000001
 40
0.0
 40
0.0
 40
0.0
 40
0.0
 40
0.130998833440281
 40
0.2541253920138282
 40
0.3706767344518628
 40
0.4834504872167161
 40
0.4834504872167161
 40
0.4834504872167161
 40
0.4834504872167161
 10
18.56010950366407
 20
47.49744784035902
 30
0.0
 10
18.51736707345786
 20
47.50730440081304
 30
0.0
 10
18.43445078443346
 20
47.52642518485682
 30
0.0
 10
18.30980559785165
 20
47.52016229742326
 30
0.0
 10
18.19467346594516
 20
47.48801183960053
 30
0.0
 10
18.13245078493532
 20
47.44267522601729
 30
0.0
 10
18.10185193416847
 20
47.42038031992282
 30
0.0
 11
18.56010950366407
 21
47.49744784035902
 31
0.0
 11
18.43120808606522
 21
47.52079562395197
 31
0.0
 11
18.30820200475346
 21
47.51535008007868
 31
0.0
 11
18.19671705031265
 21
47.48136006654293
 31
0.0
 11
18.10185193416847
 21
47.42038031992282
 31
0.0
  0
SPLINE
  5
137
330
47
100
AcDbEntity
  8
0
  6
Continuous
 62
     7
100
AcDbSpline
210
0.0
220
0.0
230
1.0
 70
     8
 71
     3
 72
    13
 73
     9
 74
     7
 42
0.000000001
 43
0.0000000001
 44
0.00000001
 40
0.0
 40
0.0
 40
0.0
 40
0.0
 40
0.1045567286507864
 40
0.2061418007536166
 40
0.3022745471529209
 40
0.3916590361758815
 40
0.4747389888150565
 40
0.5539452715656801
 40
0.5539452715656801
 40
0.5539452715656801
 40
0.5539452715656801
 10
18.93762068948017
 20
44.6999551688485
 30
0.0
 10
18.96182347558787
 20
44.6747150812044
 30
0.0
 10
19.00954117860092
 20
44.62495227665164
 30
0.0
 10
19.09607770425302
 20
44.57138564348483
 30
0.0
 10
19.18679195238403
 20
44.53829254006779
 30
0.0
 10
19.27669645287877
 20
44.52995234497311
 30
0.0
 10
19.3614987558917
 20
44.54523215540136
 30
0.0
 10
19.40631533850035
 20
44.57648674343992
 30
0.0
 10
19.42818875459646
 20
44.59174102974002
 30
0.0
 11
18.93762068948017
 21
44.6999551688485
 31
0.0
 11
19.01313544250453
 21
44.62763898050502
 31
0.0
 11
19.09918772574197
 21
44.57365257939068
 31
0.0
 11
19.18985837523199
 21
44.54170984030669
 31
0.0
 11
19.27891040355876
 21
44.53400765294488
 31
0.0
 11
19.36021811445374
 21
44.55107620519367
 31
0.0
 11
19.42818875459646
 21
44.59174102974002
 31
0.0
  0
SPLINE
  5
138
330
47
100
AcDbEntity
  8
0
  6
Continuous
 62
     7
100
AcDbSpline
210
0.0
220
0.0
230
1.0
 70
     8
 71
     3
 72
    17
 73
    13
 74
    11
 42
0.000000001
 43
0.0000000001
 44
0.00000001
 40
0.0
 40
0.0
 40
0.0
 40
0.0
 40
0.3680059164316031
 40
0.7986432244931067
 40
1.320263018004999
 40
1.930285532802615
 40
2.607608339586306
 40
3.32090092645836
 40
4.034193513107388
 40
4.711516318981988
 40
5.321538834386814
 40
5.84315863357233
 40
5.84315863357233
 40
5.84315863357233
 40
5.84315863357233
 10
36.81520199213367
 20
81.63181243140127
 30
0.0
 10
36.79424759995829
 20
81.75503206982071
 30
0.0
 10
36.74877255018792
 20
82.02244224743444
 30
0.0
 10
36.43347027469673
 20
82.35719623645478
 30
0.0
 10
35.99277047948644
 20
82.63446506838955
 30
0.0
 10
35.42257508464055
 20
82.8449796970827
 30
0.0
 10
34.76714112776718
 20
82.97709586547305
 30
0.0
 10
34.06530420424453
 20
83.0218987595804
 30
0.0
 10
33.36286436766403
 20
82.97770525646769
 30
0.0
 10
32.709092546385
 20
82.84277936409508
 30
0.0
 10
32.13370185682516
 20
82.64137319326542
 30
0.0
 10
31.8256333753551
 20
82.42092564456927
 30
0.0
 10
31.68363213172646
 20
82.31931243140127
 30
0.0
 11
36.81520199213367
 21
81.63181243140127
 31
0.0
 11
36.72149730624476
 21
81.9876885235386
 31
0.0
 11
36.44677185254086
 21
82.31931243140127
 31
0.0
 11
36.00974512197013
 21
82.6040839963195
 31
0.0
 11
35.44020199213367
 21
82.82259736160488
 31
0.0
 11
34.77695417640828
 21
82.95996008845682
 31
0.0
 11
34.06520199213367
 21
83.00681243140127
 31
0.0
 11
33.35344980785904
 21
82.95996008845682
 31
0.0
 11
32.69020199213367
 21
82.82259736160488
 31
0.0
 11
32.1206588622972
 21
82.60408399631949
 31
0.0
 11
31.68363213172646
 21
82.31931243140127
 31
0.0
  0
SPLINE
  5
139
330
47
100
AcDbEntity
  8
0
  6
Continuous
 62
     7
100
AcDbSpline
210
0.0
220
0.0
230
1.0
 70
     8
 71
     3
 72
    11
 73
     7
 74
     5
 42
0.000000001
 43
0.0000000001
 44
0.00000001
 40
0.0
 40
0.0
 40
0.0
 40
0.0
 40
0.093570595210945
 40
0.18151813639763
 40
0.2647690944696406
 40
0.3453217744506482
 40
0.3453217744506482
 40
0.3453217744506482
 40
0.3453217744506482
 10
33.84545788045946
 20
45.81292786227997
 30
0.0
 10
33.81492757320309
 20
45.81996826259648
 30
0.0
 10
33.75570165205556
 20
45.83362596131659
 30
0.0
 10
33.66666937644905
 20
45.82915247224209
 30
0.0
 10
33.58443214093235
 20
45.80618785777878
 30
0.0
 10
33.5399873669284
 20
45.77380456620985
 30
0.0
 10
33.51813104510546
 20
45.75787963339698
 30
0.0
 11
33.84545788045946
 21
45.81292786227997
 31
0.0
 11
33.75338543931738
 21
45.82960485056064
 31
0.0
 11
33.66552395266612
 21
45.82571517636545
 31
0.0
 11
33.58589184235125
 21
45.80143659526848
 31
0.0
 11
33.51813104510546
 21
45.75787963339698
 31
0.0
  0
SPLINE
  5
13A
330
47
100
AcDbEntity
  8
0
  6
Continuous
 62
     7
100
AcDbSpline
210
0.0
220
0.0
230
1.0
 70
     8
 71
     3
 72
     9
 73
     5
 74
     3
 42
0.000000001
 43
0.0000000001
 44
0.00000001
 40
0.0
 40
0.0
 40
0.0
 40
0.0
 40
0.1347351597551034
 40
0.2806984683897845
 40
0.2806984683897845
 40
0.2806984683897845
 40
0.2806984683897845
 10
33.51813104510546
 20
45.75787963339698
 30
0.0
 10
33.48773856140433
 20
45.7231781671069
 30
0.0
 10
33.42442085433073
 20
45.65088337968298
 30
0.0
 10
33.41654211594999
 20
45.55485168207633
 30
0.0
 10
33.41244517856728
 20
45.50491516038775
 30
0.0
 11
33.51813104510546
 21
45.75787963339698
 31
0.0
 11
33.43972671928828
 21
45.64830625366298
 31
0.0
 11
33.41244517856728
 21
45.50491516038775
 31
0.0
  0
SPLINE
  5
13B
330
47
100
AcDbEntity
  8
0
  6
Continuous
 62
     7
100
AcDbSpline
210
0.0
220
0.0
230
1.0
 70
     8
 71
     3
 72
    13
 73
     9
 74
     7
 42
0.000000001
 43
0.0000000001
 44
0.00000001
 40
0.0
 40
0.0
 40
0.0
 40
0.0
 40
0.1172631642635532
 40
0.2419307378212755
 40
0.3712960139461238
 40
0.5017221147109453
 40
0.6293737711447582
 40
0.7509434390751892
 40
0.7509434390751892
 40
0.7509434390751892
 40
0.7509434390751892
 10
34.71148328424388
 20
45.12991516038775
 30
0.0
 10
34.70840890998972
 20
45.16906552291223
 30
0.0
 10
34.70206601997162
 20
45.24983833788797
 30
0.0
 10
34.65619598687043
 20
45.36648625219792
 30
0.0
 10
34.58792650738865
 20
45.47569400293237
 30
0.0
 10
34.4983280872006
 20
45.56963240853467
 30
0.0
 10
34.3949261526582
 20
45.64503543839959
 30
0.0
 10
34.31665237749939
 20
45.6738649098963
 30
0.0
 10
34.27847058235167
 20
45.68792786227997
 30
0.0
 11
34.71148328424388
 21
45.12991516038775
 31
0.0
 11
34.69672862271054
 21
45.24624636843379
 31
0.0
 11
34.65347058235167
 21
45.36316833586081
 31
0.0
 11
34.58465671856855
 21
45.47271297252116
 31
0.0
 11
34.49497693329778
 21
45.56741516038775
 31
0.0
 11
34.39054248649367
 21
45.64082082873414
 31
0.0
 11
34.27847058235167
 21
45.68792786227997
 31
0.0
  0
SPLINE
  5
13C
330
47
100
AcDbEntity
  8
0
  6
Continuous
 62
     7
100
AcDbSpline
210
0.0
220
0.0
230
1.0
 70
     8
 71
     3
 72
    13
 73
     9
 74
     7
 42
0.000000001
 43
0.0000000001
 44
0.00000001
 40
0.0
 40
0.0
 40
0.0
 40
0.0
 40
0.1172631642635449
 40
0.2419307378212806
 40
0.371296013946116
 40
0.5017221147109592
 40
0.629373771144803
 40
0.7509434390752368
 40
0.7509434390752368
 40
0.7509434390752368
 40
0.7509434390752368
 10
18.81991712479947
 20
49.71741516038775
 30
0.0
 10
18.81684275054529
 20
49.75656552291222
 30
0.0
 10
18.81049986052717
 20
49.83733833788796
 30
0.0
 10
18.76462982742596
 20
49.95398625219789
 30
0.0
 10
18.69636034794423
 20
50.06319400293241
 30
0.0
 10
18.60676192775614
 20
50.15713240853468
 30
0.0
 10
18.50335999321371
 20
50.23253543839958
 30
0.0
 10
18.42508621805488
 20
50.2613649098963
 30
0.0
 10
18.38690442290717
 20
50.27542786227997
 30
0.0
 11
18.81991712479947
 21
49.71741516038775
 31
0.0
 11
18.80516246326609
 21
49.83374636843377
 31
0.0
 11
18.76190442290721
 21
49.9506683358608
 31
0.0
 11
18.69309055912413
 21
50.06021297252116
 31
0.0
 11
18.60341077385332
 21
50.15491516038775
 31
0.0
 11
18.49897632704917
 21
50.22832082873413
 31
0.0
 11
18.38690442290717
 21
50.27542786227997
 31
0.0
  0
SPLINE
  5
13D
330
47
100
AcDbEntity
  8
0
  6
Continuous
 62
     7
100
AcDbSpline
210
0.0
220
0.0
230
1.0
 70
     8
 71
     3
 72
     9
 73
     5
 74
     3
 42
0.000000001
 43
0.0000000001
 44
0.00000001
 40
0.0
 40
0.0
 40
0.0
 40
0.0
 40
0.0808410949937282
 40
0.1684190793151582
 40
0.1684190793151582
 40
0.1684190793151582
 40
0.1684190793151582
 10
18.75650560487647
 20
47.5304767776888
 30
0.0
 10
18.77474109490332
 20
47.55129765724152
 30
0.0
 10
18.81273171208721
 20
47.5946745330963
 30
0.0
 10
18.81745896239397
 20
47.65229354877522
 30
0.0
 10
18.81991712479947
 20
47.68225546149435
 30
0.0
 11
18.75650560487647
 21
47.5304767776888
 31
0.0
 11
18.80354820036684
 21
47.59622080552921
 31
0.0
 11
18.81991712479947
 21
47.68225546149435
 31
0.0
  0
SPLINE
  5
13E
330
47
100
AcDbEntity
  8
0
  6
Continuous
 62
     7
100
AcDbSpline
210
0.0
220
0.0
230
1.0
 70
     8
 71
     3
 72
    11
 73
     7
 74
     5
 42
0.000000001
 43
0.0000000001
 44
0.00000001
 40
0.0
 40
0.0
 40
0.0
 40
0.0
 40
0.0561423569815349
 40
0.1089108807813547
 40
0.1588614544873604
 40
0.2071930616845725
 40
0.2071930616845725
 40
0.2071930616845725
 40
0.2071930616845725
 10
18.56010950366407
 20
47.49744784035902
 30
0.0
 10
18.57842768797057
 20
47.49322360018002
 30
0.0
 10
18.61396324124122
 20
47.48502898678356
 30
0.0
 10
18.66738260587238
 20
47.48771307749902
 30
0.0
 10
18.71672494499931
 20
47.50149184860295
 30
0.0
 10
18.74339181199744
 20
47.52092181815753
 30
0.0
 10
18.75650560487647
 20
47.5304767776888
 30
0.0
 11
18.56010950366407
 21
47.49744784035902
 31
0.0
 11
18.6153529683493
 21
47.48744164739061
 31
0.0
 11
18.66806986034007
 21
47.48977545190772
 31
0.0
 11
18.715849126529
 21
47.50434260056591
 31
0.0
 11
18.75650560487647
 21
47.5304767776888
 31
0.0
  0
SPLINE
  5
13F
330
47
100
AcDbEntity
  8
0
  6
Continuous
 62
     7
100
AcDbSpline
210
0.0
220
0.0
230
1.0
 70
     8
 71
     3
 72
    11
 73
     7
 74
     5
 42
0.000000001
 43
0.0000000001
 44
0.00000001
 40
0.0
 40
0.0
 40
0.0
 40
0.0
 40
0.6085423711959735
 40
1.247260111612488
 40
1.908517438562374
 40
2.581951841252424
 40
2.581951841252424
 40
2.581951841252424
 40
2.581951841252424
 10
17.95443016253007
 20
47.04052984424295
 30
0.0
 10
17.97470798817472
 20
46.83808380888617
 30
0.0
 10
18.01626915686212
 20
46.42315318899807
 30
0.0
 10
18.22480664242185
 20
45.81739227884471
 30
0.0
 10
18.52345158597132
 20
45.22776272750333
 30
0.0
 10
18.79872715759496
 20
44.87695787622805
 30
0.0
 10
18.93762068948017
 20
44.6999551688485
 30
0.0
 11
17.95443016253007
 21
47.04052984424295
 31
0.0
 11
18.03781239482401
 21
46.43772703882175
 31
0.0
 11
18.23554558118007
 21
45.83038698468839
 31
0.0
 11
18.53959862217797
 21
45.24317918261968
 31
0.0
 11
18.93762068948017
 21
44.6999551688485
 31
0.0
  0
SPLINE
  5
140
330
47
100
AcDbEntity
  8
0
  6
Continuous
 62
     7
100
AcDbSpline
210
0.0
220
0.0
230
1.0
 70
     8
 71
     3
 72
    11
 73
     7
 74
     5
 42
0.000000001
 43
0.0000000001
 44
0.00000001
 40
0.0
 40
0.0
 40
0.0
 40
0.0
 40
0.0627418998187411
 40
0.1274830534601993
 40
0.1957283673663233
 40
0.2682168887433588
 40
0.2682168887433588
 40
0.2682168887433588
 40
0.2682168887433588
 10
19.42818875459646
 20
44.59174102974002
 30
0.0
 10
19.44292703785483
 20
44.60677880083856
 30
0.0
 10
19.47287322457412
 20
44.63733352713908
 30
0.0
 10
19.500336196328
 20
44.69770759755143
 30
0.0
 10
19.51471480254591
 20
44.76535720999225
 30
0.0
 10
19.51174231885741
 20
44.81238037919145
 30
0.0
 10
19.51021125843727
 20
44.83660085184194
 30
0.0
 11
19.42818875459646
 21
44.59174102974002
 31
0.0
 11
19.46948270981116
 21
44.63897825548326
 31
0.0
 11
19.49762776316627
 21
44.69728154273872
 31
0.0
 11
19.51140307758275
 21
44.76412212837597
 31
0.0
 11
19.51021125843727
 21
44.83660085184194
 31
0.0
  0
SPLINE
  5
141
330
47
100
AcDbEntity
  8
0
  6
Continuous
 62
     7
100
AcDbSpline
210
0.0
220
0.0
230
1.0
 70
     8
 71
     3
 72
     9
 73
     5
 74
     3
 42
0.000000001
 43
0.0000000001
 44
0.00000001
 40
0.0
 40
0.0
 40
0.0
 40
0.0
 40
3.017382863901091
 40
5.879923767077704
 40
5.879923767077704
 40
5.879923767077704
 40
5.879923767077704
 10
25.95235045323688
 20
44.04368038497736
 30
0.0
 10
25.03343207467348
 20
44.4659076069463
 30
0.0
 10
23.24275111784551
 20
45.28869474830397
 30
0.0
 10
21.29636307767028
 20
45.59286039778581
 30
0.0
 10
20.34879715456427
 20
45.7409382627838
 30
0.0
 11
25.95235045323688
 21
44.04368038497736
 31
0.0
 11
23.15459135213358
 21
45.17378806352622
 31
0.0
 11
20.34879715456427
 21
45.7409382627838
 31
0.0
  0
SPLINE
  5
142
330
47
100
AcDbEntity
  8
0
  6
Continuous
 62
     7
100
AcDbSpline
210
0.0
220
0.0
230
1.0
 70
     8
 71
     3
 72
    11
 73
     7
 74
     5
 42
0.000000001
 43
0.0000000001
 44
0.00000001
 40
0.0
 40
0.0
 40
0.0
 40
0.0
 40
0.4826695327547678
 40
0.9661074661587824
 40
1.438159115350815
 40
1.888547215089358
 40
1.888547215089358
 40
1.888547215089358
 40
1.888547215089358
 10
30.19373626394398
 20
39.95805932195448
 30
0.0
 10
30.28113957659913
 20
39.82236552591176
 30
0.0
 10
30.45608535840812
 20
39.55076192063348
 30
0.0
 10
30.80433788604789
 20
39.2166061684391
 30
0.0
 10
31.19213559028368
 20
38.94617899824775
 30
0.0
 10
31.48238585596141
 20
38.84113940047823
 30
0.0
 10
31.62410271975236
 20
38.78985303878775
 30
0.0
 11
30.19373626394398
 21
39.95805932195448
 31
0.0
 11
30.47067242413726
 21
39.56274142258715
 31
0.0
 11
30.81533532171327
 21
39.22374330416274
 31
0.0
 11
31.20748768916761
 21
38.96097100309342
 31
0.0
 11
31.62410271975236
 21
38.78985303878775
 31
0.0
  0
SPLINE
  5
143
330
47
100
AcDbEntity
  8
0
  6
Continuous
 62
     7
100
AcDbSpline
210
0.0
220
0.0
230
1.0
 70
     8
 71
     3
 72
    19
 73
    15
 74
    13
 42
0.000000001
 43
0.0000000001
 44
0.00000001
 40
0.0
 40
0.0
 40
0.0
 40
0.0
 40
0.3680059210525785
 40
0.7986432255765357
 40
1.320263020133547
 40
1.930285536548634
 40
2.607608345772908
 40
3.320900935876119
 40
4.03419352597933
 40
4.71151633520366
 40
5.321538851618735
 40
5.843158646175702
 40
6.273795950699666
 40
6.64180187175226
 40
6.64180187175226
 40
6.64180187175226
 40
6.64180187175226
 10
31.31520199213367
 20
81.63181243140126
 30
0.0
 10
31.33615636854682
 20
81.50859281961081
 30
0.0
 10
31.38163139090433
 20
81.2411827051496
 30
0.0
 10
31.69693397493349
 20
80.90642815328889
 30
0.0
 10
32.13763218933931
 20
80.62916210887687
 30
0.0
 10
32.70783499200868
 20
80.41863445463632
 30
0.0
 10
33.36323690556741
 20
80.28657462991218
 30
0.0
 10
34.06520199213367
 20
80.24154640118735
 30
0.0
 10
34.76716707869993
 20
80.2865746299122
 30
0.0
 10
35.42256899225869
 20
80.41863445463635
 30
0.0
 10
35.99277179492806
 20
80.62916210887681
 30
0.0
 10
36.43347000933383
 20
80.90642815328894
 30
0.0
 10
36.74877259336301
 20
81.24118270514958
 30
0.0
 10
36.79424761572051
 20
81.5085928196108
 30
0.0
 10
36.81520199213367
 20
81.63181243140127
 30
0.0
 11
31.31520199213367
 21
81.63181243140126
 31
0.0
 11
31.40890667802258
 21
81.27593633926396
 31
0.0
 11
31.68363213172647
 21
80.94431243140127
 31
0.0
 11
32.12065886229725
 21
80.65954086648304
 31
0.0
 11
32.69020199213372
 21
80.44102750119767
 31
0.0
 11
33.35344980785905
 21
80.30366477434572
 31
0.0
 11
34.06520199213367
 21
80.25681243140127
 31
0.0
 11
34.77695417640828
 21
80.30366477434573
 31
0.0
 11
35.44020199213367
 21
80.44102750119768
 31
0.0
 11
36.00974512197013
 21
80.65954086648304
 31
0.0
 11
36.44677185254086
 21
80.94431243140127
 31
0.0
 11
36.72149730624476
 21
81.27593633926396
 31
0.0
 11
36.81520199213367
 21
81.63181243140127
 31
0.0
  0
SPLINE
  5
144
330
47
100
AcDbEntity
  8
0
  6
Continuous
 62
     7
100
AcDbSpline
210
0.0
220
0.0
230
1.0
 70
     8
 71
     3
 72
     9
 73
     5
 74
     3
 42
0.000000001
 43
0.0000000001
 44
0.00000001
 40
0.0
 40
0.0
 40
0.0
 40
0.0
 40
0.0849727062785817
 40
0.1730887211058715
 40
0.1730887211058715
 40
0.1730887211058715
 40
0.1730887211058715
 10
17.96204771346247
 20
50.24853408292716
 30
0.0
 10
17.94195563527668
 20
50.22806581337463
 30
0.0
 10
17.9010282489632
 20
50.1863721007804
 30
0.0
 10
17.8812069937408
 20
50.13137844830946
 30
0.0
 10
17.87111639694747
 20
50.10338227222503
 30
0.0
 11
17.96204771346247
 21
50.24853408292716
 31
0.0
 11
17.90685811413328
 21
50.18392395072539
 31
0.0
 11
17.87111639694747
 21
50.10338227222503
 31
0.0
  0
SPLINE
  5
145
330
47
100
AcDbEntity
  8
0
  6
Continuous
 62
     7
100
AcDbSpline
210
0.0
220
0.0
230
1.0
 70
     8
 71
     3
 72
    11
 73
     7
 74
     5
 42
0.000000001
 43
0.0000000001
 44
0.00000001
 40
0.0
 40
0.0
 40
0.0
 40
0.0
 40
0.0994033217202693
 40
0.2014330550266575
 40
0.3081733529234561
 40
0.4208342685142323
 40
0.4208342685142323
 40
0.4208342685142323
 40
0.4208342685142323
 10
18.10185193416847
 20
47.42038031992282
 30
0.0
 10
18.07833836298292
 20
47.39677155734034
 30
0.0
 10
18.03068996161235
 20
47.34893023716902
 30
0.0
 10
17.98386003648952
 20
47.25591786730372
 30
0.0
 10
17.95546510439914
 20
47.15164016017461
 30
0.0
 10
17.95478128915128
 20
47.07822697663056
 30
0.0
 10
17.95443016253007
 20
47.04052984424295
 30
0.0
 11
18.10185193416847
 21
47.42038031992282
 31
0.0
 11
18.03546054118
 21
47.3463992166417
 31
0.0
 11
17.98774820493843
 21
47.25621274337588
 31
0.0
 11
17.96041371065652
 21
47.15303175160734
 31
0.0
 11
17.95443016253007
 21
47.04052984424295
 31
0.0
  0
SPLINE
  5
146
330
47
100
AcDbEntity
  8
0
  6
Continuous
 62
     7
100
AcDbSpline
210
0.0
220
0.0
230
1.0
 70
     8
 71
     3
 72
    11
 73
     7
 74
     5
 42
0.000000001
 43
0.0000000001
 44
0.00000001
 40
0.0
 40
0.0
 40
0.0
 40
0.0
 40
0.1882257032865864
 40
0.3824491697457482
 40
0.5871851159400818
 40
0.8046506808534246
 40
0.8046506808534246
 40
0.8046506808534246
 40
0.8046506808534246
 10
19.75627876995957
 20
45.57118031814783
 30
0.0
 10
19.71206391928471
 20
45.52606700393423
 30
0.0
 10
19.62222533443979
 20
45.43440284190321
 30
0.0
 10
19.53983642956469
 20
45.25328061820544
 30
0.0
 10
19.49670059680451
 20
45.0503317794856
 30
0.0
 10
19.50561807716032
 20
44.90926227005482
 30
0.0
 10
19.51021125843727
 20
44.83660085184194
 30
0.0
 11
19.75627876995957
 21
45.57118031814783
 31
0.0
 11
19.63239690431552
 21
45.42946864091812
 31
0.0
 11
19.54796174425027
 21
45.25455877915168
 31
0.0
 11
19.50663580100081
 21
45.05403702223985
 31
0.0
 11
19.51021125843727
 21
44.83660085184194
 31
0.0
  0
SPLINE
  5
147
330
47
100
AcDbEntity
  8
0
  6
Continuous
 62
     7
100
AcDbSpline
210
0.0
220
0.0
230
1.0
 70
     8
 71
     3
 72
     9
 73
     5
 74
     3
 42
0.000000001
 43
0.0000000001
 44
0.00000001
 40
0.0
 40
0.0
 40
0.0
 40
0.0
 40
0.4306373060047474
 40
0.7986432292267823
 40
0.7986432292267823
 40
0.7986432292267823
 40
0.7986432292267823
 10
31.68363213172646
 20
82.31931243140127
 30
0.0
 10
31.57722211032927
 20
82.21639370301311
 30
0.0
 10
31.37987823200902
 20
82.02552461458616
 30
0.0
 10
31.33560335497617
 20
81.75600436827074
 30
0.0
 10
31.31520199213367
 20
81.63181243140126
 30
0.0
 11
31.68363213172646
 21
82.31931243140127
 31
0.0
 11
31.40890667802258
 21
81.9876885235386
 31
0.0
 11
31.31520199213367
 21
81.63181243140126
 31
0.0
  0
SPLINE
  5
148
330
47
100
AcDbEntity
  8
0
  6
Continuous
 62
     7
100
AcDbSpline
210
0.0
220
0.0
230
1.0
 70
     8
 71
     3
 72
     9
 73
     5
 74
     3
 42
0.000000001
 43
0.0000000001
 44
0.00000001
 40
0.0
 40
0.0
 40
0.0
 40
0.0
 40
0.1053579233047721
 40
0.2134431121003982
 40
0.2134431121003982
 40
0.2134431121003982
 40
0.2134431121003982
 10
8.420637925241166
 20
54.7190895814703
 30
0.0
 10
8.445844358676693
 20
54.74399286366282
 30
0.0
 10
8.496909696742495
 20
54.79444407971292
 30
0.0
 10
8.526855764745864
 20
54.85970556043939
 30
0.0
 10
8.54202010790597
 20
54.89275324474142
 30
0.0
 11
8.420637925241166
 21
54.7190895814703
 31
0.0
 11
8.491111464524634
 21
54.79740798619491
 31
0.0
 11
8.54202010790597
 21
54.89275324474142
 31
0.0
  0
SPLINE
  5
149
330
47
100
AcDbEntity
  8
0
  6
Continuous
 62
     7
100
AcDbSpline
210
0.0
220
0.0
230
1.0
 70
     8
 71
     3
 72
    15
 73
    11
 74
     9
 42
0.000000001
 43
0.0000000001
 44
0.00000001
 40
0.0
 40
0.0
 40
0.0
 40
0.0
 40
0.1129385421857447
 40
0.2322801150809274
 40
0.3616824440741617
 40
0.5012113718837676
 40
0.6480042193304835
 40
0.7974169697410145
 40
0.9442165363785199
 40
1.083757557814043
 40
1.083757557814043
 40
1.083757557814043
 40
1.083757557814043
 10
11.58588801880727
 20
53.26175390639156
 30
0.0
 10
11.61164404525855
 20
53.2898115988155
 30
0.0
 10
11.66461632054753
 20
53.34751771782791
 30
0.0
 10
11.69875520347481
 20
53.46709429706559
 30
0.0
 10
11.69768736108225
 20
53.59761660777574
 30
0.0
 10
11.65984789043903
 20
53.7325311414123
 30
0.0
 10
11.58965901201542
 20
53.86106969309422
 30
0.0
 10
11.4920811364846
 20
53.972953230713
 30
0.0
 10
11.37570591216403
 20
54.06309143943439
 30
0.0
 10
11.28594003178171
 20
54.09683557475807
 30
0.0
 10
11.24219484168557
 20
54.11327994003813
 30
0.0
 11
11.58588801880727
 21
53.26175390639156
 31
0.0
 11
11.65581623698012
 21
53.35043964259723
 31
0.0
 11
11.69224364656256
 21
53.46408583172334
 31
0.0
 11
11.69221907393413
 21
53.59348816138148
 31
0.0
 11
11.65574528509712
 21
53.72816549732069
 31
0.0
 11
11.58577572148371
 21
53.85720967741277
 31
0.0
 11
11.48797820356142
 21
53.9701690305417
 31
0.0
 11
11.37027330973294
 21
54.05789400148462
 31
0.0
 11
11.24219484168557
 21
54.11327994003813
 31
0.0
  0
SPLINE
  5
14A
330
47
100
AcDbEntity
  8
0
  6
Continuous
 62
     7
100
AcDbSpline
210
0.0
220
0.0
230
1.0
 70
     8
 71
     3
 72
    11
 73
     7
 74
     5
 42
0.000000001
 43
0.0000000001
 44
0.00000001
 40
0.0
 40
0.0
 40
0.0
 40
0.0
 40
0.0982491249895966
 40
0.1905940433496545
 40
0.2780075494674226
 40
0.3625878635464111
 40
0.3625878635464111
 40
0.3625878635464111
 40
0.3625878635464111
 10
11.24219484168557
 20
53.20395326606441
 30
0.0
 10
11.27425166431067
 20
53.19656084573072
 30
0.0
 10
11.33643888144281
 20
53.18222026134515
 30
0.0
 10
11.42992277092122
 20
53.1869174252145
 30
0.0
 10
11.51627186848666
 20
53.21103027009778
 30
0.0
 10
11.56293888086635
 20
53.2450327269185
 30
0.0
 10
11.58588801880727
 20
53.26175390639156
 30
0.0
 11
11.24219484168557
 21
53.20395326606441
 31
0.0
 11
11.33887090488473
 21
53.1864424283697
 31
0.0
 11
11.43112546586857
 21
53.19052658627466
 31
0.0
 11
11.51473918169918
 21
53.21601909642648
 31
0.0
 11
11.58588801880727
 21
53.26175390639156
 31
0.0
  0
SPLINE
  5
14B
330
47
100
AcDbEntity
  8
0
  6
Continuous
 62
     7
100
AcDbSpline
210
0.0
220
0.0
230
1.0
 70
     8
 71
     3
 72
    11
 73
     7
 74
     5
 42
0.000000001
 43
0.0000000001
 44
0.00000001
 40
0.0
 40
0.0
 40
0.0
 40
0.0
 40
0.1676014956986815
 40
0.3276192723756634
 40
0.4818199683816776
 40
0.6328501322470773
 40
0.6328501322470773
 40
0.6328501322470773
 40
0.6328501322470773
 10
20.34879715456427
 20
45.7409382627838
 30
0.0
 10
20.29282118373564
 20
45.74382816705086
 30
0.0
 10
20.18340207177566
 20
45.74947719701112
 30
0.0
 10
20.02437628838651
 20
45.71964009098117
 30
0.0
 10
19.87801499933446
 20
45.66347082302343
 30
0.0
 10
19.79657553095204
 20
45.60173005001593
 30
0.0
 10
19.75627876995957
 20
45.57118031814783
 30
0.0
 11
20.34879715456427
 21
45.7409382627838
 31
0.0
 11
20.18120622241971
 21
45.74282001811786
 31
0.0
 11
20.02371659257093
 21
45.71448795231085
 31
0.0
 11
19.88073928176066
 21
45.65673551575873
 31
0.0
 11
19.75627876995957
 21
45.57118031814783
 31
0.0
  0
SPLINE
  5
14C
330
47
100
AcDbEntity
  8
0
  6
Continuous
 62
     7
100
AcDbSpline
210
0.0
220
0.0
230
1.0
 70
     8
 71
     3
 72
     9
 73
     5
 74
     3
 42
0.000000001
 43
0.0000000001
 44
0.00000001
 40
0.0
 40
0.0
 40
0.0
 40
0.0
 40
0.430637306004764
 40
0.7986432292267855
 40
0.7986432292267855
 40
0.7986432292267855
 40
0.7986432292267855
 10
16.09517486360657
 20
86.81931243140127
 30
0.0
 10
15.98876484220937
 20
86.7163937030131
 30
0.0
 10
15.79142096388913
 20
86.52552461458613
 30
0.0
 10
15.74714608685627
 20
86.25600436827074
 30
0.0
 10
15.72674472401377
 20
86.13181243140126
 30
0.0
 11
16.09517486360657
 21
86.81931243140127
 31
0.0
 11
15.82044940990268
 21
86.48768852353858
 31
0.0
 11
15.72674472401377
 21
86.13181243140126
 31
0.0
  0
SPLINE
  5
14D
330
47
100
AcDbEntity
  8
0
  6
Continuous
 62
     7
100
AcDbSpline
210
0.0
220
0.0
230
1.0
 70
     8
 71
     3
 72
    19
 73
    15
 74
    13
 42
0.000000001
 43
0.0000000001
 44
0.00000001
 40
0.0
 40
0.0
 40
0.0
 40
0.0
 40
0.368005921052578
 40
0.7986432255765363
 40
1.320263020133539
 40
1.930285536548634
 40
2.607608345772925
 40
3.320900935876181
 40
4.034193525979434
 40
4.711516335203726
 40
5.32153885161877
 40
5.843158646175735
 40
6.273795950699692
 40
6.641801871752285
 40
6.641801871752285
 40
6.641801871752285
 40
6.641801871752285
 10
15.72674472401377
 20
86.13181243140126
 30
0.0
 10
15.74769910042691
 20
86.00859281961084
 30
0.0
 10
15.79317412278443
 20
85.74118270514958
 30
0.0
 10
16.10847670681359
 20
85.40642815328891
 30
0.0
 10
16.54917492121941
 20
85.12916210887686
 30
0.0
 10
17.11937772388878
 20
84.91863445463633
 30
0.0
 10
17.77477963744753
 20
84.78657462991212
 30
0.0
 10
18.47674472401382
 20
84.74154640118736
 30
0.0
 10
19.1787098105801
 20
84.78657462991215
 30
0.0
 10
19.83411172413885
 20
84.9186344546363
 30
0.0
 10
20.40431452680819
 20
85.12916210887684
 30
0.0
 10
20.84501274121396
 20
85.40642815328894
 30
0.0
 10
21.16031532524311
 20
85.74118270514961
 30
0.0
 10
21.20579034760063
 20
86.00859281961081
 30
0.0
 10
21.22674472401377
 20
86.13181243140127
 30
0.0
 11
15.72674472401377
 21
86.13181243140126
 31
0.0
 11
15.82044940990268
 21
85.77593633926396
 31
0.0
 11
16.09517486360657
 21
85.44431243140127
 31
0.0
 11
16.53220159417735
 21
85.15954086648304
 31
0.0
 11
17.10174472401382
 21
84.94102750119765
 31
0.0
 11
17.76499253973916
 21
84.80366477434569
 31
0.0
 11
18.47674472401382
 21
84.75681243140126
 31
0.0
 11
19.18849690828848
 21
84.8036647743457
 31
0.0
 11
19.85174472401382
 21
84.94102750119765
 31
0.0
 11
20.42128785385024
 21
85.15954086648304
 31
0.0
 11
20.85831458442097
 21
85.44431243140127
 31
0.0
 11
21.13304003812486
 21
85.77593633926396
 31
0.0
 11
21.22674472401377
 21
86.13181243140127
 31
0.0
  0
SPLINE
  5
14E
330
47
100
AcDbEntity
  8
0
  6
Continuous
 62
     7
100
AcDbSpline
210
0.0
220
0.0
230
1.0
 70
     8
 71
     3
 72
    17
 73
    13
 74
    11
 42
0.000000001
 43
0.0000000001
 44
0.00000001
 40
0.0
 40
0.0
 40
0.0
 40
0.0
 40
0.3680059164316022
 40
0.7986432244931034
 40
1.320263018004989
 40
1.930285532802608
 40
2.607608339586288
 40
3.32090092645835
 40
4.034193513107375
 40
4.71151631898193
 40
5.321538834386754
 40
5.8431586335723
 40
5.8431586335723
 40
5.8431586335723
 40
5.8431586335723
 10
21.22674472401377
 20
86.13181243140127
 30
0.0
 10
21.20579033183839
 20
86.25503206982074
 30
0.0
 10
21.16031528206801
 20
86.52244224743443
 30
0.0
 10
20.84501300657684
 20
86.8571962364548
 30
0.0
 10
20.40431321136654
 20
87.13446506838955
 30
0.0
 10
19.83411781652065
 20
87.34497969708266
 30
0.0
 10
19.17868385964729
 20
87.47709586547302
 30
0.0
 10
18.47684693612464
 20
87.52189875958041
 30
0.0
 10
17.77440709954414
 20
87.47770525646766
 30
0.0
 10
17.12063527826514
 20
87.34277936409507
 30
0.0
 10
16.54524458870529
 20
87.14137319326542
 30
0.0
 10
16.23717610723524
 20
86.92092564456931
 30
0.0
 10
16.09517486360657
 20
86.81931243140127
 30
0.0
 11
21.22674472401377
 21
86.13181243140127
 31
0.0
 11
21.13304003812486
 21
86.4876885235386
 31
0.0
 11
20.85831458442097
 21
86.81931243140127
 31
0.0
 11
20.42128785385023
 21
87.1040839963195
 31
0.0
 11
19.85174472401377
 21
87.32259736160486
 31
0.0
 11
19.18849690828839
 21
87.4599600884568
 31
0.0
 11
18.47674472401377
 21
87.50681243140126
 31
0.0
 11
17.76499253973915
 21
87.4599600884568
 31
0.0
 11
17.10174472401382
 21
87.32259736160486
 31
0.0
 11
16.53220159417735
 21
87.10408399631949
 31
0.0
 11
16.09517486360657
 21
86.81931243140127
 31
0.0
  0
SPLINE
  5
14F
330
47
100
AcDbEntity
  8
0
  6
Continuous
 62
     7
100
AcDbSpline
210
0.0
220
0.0
230
1.0
 70
     8
 71
     3
 72
    11
 73
     7
 74
     5
 42
0.000000001
 43
0.0000000001
 44
0.00000001
 40
0.0
 40
0.0
 40
0.0
 40
0.0
 40
0.1340578103042013
 40
0.2712905770934367
 40
0.4142835042396761
 40
0.5646514904339045
 40
0.5646514904339045
 40
0.5646514904339045
 40
0.5646514904339045
 10
7.49150035244827
 20
53.98760680829842
 30
0.0
 10
7.459672309295944
 20
53.95592148842156
 30
0.0
 10
7.395262435012492
 20
53.89180041995239
 30
0.0
 10
7.329753779210548
 20
53.76830725562913
 30
0.0
 10
7.287459145256477
 20
53.62993584406323
 30
0.0
 10
7.282612735740593
 20
53.5319185710086
 30
0.0
 10
7.280128619371766
 20
53.48167786227997
 30
0.0
 11
7.49150035244827
 21
53.98760680829842
 31
0.0
 11
7.401269083389137
 21
53.88846138475463
 31
0.0
 11
7.334690311856122
 21
53.76846096762571
 31
0.0
 11
7.293878213740289
 21
53.6314159004666
 31
0.0
 11
7.280128619371766
 21
53.48167786227997
 31
0.0
  0
SPLINE
  5
150
330
47
100
AcDbEntity
  8
0
  6
Continuous
 62
     7
100
AcDbSpline
210
0.0
220
0.0
230
1.0
 70
     8
 71
     3
 72
    11
 73
     7
 74
     5
 42
0.000000001
 43
0.0000000001
 44
0.00000001
 40
0.0
 40
0.0
 40
0.0
 40
0.0
 40
0.1871411907844228
 40
0.3630362754382727
 40
0.529538194425355
 40
0.690643556365841
 40
0.690643556365841
 40
0.690643556365841
 40
0.690643556365841
 10
8.14615402315627
 20
54.09770326606441
 30
0.0
 10
8.085093408525244
 20
54.11178406672471
 30
0.0
 10
7.966641567685495
 20
54.13909947875394
 30
0.0
 10
7.788577014640682
 20
54.13015249378188
 30
0.0
 10
7.624102538149517
 20
54.08422327092005
 30
0.0
 10
7.535212996630952
 20
54.01945667431531
 30
0.0
 10
7.49150035244827
 20
53.98760680829842
 30
0.0
 11
8.14615402315627
 21
54.09770326606441
 31
0.0
 11
7.962009140872114
 21
54.13105724262576
 31
0.0
 11
7.786286167569621
 21
54.12327789423536
 31
0.0
 11
7.627021946939874
 21
54.07472073204144
 31
0.0
 11
7.49150035244827
 21
53.98760680829842
 31
0.0
  0
SPLINE
  5
151
330
47
100
AcDbEntity
  8
0
  6
Continuous
 62
     7
100
AcDbSpline
210
0.0
220
0.0
230
1.0
 70
     8
 71
     3
 72
    11
 73
     7
 74
     5
 42
0.000000001
 43
0.0000000001
 44
0.00000001
 40
0.0
 40
0.0
 40
0.0
 40
0.0
 40
0.1538892952047231
 40
0.2978823951877065
 40
0.4333081504047849
 40
0.5637031100644222
 40
0.5637031100644222
 40
0.5637031100644222
 40
0.5637031100644222
 10
7.885851452130169
 20
54.65063836095639
 30
0.0
 10
7.93531295530814
 20
54.63610984219832
 30
0.0
 10
8.031055232212053
 20
54.60798710776434
 30
0.0
 10
8.177065905427272
 20
54.60847102433809
 30
0.0
 10
8.312469130394355
 20
54.64142843007014
 30
0.0
 10
8.385039473306843
 20
54.69353121769517
 30
0.0
 10
8.420637925241166
 20
54.7190895814703
 30
0.0
 11
7.885851452130169
 21
54.65063836095639
 31
0.0
 11
8.035472808867045
 21
54.61464718330692
 31
0.0
 11
8.17946563521577
 21
54.6143652342419
 31
0.0
 11
8.310171249893582
 21
54.64980783995583
 31
0.0
 11
8.420637925241166
 21
54.7190895814703
 31
0.0
  0
SPLINE
  5
152
330
47
100
AcDbEntity
  8
0
  6
Continuous
 62
     7
100
AcDbSpline
210
0.0
220
0.0
230
1.0
 70
     8
 71
     3
 72
     9
 73
     5
 74
     3
 42
0.000000001
 43
0.0000000001
 44
0.00000001
 40
0.0
 40
0.0
 40
0.0
 40
0.0
 40
0.8971193494258776
 40
1.816511091035408
 40
1.816511091035408
 40
1.816511091035408
 40
1.816511091035408
 10
13.14019955659227
 20
48.55685958828077
 30
0.0
 10
13.30898620643856
 20
48.80504461902382
 30
0.0
 10
13.65074988167512
 20
49.30757627231596
 30
0.0
 10
13.86790640234551
 20
49.87525956886157
 30
0.0
 10
13.97781594058407
 20
50.16258142729996
 30
0.0
 11
13.14019955659227
 21
48.55685958828077
 31
0.0
 11
13.61616693542697
 21
49.31730563027745
 31
0.0
 11
13.97781594058407
 21
50.16258142729996
 31
0.0
  0
ENDBLK
  5
49
330
47
100
AcDbEntity
  8
0
100
AcDbBlockEnd
  0
BLOCK
  5
4C
330
4A
100
AcDbEntity
  8
0
100
AcDbBlockBegin
  2
AllgSicht1
 70
     0
 10
37.00000000023056
 20
59.99999999994498
 30
0.0
  3
AllgSicht1
  1

  0
INSERT
  5
4B
330
4A
100
AcDbEntity
  8
0
100
AcDbBlockReference
  2
URKN-A-select__1
 10
5.11506510991067
 20
36.46341112254336
 30
0.0
  0
MTEXT
  5
154
330
4A
100
AcDbEntity
  8
1
 62
     6
100
AcDbMText
 10
37.00000000022999
 20
23.06966207844562
 30
0.0
 40
5.0
 41
0.0
 71
     2
 72
     1
  1
 
  7
CONVERTER_11
 73
     1
 44
1.32052821128451
  0
ENDBLK
  5
4D
330
4A
100
AcDbEntity
  8
0
100
AcDbBlockEnd
  0
BLOCK
  5
4F
330
4E
100
AcDbEntity
  8
0
100
AcDbBlockBegin
  2
URKN-A-select__2
 70
     0
 10
-141.8499985155829
 20
60.29999961856991
 30
0.0
  3
URKN-A-select__2
  1

  0
LINE
  5
155
330
4E
100
AcDbEntity
  8
0
  6
Continuous
 62
     7
100
AcDbLine
 10
-98.37499851558297
 20
67.29999961856986
 30
0.0
 11
-87.0749985155828
 21
67.29999961856986
 31
0.0
  0
LINE
  5
156
330
4E
100
AcDbEntity
  8
0
  6
Continuous
 62
     7
100
AcDbLine
 10
-87.0749985155828
 20
67.29999961856986
 30
0.0
 11
-87.0749985155828
 21
66.14999961856985
 31
0.0
  0
LINE
  5
157
330
4E
100
AcDbEntity
  8
0
  6
Continuous
 62
     7
100
AcDbLine
 10
-87.0749985155828
 20
66.14999961856985
 30
0.0
 11
-75.0749985155828
 21
66.14999961856985
 31
0.0
  0
LINE
  5
158
330
4E
100
AcDbEntity
  8
0
  6
Continuous
 62
     7
100
AcDbLine
 10
-141.5999985155829
 20
69.39999961856991
 30
0.0
 11
-141.3749985155828
 21
69.39999961856991
 31
0.0
  0
LINE
  5
159
330
4E
100
AcDbEntity
  8
0
  6
Continuous
 62
     7
100
AcDbLine
 10
-121.6249985155829
 20
68.94999961856992
 30
0.0
 11
-123.7749985155829
 21
68.94999961856992
 31
0.0
  0
LINE
  5
15A
330
4E
100
AcDbEntity
  8
0
  6
Continuous
 62
     7
100
AcDbLine
 10
-121.6249985155829
 20
68.94999961856992
 30
0.0
 11
-118.1249985155829
 21
68.94999961856992
 31
0.0
  0
LINE
  5
15B
330
4E
100
AcDbEntity
  8
0
  6
Continuous
 62
     7
100
AcDbLine
 10
-115.9749985155829
 20
68.94999961856992
 30
0.0
 11
-118.1249985155829
 21
68.94999961856992
 31
0.0
  0
LINE
  5
15C
330
4E
100
AcDbEntity
  8
0
  6
Continuous
 62
     7
100
AcDbLine
 10
-75.0749985155828
 20
66.14999961856985
 30
0.0
 11
-74.0749985155828
 21
65.88205042613873
 31
0.0
  0
LINE
  5
15D
330
4E
100
AcDbEntity
  8
0
  6
Continuous
 62
     7
100
AcDbLine
 10
-131.1691631335612
 20
63.03365245989676
 30
0.0
 11
-127.3586513569097
 21
66.84416423654828
 31
0.0
  0
LINE
  5
15E
330
4E
100
AcDbEntity
  8
0
  6
Continuous
 62
     7
100
AcDbLine
 10
-123.7749985155829
 20
68.94999961856992
 30
0.0
 11
-123.7749985155829
 21
60.29999961856991
 31
0.0
  0
LINE
  5
15F
330
4E
100
AcDbEntity
  8
0
  6
Continuous
 62
     7
100
AcDbLine
 10
-126.5808338976045
 20
66.06634677724307
 30
0.0
 11
-130.391345674256
 21
62.25583500059155
 31
0.0
  0
LINE
  5
160
330
4E
100
AcDbEntity
  8
0
  6
Continuous
 62
     7
100
AcDbLine
 10
-115.9749985155829
 20
60.29999961856991
 30
0.0
 11
-115.9749985155829
 21
68.94999961856992
 31
0.0
  0
LINE
  5
161
330
4E
100
AcDbEntity
  8
0
  6
Continuous
 62
     7
100
AcDbLine
 10
-121.6249985155829
 20
68.94999961856992
 30
0.0
 11
-121.6249985155829
 21
70.44999961856992
 31
0.0
  0
LINE
  5
162
330
4E
100
AcDbEntity
  8
0
  6
Continuous
 62
     7
100
AcDbLine
 10
-133.3786972873064
 20
70.44999961856992
 30
0.0
 11
-121.6249985155829
 21
70.44999961856992
 31
0.0
  0
LINE
  5
163
330
4E
100
AcDbEntity
  8
0
  6
Continuous
 62
     7
100
AcDbLine
 10
-136.2066178585673
 20
70.44999961856992
 30
0.0
 11
-135.5951713280948
 21
70.44999961856992
 31
0.0
  0
LINE
  5
164
330
4E
100
AcDbEntity
  8
0
  6
Continuous
 62
     7
100
AcDbLine
 10
-136.8693158070736
 20
70.44999961856992
 30
0.0
 11
-136.2066178585673
 21
70.44999961856992
 31
0.0
  0
LINE
  5
165
330
4E
100
AcDbEntity
  8
0
  6
Continuous
 62
     7
100
AcDbLine
 10
-139.1548257030709
 20
70.44999961856992
 30
0.0
 11
-136.8693158070736
 21
70.44999961856992
 31
0.0
  0
LINE
  5
166
330
4E
100
AcDbEntity
  8
0
  6
Continuous
 62
     7
100
AcDbLine
 10
-139.1548257030709
 20
70.44999961856992
 30
0.0
 11
-141.3749985155828
 21
70.44999961856992
 31
0.0
  0
LINE
  5
167
330
4E
100
AcDbEntity
  8
0
  6
Continuous
 62
     7
100
AcDbLine
 10
-135.5951713280948
 20
70.44999961856992
 30
0.0
 11
-133.3786972873064
 21
70.44999961856992
 31
0.0
  0
LINE
  5
168
330
4E
100
AcDbEntity
  8
0
  6
Continuous
 62
     7
100
AcDbLine
 10
-118.1249985155829
 20
70.44999961856992
 30
0.0
 11
-118.1249985155829
 21
68.94999961856992
 31
0.0
  0
LINE
  5
169
330
4E
100
AcDbEntity
  8
0
  6
Continuous
 62
     7
100
AcDbLine
 10
-98.37499851558299
 20
60.29999961856991
 30
0.0
 11
-98.37499851558299
 21
70.44999961856992
 31
0.0
  0
LINE
  5
16A
330
4E
100
AcDbEntity
  8
0
  6
Continuous
 62
     7
100
AcDbLine
 10
-100.5951713280949
 20
70.44999961856992
 30
0.0
 11
-98.37499851558299
 21
70.44999961856992
 31
0.0
  0
LINE
  5
16B
330
4E
100
AcDbEntity
  8
0
  6
Continuous
 62
     7
100
AcDbLine
 10
-100.5951713280949
 20
60.29999961856991
 30
0.0
 11
-100.5951713280949
 21
70.44999961856992
 31
0.0
  0
LINE
  5
16C
330
4E
100
AcDbEntity
  8
0
  6
Continuous
 62
     7
100
AcDbLine
 10
-102.8806812240921
 20
60.29999961856991
 30
0.0
 11
-102.8806812240921
 21
70.44999961856992
 31
0.0
  0
LINE
  5
16D
330
4E
100
AcDbEntity
  8
0
  6
Continuous
 62
     7
100
AcDbLine
 10
-103.5433791725984
 20
70.44999961856992
 30
0.0
 11
-103.5433791725984
 21
60.29999961856991
 31
0.0
  0
LINE
  5
16E
330
4E
100
AcDbEntity
  8
0
  6
Continuous
 62
     7
100
AcDbLine
 10
-104.154825703071
 20
60.29999961856991
 30
0.0
 11
-104.154825703071
 21
70.44999961856992
 31
0.0
  0
LINE
  5
16F
330
4E
100
AcDbEntity
  8
0
  6
Continuous
 62
     7
100
AcDbLine
 10
-106.3712997438593
 20
60.29999961856991
 30
0.0
 11
-106.3712997438593
 21
70.44999961856992
 31
0.0
  0
LINE
  5
170
330
4E
100
AcDbEntity
  8
0
  6
Continuous
 62
     7
100
AcDbLine
 10
-136.8693158070736
 20
60.29999961856991
 30
0.0
 11
-136.8693158070736
 21
70.44999961856992
 31
0.0
  0
LINE
  5
171
330
4E
100
AcDbEntity
  8
0
  6
Continuous
 62
     7
100
AcDbLine
 10
-136.2066178585673
 20
70.44999961856992
 30
0.0
 11
-136.2066178585673
 21
60.29999961856991
 31
0.0
  0
LINE
  5
172
330
4E
100
AcDbEntity
  8
0
  6
Continuous
 62
     7
100
AcDbLine
 10
-135.5951713280948
 20
60.29999961856991
 30
0.0
 11
-135.5951713280948
 21
70.44999961856992
 31
0.0
  0
LINE
  5
173
330
4E
100
AcDbEntity
  8
0
  6
Continuous
 62
     7
100
AcDbLine
 10
-133.3786972873064
 20
60.29999961856991
 30
0.0
 11
-133.3786972873064
 21
70.44999961856992
 31
0.0
  0
LINE
  5
174
330
4E
100
AcDbEntity
  8
0
  6
Continuous
 62
     7
100
AcDbLine
 10
-74.0749985155828
 20
63.21794881100098
 30
0.0
 11
-74.0749985155828
 21
65.88205042613873
 31
0.0
  0
LINE
  5
175
330
4E
100
AcDbEntity
  8
0
  6
Continuous
 62
     7
100
AcDbLine
 10
-87.0749985155828
 20
62.94999961856986
 30
0.0
 11
-87.0749985155828
 21
61.79999961856986
 31
0.0
  0
LINE
  5
176
330
4E
100
AcDbEntity
  8
0
  6
Continuous
 62
     7
100
AcDbLine
 10
-98.37499851558297
 20
61.79999961856986
 30
0.0
 11
-87.0749985155828
 21
61.79999961856986
 31
0.0
  0
LINE
  5
177
330
4E
100
AcDbEntity
  8
0
  6
Continuous
 62
     7
100
AcDbLine
 10
-100.5951713280949
 20
60.29999961856991
 30
0.0
 11
-98.37499851558299
 21
60.29999961856991
 31
0.0
  0
LINE
  5
178
330
4E
100
AcDbEntity
  8
0
  6
Continuous
 62
     7
100
AcDbLine
 10
-102.8806812240921
 20
60.29999961856991
 30
0.0
 11
-100.5951713280949
 21
60.29999961856991
 31
0.0
  0
LINE
  5
179
330
4E
100
AcDbEntity
  8
0
  6
Continuous
 62
     7
100
AcDbLine
 10
-104.154825703071
 20
60.29999961856991
 30
0.0
 11
-103.5433791725984
 21
60.29999961856991
 31
0.0
  0
LINE
  5
17A
330
4E
100
AcDbEntity
  8
0
  6
Continuous
 62
     7
100
AcDbLine
 10
-103.5433791725984
 20
60.29999961856991
 30
0.0
 11
-102.8806812240921
 21
60.29999961856991
 31
0.0
  0
LINE
  5
17B
330
4E
100
AcDbEntity
  8
0
  6
Continuous
 62
     7
100
AcDbLine
 10
-106.3712997438593
 20
60.29999961856991
 30
0.0
 11
-104.154825703071
 21
60.29999961856991
 31
0.0
  0
LINE
  5
17C
330
4E
100
AcDbEntity
  8
0
  6
Continuous
 62
     7
100
AcDbLine
 10
-115.9749985155829
 20
60.29999961856991
 30
0.0
 11
-106.3712997438593
 21
60.29999961856991
 31
0.0
  0
LINE
  5
17D
330
4E
100
AcDbEntity
  8
0
  6
Continuous
 62
     7
100
AcDbLine
 10
-133.3786972873064
 20
60.29999961856991
 30
0.0
 11
-123.7749985155829
 21
60.29999961856991
 31
0.0
  0
LINE
  5
17E
330
4E
100
AcDbEntity
  8
0
  6
Continuous
 62
     7
100
AcDbLine
 10
-135.5951713280948
 20
60.29999961856991
 30
0.0
 11
-133.3786972873064
 21
60.29999961856991
 31
0.0
  0
LINE
  5
17F
330
4E
100
AcDbEntity
  8
0
  6
Continuous
 62
     7
100
AcDbLine
 10
-136.2066178585673
 20
60.29999961856991
 30
0.0
 11
-135.5951713280948
 21
60.29999961856991
 31
0.0
  0
LINE
  5
180
330
4E
100
AcDbEntity
  8
0
  6
Continuous
 62
     7
100
AcDbLine
 10
-136.8693158070736
 20
60.29999961856991
 30
0.0
 11
-136.2066178585673
 21
60.29999961856991
 31
0.0
  0
LINE
  5
181
330
4E
100
AcDbEntity
  8
0
  6
Continuous
 62
     7
100
AcDbLine
 10
-139.1548257030709
 20
60.29999961856991
 30
0.0
 11
-136.8693158070736
 21
60.29999961856991
 31
0.0
  0
LINE
  5
182
330
4E
100
AcDbEntity
  8
0
  6
Continuous
 62
     7
100
AcDbLine
 10
-141.3749985155828
 20
60.29999961856991
 30
0.0
 11
-139.1548257030709
 21
60.29999961856991
 31
0.0
  0
LINE
  5
183
330
4E
100
AcDbEntity
  8
0
  6
Continuous
 62
     7
100
AcDbLine
 10
-141.3749985155828
 20
60.29999961856991
 30
0.0
 11
-141.8499985155829
 21
60.29999961856991
 31
0.0
  0
LINE
  5
184
330
4E
100
AcDbEntity
  8
0
  6
Continuous
 62
     7
100
AcDbLine
 10
-115.9749985155829
 20
60.29999961856991
 30
0.0
 11
-123.7749985155829
 21
60.29999961856991
 31
0.0
  0
LINE
  5
185
330
4E
100
AcDbEntity
  8
0
  6
Continuous
 62
     7
100
AcDbLine
 10
-75.0749985155828
 20
62.94999961856986
 30
0.0
 11
-87.0749985155828
 21
62.94999961856986
 31
0.0
  0
LINE
  5
186
330
4E
100
AcDbEntity
  8
0
  6
Continuous
 62
     7
100
AcDbLine
 10
-74.0749985155828
 20
63.21794881100098
 30
0.0
 11
-75.0749985155828
 21
62.94999961856986
 31
0.0
  0
LINE
  5
187
330
4E
100
AcDbEntity
  8
0
  6
Continuous
 62
     7
100
AcDbLine
 10
-102.8806812240921
 20
70.44999961856992
 30
0.0
 11
-100.5951713280949
 21
70.44999961856992
 31
0.0
  0
LINE
  5
188
330
4E
100
AcDbEntity
  8
0
  6
Continuous
 62
     7
100
AcDbLine
 10
-104.154825703071
 20
70.44999961856992
 30
0.0
 11
-103.5433791725984
 21
70.44999961856992
 31
0.0
  0
LINE
  5
189
330
4E
100
AcDbEntity
  8
0
  6
Continuous
 62
     7
100
AcDbLine
 10
-103.5433791725984
 20
70.44999961856992
 30
0.0
 11
-102.8806812240921
 21
70.44999961856992
 31
0.0
  0
LINE
  5
18A
330
4E
100
AcDbEntity
  8
0
  6
Continuous
 62
     7
100
AcDbLine
 10
-106.3712997438593
 20
70.44999961856992
 30
0.0
 11
-104.154825703071
 21
70.44999961856992
 31
0.0
  0
LINE
  5
18B
330
4E
100
AcDbEntity
  8
0
  6
Continuous
 62
     7
100
AcDbLine
 10
-118.1249985155829
 20
70.44999961856992
 30
0.0
 11
-106.3712997438593
 21
70.44999961856992
 31
0.0
  0
LINE
  5
18C
330
4E
100
AcDbEntity
  8
0
  6
Continuous
 62
     7
100
AcDbLine
 10
-118.1249985155829
 20
70.44999961856992
 30
0.0
 11
-121.6249985155829
 21
70.44999961856992
 31
0.0
  0
LINE
  5
18D
330
4E
100
AcDbEntity
  8
0
  6
Continuous
 62
     7
100
AcDbLine
 10
-141.5999985155829
 20
70.44999961856992
 30
0.0
 11
-141.8499985155829
 21
70.44999961856992
 31
0.0
  0
LINE
  5
18E
330
4E
100
AcDbEntity
  8
0
  6
Continuous
 62
     7
100
AcDbLine
 10
-141.5999985155829
 20
70.44999961856992
 30
0.0
 11
-141.3749985155828
 21
70.44999961856992
 31
0.0
  0
LINE
  5
18F
330
4E
100
AcDbEntity
  8
0
  6
Continuous
 62
     7
100
AcDbLine
 10
-139.1548257030709
 20
60.29999961856991
 30
0.0
 11
-139.1548257030709
 21
70.44999961856992
 31
0.0
  0
LINE
  5
190
330
4E
100
AcDbEntity
  8
0
  6
Continuous
 62
     2
100
AcDbLine
 10
-141.5999985155829
 20
70.44999961856992
 30
0.0
 11
-141.5999985155829
 21
69.39999961856991
 31
0.0
  0
LINE
  5
191
330
4E
100
AcDbEntity
  8
0
  6
Continuous
 62
     7
100
AcDbLine
 10
-141.3749985155828
 20
60.29999961856991
 30
0.0
 11
-141.3749985155828
 21
70.44999961856992
 31
0.0
  0
LINE
  5
192
330
4E
100
AcDbEntity
  8
0
  6
Continuous
 62
     7
100
AcDbLine
 10
-141.8499985155829
 20
70.44999961856992
 30
0.0
 11
-141.8499985155829
 21
60.29999961856991
 31
0.0
  0
LINE
  5
193
330
4E
100
AcDbEntity
  8
1
  6
DOT_CENTER
 62
     2
100
AcDbLine
 10
-107.849998515583
 20
64.54999961856991
 30
0.0
 11
-113.8999985155827
 21
64.54999961856991
 31
0.0
  0
LINE
  5
194
330
4E
100
AcDbEntity
  8
1
  6
DOT_CENTER
 62
     2
100
AcDbLine
 10
-110.8749985155829
 20
67.57499961856978
 30
0.0
 11
-110.8749985155829
 21
61.52499961857005
 31
0.0
  0
LINE
  5
195
330
4E
100
AcDbEntity
  8
1
  6
DOT_CENTER
 62
     2
100
AcDbLine
 10
-125.776031943632
 20
64.54999961856991
 30
0.0
 11
-131.8999985155828
 21
64.54999961856991
 31
0.0
  0
LINE
  5
196
330
4E
100
AcDbEntity
  8
1
  6
DOT_CENTER
 62
     2
100
AcDbLine
 10
-128.8749985155829
 20
67.57499961856979
 30
0.0
 11
-128.8749985155829
 21
61.52499961857004
 31
0.0
  0
ARC
  5
197
330
4E
100
AcDbEntity
  8
0
  6
Continuous
 62
     7
100
AcDbCircle
 10
-128.8749985155829
 20
64.54999961856991
 30
0.0
 40
2.749999999999949
100
AcDbArc
 50
213.463040967185
 51
236.5369590328163
  0
ARC
  5
198
330
4E
100
AcDbEntity
  8
0
  6
Continuous
 62
     7
100
AcDbCircle
 10
-128.8749985155829
 20
64.54999961856991
 30
0.0
 40
2.75
100
AcDbArc
 50
180.0
 51
213.463040967185
  0
ARC
  5
199
330
4E
100
AcDbEntity
  8
0
  6
Continuous
 62
     7
100
AcDbCircle
 10
-128.8749985155829
 20
64.54999961856991
 30
0.0
 40
2.750000000000009
100
AcDbArc
 50
33.46304096718421
 51
56.53695903281515
  0
ARC
  5
19A
330
4E
100
AcDbEntity
  8
0
  6
Continuous
 62
     7
100
AcDbCircle
 10
-128.8749985155829
 20
64.54999961856991
 30
0.0
 40
2.750000000000012
100
AcDbArc
 50
56.53695903281515
 51
180.0
  0
ARC
  5
19B
330
4E
100
AcDbEntity
  8
0
  6
Continuous
 62
     7
100
AcDbCircle
 10
-128.8749985155829
 20
64.54999961856991
 30
0.0
 40
2.749999999999968
100
AcDbArc
 50
236.5369590328163
 51
33.46304096718421
  0
CIRCLE
  5
19C
330
4E
100
AcDbEntity
  8
0
  6
Continuous
 62
     7
100
AcDbCircle
 10
-110.8749985155829
 20
64.54999961856991
 30
0.0
 40
2.75
  0
ENDBLK
  5
50
330
4E
100
AcDbEntity
  8
0
100
AcDbBlockEnd
  0
BLOCK
  5
53
330
51
100
AcDbEntity
  8
0
100
AcDbBlockBegin
  2
Drfsicht1
 70
     0
 10
-107.9624997577899
 20
65.37499980928484
 30
0.0
  3
Drfsicht1
  1

  0
INSERT
  5
52
330
51
100
AcDbEntity
  8
0
100
AcDbBlockReference
  2
URKN-A-select__2
 10
-141.8499985155829
 20
60.29999961856991
 30
0.0
  0
DIMENSION
  5
1A8
330
51
100
AcDbEntity
  8
1
100
AcDbDimension
  2
*D17
 10
-151.8499985155829
 20
60.29999961856991
 30
0.0
 11
-155.2749985155829
 21
51.834703959636
 31
0.0
 70
    33
  1
<>
 71
     5
 42
-1.0
 53
90.0
  3
ME10_DIM_10
100
AcDbAlignedDimension
 13
-141.8499985155829
 23
70.44999961856992
 33
0.0
 14
-141.8499985155829
 24
60.29999961856991
 34
0.0
  0
ENDBLK
  5
54
330
51
100
AcDbEntity
  8
0
100
AcDbBlockEnd
  0
BLOCK
  5
56
330
55
100
AcDbEntity
  8
0
100
AcDbBlockBegin
  2
URKN-A-select__3
 70
     0
 10
-22.88750124246191
 20
121.449999585166
 30
0.0
  3
URKN-A-select__3
  1

  0
LINE
  5
1A9
330
55
100
AcDbEntity
  8
0
  6
Continuous
 62
     7
100
AcDbLine
 10
37.81249875753818
 20
133.999999585166
 30
0.0
 11
40.93039197635156
 21
133.999999585166
 31
0.0
  0
LINE
  5
1AA
330
55
100
AcDbEntity
  8
0
  6
Continuous
 62
     7
100
AcDbLine
 10
41.38749875753817
 20
132.949999585166
 30
0.0
 11
37.81249875753818
 21
132.949999585166
 31
0.0
  0
LINE
  5
1AB
330
55
100
AcDbEntity
  8
0
  6
Continuous
 62
     7
100
AcDbLine
 10
40.08721942543008
 20
126.349999585166
 30
0.0
 11
40.08721942542996
 21
126.149999585166
 31
0.0
  0
LINE
  5
1AC
330
55
100
AcDbEntity
  8
0
  6
Continuous
 62
     7
100
AcDbLine
 10
41.11249875753828
 20
126.549999585166
 30
0.0
 11
40.08721942543008
 21
126.349999585166
 31
0.0
  0
LINE
  5
1AD
330
55
100
AcDbEntity
  8
0
  6
Continuous
 62
     7
100
AcDbLine
 10
40.18749875753818
 20
127.9504114872722
 30
0.0
 11
41.32409113438825
 21
127.749999585166
 31
0.0
  0
LINE
  5
1AE
330
55
100
AcDbEntity
  8
0
  6
Continuous
 62
     7
100
AcDbLine
 10
40.18749875753818
 20
128.649999585166
 30
0.0
 11
40.18749875753818
 21
127.9504114872722
 31
0.0
  0
LINE
  5
1AF
330
55
100
AcDbEntity
  8
0
  6
Continuous
 62
     7
100
AcDbLine
 10
40.98749875753828
 20
130.0356402312211
 30
0.0
 11
40.18749875753818
 21
128.649999585166
 31
0.0
  0
LINE
  5
1B0
330
55
100
AcDbEntity
  8
0
  6
Continuous
 62
     7
100
AcDbLine
 10
36.57617389213297
 20
130.849999585166
 30
0.0
 11
40.98749875753828
 21
131.2472798843004
 31
0.0
  0
LINE
  5
1B1
330
55
100
AcDbEntity
  8
0
  6
Continuous
 62
     7
100
AcDbLine
 10
41.32409113438825
 20
127.749999585166
 30
0.0
 11
41.11249875753828
 21
126.549999585166
 31
0.0
  0
LINE
  5
1B2
330
55
100
AcDbEntity
  8
0
  6
Continuous
 62
     7
100
AcDbLine
 10
40.98749875753828
 20
131.2472798843004
 30
0.0
 11
40.98749875753828
 21
130.0356402312211
 31
0.0
  0
LINE
  5
1B3
330
55
100
AcDbEntity
  8
0
  6
Continuous
 62
     7
100
AcDbLine
 10
41.68807027644346
 20
133.5017065132512
 30
0.0
 11
43.38135118201498
 21
133.5017065132512
 31
0.0
  0
LINE
  5
1B4
330
55
100
AcDbEntity
  8
0
  6
Continuous
 62
     7
100
AcDbLine
 10
42.38749875753805
 20
126.2594006619245
 30
0.0
 11
42.38749875753817
 21
131.949999585166
 31
0.0
  0
LINE
  5
1B5
330
55
100
AcDbEntity
  8
0
  6
Continuous
 62
     7
100
AcDbLine
 10
41.48097692366378
 20
121.449999585166
 30
0.0
 11
44.88749875753817
 21
121.449999585166
 31
0.0
  0
LINE
  5
1B6
330
55
100
AcDbEntity
  8
0
  6
Continuous
 62
     7
100
AcDbLine
 10
44.88749875753817
 20
121.449999585166
 30
0.0
 11
44.88749875753817
 21
123.949999585166
 31
0.0
  0
LINE
  5
1B7
330
55
100
AcDbEntity
  8
0
  6
Continuous
 62
     7
100
AcDbLine
 10
44.41249875753817
 20
137.350001655205
 30
0.0
 11
43.38135118201498
 21
133.5017065132512
 31
0.0
  0
LINE
  5
1B8
330
55
100
AcDbEntity
  8
0
  6
Continuous
 62
     7
100
AcDbLine
 10
44.63749875753817
 20
124.3830122870582
 30
0.0
 11
42.88749875753817
 21
125.39337525814
 31
0.0
  0
LINE
  5
1B9
330
55
100
AcDbEntity
  8
0
  6
Continuous
 62
     7
100
AcDbLine
 10
13.63749875753817
 20
121.449999585166
 30
0.0
 11
13.63749875753817
 21
123.099999585166
 31
0.0
  0
LINE
  5
1BA
330
55
100
AcDbEntity
  8
0
  6
Continuous
 62
     7
100
AcDbLine
 10
10.68749875753818
 20
122.724999585166
 30
0.0
 11
10.68749875753818
 21
121.449999585166
 31
0.0
  0
LINE
  5
1BB
330
55
100
AcDbEntity
  8
0
  6
Continuous
 62
     7
100
AcDbLine
 10
10.98749875753828
 20
124.849999585166
 30
0.0
 11
10.98749875753828
 21
124.349999585166
 31
0.0
  0
LINE
  5
1BC
330
55
100
AcDbEntity
  8
0
  6
Continuous
 62
     7
100
AcDbLine
 10
12.21249875753816
 20
131.449999585166
 30
0.0
 11
12.21249875753816
 21
130.3756175021524
 31
0.0
  0
LINE
  5
1BD
330
55
100
AcDbEntity
  8
0
  6
Continuous
 62
     7
100
AcDbLine
 10
11.21249875753816
 20
131.949999585166
 30
0.0
 11
11.71249875753816
 21
131.949999585166
 31
0.0
  0
LINE
  5
1BE
330
55
100
AcDbEntity
  8
0
  6
Continuous
 62
     7
100
AcDbLine
 10
10.71249875753816
 20
130.1181215495889
 30
0.0
 11
10.71249875753816
 21
131.449999585166
 31
0.0
  0
LINE
  5
1BF
330
55
100
AcDbEntity
  8
0
  6
Continuous
 62
     7
100
AcDbLine
 10
6.11249875753828
 20
127.749999585166
 30
0.0
 11
10.18749875753807
 21
127.749999585166
 31
0.0
  0
LINE
  5
1C0
330
55
100
AcDbEntity
  8
0
  6
Continuous
 62
     7
100
AcDbLine
 10
10.18749875753807
 20
127.749999585166
 30
0.0
 11
10.71249875753816
 21
130.1181215495889
 31
0.0
  0
LINE
  5
1C1
330
55
100
AcDbEntity
  8
0
  6
Continuous
 62
     7
100
AcDbLine
 10
12.21249875753816
 20
130.3756175021524
 30
0.0
 11
10.98749875753828
 21
124.849999585166
 31
0.0
  0
LINE
  5
1C2
330
55
100
AcDbEntity
  8
0
  6
Continuous
 62
     7
100
AcDbLine
 10
10.98749875753828
 20
124.349999585166
 30
0.0
 11
11.83749875753816
 21
124.349999585166
 31
0.0
  0
LINE
  5
1C3
330
55
100
AcDbEntity
  8
0
  6
Continuous
 62
     7
100
AcDbLine
 10
11.83749875753816
 20
124.349999585166
 30
0.0
 11
11.83749875753816
 21
122.849999585166
 31
0.0
  0
LINE
  5
1C4
330
55
100
AcDbEntity
  8
0
  6
Continuous
 62
     7
100
AcDbLine
 10
11.83749875753816
 20
122.849999585166
 30
0.0
 11
10.68749875753818
 21
122.724999585166
 31
0.0
  0
LINE
  5
1C5
330
55
100
AcDbEntity
  8
0
  6
Continuous
 62
     7
100
AcDbLine
 10
10.68749875753818
 20
121.449999585166
 30
0.0
 11
13.63749875753817
 21
121.449999585166
 31
0.0
  0
LINE
  5
1C6
330
55
100
AcDbEntity
  8
0
  6
Continuous
 62
     7
100
AcDbLine
 10
13.63749875753817
 20
123.099999585166
 30
0.0
 11
14.27749875753815
 21
123.0999995851661
 31
0.0
  0
LINE
  5
1C7
330
55
100
AcDbEntity
  8
0
  6
Continuous
 62
     7
100
AcDbLine
 10
36.28749875753817
 20
130.349999585166
 30
0.0
 11
36.57617389213297
 21
130.849999585166
 31
0.0
  0
LINE
  5
1C8
330
55
100
AcDbEntity
  8
0
  6
Continuous
 62
     7
100
AcDbLine
 10
30.48749875753828
 20
130.349999585166
 30
0.0
 11
36.28749875753817
 21
130.349999585166
 31
0.0
  0
LINE
  5
1C9
330
55
100
AcDbEntity
  8
0
  6
Continuous
 62
     7
100
AcDbLine
 10
30.15807946880346
 20
131.5794091077172
 30
0.0
 11
30.48749875753828
 21
130.349999585166
 31
0.0
  0
LINE
  5
1CA
330
55
100
AcDbEntity
  8
0
  6
Continuous
 62
     7
100
AcDbLine
 10
29.56249875753818
 20
131.949999585166
 30
0.0
 11
29.67511655565897
 21
131.949999585166
 31
0.0
  0
LINE
  5
1CB
330
55
100
AcDbEntity
  8
0
  6
Continuous
 62
     7
100
AcDbLine
 10
29.06249875753818
 20
129.099999585166
 30
0.0
 11
29.06249875753818
 21
131.449999585166
 31
0.0
  0
LINE
  5
1CC
330
55
100
AcDbEntity
  8
0
  6
Continuous
 62
     7
100
AcDbLine
 10
-21.88750124246184
 20
141.4499995851664
 30
0.0
 11
-22.88750124246191
 21
141.4499995851665
 31
0.0
  0
LINE
  5
1CD
330
55
100
AcDbEntity
  8
0
  6
Continuous
 62
     7
100
AcDbLine
 10
-9.88750124246184
 20
143.9499995851664
 30
0.0
 11
-21.88750124246184
 21
143.9499995851664
 31
0.0
  0
LINE
  5
1CE
330
55
100
AcDbEntity
  8
0
  6
Continuous
 62
     7
100
AcDbLine
 10
-22.88750124246191
 20
141.4499995851665
 30
0.0
 11
-22.88750124246188
 21
143.9499995851665
 31
0.0
  0
LINE
  5
1CF
330
55
100
AcDbEntity
  8
0
  6
Continuous
 62
     7
100
AcDbLine
 10
-21.88750124246184
 20
143.9499995851664
 30
0.0
 11
-21.88750124246184
 21
141.4499995851664
 31
0.0
  0
LINE
  5
1D0
330
55
100
AcDbEntity
  8
0
  6
Continuous
 62
     7
100
AcDbLine
 10
-21.88750124246184
 20
143.9499995851664
 30
0.0
 11
-22.88750124246188
 21
143.9499995851665
 31
0.0
  0
LINE
  5
1D1
330
55
100
AcDbEntity
  8
0
  6
Continuous
 62
     7
100
AcDbLine
 10
-9.88750124246184
 20
141.4499995851664
 30
0.0
 11
-9.88750124246184
 21
143.9499995851664
 31
0.0
  0
LINE
  5
1D2
330
55
100
AcDbEntity
  8
0
  6
Continuous
 62
     7
100
AcDbLine
 10
1.41249875753817
 20
137.3500016552048
 30
0.0
 11
1.41249875753827
 21
156.6999995851662
 31
0.0
  0
LINE
  5
1D3
330
55
100
AcDbEntity
  8
0
  6
Continuous
 62
     7
100
AcDbLine
 10
1.41249875753827
 20
143.9499995851663
 30
0.0
 11
-9.88750124246184
 21
143.9499995851664
 31
0.0
  0
LINE
  5
1D4
330
55
100
AcDbEntity
  8
0
  6
Continuous
 62
     7
100
AcDbLine
 10
-9.88750124246184
 20
141.4499995851664
 30
0.0
 11
1.41249875753817
 21
141.4499995851663
 31
0.0
  0
LINE
  5
1D5
330
55
100
AcDbEntity
  8
0
  6
Continuous
 62
     7
100
AcDbLine
 10
-9.88750124246184
 20
141.4499995851664
 30
0.0
 11
-21.88750124246184
 21
141.4499995851664
 31
0.0
  0
LINE
  5
1D6
330
55
100
AcDbEntity
  8
0
  6
Continuous
 62
     7
100
AcDbLine
 10
2.49735836636467
 20
124.949999585166
 30
0.0
 11
1.41249875753817
 21
137.3500016552048
 31
0.0
  0
LINE
  5
1D7
330
55
100
AcDbEntity
  8
0
  6
Continuous
 62
     7
100
AcDbLine
 10
6.91249875753817
 20
126.349999585166
 30
0.0
 11
6.11249875753816
 21
126.549999585166
 31
0.0
  0
LINE
  5
1D8
330
55
100
AcDbEntity
  8
0
  6
Continuous
 62
     7
100
AcDbLine
 10
6.91249875753817
 20
125.899999585166
 30
0.0
 11
6.91249875753817
 21
126.349999585166
 31
0.0
  0
LINE
  5
1D9
330
55
100
AcDbEntity
  8
0
  6
Continuous
 62
     7
100
AcDbLine
 10
8.81673223250448
 20
165.3145081549098
 30
0.0
 11
9.74337941455377
 21
164.7795081549098
 31
0.0
  0
LINE
  5
1DA
330
55
100
AcDbEntity
  8
0
  6
Continuous
 62
     7
100
AcDbLine
 10
8.55278299896167
 20
164.8573346717944
 30
0.0
 11
8.81673223250448
 21
165.3145081549098
 31
0.0
  0
LINE
  5
1DB
330
55
100
AcDbEntity
  8
0
  6
Continuous
 62
     7
100
AcDbLine
 10
7.19232594502625
 20
166.7109539328631
 30
0.0
 11
8.55278299896167
 21
164.8573346717944
 31
0.0
  0
LINE
  5
1DC
330
55
100
AcDbEntity
  8
0
  6
Continuous
 62
     7
100
AcDbLine
 10
9.40879998581457
 20
170.549999585166
 30
0.0
 11
7.19232594502625
 21
166.7109539328631
 31
0.0
  0
LINE
  5
1DD
330
55
100
AcDbEntity
  8
0
  6
Continuous
 62
     7
100
AcDbLine
 10
9.74337941455377
 20
164.7795081549098
 30
0.0
 11
6.58087941455366
 21
159.3018974759732
 31
0.0
  0
LINE
  5
1DE
330
55
100
AcDbEntity
  8
0
  6
Continuous
 62
     7
100
AcDbLine
 10
5.96249875753816
 20
124.949999585166
 30
0.0
 11
6.91249875753817
 21
125.899999585166
 31
0.0
  0
LINE
  5
1DF
330
55
100
AcDbEntity
  8
0
  6
Continuous
 62
     7
100
AcDbLine
 10
6.11249875753816
 20
126.549999585166
 30
0.0
 11
6.11249875753828
 21
127.749999585166
 31
0.0
  0
LINE
  5
1E0
330
55
100
AcDbEntity
  8
0
  6
Continuous
 62
     7
100
AcDbLine
 10
2.49735836636467
 20
124.949999585166
 30
0.0
 11
5.96249875753816
 21
124.949999585166
 31
0.0
  0
LINE
  5
1E1
330
55
100
AcDbEntity
  8
0
  6
Continuous
 62
     7
100
AcDbLine
 10
6.58087941455366
 20
159.3018974759732
 30
0.0
 11
5.65423223250446
 21
159.8368974759732
 31
0.0
  0
LINE
  5
1E2
330
55
100
AcDbEntity
  8
0
  6
Continuous
 62
     7
100
AcDbLine
 10
5.65423223250446
 20
159.8368974759732
 30
0.0
 11
5.91818146604746
 21
160.2940709590884
 31
0.0
  0
LINE
  5
1E3
330
55
100
AcDbEntity
  8
0
  6
Continuous
 62
     7
100
AcDbLine
 10
5.91818146604746
 20
160.2940709590884
 30
0.0
 11
3.63267157005016
 21
160.5454516980198
 31
0.0
  0
LINE
  5
1E4
330
55
100
AcDbEntity
  8
0
  6
Continuous
 62
     7
100
AcDbLine
 10
3.63267157005016
 20
160.5454516980198
 30
0.0
 11
1.41249875753827
 21
156.6999995851662
 31
0.0
  0
LINE
  5
1E5
330
55
100
AcDbEntity
  8
0
  6
Continuous
 62
     7
100
AcDbLine
 10
21.16249875753817
 20
163.549999585166
 30
0.0
 11
24.66249875753817
 21
163.549999585166
 31
0.0
  0
LINE
  5
1E6
330
55
100
AcDbEntity
  8
0
  6
Continuous
 62
     7
100
AcDbLine
 10
37.27221451611487
 20
164.8573346717944
 30
0.0
 11
38.63267157005018
 21
166.7109539328632
 31
0.0
  0
LINE
  5
1E7
330
55
100
AcDbEntity
  8
0
  6
Continuous
 62
     7
100
AcDbLine
 10
38.63267157005018
 20
166.7109539328632
 30
0.0
 11
36.41619752926178
 21
170.549999585166
 31
0.0
  0
LINE
  5
1E8
330
55
100
AcDbEntity
  8
0
  6
Continuous
 62
     7
100
AcDbLine
 10
36.41619752926178
 20
170.549999585166
 30
0.0
 11
24.66249875753817
 21
170.549999585166
 31
0.0
  0
LINE
  5
1E9
330
55
100
AcDbEntity
  8
0
  6
Continuous
 62
     7
100
AcDbLine
 10
24.66249875753817
 20
170.549999585166
 30
0.0
 11
24.66249875753817
 21
163.549999585166
 31
0.0
  0
LINE
  5
1EA
330
55
100
AcDbEntity
  8
0
  6
Continuous
 62
     7
100
AcDbLine
 10
21.16249875753817
 20
170.549999585166
 30
0.0
 11
21.16249875753817
 21
163.549999585166
 31
0.0
  0
LINE
  5
1EB
330
55
100
AcDbEntity
  8
0
  6
Continuous
 62
     7
100
AcDbLine
 10
21.16249875753817
 20
170.549999585166
 30
0.0
 11
9.40879998581457
 21
170.549999585166
 31
0.0
  0
LINE
  5
1EC
330
55
100
AcDbEntity
  8
0
  6
Continuous
 62
     7
100
AcDbLine
 10
39.90681604902886
 20
160.2940709590884
 30
0.0
 11
40.17076528257186
 21
159.8368974759731
 31
0.0
  0
LINE
  5
1ED
330
55
100
AcDbEntity
  8
0
  6
Continuous
 62
     7
100
AcDbLine
 10
37.00826528257187
 20
165.3145081549097
 30
0.0
 11
37.27221451611487
 21
164.8573346717944
 31
0.0
  0
LINE
  5
1EE
330
55
100
AcDbEntity
  8
0
  6
Continuous
 62
     7
100
AcDbLine
 10
42.19232594502617
 20
160.5454516980198
 30
0.0
 11
39.90681604902886
 21
160.2940709590884
 31
0.0
  0
LINE
  5
1EF
330
55
100
AcDbEntity
  8
0
  6
Continuous
 62
     7
100
AcDbLine
 10
36.08161810052258
 20
164.7795081549097
 30
0.0
 11
37.00826528257187
 21
165.3145081549097
 31
0.0
  0
LINE
  5
1F0
330
55
100
AcDbEntity
  8
0
  6
Continuous
 62
     7
100
AcDbLine
 10
40.17076528257186
 20
159.8368974759731
 30
0.0
 11
39.24411810052257
 21
159.3018974759731
 31
0.0
  0
LINE
  5
1F1
330
55
100
AcDbEntity
  8
0
  6
Continuous
 62
     7
100
AcDbLine
 10
39.24411810052257
 20
159.3018974759731
 30
0.0
 11
36.08161810052258
 21
164.7795081549097
 31
0.0
  0
LINE
  5
1F2
330
55
100
AcDbEntity
  8
0
  6
Continuous
 62
     7
100
AcDbLine
 10
44.41249875753817
 20
137.350001655205
 30
0.0
 11
44.41249875753817
 21
156.6999995851662
 31
0.0
  0
LINE
  5
1F3
330
55
100
AcDbEntity
  8
0
  6
Continuous
 62
     7
100
AcDbLine
 10
44.41249875753817
 20
156.6999995851662
 30
0.0
 11
42.19232594502617
 21
160.5454516980198
 31
0.0
  0
ARC
  5
1F4
330
55
100
AcDbEntity
  8
0
  6
Continuous
 62
     7
100
AcDbCircle
 10
49.58367554645278
 20
126.409462764609
 30
0.0
 40
9.499999999999924
100
AcDbArc
 50
181.5650519949543
 51
211.4697785839644
  0
ARC
  5
1F5
330
55
100
AcDbEntity
  8
0
  6
Continuous
 62
     7
100
AcDbCircle
 10
27.07416672653196
 20
126.1888761241219
 30
0.0
 40
1.199999999999943
100
AcDbArc
 50
353.0762791559321
 51
79.2935130311196
  0
ARC
  5
1F6
330
55
100
AcDbEntity
  8
0
  6
Continuous
 62
     7
100
AcDbCircle
 10
28.66249875753817
 20
125.995999585166
 30
0.0
 40
0.4000000000000324
100
AcDbArc
 50
173.0762791559473
 51
311.3165829300589
  0
ARC
  5
1F7
330
55
100
AcDbEntity
  8
0
  6
Continuous
 62
     7
100
AcDbCircle
 10
41.63749875753817
 20
134.249999585166
 30
0.0
 40
0.750000000000059
100
AcDbArc
 50
199.4712206344891
 51
273.8663130269678
  0
ARC
  5
1F8
330
55
100
AcDbEntity
  8
0
  6
Continuous
 62
     7
100
AcDbCircle
 10
43.38749875753817
 20
126.2594006619245
 30
0.0
 40
1.000000000000121
100
AcDbArc
 50
180.0
 51
240.0000000000019
  0
ARC
  5
1F9
330
55
100
AcDbEntity
  8
0
  6
Continuous
 62
     7
100
AcDbCircle
 10
44.38749875753817
 20
123.949999585166
 30
0.0
 40
0.5
100
AcDbArc
 50
0.0
 51
59.99999999999865
  0
ARC
  5
1FA
330
55
100
AcDbEntity
  8
0
  6
Continuous
 62
     7
100
AcDbCircle
 10
41.38749875753817
 20
131.949999585166
 30
0.0
 40
1.0
100
AcDbArc
 50
0.0
 51
90.0
  0
ARC
  5
1FB
330
55
100
AcDbEntity
  8
0
  6
Continuous
 62
     7
100
AcDbCircle
 10
26.71485248264457
 20
128.2116651709196
 30
0.0
 40
3.350000000000059
100
AcDbArc
 50
311.3165829300449
 51
357.5849578586676
  0
ARC
  5
1FC
330
55
100
AcDbEntity
  8
0
  6
Continuous
 62
     7
100
AcDbCircle
 10
11.71249875753816
 20
131.449999585166
 30
0.0
 40
0.5
100
AcDbArc
 50
0.0
 51
90.0
  0
ARC
  5
1FD
330
55
100
AcDbEntity
  8
0
  6
Continuous
 62
     7
100
AcDbCircle
 10
11.21249875753816
 20
131.449999585166
 30
0.0
 40
0.5
100
AcDbArc
 50
90.0
 51
180.0
  0
ARC
  5
1FE
330
55
100
AcDbEntity
  8
0
  6
Continuous
 62
     7
100
AcDbCircle
 10
14.27749875753815
 20
125.099999585166
 30
0.0
 40
1.999999999999901
100
AcDbArc
 50
270.0
 51
325.6719647666255
  0
ARC
  5
1FF
330
55
100
AcDbEntity
  8
0
  6
Continuous
 62
     7
100
AcDbCircle
 10
22.53572334054636
 20
119.4606976127054
 30
0.0
 40
7.999999999999976
100
AcDbArc
 50
102.3352321792812
 51
145.6719647666233
  0
ARC
  5
200
330
55
100
AcDbEntity
  8
0
  6
Continuous
 62
     7
100
AcDbCircle
 10
29.67511655565897
 20
131.449999585166
 30
0.0
 40
0.4999999999999383
100
AcDbArc
 50
14.99999999999299
 51
90.0
  0
ARC
  5
201
330
55
100
AcDbEntity
  8
0
  6
Continuous
 62
     7
100
AcDbCircle
 10
29.56249875753818
 20
131.449999585166
 30
0.0
 40
0.5
100
AcDbArc
 50
90.0
 51
180.0
  0
ARC
  5
202
330
55
100
AcDbEntity
  8
0
  6
Continuous
 62
     7
100
AcDbCircle
 10
29.36249875753828
 20
129.099999585166
 30
0.0
 40
0.3000000000001002
100
AcDbArc
 50
180.0
 51
270.0
  0
ARC
  5
203
330
55
100
AcDbEntity
  8
0
  6
Continuous
 62
     7
100
AcDbCircle
 10
29.36249875753828
 20
128.099999585166
 30
0.0
 40
0.699999999999924
100
AcDbArc
 50
357.5849578586676
 51
90.0
  0
ARC
  5
204
330
55
100
AcDbEntity
  8
0
  6
Continuous
 62
     7
100
AcDbCircle
 10
37.81249875753818
 20
133.474999585166
 30
0.0
 40
0.5250000000000057
100
AcDbArc
 50
90.0
 51
270.0
  0
ARC
  5
205
330
55
100
AcDbEntity
  8
0
  6
Continuous
 62
     7
100
AcDbCircle
 10
24.28749875753817
 20
111.449999585166
 30
0.0
 40
16.19999999999996
100
AcDbArc
 50
79.29351303112054
 51
102.3352321792815
  0
ENDBLK
  5
57
330
55
100
AcDbEntity
  8
0
100
AcDbBlockEnd
  0
BLOCK
  5
5A
330
58
100
AcDbEntity
  8
0
100
AcDbBlockBegin
  2
Rckans1
 70
     0
 10
10.99999999974517
 20
146.0000000000001
 30
0.0
  3
Rckans1
  1

  0
INSERT
  5
59
330
58
100
AcDbEntity
  8
0
100
AcDbBlockReference
  2
URKN-A-select__3
 10
-22.88750124246191
 20
121.449999585166
 30
0.0
  0
MTEXT
  5
206
330
58
100
AcDbEntity
  8
1
 62
     6
100
AcDbMText
 10
10.99999999974489
 20
116.4499998092651
 30
0.0
 40
5.0
 41
0.0
 71
     2
 72
     1
  1
 
  7
CONVERTER_11
 73
     1
 44
1.32052821128451
  0
ENDBLK
  5
5B
330
58
100
AcDbEntity
  8
0
100
AcDbBlockEnd
  0
BLOCK
  5
5D
330
5C
100
AcDbEntity
  8
0
100
AcDbBlockBegin
  2
URKN-A-select__4
 70
     0
 10
-188.0750001906949
 20
121.4499995851659
 30
0.0
  3
URKN-A-select__4
  1

  0
LINE
  5
207
330
5C
100
AcDbEntity
  8
0
  6
Continuous
 62
     7
100
AcDbLine
 10
-185.425000190695
 20
141.4499995851663
 30
0.0
 11
-186.575000190695
 21
141.4499995851662
 31
0.0
  0
LINE
  5
208
330
5C
100
AcDbEntity
  8
0
  6
Continuous
 62
     7
100
AcDbLine
 10
-185.1570509982639
 20
141.4499995851664
 30
0.0
 11
-185.425000190695
 21
141.4499995851663
 31
0.0
  0
LINE
  5
209
330
5C
100
AcDbEntity
  8
0
  6
Continuous
 62
     7
100
AcDbLine
 10
-185.1570509982639
 20
143.9499995851664
 30
0.0
 11
-185.1570509982639
 21
141.4499995851664
 31
0.0
  0
LINE
  5
20A
330
5C
100
AcDbEntity
  8
0
  6
Continuous
 62
     7
100
AcDbLine
 10
-185.425000190695
 20
141.4499995851663
 30
0.0
 11
-185.425000190695
 21
143.9499995851663
 31
0.0
  0
LINE
  5
20B
330
5C
100
AcDbEntity
  8
0
  6
Continuous
 62
     7
100
AcDbLine
 10
-182.225000190695
 20
141.4499995851663
 30
0.0
 11
-182.4929493831261
 21
141.4499995851663
 31
0.0
  0
LINE
  5
20C
330
5C
100
AcDbEntity
  8
0
  6
Continuous
 62
     7
100
AcDbLine
 10
-182.4929493831261
 20
141.4499995851663
 30
0.0
 11
-185.1570509982639
 21
141.4499995851664
 31
0.0
  0
LINE
  5
20D
330
5C
100
AcDbEntity
  8
0
  6
Continuous
 62
     7
100
AcDbLine
 10
-182.4929493831261
 20
141.4499995851663
 30
0.0
 11
-182.4929493831261
 21
143.9499995851664
 31
0.0
  0
LINE
  5
20E
330
5C
100
AcDbEntity
  8
0
  6
Continuous
 62
     7
100
AcDbLine
 10
-182.225000190695
 20
143.9499995851662
 30
0.0
 11
-182.225000190695
 21
141.4499995851663
 31
0.0
  0
LINE
  5
20F
330
5C
100
AcDbEntity
  8
0
  6
Continuous
 62
     7
100
AcDbLine
 10
-185.425000190695
 20
143.9499995851663
 30
0.0
 11
-186.575000190695
 21
143.9499995851662
 31
0.0
  0
LINE
  5
210
330
5C
100
AcDbEntity
  8
0
  6
Continuous
 62
     7
100
AcDbLine
 10
-185.1570509982639
 20
143.9499995851664
 30
0.0
 11
-185.425000190695
 21
143.9499995851663
 31
0.0
  0
LINE
  5
211
330
5C
100
AcDbEntity
  8
0
  6
Continuous
 62
     7
100
AcDbLine
 10
-181.075000190695
 20
141.4499995851661
 30
0.0
 11
-182.225000190695
 21
141.4499995851663
 31
0.0
  0
LINE
  5
212
330
5C
100
AcDbEntity
  8
0
  6
Continuous
 62
     7
100
AcDbLine
 10
-182.225000190695
 20
143.9499995851662
 30
0.0
 11
-182.4929493831261
 21
143.9499995851664
 31
0.0
  0
LINE
  5
213
330
5C
100
AcDbEntity
  8
0
  6
Continuous
 62
     7
100
AcDbLine
 10
-181.075000190695
 20
143.9499995851662
 30
0.0
 11
-182.225000190695
 21
143.9499995851662
 31
0.0
  0
LINE
  5
214
330
5C
100
AcDbEntity
  8
0
  6
Continuous
 62
     7
100
AcDbLine
 10
-186.575000190695
 20
141.4499995851662
 30
0.0
 11
-186.575000190695
 21
143.9499995851662
 31
0.0
  0
LINE
  5
215
330
5C
100
AcDbEntity
  8
0
  6
Continuous
 62
     7
100
AcDbLine
 10
-186.575000190695
 20
141.4499995851662
 30
0.0
 11
-186.6250001906949
 21
141.4499995851658
 31
0.0
  0
LINE
  5
216
330
5C
100
AcDbEntity
  8
0
  6
Continuous
 62
     7
100
AcDbLine
 10
-188.0750001906949
 20
160.5454516980197
 30
0.0
 11
-188.0750001906949
 21
156.699999585166
 31
0.0
  0
LINE
  5
217
330
5C
100
AcDbEntity
  8
0
  6
Continuous
 62
     7
100
AcDbLine
 10
-186.625000190695
 20
149.5499995851658
 30
0.0
 11
-187.2750001906949
 21
151.5855151816737
 31
0.0
  0
LINE
  5
218
330
5C
100
AcDbEntity
  8
0
  6
Continuous
 62
     7
100
AcDbLine
 10
-186.6250001906949
 20
141.4499995851658
 30
0.0
 11
-186.625000190695
 21
149.5499995851658
 31
0.0
  0
LINE
  5
219
330
5C
100
AcDbEntity
  8
0
  6
Continuous
 62
     7
100
AcDbLine
 10
-186.575000190695
 20
149.5499995851658
 30
0.0
 11
-186.575000190695
 21
143.9499995851662
 31
0.0
  0
LINE
  5
21A
330
5C
100
AcDbEntity
  8
0
  6
Continuous
 62
     7
100
AcDbLine
 10
-185.1570509982639
 20
143.9499995851664
 30
0.0
 11
-182.4929493831261
 21
143.9499995851664
 31
0.0
  0
LINE
  5
21B
330
5C
100
AcDbEntity
  8
0
  6
Continuous
 62
     7
100
AcDbLine
 10
-187.2750001906949
 20
151.5855151816737
 30
0.0
 11
-187.2750001906949
 21
155.67542689276
 31
0.0
  0
LINE
  5
21C
330
5C
100
AcDbEntity
  8
0
  6
Continuous
 62
     7
100
AcDbLine
 10
-188.0750001906949
 20
164.7795081549097
 30
0.0
 11
-188.0750001906949
 21
164.8573346717942
 31
0.0
  0
LINE
  5
21D
330
5C
100
AcDbEntity
  8
0
  6
Continuous
 62
     7
100
AcDbLine
 10
-188.0750001906949
 20
166.7109539328629
 30
0.0
 11
-188.0750001906949
 21
164.8573346717942
 31
0.0
  0
LINE
  5
21E
330
5C
100
AcDbEntity
  8
0
  6
Continuous
 62
     7
100
AcDbLine
 10
-188.0750001906949
 20
160.5454516980197
 30
0.0
 11
-188.0750001906949
 21
164.7795081549097
 31
0.0
  0
LINE
  5
21F
330
5C
100
AcDbEntity
  8
0
  6
Continuous
 62
     7
100
AcDbLine
 10
-188.0750001906949
 20
156.699999585166
 30
0.0
 11
-188.0750001906949
 21
137.3500016552048
 31
0.0
  0
LINE
  5
220
330
5C
100
AcDbEntity
  8
0
  6
Continuous
 62
     7
100
AcDbLine
 10
-187.2750001906949
 20
140.0494442352193
 30
0.0
 11
-187.2750001906949
 21
151.5855151816737
 31
0.0
  0
LINE
  5
221
330
5C
100
AcDbEntity
  8
0
  6
Continuous
 62
     7
100
AcDbLine
 10
-188.0750001906949
 20
164.8573346717942
 30
0.0
 11
-177.9250001906949
 21
164.8573346717942
 31
0.0
  0
LINE
  5
222
330
5C
100
AcDbEntity
  8
0
  6
Continuous
 62
     7
100
AcDbLine
 10
-177.9250001906949
 20
164.7795081549097
 30
0.0
 11
-177.9250001906949
 21
160.5454516980197
 31
0.0
  0
LINE
  5
223
330
5C
100
AcDbEntity
  8
0
  6
Continuous
 62
     7
100
AcDbLine
 10
-177.9250001906949
 20
164.7795081549097
 30
0.0
 11
-188.0750001906949
 21
164.7795081549097
 31
0.0
  0
LINE
  5
224
330
5C
100
AcDbEntity
  8
0
  6
Continuous
 62
     7
100
AcDbLine
 10
-188.0750001906949
 20
160.5454516980197
 30
0.0
 11
-177.9250001906949
 21
160.5454516980197
 31
0.0
  0
LINE
  5
225
330
5C
100
AcDbEntity
  8
0
  6
Continuous
 62
     7
100
AcDbLine
 10
-188.0750001906949
 20
166.7109539328629
 30
0.0
 11
-177.9250001906949
 21
166.7109539328629
 31
0.0
  0
LINE
  5
226
330
5C
100
AcDbEntity
  8
0
  6
Continuous
 62
     7
100
AcDbLine
 10
-177.9250001906949
 20
122.7249995851659
 30
0.0
 11
-177.9250001906949
 21
121.4499995851659
 31
0.0
  0
LINE
  5
227
330
5C
100
AcDbEntity
  8
0
  6
Continuous
 62
     7
100
AcDbLine
 10
-188.0750001906949
 20
122.7249995851659
 30
0.0
 11
-188.0750001906949
 21
121.4499995851659
 31
0.0
  0
LINE
  5
228
330
5C
100
AcDbEntity
  8
0
  6
Continuous
 62
     7
100
AcDbLine
 10
-177.9250001906949
 20
122.8499995851659
 30
0.0
 11
-177.9250001906949
 21
122.7249995851659
 31
0.0
  0
LINE
  5
229
330
5C
100
AcDbEntity
  8
0
  6
Continuous
 62
     7
100
AcDbLine
 10
-177.9250001906949
 20
124.3499995851659
 30
0.0
 11
-177.9250001906949
 21
122.8499995851659
 31
0.0
  0
LINE
  5
22A
330
5C
100
AcDbEntity
  8
0
  6
Continuous
 62
     7
100
AcDbLine
 10
-177.9250001906949
 20
124.8499995851659
 30
0.0
 11
-177.9250001906949
 21
124.3499995851659
 31
0.0
  0
LINE
  5
22B
330
5C
100
AcDbEntity
  8
0
  6
Continuous
 62
     7
100
AcDbLine
 10
-177.9250001906949
 20
124.3499995851659
 30
0.0
 11
-188.0750001906949
 21
124.3499995851659
 31
0.0
  0
LINE
  5
22C
330
5C
100
AcDbEntity
  8
0
  6
Continuous
 62
     7
100
AcDbLine
 10
-177.9250001906949
 20
122.8499995851659
 30
0.0
 11
-188.0750001906949
 21
122.8499995851659
 31
0.0
  0
LINE
  5
22D
330
5C
100
AcDbEntity
  8
0
  6
Continuous
 62
     7
100
AcDbLine
 10
-177.9250001906949
 20
122.7249995851659
 30
0.0
 11
-188.0750001906949
 21
122.7249995851659
 31
0.0
  0
LINE
  5
22E
330
5C
100
AcDbEntity
  8
0
  6
Continuous
 62
     7
100
AcDbLine
 10
-188.0750001906949
 20
121.4499995851659
 30
0.0
 11
-177.9250001906949
 21
121.4499995851659
 31
0.0
  0
LINE
  5
22F
330
5C
100
AcDbEntity
  8
0
  6
Continuous
 62
     7
100
AcDbLine
 10
-181.075000190695
 20
149.5499995851658
 30
0.0
 11
-180.9250001906949
 21
149.5499995851658
 31
0.0
  0
LINE
  5
230
330
5C
100
AcDbEntity
  8
0
  6
Continuous
 62
     7
100
AcDbLine
 10
-186.625000190695
 20
149.5499995851658
 30
0.0
 11
-186.575000190695
 21
149.5499995851658
 31
0.0
  0
LINE
  5
231
330
5C
100
AcDbEntity
  8
0
  6
Continuous
 62
     7
100
AcDbLine
 10
-177.9250001906949
 20
160.5454516980197
 30
0.0
 11
-177.9250001906949
 21
156.699999585166
 31
0.0
  0
LINE
  5
232
330
5C
100
AcDbEntity
  8
0
  6
Continuous
 62
     7
100
AcDbLine
 10
-188.0750001906949
 20
156.699999585166
 30
0.0
 11
-177.9250001906949
 21
156.699999585166
 31
0.0
  0
LINE
  5
233
330
5C
100
AcDbEntity
  8
0
  6
Continuous
 62
     7
100
AcDbLine
 10
-187.2750001906949
 20
155.67542689276
 30
0.0
 11
-178.7250001906949
 21
155.67542689276
 31
0.0
  0
LINE
  5
234
330
5C
100
AcDbEntity
  8
0
  6
Continuous
 62
     7
100
AcDbLine
 10
-186.575000190695
 20
149.5499995851658
 30
0.0
 11
-181.075000190695
 21
149.5499995851658
 31
0.0
  0
LINE
  5
235
330
5C
100
AcDbEntity
  8
0
  6
Continuous
 62
     7
100
AcDbLine
 10
-177.9250001906949
 20
124.8499995851659
 30
0.0
 11
-188.0750001906949
 21
124.8499995851659
 31
0.0
  0
LINE
  5
236
330
5C
100
AcDbEntity
  8
0
  6
Continuous
 62
     7
100
AcDbLine
 10
-188.0750001906949
 20
124.9499995851659
 30
0.0
 11
-177.9250001906949
 21
124.9499995851659
 31
0.0
  0
LINE
  5
237
330
5C
100
AcDbEntity
  8
0
  6
Continuous
 62
     7
100
AcDbLine
 10
-177.9250001906949
 20
137.3500016552048
 30
0.0
 11
-177.9250001906949
 21
124.9499995851659
 31
0.0
  0
LINE
  5
238
330
5C
100
AcDbEntity
  8
0
  6
Continuous
 62
     7
100
AcDbLine
 10
-177.9250001906949
 20
124.9499995851659
 30
0.0
 11
-177.9250001906949
 21
124.8499995851659
 31
0.0
  0
LINE
  5
239
330
5C
100
AcDbEntity
  8
0
  6
Continuous
 62
     7
100
AcDbLine
 10
-188.0750001906949
 20
166.7109539328629
 30
0.0
 11
-188.0750001906949
 21
170.5499995851659
 31
0.0
  0
LINE
  5
23A
330
5C
100
AcDbEntity
  8
0
  6
Continuous
 62
     7
100
AcDbLine
 10
-177.9250001906949
 20
170.5499995851659
 30
0.0
 11
-188.0750001906949
 21
170.5499995851659
 31
0.0
  0
LINE
  5
23B
330
5C
100
AcDbEntity
  8
0
  6
Continuous
 62
     7
100
AcDbLine
 10
-177.9250001906949
 20
156.699999585166
 30
0.0
 11
-177.9250001906949
 21
137.3500016552048
 31
0.0
  0
LINE
  5
23C
330
5C
100
AcDbEntity
  8
0
  6
Continuous
 62
     7
100
AcDbLine
 10
-178.7250001906949
 20
137.3500016552047
 30
0.0
 11
-177.9250001906949
 21
137.3500016552048
 31
0.0
  0
LINE
  5
23D
330
5C
100
AcDbEntity
  8
0
  6
Continuous
 62
     7
100
AcDbLine
 10
-178.7250001906949
 20
137.3500016552047
 30
0.0
 11
-178.7250001906949
 21
139.9362692186835
 31
0.0
  0
LINE
  5
23E
330
5C
100
AcDbEntity
  8
0
  6
Continuous
 62
     7
100
AcDbLine
 10
-178.7250001906949
 20
151.7499995851659
 30
0.0
 11
-178.7250001906949
 21
155.67542689276
 31
0.0
  0
LINE
  5
23F
330
5C
100
AcDbEntity
  8
0
  6
Continuous
 62
     7
100
AcDbLine
 10
-178.7250001906949
 20
139.9362692186835
 30
0.0
 11
-178.7250001906949
 21
151.7499995851659
 31
0.0
  0
LINE
  5
240
330
5C
100
AcDbEntity
  8
0
  6
Continuous
 62
     7
100
AcDbLine
 10
-181.075000190695
 20
141.4499995851661
 30
0.0
 11
-181.075000190695
 21
143.9499995851662
 31
0.0
  0
LINE
  5
241
330
5C
100
AcDbEntity
  8
0
  6
Continuous
 62
     7
100
AcDbLine
 10
-181.075000190695
 20
149.5499995851658
 30
0.0
 11
-181.075000190695
 21
143.9499995851662
 31
0.0
  0
LINE
  5
242
330
5C
100
AcDbEntity
  8
0
  6
Continuous
 62
     7
100
AcDbLine
 10
-180.9250001906949
 20
141.4499995851658
 30
0.0
 11
-181.075000190695
 21
141.4499995851661
 31
0.0
  0
LINE
  5
243
330
5C
100
AcDbEntity
  8
0
  6
Continuous
 62
     7
100
AcDbLine
 10
-177.9250001906949
 20
164.8573346717942
 30
0.0
 11
-177.9250001906949
 21
164.7795081549097
 31
0.0
  0
LINE
  5
244
330
5C
100
AcDbEntity
  8
0
  6
Continuous
 62
     7
100
AcDbLine
 10
-177.9250001906949
 20
166.7109539328629
 30
0.0
 11
-177.9250001906949
 21
164.8573346717942
 31
0.0
  0
LINE
  5
245
330
5C
100
AcDbEntity
  8
0
  6
Continuous
 62
     7
100
AcDbLine
 10
-177.9250001906949
 20
170.5499995851659
 30
0.0
 11
-177.9250001906949
 21
166.7109539328629
 31
0.0
  0
LINE
  5
246
330
5C
100
AcDbEntity
  8
0
  6
Continuous
 62
     7
100
AcDbLine
 10
-180.9250001906949
 20
149.5499995851658
 30
0.0
 11
-180.9250001906949
 21
141.4499995851658
 31
0.0
  0
LINE
  5
247
330
5C
100
AcDbEntity
  8
0
  6
Continuous
 62
     7
100
AcDbLine
 10
-178.7250001906949
 20
139.9362692186835
 30
0.0
 11
-180.9250001906949
 21
141.4499995851658
 31
0.0
  0
LINE
  5
248
330
5C
100
AcDbEntity
  8
0
  6
Continuous
 62
     7
100
AcDbLine
 10
-178.7250001906949
 20
137.2408557545332
 30
0.0
 11
-178.7250001906949
 21
137.3500016552047
 31
0.0
  0
LINE
  5
249
330
5C
100
AcDbEntity
  8
0
  6
Continuous
 62
     7
100
AcDbLine
 10
-178.7250001906949
 20
137.2408557545332
 30
0.0
 11
-187.2750001906949
 21
137.2408557545332
 31
0.0
  0
LINE
  5
24A
330
5C
100
AcDbEntity
  8
0
  6
Continuous
 62
     7
100
AcDbLine
 10
-188.0750001906949
 20
137.3500016552048
 30
0.0
 11
-188.0750001906949
 21
124.9499995851659
 31
0.0
  0
LINE
  5
24B
330
5C
100
AcDbEntity
  8
0
  6
Continuous
 62
     7
100
AcDbLine
 10
-187.2750001906949
 20
137.2408557545332
 30
0.0
 11
-187.2750001906949
 21
137.3500016552047
 31
0.0
  0
LINE
  5
24C
330
5C
100
AcDbEntity
  8
0
  6
Continuous
 62
     7
100
AcDbLine
 10
-187.2750001906949
 20
137.3500016552047
 30
0.0
 11
-187.2750001906949
 21
140.0494442352193
 31
0.0
  0
LINE
  5
24D
330
5C
100
AcDbEntity
  8
0
  6
Continuous
 62
     7
100
AcDbLine
 10
-188.0750001906949
 20
137.3500016552048
 30
0.0
 11
-187.2750001906949
 21
137.3500016552047
 31
0.0
  0
LINE
  5
24E
330
5C
100
AcDbEntity
  8
0
  6
Continuous
 62
     7
100
AcDbLine
 10
-188.0750001906949
 20
124.9499995851659
 30
0.0
 11
-188.0750001906949
 21
124.8499995851659
 31
0.0
  0
LINE
  5
24F
330
5C
100
AcDbEntity
  8
0
  6
Continuous
 62
     7
100
AcDbLine
 10
-188.0750001906949
 20
124.8499995851659
 30
0.0
 11
-188.0750001906949
 21
124.3499995851659
 31
0.0
  0
LINE
  5
250
330
5C
100
AcDbEntity
  8
0
  6
Continuous
 62
     7
100
AcDbLine
 10
-188.0750001906949
 20
122.7249995851659
 30
0.0
 11
-188.0750001906949
 21
122.8499995851659
 31
0.0
  0
LINE
  5
251
330
5C
100
AcDbEntity
  8
0
  6
Continuous
 62
     7
100
AcDbLine
 10
-188.0750001906949
 20
122.8499995851659
 30
0.0
 11
-188.0750001906949
 21
124.3499995851659
 31
0.0
  0
LINE
  5
252
330
5C
100
AcDbEntity
  8
0
  6
Continuous
 62
     7
100
AcDbLine
 10
-187.2750001906949
 20
140.0494442352193
 30
0.0
 11
-186.6250001906949
 21
141.4499995851658
 31
0.0
  0
LINE
  5
253
330
5C
100
AcDbEntity
  8
0
  6
Continuous
 62
     7
100
AcDbLine
 10
-180.9250001906949
 20
149.5499995851658
 30
0.0
 11
-178.7250001906949
 21
151.7499995851659
 31
0.0
  0
ENDBLK
  5
5E
330
5C
100
AcDbEntity
  8
0
100
AcDbBlockEnd
  0
BLOCK
  5
61
330
5F
100
AcDbEntity
  8
0
100
AcDbBlockBegin
  2
SA_Rechts1
 70
     0
 10
-182.99999999998
 20
146.0
 30
0.0
  3
SA_Rechts1
  1

  0
INSERT
  5
60
330
5F
100
AcDbEntity
  8
0
100
AcDbBlockReference
  2
URKN-A-select__4
 10
-188.0750001906949
 20
121.4499995851659
 30
0.0
  0
MTEXT
  5
254
330
5F
100
AcDbEntity
  8
1
 62
     6
100
AcDbMText
 10
-182.99999999998
 20
116.4499998092651
 30
0.0
 40
5.0
 41
0.0
 71
     2
 72
     1
  1
 
  7
CONVERTER_11
 73
     1
 44
1.32052821128451
  0
ENDBLK
  5
62
330
5F
100
AcDbEntity
  8
0
100
AcDbBlockEnd
  0
BLOCK
  5
64
330
63
100
AcDbEntity
  8
0
100
AcDbBlockBegin
  2
URKN-A-select__5
 70
     0
 10
-49.6686013756892
 20
121.449999170332
 30
0.0
  3
URKN-A-select__5
  1

  0
LINE
  5
255
330
63
100
AcDbEntity
  8
0
  6
Continuous
 62
     7
100
AcDbLine
 10
-39.5186013756892
 20
170.549999170332
 30
0.0
 11
-49.6686013756892
 21
170.549999170332
 31
0.0
  0
LINE
  5
256
330
63
100
AcDbEntity
  8
0
  6
Continuous
 62
     7
100
AcDbLine
 10
-49.6686013756892
 20
125.393374843306
 30
0.0
 11
-49.6686013756892
 21
126.2594002470905
 31
0.0
  0
LINE
  5
257
330
63
100
AcDbEntity
  8
0
  6
Continuous
 62
     7
100
AcDbLine
 10
-49.6686013756892
 20
126.2594002470905
 30
0.0
 11
-49.6686013756892
 21
131.949999170332
 31
0.0
  0
LINE
  5
258
330
63
100
AcDbEntity
  8
0
  6
Continuous
 62
     7
100
AcDbLine
 10
-49.6686013756892
 20
166.7109535180292
 30
0.0
 11
-49.6686013756892
 21
170.549999170332
 31
0.0
  0
LINE
  5
259
330
63
100
AcDbEntity
  8
0
  6
Continuous
 62
     7
100
AcDbLine
 10
-48.6186013756892
 20
125.393374843306
 30
0.0
 11
-48.6186013756892
 21
126.2594002470905
 31
0.0
  0
LINE
  5
25A
330
63
100
AcDbEntity
  8
0
  6
Continuous
 62
     7
100
AcDbLine
 10
-39.5186013756892
 20
166.7109535180292
 30
0.0
 11
-49.6686013756892
 21
166.7109535180292
 31
0.0
  0
LINE
  5
25B
330
63
100
AcDbEntity
  8
0
  6
Continuous
 62
     7
100
AcDbLine
 10
-49.6686013756892
 20
164.8573342569603
 30
0.0
 11
-49.6686013756892
 21
166.7109535180292
 31
0.0
  0
LINE
  5
25C
330
63
100
AcDbEntity
  8
0
  6
Continuous
 62
     7
100
AcDbLine
 10
-39.5186013756892
 20
164.8573342569604
 30
0.0
 11
-49.6686013756892
 21
164.8573342569603
 31
0.0
  0
LINE
  5
25D
330
63
100
AcDbEntity
  8
0
  6
Continuous
 62
     7
100
AcDbLine
 10
-49.6686013756892
 20
164.7795077400757
 30
0.0
 11
-49.6686013756892
 21
164.8573342569603
 31
0.0
  0
LINE
  5
25E
330
63
100
AcDbEntity
  8
0
  6
Continuous
 62
     7
100
AcDbLine
 10
-49.6686013756892
 20
164.7795077400757
 30
0.0
 11
-39.5186013756892
 21
164.7795077400757
 31
0.0
  0
LINE
  5
25F
330
63
100
AcDbEntity
  8
0
  6
Continuous
 62
     7
100
AcDbLine
 10
-49.6686013756892
 20
156.6999991703322
 30
0.0
 11
-49.6686013756892
 21
160.5454512831858
 31
0.0
  0
LINE
  5
260
330
63
100
AcDbEntity
  8
0
  6
Continuous
 62
     7
100
AcDbLine
 10
-49.6686013756892
 20
160.5454512831858
 30
0.0
 11
-49.6686013756892
 21
164.7795077400757
 31
0.0
  0
LINE
  5
261
330
63
100
AcDbEntity
  8
0
  6
Continuous
 62
     7
100
AcDbLine
 10
-39.5186013756892
 20
160.5454512831858
 30
0.0
 11
-49.6686013756892
 21
160.5454512831858
 31
0.0
  0
LINE
  5
262
330
63
100
AcDbEntity
  8
0
  6
Continuous
 62
     7
100
AcDbLine
 10
-39.5186013756892
 20
133.5017060984172
 30
0.0
 11
-49.6686013756892
 21
133.5017060984172
 31
0.0
  0
LINE
  5
263
330
63
100
AcDbEntity
  8
0
  6
Continuous
 62
     7
100
AcDbLine
 10
-49.6686013756892
 20
133.4999991703319
 30
0.0
 11
-39.5186013756892
 21
133.4999991703319
 31
0.0
  0
LINE
  5
264
330
63
100
AcDbEntity
  8
0
  6
Continuous
 62
     7
100
AcDbLine
 10
-40.9686013756892
 20
149.549999170332
 30
0.0
 11
-40.9686013756892
 21
141.449999170332
 31
0.0
  0
LINE
  5
265
330
63
100
AcDbEntity
  8
0
  6
Continuous
 62
     7
100
AcDbLine
 10
-46.66860137568919
 20
141.449999170332
 30
0.0
 11
-46.6686013756892
 21
149.549999170332
 31
0.0
  0
LINE
  5
266
330
63
100
AcDbEntity
  8
0
  6
Continuous
 62
     7
100
AcDbLine
 10
-48.8686013756892
 20
155.675426477926
 30
0.0
 11
-40.3186013756892
 21
155.675426477926
 31
0.0
  0
LINE
  5
267
330
63
100
AcDbEntity
  8
0
  6
Continuous
 62
     7
100
AcDbLine
 10
-48.8686013756892
 20
137.350001240371
 30
0.0
 11
-48.8686013756892
 21
137.2507036031808
 31
0.0
  0
LINE
  5
268
330
63
100
AcDbEntity
  8
0
  6
Continuous
 62
     7
100
AcDbLine
 10
-48.8686013756892
 20
139.9362688038497
 30
0.0
 11
-48.8686013756892
 21
137.350001240371
 31
0.0
  0
LINE
  5
269
330
63
100
AcDbEntity
  8
0
  6
Continuous
 62
     7
100
AcDbLine
 10
-40.3186013756892
 20
137.350001240371
 30
0.0
 11
-40.3186013756892
 21
137.2507036031808
 31
0.0
  0
LINE
  5
26A
330
63
100
AcDbEntity
  8
0
  6
Continuous
 62
     7
100
AcDbLine
 10
-40.3186013756892
 20
140.0494438203855
 30
0.0
 11
-40.3186013756892
 21
137.350001240371
 31
0.0
  0
LINE
  5
26B
330
63
100
AcDbEntity
  8
0
  6
Continuous
 62
     7
100
AcDbLine
 10
-48.8686013756892
 20
155.675426477926
 30
0.0
 11
-48.8686013756892
 21
151.749999170332
 31
0.0
  0
LINE
  5
26C
330
63
100
AcDbEntity
  8
0
  6
Continuous
 62
     7
100
AcDbLine
 10
-40.3186013756892
 20
155.675426477926
 30
0.0
 11
-40.3186013756892
 21
151.5855147668398
 31
0.0
  0
LINE
  5
26D
330
63
100
AcDbEntity
  8
0
  6
Continuous
 62
     7
100
AcDbLine
 10
-40.9686013756892
 20
141.449999170332
 30
0.0
 11
-46.66860137568919
 21
141.449999170332
 31
0.0
  0
LINE
  5
26E
330
63
100
AcDbEntity
  8
0
  6
Continuous
 62
     7
100
AcDbLine
 10
-46.6686013756892
 20
149.549999170332
 30
0.0
 11
-40.9686013756892
 21
149.549999170332
 31
0.0
  0
LINE
  5
26F
330
63
100
AcDbEntity
  8
0
  6
Continuous
 62
     7
100
AcDbLine
 10
-40.3186013756892
 20
151.5855147668398
 30
0.0
 11
-40.3186013756892
 21
140.0494438203855
 31
0.0
  0
LINE
  5
270
330
63
100
AcDbEntity
  8
0
  6
Continuous
 62
     7
100
AcDbLine
 10
-48.8686013756892
 20
137.350001240371
 30
0.0
 11
-49.6686013756892
 21
137.350001240371
 31
0.0
  0
LINE
  5
271
330
63
100
AcDbEntity
  8
0
  6
Continuous
 62
     7
100
AcDbLine
 10
-40.3186013756892
 20
137.2507036031808
 30
0.0
 11
-48.8686013756892
 21
137.2507036031808
 31
0.0
  0
LINE
  5
272
330
63
100
AcDbEntity
  8
0
  6
Continuous
 62
     7
100
AcDbLine
 10
-39.5186013756892
 20
156.6999991703322
 30
0.0
 11
-49.6686013756892
 21
156.6999991703322
 31
0.0
  0
LINE
  5
273
330
63
100
AcDbEntity
  8
0
  6
Continuous
 62
     7
100
AcDbLine
 10
-39.5186013756892
 20
137.350001240371
 30
0.0
 11
-40.3186013756892
 21
137.350001240371
 31
0.0
  0
LINE
  5
274
330
63
100
AcDbEntity
  8
0
  6
Continuous
 62
     7
100
AcDbLine
 10
-49.6686013756892
 20
133.4999991703319
 30
0.0
 11
-49.6686013756892
 21
133.5017060984172
 31
0.0
  0
LINE
  5
275
330
63
100
AcDbEntity
  8
0
  6
Continuous
 62
     7
100
AcDbLine
 10
-49.6686013756892
 20
132.949999170332
 30
0.0
 11
-49.6686013756892
 21
133.4999991703319
 31
0.0
  0
LINE
  5
276
330
63
100
AcDbEntity
  8
0
  6
Continuous
 62
     7
100
AcDbLine
 10
-49.6686013756892
 20
133.5017060984172
 30
0.0
 11
-49.6686013756892
 21
137.350001240371
 31
0.0
  0
LINE
  5
277
330
63
100
AcDbEntity
  8
0
  6
Continuous
 62
     7
100
AcDbLine
 10
-49.6686013756892
 20
132.949999170332
 30
0.0
 11
-39.5186013756892
 21
132.949999170332
 31
0.0
  0
LINE
  5
278
330
63
100
AcDbEntity
  8
0
  6
Continuous
 62
     7
100
AcDbLine
 10
-39.5186013756892
 20
132.949999170332
 30
0.0
 11
-39.5186013756892
 21
131.949999170332
 31
0.0
  0
LINE
  5
279
330
63
100
AcDbEntity
  8
0
  6
Continuous
 62
     7
100
AcDbLine
 10
-49.6686013756892
 20
132.949999170332
 30
0.0
 11
-49.6686013756892
 21
131.949999170332
 31
0.0
  0
LINE
  5
27A
330
63
100
AcDbEntity
  8
0
  6
Continuous
 62
     2
100
AcDbLine
 10
-49.6686013756892
 20
131.949999170332
 30
0.0
 11
-39.5186013756892
 21
131.949999170332
 31
0.0
  0
LINE
  5
27B
330
63
100
AcDbEntity
  8
0
  6
Continuous
 62
     7
100
AcDbLine
 10
-48.8686013756892
 20
151.749999170332
 30
0.0
 11
-48.8686013756892
 21
139.9362688038497
 31
0.0
  0
LINE
  5
27C
330
63
100
AcDbEntity
  8
0
  6
Continuous
 62
     7
100
AcDbLine
 10
-49.6686013756892
 20
137.350001240371
 30
0.0
 11
-49.6686013756892
 21
156.6999991703322
 31
0.0
  0
LINE
  5
27D
330
63
100
AcDbEntity
  8
0
  6
Continuous
 62
     7
100
AcDbLine
 10
-40.9686013756892
 20
141.449999170332
 30
0.0
 11
-40.3186013756892
 21
140.0494438203855
 31
0.0
  0
LINE
  5
27E
330
63
100
AcDbEntity
  8
0
  6
Continuous
 62
     7
100
AcDbLine
 10
-40.3186013756892
 20
151.5855147668398
 30
0.0
 11
-40.9686013756892
 21
149.549999170332
 31
0.0
  0
LINE
  5
27F
330
63
100
AcDbEntity
  8
0
  6
Continuous
 62
     7
100
AcDbLine
 10
-46.66860137568919
 20
141.449999170332
 30
0.0
 11
-48.8686013756892
 21
139.9362688038497
 31
0.0
  0
LINE
  5
280
330
63
100
AcDbEntity
  8
0
  6
Continuous
 62
     7
100
AcDbLine
 10
-49.6686013756892
 20
124.3830118722242
 30
0.0
 11
-49.6686013756892
 21
123.949999170332
 31
0.0
  0
LINE
  5
281
330
63
100
AcDbEntity
  8
0
  6
Continuous
 62
     7
100
AcDbLine
 10
-49.6686013756892
 20
124.3830118722242
 30
0.0
 11
-49.6686013756892
 21
125.393374843306
 31
0.0
  0
LINE
  5
282
330
63
100
AcDbEntity
  8
0
  6
Continuous
 62
     7
100
AcDbLine
 10
-48.6186013756892
 20
124.3830118722242
 30
0.0
 11
-48.6186013756892
 21
124.449999170332
 31
0.0
  0
LINE
  5
283
330
63
100
AcDbEntity
  8
0
  6
Continuous
 62
     7
100
AcDbLine
 10
-48.6186013756892
 20
124.449999170332
 30
0.0
 11
-48.6186013756892
 21
125.393374843306
 31
0.0
  0
LINE
  5
284
330
63
100
AcDbEntity
  8
0
  6
Continuous
 62
     7
100
AcDbLine
 10
-39.5186013756892
 20
166.7109535180292
 30
0.0
 11
-39.5186013756892
 21
170.549999170332
 31
0.0
  0
LINE
  5
285
330
63
100
AcDbEntity
  8
0
  6
Continuous
 62
     7
100
AcDbLine
 10
-39.5186013756892
 20
164.8573342569604
 30
0.0
 11
-39.5186013756892
 21
166.7109535180292
 31
0.0
  0
LINE
  5
286
330
63
100
AcDbEntity
  8
0
  6
Continuous
 62
     7
100
AcDbLine
 10
-39.5186013756892
 20
164.7795077400757
 30
0.0
 11
-39.5186013756892
 21
164.8573342569604
 31
0.0
  0
LINE
  5
287
330
63
100
AcDbEntity
  8
0
  6
Continuous
 62
     7
100
AcDbLine
 10
-39.5186013756892
 20
156.6999991703322
 30
0.0
 11
-39.5186013756892
 21
160.5454512831858
 31
0.0
  0
LINE
  5
288
330
63
100
AcDbEntity
  8
0
  6
Continuous
 62
     7
100
AcDbLine
 10
-39.5186013756892
 20
124.449999170332
 30
0.0
 11
-39.5186013756892
 21
131.949999170332
 31
0.0
  0
LINE
  5
289
330
63
100
AcDbEntity
  8
0
  6
Continuous
 62
     7
100
AcDbLine
 10
-39.5186013756892
 20
133.5017060984172
 30
0.0
 11
-39.5186013756892
 21
137.350001240371
 31
0.0
  0
LINE
  5
28A
330
63
100
AcDbEntity
  8
0
  6
Continuous
 62
     7
100
AcDbLine
 10
-39.5186013756892
 20
124.449999170332
 30
0.0
 11
-39.5186013756892
 21
123.949999170332
 31
0.0
  0
LINE
  5
28B
330
63
100
AcDbEntity
  8
0
  6
Continuous
 62
     7
100
AcDbLine
 10
-39.5186013756892
 20
132.949999170332
 30
0.0
 11
-39.5186013756892
 21
133.4999991703319
 31
0.0
  0
LINE
  5
28C
330
63
100
AcDbEntity
  8
0
  6
Continuous
 62
     7
100
AcDbLine
 10
-39.5186013756892
 20
133.4999991703319
 30
0.0
 11
-39.5186013756892
 21
133.5017060984172
 31
0.0
  0
LINE
  5
28D
330
63
100
AcDbEntity
  8
0
  6
Continuous
 62
     7
100
AcDbLine
 10
-39.5186013756892
 20
160.5454512831858
 30
0.0
 11
-39.5186013756892
 21
164.7795077400757
 31
0.0
  0
LINE
  5
28E
330
63
100
AcDbEntity
  8
0
  6
Continuous
 62
     7
100
AcDbLine
 10
-39.5186013756892
 20
137.350001240371
 30
0.0
 11
-39.5186013756892
 21
156.6999991703322
 31
0.0
  0
LINE
  5
28F
330
63
100
AcDbEntity
  8
0
  6
Continuous
 62
     7
100
AcDbLine
 10
-49.6686013756892
 20
121.449999170332
 30
0.0
 11
-49.6686013756892
 21
123.949999170332
 31
0.0
  0
LINE
  5
290
330
63
100
AcDbEntity
  8
0
  6
Continuous
 62
     7
100
AcDbLine
 10
-39.5186013756892
 20
123.949999170332
 30
0.0
 11
-39.5186013756892
 21
121.449999170332
 31
0.0
  0
LINE
  5
291
330
63
100
AcDbEntity
  8
0
  6
Continuous
 62
     2
100
AcDbLine
 10
-49.6686013756892
 20
124.3830118722242
 30
0.0
 11
-48.6186013756892
 21
124.3830118722242
 31
0.0
  0
LINE
  5
292
330
63
100
AcDbEntity
  8
0
  6
Continuous
 62
     2
100
AcDbLine
 10
-49.6686013756892
 20
123.949999170332
 30
0.0
 11
-39.5186013756892
 21
123.949999170332
 31
0.0
  0
LINE
  5
293
330
63
100
AcDbEntity
  8
0
  6
Continuous
 62
     7
100
AcDbLine
 10
-39.5186013756892
 20
121.449999170332
 30
0.0
 11
-49.6686013756892
 21
121.449999170332
 31
0.0
  0
LINE
  5
294
330
63
100
AcDbEntity
  8
0
  6
Continuous
 62
     7
100
AcDbLine
 10
-48.6186013756892
 20
124.449999170332
 30
0.0
 11
-39.5186013756892
 21
124.449999170332
 31
0.0
  0
LINE
  5
295
330
63
100
AcDbEntity
  8
0
  6
Continuous
 62
     2
100
AcDbLine
 10
-49.6686013756892
 20
125.393374843306
 30
0.0
 11
-48.6186013756892
 21
125.393374843306
 31
0.0
  0
LINE
  5
296
330
63
100
AcDbEntity
  8
0
  6
Continuous
 62
     2
100
AcDbLine
 10
-49.6686013756892
 20
126.2594002470905
 30
0.0
 11
-48.6186013756892
 21
126.2594002470905
 31
0.0
  0
LINE
  5
297
330
63
100
AcDbEntity
  8
0
  6
Continuous
 62
     7
100
AcDbLine
 10
-48.8686013756892
 20
151.749999170332
 30
0.0
 11
-46.6686013756892
 21
149.549999170332
 31
0.0
  0
ENDBLK
  5
65
330
63
100
AcDbEntity
  8
0
100
AcDbBlockEnd
  0
BLOCK
  5
68
330
66
100
AcDbEntity
  8
0
100
AcDbBlockBegin
  2
SA_links1
 70
     0
 10
-44.59360156640413
 20
145.9999995851661
 30
0.0
  3
SA_links1
  1

  0
INSERT
  5
67
330
66
100
AcDbEntity
  8
0
100
AcDbBlockReference
  2
URKN-A-select__5
 10
-49.6686013756892
 20
121.449999170332
 30
0.0
  0
ENDBLK
  5
69
330
66
100
AcDbEntity
  8
0
100
AcDbBlockEnd
  0
BLOCK
  5
6B
330
6A
100
AcDbEntity
  8
0
100
AcDbBlockBegin
  2
URKN-A-select__6
 70
     0
 10
-141.8499985155829
 20
121.4499991703318
 30
0.0
  3
URKN-A-select__6
  1

  0
LINE
  5
298
330
6A
100
AcDbEntity
  8
0
  6
Continuous
 62
     7
100
AcDbLine
 10
-87.0749985155828
 20
141.4499991703323
 30
0.0
 11
-87.0749985155828
 21
143.9499991703323
 31
0.0
  0
LINE
  5
299
330
6A
100
AcDbEntity
  8
0
  6
Continuous
 62
     7
100
AcDbLine
 10
-98.37499851558286
 20
137.3500012403708
 30
0.0
 11
-99.45985812440935
 21
124.9499991703319
 31
0.0
  0
LINE
  5
29A
330
6A
100
AcDbEntity
  8
0
  6
Continuous
 62
     7
100
AcDbLine
 10
-127.4499985155829
 20
130.3499991703319
 30
0.0
 11
-133.2499985155829
 21
130.3499991703319
 31
0.0
  0
LINE
  5
29B
330
6A
100
AcDbEntity
  8
0
  6
Continuous
 62
     7
100
AcDbLine
 10
-127.1205792268481
 20
131.5794086928831
 30
0.0
 11
-127.4499985155829
 21
130.3499991703319
 31
0.0
  0
LINE
  5
29C
330
6A
100
AcDbEntity
  8
0
  6
Continuous
 62
     7
100
AcDbLine
 10
-126.5249985155829
 20
131.9499991703319
 30
0.0
 11
-126.6376163137036
 21
131.9499991703319
 31
0.0
  0
LINE
  5
29D
330
6A
100
AcDbEntity
  8
0
  6
Continuous
 62
     7
100
AcDbLine
 10
-108.1749985155829
 20
131.9499991703319
 30
0.0
 11
-108.6749985155829
 21
131.9499991703319
 31
0.0
  0
LINE
  5
29E
330
6A
100
AcDbEntity
  8
0
  6
Continuous
 62
     7
100
AcDbLine
 10
-87.0749985155828
 20
141.4499991703323
 30
0.0
 11
-98.37499851558289
 21
141.4499991703322
 31
0.0
  0
LINE
  5
29F
330
6A
100
AcDbEntity
  8
0
  6
Continuous
 62
     7
100
AcDbLine
 10
-98.37499851558292
 20
143.9499991703322
 30
0.0
 11
-87.0749985155828
 21
143.9499991703323
 31
0.0
  0
LINE
  5
2A0
330
6A
100
AcDbEntity
  8
0
  6
Continuous
 62
     7
100
AcDbLine
 10
-75.0749985155828
 20
143.9499991703324
 30
0.0
 11
-87.0749985155828
 21
143.9499991703323
 31
0.0
  0
LINE
  5
2A1
330
6A
100
AcDbEntity
  8
0
  6
Continuous
 62
     7
100
AcDbLine
 10
-75.0749985155828
 20
141.4499991703324
 30
0.0
 11
-75.0749985155828
 21
143.9499991703324
 31
0.0
  0
LINE
  5
2A2
330
6A
100
AcDbEntity
  8
0
  6
Continuous
 62
     7
100
AcDbLine
 10
-74.0749985155828
 20
143.9499991703324
 30
0.0
 11
-75.0749985155828
 21
143.9499991703324
 31
0.0
  0
LINE
  5
2A3
330
6A
100
AcDbEntity
  8
0
  6
Continuous
 62
     7
100
AcDbLine
 10
-74.0749985155828
 20
143.9499991703324
 30
0.0
 11
-74.0749985155828
 21
141.4499991703324
 31
0.0
  0
LINE
  5
2A4
330
6A
100
AcDbEntity
  8
0
  6
Continuous
 62
     7
100
AcDbLine
 10
-134.7749985155829
 20
133.9999991703319
 30
0.0
 11
-137.8928917343962
 21
133.9999991703319
 31
0.0
  0
LINE
  5
2A5
330
6A
100
AcDbEntity
  8
0
  6
Continuous
 62
     7
100
AcDbLine
 10
-136.8693158070736
 20
160.2940705442543
 30
0.0
 11
-137.1332650406166
 21
159.836897061139
 31
0.0
  0
LINE
  5
2A6
330
6A
100
AcDbEntity
  8
0
  6
Continuous
 62
     7
100
AcDbLine
 10
-137.1332650406166
 20
159.836897061139
 30
0.0
 11
-136.2066178585673
 21
159.301897061139
 31
0.0
  0
LINE
  5
2A7
330
6A
100
AcDbEntity
  8
0
  6
Continuous
 62
     7
100
AcDbLine
 10
-137.9499985155829
 20
131.2472794694663
 30
0.0
 11
-137.9499985155829
 21
130.035639816387
 31
0.0
  0
LINE
  5
2A8
330
6A
100
AcDbEntity
  8
0
  6
Continuous
 62
     7
100
AcDbLine
 10
-135.5951713280948
 20
166.710953518029
 30
0.0
 11
-133.3786972873064
 21
170.5499991703319
 31
0.0
  0
LINE
  5
2A9
330
6A
100
AcDbEntity
  8
0
  6
Continuous
 62
     7
100
AcDbLine
 10
-138.3499985155829
 20
132.9499991703319
 30
0.0
 11
-134.7749985155829
 21
132.9499991703319
 31
0.0
  0
LINE
  5
2AA
330
6A
100
AcDbEntity
  8
0
  6
Continuous
 62
     7
100
AcDbLine
 10
-137.0497191834747
 20
126.3499991703319
 30
0.0
 11
-137.0497191834747
 21
126.1499991703319
 31
0.0
  0
LINE
  5
2AB
330
6A
100
AcDbEntity
  8
0
  6
Continuous
 62
     7
100
AcDbLine
 10
-109.1749985155829
 20
130.3756170873182
 30
0.0
 11
-107.9499985155829
 21
124.8499991703319
 31
0.0
  0
LINE
  5
2AC
330
6A
100
AcDbEntity
  8
0
  6
Continuous
 62
     7
100
AcDbLine
 10
-75.0749985155828
 20
141.4499991703324
 30
0.0
 11
-87.0749985155828
 21
141.4499991703323
 31
0.0
  0
LINE
  5
2AD
330
6A
100
AcDbEntity
  8
0
  6
Continuous
 62
     7
100
AcDbLine
 10
-74.0749985155828
 20
141.4499991703324
 30
0.0
 11
-75.0749985155828
 21
141.4499991703324
 31
0.0
  0
LINE
  5
2AE
330
6A
100
AcDbEntity
  8
0
  6
Continuous
 62
     7
100
AcDbLine
 10
-118.1249985155829
 20
170.5499991703319
 30
0.0
 11
-118.1249985155829
 21
163.5499991703319
 31
0.0
  0
LINE
  5
2AF
330
6A
100
AcDbEntity
  8
0
  6
Continuous
 62
     7
100
AcDbLine
 10
-115.9749985155829
 20
170.5499991703319
 30
0.0
 11
-118.1249985155829
 21
170.5499991703319
 31
0.0
  0
LINE
  5
2B0
330
6A
100
AcDbEntity
  8
0
  6
Continuous
 62
     7
100
AcDbLine
 10
-121.6249985155829
 20
170.5499991703319
 30
0.0
 11
-123.7749985155829
 21
170.5499991703319
 31
0.0
  0
LINE
  5
2B1
330
6A
100
AcDbEntity
  8
0
  6
Continuous
 62
     7
100
AcDbLine
 10
-121.6249985155829
 20
170.5499991703319
 30
0.0
 11
-121.6249985155829
 21
163.5499991703319
 31
0.0
  0
LINE
  5
2B2
330
6A
100
AcDbEntity
  8
0
  6
Continuous
 62
     7
100
AcDbLine
 10
-134.2347142741596
 20
164.8573342569602
 30
0.0
 11
-135.5951713280948
 21
166.710953518029
 31
0.0
  0
LINE
  5
2B3
330
6A
100
AcDbEntity
  8
0
  6
Continuous
 62
     7
100
AcDbLine
 10
-133.3786972873064
 20
170.5499991703319
 30
0.0
 11
-123.7749985155829
 21
170.5499991703319
 31
0.0
  0
LINE
  5
2B4
330
6A
100
AcDbEntity
  8
0
  6
Continuous
 62
     7
100
AcDbLine
 10
-123.7749985155829
 20
157.1499991703319
 30
0.0
 11
-123.7749985155829
 21
170.5499991703319
 31
0.0
  0
LINE
  5
2B5
330
6A
100
AcDbEntity
  8
0
  6
Continuous
 62
     7
100
AcDbLine
 10
-115.9749985155829
 20
170.5499991703319
 30
0.0
 11
-115.9749985155829
 21
157.1499991703319
 31
0.0
  0
LINE
  5
2B6
330
6A
100
AcDbEntity
  8
0
  6
Continuous
 62
     7
100
AcDbLine
 10
-115.9749985155829
 20
170.5499991703319
 30
0.0
 11
-106.3712997438593
 21
170.5499991703319
 31
0.0
  0
LINE
  5
2B7
330
6A
100
AcDbEntity
  8
0
  6
Continuous
 62
     7
100
AcDbLine
 10
-105.5152827570063
 20
164.8573342569603
 30
0.0
 11
-105.7792319905492
 21
165.3145077400756
 31
0.0
  0
LINE
  5
2B8
330
6A
100
AcDbEntity
  8
0
  6
Continuous
 62
     7
100
AcDbLine
 10
-133.9707650406165
 20
165.3145077400756
 30
0.0
 11
-134.2347142741596
 21
164.8573342569602
 31
0.0
  0
LINE
  5
2B9
330
6A
100
AcDbEntity
  8
0
  6
Continuous
 62
     7
100
AcDbLine
 10
-133.5386736501777
 20
130.8499991703319
 30
0.0
 11
-137.9499985155829
 21
131.2472794694663
 31
0.0
  0
LINE
  5
2BA
330
6A
100
AcDbEntity
  8
0
  6
Continuous
 62
     7
100
AcDbLine
 10
-109.1749985155829
 20
131.4499991703319
 30
0.0
 11
-109.1749985155829
 21
130.3756170873182
 31
0.0
  0
LINE
  5
2BB
330
6A
100
AcDbEntity
  8
0
  6
Continuous
 62
     7
100
AcDbLine
 10
-107.6749985155829
 20
130.1181211347547
 30
0.0
 11
-107.6749985155829
 21
131.4499991703319
 31
0.0
  0
LINE
  5
2BC
330
6A
100
AcDbEntity
  8
0
  6
Continuous
 62
     7
100
AcDbLine
 10
-105.7792319905492
 20
165.3145077400756
 30
0.0
 11
-106.7058791725984
 21
164.7795077400756
 31
0.0
  0
LINE
  5
2BD
330
6A
100
AcDbEntity
  8
0
  6
Continuous
 62
     7
100
AcDbLine
 10
-133.0441178585672
 20
164.7795077400756
 30
0.0
 11
-133.9707650406165
 21
165.3145077400756
 31
0.0
  0
LINE
  5
2BE
330
6A
100
AcDbEntity
  8
0
  6
Continuous
 62
     7
100
AcDbLine
 10
-104.154825703071
 20
166.7109535180289
 30
0.0
 11
-105.5152827570063
 21
164.8573342569603
 31
0.0
  0
LINE
  5
2BF
330
6A
100
AcDbEntity
  8
0
  6
Continuous
 62
     7
100
AcDbLine
 10
-106.3712997438593
 20
170.5499991703319
 30
0.0
 11
-104.154825703071
 21
166.7109535180289
 31
0.0
  0
LINE
  5
2C0
330
6A
100
AcDbEntity
  8
0
  6
Continuous
 62
     7
100
AcDbLine
 10
-140.3438509400597
 20
133.501706098417
 30
0.0
 11
-141.3749985155829
 21
137.3500012403709
 31
0.0
  0
LINE
  5
2C1
330
6A
100
AcDbEntity
  8
0
  6
Continuous
 62
     7
100
AcDbLine
 10
-141.3749985155829
 20
137.3500012403709
 30
0.0
 11
-141.3749985155828
 21
156.699999170332
 31
0.0
  0
LINE
  5
2C2
330
6A
100
AcDbEntity
  8
0
  6
Continuous
 62
     7
100
AcDbLine
 10
-141.0999985155829
 20
124.4499991703318
 30
0.0
 11
-141.3499985155829
 21
124.4499991703318
 31
0.0
  0
LINE
  5
2C3
330
6A
100
AcDbEntity
  8
0
  6
Continuous
 62
     7
100
AcDbLine
 10
-140.6862054121344
 20
124.2405164117113
 30
0.0
 11
-140.7379295500656
 21
124.2948267565387
 31
0.0
  0
LINE
  5
2C4
330
6A
100
AcDbEntity
  8
0
  6
Continuous
 62
     7
100
AcDbLine
 10
-140.7999985155829
 20
122.4999991703318
 30
0.0
 11
-140.7999985155829
 21
123.1154538724181
 31
0.0
  0
LINE
  5
2C5
330
6A
100
AcDbEntity
  8
0
  6
Continuous
 62
     7
100
AcDbLine
 10
-139.3499985155828
 20
122.4999991703318
 30
0.0
 11
-140.7999985155829
 21
122.4999991703318
 31
0.0
  0
LINE
  5
2C6
330
6A
100
AcDbEntity
  8
0
  6
Continuous
 62
     7
100
AcDbLine
 10
-139.3499985155828
 20
122.4999991703318
 30
0.0
 11
-139.3499985155829
 21
126.2594002470903
 31
0.0
  0
LINE
  5
2C7
330
6A
100
AcDbEntity
  8
0
  6
Continuous
 62
     7
100
AcDbLine
 10
-139.3499985155829
 20
126.2594002470903
 30
0.0
 11
-139.3499985155829
 21
131.9499991703319
 31
0.0
  0
LINE
  5
2C8
330
6A
100
AcDbEntity
  8
0
  6
Continuous
 62
     7
100
AcDbLine
 10
-138.6505700344882
 20
133.501706098417
 30
0.0
 11
-140.3438509400597
 21
133.501706098417
 31
0.0
  0
LINE
  5
2C9
330
6A
100
AcDbEntity
  8
0
  6
Continuous
 62
     7
100
AcDbLine
 10
-137.9499985155829
 20
130.035639816387
 30
0.0
 11
-137.1499985155829
 21
128.6499991703319
 31
0.0
  0
LINE
  5
2CA
330
6A
100
AcDbEntity
  8
0
  6
Continuous
 62
     7
100
AcDbLine
 10
-139.1548257030709
 20
160.5454512831857
 30
0.0
 11
-136.8693158070736
 21
160.2940705442543
 31
0.0
  0
LINE
  5
2CB
330
6A
100
AcDbEntity
  8
0
  6
Continuous
 62
     7
100
AcDbLine
 10
-141.3749985155828
 20
156.699999170332
 30
0.0
 11
-139.1548257030709
 21
160.5454512831857
 31
0.0
  0
LINE
  5
2CC
330
6A
100
AcDbEntity
  8
0
  6
Continuous
 62
     7
100
AcDbLine
 10
-141.8499985155829
 20
121.4499991703319
 30
0.0
 11
-141.8499985155829
 21
123.9499991703319
 31
0.0
  0
LINE
  5
2CD
330
6A
100
AcDbEntity
  8
0
  6
Continuous
 62
     7
100
AcDbLine
 10
-107.9499985155829
 20
124.8499991703319
 30
0.0
 11
-107.9499985155829
 21
124.3499991703319
 31
0.0
  0
LINE
  5
2CE
330
6A
100
AcDbEntity
  8
0
  6
Continuous
 62
     7
100
AcDbLine
 10
-107.9499985155829
 20
124.3499991703319
 30
0.0
 11
-108.7999985155829
 21
124.3499991703319
 31
0.0
  0
LINE
  5
2CF
330
6A
100
AcDbEntity
  8
0
  6
Continuous
 62
     7
100
AcDbLine
 10
-108.7999985155829
 20
124.3499991703319
 30
0.0
 11
-108.7999985155829
 21
122.8499991703319
 31
0.0
  0
LINE
  5
2D0
330
6A
100
AcDbEntity
  8
0
  6
Continuous
 62
     7
100
AcDbLine
 10
-107.6499985155829
 20
122.7249991703319
 30
0.0
 11
-107.6499985155829
 21
121.4499991703319
 31
0.0
  0
LINE
  5
2D1
330
6A
100
AcDbEntity
  8
0
  6
Continuous
 62
     7
100
AcDbLine
 10
-138.0749985155829
 20
126.5499991703319
 30
0.0
 11
-137.0497191834747
 21
126.3499991703319
 31
0.0
  0
LINE
  5
2D2
330
6A
100
AcDbEntity
  8
0
  6
Continuous
 62
     7
100
AcDbLine
 10
-110.5999985155829
 20
123.0999991703319
 30
0.0
 11
-111.2399985155829
 21
123.0999991703319
 31
0.0
  0
LINE
  5
2D3
330
6A
100
AcDbEntity
  8
0
  6
Continuous
 62
     7
100
AcDbLine
 10
-110.5999985155829
 20
121.4499991703319
 30
0.0
 11
-110.5999985155829
 21
123.0999991703319
 31
0.0
  0
LINE
  5
2D4
330
6A
100
AcDbEntity
  8
0
  6
Continuous
 62
     7
100
AcDbLine
 10
-107.6499985155829
 20
121.4499991703319
 30
0.0
 11
-110.5999985155829
 21
121.4499991703319
 31
0.0
  0
LINE
  5
2D5
330
6A
100
AcDbEntity
  8
0
  6
Continuous
 62
     7
100
AcDbLine
 10
-138.4434766817084
 20
121.4499991703318
 30
0.0
 11
-141.8499985155829
 21
121.4499991703319
 31
0.0
  0
LINE
  5
2D6
330
6A
100
AcDbEntity
  8
0
  6
Continuous
 62
     7
100
AcDbLine
 10
-137.1499985155829
 20
127.9504110724381
 30
0.0
 11
-138.286590892433
 21
127.7499991703319
 31
0.0
  0
LINE
  5
2D7
330
6A
100
AcDbEntity
  8
0
  6
Continuous
 62
     7
100
AcDbLine
 10
-103.0749985155829
 20
127.7499991703319
 30
0.0
 11
-107.1499985155828
 21
127.7499991703319
 31
0.0
  0
LINE
  5
2D8
330
6A
100
AcDbEntity
  8
0
  6
Continuous
 62
     7
100
AcDbLine
 10
-103.0749985155829
 20
126.5499991703319
 30
0.0
 11
-103.0749985155829
 21
127.7499991703319
 31
0.0
  0
LINE
  5
2D9
330
6A
100
AcDbEntity
  8
0
  6
Continuous
 62
     7
100
AcDbLine
 10
-103.8749985155829
 20
126.3499991703319
 30
0.0
 11
-103.0749985155829
 21
126.5499991703319
 31
0.0
  0
LINE
  5
2DA
330
6A
100
AcDbEntity
  8
0
  6
Continuous
 62
     7
100
AcDbLine
 10
-103.8749985155829
 20
125.8999991703319
 30
0.0
 11
-103.8749985155829
 21
126.3499991703319
 31
0.0
  0
LINE
  5
2DB
330
6A
100
AcDbEntity
  8
0
  6
Continuous
 62
     7
100
AcDbLine
 10
-102.9249985155829
 20
124.9499991703318
 30
0.0
 11
-103.8749985155829
 21
125.8999991703319
 31
0.0
  0
LINE
  5
2DC
330
6A
100
AcDbEntity
  8
0
  6
Continuous
 62
     7
100
AcDbLine
 10
-99.45985812440935
 20
124.9499991703319
 30
0.0
 11
-102.9249985155829
 21
124.9499991703318
 31
0.0
  0
LINE
  5
2DD
330
6A
100
AcDbEntity
  8
0
  6
Continuous
 62
     7
100
AcDbLine
 10
-141.5999985155829
 20
124.3830118722241
 30
0.0
 11
-139.8499985155829
 21
125.3933748433059
 31
0.0
  0
LINE
  5
2DE
330
6A
100
AcDbEntity
  8
0
  6
Continuous
 62
     7
100
AcDbLine
 10
-106.7058791725984
 20
164.7795077400756
 30
0.0
 11
-103.5433791725984
 21
159.3018970611391
 31
0.0
  0
LINE
  5
2DF
330
6A
100
AcDbEntity
  8
0
  6
Continuous
 62
     7
100
AcDbLine
 10
-121.6249985155829
 20
163.5499991703319
 30
0.0
 11
-118.1249985155829
 21
163.5499991703319
 31
0.0
  0
LINE
  5
2E0
330
6A
100
AcDbEntity
  8
0
  6
Continuous
 62
     7
100
AcDbLine
 10
-137.1499985155829
 20
128.6499991703319
 30
0.0
 11
-137.1499985155829
 21
127.9504110724381
 31
0.0
  0
LINE
  5
2E1
330
6A
100
AcDbEntity
  8
0
  6
Continuous
 62
     7
100
AcDbLine
 10
-107.1499985155828
 20
127.7499991703319
 30
0.0
 11
-107.6749985155829
 21
130.1181211347547
 31
0.0
  0
LINE
  5
2E2
330
6A
100
AcDbEntity
  8
0
  6
Continuous
 62
     7
100
AcDbLine
 10
-136.2066178585673
 20
159.301897061139
 30
0.0
 11
-133.0441178585672
 21
164.7795077400756
 31
0.0
  0
LINE
  5
2E3
330
6A
100
AcDbEntity
  8
0
  6
Continuous
 62
     7
100
AcDbLine
 10
-100.5951713280949
 20
160.5454512831857
 30
0.0
 11
-98.37499851558299
 21
156.699999170332
 31
0.0
  0
LINE
  5
2E4
330
6A
100
AcDbEntity
  8
0
  6
Continuous
 62
     7
100
AcDbLine
 10
-115.9749985155829
 20
157.1499991703319
 30
0.0
 11
-123.7749985155829
 21
157.1499991703319
 31
0.0
  0
LINE
  5
2E5
330
6A
100
AcDbEntity
  8
0
  6
Continuous
 62
     7
100
AcDbLine
 10
-103.5433791725984
 20
159.3018970611391
 30
0.0
 11
-102.6167319905492
 21
159.836897061139
 31
0.0
  0
LINE
  5
2E6
330
6A
100
AcDbEntity
  8
0
  6
Continuous
 62
     7
100
AcDbLine
 10
-102.6167319905492
 20
159.836897061139
 30
0.0
 11
-102.8806812240921
 21
160.2940705442543
 31
0.0
  0
LINE
  5
2E7
330
6A
100
AcDbEntity
  8
0
  6
Continuous
 62
     7
100
AcDbLine
 10
-102.8806812240921
 20
160.2940705442543
 30
0.0
 11
-100.5951713280949
 21
160.5454512831857
 31
0.0
  0
LINE
  5
2E8
330
6A
100
AcDbEntity
  8
0
  6
Continuous
 62
     7
100
AcDbLine
 10
-98.37499851558299
 20
156.699999170332
 30
0.0
 11
-98.37499851558286
 21
137.3500012403708
 31
0.0
  0
LINE
  5
2E9
330
6A
100
AcDbEntity
  8
0
  6
Continuous
 62
     7
100
AcDbLine
 10
-133.2499985155829
 20
130.3499991703319
 30
0.0
 11
-133.5386736501777
 21
130.8499991703319
 31
0.0
  0
LINE
  5
2EA
330
6A
100
AcDbEntity
  8
0
  6
Continuous
 62
     7
100
AcDbLine
 10
-126.0249985155829
 20
129.0999991703319
 30
0.0
 11
-126.0249985155829
 21
131.4499991703319
 31
0.0
  0
LINE
  5
2EB
330
6A
100
AcDbEntity
  8
0
  6
Continuous
 62
     7
100
AcDbLine
 10
-138.286590892433
 20
127.7499991703319
 30
0.0
 11
-138.0749985155829
 21
126.5499991703319
 31
0.0
  0
LINE
  5
2EC
330
6A
100
AcDbEntity
  8
0
  6
Continuous
 62
     7
100
AcDbLine
 10
-108.7999985155829
 20
122.8499991703319
 30
0.0
 11
-107.6499985155829
 21
122.7249991703319
 31
0.0
  0
ARC
  5
2ED
330
6A
100
AcDbEntity
  8
0
  6
Continuous
 62
     7
100
AcDbCircle
 10
-126.6376163137036
 20
131.4499991703319
 30
0.0
 40
0.5
100
AcDbArc
 50
90.0
 51
165.0000000000038
  0
ARC
  5
2EE
330
6A
100
AcDbEntity
  8
0
  6
Continuous
 62
     7
100
AcDbCircle
 10
-126.5249985155829
 20
131.4499991703319
 30
0.0
 40
0.5
100
AcDbArc
 50
0.0
 51
90.0
  0
ARC
  5
2EF
330
6A
100
AcDbEntity
  8
0
  6
Continuous
 62
     7
100
AcDbCircle
 10
-108.6749985155829
 20
131.4499991703319
 30
0.0
 40
0.5
100
AcDbArc
 50
90.0
 51
180.0
  0
ARC
  5
2F0
330
6A
100
AcDbEntity
  8
0
  6
Continuous
 62
     7
100
AcDbCircle
 10
-108.1749985155829
 20
131.4499991703319
 30
0.0
 40
0.5
100
AcDbArc
 50
0.0
 51
90.0
  0
ARC
  5
2F1
330
6A
100
AcDbEntity
  8
0
  6
Continuous
 62
     7
100
AcDbCircle
 10
-123.6773522406892
 20
128.2116647560855
 30
0.0
 40
3.349999999999964
100
AcDbArc
 50
182.4150421413324
 51
228.6834170699553
  0
ARC
  5
2F2
330
6A
100
AcDbEntity
  8
0
  6
Continuous
 62
     7
100
AcDbCircle
 10
-141.0999985155829
 20
123.9499991703318
 30
0.0
 40
0.5000000000000646
100
AcDbArc
 50
43.60281897269773
 51
90.0
  0
ARC
  5
2F3
330
6A
100
AcDbEntity
  8
0
  6
Continuous
 62
     7
100
AcDbCircle
 10
-141.1749985155826
 20
123.774999170332
 30
0.0
 40
0.6749999999999341
100
AcDbArc
 50
311.0823331404279
 51
43.60281897270828
  0
ARC
  5
2F4
330
6A
100
AcDbEntity
  8
0
  6
Continuous
 62
     7
100
AcDbCircle
 10
-140.5999985155829
 20
123.1154538724181
 30
0.0
 40
0.20000000000004
100
AcDbArc
 50
131.0823331404147
 51
180.0
  0
ARC
  5
2F5
330
6A
100
AcDbEntity
  8
0
  6
Continuous
 62
     7
100
AcDbCircle
 10
-138.3499985155829
 20
131.9499991703319
 30
0.0
 40
1.0
100
AcDbArc
 50
90.0
 51
180.0
  0
ARC
  5
2F6
330
6A
100
AcDbEntity
  8
0
  6
Continuous
 62
     7
100
AcDbCircle
 10
-138.5999985155829
 20
134.2499991703319
 30
0.0
 40
0.7500000000001513
100
AcDbArc
 50
266.1336869730333
 51
340.5287793655138
  0
ARC
  5
2F7
330
6A
100
AcDbEntity
  8
0
  6
Continuous
 62
     7
100
AcDbCircle
 10
-146.5461753044975
 20
126.4094623497749
 30
0.0
 40
9.500000000000009
100
AcDbArc
 50
328.5302214160354
 51
358.4349480050456
  0
ARC
  5
2F8
330
6A
100
AcDbEntity
  8
0
  6
Continuous
 62
     7
100
AcDbCircle
 10
-125.6249985155829
 20
125.9959991703319
 30
0.0
 40
0.4000000000000415
100
AcDbArc
 50
228.6834170699525
 51
6.9237208440526
  0
ARC
  5
2F9
330
6A
100
AcDbEntity
  8
0
  6
Continuous
 62
     7
100
AcDbCircle
 10
-111.2399985155829
 20
125.0999991703319
 30
0.0
 40
1.999999999999945
100
AcDbArc
 50
214.3280352333766
 51
270.0
  0
ARC
  5
2FA
330
6A
100
AcDbEntity
  8
0
  6
Continuous
 62
     7
100
AcDbCircle
 10
-140.3499985155829
 20
126.2594002470904
 30
0.0
 40
1.000000000000045
100
AcDbArc
 50
299.9999999999985
 51
359.9999999999943
  0
ARC
  5
2FB
330
6A
100
AcDbEntity
  8
0
  6
Continuous
 62
     7
100
AcDbCircle
 10
-141.3499985155829
 20
123.9499991703319
 30
0.0
 40
0.4999999999998863
100
AcDbArc
 50
90.0
 51
120.0000000000014
  0
ARC
  5
2FC
330
6A
100
AcDbEntity
  8
0
  6
Continuous
 62
     7
100
AcDbCircle
 10
-141.3499985155829
 20
123.9499991703319
 30
0.0
 40
0.4999999999999795
100
AcDbArc
 50
120.0000000000014
 51
180.0
  0
ARC
  5
2FD
330
6A
100
AcDbEntity
  8
0
  6
Continuous
 62
     7
100
AcDbCircle
 10
-121.2499985155829
 20
111.4499991703319
 30
0.0
 40
16.2
100
AcDbArc
 50
77.66476782071845
 51
100.7064869688795
  0
ARC
  5
2FE
330
6A
100
AcDbEntity
  8
0
  6
Continuous
 62
     7
100
AcDbCircle
 10
-134.7749985155829
 20
133.4749991703319
 30
0.0
 40
0.5250000000000057
100
AcDbArc
 50
270.0
 51
90.0
  0
ARC
  5
2FF
330
6A
100
AcDbEntity
  8
0
  6
Continuous
 62
     7
100
AcDbCircle
 10
-126.3249985155829
 20
129.0999991703319
 30
0.0
 40
0.3000000000000114
100
AcDbArc
 50
270.0
 51
0.0
  0
ARC
  5
300
330
6A
100
AcDbEntity
  8
0
  6
Continuous
 62
     7
100
AcDbCircle
 10
-126.3249985155829
 20
128.0999991703319
 30
0.0
 40
0.6999999999999886
100
AcDbArc
 50
90.0
 51
182.4150421413324
  0
ARC
  5
301
330
6A
100
AcDbEntity
  8
0
  6
Continuous
 62
     7
100
AcDbCircle
 10
-124.0366664845767
 20
126.1888757092878
 30
0.0
 40
1.199999999999932
100
AcDbArc
 50
100.7064869688799
 51
186.923720844068
  0
ARC
  5
302
330
6A
100
AcDbEntity
  8
0
  6
Continuous
 62
     7
100
AcDbCircle
 10
-119.4982230985911
 20
119.4606971978713
 30
0.0
 40
8.000000000000004
100
AcDbArc
 50
34.32803523337624
 51
77.66476782071874
  0
ENDBLK
  5
6C
330
6A
100
AcDbEntity
  8
0
100
AcDbBlockEnd
  0
BLOCK
  5
6F
330
6D
100
AcDbEntity
  8
0
100
AcDbBlockBegin
  2
Vordans1
 70
     0
 10
-107.9624997577899
 20
145.999999585166
 30
0.0
  3
Vordans1
  1

  0
INSERT
  5
6E
330
6D
100
AcDbEntity
  8
0
100
AcDbBlockReference
  2
URKN-A-select__6
 10
-141.8499985155829
 20
121.4499991703318
 30
0.0
  0
LINE
  5
303
330
6D
100
AcDbEntity
  8
1
  6
DOT_CENTER
 62
     2
100
AcDbLine
 10
-120.5749985155829
 20
128.971306652775
 30
0.0
 11
-120.5749985155829
 21
124.971306652775
 31
0.0
  0
DIMENSION
  5
30E
330
6D
100
AcDbEntity
  8
1
100
AcDbDimension
  2
*D18
 10
-120.5749985155829
 20
101.178771565901
 30
0.0
 11
-108.900729482983
 21
104.603771565901
 31
0.0
 70
    32
  1
<>
 71
     5
 42
-1.0
 53
0.00013888888889
  3
ME10_DIM_11
100
AcDbAlignedDimension
 13
-98.37499851558286
 23
137.3500012403708
 33
0.0
 14
-120.5749985155829
 24
124.971306652775
 34
0.0
100
AcDbRotatedDimension
  0
DIMENSION
  5
319
330
6D
100
AcDbEntity
  8
1
100
AcDbDimension
  2
*D19
 10
-120.5749985155829
 20
109.178771565901
 30
0.0
 11
-111.931995108059
 21
112.603771565901
 31
0.0
 70
    32
  1
<>
 71
     5
 42
-1.0
 53
0.00013888888889
  3
ME10_DIM_12
100
AcDbAlignedDimension
 13
-103.0749985155829
 23
126.5499991703319
 33
0.0
 14
-120.5749985155829
 24
124.971306652775
 34
0.0
100
AcDbRotatedDimension
  0
DIMENSION
  5
324
330
6D
100
AcDbEntity
  8
1
100
AcDbDimension
  2
*D20
 10
-120.5749985155829
 20
93.178771565901
 30
0.0
 11
-99.3531934315948
 21
96.603771565901
 31
0.0
 70
    32
  1
<>
 71
     5
 42
-1.0
 53
0.00013888888889
  3
ME10_DIM_13
100
AcDbAlignedDimension
 13
-74.0749985155828
 23
141.4499991703324
 33
0.0
 14
-120.5749985155829
 24
124.971306652775
 34
0.0
100
AcDbRotatedDimension
  0
DIMENSION
  5
32F
330
6D
100
AcDbEntity
  8
1
100
AcDbDimension
  2
*D21
 10
-141.8499985155829
 20
85.178771565901
 30
0.0
 11
-110.662145955917
 21
88.603771565901
 31
0.0
 70
    32
  1
<>
 71
     5
 42
-1.0
 53
0.00013888888889
  3
ME10_DIM_14
100
AcDbAlignedDimension
 13
-74.0749985155828
 23
141.4499991703324
 33
0.0
 14
-141.8499985155829
 24
121.4499991703319
 34
0.0
100
AcDbRotatedDimension
  0
DIMENSION
  5
33A
330
6D
100
AcDbEntity
  8
1
100
AcDbDimension
  2
*D22
 10
-151.8499985155829
 20
127.7499991703319
 30
0.0
 11
-155.2749985155829
 21
150.337201982646
 31
0.0
 70
    32
  1
<>
 71
     5
 42
-1.0
 53
90.0
  3
ME10_DIM_15
100
AcDbAlignedDimension
 13
-123.7749985155829
 23
170.5499991703319
 33
0.0
 14
-107.1499985155828
 24
127.7499991703319
 34
0.0
 50
90.0
100
AcDbRotatedDimension
  0
DIMENSION
  5
345
330
6D
100
AcDbEntity
  8
1
100
AcDbDimension
  2
*D23
 10
-159.8499985155829
 20
121.4499991703318
 30
0.0
 11
-163.2749985155829
 21
145.074347317566
 31
0.0
 70
    32
  1
<>
 71
     5
 42
-1.0
 53
90.0
  3
ME10_DIM_16
100
AcDbAlignedDimension
 13
-123.7749985155829
 23
170.5499991703319
 33
0.0
 14
-138.4434766817084
 24
121.4499991703318
 34
0.0
 50
90.0
100
AcDbRotatedDimension
  0
ENDBLK
  5
70
330
6D
100
AcDbEntity
  8
0
100
AcDbBlockEnd
  0
BLOCK
  5
72
330
71
100
AcDbEntity
  8
0
100
AcDbBlockBegin
  2
_rahmen
 70
     0
 10
75.90624928342167
 20
-8.6901691681943
 30
0.0
  3
_rahmen
  1

  0
LINE
  5
346
330
71
100
AcDbEntity
  8
1
  6
Continuous
 62
     6
100
AcDbLine
 10
-53.63855524332834
 20
21.80983083180581
 30
0.0
 11
75.90624928342336
 21
21.80983083180581
 31
0.0
  0
LINE
  5
347
330
71
100
AcDbEntity
  8
1
  6
Continuous
 62
     7
100
AcDbLine
 10
-35.43855524332832
 20
0.55983083180581
 30
0.0
 11
-17.23855524332842
 21
0.55983083180581
 31
0.0
  0
LINE
  5
348
330
71
100
AcDbEntity
  8
1
  6
Continuous
 62
     6
100
AcDbLine
 10
-35.43855524332832
 20
-3.69016916819419
 30
0.0
 11
-53.63855524332834
 21
-3.6901691681943
 31
0.0
  0
LINE
  5
349
330
71
100
AcDbEntity
  8
1
  6
Continuous
 62
     7
100
AcDbLine
 10
-35.43855524332832
 20
0.55983083180581
 30
0.0
 11
-35.43855524332832
 21
-3.69016916819419
 31
0.0
  0
LINE
  5
34A
330
71
100
AcDbEntity
  8
1
  6
Continuous
 62
     7
100
AcDbLine
 10
-17.23855524332842
 20
0.55983083180581
 30
0.0
 11
-17.23855524332842
 21
-3.6901691681943
 31
0.0
  0
LINE
  5
34B
330
71
100
AcDbEntity
  8
1
  6
Continuous
 62
     7
100
AcDbLine
 10
-53.63855524332834
 20
0.5598308318057
 30
0.0
 11
-53.63855524332834
 21
-3.6901691681943
 31
0.0
  0
LINE
  5
34C
330
71
100
AcDbEntity
  8
1
  6
Continuous
 62
     7
100
AcDbLine
 10
-53.63855524332834
 20
0.5598308318057
 30
0.0
 11
-35.43855524332832
 21
0.55983083180581
 31
0.0
  0
LINE
  5
34D
330
71
100
AcDbEntity
  8
1
  6
Continuous
 62
     2
100
AcDbLine
 10
-44.40190035676574
 20
19.93483083180573
 30
0.0
 11
-44.40190035676574
 21
14.93483083180573
 31
0.0
  0
LINE
  5
34E
330
71
100
AcDbEntity
  8
1
  6
Continuous
 62
     2
100
AcDbLine
 10
-44.40190035676574
 20
14.93483083180573
 30
0.0
 11
-49.40190035676574
 21
16.18483083180573
 31
0.0
  0
LINE
  5
34F
330
71
100
AcDbEntity
  8
1
  6
Continuous
 62
     2
100
AcDbLine
 10
-49.40190035676574
 20
16.18483083180573
 30
0.0
 11
-49.40190035676574
 21
18.68483083180573
 31
0.0
  0
LINE
  5
350
330
71
100
AcDbEntity
  8
1
  6
Continuous
 62
     2
100
AcDbLine
 10
-49.40190035676574
 20
18.68483083180573
 30
0.0
 11
-44.40190035676574
 21
19.93483083180573
 31
0.0
  0
LINE
  5
351
330
71
100
AcDbEntity
  8
1
  6
Continuous
 62
     6
100
AcDbLine
 10
-176.0937507165766
 20
-3.69016916819419
 30
0.0
 11
-211.0937507165764
 21
-3.69016916819419
 31
0.0
  0
LINE
  5
352
330
71
100
AcDbEntity
  8
1
  6
Continuous
 62
     6
100
AcDbLine
 10
75.90624928342336
 20
13.30983083180581
 30
0.0
 11
75.90624928342297
 21
4.80983083180581
 31
0.0
  0
LINE
  5
353
330
71
100
AcDbEntity
  8
1
  6
Continuous
 62
     6
100
AcDbLine
 10
-17.23855524332842
 20
-3.6901691681943
 30
0.0
 11
-17.59375071657834
 21
-3.69016916819419
 31
0.0
  0
LINE
  5
354
330
71
100
AcDbEntity
  8
1
  6
Continuous
 62
     6
100
AcDbLine
 10
-169.8937507165786
 20
-3.6901691681943
 30
0.0
 11
-176.0937507165766
 21
-3.69016916819419
 31
0.0
  0
LINE
  5
355
330
71
100
AcDbEntity
  8
1
  6
Continuous
 62
     7
100
AcDbLine
 10
-17.23855524332842
 20
13.30983083180581
 30
0.0
 11
-17.23855524332842
 21
0.55983083180581
 31
0.0
  0
LINE
  5
356
330
71
100
AcDbEntity
  8
1
  6
Continuous
 62
     7
100
AcDbLine
 10
-53.63855524332834
 20
13.30983083180581
 30
0.0
 11
-53.63855524332834
 21
0.5598308318057
 31
0.0
  0
LINE
  5
357
330
71
100
AcDbEntity
  8
1
  6
Continuous
 62
     6
100
AcDbLine
 10
-67.59375071657831
 20
-3.69016916819419
 30
0.0
 11
-117.5937507165785
 21
-3.69016916819419
 31
0.0
  0
LINE
  5
358
330
71
100
AcDbEntity
  8
1
  6
Continuous
 62
     6
100
AcDbLine
 10
-169.8937507165786
 20
-3.6901691681943
 30
0.0
 11
-167.5937507165783
 21
-3.69016916819419
 31
0.0
  0
LINE
  5
359
330
71
100
AcDbEntity
  8
1
  6
Continuous
 62
     6
100
AcDbLine
 10
-17.23855524332842
 20
-3.6901691681943
 30
0.0
 11
32.40624928342166
 21
-3.69016916819419
 31
0.0
  0
LINE
  5
35A
330
71
100
AcDbEntity
  8
1
  6
Continuous
 62
     6
100
AcDbLine
 10
75.90624928342167
 20
-3.69016916819419
 30
0.0
 11
75.90624928342297
 21
4.80983083180581
 31
0.0
  0
LINE
  5
35B
330
71
100
AcDbEntity
  8
1
  6
Continuous
 62
     2
100
AcDbLine
 10
-216.0937507165774
 20
-3.69016916819419
 30
0.0
 11
-216.0937507165774
 21
-8.6901691681943
 31
0.0
  0
LINE
  5
35C
330
71
100
AcDbEntity
  8
1
  6
Continuous
 62
     2
100
AcDbLine
 10
-211.0937507165764
 20
-3.69016916819419
 30
0.0
 11
-216.0937507165774
 21
-3.69016916819419
 31
0.0
  0
LINE
  5
35D
330
71
100
AcDbEntity
  8
1
  6
Continuous
 62
     2
100
AcDbLine
 10
-211.0937507165764
 20
-8.6901691681943
 30
0.0
 11
-167.5937507165783
 21
-8.6901691681943
 31
0.0
  0
LINE
  5
35E
330
71
100
AcDbEntity
  8
1
  6
Continuous
 62
     2
100
AcDbLine
 10
-211.0937507165764
 20
-3.69016916819419
 30
0.0
 11
-211.0937507165764
 21
-8.6901691681943
 31
0.0
  0
LINE
  5
35F
330
71
100
AcDbEntity
  8
1
  6
Continuous
 62
     2
100
AcDbLine
 10
32.40624928342166
 20
-8.6901691681943
 30
0.0
 11
-17.59375071657834
 21
-8.6901691681943
 31
0.0
  0
LINE
  5
360
330
71
100
AcDbEntity
  8
1
  6
Continuous
 62
     2
100
AcDbLine
 10
32.40624928342166
 20
-8.6901691681943
 30
0.0
 11
32.40624928342166
 21
-3.69016916819419
 31
0.0
  0
LINE
  5
361
330
71
100
AcDbEntity
  8
1
  6
Continuous
 62
     2
100
AcDbLine
 10
-17.59375071657834
 20
-8.6901691681943
 30
0.0
 11
-17.59375071657834
 21
-3.69016916819419
 31
0.0
  0
LINE
  5
362
330
71
100
AcDbEntity
  8
1
  6
Continuous
 62
     2
100
AcDbLine
 10
-67.59375071657831
 20
-8.6901691681943
 30
0.0
 11
-17.59375071657834
 21
-8.6901691681943
 31
0.0
  0
LINE
  5
363
330
71
100
AcDbEntity
  8
1
  6
Continuous
 62
     2
100
AcDbLine
 10
-67.59375071657831
 20
-8.6901691681943
 30
0.0
 11
-67.59375071657831
 21
-3.69016916819419
 31
0.0
  0
LINE
  5
364
330
71
100
AcDbEntity
  8
1
  6
Continuous
 62
     2
100
AcDbLine
 10
-117.5937507165785
 20
-8.6901691681943
 30
0.0
 11
-67.59375071657831
 21
-8.6901691681943
 31
0.0
  0
LINE
  5
365
330
71
100
AcDbEntity
  8
1
  6
Continuous
 62
     2
100
AcDbLine
 10
-117.5937507165785
 20
-8.6901691681943
 30
0.0
 11
-117.5937507165785
 21
-3.69016916819419
 31
0.0
  0
LINE
  5
366
330
71
100
AcDbEntity
  8
1
  6
Continuous
 62
     2
100
AcDbLine
 10
-167.5937507165783
 20
-8.6901691681943
 30
0.0
 11
-117.5937507165785
 21
-8.6901691681943
 31
0.0
  0
LINE
  5
367
330
71
100
AcDbEntity
  8
1
  6
Continuous
 62
     2
100
AcDbLine
 10
-167.5937507165783
 20
-8.6901691681943
 30
0.0
 11
-167.5937507165783
 21
-3.69016916819419
 31
0.0
  0
LINE
  5
368
330
71
100
AcDbEntity
  8
1
  6
Continuous
 62
     6
100
AcDbLine
 10
-211.0937507165766
 20
46.30983083180593
 30
0.0
 11
-211.0937507165764
 21
-3.69016916819419
 31
0.0
  0
LINE
  5
369
330
71
100
AcDbEntity
  8
1
  6
Continuous
 62
     2
100
AcDbLine
 10
-216.0937507165774
 20
46.30983083180593
 30
0.0
 11
-216.0937507165774
 21
-3.69016916819419
 31
0.0
  0
LINE
  5
36A
330
71
100
AcDbEntity
  8
1
  6
Continuous
 62
     2
100
AcDbLine
 10
-216.0937507165774
 20
46.30983083180593
 30
0.0
 11
-211.0937507165766
 21
46.30983083180593
 31
0.0
  0
LINE
  5
36B
330
71
100
AcDbEntity
  8
1
  6
Continuous
 62
     6
100
AcDbLine
 10
-211.0937507165768
 20
96.30983083180573
 30
0.0
 11
-211.0937507165766
 21
46.30983083180593
 31
0.0
  0
LINE
  5
36C
330
71
100
AcDbEntity
  8
1
  6
Continuous
 62
     2
100
AcDbLine
 10
-216.0937507165774
 20
96.30983083180573
 30
0.0
 11
-216.0937507165774
 21
46.30983083180593
 31
0.0
  0
LINE
  5
36D
330
71
100
AcDbEntity
  8
1
  6
Continuous
 62
     2
100
AcDbLine
 10
-216.0937507165774
 20
96.30983083180573
 30
0.0
 11
-211.0937507165768
 21
96.30983083180573
 31
0.0
  0
LINE
  5
36E
330
71
100
AcDbEntity
  8
1
  6
Continuous
 62
     6
100
AcDbLine
 10
-211.0937507165774
 20
146.3098308318058
 30
0.0
 11
-211.0937507165768
 21
96.30983083180573
 31
0.0
  0
LINE
  5
36F
330
71
100
AcDbEntity
  8
1
  6
Continuous
 62
     2
100
AcDbLine
 10
-216.0937507165774
 20
146.3098308318058
 30
0.0
 11
-216.0937507165774
 21
96.30983083180573
 31
0.0
  0
LINE
  5
370
330
71
100
AcDbEntity
  8
1
  6
Continuous
 62
     2
100
AcDbLine
 10
-216.0937507165774
 20
146.3098308318058
 30
0.0
 11
-211.0937507165774
 21
146.3098308318058
 31
0.0
  0
LINE
  5
371
330
71
100
AcDbEntity
  8
1
  6
Continuous
 62
     6
100
AcDbLine
 10
-211.0937507165774
 20
181.3098308318058
 30
0.0
 11
-211.0937507165774
 21
146.3098308318058
 31
0.0
  0
LINE
  5
372
330
71
100
AcDbEntity
  8
1
  6
Continuous
 62
     2
100
AcDbLine
 10
-216.0937507165774
 20
201.3098308318058
 30
0.0
 11
-216.0937507165774
 21
146.3098308318058
 31
0.0
  0
LINE
  5
373
330
71
100
AcDbEntity
  8
1
  6
Continuous
 62
     2
100
AcDbLine
 10
-216.0937507165774
 20
-8.6901691681943
 30
0.0
 11
-211.0937507165764
 21
-8.6901691681943
 31
0.0
  0
LINE
  5
374
330
71
100
AcDbEntity
  8
1
  6
Continuous
 62
     2
100
AcDbLine
 10
-67.59375071657831
 20
201.3098308318058
 30
0.0
 11
-67.59375071657831
 21
192.1011389871045
 31
0.0
  0
LINE
  5
375
330
71
100
AcDbEntity
  8
1
  6
Continuous
 62
     2
100
AcDbLine
 10
-67.59375071657831
 20
201.3098308318058
 30
0.0
 11
-216.0937507165774
 21
201.3098308318058
 31
0.0
  0
LINE
  5
376
330
71
100
AcDbEntity
  8
1
  6
Continuous
 62
     2
100
AcDbLine
 10
80.90624928342066
 20
-3.69016916819419
 30
0.0
 11
80.90624928342066
 21
46.30983083180593
 31
0.0
  0
LINE
  5
377
330
71
100
AcDbEntity
  8
1
  6
Continuous
 62
     2
100
AcDbLine
 10
80.90624928342066
 20
146.3098308318058
 30
0.0
 11
80.90624928342066
 21
201.3098308318058
 31
0.0
  0
LINE
  5
378
330
71
100
AcDbEntity
  8
1
  6
Continuous
 62
     6
100
AcDbLine
 10
75.90624928342086
 20
146.3098308318058
 30
0.0
 11
75.90624928342066
 21
181.3098308318058
 31
0.0
  0
LINE
  5
379
330
71
100
AcDbEntity
  8
1
  6
Continuous
 62
     2
100
AcDbLine
 10
75.90624928342086
 20
146.3098308318058
 30
0.0
 11
80.90624928342066
 21
146.3098308318058
 31
0.0
  0
LINE
  5
37A
330
71
100
AcDbEntity
  8
1
  6
Continuous
 62
     2
100
AcDbLine
 10
80.90624928342066
 20
96.30983083180573
 30
0.0
 11
80.90624928342066
 21
146.3098308318058
 31
0.0
  0
LINE
  5
37B
330
71
100
AcDbEntity
  8
1
  6
Continuous
 62
     6
100
AcDbLine
 10
75.90624928342207
 20
96.30983083180573
 30
0.0
 11
75.90624928342086
 21
146.3098308318058
 31
0.0
  0
LINE
  5
37C
330
71
100
AcDbEntity
  8
1
  6
Continuous
 62
     2
100
AcDbLine
 10
75.90624928342207
 20
96.30983083180573
 30
0.0
 11
80.90624928342066
 21
96.30983083180573
 31
0.0
  0
LINE
  5
37D
330
71
100
AcDbEntity
  8
1
  6
Continuous
 62
     2
100
AcDbLine
 10
80.90624928342066
 20
46.30983083180593
 30
0.0
 11
80.90624928342066
 21
96.30983083180573
 31
0.0
  0
LINE
  5
37E
330
71
100
AcDbEntity
  8
1
  6
Continuous
 62
     6
100
AcDbLine
 10
75.90624928342257
 20
46.30983083180593
 30
0.0
 11
75.90624928342207
 21
96.30983083180573
 31
0.0
  0
LINE
  5
37F
330
71
100
AcDbEntity
  8
1
  6
Continuous
 62
     2
100
AcDbLine
 10
75.90624928342257
 20
46.30983083180593
 30
0.0
 11
80.90624928342066
 21
46.30983083180593
 31
0.0
  0
LINE
  5
380
330
71
100
AcDbEntity
  8
1
  6
Continuous
 62
     6
100
AcDbLine
 10
75.90624928342066
 20
181.3098308318058
 30
0.0
 11
-211.0937507165774
 21
181.3098308318058
 31
0.0
  0
LINE
  5
381
330
71
100
AcDbEntity
  8
1
  6
Continuous
 62
     2
100
AcDbLine
 10
80.90624928342066
 20
201.3098308318058
 30
0.0
 11
-67.59375071657831
 21
201.3098308318058
 31
0.0
  0
LINE
  5
382
330
71
100
AcDbEntity
  8
1
  6
Continuous
 62
     6
100
AcDbLine
 10
75.90624928342336
 20
13.30983083180581
 30
0.0
 11
75.90624928342257
 21
46.30983083180593
 31
0.0
  0
LINE
  5
383
330
71
100
AcDbEntity
  8
1
  6
Continuous
 62
     2
100
AcDbLine
 10
75.90624928342167
 20
-8.6901691681943
 30
0.0
 11
32.40624928342166
 21
-8.6901691681943
 31
0.0
  0
LINE
  5
384
330
71
100
AcDbEntity
  8
1
  6
Continuous
 62
     2
100
AcDbLine
 10
80.90624928342066
 20
-8.6901691681943
 30
0.0
 11
75.90624928342167
 21
-8.6901691681943
 31
0.0
  0
LINE
  5
385
330
71
100
AcDbEntity
  8
1
  6
Continuous
 62
     2
100
AcDbLine
 10
80.90624928342066
 20
-8.6901691681943
 30
0.0
 11
80.90624928342066
 21
-3.69016916819419
 31
0.0
  0
LINE
  5
386
330
71
100
AcDbEntity
  8
1
  6
Continuous
 62
     6
100
AcDbLine
 10
-53.63855524332834
 20
13.30983083180581
 30
0.0
 11
-17.23855524332842
 21
13.30983083180581
 31
0.0
  0
LINE
  5
387
330
71
100
AcDbEntity
  8
1
  6
Continuous
 62
     2
100
AcDbLine
 10
75.90624928342167
 20
-3.69016916819419
 30
0.0
 11
75.90624928342167
 21
-8.6901691681943
 31
0.0
  0
LINE
  5
388
330
71
100
AcDbEntity
  8
1
  6
Continuous
 62
     2
100
AcDbLine
 10
75.90624928342167
 20
-3.69016916819419
 30
0.0
 11
80.90624928342066
 21
-3.69016916819419
 31
0.0
  0
LINE
  5
389
330
71
100
AcDbEntity
  8
1
  6
Continuous
 62
     6
100
AcDbLine
 10
-17.59375071657834
 20
-3.69016916819419
 30
0.0
 11
-35.43855524332832
 21
-3.69016916819419
 31
0.0
  0
LINE
  5
38A
330
71
100
AcDbEntity
  8
1
  6
Continuous
 62
     6
100
AcDbLine
 10
32.40624928342166
 20
-3.69016916819419
 30
0.0
 11
75.90624928342167
 21
-3.69016916819419
 31
0.0
  0
LINE
  5
38B
330
71
100
AcDbEntity
  8
1
  6
Continuous
 62
     6
100
AcDbLine
 10
-117.5937507165785
 20
-3.69016916819419
 30
0.0
 11
-122.6385552433283
 21
-3.69016916819419
 31
0.0
  0
LINE
  5
38C
330
71
100
AcDbEntity
  8
1
  6
Continuous
 62
     6
100
AcDbLine
 10
-67.59375071657831
 20
-3.69016916819419
 30
0.0
 11
-53.63855524332834
 21
-3.6901691681943
 31
0.0
  0
LINE
  5
38D
102
{ACAD_REACTORS
330
477
330
478
102
}
330
71
100
AcDbEntity
  8
0
  6
Continuous
 62
     2
100
AcDbLine
 10
-46.12392930118153
 20
8.38234558801793
 30
0.0
 11
-46.12392930118153
 21
8.98788087652471
 31
0.0
  0
LINE
  5
38E
102
{ACAD_REACTORS
330
477
330
478
102
}
330
71
100
AcDbEntity
  8
0
  6
Continuous
 62
     2
100
AcDbLine
 10
-46.12392930118153
 20
5.58221098138662
 30
0.0
 11
-46.12392930118153
 21
6.1640623880817
 31
0.0
  0
LINE
  5
38F
102
{ACAD_REACTORS
330
479
330
47A
102
}
330
71
100
AcDbEntity
  8
0
  6
Continuous
 62
     2
100
AcDbLine
 10
-23.49444286570233
 20
5.87187504950961
 30
0.0
 11
-23.49444286570233
 21
3.60333083182212
 31
0.0
  0
LINE
  5
390
102
{ACAD_REACTORS
330
479
330
47A
102
}
330
71
100
AcDbEntity
  8
0
  6
Continuous
 62
     2
100
AcDbLine
 10
-24.87549664468992
 20
6.65714035563272
 30
0.0
 11
-21.49055112606123
 21
6.6571403556332
 31
0.0
  0
LINE
  5
391
102
{ACAD_REACTORS
330
479
330
47A
102
}
330
71
100
AcDbEntity
  8
0
  6
Continuous
 62
     2
100
AcDbLine
 10
-21.49055112606123
 20
5.87187504950961
 30
0.0
 11
-21.49055112606123
 21
6.6571403556332
 31
0.0
  0
LINE
  5
392
102
{ACAD_REACTORS
330
479
330
47A
102
}
330
71
100
AcDbEntity
  8
0
  6
Continuous
 62
     2
100
AcDbLine
 10
-22.30165016353462
 20
5.87187504950961
 30
0.0
 11
-21.49055112606123
 21
5.87187504950961
 31
0.0
  0
LINE
  5
393
102
{ACAD_REACTORS
330
479
330
47A
102
}
330
71
100
AcDbEntity
  8
0
  6
Continuous
 62
     2
100
AcDbLine
 10
-22.30165016353462
 20
3.60333083182212
 30
0.0
 11
-22.30165016353462
 21
5.87187504950961
 31
0.0
  0
LINE
  5
394
102
{ACAD_REACTORS
330
479
330
47A
102
}
330
71
100
AcDbEntity
  8
0
  6
Continuous
 62
     2
100
AcDbLine
 10
-23.49444286570233
 20
3.60333083182212
 30
0.0
 11
-22.30165016353462
 21
3.60333083182212
 31
0.0
  0
LINE
  5
395
102
{ACAD_REACTORS
330
46F
330
470
102
}
330
71
100
AcDbEntity
  8
0
  6
Continuous
 62
     2
100
AcDbLine
 10
-24.19103380376683
 20
10.01633083180761
 30
0.0
 11
-25.59375802151612
 21
10.01633083180761
 31
0.0
  0
LINE
  5
396
102
{ACAD_REACTORS
330
46F
330
470
102
}
330
71
100
AcDbEntity
  8
0
  6
Continuous
 62
     2
100
AcDbLine
 10
-24.19103380376683
 20
10.01633083180761
 30
0.0
 11
-23.58986628187503
 21
9.33650751025212
 31
0.0
  0
LINE
  5
397
102
{ACAD_REACTORS
330
46F
330
470
102
}
330
71
100
AcDbEntity
  8
0
  6
Continuous
 62
     2
100
AcDbLine
 10
-23.58986628187503
 20
9.33650751025212
 30
0.0
 11
-22.98869875998224
 21
10.01633083180761
 31
0.0
  0
LINE
  5
398
102
{ACAD_REACTORS
330
46F
330
470
102
}
330
71
100
AcDbEntity
  8
0
  6
Continuous
 62
     2
100
AcDbLine
 10
-22.88850417300154
 20
8.54338030177141
 30
0.0
 11
-21.58597454223502
 21
10.01633083180761
 31
0.0
  0
LINE
  5
399
102
{ACAD_REACTORS
330
46F
330
470
102
}
330
71
100
AcDbEntity
  8
0
  6
Continuous
 62
     2
100
AcDbLine
 10
-22.88850417300154
 20
8.54338030177141
 30
0.0
 11
-21.49055112606123
 21
6.96252130799641
 31
0.0
  0
LINE
  5
39A
102
{ACAD_REACTORS
330
46F
330
470
102
}
330
71
100
AcDbEntity
  8
0
  6
Continuous
 62
     2
100
AcDbLine
 10
-22.89327534380954
 20
6.96252130799641
 30
0.0
 11
-21.49055112606123
 21
6.96252130799641
 31
0.0
  0
LINE
  5
39B
102
{ACAD_REACTORS
330
46F
330
470
102
}
330
71
100
AcDbEntity
  8
0
  6
Continuous
 62
     2
100
AcDbLine
 10
-23.58986628187503
 20
7.75025309329013
 30
0.0
 11
-22.89327534380954
 21
6.96252130799641
 31
0.0
  0
LINE
  5
39C
102
{ACAD_REACTORS
330
46D
330
46E
102
}
330
71
100
AcDbEntity
  8
0
  6
Continuous
 62
     2
100
AcDbLine
 10
-27.04896511815872
 20
10.01633083180761
 30
0.0
 11
-25.80846070790582
 21
10.01633083180761
 31
0.0
  0
LINE
  5
39D
102
{ACAD_REACTORS
330
46D
330
46E
102
}
330
71
100
AcDbEntity
  8
0
  6
Continuous
 62
     2
100
AcDbLine
 10
-25.80846070790582
 20
10.01633083180761
 30
0.0
 11
-25.80846070790582
 21
6.96252130799641
 31
0.0
  0
LINE
  5
39E
102
{ACAD_REACTORS
330
46D
330
46E
102
}
330
71
100
AcDbEntity
  8
0
  6
Continuous
 62
     2
100
AcDbLine
 10
-27.04896511815872
 20
6.96252130799641
 30
0.0
 11
-27.04896511815872
 21
10.01633083180761
 31
0.0
  0
LINE
  5
39F
102
{ACAD_REACTORS
330
46B
330
46C
102
}
330
71
100
AcDbEntity
  8
0
  6
Continuous
 62
     2
100
AcDbLine
 10
-28.51727520069633
 20
4.82485464134661
 30
0.0
 11
-28.21710996350393
 21
5.59266960733331
 31
0.0
  0
LINE
  5
3A0
102
{ACAD_REACTORS
330
46B
330
46C
102
}
330
71
100
AcDbEntity
  8
0
  6
Continuous
 62
     2
100
AcDbLine
 10
-28.99481080531714
 20
3.60333083182212
 30
0.0
 11
-28.78333075184133
 21
4.14429137604
 31
0.0
  0
LINE
  5
3A1
102
{ACAD_REACTORS
330
46B
330
46C
102
}
330
71
100
AcDbEntity
  8
0
  6
Continuous
 62
     2
100
AcDbLine
 10
-28.83736216863082
 20
6.6571403556332
 30
0.0
 11
-30.23531521557013
 21
3.60333083182212
 31
0.0
  0
LINE
  5
3A2
102
{ACAD_REACTORS
330
46B
330
46C
102
}
330
71
100
AcDbEntity
  8
0
  6
Continuous
 62
     2
100
AcDbLine
 10
-26.19890471143782
 20
3.60333083182212
 30
0.0
 11
-27.43940912169174
 21
3.60333083182212
 31
0.0
  0
LINE
  5
3A3
102
{ACAD_REACTORS
330
46B
330
46C
102
}
330
71
100
AcDbEntity
  8
0
  6
Continuous
 62
     2
100
AcDbLine
 10
-28.78333075184133
 20
4.14429137604
 30
0.0
 11
-27.65088917516752
 21
4.14429137604
 31
0.0
  0
LINE
  5
3A4
102
{ACAD_REACTORS
330
469
330
46A
102
}
330
71
100
AcDbEntity
  8
0
  6
Continuous
 62
     2
100
AcDbLine
 10
-32.39282735475234
 20
5.87187504950961
 30
0.0
 11
-31.58172831727774
 21
5.87187504950961
 31
0.0
  0
LINE
  5
3A5
102
{ACAD_REACTORS
330
469
330
46A
102
}
330
71
100
AcDbEntity
  8
0
  6
Continuous
 62
     2
100
AcDbLine
 10
-29.57783657763872
 20
6.6571403556332
 30
0.0
 11
-32.39282735475234
 21
6.6571403556332
 31
0.0
  0
LINE
  5
3A6
102
{ACAD_REACTORS
330
469
330
46A
102
}
330
71
100
AcDbEntity
  8
0
  6
Continuous
 62
     2
100
AcDbLine
 10
-29.57783657763872
 20
5.87187504950961
 30
0.0
 11
-29.57783657763872
 21
6.6571403556332
 31
0.0
  0
LINE
  5
3A7
102
{ACAD_REACTORS
330
469
330
46A
102
}
330
71
100
AcDbEntity
  8
0
  6
Continuous
 62
     2
100
AcDbLine
 10
-30.38893561511122
 20
5.87187504950961
 30
0.0
 11
-29.57783657763872
 21
5.87187504950961
 31
0.0
  0
LINE
  5
3A8
102
{ACAD_REACTORS
330
469
330
46A
102
}
330
71
100
AcDbEntity
  8
0
  6
Continuous
 62
     2
100
AcDbLine
 10
-30.38893561511122
 20
3.60333083182212
 30
0.0
 11
-30.38893561511122
 21
5.87187504950961
 31
0.0
  0
LINE
  5
3A9
102
{ACAD_REACTORS
330
467
330
468
102
}
330
71
100
AcDbEntity
  8
0
  6
Continuous
 62
     2
100
AcDbLine
 10
-29.72082077101322
 20
6.96252130799641
 30
0.0
 11
-29.72082077101322
 21
8.27129681820111
 31
0.0
  0
LINE
  5
3AA
102
{ACAD_REACTORS
330
467
330
468
102
}
330
71
100
AcDbEntity
  8
0
  6
Continuous
 62
     2
100
AcDbLine
 10
-30.91361347317974
 20
10.01633083180761
 30
0.0
 11
-30.91361347317974
 21
6.96252130799641
 31
0.0
  0
LINE
  5
3AB
102
{ACAD_REACTORS
330
467
330
468
102
}
330
71
100
AcDbEntity
  8
0
  6
Continuous
 62
     2
100
AcDbLine
 10
-29.72082077101322
 20
10.01633083180761
 30
0.0
 11
-30.91361347317974
 21
10.01633083180761
 31
0.0
  0
LINE
  5
3AC
102
{ACAD_REACTORS
330
467
330
468
102
}
330
71
100
AcDbEntity
  8
0
  6
Continuous
 62
     2
100
AcDbLine
 10
-28.48031636075922
 20
10.01633083180761
 30
0.0
 11
-28.48031636075922
 21
8.70755532160243
 31
0.0
  0
LINE
  5
3AD
102
{ACAD_REACTORS
330
465
330
466
102
}
330
71
100
AcDbEntity
  8
0
  6
Continuous
 62
     2
100
AcDbLine
 10
-36.16205229359943
 20
6.6571403556332
 30
0.0
 11
-36.16205229359943
 21
3.60333083182212
 31
0.0
  0
LINE
  5
3AE
102
{ACAD_REACTORS
330
465
330
466
102
}
330
71
100
AcDbEntity
  8
0
  6
Continuous
 62
     2
100
AcDbLine
 10
-34.96925959143184
 20
6.6571403556332
 30
0.0
 11
-36.16205229359943
 21
6.6571403556332
 31
0.0
  0
LINE
  5
3AF
102
{ACAD_REACTORS
330
465
330
466
102
}
330
71
100
AcDbEntity
  8
0
  6
Continuous
 62
     2
100
AcDbLine
 10
-33.72875518117894
 20
3.60333083182212
 30
0.0
 11
-32.53596247901254
 21
3.60333083182212
 31
0.0
  0
LINE
  5
3B0
102
{ACAD_REACTORS
330
465
330
466
102
}
330
71
100
AcDbEntity
  8
0
  6
Continuous
 62
     2
100
AcDbLine
 10
-36.16205229359943
 20
3.60333083182212
 30
0.0
 11
-34.96925959143184
 21
3.60333083182212
 31
0.0
  0
LINE
  5
3B1
102
{ACAD_REACTORS
330
475
330
476
102
}
330
71
100
AcDbEntity
  8
0
  6
Continuous
 62
     2
100
AcDbLine
 10
-32.48809984004032
 20
8.83843287262292
 30
0.0
 11
-32.48809984004032
 21
9.31831722636463
 31
0.0
  0
LINE
  5
3B2
102
{ACAD_REACTORS
330
475
330
476
102
}
330
71
100
AcDbEntity
  8
0
  6
Continuous
 62
     2
100
AcDbLine
 10
-31.15217201361264
 20
8.83843287262292
 30
0.0
 11
-32.48809984004032
 21
8.83843287262292
 31
0.0
  0
LINE
  5
3B3
102
{ACAD_REACTORS
330
475
330
476
102
}
330
71
100
AcDbEntity
  8
0
  6
Continuous
 62
     2
100
AcDbLine
 10
-31.15217201361264
 20
8.14041926718062
 30
0.0
 11
-31.15217201361264
 21
8.83843287262292
 31
0.0
  0
LINE
  5
3B4
102
{ACAD_REACTORS
330
475
330
476
102
}
330
71
100
AcDbEntity
  8
0
  6
Continuous
 62
     2
100
AcDbLine
 10
-32.48809984004032
 20
8.14041926718062
 30
0.0
 11
-31.15217201361264
 21
8.14041926718062
 31
0.0
  0
LINE
  5
3B5
102
{ACAD_REACTORS
330
463
330
464
102
}
330
71
100
AcDbEntity
  8
0
  6
Continuous
 62
     2
100
AcDbLine
 10
-35.97105453036724
 20
10.01633083180761
 30
0.0
 11
-35.97105453036724
 21
6.96252130799641
 31
0.0
  0
LINE
  5
3B6
102
{ACAD_REACTORS
330
463
330
464
102
}
330
71
100
AcDbEntity
  8
0
  6
Continuous
 62
     2
100
AcDbLine
 10
-35.97105453036724
 20
6.96252130799641
 30
0.0
 11
-37.16384723253364
 21
6.96252130799641
 31
0.0
  0
LINE
  5
3B7
102
{ACAD_REACTORS
330
463
330
464
102
}
330
71
100
AcDbEntity
  8
0
  6
Continuous
 62
     2
100
AcDbLine
 10
-37.16384723253364
 20
6.96252130799641
 30
0.0
 11
-37.16384723253364
 21
8.09679341684023
 31
0.0
  0
LINE
  5
3B8
102
{ACAD_REACTORS
330
463
330
464
102
}
330
71
100
AcDbEntity
  8
0
  6
Continuous
 62
     2
100
AcDbLine
 10
-38.21350481044112
 20
6.96252130799641
 30
0.0
 11
-39.40629751260772
 21
6.96252130799641
 31
0.0
  0
LINE
  5
3B9
102
{ACAD_REACTORS
330
463
330
464
102
}
330
71
100
AcDbEntity
  8
0
  6
Continuous
 62
     2
100
AcDbLine
 10
-39.40629751260772
 20
10.01633083180761
 30
0.0
 11
-38.21350481044112
 21
10.01633083180761
 31
0.0
  0
LINE
  5
3BA
102
{ACAD_REACTORS
330
463
330
464
102
}
330
71
100
AcDbEntity
  8
0
  6
Continuous
 62
     2
100
AcDbLine
 10
-38.21350481044112
 20
10.01633083180761
 30
0.0
 11
-38.21350481044112
 21
8.94749749847301
 31
0.0
  0
LINE
  5
3BB
102
{ACAD_REACTORS
330
463
330
464
102
}
330
71
100
AcDbEntity
  8
0
  6
Continuous
 62
     2
100
AcDbLine
 10
-38.21350481044112
 20
8.94749749847301
 30
0.0
 11
-37.16384723253364
 21
8.94749749847301
 31
0.0
  0
LINE
  5
3BC
102
{ACAD_REACTORS
330
471
330
472
102
}
330
71
100
AcDbEntity
  8
0
  6
Continuous
 62
     2
100
AcDbLine
 10
-41.36247754416132
 20
9.35322498636751
 30
0.0
 11
-41.04518248261942
 21
9.35322498636751
 31
0.0
  0
LINE
  5
3BD
102
{ACAD_REACTORS
330
471
330
472
102
}
330
71
100
AcDbEntity
  8
0
  6
Continuous
 62
     2
100
AcDbLine
 10
-41.36247754416132
 20
8.6474973370253
 30
0.0
 11
-41.04518248261942
 21
8.6474973370253
 31
0.0
  0
LINE
  5
3BE
102
{ACAD_REACTORS
330
471
330
472
102
}
330
71
100
AcDbEntity
  8
0
  6
Continuous
 62
     2
100
AcDbLine
 10
-42.60298195441544
 20
10.01633083180761
 30
0.0
 11
-42.60298195441544
 21
6.96252130799641
 31
0.0
  0
LINE
  5
3BF
102
{ACAD_REACTORS
330
471
330
472
102
}
330
71
100
AcDbEntity
  8
0
  6
Continuous
 62
     2
100
AcDbLine
 10
-42.60298195441544
 20
10.01633083180761
 30
0.0
 11
-40.60370995638104
 21
10.01633083180761
 31
0.0
  0
LINE
  5
3C0
102
{ACAD_REACTORS
330
471
330
472
102
}
330
71
100
AcDbEntity
  8
0
  6
Continuous
 62
     2
100
AcDbLine
 10
-41.36247754416132
 20
7.90559954914022
 30
0.0
 11
-40.60370995638104
 21
7.90559954914022
 31
0.0
  0
LINE
  5
3C1
102
{ACAD_REACTORS
330
477
330
478
102
}
330
71
100
AcDbEntity
  8
0
  6
Continuous
 62
     2
100
AcDbLine
 10
-48.69947798771213
 20
8.98805835317282
 30
0.0
 11
-48.69947798771213
 21
4.63160331045572
 31
0.0
  0
LINE
  5
3C2
102
{ACAD_REACTORS
330
477
330
478
102
}
330
71
100
AcDbEntity
  8
0
  6
Continuous
 62
     2
100
AcDbLine
 10
-48.38376106463645
 20
9.30377527624901
 30
0.0
 11
-46.90792780362682
 21
9.30377527624901
 31
0.0
  0
LINE
  5
3C3
102
{ACAD_REACTORS
330
477
330
478
102
}
330
71
100
AcDbEntity
  8
0
  6
Continuous
 62
     2
100
AcDbLine
 10
-46.59221088055023
 20
8.38403373411231
 30
0.0
 11
-46.59221088055023
 21
8.98805835317282
 31
0.0
  0
LINE
  5
3C4
102
{ACAD_REACTORS
330
477
330
478
102
}
330
71
100
AcDbEntity
  8
0
  6
Continuous
 62
     2
100
AcDbLine
 10
-46.59221088055023
 20
4.63160331045572
 30
0.0
 11
-46.59221088055023
 21
6.16237424198732
 31
0.0
  0
LINE
  5
3C5
102
{ACAD_REACTORS
330
477
330
478
102
}
330
71
100
AcDbEntity
  8
0
  6
Continuous
 62
     2
100
AcDbLine
 10
-43.50434365066613
 20
3.60333083182212
 30
0.0
 11
-48.97765574138293
 21
3.60333083182212
 31
0.0
  0
LINE
  5
3C6
102
{ACAD_REACTORS
330
477
330
478
102
}
330
71
100
AcDbEntity
  8
0
  6
Continuous
 62
     2
100
AcDbLine
 10
-43.08009903528225
 20
9.59208621640562
 30
0.0
 11
-43.08009903528225
 21
4.02757544720541
 31
0.0
  0
LINE
  5
3C7
102
{ACAD_REACTORS
330
477
330
478
102
}
330
71
100
AcDbEntity
  8
0
  6
Continuous
 62
     2
100
AcDbLine
 10
-48.97765574138293
 20
10.01633083178942
 30
0.0
 11
-43.50434365066613
 21
10.01633083178942
 31
0.0
  0
LINE
  5
3C8
102
{ACAD_REACTORS
330
477
330
478
102
}
330
71
100
AcDbEntity
  8
0
  6
Continuous
 62
     2
100
AcDbLine
 10
-49.40190035676574
 20
9.59208621640562
 30
0.0
 11
-49.40190035676574
 21
4.02757544720541
 31
0.0
  0
LINE
  5
3C9
102
{ACAD_REACTORS
330
477
330
478
102
}
330
71
100
AcDbEntity
  8
0
  6
Continuous
 62
     2
100
AcDbLine
 10
-46.90792780362682
 20
4.31588638737901
 30
0.0
 11
-48.38376106463645
 21
4.31588638737901
 31
0.0
  0
LINE
  5
3CA
102
{ACAD_REACTORS
330
471
330
472
102
}
330
71
100
AcDbEntity
  8
0
  6
Continuous
 62
     2
100
AcDbLine
 10
-41.36247754416132
 20
6.96252130799641
 30
0.0
 11
-41.36247754416132
 21
7.90559954914022
 31
0.0
  0
LINE
  5
3CB
102
{ACAD_REACTORS
330
471
330
472
102
}
330
71
100
AcDbEntity
  8
0
  6
Continuous
 62
     2
100
AcDbLine
 10
-42.60298195441544
 20
6.96252130799641
 30
0.0
 11
-41.36247754416132
 21
6.96252130799641
 31
0.0
  0
LINE
  5
3CC
102
{ACAD_REACTORS
330
471
330
472
102
}
330
71
100
AcDbEntity
  8
0
  6
Continuous
 62
     2
100
AcDbLine
 10
-41.36247754416132
 20
8.6474973370253
 30
0.0
 11
-41.36247754416132
 21
9.35322498636751
 31
0.0
  0
LINE
  5
3CD
102
{ACAD_REACTORS
330
463
330
464
102
}
330
71
100
AcDbEntity
  8
0
  6
Continuous
 62
     2
100
AcDbLine
 10
-39.40629751260772
 20
10.01633083180761
 30
0.0
 11
-39.40629751260772
 21
6.96252130799641
 31
0.0
  0
LINE
  5
3CE
102
{ACAD_REACTORS
330
463
330
464
102
}
330
71
100
AcDbEntity
  8
0
  6
Continuous
 62
     2
100
AcDbLine
 10
-38.21350481044112
 20
8.09679341684023
 30
0.0
 11
-38.21350481044112
 21
6.96252130799641
 31
0.0
  0
LINE
  5
3CF
102
{ACAD_REACTORS
330
463
330
464
102
}
330
71
100
AcDbEntity
  8
0
  6
Continuous
 62
     2
100
AcDbLine
 10
-37.16384723253364
 20
8.09679341684023
 30
0.0
 11
-38.21350481044112
 21
8.09679341684023
 31
0.0
  0
LINE
  5
3D0
102
{ACAD_REACTORS
330
463
330
464
102
}
330
71
100
AcDbEntity
  8
0
  6
Continuous
 62
     2
100
AcDbLine
 10
-37.16384723253364
 20
10.01633083180761
 30
0.0
 11
-35.97105453036724
 21
10.01633083180761
 31
0.0
  0
LINE
  5
3D1
102
{ACAD_REACTORS
330
463
330
464
102
}
330
71
100
AcDbEntity
  8
0
  6
Continuous
 62
     2
100
AcDbLine
 10
-37.16384723253364
 20
8.94749749847301
 30
0.0
 11
-37.16384723253364
 21
10.01633083180761
 31
0.0
  0
LINE
  5
3D2
102
{ACAD_REACTORS
330
475
330
476
102
}
330
71
100
AcDbEntity
  8
0
  6
Continuous
 62
     2
100
AcDbLine
 10
-31.15217201361264
 20
9.31831722636463
 30
0.0
 11
-31.15217201361264
 21
10.01633083180761
 31
0.0
  0
LINE
  5
3D3
102
{ACAD_REACTORS
330
475
330
476
102
}
330
71
100
AcDbEntity
  8
0
  6
Continuous
 62
     2
100
AcDbLine
 10
-34.30249173739364
 20
10.01633083180761
 30
0.0
 11
-31.15217201361264
 21
10.01633083180761
 31
0.0
  0
LINE
  5
3D4
102
{ACAD_REACTORS
330
475
330
476
102
}
330
71
100
AcDbEntity
  8
0
  6
Continuous
 62
     2
100
AcDbLine
 10
-34.30249173739364
 20
6.96252130799641
 30
0.0
 11
-31.15217201361264
 21
6.96252130799641
 31
0.0
  0
LINE
  5
3D5
102
{ACAD_REACTORS
330
475
330
476
102
}
330
71
100
AcDbEntity
  8
0
  6
Continuous
 62
     2
100
AcDbLine
 10
-31.15217201361264
 20
6.96252130799641
 30
0.0
 11
-31.15217201361264
 21
7.66053491343891
 31
0.0
  0
LINE
  5
3D6
102
{ACAD_REACTORS
330
475
330
476
102
}
330
71
100
AcDbEntity
  8
0
  6
Continuous
 62
     2
100
AcDbLine
 10
-31.15217201361264
 20
7.66053491343891
 30
0.0
 11
-32.48809984004032
 21
7.66053491343891
 31
0.0
  0
LINE
  5
3D7
102
{ACAD_REACTORS
330
475
330
476
102
}
330
71
100
AcDbEntity
  8
0
  6
Continuous
 62
     2
100
AcDbLine
 10
-32.48809984004032
 20
7.66053491343891
 30
0.0
 11
-32.48809984004032
 21
8.14041926718062
 31
0.0
  0
LINE
  5
3D8
102
{ACAD_REACTORS
330
475
330
476
102
}
330
71
100
AcDbEntity
  8
0
  6
Continuous
 62
     2
100
AcDbLine
 10
-32.48809984004032
 20
9.31831722636463
 30
0.0
 11
-31.15217201361264
 21
9.31831722636463
 31
0.0
  0
LINE
  5
3D9
102
{ACAD_REACTORS
330
465
330
466
102
}
330
71
100
AcDbEntity
  8
0
  6
Continuous
 62
     2
100
AcDbLine
 10
-34.96925959143184
 20
3.60333083182212
 30
0.0
 11
-34.96925959143184
 21
4.9121063420267
 31
0.0
  0
LINE
  5
3DA
102
{ACAD_REACTORS
330
465
330
466
102
}
330
71
100
AcDbEntity
  8
0
  6
Continuous
 62
     2
100
AcDbLine
 10
-34.96925959143184
 20
4.9121063420267
 30
0.0
 11
-33.72875518117894
 21
3.60333083182212
 31
0.0
  0
LINE
  5
3DB
102
{ACAD_REACTORS
330
465
330
466
102
}
330
71
100
AcDbEntity
  8
0
  6
Continuous
 62
     2
100
AcDbLine
 10
-32.53596247901254
 20
3.60333083182212
 30
0.0
 11
-32.53596247901254
 21
6.6571403556332
 31
0.0
  0
LINE
  5
3DC
102
{ACAD_REACTORS
330
465
330
466
102
}
330
71
100
AcDbEntity
  8
0
  6
Continuous
 62
     2
100
AcDbLine
 10
-32.53596247901254
 20
6.6571403556332
 30
0.0
 11
-33.72875518117894
 21
6.6571403556332
 31
0.0
  0
LINE
  5
3DD
102
{ACAD_REACTORS
330
465
330
466
102
}
330
71
100
AcDbEntity
  8
0
  6
Continuous
 62
     2
100
AcDbLine
 10
-33.72875518117894
 20
6.6571403556332
 30
0.0
 11
-33.72875518117894
 21
5.34836484542811
 31
0.0
  0
LINE
  5
3DE
102
{ACAD_REACTORS
330
465
330
466
102
}
330
71
100
AcDbEntity
  8
0
  6
Continuous
 62
     2
100
AcDbLine
 10
-33.72875518117894
 20
5.34836484542811
 30
0.0
 11
-34.96925959143184
 21
6.6571403556332
 31
0.0
  0
LINE
  5
3DF
102
{ACAD_REACTORS
330
467
330
468
102
}
330
71
100
AcDbEntity
  8
0
  6
Continuous
 62
     2
100
AcDbLine
 10
-29.72082077101322
 20
8.27129681820111
 30
0.0
 11
-28.48031636075922
 21
6.96252130799641
 31
0.0
  0
LINE
  5
3E0
102
{ACAD_REACTORS
330
467
330
468
102
}
330
71
100
AcDbEntity
  8
0
  6
Continuous
 62
     2
100
AcDbLine
 10
-28.48031636075922
 20
6.96252130799641
 30
0.0
 11
-27.28752365859262
 21
6.96252130799641
 31
0.0
  0
LINE
  5
3E1
102
{ACAD_REACTORS
330
467
330
468
102
}
330
71
100
AcDbEntity
  8
0
  6
Continuous
 62
     2
100
AcDbLine
 10
-27.28752365859262
 20
6.96252130799641
 30
0.0
 11
-27.28752365859262
 21
10.01633083180761
 31
0.0
  0
LINE
  5
3E2
102
{ACAD_REACTORS
330
467
330
468
102
}
330
71
100
AcDbEntity
  8
0
  6
Continuous
 62
     2
100
AcDbLine
 10
-27.28752365859262
 20
10.01633083180761
 30
0.0
 11
-28.48031636075922
 21
10.01633083180761
 31
0.0
  0
LINE
  5
3E3
102
{ACAD_REACTORS
330
467
330
468
102
}
330
71
100
AcDbEntity
  8
0
  6
Continuous
 62
     2
100
AcDbLine
 10
-28.48031636075922
 20
8.70755532160243
 30
0.0
 11
-29.72082077101322
 21
10.01633083180761
 31
0.0
  0
LINE
  5
3E4
102
{ACAD_REACTORS
330
467
330
468
102
}
330
71
100
AcDbEntity
  8
0
  6
Continuous
 62
     2
100
AcDbLine
 10
-30.91361347317974
 20
6.96252130799641
 30
0.0
 11
-29.72082077101322
 21
6.96252130799641
 31
0.0
  0
LINE
  5
3E5
102
{ACAD_REACTORS
330
469
330
46A
102
}
330
71
100
AcDbEntity
  8
0
  6
Continuous
 62
     2
100
AcDbLine
 10
-32.39282735475234
 20
6.6571403556332
 30
0.0
 11
-32.39282735475234
 21
5.87187504950961
 31
0.0
  0
LINE
  5
3E6
102
{ACAD_REACTORS
330
469
330
46A
102
}
330
71
100
AcDbEntity
  8
0
  6
Continuous
 62
     2
100
AcDbLine
 10
-31.58172831727774
 20
5.87187504950961
 30
0.0
 11
-31.58172831727774
 21
3.60333083182212
 31
0.0
  0
LINE
  5
3E7
102
{ACAD_REACTORS
330
469
330
46A
102
}
330
71
100
AcDbEntity
  8
0
  6
Continuous
 62
     2
100
AcDbLine
 10
-31.58172831727774
 20
3.60333083182212
 30
0.0
 11
-30.38893561511122
 21
3.60333083182212
 31
0.0
  0
LINE
  5
3E8
102
{ACAD_REACTORS
330
46B
330
46C
102
}
330
71
100
AcDbEntity
  8
0
  6
Continuous
 62
     2
100
AcDbLine
 10
-27.43940912169174
 20
3.60333083182212
 30
0.0
 11
-27.65088917516752
 21
4.14429137604
 31
0.0
  0
LINE
  5
3E9
102
{ACAD_REACTORS
330
46B
330
46C
102
}
330
71
100
AcDbEntity
  8
0
  6
Continuous
 62
     2
100
AcDbLine
 10
-27.59685775837812
 20
6.6571403556332
 30
0.0
 11
-26.19890471143782
 21
3.60333083182212
 31
0.0
  0
LINE
  5
3EA
102
{ACAD_REACTORS
330
46B
330
46C
102
}
330
71
100
AcDbEntity
  8
0
  6
Continuous
 62
     2
100
AcDbLine
 10
-28.83736216863082
 20
6.6571403556332
 30
0.0
 11
-27.59685775837812
 21
6.6571403556332
 31
0.0
  0
LINE
  5
3EB
102
{ACAD_REACTORS
330
46B
330
46C
102
}
330
71
100
AcDbEntity
  8
0
  6
Continuous
 62
     2
100
AcDbLine
 10
-30.23531521557013
 20
3.60333083182212
 30
0.0
 11
-28.99481080531714
 21
3.60333083182212
 31
0.0
  0
LINE
  5
3EC
102
{ACAD_REACTORS
330
46B
330
46C
102
}
330
71
100
AcDbEntity
  8
0
  6
Continuous
 62
     2
100
AcDbLine
 10
-28.51727520069633
 20
4.82485464134661
 30
0.0
 11
-27.91694472631383
 21
4.82485464134661
 31
0.0
  0
LINE
  5
3ED
102
{ACAD_REACTORS
330
46B
330
46C
102
}
330
71
100
AcDbEntity
  8
0
  6
Continuous
 62
     2
100
AcDbLine
 10
-27.91694472631383
 20
4.82485464134661
 30
0.0
 11
-28.21710996350393
 21
5.59266960733331
 31
0.0
  0
LINE
  5
3EE
102
{ACAD_REACTORS
330
46D
330
46E
102
}
330
71
100
AcDbEntity
  8
0
  6
Continuous
 62
     2
100
AcDbLine
 10
-25.80846070790582
 20
6.96252130799641
 30
0.0
 11
-27.04896511815872
 21
6.96252130799641
 31
0.0
  0
LINE
  5
3EF
102
{ACAD_REACTORS
330
46F
330
470
102
}
330
71
100
AcDbEntity
  8
0
  6
Continuous
 62
     2
100
AcDbLine
 10
-24.28645721994073
 20
6.96252130799641
 30
0.0
 11
-25.68918143768894
 21
6.96252130799641
 31
0.0
  0
LINE
  5
3F0
102
{ACAD_REACTORS
330
46F
330
470
102
}
330
71
100
AcDbEntity
  8
0
  6
Continuous
 62
     2
100
AcDbLine
 10
-24.28645721994073
 20
6.96252130799641
 30
0.0
 11
-23.58986628187503
 21
7.75025309329013
 31
0.0
  0
LINE
  5
3F1
102
{ACAD_REACTORS
330
46F
330
470
102
}
330
71
100
AcDbEntity
  8
0
  6
Continuous
 62
     2
100
AcDbLine
 10
-22.98869875998224
 20
10.01633083180761
 30
0.0
 11
-21.58597454223502
 21
10.01633083180761
 31
0.0
  0
LINE
  5
3F2
102
{ACAD_REACTORS
330
46F
330
470
102
}
330
71
100
AcDbEntity
  8
0
  6
Continuous
 62
     2
100
AcDbLine
 10
-25.59375802151612
 20
10.01633083180761
 30
0.0
 11
-24.29122839074864
 21
8.54338030177141
 31
0.0
  0
LINE
  5
3F3
102
{ACAD_REACTORS
330
46F
330
470
102
}
330
71
100
AcDbEntity
  8
0
  6
Continuous
 62
     2
100
AcDbLine
 10
-25.68918143768894
 20
6.96252130799641
 30
0.0
 11
-24.29122839074864
 21
8.54338030177141
 31
0.0
  0
LINE
  5
3F4
102
{ACAD_REACTORS
330
479
330
47A
102
}
330
71
100
AcDbEntity
  8
0
  6
Continuous
 62
     2
100
AcDbLine
 10
-23.82842482230902
 20
4.65035123998572
 30
0.0
 11
-23.82842482230902
 21
3.7778342331824
 31
0.0
  0
LINE
  5
3F5
102
{ACAD_REACTORS
330
479
330
47A
102
}
330
71
100
AcDbEntity
  8
0
  6
Continuous
 62
     2
100
AcDbLine
 10
-24.59808216527043
 20
5.87187504950961
 30
0.0
 11
-23.49444286570233
 21
5.87187504950961
 31
0.0
  0
LINE
  5
3F6
102
{ACAD_REACTORS
330
47B
330
47C
102
}
330
71
100
AcDbEntity
  8
0
  6
Continuous
 62
     2
100
AcDbLine
 10
-39.93112630156094
 20
4.65035123998621
 30
0.0
 11
-39.93112630156094
 21
3.777834233183
 31
0.0
  0
LINE
  5
3F7
102
{ACAD_REACTORS
330
47B
330
47C
102
}
330
71
100
AcDbEntity
  8
0
  6
Continuous
 62
     2
100
AcDbLine
 10
-39.93112630156094
 20
5.61011994746912
 30
0.0
 11
-39.93112630156094
 21
6.48263695427241
 31
0.0
  0
LINE
  5
3F8
330
71
100
AcDbEntity
  8
1
  6
Continuous
 62
     7
100
AcDbLine
 10
75.90624928342297
 20
4.80983083180581
 30
0.0
 11
-17.23855524332842
 21
4.80983083180581
 31
0.0
  0
LINE
  5
3F9
330
71
100
AcDbEntity
  8
1
  6
Continuous
 62
     6
100
AcDbLine
 10
-122.6385552433283
 20
-3.69016916819419
 30
0.0
 11
-167.5937507165783
 21
-3.69016916819419
 31
0.0
  0
LINE
  5
3FA
330
71
100
AcDbEntity
  8
1
  6
Continuous
 62
     7
100
AcDbLine
 10
66.98784100174416
 20
21.80983083180581
 30
0.0
 11
66.98784100174416
 21
13.30983083180581
 31
0.0
  0
LINE
  5
3FB
330
71
100
AcDbEntity
  8
1
  6
Continuous
 62
     7
100
AcDbLine
 10
40.48784100174456
 20
21.80983083180581
 30
0.0
 11
40.48784100174456
 21
13.30983083180581
 31
0.0
  0
LINE
  5
3FC
330
71
100
AcDbEntity
  8
1
  6
Continuous
 62
     7
100
AcDbLine
 10
-17.23855524332842
 20
13.30983083180581
 30
0.0
 11
-17.23855524332842
 21
21.80983083180581
 31
0.0
  0
LINE
  5
3FD
330
71
100
AcDbEntity
  8
1
  6
Continuous
 62
     7
100
AcDbLine
 10
-53.63855524332834
 20
13.30983083180581
 30
0.0
 11
-53.63855524332834
 21
21.80983083180581
 31
0.0
  0
LINE
  5
3FE
330
71
100
AcDbEntity
  8
1
  6
Continuous
 62
     6
100
AcDbLine
 10
-17.23855524332842
 20
13.30983083180581
 30
0.0
 11
75.90624928342336
 21
13.30983083180581
 31
0.0
  0
LINE
  5
3FF
330
71
100
AcDbEntity
  8
1
  6
Continuous
 62
     7
100
AcDbLine
 10
10.66144475667167
 20
4.80983083180573
 30
0.0
 11
10.66144475667167
 21
13.30983083180581
 31
0.0
  0
LINE
  5
400
330
71
100
AcDbEntity
  8
1
  6
PHANTOM
 62
     2
100
AcDbLine
 10
-38.15190035676574
 20
17.43483083180573
 30
0.0
 11
-43.65190035676574
 21
17.43483083180573
 31
0.0
  0
LINE
  5
401
330
71
100
AcDbEntity
  8
1
  6
PHANTOM
 62
     2
100
AcDbLine
 10
-40.90190035676574
 20
20.18483083180573
 30
0.0
 11
-40.90190035676574
 21
14.68483083180573
 31
0.0
  0
LINE
  5
402
330
71
100
AcDbEntity
  8
1
  6
DOT_CENTER
 62
     2
100
AcDbLine
 10
-49.65190035676574
 20
17.43483083180573
 30
0.0
 11
-44.15190035676574
 21
17.43483083180573
 31
0.0
  0
ARC
  5
403
102
{ACAD_REACTORS
330
47B
330
47C
102
}
330
71
100
AcDbEntity
  8
0
  6
Continuous
 62
     2
100
AcDbCircle
 10
-41.26705421867874
 20
1.81755464847151
 30
0.0
 40
4.852596863498068
100
AcDbArc
 50
74.02000874164739
 51
84.84185523037515
  0
ARC
  5
404
102
{ACAD_REACTORS
330
47B
330
47C
102
}
330
71
100
AcDbEntity
  8
0
  6
Continuous
 62
     2
100
AcDbCircle
 10
-40.69101360992502
 20
4.97331500435581
 30
0.0
 40
0.9059297849853251
100
AcDbArc
 50
71.55192388185306
 51
113.3722778881289
  0
ARC
  5
405
102
{ACAD_REACTORS
330
47B
330
47C
102
}
330
71
100
AcDbEntity
  8
0
  6
Continuous
 62
     2
100
AcDbCircle
 10
-40.84745364262705
 20
4.92516416438892
 30
0.0
 40
0.5115800601947976
100
AcDbArc
 50
208.521473257696
 51
246.6277221118281
  0
ARC
  5
406
102
{ACAD_REACTORS
330
47B
330
47C
102
}
330
71
100
AcDbEntity
  8
0
  6
Continuous
 62
     2
100
AcDbCircle
 10
-40.69101360992502
 20
5.28715618309892
 30
0.0
 40
0.9059297849849192
100
AcDbArc
 50
246.627722111871
 51
288.4480761181589
  0
ARC
  5
407
102
{ACAD_REACTORS
330
47B
330
47C
102
}
330
71
100
AcDbEntity
  8
0
  6
Continuous
 62
     2
100
AcDbCircle
 10
-41.10918134358582
 20
6.5407019591361
 30
0.0
 40
2.227384008972739
100
AcDbArc
 50
288.448076118133
 51
301.9309089499593
  0
ARC
  5
408
102
{ACAD_REACTORS
330
477
330
478
102
}
330
71
100
AcDbEntity
  8
0
  6
Continuous
 62
     2
100
AcDbCircle
 10
-46.33425507619262
 20
7.27320398805011
 30
0.0
 40
0.911848150144459
100
AcDbArc
 50
295.3740086781764
 51
64.62599132180748
  0
ARC
  5
409
102
{ACAD_REACTORS
330
477
330
478
102
}
330
71
100
AcDbEntity
  8
0
  6
Continuous
 62
     2
100
AcDbCircle
 10
-45.80821237810474
 20
8.98788087652471
 30
0.0
 40
0.3157169230760711
100
AcDbArc
 50
90.18896704254594
 51
180.0
  0
ARC
  5
40A
102
{ACAD_REACTORS
330
479
330
47A
102
}
330
71
100
AcDbEntity
  8
0
  6
Continuous
 62
     2
100
AcDbCircle
 10
-24.59808216527043
 20
4.91735204268352
 30
0.0
 40
0.9545230068260935
100
AcDbArc
 50
90.0
 51
109.337143219432
  0
ARC
  5
40B
102
{ACAD_REACTORS
330
479
330
47A
102
}
330
71
100
AcDbEntity
  8
0
  6
Continuous
 62
     2
100
AcDbCircle
 10
-24.36739490529274
 20
5.13023559372741
 30
0.0
 40
0.9410597353348955
100
AcDbArc
 50
151.4785267423625
 51
208.5214732576694
  0
ARC
  5
40C
102
{ACAD_REACTORS
330
479
330
47A
102
}
330
71
100
AcDbEntity
  8
0
  6
Continuous
 62
     2
100
AcDbCircle
 10
-24.58831213067103
 20
5.28715618309892
 30
0.0
 40
0.9059297849852772
100
AcDbArc
 50
246.6277221118187
 51
288.4480761180819
  0
ARC
  5
40D
102
{ACAD_REACTORS
330
479
330
47A
102
}
330
71
100
AcDbEntity
  8
0
  6
Continuous
 62
     2
100
AcDbCircle
 10
-25.00647986433293
 20
6.5407019591355
 30
0.0
 40
2.227384008972746
100
AcDbArc
 50
288.4480761181335
 51
301.9309089499396
  0
ARC
  5
40E
102
{ACAD_REACTORS
330
479
330
47A
102
}
330
71
100
AcDbEntity
  8
0
  6
Continuous
 62
     2
100
AcDbCircle
 10
-25.16435273942574
 20
8.44291653898381
 30
0.0
 40
4.852596863498825
100
AcDbArc
 50
275.1581447696364
 51
285.9799912583387
  0
ARC
  5
40F
102
{ACAD_REACTORS
330
479
330
47A
102
}
330
71
100
AcDbEntity
  8
0
  6
Continuous
 62
     2
100
AcDbCircle
 10
-24.87549664468992
 20
5.24302595576222
 30
0.0
 40
1.639695123940445
100
AcDbArc
 50
195.0618917771012
 51
275.1581447696765
  0
ARC
  5
410
102
{ACAD_REACTORS
330
471
330
472
102
}
330
71
100
AcDbEntity
  8
0
  6
Continuous
 62
     2
100
AcDbCircle
 10
-40.60370995638104
 20
8.96096519047393
 30
0.0
 40
1.055365641333708
100
AcDbArc
 50
270.0
 51
90.0
  0
ARC
  5
411
102
{ACAD_REACTORS
330
477
330
478
102
}
330
71
100
AcDbEntity
  8
0
  6
Continuous
 62
     2
100
AcDbCircle
 10
-48.38376106463645
 20
4.63160331045572
 30
0.0
 40
0.3157169230756764
100
AcDbArc
 50
180.0
 51
270.0
  0
ARC
  5
412
102
{ACAD_REACTORS
330
477
330
478
102
}
330
71
100
AcDbEntity
  8
0
  6
Continuous
 62
     2
100
AcDbCircle
 10
-46.90792780362682
 20
8.98805835317282
 30
0.0
 40
0.3157169230765859
100
AcDbArc
 50
0.0
 51
90.0
  0
ARC
  5
413
102
{ACAD_REACTORS
330
477
330
478
102
}
330
71
100
AcDbEntity
  8
0
  6
Continuous
 62
     2
100
AcDbCircle
 10
-46.90792780362682
 20
8.38403373411231
 30
0.0
 40
0.3157169230761203
100
AcDbArc
 50
295.1944106485397
 51
0.0
  0
ARC
  5
414
102
{ACAD_REACTORS
330
477
330
478
102
}
330
71
100
AcDbEntity
  8
0
  6
Continuous
 62
     2
100
AcDbCircle
 10
-46.90792780362682
 20
4.63160331045572
 30
0.0
 40
0.3157169230767067
100
AcDbArc
 50
270.0
 51
0.0
  0
ARC
  5
415
102
{ACAD_REACTORS
330
477
330
478
102
}
330
71
100
AcDbEntity
  8
0
  6
Continuous
 62
     2
100
AcDbCircle
 10
-48.97765574138293
 20
9.59208621640562
 30
0.0
 40
0.4242446153838006
100
AcDbArc
 50
90.0
 51
180.0
  0
ARC
  5
416
102
{ACAD_REACTORS
330
477
330
478
102
}
330
71
100
AcDbEntity
  8
0
  6
Continuous
 62
     2
100
AcDbCircle
 10
-43.50434365066613
 20
9.59208621640562
 30
0.0
 40
0.424244615383877
100
AcDbArc
 50
0.0
 51
90.0
  0
ARC
  5
417
102
{ACAD_REACTORS
330
477
330
478
102
}
330
71
100
AcDbEntity
  8
0
  6
Continuous
 62
     2
100
AcDbCircle
 10
-43.50434365066613
 20
4.02757544720541
 30
0.0
 40
0.4242446153832882
100
AcDbArc
 50
270.0
 51
0.0
  0
ARC
  5
418
102
{ACAD_REACTORS
330
475
330
476
102
}
330
71
100
AcDbEntity
  8
0
  6
Continuous
 62
     2
100
AcDbCircle
 10
-34.28595976357462
 20
8.48942606990173
 30
0.0
 40
0.7717997786796317
100
AcDbArc
 50
321.8795802028434
 51
38.12041979715989
  0
ARC
  5
419
102
{ACAD_REACTORS
330
475
330
476
102
}
330
71
100
AcDbEntity
  8
0
  6
Continuous
 62
     2
100
AcDbCircle
 10
-34.08621972722844
 20
8.3326948917813
 30
0.0
 40
0.5179085730134372
100
AcDbArc
 50
218.1204197971511
 51
321.8795802028566
  0
ARC
  5
41A
102
{ACAD_REACTORS
330
473
330
474
102
}
330
71
100
AcDbEntity
  8
0
  6
Continuous
 62
     2
100
AcDbCircle
 10
-37.76622731618863
 20
5.13023559372741
 30
0.0
 40
1.458034083652003
100
AcDbArc
 50
297.548148175701
 51
62.45185182429896
  0
ARC
  5
41B
102
{ACAD_REACTORS
330
473
330
474
102
}
330
71
100
AcDbEntity
  8
0
  6
Continuous
 62
     2
100
AcDbCircle
 10
-38.32810709985523
 20
5.13023559372741
 30
0.0
 40
1.45803408365149
100
AcDbArc
 50
117.5481481756624
 51
242.4518518243375
  0
ARC
  5
41C
102
{ACAD_REACTORS
330
473
330
474
102
}
330
71
100
AcDbEntity
  8
0
  6
Continuous
 62
     2
100
AcDbCircle
 10
-38.04716720802193
 20
4.59166058342461
 30
0.0
 40
2.065479772208568
100
AcDbArc
 50
62.45185182430637
 51
117.5481481756664
  0
ARC
  5
41D
102
{ACAD_REACTORS
330
473
330
474
102
}
330
71
100
AcDbEntity
  8
0
  6
Continuous
 62
     2
100
AcDbCircle
 10
-38.04716720802193
 20
5.66881060403071
 30
0.0
 40
2.065479772208509
100
AcDbArc
 50
242.4518518243402
 51
297.5481481756871
  0
ARC
  5
41E
102
{ACAD_REACTORS
330
475
330
476
102
}
330
71
100
AcDbEntity
  8
0
  6
Continuous
 62
     2
100
AcDbCircle
 10
-33.88647969088214
 20
8.48942606990173
 30
0.0
 40
0.7717997786796724
100
AcDbArc
 50
141.8795802028404
 51
218.1204197971562
  0
ARC
  5
41F
102
{ACAD_REACTORS
330
475
330
476
102
}
330
71
100
AcDbEntity
  8
0
  6
Continuous
 62
     2
100
AcDbCircle
 10
-34.08621972722844
 20
8.64615724802221
 30
0.0
 40
0.5179085730135266
100
AcDbArc
 50
38.12041979714334
 51
141.8795802028489
  0
ARC
  5
420
102
{ACAD_REACTORS
330
477
330
478
102
}
330
71
100
AcDbEntity
  8
0
  6
Continuous
 62
     2
100
AcDbCircle
 10
-48.97765574138293
 20
4.02757544720541
 30
0.0
 40
0.4242446153828112
100
AcDbArc
 50
180.0
 51
270.0
  0
ARC
  5
421
102
{ACAD_REACTORS
330
477
330
478
102
}
330
71
100
AcDbEntity
  8
0
  6
Continuous
 62
     2
100
AcDbCircle
 10
-46.90792780362682
 20
6.16237424198732
 30
0.0
 40
0.3157169230765859
100
AcDbArc
 50
0.0
 51
64.80558935146027
  0
ARC
  5
422
102
{ACAD_REACTORS
330
477
330
478
102
}
330
71
100
AcDbEntity
  8
0
  6
Continuous
 62
     2
100
AcDbCircle
 10
-46.38534335605183
 20
7.27320398805011
 30
0.0
 40
0.9118975235576177
100
AcDbArc
 50
115.1944106485286
 51
244.8055893514874
  0
ARC
  5
423
102
{ACAD_REACTORS
330
477
330
478
102
}
330
71
100
AcDbEntity
  8
0
  6
Continuous
 62
     2
100
AcDbCircle
 10
-48.38376106463645
 20
8.98805835317282
 30
0.0
 40
0.3157169230761951
100
AcDbArc
 50
90.0
 51
180.0
  0
ARC
  5
424
102
{ACAD_REACTORS
330
471
330
472
102
}
330
71
100
AcDbEntity
  8
0
  6
Continuous
 62
     2
100
AcDbCircle
 10
-41.04518248261942
 20
9.00036116169642
 30
0.0
 40
0.3528638246711182
100
AcDbArc
 50
270.0
 51
90.0
  0
ARC
  5
425
102
{ACAD_REACTORS
330
475
330
476
102
}
330
71
100
AcDbEntity
  8
0
  6
Continuous
 62
     2
100
AcDbCircle
 10
-34.30249173739364
 20
8.48942606990173
 30
0.0
 40
1.526904761905884
100
AcDbArc
 50
90.0
 51
270.0
  0
ARC
  5
426
102
{ACAD_REACTORS
330
479
330
47A
102
}
330
71
100
AcDbEntity
  8
0
  6
Continuous
 62
     2
100
AcDbCircle
 10
-24.87549664468992
 20
5.01744523169251
 30
0.0
 40
1.639695123940214
100
AcDbArc
 50
90.0
 51
164.9381082228949
  0
ARC
  5
427
102
{ACAD_REACTORS
330
479
330
47A
102
}
330
71
100
AcDbEntity
  8
0
  6
Continuous
 62
     2
100
AcDbCircle
 10
-25.29462448815153
 20
5.13023559372741
 30
0.0
 40
1.205656168392999
100
AcDbArc
 50
164.9381082229027
 51
195.061891777096
  0
ARC
  5
428
102
{ACAD_REACTORS
330
479
330
47A
102
}
330
71
100
AcDbEntity
  8
0
  6
Continuous
 62
     2
100
AcDbCircle
 10
-24.74475216337413
 20
4.92516416438892
 30
0.0
 40
0.5115800601960248
100
AcDbArc
 50
208.5214732576864
 51
246.6277221118453
  0
ARC
  5
429
102
{ACAD_REACTORS
330
479
330
47A
102
}
330
71
100
AcDbEntity
  8
0
  6
Continuous
 62
     2
100
AcDbCircle
 10
-24.74475216337413
 20
5.33530702306641
 30
0.0
 40
0.5115800601944154
100
AcDbArc
 50
109.3371432194857
 51
151.4785267424226
  0
ARC
  5
42A
102
{ACAD_REACTORS
330
477
330
478
102
}
330
71
100
AcDbEntity
  8
0
  6
Continuous
 62
     2
100
AcDbCircle
 10
-45.80821237810474
 20
5.58221098138662
 30
0.0
 40
0.315716923076792
100
AcDbArc
 50
180.0
 51
269.8110329574542
  0
ARC
  5
42B
102
{ACAD_REACTORS
330
477
330
478
102
}
330
71
100
AcDbEntity
  8
0
  6
Continuous
 62
     2
100
AcDbCircle
 10
-45.80259624279472
 20
7.28504592895561
 30
0.0
 40
2.018561131933266
100
AcDbArc
 50
269.8110329575858
 51
90.18896704241416
  0
ARC
  5
42C
102
{ACAD_REACTORS
330
477
330
478
102
}
330
71
100
AcDbEntity
  8
0
  6
Continuous
 62
     2
100
AcDbCircle
 10
-45.80821237810474
 20
8.38234558801793
 30
0.0
 40
0.315716923076792
100
AcDbArc
 50
180.0
 51
244.6259913216482
  0
ARC
  5
42D
102
{ACAD_REACTORS
330
477
330
478
102
}
330
71
100
AcDbEntity
  8
0
  6
Continuous
 62
     2
100
AcDbCircle
 10
-45.80821237810474
 20
6.1640623880817
 30
0.0
 40
0.3157169230765328
100
AcDbArc
 50
115.3740086783519
 51
180.0
  0
ARC
  5
42E
102
{ACAD_REACTORS
330
47B
330
47C
102
}
330
71
100
AcDbEntity
  8
0
  6
Continuous
 62
     2
100
AcDbCircle
 10
-40.97819812394283
 20
5.01744523169251
 30
0.0
 40
1.639695123940506
100
AcDbArc
 50
84.84185523036261
 51
164.9381082228864
  0
ARC
  5
42F
102
{ACAD_REACTORS
330
47B
330
47C
102
}
330
71
100
AcDbEntity
  8
0
  6
Continuous
 62
     2
100
AcDbCircle
 10
-41.39732596740564
 20
5.13023559372741
 30
0.0
 40
1.205656168390937
100
AcDbArc
 50
164.9381082228764
 51
195.0618917770949
  0
ARC
  5
430
102
{ACAD_REACTORS
330
47B
330
47C
102
}
330
71
100
AcDbEntity
  8
0
  6
Continuous
 62
     2
100
AcDbCircle
 10
-40.97819812394283
 20
5.24302595576222
 30
0.0
 40
1.639695123939387
100
AcDbArc
 50
195.0618917770896
 51
275.1581447696393
  0
ARC
  5
431
102
{ACAD_REACTORS
330
47B
330
47C
102
}
330
71
100
AcDbEntity
  8
0
  6
Continuous
 62
     2
100
AcDbCircle
 10
-41.26705421867874
 20
8.44291653898381
 30
0.0
 40
4.852596863498138
100
AcDbArc
 50
275.1581447696248
 51
285.9799912583529
  0
ARC
  5
432
102
{ACAD_REACTORS
330
47B
330
47C
102
}
330
71
100
AcDbEntity
  8
0
  6
Continuous
 62
     2
100
AcDbCircle
 10
-40.47009638454674
 20
5.13023559372741
 30
0.0
 40
0.9410597353332483
100
AcDbArc
 50
151.4785267422667
 51
208.521473257706
  0
ARC
  5
433
102
{ACAD_REACTORS
330
47B
330
47C
102
}
330
71
100
AcDbEntity
  8
0
  6
Continuous
 62
     2
100
AcDbCircle
 10
-40.84745364262705
 20
5.33530702306641
 30
0.0
 40
0.5115800601948758
100
AcDbArc
 50
113.3722778881984
 51
151.4785267423041
  0
ARC
  5
434
102
{ACAD_REACTORS
330
47B
330
47C
102
}
330
71
100
AcDbEntity
  8
0
  6
Continuous
 62
     2
100
AcDbCircle
 10
-41.10918134358582
 20
3.71976922831922
 30
0.0
 40
2.227384008973477
100
AcDbArc
 50
58.06909105004071
 51
71.55192388186704
  0
ARC
  5
435
102
{ACAD_REACTORS
330
473
330
474
102
}
330
71
100
AcDbEntity
  8
0
  6
Continuous
 62
     2
100
AcDbCircle
 10
-38.04716720802193
 20
5.28696677184791
 30
0.0
 40
0.5179085730132943
100
AcDbArc
 50
38.12041979714752
 51
141.8795802028583
  0
ARC
  5
436
102
{ACAD_REACTORS
330
473
330
474
102
}
330
71
100
AcDbEntity
  8
0
  6
Continuous
 62
     2
100
AcDbCircle
 10
-37.84742717167583
 20
5.13023559372741
 30
0.0
 40
0.7717997786794577
100
AcDbArc
 50
141.879580202836
 51
218.120419797169
  0
ARC
  5
437
102
{ACAD_REACTORS
330
473
330
474
102
}
330
71
100
AcDbEntity
  8
0
  6
Continuous
 62
     2
100
AcDbCircle
 10
-38.04716720802193
 20
4.97350441560741
 30
0.0
 40
0.5179085730137298
100
AcDbArc
 50
218.1204197971936
 51
321.8795802028005
  0
ARC
  5
438
102
{ACAD_REACTORS
330
473
330
474
102
}
330
71
100
AcDbEntity
  8
0
  6
Continuous
 62
     2
100
AcDbCircle
 10
-38.24690724436834
 20
5.13023559372741
 30
0.0
 40
0.7717997786796835
100
AcDbArc
 50
321.8795802028411
 51
38.12041979715394
  0
CIRCLE
  5
439
330
71
100
AcDbEntity
  8
1
  6
Continuous
 62
     2
100
AcDbCircle
 10
-40.90190035676574
 20
17.43483083180573
 30
0.0
 40
2.5
  0
CIRCLE
  5
43A
330
71
100
AcDbEntity
  8
1
  6
Continuous
 62
     2
100
AcDbCircle
 10
-40.90190035676574
 20
17.43483083180573
 30
0.0
 40
1.249999999999922
  0
CIRCLE
  5
43B
102
{ACAD_REACTORS
330
477
330
478
102
}
330
71
100
AcDbEntity
  8
0
  6
Continuous
 62
     2
100
AcDbCircle
 10
-46.35807009086543
 20
7.27320398805011
 30
0.0
 40
0.4709789327785145
  0
MTEXT
  5
43C
330
71
100
AcDbEntity
  8
1
 62
     3
100
AcDbMText
 10
-211.0886829305065
 20
183.1011389871046
 30
0.0
 40
1.8
 41
0.0
 71
     7
 72
     1
  3
Weitergabe sowie Vervielf\U+00e4ltigung dieses Dokuments, Verwertung und \PMitteilung seines Inhalts sind verboten, soweit nicht ausdr\U+00fccklich gestattet. \PZuwiderhandlungen verpflichten zu Schadenersatz. Alle Rechte f\U+00fcr den Fall\Pder Pat
  1
ent-, Gebrauchsmuster- oder Designeintragung vorbehalten.
  7
CONVERTER_11
 73
     1
 44
0.99639855942377
  0
MTEXT
  5
43D
330
71
100
AcDbEntity
  8
1
 62
     3
100
AcDbMText
 10
-28.23557309171844
 20
183.1011389871046
 30
0.0
 40
1.8
 41
0.0
 71
     7
 72
     1
  3
Transfer or duplication of this document as well as the utilisation or\Pcommunication of its content are not permitted unless express consent\Pis granted. Violations give rise to claims for damages. All rights reserved\Pin case of patent, utility mo
  1
del or design patent registrations.
  7
CONVERTER_11
 73
     1
 44
0.99639855942377
  0
TEXT
  5
43E
330
71
100
AcDbEntity
  8
1
 62
     2
100
AcDbText
 10
-34.43855524332852
 20
-2.4491863831858
 30
0.0
 40
1.8
  1
of
 41
0.9
  7
CONVERTER_11
100
AcDbText
  0
TEXT
  5
43F
330
71
100
AcDbEntity
  8
1
 62
     2
100
AcDbText
 10
-52.63855524332834
 20
-2.44918638318586
 30
0.0
 40
1.8
  1
page
 41
0.9
  7
CONVERTER_11
100
AcDbText
  0
TEXT
  5
440
330
71
100
AcDbEntity
  8
1
 62
     2
100
AcDbText
 10
-43.99229027298634
 20
-2.4894178219962
 30
0.0
 40
1.8
  1
1
 41
0.9
  7
CONVERTER_11
100
AcDbText
  0
TEXT
  5
441
330
71
100
AcDbEntity
  8
1
 62
     2
100
AcDbText
 10
-29.20324643351484
 20
-2.4401691681943
 30
0.0
 40
1.8
  1
1
 41
0.9
  7
CONVERTER_11
100
AcDbText
  0
MTEXT
  5
443
330
71
100
AcDbEntity
  8
1
 62
     7
100
AcDbMText
 10
29.33384702004716
 20
-0.44016916819396
 30
0.0
 40
3.0
 41
0.0
 71
     5
 72
     1
  1
URKN-A
  7
CONVERTER_12
 73
     1
 44
1.20048019207683
  0
MTEXT
  5
444
330
71
100
AcDbEntity
  8
1
 62
     2
100
AcDbMText
 10
-16.23855524332842
 20
3.80983083180581
 30
0.0
 40
1.8
 41
0.0
 71
     1
 72
     1
  1
description
  7
CONVERTER_11
 73
     1
 44
1.20048019207683
  0
MTEXT
  5
445
330
71
100
AcDbEntity
  8
1
 62
     3
100
AcDbMText
 10
-27.43855524332844
 20
17.43483083180581
 30
0.0
 40
2.5
 41
0.0
 71
     5
 72
     1
  1
DIN A4
  7
CONVERTER_11
 73
     1
 44
1.20048019207683
  0
MTEXT
  5
446
330
71
100
AcDbEntity
  8
1
 62
     7
100
AcDbMText
 10
-213.5937507165774
 20
18.80983083180581
 30
0.0
 40
3.5
 41
0.0
 71
     5
 72
     1
  1
D
  7
CONVERTER_11
 73
     1
 44
1.20048019207683
  0
MTEXT
  5
447
330
71
100
AcDbEntity
  8
1
 62
     7
100
AcDbMText
 10
-213.5937507165774
 20
71.30983083180581
 30
0.0
 40
3.5
 41
0.0
 71
     5
 72
     1
  1
C
  7
CONVERTER_11
 73
     1
 44
1.20048019207683
  0
MTEXT
  5
448
330
71
100
AcDbEntity
  8
1
 62
     7
100
AcDbMText
 10
-213.5937507165774
 20
121.3098308318058
 30
0.0
 40
3.5
 41
0.0
 71
     5
 72
     1
  1
B
  7
CONVERTER_11
 73
     1
 44
1.20048019207683
  0
MTEXT
  5
449
330
71
100
AcDbEntity
  8
1
 62
     7
100
AcDbMText
 10
-213.5937507165774
 20
173.8098308318058
 30
0.0
 40
3.5
 41
0.0
 71
     5
 72
     1
  1
A
  7
CONVERTER_11
 73
     1
 44
1.20048019207683
  0
MTEXT
  5
44A
330
71
100
AcDbEntity
  8
1
 62
     7
100
AcDbMText
 10
56.65624928342086
 20
-6.1901691681943
 30
0.0
 40
3.5
 41
0.0
 71
     5
 72
     1
  1
6
  7
CONVERTER_11
 73
     1
 44
1.20048019207683
  0
MTEXT
  5
44B
330
71
100
AcDbEntity
  8
1
 62
     7
100
AcDbMText
 10
7.40624928342166
 20
-6.1901691681943
 30
0.0
 40
3.5
 41
0.0
 71
     5
 72
     1
  1
5
  7
CONVERTER_11
 73
     1
 44
1.20048019207683
  0
MTEXT
  5
44C
330
71
100
AcDbEntity
  8
1
 62
     7
100
AcDbMText
 10
-42.59375071657843
 20
-6.1901691681943
 30
0.0
 40
3.5
 41
0.0
 71
     5
 72
     1
  1
4
  7
CONVERTER_11
 73
     1
 44
1.20048019207683
  0
MTEXT
  5
44D
330
71
100
AcDbEntity
  8
1
 62
     7
100
AcDbMText
 10
-92.59375071657831
 20
-6.1901691681943
 30
0.0
 40
3.5
 41
0.0
 71
     5
 72
     1
  1
3
  7
CONVERTER_11
 73
     1
 44
1.20048019207683
  0
MTEXT
  5
44E
330
71
100
AcDbEntity
  8
1
 62
     7
100
AcDbMText
 10
-142.5937507165783
 20
-6.1901691681943
 30
0.0
 40
3.5
 41
0.0
 71
     5
 72
     1
  1
2
  7
CONVERTER_11
 73
     1
 44
1.20048019207683
  0
MTEXT
  5
44F
330
71
100
AcDbEntity
  8
1
 62
     7
100
AcDbMText
 10
-191.8437507165779
 20
-6.1901691681943
 30
0.0
 40
3.5
 41
0.0
 71
     5
 72
     1
  1
1
  7
CONVERTER_11
 73
     1
 44
1.20048019207683
  0
MTEXT
  5
450
330
71
100
AcDbEntity
  8
1
 62
     7
100
AcDbMText
 10
78.40624928342066
 20
18.80983083180581
 30
0.0
 40
3.5
 41
0.0
 71
     5
 72
     1
  1
D
  7
CONVERTER_11
 73
     1
 44
1.20048019207683
  0
MTEXT
  5
451
330
71
100
AcDbEntity
  8
1
 62
     7
100
AcDbMText
 10
78.40624928342066
 20
121.3098308318077
 30
0.0
 40
3.5
 41
0.0
 71
     5
 72
     1
  1
B
  7
CONVERTER_11
 73
     1
 44
1.20048019207683
  0
MTEXT
  5
452
330
71
100
AcDbEntity
  8
1
 62
     7
100
AcDbMText
 10
78.40624928342066
 20
173.8098308318058
 30
0.0
 40
3.5
 41
0.0
 71
     5
 72
     1
  1
A
  7
CONVERTER_11
 73
     1
 44
1.20048019207683
  0
MTEXT
  5
453
330
71
100
AcDbEntity
  8
1
 62
     7
100
AcDbMText
 10
78.40624928342066
 20
71.30983083180772
 30
0.0
 40
3.5
 41
0.0
 71
     5
 72
     1
  1
C
  7
CONVERTER_11
 73
     1
 44
1.20048019207683
  0
MTEXT
  5
454
330
71
100
AcDbEntity
  8
1
 62
     2
100
AcDbMText
 10
-88.07656996837585
 20
9.05983083180573
 30
0.0
 40
2.0
 41
0.0
 71
     5
 72
     1
  1
General Information\P- Simplified representation\P- Document excluded from change process\P- Linear dimensions [mm]
  7
CONVERTER_11
 73
     1
 44
1.20048019207683
  0
TEXT
  5
455
330
71
100
AcDbEntity
  8
1
 62
     7
100
AcDbText
 10
-15.73855524332862
 20
6.10983083180571
 30
0.0
 40
2.5
  1
0701008
 41
0.81
  7
CONVERTER_12
100
AcDbText
  0
MTEXT
  5
456
330
71
100
AcDbEntity
  8
1
 62
     2
100
AcDbMText
 10
-16.13855524332834
 20
12.30983083180581
 30
0.0
 40
1.8
 41
0.0
 71
     1
 72
     1
  1
ident.-No.
  7
CONVERTER_11
 73
     1
 44
1.20048019207683
  0
MTEXT
  5
457
330
71
100
AcDbEntity
  8
1
 62
     2
100
AcDbMText
 10
68.08784100174438
 20
20.80983083180581
 30
0.0
 40
1.8
 41
0.0
 71
     1
 72
     1
  1
scale
  7
CONVERTER_11
 73
     1
 44
1.20048019207683
  0
MTEXT
  5
459
330
71
100
AcDbEntity
  8
1
 62
     3
100
AcDbMText
 10
71.44704514258397
 20
14.60983083180591
 30
0.0
 40
2.5
 41
0.0
 71
     8
 72
     1
  1
1:1
  7
CONVERTER_13
 73
     1
 44
1.32052821128451
  0
TEXT
  5
45A
330
71
100
AcDbEntity
  8
1
 62
     7
100
AcDbText
 10
-16.13855524332834
 20
14.60983083180571
 30
0.0
 40
2.5
  1
00447656
 41
0.81
  7
CONVERTER_12
100
AcDbText
  0
MTEXT
  5
45C
330
71
100
AcDbEntity
  8
1
 62
     2
100
AcDbMText
 10
-16.13855524332834
 20
20.80983083180581
 30
0.0
 40
1.8
 41
0.0
 71
     1
 72
     1
  1
document-No. / RI
  7
CONVERTER_14
 73
     1
 44
1.32052821128451
  0
TEXT
  5
45D
330
71
100
AcDbEntity
  8
1
 62
     3
100
AcDbText
 10
11.66144475667167
 20
6.10983083180571
 30
0.0
 40
2.5
  1
TECDOC 2D_Productdrawing
 41
0.81
  7
CONVERTER_12
100
AcDbText
  0
MTEXT
  5
45E
330
71
100
AcDbEntity
  8
1
 62
     2
100
AcDbMText
 10
11.66144475667167
 20
12.30983083180573
 30
0.0
 40
1.8
 41
0.0
 71
     1
 72
     1
  1
document-type
  7
CONVERTER_11
 73
     1
 44
1.20048019207683
  0
MTEXT
  5
45F
330
71
100
AcDbEntity
  8
1
 62
     2
100
AcDbMText
 10
41.48784100174456
 20
20.80983083180573
 30
0.0
 40
1.8
 41
0.0
 71
     1
 72
     1
  1
date
  7
CONVERTER_11
 73
     1
 44
1.32052821128451
  0
TEXT
  5
460
330
71
100
AcDbEntity
  8
1
 62
     3
100
AcDbText
 10
41.48784100174456
 20
14.60983083180571
 30
0.0
 40
2.5
  1
20.02.2018
 41
0.81
  7
CONVERTER_12
100
AcDbText
  0
TEXT
  5
461
330
71
100
AcDbEntity
  8
1
 62
     7
100
AcDbText
 10
3.89135697572746
 20
14.60983083180571
 30
0.0
 40
2.5
  1
00
 41
0.81
  7
CONVERTER_12
100
AcDbText
  0
TEXT
  5
462
330
71
100
AcDbEntity
  8
1
 62
     7
100
AcDbText
 10
1.73499247868546
 20
14.60983083180571
 30
0.0
 40
2.5
  1
/
 41
0.9
  7
CONVERTER_11
100
AcDbText
  0
HATCH
  5
463
330
71
100
AcDbEntity
  8
1
  6
Continuous
 62
     2
100
AcDbHatch
 10
0.0
 20
0.0
 30
0.0
210
0.0
220
0.0
230
1.0
  2
_USER
 70
     0
 71
     1
 91
        1
 92
        1
 93
       12
 72
     1
 10
-35.97105453036724
 20
6.962521307996411
 11
-37.16384723253364
 21
6.962521307996411
 72
     1
 10
-37.16384723253364
 20
6.962521307996411
 11
-37.16384723253364
 21
8.096793416840228
 72
     1
 10
-37.16384723253364
 20
8.096793416840228
 11
-38.21350481044112
 21
8.096793416840228
 72
     1
 10
-38.21350481044112
 20
8.096793416840228
 11
-38.21350481044112
 21
6.962521307996411
 72
     1
 10
-38.21350481044112
 20
6.962521307996411
 11
-39.40629751260772
 21
6.962521307996411
 72
     1
 10
-39.40629751260772
 20
6.962521307996411
 11
-39.40629751260772
 21
10.01633083180761
 72
     1
 10
-39.40629751260772
 20
10.01633083180761
 11
-38.21350481044112
 21
10.01633083180761
 72
     1
 10
-38.21350481044112
 20
10.01633083180761
 11
-38.21350481044112
 21
8.947497498473012
 72
     1
 10
-38.21350481044112
 20
8.947497498473012
 11
-37.16384723253364
 21
8.947497498473012
 72
     1
 10
-37.16384723253364
 20
8.947497498473012
 11
-37.16384723253364
 21
10.01633083180761
 72
     1
 10
-37.16384723253364
 20
10.01633083180761
 11
-35.97105453036724
 21
10.01633083180761
 72
     1
 10
-35.97105453036724
 20
10.01633083180761
 11
-35.97105453036724
 21
6.962521307996411
 97
       12
330
3D0
330
3D1
330
3BB
330
3BA
330
3B9
330
3CD
330
3B8
330
3CE
330
3CF
330
3B7
330
3B6
330
3B5
 75
     1
 76
     0
 52
45.0
 41
0.1
 77
     0
 78
     1
 53
45.0
 43
0.0
 44
0.0
 45
-0.0707106781186548
 46
0.0707106781186548
 79
     0
 98
        1
 10
0.0
 20
0.0
  0
HATCH
  5
464
330
71
100
AcDbEntity
  8
1
  6
Continuous
 62
     2
100
AcDbHatch
 10
0.0
 20
0.0
 30
0.0
210
0.0
220
0.0
230
1.0
  2
_USER
 70
     0
 71
     1
 91
        1
 92
        1
 93
       12
 72
     1
 10
-35.97105453036724
 20
6.962521307996411
 11
-37.16384723253364
 21
6.962521307996411
 72
     1
 10
-37.16384723253364
 20
6.962521307996411
 11
-37.16384723253364
 21
8.096793416840228
 72
     1
 10
-37.16384723253364
 20
8.096793416840228
 11
-38.21350481044112
 21
8.096793416840228
 72
     1
 10
-38.21350481044112
 20
8.096793416840228
 11
-38.21350481044112
 21
6.962521307996411
 72
     1
 10
-38.21350481044112
 20
6.962521307996411
 11
-39.40629751260772
 21
6.962521307996411
 72
     1
 10
-39.40629751260772
 20
6.962521307996411
 11
-39.40629751260772
 21
10.01633083180761
 72
     1
 10
-39.40629751260772
 20
10.01633083180761
 11
-38.21350481044112
 21
10.01633083180761
 72
     1
 10
-38.21350481044112
 20
10.01633083180761
 11
-38.21350481044112
 21
8.947497498473012
 72
     1
 10
-38.21350481044112
 20
8.947497498473012
 11
-37.16384723253364
 21
8.947497498473012
 72
     1
 10
-37.16384723253364
 20
8.947497498473012
 11
-37.16384723253364
 21
10.01633083180761
 72
     1
 10
-37.16384723253364
 20
10.01633083180761
 11
-35.97105453036724
 21
10.01633083180761
 72
     1
 10
-35.97105453036724
 20
10.01633083180761
 11
-35.97105453036724
 21
6.962521307996411
 97
       12
330
3D0
330
3D1
330
3BB
330
3BA
330
3B9
330
3CD
330
3B8
330
3CE
330
3CF
330
3B7
330
3B6
330
3B5
 75
     1
 76
     0
 52
45.0
 41
0.1
 77
     0
 78
     1
 53
45.0
 43
0.0
 44
0.0
 45
-0.0707106781186548
 46
0.0707106781186548
 79
     0
 98
        1
 10
0.0
 20
0.0
  0
HATCH
  5
465
330
71
100
AcDbEntity
  8
1
  6
Continuous
 62
     2
100
AcDbHatch
 10
0.0
 20
0.0
 30
0.0
210
0.0
220
0.0
230
1.0
  2
_USER
 70
     0
 71
     1
 91
        1
 92
        1
 93
       10
 72
     1
 10
-33.72875518117894
 20
5.348364845428108
 11
-34.96925959143184
 21
6.657140355633203
 72
     1
 10
-34.96925959143184
 20
6.657140355633203
 11
-36.16205229359943
 21
6.657140355633203
 72
     1
 10
-36.16205229359943
 20
6.657140355633203
 11
-36.16205229359943
 21
3.60333083182212
 72
     1
 10
-36.16205229359943
 20
3.60333083182212
 11
-34.96925959143184
 21
3.60333083182212
 72
     1
 10
-34.96925959143184
 20
3.60333083182212
 11
-34.96925959143184
 21
4.912106342026704
 72
     1
 10
-34.96925959143184
 20
4.912106342026704
 11
-33.72875518117894
 21
3.60333083182212
 72
     1
 10
-33.72875518117894
 20
3.60333083182212
 11
-32.53596247901254
 21
3.60333083182212
 72
     1
 10
-32.53596247901254
 20
3.60333083182212
 11
-32.53596247901254
 21
6.657140355633203
 72
     1
 10
-32.53596247901254
 20
6.657140355633203
 11
-33.72875518117894
 21
6.657140355633203
 72
     1
 10
-33.72875518117894
 20
6.657140355633203
 11
-33.72875518117894
 21
5.348364845428108
 97
       10
330
3DE
330
3AE
330
3AD
330
3B0
330
3D9
330
3DA
330
3AF
330
3DB
330
3DC
330
3DD
 75
     1
 76
     0
 52
45.0
 41
0.1
 77
     0
 78
     1
 53
45.0
 43
0.0
 44
0.0
 45
-0.0707106781186548
 46
0.0707106781186548
 79
     0
 98
        1
 10
0.0
 20
0.0
  0
HATCH
  5
466
330
71
100
AcDbEntity
  8
1
  6
Continuous
 62
     2
100
AcDbHatch
 10
0.0
 20
0.0
 30
0.0
210
0.0
220
0.0
230
1.0
  2
_USER
 70
     0
 71
     1
 91
        1
 92
        1
 93
       10
 72
     1
 10
-33.72875518117894
 20
5.348364845428108
 11
-34.96925959143184
 21
6.657140355633203
 72
     1
 10
-34.96925959143184
 20
6.657140355633203
 11
-36.16205229359943
 21
6.657140355633203
 72
     1
 10
-36.16205229359943
 20
6.657140355633203
 11
-36.16205229359943
 21
3.60333083182212
 72
     1
 10
-36.16205229359943
 20
3.60333083182212
 11
-34.96925959143184
 21
3.60333083182212
 72
     1
 10
-34.96925959143184
 20
3.60333083182212
 11
-34.96925959143184
 21
4.912106342026704
 72
     1
 10
-34.96925959143184
 20
4.912106342026704
 11
-33.72875518117894
 21
3.60333083182212
 72
     1
 10
-33.72875518117894
 20
3.60333083182212
 11
-32.53596247901254
 21
3.60333083182212
 72
     1
 10
-32.53596247901254
 20
3.60333083182212
 11
-32.53596247901254
 21
6.657140355633203
 72
     1
 10
-32.53596247901254
 20
6.657140355633203
 11
-33.72875518117894
 21
6.657140355633203
 72
     1
 10
-33.72875518117894
 20
6.657140355633203
 11
-33.72875518117894
 21
5.348364845428108
 97
       10
330
3DE
330
3AE
330
3AD
330
3B0
330
3D9
330
3DA
330
3AF
330
3DB
330
3DC
330
3DD
 75
     1
 76
     0
 52
45.0
 41
0.1
 77
     0
 78
     1
 53
45.0
 43
0.0
 44
0.0
 45
-0.0707106781186548
 46
0.0707106781186548
 79
     0
 98
        1
 10
0.0
 20
0.0
  0
HATCH
  5
467
330
71
100
AcDbEntity
  8
1
  6
Continuous
 62
     2
100
AcDbHatch
 10
0.0
 20
0.0
 30
0.0
210
0.0
220
0.0
230
1.0
  2
_USER
 70
     0
 71
     1
 91
        1
 92
        1
 93
       10
 72
     1
 10
-28.48031636075922
 20
8.707555321602428
 11
-29.72082077101322
 21
10.01633083180761
 72
     1
 10
-29.72082077101322
 20
10.01633083180761
 11
-30.91361347317974
 21
10.01633083180761
 72
     1
 10
-30.91361347317974
 20
10.01633083180761
 11
-30.91361347317974
 21
6.962521307996411
 72
     1
 10
-30.91361347317974
 20
6.962521307996411
 11
-29.72082077101322
 21
6.962521307996411
 72
     1
 10
-29.72082077101322
 20
6.962521307996411
 11
-29.72082077101322
 21
8.271296818201108
 72
     1
 10
-29.72082077101322
 20
8.271296818201108
 11
-28.48031636075922
 21
6.962521307996411
 72
     1
 10
-28.48031636075922
 20
6.962521307996411
 11
-27.28752365859262
 21
6.962521307996411
 72
     1
 10
-27.28752365859262
 20
6.962521307996411
 11
-27.28752365859262
 21
10.01633083180761
 72
     1
 10
-27.28752365859262
 20
10.01633083180761
 11
-28.48031636075922
 21
10.01633083180761
 72
     1
 10
-28.48031636075922
 20
10.01633083180761
 11
-28.48031636075922
 21
8.707555321602428
 97
       10
330
3E3
330
3AB
330
3AA
330
3E4
330
3A9
330
3DF
330
3E0
330
3E1
330
3E2
330
3AC
 75
     1
 76
     0
 52
45.0
 41
0.1
 77
     0
 78
     1
 53
45.0
 43
0.0
 44
0.0
 45
-0.0707106781186548
 46
0.0707106781186548
 79
     0
 98
        1
 10
0.0
 20
0.0
  0
HATCH
  5
468
330
71
100
AcDbEntity
  8
1
  6
Continuous
 62
     2
100
AcDbHatch
 10
0.0
 20
0.0
 30
0.0
210
0.0
220
0.0
230
1.0
  2
_USER
 70
     0
 71
     1
 91
        1
 92
        1
 93
       10
 72
     1
 10
-28.48031636075922
 20
8.707555321602428
 11
-29.72082077101322
 21
10.01633083180761
 72
     1
 10
-29.72082077101322
 20
10.01633083180761
 11
-30.91361347317974
 21
10.01633083180761
 72
     1
 10
-30.91361347317974
 20
10.01633083180761
 11
-30.91361347317974
 21
6.962521307996411
 72
     1
 10
-30.91361347317974
 20
6.962521307996411
 11
-29.72082077101322
 21
6.962521307996411
 72
     1
 10
-29.72082077101322
 20
6.962521307996411
 11
-29.72082077101322
 21
8.271296818201108
 72
     1
 10
-29.72082077101322
 20
8.271296818201108
 11
-28.48031636075922
 21
6.962521307996411
 72
     1
 10
-28.48031636075922
 20
6.962521307996411
 11
-27.28752365859262
 21
6.962521307996411
 72
     1
 10
-27.28752365859262
 20
6.962521307996411
 11
-27.28752365859262
 21
10.01633083180761
 72
     1
 10
-27.28752365859262
 20
10.01633083180761
 11
-28.48031636075922
 21
10.01633083180761
 72
     1
 10
-28.48031636075922
 20
10.01633083180761
 11
-28.48031636075922
 21
8.707555321602428
 97
       10
330
3E3
330
3AB
330
3AA
330
3E4
330
3A9
330
3DF
330
3E0
330
3E1
330
3E2
330
3AC
 75
     1
 76
     0
 52
45.0
 41
0.1
 77
     0
 78
     1
 53
45.0
 43
0.0
 44
0.0
 45
-0.0707106781186548
 46
0.0707106781186548
 79
     0
 98
        1
 10
0.0
 20
0.0
  0
HATCH
  5
469
330
71
100
AcDbEntity
  8
1
  6
Continuous
 62
     2
100
AcDbHatch
 10
0.0
 20
0.0
 30
0.0
210
0.0
220
0.0
230
1.0
  2
_USER
 70
     0
 71
     1
 91
        1
 92
        1
 93
        8
 72
     1
 10
-29.57783657763872
 20
6.657140355633203
 11
-32.39282735475234
 21
6.657140355633203
 72
     1
 10
-32.39282735475234
 20
6.657140355633203
 11
-32.39282735475234
 21
5.871875049509612
 72
     1
 10
-32.39282735475234
 20
5.871875049509612
 11
-31.58172831727774
 21
5.871875049509612
 72
     1
 10
-31.58172831727774
 20
5.871875049509612
 11
-31.58172831727774
 21
3.60333083182212
 72
     1
 10
-31.58172831727774
 20
3.60333083182212
 11
-30.38893561511122
 21
3.60333083182212
 72
     1
 10
-30.38893561511122
 20
3.60333083182212
 11
-30.38893561511122
 21
5.871875049509612
 72
     1
 10
-30.38893561511122
 20
5.871875049509612
 11
-29.57783657763872
 21
5.871875049509612
 72
     1
 10
-29.57783657763872
 20
5.871875049509612
 11
-29.57783657763872
 21
6.657140355633203
 97
        8
330
3A5
330
3E5
330
3A4
330
3E6
330
3E7
330
3A8
330
3A7
330
3A6
 75
     1
 76
     0
 52
45.0
 41
0.1
 77
     0
 78
     1
 53
45.0
 43
0.0
 44
0.0
 45
-0.0707106781186548
 46
0.0707106781186548
 79
     0
 98
        1
 10
0.0
 20
0.0
  0
HATCH
  5
46A
330
71
100
AcDbEntity
  8
1
  6
Continuous
 62
     2
100
AcDbHatch
 10
0.0
 20
0.0
 30
0.0
210
0.0
220
0.0
230
1.0
  2
_USER
 70
     0
 71
     1
 91
        1
 92
        1
 93
        8
 72
     1
 10
-29.57783657763872
 20
6.657140355633203
 11
-32.39282735475234
 21
6.657140355633203
 72
     1
 10
-32.39282735475234
 20
6.657140355633203
 11
-32.39282735475234
 21
5.871875049509612
 72
     1
 10
-32.39282735475234
 20
5.871875049509612
 11
-31.58172831727774
 21
5.871875049509612
 72
     1
 10
-31.58172831727774
 20
5.871875049509612
 11
-31.58172831727774
 21
3.60333083182212
 72
     1
 10
-31.58172831727774
 20
3.60333083182212
 11
-30.38893561511122
 21
3.60333083182212
 72
     1
 10
-30.38893561511122
 20
3.60333083182212
 11
-30.38893561511122
 21
5.871875049509612
 72
     1
 10
-30.38893561511122
 20
5.871875049509612
 11
-29.57783657763872
 21
5.871875049509612
 72
     1
 10
-29.57783657763872
 20
5.871875049509612
 11
-29.57783657763872
 21
6.657140355633203
 97
        8
330
3A5
330
3E5
330
3A4
330
3E6
330
3E7
330
3A8
330
3A7
330
3A6
 75
     1
 76
     0
 52
45.0
 41
0.1
 77
     0
 78
     1
 53
45.0
 43
0.0
 44
0.0
 45
-0.0707106781186548
 46
0.0707106781186548
 79
     0
 98
        1
 10
0.0
 20
0.0
  0
HATCH
  5
46B
330
71
100
AcDbEntity
  8
1
  6
Continuous
 62
     2
100
AcDbHatch
 10
0.0
 20
0.0
 30
0.0
210
0.0
220
0.0
230
1.0
  2
_USER
 70
     0
 71
     1
 91
        2
 92
        1
 93
        8
 72
     1
 10
-27.43940912169174
 20
3.60333083182212
 11
-27.65088917516752
 21
4.144291376040002
 72
     1
 10
-27.65088917516752
 20
4.144291376040002
 11
-28.78333075184133
 21
4.144291376040002
 72
     1
 10
-28.78333075184133
 20
4.144291376040002
 11
-28.99481080531714
 21
3.60333083182212
 72
     1
 10
-28.99481080531714
 20
3.60333083182212
 11
-30.23531521557013
 21
3.60333083182212
 72
     1
 10
-30.23531521557013
 20
3.60333083182212
 11
-28.83736216863082
 21
6.657140355633203
 72
     1
 10
-28.83736216863082
 20
6.657140355633203
 11
-27.59685775837812
 21
6.657140355633203
 72
     1
 10
-27.59685775837812
 20
6.657140355633203
 11
-26.19890471143782
 21
3.60333083182212
 72
     1
 10
-26.19890471143782
 20
3.60333083182212
 11
-27.43940912169174
 21
3.60333083182212
 97
        8
330
3E9
330
3EA
330
3A1
330
3EB
330
3A0
330
3A3
330
3E8
330
3A2
 92
       16
 93
        3
 72
     1
 10
-28.51727520069633
 20
4.824854641346605
 11
-28.21710996350393
 21
5.592669607333306
 72
     1
 10
-28.21710996350393
 20
5.592669607333306
 11
-27.91694472631383
 21
4.824854641346605
 72
     1
 10
-27.91694472631383
 20
4.824854641346605
 11
-28.51727520069633
 21
4.824854641346605
 97
        3
330
39F
330
3ED
330
3EC
 75
     1
 76
     0
 52
45.0
 41
0.1
 77
     0
 78
     1
 53
45.0
 43
0.0
 44
0.0
 45
-0.0707106781186548
 46
0.0707106781186548
 79
     0
 98
        1
 10
0.0
 20
0.0
  0
HATCH
  5
46C
330
71
100
AcDbEntity
  8
1
  6
Continuous
 62
     2
100
AcDbHatch
 10
0.0
 20
0.0
 30
0.0
210
0.0
220
0.0
230
1.0
  2
_USER
 70
     0
 71
     1
 91
        2
 92
        1
 93
        8
 72
     1
 10
-27.43940912169174
 20
3.60333083182212
 11
-27.65088917516752
 21
4.144291376040002
 72
     1
 10
-27.65088917516752
 20
4.144291376040002
 11
-28.78333075184133
 21
4.144291376040002
 72
     1
 10
-28.78333075184133
 20
4.144291376040002
 11
-28.99481080531714
 21
3.60333083182212
 72
     1
 10
-28.99481080531714
 20
3.60333083182212
 11
-30.23531521557013
 21
3.60333083182212
 72
     1
 10
-30.23531521557013
 20
3.60333083182212
 11
-28.83736216863082
 21
6.657140355633203
 72
     1
 10
-28.83736216863082
 20
6.657140355633203
 11
-27.59685775837812
 21
6.657140355633203
 72
     1
 10
-27.59685775837812
 20
6.657140355633203
 11
-26.19890471143782
 21
3.60333083182212
 72
     1
 10
-26.19890471143782
 20
3.60333083182212
 11
-27.43940912169174
 21
3.60333083182212
 97
        8
330
3E9
330
3EA
330
3A1
330
3EB
330
3A0
330
3A3
330
3E8
330
3A2
 92
       16
 93
        3
 72
     1
 10
-28.51727520069633
 20
4.824854641346605
 11
-28.21710996350393
 21
5.592669607333306
 72
     1
 10
-28.21710996350393
 20
5.592669607333306
 11
-27.91694472631383
 21
4.824854641346605
 72
     1
 10
-27.91694472631383
 20
4.824854641346605
 11
-28.51727520069633
 21
4.824854641346605
 97
        3
330
39F
330
3ED
330
3EC
 75
     1
 76
     0
 52
45.0
 41
0.1
 77
     0
 78
     1
 53
45.0
 43
0.0
 44
0.0
 45
-0.0707106781186548
 46
0.0707106781186548
 79
     0
 98
        1
 10
0.0
 20
0.0
  0
HATCH
  5
46D
330
71
100
AcDbEntity
  8
1
  6
Continuous
 62
     2
100
AcDbHatch
 10
0.0
 20
0.0
 30
0.0
210
0.0
220
0.0
230
1.0
  2
_USER
 70
     0
 71
     1
 91
        1
 92
        1
 93
        4
 72
     1
 10
-25.80846070790582
 20
6.962521307996411
 11
-27.04896511815872
 21
6.962521307996411
 72
     1
 10
-27.04896511815872
 20
6.962521307996411
 11
-27.04896511815872
 21
10.01633083180761
 72
     1
 10
-27.04896511815872
 20
10.01633083180761
 11
-25.80846070790582
 21
10.01633083180761
 72
     1
 10
-25.80846070790582
 20
10.01633083180761
 11
-25.80846070790582
 21
6.962521307996411
 97
        4
330
39C
330
39E
330
3EE
330
39D
 75
     1
 76
     0
 52
45.0
 41
0.1
 77
     0
 78
     1
 53
45.0
 43
0.0
 44
0.0
 45
-0.0707106781186548
 46
0.0707106781186548
 79
     0
 98
        1
 10
0.0
 20
0.0
  0
HATCH
  5
46E
330
71
100
AcDbEntity
  8
1
  6
Continuous
 62
     2
100
AcDbHatch
 10
0.0
 20
0.0
 30
0.0
210
0.0
220
0.0
230
1.0
  2
_USER
 70
     0
 71
     1
 91
        1
 92
        1
 93
        4
 72
     1
 10
-25.80846070790582
 20
6.962521307996411
 11
-27.04896511815872
 21
6.962521307996411
 72
     1
 10
-27.04896511815872
 20
6.962521307996411
 11
-27.04896511815872
 21
10.01633083180761
 72
     1
 10
-27.04896511815872
 20
10.01633083180761
 11
-25.80846070790582
 21
10.01633083180761
 72
     1
 10
-25.80846070790582
 20
10.01633083180761
 11
-25.80846070790582
 21
6.962521307996411
 97
        4
330
39C
330
39E
330
3EE
330
39D
 75
     1
 76
     0
 52
45.0
 41
0.1
 77
     0
 78
     1
 53
45.0
 43
0.0
 44
0.0
 45
-0.0707106781186548
 46
0.0707106781186548
 79
     0
 98
        1
 10
0.0
 20
0.0
  0
HATCH
  5
46F
330
71
100
AcDbEntity
  8
1
  6
Continuous
 62
     2
100
AcDbHatch
 10
0.0
 20
0.0
 30
0.0
210
0.0
220
0.0
230
1.0
  2
_USER
 70
     0
 71
     1
 91
        1
 92
        1
 93
       12
 72
     1
 10
-21.58597454223502
 20
10.01633083180761
 11
-22.88850417300154
 21
8.543380301771407
 72
     1
 10
-22.88850417300154
 20
8.543380301771407
 11
-21.49055112606123
 21
6.962521307996411
 72
     1
 10
-21.49055112606123
 20
6.962521307996411
 11
-22.89327534380954
 21
6.962521307996411
 72
     1
 10
-22.89327534380954
 20
6.962521307996411
 11
-23.58986628187503
 21
7.750253093290127
 72
     1
 10
-23.58986628187503
 20
7.750253093290127
 11
-24.28645721994073
 21
6.962521307996411
 72
     1
 10
-24.28645721994073
 20
6.962521307996411
 11
-25.68918143768894
 21
6.962521307996411
 72
     1
 10
-25.68918143768894
 20
6.962521307996411
 11
-24.29122839074864
 21
8.543380301771407
 72
     1
 10
-24.29122839074864
 20
8.543380301771407
 11
-25.59375802151612
 21
10.01633083180761
 72
     1
 10
-25.59375802151612
 20
10.01633083180761
 11
-24.19103380376683
 21
10.01633083180761
 72
     1
 10
-24.19103380376683
 20
10.01633083180761
 11
-23.58986628187503
 21
9.336507510252119
 72
     1
 10
-23.58986628187503
 20
9.336507510252119
 11
-22.98869875998224
 21
10.01633083180761
 72
     1
 10
-22.98869875998224
 20
10.01633083180761
 11
-21.58597454223502
 21
10.01633083180761
 97
       12
330
397
330
396
330
395
330
3F2
330
3F3
330
3EF
330
3F0
330
39B
330
39A
330
399
330
398
330
3F1
 75
     1
 76
     0
 52
45.0
 41
0.1
 77
     0
 78
     1
 53
45.0
 43
0.0
 44
0.0
 45
-0.0707106781186548
 46
0.0707106781186548
 79
     0
 98
        1
 10
0.0
 20
0.0
  0
HATCH
  5
470
330
71
100
AcDbEntity
  8
1
  6
Continuous
 62
     2
100
AcDbHatch
 10
0.0
 20
0.0
 30
0.0
210
0.0
220
0.0
230
1.0
  2
_USER
 70
     0
 71
     1
 91
        1
 92
        1
 93
       12
 72
     1
 10
-21.58597454223502
 20
10.01633083180761
 11
-22.88850417300154
 21
8.543380301771407
 72
     1
 10
-22.88850417300154
 20
8.543380301771407
 11
-21.49055112606123
 21
6.962521307996411
 72
     1
 10
-21.49055112606123
 20
6.962521307996411
 11
-22.89327534380954
 21
6.962521307996411
 72
     1
 10
-22.89327534380954
 20
6.962521307996411
 11
-23.58986628187503
 21
7.750253093290127
 72
     1
 10
-23.58986628187503
 20
7.750253093290127
 11
-24.28645721994073
 21
6.962521307996411
 72
     1
 10
-24.28645721994073
 20
6.962521307996411
 11
-25.68918143768894
 21
6.962521307996411
 72
     1
 10
-25.68918143768894
 20
6.962521307996411
 11
-24.29122839074864
 21
8.543380301771407
 72
     1
 10
-24.29122839074864
 20
8.543380301771407
 11
-25.59375802151612
 21
10.01633083180761
 72
     1
 10
-25.59375802151612
 20
10.01633083180761
 11
-24.19103380376683
 21
10.01633083180761
 72
     1
 10
-24.19103380376683
 20
10.01633083180761
 11
-23.58986628187503
 21
9.336507510252119
 72
     1
 10
-23.58986628187503
 20
9.336507510252119
 11
-22.98869875998224
 21
10.01633083180761
 72
     1
 10
-22.98869875998224
 20
10.01633083180761
 11
-21.58597454223502
 21
10.01633083180761
 97
       12
330
397
330
396
330
395
330
3F2
330
3F3
330
3EF
330
3F0
330
39B
330
39A
330
399
330
398
330
3F1
 75
     1
 76
     0
 52
45.0
 41
0.1
 77
     0
 78
     1
 53
45.0
 43
0.0
 44
0.0
 45
-0.0707106781186548
 46
0.0707106781186548
 79
     0
 98
        1
 10
0.0
 20
0.0
  0
HATCH
  5
471
330
71
100
AcDbEntity
  8
1
  6
Continuous
 62
     2
100
AcDbHatch
 10
0.0
 20
0.0
 30
0.0
210
0.0
220
0.0
230
1.0
  2
_USER
 70
     0
 71
     1
 91
        2
 92
        1
 93
        6
 72
     1
 10
-40.60370995638104
 20
7.90559954914022
 11
-41.36247754416132
 21
7.90559954914022
 72
     1
 10
-41.36247754416132
 20
7.90559954914022
 11
-41.36247754416132
 21
6.962521307996411
 72
     1
 10
-41.36247754416132
 20
6.962521307996411
 11
-42.60298195441544
 21
6.962521307996411
 72
     1
 10
-42.60298195441544
 20
6.962521307996411
 11
-42.60298195441544
 21
10.01633083180761
 72
     1
 10
-42.60298195441544
 20
10.01633083180761
 11
-40.60370995638104
 21
10.01633083180761
 72
     2
 10
-40.60370995638104
 20
8.960965190473928
 40
1.055365641333708
 50
270.0
 51
450.0
 73
     0
 97
        6
330
3BF
330
3BE
330
3CB
330
3CA
330
3C0
330
410
 92
       16
 93
        4
 72
     2
 10
-41.04518248261942
 20
9.000361161696418
 40
0.3528638246711182
 50
270.0
 51
450.0
 73
     1
 72
     1
 10
-41.04518248261942
 20
9.353224986367508
 11
-41.36247754416132
 21
9.353224986367508
 72
     1
 10
-41.36247754416132
 20
9.353224986367508
 11
-41.36247754416132
 21
8.6474973370253
 72
     1
 10
-41.36247754416132
 20
8.6474973370253
 11
-41.04518248261942
 21
8.6474973370253
 97
        4
330
424
330
3BC
330
3CC
330
3BD
 75
     1
 76
     0
 52
45.0
 41
0.1
 77
     0
 78
     1
 53
45.0
 43
0.0
 44
0.0
 45
-0.0707106781186548
 46
0.0707106781186548
 79
     0
 98
        1
 10
0.0
 20
0.0
  0
HATCH
  5
472
330
71
100
AcDbEntity
  8
1
  6
Continuous
 62
     2
100
AcDbHatch
 10
0.0
 20
0.0
 30
0.0
210
0.0
220
0.0
230
1.0
  2
_USER
 70
     0
 71
     1
 91
        2
 92
        1
 93
        6
 72
     1
 10
-40.60370995638104
 20
7.90559954914022
 11
-41.36247754416132
 21
7.90559954914022
 72
     1
 10
-41.36247754416132
 20
7.90559954914022
 11
-41.36247754416132
 21
6.962521307996411
 72
     1
 10
-41.36247754416132
 20
6.962521307996411
 11
-42.60298195441544
 21
6.962521307996411
 72
     1
 10
-42.60298195441544
 20
6.962521307996411
 11
-42.60298195441544
 21
10.01633083180761
 72
     1
 10
-42.60298195441544
 20
10.01633083180761
 11
-40.60370995638104
 21
10.01633083180761
 72
     2
 10
-40.60370995638104
 20
8.960965190473928
 40
1.055365641333708
 50
270.0
 51
450.0
 73
     0
 97
        6
330
3BF
330
3BE
330
3CB
330
3CA
330
3C0
330
410
 92
       16
 93
        4
 72
     2
 10
-41.04518248261942
 20
9.000361161696418
 40
0.3528638246711182
 50
270.0
 51
450.0
 73
     1
 72
     1
 10
-41.04518248261942
 20
9.353224986367508
 11
-41.36247754416132
 21
9.353224986367508
 72
     1
 10
-41.36247754416132
 20
9.353224986367508
 11
-41.36247754416132
 21
8.6474973370253
 72
     1
 10
-41.36247754416132
 20
8.6474973370253
 11
-41.04518248261942
 21
8.6474973370253
 97
        4
330
424
330
3BC
330
3CC
330
3BD
 75
     1
 76
     0
 52
45.0
 41
0.1
 77
     0
 78
     1
 53
45.0
 43
0.0
 44
0.0
 45
-0.0707106781186548
 46
0.0707106781186548
 79
     0
 98
        1
 10
0.0
 20
0.0
  0
HATCH
  5
473
330
71
100
AcDbEntity
  8
1
  6
Continuous
 62
     2
100
AcDbHatch
 10
0.0
 20
0.0
 30
0.0
210
0.0
220
0.0
230
1.0
  2
_USER
 70
     0
 71
     1
 91
        2
 92
        1
 93
        4
 72
     2
 10
-38.04716720802193
 20
4.591660583424613
 40
2.065479772208568
 50
62.45185182430637
 51
117.5481481756664
 73
     1
 72
     2
 10
-38.32810709985523
 20
5.130235593727406
 40
1.45803408365149
 50
117.5481481756624
 51
242.4518518243375
 73
     1
 72
     2
 10
-38.04716720802193
 20
5.668810604030711
 40
2.065479772208509
 50
242.4518518243402
 51
297.5481481756871
 73
     1
 72
     2
 10
-37.76622731618863
 20
5.130235593727406
 40
1.458034083652003
 50
297.548148175701
 51
422.451851824299
 73
     1
 97
        4
330
41C
330
41B
330
41D
330
41A
 92
       16
 93
        4
 72
     2
 10
-38.24690724436834
 20
5.130235593727406
 40
0.7717997786796835
 50
321.8795802028411
 51
398.1204197971539
 73
     1
 72
     2
 10
-38.04716720802193
 20
5.286966771847915
 40
0.5179085730132943
 50
38.12041979714752
 51
141.8795802028583
 73
     1
 72
     2
 10
-37.84742717167583
 20
5.130235593727406
 40
0.7717997786794577
 50
141.879580202836
 51
218.120419797169
 73
     1
 72
     2
 10
-38.04716720802193
 20
4.973504415607408
 40
0.5179085730137298
 50
218.1204197971936
 51
321.8795802028005
 73
     1
 97
        4
330
438
330
435
330
436
330
437
 75
     1
 76
     0
 52
45.0
 41
0.1
 77
     0
 78
     1
 53
45.0
 43
0.0
 44
0.0
 45
-0.0707106781186548
 46
0.0707106781186548
 79
     0
 98
        1
 10
0.0
 20
0.0
  0
HATCH
  5
474
330
71
100
AcDbEntity
  8
1
  6
Continuous
 62
     2
100
AcDbHatch
 10
0.0
 20
0.0
 30
0.0
210
0.0
220
0.0
230
1.0
  2
_USER
 70
     0
 71
     1
 91
        2
 92
        1
 93
        4
 72
     2
 10
-38.04716720802193
 20
4.591660583424613
 40
2.065479772208568
 50
62.45185182430637
 51
117.5481481756664
 73
     1
 72
     2
 10
-38.32810709985523
 20
5.130235593727406
 40
1.45803408365149
 50
117.5481481756624
 51
242.4518518243375
 73
     1
 72
     2
 10
-38.04716720802193
 20
5.668810604030711
 40
2.065479772208509
 50
242.4518518243402
 51
297.5481481756871
 73
     1
 72
     2
 10
-37.76622731618863
 20
5.130235593727406
 40
1.458034083652003
 50
297.548148175701
 51
422.451851824299
 73
     1
 97
        4
330
41C
330
41B
330
41D
330
41A
 92
       16
 93
        4
 72
     2
 10
-38.24690724436834
 20
5.130235593727406
 40
0.7717997786796835
 50
321.8795802028411
 51
398.1204197971539
 73
     1
 72
     2
 10
-38.04716720802193
 20
5.286966771847915
 40
0.5179085730132943
 50
38.12041979714752
 51
141.8795802028583
 73
     1
 72
     2
 10
-37.84742717167583
 20
5.130235593727406
 40
0.7717997786794577
 50
141.879580202836
 51
218.120419797169
 73
     1
 72
     2
 10
-38.04716720802193
 20
4.973504415607408
 40
0.5179085730137298
 50
218.1204197971936
 51
321.8795802028005
 73
     1
 97
        4
330
438
330
435
330
436
330
437
 75
     1
 76
     0
 52
45.0
 41
0.1
 77
     0
 78
     1
 53
45.0
 43
0.0
 44
0.0
 45
-0.0707106781186548
 46
0.0707106781186548
 79
     0
 98
        1
 10
0.0
 20
0.0
  0
HATCH
  5
475
330
71
100
AcDbEntity
  8
1
  6
Continuous
 62
     2
100
AcDbHatch
 10
0.0
 20
0.0
 30
0.0
210
0.0
220
0.0
230
1.0
  2
_USER
 70
     0
 71
     1
 91
        2
 92
        1
 93
       12
 72
     1
 10
-31.15217201361264
 20
9.318317226364627
 11
-32.48809984004032
 21
9.318317226364627
 72
     1
 10
-32.48809984004032
 20
9.318317226364627
 11
-32.48809984004032
 21
8.838432872622917
 72
     1
 10
-32.48809984004032
 20
8.838432872622917
 11
-31.15217201361264
 21
8.838432872622917
 72
     1
 10
-31.15217201361264
 20
8.838432872622917
 11
-31.15217201361264
 21
8.140419267180619
 72
     1
 10
-31.15217201361264
 20
8.140419267180619
 11
-32.48809984004032
 21
8.140419267180619
 72
     1
 10
-32.48809984004032
 20
8.140419267180619
 11
-32.48809984004032
 21
7.660534913438909
 72
     1
 10
-32.48809984004032
 20
7.660534913438909
 11
-31.15217201361264
 21
7.660534913438909
 72
     1
 10
-31.15217201361264
 20
7.660534913438909
 11
-31.15217201361264
 21
6.962521307996411
 72
     1
 10
-31.15217201361264
 20
6.962521307996411
 11
-34.30249173739364
 21
6.962521307996411
 72
     2
 10
-34.30249173739364
 20
8.489426069901725
 40
1.526904761905884
 50
90.0
 51
270.0
 73
     0
 72
     1
 10
-34.30249173739364
 20
10.01633083180761
 11
-31.15217201361264
 21
10.01633083180761
 72
     1
 10
-31.15217201361264
 20
10.01633083180761
 11
-31.15217201361264
 21
9.318317226364627
 97
       12
330
3D3
330
425
330
3D4
330
3D5
330
3D6
330
3D7
330
3B4
330
3B3
330
3B2
330
3B1
330
3D8
330
3D2
 92
       16
 93
        4
 72
     2
 10
-34.08621972722844
 20
8.646157248022206
 40
0.5179085730135266
 50
38.12041979714334
 51
141.8795802028489
 73
     1
 72
     2
 10
-33.88647969088214
 20
8.489426069901725
 40
0.7717997786796724
 50
141.8795802028404
 51
218.1204197971562
 73
     1
 72
     2
 10
-34.08621972722844
 20
8.332694891781301
 40
0.5179085730134372
 50
218.1204197971511
 51
321.8795802028566
 73
     1
 72
     2
 10
-34.28595976357462
 20
8.489426069901725
 40
0.7717997786796317
 50
321.8795802028434
 51
398.1204197971599
 73
     1
 97
        4
330
41F
330
41E
330
419
330
418
 75
     1
 76
     0
 52
45.0
 41
0.1
 77
     0
 78
     1
 53
45.0
 43
0.0
 44
0.0
 45
-0.0707106781186548
 46
0.0707106781186548
 79
     0
 98
        1
 10
0.0
 20
0.0
  0
HATCH
  5
476
330
71
100
AcDbEntity
  8
1
  6
Continuous
 62
     2
100
AcDbHatch
 10
0.0
 20
0.0
 30
0.0
210
0.0
220
0.0
230
1.0
  2
_USER
 70
     0
 71
     1
 91
        2
 92
        1
 93
       12
 72
     1
 10
-31.15217201361264
 20
9.318317226364627
 11
-32.48809984004032
 21
9.318317226364627
 72
     1
 10
-32.48809984004032
 20
9.318317226364627
 11
-32.48809984004032
 21
8.838432872622917
 72
     1
 10
-32.48809984004032
 20
8.838432872622917
 11
-31.15217201361264
 21
8.838432872622917
 72
     1
 10
-31.15217201361264
 20
8.838432872622917
 11
-31.15217201361264
 21
8.140419267180619
 72
     1
 10
-31.15217201361264
 20
8.140419267180619
 11
-32.48809984004032
 21
8.140419267180619
 72
     1
 10
-32.48809984004032
 20
8.140419267180619
 11
-32.48809984004032
 21
7.660534913438909
 72
     1
 10
-32.48809984004032
 20
7.660534913438909
 11
-31.15217201361264
 21
7.660534913438909
 72
     1
 10
-31.15217201361264
 20
7.660534913438909
 11
-31.15217201361264
 21
6.962521307996411
 72
     1
 10
-31.15217201361264
 20
6.962521307996411
 11
-34.30249173739364
 21
6.962521307996411
 72
     2
 10
-34.30249173739364
 20
8.489426069901725
 40
1.526904761905884
 50
90.0
 51
270.0
 73
     0
 72
     1
 10
-34.30249173739364
 20
10.01633083180761
 11
-31.15217201361264
 21
10.01633083180761
 72
     1
 10
-31.15217201361264
 20
10.01633083180761
 11
-31.15217201361264
 21
9.318317226364627
 97
       12
330
3D3
330
425
330
3D4
330
3D5
330
3D6
330
3D7
330
3B4
330
3B3
330
3B2
330
3B1
330
3D8
330
3D2
 92
       16
 93
        4
 72
     2
 10
-34.08621972722844
 20
8.646157248022206
 40
0.5179085730135266
 50
38.12041979714334
 51
141.8795802028489
 73
     1
 72
     2
 10
-33.88647969088214
 20
8.489426069901725
 40
0.7717997786796724
 50
141.8795802028404
 51
218.1204197971562
 73
     1
 72
     2
 10
-34.08621972722844
 20
8.332694891781301
 40
0.5179085730134372
 50
218.1204197971511
 51
321.8795802028566
 73
     1
 72
     2
 10
-34.28595976357462
 20
8.489426069901725
 40
0.7717997786796317
 50
321.8795802028434
 51
398.1204197971599
 73
     1
 97
        4
330
41F
330
41E
330
419
330
418
 75
     1
 76
     0
 52
45.0
 41
0.1
 77
     0
 78
     1
 53
45.0
 43
0.0
 44
0.0
 45
-0.0707106781186548
 46
0.0707106781186548
 79
     0
 98
        1
 10
0.0
 20
0.0
  0
HATCH
  5
477
330
71
100
AcDbEntity
  8
1
  6
Continuous
 62
     2
100
AcDbHatch
 10
0.0
 20
0.0
 30
0.0
210
0.0
220
0.0
230
1.0
  2
_USER
 70
     0
 71
     1
 91
        4
 92
        1
 93
        8
 72
     1
 10
-43.08009903528225
 20
9.592086216405619
 11
-43.08009903528225
 21
4.027575447205408
 72
     2
 10
-43.50434365066613
 20
4.027575447205408
 40
0.4242446153832882
 50
0.0
 51
90.0
 73
     0
 72
     1
 10
-43.50434365066613
 20
3.60333083182212
 11
-48.97765574138293
 21
3.60333083182212
 72
     2
 10
-48.97765574138293
 20
4.027575447205408
 40
0.4242446153828112
 50
90.0
 51
180.0
 73
     0
 72
     1
 10
-49.40190035676574
 20
4.027575447205408
 11
-49.40190035676574
 21
9.592086216405619
 72
     2
 10
-48.97765574138293
 20
9.592086216405619
 40
0.4242446153838006
 50
180.0
 51
270.0
 73
     0
 72
     1
 10
-48.97765574138293
 20
10.01633083178942
 11
-43.50434365066613
 21
10.01633083178942
 72
     2
 10
-43.50434365066613
 20
9.592086216405619
 40
0.424244615383877
 50
270.0
 51
360.0
 73
     0
 97
        8
330
3C7
330
415
330
3C8
330
420
330
3C5
330
417
330
3C6
330
416
 92
       16
 93
        1
 72
     2
 10
-46.35807009086543
 20
7.273203988050113
 40
0.4709789327785145
 50
0.0
 51
360.0
 73
     1
 97
        1
330
43B
 92
       16
 93
        8
 72
     2
 10
-45.80821237810474
 20
6.164062388081703
 40
0.3157169230765328
 50
115.3740086783519
 51
180.0
 73
     1
 72
     1
 10
-46.12392930118153
 20
6.164062388081703
 11
-46.12392930118153
 21
5.582210981386623
 72
     2
 10
-45.80821237810474
 20
5.582210981386623
 40
0.315716923076792
 50
180.0
 51
269.8110329574542
 73
     1
 72
     2
 10
-45.80259624279472
 20
7.285045928955611
 40
2.018561131933266
 50
269.8110329575858
 51
450.1889670424142
 73
     1
 72
     2
 10
-45.80821237810474
 20
8.987880876524713
 40
0.3157169230760711
 50
90.18896704254594
 51
180.0
 73
     1
 72
     1
 10
-46.12392930118153
 20
8.987880876524713
 11
-46.12392930118153
 21
8.382345588017927
 72
     2
 10
-45.80821237810474
 20
8.382345588017927
 40
0.315716923076792
 50
180.0
 51
244.6259913216482
 73
     1
 72
     2
 10
-46.33425507619262
 20
7.273203988050113
 40
0.911848150144459
 50
295.3740086781925
 51
424.6259913218236
 73
     0
 97
        8
330
42D
330
38E
330
42A
330
42B
330
409
330
38D
330
42C
330
408
 92
       16
 93
       12
 72
     2
 10
-48.38376106463645
 20
4.631603310455716
 40
0.3157169230756764
 50
180.0
 51
270.0
 73
     1
 72
     1
 10
-48.38376106463645
 20
4.31588638737901
 11
-46.90792780362682
 21
4.31588638737901
 72
     2
 10
-46.90792780362682
 20
4.631603310455716
 40
0.3157169230767067
 50
270.0
 51
360.0
 73
     1
 72
     1
 10
-46.59221088055023
 20
4.631603310455716
 11
-46.59221088055023
 21
6.162374241987322
 72
     2
 10
-46.90792780362682
 20
6.162374241987322
 40
0.3157169230765859
 50
0.0
 51
64.80558935146027
 73
     1
 72
     2
 10
-46.38534335605183
 20
7.273203988050113
 40
0.9118975235576177
 50
115.1944106485127
 51
244.8055893514714
 73
     0
 72
     2
 10
-46.90792780362682
 20
8.384033734112307
 40
0.3157169230761203
 50
295.1944106485397
 51
360.0
 73
     1
 72
     1
 10
-46.59221088055023
 20
8.384033734112307
 11
-46.59221088055023
 21
8.988058353172818
 72
     2
 10
-46.90792780362682
 20
8.988058353172818
 40
0.3157169230765859
 50
0.0
 51
90.0
 73
     1
 72
     1
 10
-46.90792780362682
 20
9.303775276249013
 11
-48.38376106463645
 21
9.303775276249013
 72
     2
 10
-48.38376106463645
 20
8.988058353172818
 40
0.3157169230761951
 50
90.0
 51
180.0
 73
     1
 72
     1
 10
-48.69947798771213
 20
8.988058353172818
 11
-48.69947798771213
 21
4.631603310455716
 97
       12
330
411
330
3C9
330
414
330
3C4
330
421
330
422
330
413
330
3C3
330
412
330
3C2
330
423
330
3C1
 75
     1
 76
     0
 52
45.0
 41
0.1
 77
     0
 78
     1
 53
45.0
 43
0.0
 44
0.0
 45
-0.0707106781186548
 46
0.0707106781186548
 79
     0
 98
        1
 10
0.0
 20
0.0
  0
HATCH
  5
478
330
71
100
AcDbEntity
  8
1
  6
Continuous
 62
     2
100
AcDbHatch
 10
0.0
 20
0.0
 30
0.0
210
0.0
220
0.0
230
1.0
  2
_USER
 70
     0
 71
     1
 91
        4
 92
        1
 93
        8
 72
     1
 10
-43.08009903528225
 20
9.592086216405619
 11
-43.08009903528225
 21
4.027575447205408
 72
     2
 10
-43.50434365066613
 20
4.027575447205408
 40
0.4242446153832882
 50
0.0
 51
90.0
 73
     0
 72
     1
 10
-43.50434365066613
 20
3.60333083182212
 11
-48.97765574138293
 21
3.60333083182212
 72
     2
 10
-48.97765574138293
 20
4.027575447205408
 40
0.4242446153828112
 50
90.0
 51
180.0
 73
     0
 72
     1
 10
-49.40190035676574
 20
4.027575447205408
 11
-49.40190035676574
 21
9.592086216405619
 72
     2
 10
-48.97765574138293
 20
9.592086216405619
 40
0.4242446153838006
 50
180.0
 51
270.0
 73
     0
 72
     1
 10
-48.97765574138293
 20
10.01633083178942
 11
-43.50434365066613
 21
10.01633083178942
 72
     2
 10
-43.50434365066613
 20
9.592086216405619
 40
0.424244615383877
 50
270.0
 51
360.0
 73
     0
 97
        8
330
3C7
330
415
330
3C8
330
420
330
3C5
330
417
330
3C6
330
416
 92
       16
 93
        1
 72
     2
 10
-46.35807009086543
 20
7.273203988050113
 40
0.4709789327785145
 50
0.0
 51
360.0
 73
     1
 97
        1
330
43B
 92
       16
 93
        8
 72
     2
 10
-45.80821237810474
 20
6.164062388081703
 40
0.3157169230765328
 50
115.3740086783519
 51
180.0
 73
     1
 72
     1
 10
-46.12392930118153
 20
6.164062388081703
 11
-46.12392930118153
 21
5.582210981386623
 72
     2
 10
-45.80821237810474
 20
5.582210981386623
 40
0.315716923076792
 50
180.0
 51
269.8110329574542
 73
     1
 72
     2
 10
-45.80259624279472
 20
7.285045928955611
 40
2.018561131933266
 50
269.8110329575858
 51
450.1889670424142
 73
     1
 72
     2
 10
-45.80821237810474
 20
8.987880876524713
 40
0.3157169230760711
 50
90.18896704254594
 51
180.0
 73
     1
 72
     1
 10
-46.12392930118153
 20
8.987880876524713
 11
-46.12392930118153
 21
8.382345588017927
 72
     2
 10
-45.80821237810474
 20
8.382345588017927
 40
0.315716923076792
 50
180.0
 51
244.6259913216482
 73
     1
 72
     2
 10
-46.33425507619262
 20
7.273203988050113
 40
0.911848150144459
 50
295.3740086781925
 51
424.6259913218236
 73
     0
 97
        8
330
42D
330
38E
330
42A
330
42B
330
409
330
38D
330
42C
330
408
 92
       16
 93
       12
 72
     2
 10
-48.38376106463645
 20
4.631603310455716
 40
0.3157169230756764
 50
180.0
 51
270.0
 73
     1
 72
     1
 10
-48.38376106463645
 20
4.31588638737901
 11
-46.90792780362682
 21
4.31588638737901
 72
     2
 10
-46.90792780362682
 20
4.631603310455716
 40
0.3157169230767067
 50
270.0
 51
360.0
 73
     1
 72
     1
 10
-46.59221088055023
 20
4.631603310455716
 11
-46.59221088055023
 21
6.162374241987322
 72
     2
 10
-46.90792780362682
 20
6.162374241987322
 40
0.3157169230765859
 50
0.0
 51
64.80558935146027
 73
     1
 72
     2
 10
-46.38534335605183
 20
7.273203988050113
 40
0.9118975235576177
 50
115.1944106485127
 51
244.8055893514714
 73
     0
 72
     2
 10
-46.90792780362682
 20
8.384033734112307
 40
0.3157169230761203
 50
295.1944106485397
 51
360.0
 73
     1
 72
     1
 10
-46.59221088055023
 20
8.384033734112307
 11
-46.59221088055023
 21
8.988058353172818
 72
     2
 10
-46.90792780362682
 20
8.988058353172818
 40
0.3157169230765859
 50
0.0
 51
90.0
 73
     1
 72
     1
 10
-46.90792780362682
 20
9.303775276249013
 11
-48.38376106463645
 21
9.303775276249013
 72
     2
 10
-48.38376106463645
 20
8.988058353172818
 40
0.3157169230761951
 50
90.0
 51
180.0
 73
     1
 72
     1
 10
-48.69947798771213
 20
8.988058353172818
 11
-48.69947798771213
 21
4.631603310455716
 97
       12
330
411
330
3C9
330
414
330
3C4
330
421
330
422
330
413
330
3C3
330
412
330
3C2
330
423
330
3C1
 75
     1
 76
     0
 52
45.0
 41
0.1
 77
     0
 78
     1
 53
45.0
 43
0.0
 44
0.0
 45
-0.0707106781186548
 46
0.0707106781186548
 79
     0
 98
        1
 10
0.0
 20
0.0
  0
HATCH
  5
479
330
71
100
AcDbEntity
  8
1
  6
Continuous
 62
     2
100
AcDbHatch
 10
0.0
 20
0.0
 30
0.0
210
0.0
220
0.0
230
1.0
  2
_USER
 70
     0
 71
     1
 91
        1
 92
        1
 93
       18
 72
     1
 10
-21.49055112606123
 20
5.871875049509612
 11
-22.30165016353462
 21
5.871875049509612
 72
     1
 10
-22.30165016353462
 20
5.871875049509612
 11
-22.30165016353462
 21
3.60333083182212
 72
     1
 10
-22.30165016353462
 20
3.60333083182212
 11
-23.49444286570233
 21
3.60333083182212
 72
     1
 10
-23.49444286570233
 20
3.60333083182212
 11
-23.49444286570233
 21
5.871875049509612
 72
     1
 10
-23.49444286570233
 20
5.871875049509612
 11
-24.59808216527043
 21
5.871875049509612
 72
     2
 10
-24.59808216527043
 20
4.917352042683518
 40
0.9545230068260935
 50
90.0
 51
109.337143219432
 73
     1
 72
     2
 10
-24.74475216337413
 20
5.335307023066406
 40
0.5115800601944154
 50
109.3371432194857
 51
151.4785267424226
 73
     1
 72
     2
 10
-24.36739490529274
 20
5.130235593727406
 40
0.9410597353348955
 50
151.4785267423625
 51
208.5214732576694
 73
     1
 72
     2
 10
-24.74475216337413
 20
4.925164164388917
 40
0.5115800601960248
 50
208.5214732576864
 51
246.6277221118453
 73
     1
 72
     2
 10
-24.58831213067103
 20
5.287156183098915
 40
0.9059297849852772
 50
246.6277221118187
 51
288.4480761180819
 73
     1
 72
     2
 10
-25.00647986433293
 20
6.540701959135504
 40
2.227384008972746
 50
288.4480761181335
 51
301.9309089499396
 73
     1
 72
     1
 10
-23.82842482230902
 20
4.650351239985724
 11
-23.82842482230902
 21
3.777834233182404
 72
     2
 10
-25.16435273942574
 20
8.442916538983809
 40
4.852596863498825
 50
74.02000874166129
 51
84.8418552303636
 73
     0
 72
     2
 10
-24.87549664468992
 20
5.243025955762221
 40
1.639695123940445
 50
84.84185523032356
 51
164.9381082228988
 73
     0
 72
     2
 10
-25.29462448815153
 20
5.130235593727406
 40
1.205656168392999
 50
164.9381082229041
 51
195.0618917770973
 73
     0
 72
     2
 10
-24.87549664468992
 20
5.017445231692506
 40
1.639695123940214
 50
195.0618917771051
 51
270.0
 73
     0
 72
     1
 10
-24.87549664468992
 20
6.65714035563272
 11
-21.49055112606123
 21
6.657140355633203
 72
     1
 10
-21.49055112606123
 20
6.657140355633203
 11
-21.49055112606123
 21
5.871875049509612
 97
       18
330
390
330
426
330
427
330
40F
330
40E
330
3F4
330
40D
330
40C
330
428
330
40B
330
429
330
40A
330
3F5
330
38F
330
394
330
393
330
392
330
391
 75
     1
 76
     0
 52
45.0
 41
0.1
 77
     0
 78
     1
 53
45.0
 43
0.0
 44
0.0
 45
-0.0707106781186548
 46
0.0707106781186548
 79
     0
 98
        1
 10
0.0
 20
0.0
  0
HATCH
  5
47A
330
71
100
AcDbEntity
  8
1
  6
Continuous
 62
     2
100
AcDbHatch
 10
0.0
 20
0.0
 30
0.0
210
0.0
220
0.0
230
1.0
  2
_USER
 70
     0
 71
     1
 91
        1
 92
        1
 93
       18
 72
     1
 10
-21.49055112606123
 20
5.871875049509612
 11
-22.30165016353462
 21
5.871875049509612
 72
     1
 10
-22.30165016353462
 20
5.871875049509612
 11
-22.30165016353462
 21
3.60333083182212
 72
     1
 10
-22.30165016353462
 20
3.60333083182212
 11
-23.49444286570233
 21
3.60333083182212
 72
     1
 10
-23.49444286570233
 20
3.60333083182212
 11
-23.49444286570233
 21
5.871875049509612
 72
     1
 10
-23.49444286570233
 20
5.871875049509612
 11
-24.59808216527043
 21
5.871875049509612
 72
     2
 10
-24.59808216527043
 20
4.917352042683518
 40
0.9545230068260935
 50
90.0
 51
109.337143219432
 73
     1
 72
     2
 10
-24.74475216337413
 20
5.335307023066406
 40
0.5115800601944154
 50
109.3371432194857
 51
151.4785267424226
 73
     1
 72
     2
 10
-24.36739490529274
 20
5.130235593727406
 40
0.9410597353348955
 50
151.4785267423625
 51
208.5214732576694
 73
     1
 72
     2
 10
-24.74475216337413
 20
4.925164164388917
 40
0.5115800601960248
 50
208.5214732576864
 51
246.6277221118453
 73
     1
 72
     2
 10
-24.58831213067103
 20
5.287156183098915
 40
0.9059297849852772
 50
246.6277221118187
 51
288.4480761180819
 73
     1
 72
     2
 10
-25.00647986433293
 20
6.540701959135504
 40
2.227384008972746
 50
288.4480761181335
 51
301.9309089499396
 73
     1
 72
     1
 10
-23.82842482230902
 20
4.650351239985724
 11
-23.82842482230902
 21
3.777834233182404
 72
     2
 10
-25.16435273942574
 20
8.442916538983809
 40
4.852596863498825
 50
74.02000874166129
 51
84.8418552303636
 73
     0
 72
     2
 10
-24.87549664468992
 20
5.243025955762221
 40
1.639695123940445
 50
84.84185523032356
 51
164.9381082228988
 73
     0
 72
     2
 10
-25.29462448815153
 20
5.130235593727406
 40
1.205656168392999
 50
164.9381082229041
 51
195.0618917770973
 73
     0
 72
     2
 10
-24.87549664468992
 20
5.017445231692506
 40
1.639695123940214
 50
195.0618917771051
 51
270.0
 73
     0
 72
     1
 10
-24.87549664468992
 20
6.65714035563272
 11
-21.49055112606123
 21
6.657140355633203
 72
     1
 10
-21.49055112606123
 20
6.657140355633203
 11
-21.49055112606123
 21
5.871875049509612
 97
       18
330
390
330
426
330
427
330
40F
330
40E
330
3F4
330
40D
330
40C
330
428
330
40B
330
429
330
40A
330
3F5
330
38F
330
394
330
393
330
392
330
391
 75
     1
 76
     0
 52
45.0
 41
0.1
 77
     0
 78
     1
 53
45.0
 43
0.0
 44
0.0
 45
-0.0707106781186548
 46
0.0707106781186548
 79
     0
 98
        1
 10
0.0
 20
0.0
  0
HATCH
  5
47B
330
71
100
AcDbEntity
  8
1
  6
Continuous
 62
     2
100
AcDbHatch
 10
0.0
 20
0.0
 30
0.0
210
0.0
220
0.0
230
1.0
  2
_USER
 70
     0
 71
     1
 91
        1
 92
        1
 93
       14
 72
     2
 10
-40.97819812394283
 20
5.017445231692506
 40
1.639695123940506
 50
84.84185523036261
 51
164.9381082228864
 73
     1
 72
     2
 10
-41.39732596740564
 20
5.130235593727406
 40
1.205656168390937
 50
164.9381082228764
 51
195.0618917770949
 73
     1
 72
     2
 10
-40.97819812394283
 20
5.243025955762221
 40
1.639695123939387
 50
195.0618917770896
 51
275.1581447696393
 73
     1
 72
     2
 10
-41.26705421867874
 20
8.442916538983809
 40
4.852596863498138
 50
275.1581447696248
 51
285.9799912583529
 73
     1
 72
     1
 10
-39.93112630156094
 20
3.777834233183
 11
-39.93112630156094
 21
4.650351239986208
 72
     2
 10
-41.10918134358582
 20
6.540701959136101
 40
2.227384008972739
 50
58.0690910500407
 51
71.55192388186703
 73
     0
 72
     2
 10
-40.69101360992502
 20
5.287156183098915
 40
0.9059297849849192
 50
71.55192388184112
 51
113.372277888129
 73
     0
 72
     2
 10
-40.84745364262705
 20
4.925164164388917
 40
0.5115800601947976
 50
113.3722778881719
 51
151.478526742304
 73
     0
 72
     2
 10
-40.47009638454674
 20
5.130235593727406
 40
0.9410597353332483
 50
151.478526742294
 51
208.5214732577333
 73
     0
 72
     2
 10
-40.84745364262705
 20
5.335307023066406
 40
0.5115800601948758
 50
208.5214732576959
 51
246.6277221118016
 73
     0
 72
     2
 10
-40.69101360992502
 20
4.973315004355811
 40
0.9059297849853251
 50
246.6277221118711
 51
288.448076118147
 73
     0
 72
     2
 10
-41.10918134358582
 20
3.719769228319223
 40
2.227384008973477
 50
288.448076118133
 51
301.9309089499593
 73
     0
 72
     1
 10
-39.93112630156094
 20
5.610119947469116
 11
-39.93112630156094
 21
6.482636954272408
 72
     2
 10
-41.26705421867874
 20
1.817554648471514
 40
4.852596863498068
 50
74.02000874164739
 51
84.84185523037515
 73
     1
 97
       14
330
42E
330
42F
330
430
330
431
330
3F6
330
407
330
406
330
405
330
432
330
433
330
404
330
434
330
3F7
330
403
 75
     1
 76
     0
 52
45.0
 41
0.1
 77
     0
 78
     1
 53
45.0
 43
0.0
 44
0.0
 45
-0.0707106781186548
 46
0.0707106781186548
 79
     0
 98
        1
 10
0.0
 20
0.0
  0
HATCH
  5
47C
330
71
100
AcDbEntity
  8
1
  6
Continuous
 62
     2
100
AcDbHatch
 10
0.0
 20
0.0
 30
0.0
210
0.0
220
0.0
230
1.0
  2
_USER
 70
     0
 71
     1
 91
        1
 92
        1
 93
       14
 72
     2
 10
-40.97819812394283
 20
5.017445231692506
 40
1.639695123940506
 50
84.84185523036261
 51
164.9381082228864
 73
     1
 72
     2
 10
-41.39732596740564
 20
5.130235593727406
 40
1.205656168390937
 50
164.9381082228764
 51
195.0618917770949
 73
     1
 72
     2
 10
-40.97819812394283
 20
5.243025955762221
 40
1.639695123939387
 50
195.0618917770896
 51
275.1581447696393
 73
     1
 72
     2
 10
-41.26705421867874
 20
8.442916538983809
 40
4.852596863498138
 50
275.1581447696248
 51
285.9799912583529
 73
     1
 72
     1
 10
-39.93112630156094
 20
3.777834233183
 11
-39.93112630156094
 21
4.650351239986208
 72
     2
 10
-41.10918134358582
 20
6.540701959136101
 40
2.227384008972739
 50
58.0690910500407
 51
71.55192388186703
 73
     0
 72
     2
 10
-40.69101360992502
 20
5.287156183098915
 40
0.9059297849849192
 50
71.55192388184112
 51
113.372277888129
 73
     0
 72
     2
 10
-40.84745364262705
 20
4.925164164388917
 40
0.5115800601947976
 50
113.3722778881719
 51
151.478526742304
 73
     0
 72
     2
 10
-40.47009638454674
 20
5.130235593727406
 40
0.9410597353332483
 50
151.478526742294
 51
208.5214732577333
 73
     0
 72
     2
 10
-40.84745364262705
 20
5.335307023066406
 40
0.5115800601948758
 50
208.5214732576959
 51
246.6277221118016
 73
     0
 72
     2
 10
-40.69101360992502
 20
4.973315004355811
 40
0.9059297849853251
 50
246.6277221118711
 51
288.448076118147
 73
     0
 72
     2
 10
-41.10918134358582
 20
3.719769228319223
 40
2.227384008973477
 50
288.448076118133
 51
301.9309089499593
 73
     0
 72
     1
 10
-39.93112630156094
 20
5.610119947469116
 11
-39.93112630156094
 21
6.482636954272408
 72
     2
 10
-41.26705421867874
 20
1.817554648471514
 40
4.852596863498068
 50
74.02000874164739
 51
84.84185523037515
 73
     1
 97
       14
330
42E
330
42F
330
430
330
431
330
3F6
330
407
330
406
330
405
330
432
330
433
330
404
330
434
330
3F7
330
403
 75
     1
 76
     0
 52
45.0
 41
0.1
 77
     0
 78
     1
 53
45.0
 43
0.0
 44
0.0
 45
-0.0707106781186548
 46
0.0707106781186548
 79
     0
 98
        1
 10
0.0
 20
0.0
  0
ENDBLK
  5
73
330
71
100
AcDbEntity
  8
0
100
AcDbBlockEnd
  0
BLOCK
  5
75
330
74
100
AcDbEntity
  8
0
100
AcDbBlockBegin
  2
_punkt
 70
     0
 10
75.90624928342167
 20
-3.69016916819419
 30
0.0
  3
_punkt
  1

  0
LINE
  5
47D
330
74
100
AcDbEntity
  8
1
  6
Continuous
 62
     2
100
AcDbLine
 10
75.90624928342167
 20
-3.69016916819419
 30
0.0
 11
80.90624928342066
 21
-3.69016916819419
 31
0.0
  0
LINE
  5
47E
330
74
100
AcDbEntity
  8
1
  6
Continuous
 62
     2
100
AcDbLine
 10
75.90624928342167
 20
-3.69016916819419
 30
0.0
 11
75.90624928342167
 21
-8.6901691681943
 31
0.0
  0
ENDBLK
  5
76
330
74
100
AcDbEntity
  8
0
100
AcDbBlockEnd
  0
BLOCK
  5
7A
330
77
100
AcDbEntity
  8
0
100
AcDbBlockBegin
  2
A4I_CS
 70
     0
 10
75.90624928342167
 20
-8.6901691681943
 30
0.0
  3
A4I_CS
  1

  0
INSERT
  5
78
330
77
100
AcDbEntity
  8
1
100
AcDbBlockReference
  2
_rahmen
 10
75.90624928342167
 20
-8.6901691681943
 30
0.0
  0
INSERT
  5
79
330
77
100
AcDbEntity
  8
1
100
AcDbBlockReference
  2
_punkt
 10
75.90624928342167
 20
-3.69016916819419
 30
0.0
  0
ENDBLK
  5
7B
330
77
100
AcDbEntity
  8
0
100
AcDbBlockEnd
  0
BLOCK
  5
84
330
7C
100
AcDbEntity
  8
0
100
AcDbBlockBegin
  2
1
 70
     0
 10
0.0
 20
0.0
 30
0.0
  3
1
  1

  0
INSERT
  5
7D
330
7C
100
AcDbEntity
  8
0
100
AcDbBlockReference
  2
AllgSicht1
 10
37.00000000023056
 20
59.99999999994498
 30
0.0
  0
INSERT
  5
7E
330
7C
100
AcDbEntity
  8
0
100
AcDbBlockReference
  2
Drfsicht1
 10
-107.9624997577899
 20
65.37499980928484
 30
0.0
  0
INSERT
  5
7F
330
7C
100
AcDbEntity
  8
0
100
AcDbBlockReference
  2
Rckans1
 10
10.99999999974517
 20
146.0000000000001
 30
0.0
  0
INSERT
  5
80
330
7C
100
AcDbEntity
  8
0
100
AcDbBlockReference
  2
SA_Rechts1
 10
-182.99999999998
 20
146.0
 30
0.0
  0
INSERT
  5
81
330
7C
100
AcDbEntity
  8
0
100
AcDbBlockReference
  2
SA_links1
 10
-44.59360156640413
 20
145.9999995851661
 30
0.0
  0
INSERT
  5
82
330
7C
100
AcDbEntity
  8
0
100
AcDbBlockReference
  2
Vordans1
 10
-107.9624997577899
 20
145.999999585166
 30
0.0
  0
INSERT
  5
83
330
7C
100
AcDbEntity
  8
0
100
AcDbBlockReference
  2
A4I_CS
 10
75.90624928342167
 20
-8.6901691681943
 30
0.0
  0
ENDBLK
  5
85
330
7C
100
AcDbEntity
  8
0
100
AcDbBlockEnd
  0
BLOCK
  5
1A5
330
19D
100
AcDbEntity
  8
0
100
AcDbBlockBegin
  2
*D17
 70
     1
 10
0.0
 20
0.0
 30
0.0
  3
*D17
  1

  0
LINE
  5
19E
330
19D
100
AcDbEntity
  8
1
  6
Continuous
 62
     2
100
AcDbLine
 10
-151.8499985155829
 20
46.497203959636
 30
0.0
 11
-151.8499985155829
 21
60.29999961856991
 31
0.0
  0
LINE
  5
19F
330
19D
100
AcDbEntity
  8
1
  6
Continuous
 62
     2
100
AcDbLine
 10
-151.8499985155829
 20
60.29999961856991
 30
0.0
 11
-151.8499985155829
 21
70.44999961856992
 31
0.0
  0
LINE
  5
1A0
330
19D
100
AcDbEntity
  8
1
  6
Continuous
 62
     2
100
AcDbLine
 10
-141.8499985155829
 20
60.29999961856991
 30
0.0
 11
-153.3499985155829
 21
60.29999961856991
 31
0.0
  0
LINE
  5
1A1
330
19D
100
AcDbEntity
  8
1
  6
Continuous
 62
     2
100
AcDbLine
 10
-141.8499985155829
 20
70.44999961856992
 30
0.0
 11
-153.3499985155829
 21
70.44999961856992
 31
0.0
  0
SOLID
  5
1A2
330
19D
100
AcDbEntity
  8
1
 62
     2
100
AcDbTrace
 10
-152.3107822571388
 20
63.79999961856991
 30
0.0
 11
-151.389214774027
 21
63.79999961856991
 31
0.0
 12
-151.8499985155829
 22
60.29999961856991
 32
0.0
 13
-151.8499985155829
 23
60.29999961856991
 33
0.0
  0
SOLID
  5
1A3
330
19D
100
AcDbEntity
  8
1
 62
     2
100
AcDbTrace
 10
-151.389214774027
 20
66.94999961856992
 30
0.0
 11
-152.3107822571388
 21
66.94999961856992
 31
0.0
 12
-151.8499985155829
 22
70.44999961856992
 32
0.0
 13
-151.8499985155829
 23
70.44999961856992
 33
0.0
  0
MTEXT
  5
1A4
330
19D
100
AcDbEntity
  8
1
 62
     3
100
AcDbMText
 10
-153.6999985155829
 20
46.497203959636
 30
0.0
 40
3.5
 41
0.0
 71
     7
 72
     1
  1
10,15
  7
CONVERTER_11
 11
0.0
 21
1.0
 31
0.0
 73
     1
 44
0.60024009603842
  0
ENDBLK
  5
1A6
330
19D
100
AcDbEntity
  8
0
100
AcDbBlockEnd
  0
BLOCK
  5
30B
330
304
100
AcDbEntity
  8
0
100
AcDbBlockBegin
  2
*D18
 70
     1
 10
0.0
 20
0.0
 30
0.0
  3
*D18
  1

  0
LINE
  5
305
330
304
100
AcDbEntity
  8
1
  6
Continuous
 62
     2
100
AcDbLine
 10
-120.5749985155829
 20
101.178771565901
 30
0.0
 11
-98.37499851558289
 21
101.178771565901
 31
0.0
  0
LINE
  5
306
330
304
100
AcDbEntity
  8
1
  6
Continuous
 62
     2
100
AcDbLine
 10
-120.5749985155829
 20
124.971306652775
 30
0.0
 11
-120.5749985155829
 21
99.678771565901
 31
0.0
  0
LINE
  5
307
330
304
100
AcDbEntity
  8
1
  6
Continuous
 62
     2
100
AcDbLine
 10
-98.37499851558289
 20
137.3500012403708
 30
0.0
 11
-98.37499851558289
 21
99.678771565901
 31
0.0
  0
SOLID
  5
308
330
304
100
AcDbEntity
  8
1
 62
     2
100
AcDbTrace
 10
-117.0749985155829
 20
101.6395553074569
 30
0.0
 11
-117.0749985155829
 21
100.7179878243451
 31
0.0
 12
-120.5749985155829
 22
101.178771565901
 32
0.0
 13
-120.5749985155829
 23
101.178771565901
 33
0.0
  0
SOLID
  5
309
330
304
100
AcDbEntity
  8
1
 62
     2
100
AcDbTrace
 10
-101.8749985155829
 20
100.7179878243451
 30
0.0
 11
-101.8749985155829
 21
101.6395553074569
 31
0.0
 12
-98.37499851558289
 22
101.178771565901
 32
0.0
 13
-98.37499851558289
 23
101.178771565901
 33
0.0
  0
MTEXT
  5
30A
330
304
100
AcDbEntity
  8
1
 62
     3
100
AcDbMText
 10
-113.713229482983
 20
103.028771565901
 30
0.0
 40
3.5
 41
0.0
 71
     7
 72
     1
  1
22,2
  7
CONVERTER_11
 11
0.9999999999970619
 21
2.424068405545306E-6
 31
0.0
 73
     1
 44
0.60024009603842
  0
ENDBLK
  5
30C
330
304
100
AcDbEntity
  8
0
100
AcDbBlockEnd
  0
BLOCK
  5
316
330
30F
100
AcDbEntity
  8
0
100
AcDbBlockBegin
  2
*D19
 70
     1
 10
0.0
 20
0.0
 30
0.0
  3
*D19
  1

  0
LINE
  5
310
330
30F
100
AcDbEntity
  8
1
  6
Continuous
 62
     2
100
AcDbLine
 10
-120.5749985155829
 20
109.178771565901
 30
0.0
 11
-103.0749985155829
 21
109.178771565901
 31
0.0
  0
LINE
  5
311
330
30F
100
AcDbEntity
  8
1
  6
Continuous
 62
     2
100
AcDbLine
 10
-120.5749985155829
 20
124.971306652775
 30
0.0
 11
-120.5749985155829
 21
107.678771565901
 31
0.0
  0
LINE
  5
312
330
30F
100
AcDbEntity
  8
1
  6
Continuous
 62
     2
100
AcDbLine
 10
-103.0749985155829
 20
126.5499991703319
 30
0.0
 11
-103.0749985155829
 21
107.678771565901
 31
0.0
  0
SOLID
  5
313
330
30F
100
AcDbEntity
  8
1
 62
     2
100
AcDbTrace
 10
-117.0749985155829
 20
109.6395553074569
 30
0.0
 11
-117.0749985155829
 21
108.7179878243451
 31
0.0
 12
-120.5749985155829
 22
109.178771565901
 32
0.0
 13
-120.5749985155829
 23
109.178771565901
 33
0.0
  0
SOLID
  5
314
330
30F
100
AcDbEntity
  8
1
 62
     2
100
AcDbTrace
 10
-106.5749985155829
 20
108.7179878243451
 30
0.0
 11
-106.5749985155829
 21
109.6395553074569
 31
0.0
 12
-103.0749985155829
 22
109.178771565901
 32
0.0
 13
-103.0749985155829
 23
109.178771565901
 33
0.0
  0
MTEXT
  5
315
330
30F
100
AcDbEntity
  8
1
 62
     3
100
AcDbMText
 10
-116.219495108059
 20
111.028771565901
 30
0.0
 40
3.5
 41
0.0
 71
     7
 72
     1
  1
17,5
  7
CONVERTER_11
 11
0.9999999999970619
 21
2.424068405545306E-6
 31
0.0
 73
     1
 44
0.60024009603842
  0
ENDBLK
  5
317
330
30F
100
AcDbEntity
  8
0
100
AcDbBlockEnd
  0
BLOCK
  5
321
330
31A
100
AcDbEntity
  8
0
100
AcDbBlockBegin
  2
*D20
 70
     1
 10
0.0
 20
0.0
 30
0.0
  3
*D20
  1

  0
LINE
  5
31B
330
31A
100
AcDbEntity
  8
1
  6
Continuous
 62
     2
100
AcDbLine
 10
-120.5749985155829
 20
93.178771565901
 30
0.0
 11
-74.0749985155828
 21
93.178771565901
 31
0.0
  0
LINE
  5
31C
330
31A
100
AcDbEntity
  8
1
  6
Continuous
 62
     2
100
AcDbLine
 10
-120.5749985155829
 20
124.971306652775
 30
0.0
 11
-120.5749985155829
 21
91.678771565901
 31
0.0
  0
LINE
  5
31D
330
31A
100
AcDbEntity
  8
1
  6
Continuous
 62
     2
100
AcDbLine
 10
-74.0749985155828
 20
141.4499991703323
 30
0.0
 11
-74.0749985155828
 21
91.678771565901
 31
0.0
  0
SOLID
  5
31E
330
31A
100
AcDbEntity
  8
1
 62
     2
100
AcDbTrace
 10
-117.0749985155829
 20
93.63955530745689
 30
0.0
 11
-117.0749985155829
 21
92.71798782434512
 31
0.0
 12
-120.5749985155829
 22
93.178771565901
 32
0.0
 13
-120.5749985155829
 23
93.178771565901
 33
0.0
  0
SOLID
  5
31F
330
31A
100
AcDbEntity
  8
1
 62
     2
100
AcDbTrace
 10
-77.5749985155828
 20
92.71798782434512
 30
0.0
 11
-77.5749985155828
 21
93.63955530745689
 31
0.0
 12
-74.0749985155828
 22
93.178771565901
 32
0.0
 13
-74.0749985155828
 23
93.178771565901
 33
0.0
  0
MTEXT
  5
320
330
31A
100
AcDbEntity
  8
1
 62
     3
100
AcDbMText
 10
-104.1656934315948
 20
95.028771565901
 30
0.0
 40
3.5
 41
0.0
 71
     7
 72
     1
  1
46,5
  7
CONVERTER_11
 11
0.9999999999970619
 21
2.424068405545306E-6
 31
0.0
 73
     1
 44
0.60024009603842
  0
ENDBLK
  5
322
330
31A
100
AcDbEntity
  8
0
100
AcDbBlockEnd
  0
BLOCK
  5
32C
330
325
100
AcDbEntity
  8
0
100
AcDbBlockBegin
  2
*D21
 70
     1
 10
0.0
 20
0.0
 30
0.0
  3
*D21
  1

  0
LINE
  5
326
330
325
100
AcDbEntity
  8
1
  6
Continuous
 62
     2
100
AcDbLine
 10
-141.8499985155829
 20
85.178771565901
 30
0.0
 11
-74.0749985155828
 21
85.178771565901
 31
0.0
  0
LINE
  5
327
330
325
100
AcDbEntity
  8
1
  6
Continuous
 62
     2
100
AcDbLine
 10
-141.8499985155829
 20
121.4499991703318
 30
0.0
 11
-141.8499985155829
 21
83.678771565901
 31
0.0
  0
LINE
  5
328
330
325
100
AcDbEntity
  8
1
  6
Continuous
 62
     2
100
AcDbLine
 10
-74.0749985155828
 20
141.4499991703323
 30
0.0
 11
-74.0749985155828
 21
83.678771565901
 31
0.0
  0
SOLID
  5
329
330
325
100
AcDbEntity
  8
1
 62
     2
100
AcDbTrace
 10
-138.3499985155829
 20
85.63955530745689
 30
0.0
 11
-138.3499985155829
 21
84.71798782434512
 31
0.0
 12
-141.8499985155829
 22
85.178771565901
 32
0.0
 13
-141.8499985155829
 23
85.178771565901
 33
0.0
  0
SOLID
  5
32A
330
325
100
AcDbEntity
  8
1
 62
     2
100
AcDbTrace
 10
-77.5749985155828
 20
84.71798782434512
 30
0.0
 11
-77.5749985155828
 21
85.63955530745689
 31
0.0
 12
-74.0749985155828
 22
85.178771565901
 32
0.0
 13
-74.0749985155828
 23
85.178771565901
 33
0.0
  0
MTEXT
  5
32B
330
325
100
AcDbEntity
  8
1
 62
     3
100
AcDbMText
 10
-117.049645955917
 20
87.028771565901
 30
0.0
 40
3.5
 41
0.0
 71
     7
 72
     1
  1
67,78
  7
CONVERTER_11
 11
0.9999999999970619
 21
2.424068405545306E-6
 31
0.0
 73
     1
 44
0.60024009603842
  0
ENDBLK
  5
32D
330
325
100
AcDbEntity
  8
0
100
AcDbBlockEnd
  0
BLOCK
  5
337
330
330
100
AcDbEntity
  8
0
100
AcDbBlockBegin
  2
*D22
 70
     1
 10
0.0
 20
0.0
 30
0.0
  3
*D22
  1

  0
LINE
  5
331
330
330
100
AcDbEntity
  8
1
  6
Continuous
 62
     2
100
AcDbLine
 10
-151.8499985155829
 20
127.7499991703319
 30
0.0
 11
-151.8499985155829
 21
170.5499991703319
 31
0.0
  0
LINE
  5
332
330
330
100
AcDbEntity
  8
1
  6
Continuous
 62
     2
100
AcDbLine
 10
-107.1499985155828
 20
127.7499991703319
 30
0.0
 11
-153.3499985155829
 21
127.7499991703319
 31
0.0
  0
LINE
  5
333
330
330
100
AcDbEntity
  8
1
  6
Continuous
 62
     2
100
AcDbLine
 10
-123.7749985155829
 20
170.5499991703319
 30
0.0
 11
-153.3499985155829
 21
170.5499991703319
 31
0.0
  0
SOLID
  5
334
330
330
100
AcDbEntity
  8
1
 62
     2
100
AcDbTrace
 10
-152.3107822571388
 20
131.2499991703319
 30
0.0
 11
-151.389214774027
 21
131.2499991703319
 31
0.0
 12
-151.8499985155829
 22
127.7499991703319
 32
0.0
 13
-151.8499985155829
 23
127.7499991703319
 33
0.0
  0
SOLID
  5
335
330
330
100
AcDbEntity
  8
1
 62
     2
100
AcDbTrace
 10
-151.389214774027
 20
167.0499991703319
 30
0.0
 11
-152.3107822571388
 21
167.0499991703319
 31
0.0
 12
-151.8499985155829
 22
170.5499991703319
 32
0.0
 13
-151.8499985155829
 23
170.5499991703319
 33
0.0
  0
MTEXT
  5
336
330
330
100
AcDbEntity
  8
1
 62
     3
100
AcDbMText
 10
-153.6999985155829
 20
145.524701982646
 30
0.0
 40
3.5
 41
0.0
 71
     7
 72
     1
  1
42,8
  7
CONVERTER_11
 11
0.0
 21
1.0
 31
0.0
 73
     1
 44
0.60024009603842
  0
ENDBLK
  5
338
330
330
100
AcDbEntity
  8
0
100
AcDbBlockEnd
  0
BLOCK
  5
342
330
33B
100
AcDbEntity
  8
0
100
AcDbBlockBegin
  2
*D23
 70
     1
 10
0.0
 20
0.0
 30
0.0
  3
*D23
  1

  0
LINE
  5
33C
330
33B
100
AcDbEntity
  8
1
  6
Continuous
 62
     2
100
AcDbLine
 10
-159.8499985155829
 20
121.4499991703318
 30
0.0
 11
-159.8499985155829
 21
170.5499991703319
 31
0.0
  0
LINE
  5
33D
330
33B
100
AcDbEntity
  8
1
  6
Continuous
 62
     2
100
AcDbLine
 10
-138.4434766817085
 20
121.4499991703318
 30
0.0
 11
-161.3499985155829
 21
121.4499991703318
 31
0.0
  0
LINE
  5
33E
330
33B
100
AcDbEntity
  8
1
  6
Continuous
 62
     2
100
AcDbLine
 10
-123.7749985155829
 20
170.5499991703319
 30
0.0
 11
-161.3499985155829
 21
170.5499991703319
 31
0.0
  0
SOLID
  5
33F
330
33B
100
AcDbEntity
  8
1
 62
     2
100
AcDbTrace
 10
-160.3107822571388
 20
124.9499991703318
 30
0.0
 11
-159.389214774027
 21
124.9499991703318
 31
0.0
 12
-159.8499985155829
 22
121.4499991703318
 32
0.0
 13
-159.8499985155829
 23
121.4499991703318
 33
0.0
  0
SOLID
  5
340
330
33B
100
AcDbEntity
  8
1
 62
     2
100
AcDbTrace
 10
-159.389214774027
 20
167.0499991703319
 30
0.0
 11
-160.3107822571388
 21
167.0499991703319
 31
0.0
 12
-159.8499985155829
 22
170.5499991703319
 32
0.0
 13
-159.8499985155829
 23
170.5499991703319
 33
0.0
  0
MTEXT
  5
341
330
33B
100
AcDbEntity
  8
1
 62
     3
100
AcDbMText
 10
-161.6999985155829
 20
140.786847317566
 30
0.0
 40
3.5
 41
0.0
 71
     7
 72
     1
  1
49,1
  7
CONVERTER_11
 11
0.0
 21
1.0
 31
0.0
 73
     1
 44
0.60024009603842
  0
ENDBLK
  5
343
330
33B
100
AcDbEntity
  8
0
100
AcDbBlockEnd
  0
ENDSEC
  0
SECTION
  2
ENTITIES
  0
INSERT
  5
86
330
1F
100
AcDbEntity
  8
1
100
AcDbBlockReference
  2
1
 10
0.0
 20
0.0
 30
0.0
  0
ENDSEC
  0
SECTION
  2
OBJECTS
  0
DICTIONARY
  5
C
330
0
100
AcDbDictionary
281
     1
  3
ACAD_GROUP
350
D
  3
ACAD_LAYOUT
350
1A
  3
ACAD_MATERIAL
350
3B
  3
ACAD_MLEADERSTYLE
350
4A6
  3
ACAD_MLINESTYLE
350
17
  3
ACAD_PLOTSETTINGS
350
19
  3
ACAD_PLOTSTYLENAME
350
E
  3
ACAD_TABLESTYLE
350
4A5
  3
ACAD_VISUALSTYLE
350
2A
  0
DICTIONARY
  5
D
102
{ACAD_REACTORS
330
C
102
}
330
C
100
AcDbDictionary
281
     1
  0
DICTIONARY
  5
1A
102
{ACAD_REACTORS
330
C
102
}
330
C
100
AcDbDictionary
281
     1
  3
Layout1
350
1E
  3
Layout2
350
26
  3
Model
350
22
  0
DICTIONARY
  5
3B
102
{ACAD_REACTORS
330
C
102
}
330
C
100
AcDbDictionary
281
     1
  3
ByBlock
350
3D
  3
ByLayer
350
3C
  3
Global
350
3E
  0
DICTIONARY
  5
4A6
102
{ACAD_REACTORS
330
C
102
}
330
C
100
AcDbDictionary
281
     1
  0
DICTIONARY
  5
17
102
{ACAD_REACTORS
330
C
102
}
330
C
100
AcDbDictionary
281
     1
  3
Standard
350
18
  0
DICTIONARY
  5
19
102
{ACAD_REACTORS
330
C
102
}
330
C
100
AcDbDictionary
281
     1
  0
ACDBDICTIONARYWDFLT
  5
E
102
{ACAD_REACTORS
330
C
102
}
330
C
100
AcDbDictionary
281
     1
  3
Normal
350
F
100
AcDbDictionaryWithDefault
340
F
  0
DICTIONARY
  5
4A5
102
{ACAD_REACTORS
330
C
102
}
330
C
100
AcDbDictionary
281
     1
  0
DICTIONARY
  5
2A
102
{ACAD_REACTORS
330
C
102
}
330
C
100
AcDbDictionary
281
     1
  3
2dWireframe
350
2F
  3
3D Hidden
350
31
  3
3dWireframe
350
30
  3
Basic
350
32
  3
Brighten
350
36
  3
ColorChange
350
3A
  3
Conceptual
350
34
  3
Dim
350
35
  3
Facepattern
350
39
  3
Flat
350
2B
  3
FlatWithEdges
350
2C
  3
Gouraud
350
2D
  3
GouraudWithEdges
350
2E
  3
Linepattern
350
38
  3
Realistic
350
33
  3
Thicken
350
37
  0
LAYOUT
  5
1E
102
{ACAD_REACTORS
330
1A
102
}
330
1A
100
AcDbPlotSettings
  1

  2
none_device
  4

  6

 40
0.0
 41
0.0
 42
0.0
 43
0.0
 44
0.0
 45
0.0
 46
0.0
 47
0.0
 48
0.0
 49
0.0
140
0.0
141
0.0
142
1.0
143
1.0
 70
   688
 72
     0
 73
     0
 74
     5
  7

 75
    16
 76
     0
 77
     2
 78
   300
147
1.0
148
0.0
149
0.0
100
AcDbLayout
  1
Layout1
 70
     1
 71
     1
 10
0.0
 20
0.0
 11
12.0
 21
9.0
 12
0.0
 22
0.0
 32
0.0
 14
1.00000000000000E+20
 24
1.00000000000000E+20
 34
1.00000000000000E+20
 15
-1.00000000000000E+20
 25
-1.00000000000000E+20
 35
-1.00000000000000E+20
146
0.0
 13
0.0
 23
0.0
 33
0.0
 16
1.0
 26
0.0
 36
0.0
 17
0.0
 27
1.0
 37
0.0
 76
     0
330
1B
  0
LAYOUT
  5
26
102
{ACAD_REACTORS
330
1A
102
}
330
1A
100
AcDbPlotSettings
  1

  2
none_device
  4

  6

 40
0.0
 41
0.0
 42
0.0
 43
0.0
 44
0.0
 45
0.0
 46
0.0
 47
0.0
 48
0.0
 49
0.0
140
0.0
141
0.0
142
1.0
143
1.0
 70
   688
 72
     0
 73
     0
 74
     5
  7

 75
    16
 76
     0
 77
     2
 78
   300
147
1.0
148
0.0
149
0.0
100
AcDbLayout
  1
Layout2
 70
     1
 71
     2
 10
0.0
 20
0.0
 11
0.0
 21
0.0
 12
0.0
 22
0.0
 32
0.0
 14
0.0
 24
0.0
 34
0.0
 15
0.0
 25
0.0
 35
0.0
146
0.0
 13
0.0
 23
0.0
 33
0.0
 16
1.0
 26
0.0
 36
0.0
 17
0.0
 27
1.0
 37
0.0
 76
     0
330
23
  0
LAYOUT
  5
22
102
{ACAD_REACTORS
330
1A
102
}
330
1A
100
AcDbPlotSettings
  1

  2
none_device
  4

  6

 40
0.0
 41
0.0
 42
0.0
 43
0.0
 44
0.0
 45
0.0
 46
0.0
 47
0.0
 48
0.0
 49
0.0
140
0.0
141
0.0
142
1.0
143
1.0
 70
  1712
 72
     0
 73
     0
 74
     0
  7

 75
     0
 76
     0
 77
     2
 78
   300
147
1.0
148
0.0
149
0.0
100
AcDbLayout
  1
Model
 70
     1
 71
     0
 10
0.0
 20
0.0
 11
12.0
 21
9.0
 12
0.0
 22
0.0
 32
0.0
 14
-216.0937507165774
 24
-8.6901691681943
 34
0.0
 15
80.90624928342066
 25
201.3098308318058
 35
0.0
146
0.0
 13
0.0
 23
0.0
 33
0.0
 16
1.0
 26
0.0
 36
0.0
 17
0.0
 27
1.0
 37
0.0
 76
     0
330
1F
331
29
  0
MATERIAL
  5
3D
102
{ACAD_REACTORS
330
3B
102
}
102
{ACAD_XDICTIONARY
360
4A1
102
}
330
3B
100
AcDbMaterial
  1
ByBlock
  0
MATERIAL
  5
3C
102
{ACAD_REACTORS
330
3B
102
}
102
{ACAD_XDICTIONARY
360
49F
102
}
330
3B
100
AcDbMaterial
  1
ByLayer
  0
MATERIAL
  5
3E
102
{ACAD_REACTORS
330
3B
102
}
102
{ACAD_XDICTIONARY
360
4A3
102
}
330
3B
100
AcDbMaterial
  1
Global
  0
MLINESTYLE
  5
18
102
{ACAD_REACTORS
330
17
102
}
330
17
100
AcDbMlineStyle
  2
Standard
 70
     0
  3

 62
   256
 51
90.0
 52
90.0
 71
     2
 49
0.5
 62
   256
  6
BYLAYER
 49
-0.5
 62
   256
  6
BYLAYER
  0
ACDBPLACEHOLDER
  5
F
102
{ACAD_REACTORS
330
E
102
}
330
E
  0
VISUALSTYLE
  5
2F
102
{ACAD_REACTORS
330
2A
102
}
102
{ACAD_XDICTIONARY
360
487
102
}
330
2A
100
AcDbVisualStyle
  2
2dWireframe
 70
     4
 71
     0
 72
     2
 73
     0
 90
        0
 40
-0.6
 41
-30.0
 62
     5
 63
     7
421
 16777215
 74
     1
 91
        4
 64
     7
 65
   257
 75
     1
175
     1
 42
1.0
 92
        0
 66
   257
 43
1.0
 76
     1
 77
     6
 78
     2
 67
     7
 79
     5
170
     0
171
     0
290
     0
174
     0
 93
        1
 44
0.0
173
     0
291
     0
 45
0.0
1001
ACAD
1000
AcDbSavedByObjectVersion
1070
     0
  0
VISUALSTYLE
  5
31
102
{ACAD_REACTORS
330
2A
102
}
102
{ACAD_XDICTIONARY
360
48B
102
}
330
2A
100
AcDbVisualStyle
  2
3D Hidden
 70
     6
 71
     1
 72
     2
 73
     2
 90
        0
 40
-0.6
 41
-30.0
 62
     5
 63
     7
421
 16777215
 74
     2
 91
        2
 64
     7
 65
   257
 75
     2
175
     1
 42
40.0
 92
        0
 66
   257
 43
1.0
 76
     1
 77
     6
 78
     2
 67
     7
 79
     3
170
     0
171
     0
290
     0
174
     0
 93
        1
 44
0.0
173
     0
291
     0
 45
0.0
1001
ACAD
1000
AcDbSavedByObjectVersion
1070
     0
  0
VISUALSTYLE
  5
30
102
{ACAD_REACTORS
330
2A
102
}
102
{ACAD_XDICTIONARY
360
489
102
}
330
2A
100
AcDbVisualStyle
  2
3dWireframe
 70
     5
 71
     0
 72
     2
 73
     0
 90
        0
 40
-0.6
 41
-30.0
 62
     5
 63
     7
421
 16777215
 74
     1
 91
        4
 64
     7
 65
   257
 75
     1
175
     1
 42
1.0
 92
        0
 66
   257
 43
1.0
 76
     1
 77
     6
 78
     2
 67
     7
 79
     5
170
     0
171
     0
290
     0
174
     0
 93
        1
 44
0.0
173
     0
291
     0
 45
0.0
1001
ACAD
1000
AcDbSavedByObjectVersion
1070
     0
  0
VISUALSTYLE
  5
32
102
{ACAD_REACTORS
330
2A
102
}
102
{ACAD_XDICTIONARY
360
48D
102
}
330
2A
100
AcDbVisualStyle
  2
Basic
 70
     7
 71
     1
 72
     0
 73
     1
 90
        0
 40
-0.6
 41
-30.0
 62
     5
 63
     7
421
 16777215
 74
     0
 91
        4
 64
     7
 65
   257
 75
     1
175
     1
 42
1.0
 92
        8
 66
     7
 43
1.0
 76
     1
 77
     6
 78
     2
 67
     7
 79
     5
170
     0
171
     0
290
     0
174
     0
 93
        1
 44
0.0
173
     0
291
     1
 45
0.0
1001
ACAD
1000
AcDbSavedByObjectVersion
1070
     0
  0
VISUALSTYLE
  5
36
102
{ACAD_REACTORS
330
2A
102
}
102
{ACAD_XDICTIONARY
360
495
102
}
330
2A
100
AcDbVisualStyle
  2
Brighten
 70
    12
 71
     2
 72
     2
 73
     0
 90
        0
 40
-0.6
 41
-30.0
 62
     5
 63
     7
421
 16777215
 74
     1
 91
        4
 64
     7
 65
   257
 75
     1
175
     1
 42
1.0
 92
        8
 66
     7
 43
1.0
 76
     1
 77
     6
 78
     2
 67
     7
 79
     5
170
     0
171
     0
290
     0
174
     0
 93
        1
 44
50.0
173
     0
291
     1
 45
0.0
1001
ACAD
1000
AcDbSavedByObjectVersion
1070
     0
  0
VISUALSTYLE
  5
3A
102
{ACAD_REACTORS
330
2A
102
}
102
{ACAD_XDICTIONARY
360
49D
102
}
330
2A
100
AcDbVisualStyle
  2
ColorChange
 70
    16
 71
     2
 72
     2
 73
     3
 90
        0
 40
-0.6
 41
-30.0
 62
     5
 63
     8
421
  8421504
 74
     1
 91
        4
 64
     7
 65
   257
 75
     1
175
     1
 42
1.0
 92
        8
 66
     8
424
  8421504
 43
1.0
 76
     1
 77
     6
 78
     2
 67
     7
 79
     5
170
     0
171
     0
290
     0
174
     0
 93
        1
 44
0.0
173
     0
291
     1
 45
0.0
1001
ACAD
1000
AcDbSavedByObjectVersion
1070
     0
  0
VISUALSTYLE
  5
34
102
{ACAD_REACTORS
330
2A
102
}
102
{ACAD_XDICTIONARY
360
491
102
}
330
2A
100
AcDbVisualStyle
  2
Conceptual
 70
     9
 71
     3
 72
     2
 73
     0
 90
        0
 40
-0.6
 41
-30.0
 62
     5
 63
     7
421
 16777215
 74
     2
 91
        2
 64
     7
 65
   257
 75
     1
175
     1
 42
40.0
 92
        8
 66
     7
 43
1.0
 76
     1
 77
     6
 78
     2
 67
     7
 79
     3
170
     0
171
     0
290
     0
174
     0
 93
        1
 44
0.0
173
     0
291
     0
 45
0.0
1001
ACAD
1000
AcDbSavedByObjectVersion
1070
     0
  0
VISUALSTYLE
  5
35
102
{ACAD_REACTORS
330
2A
102
}
102
{ACAD_XDICTIONARY
360
493
102
}
330
2A
100
AcDbVisualStyle
  2
Dim
 70
    11
 71
     2
 72
     2
 73
     0
 90
        0
 40
-0.6
 41
-30.0
 62
     5
 63
     7
421
 16777215
 74
     1
 91
        4
 64
     7
 65
   257
 75
     1
175
     1
 42
1.0
 92
        8
 66
     7
 43
1.0
 76
     1
 77
     6
 78
     2
 67
     7
 79
     5
170
     0
171
     0
290
     0
174
     0
 93
        1
 44
-50.0
173
     0
291
     1
 45
0.0
1001
ACAD
1000
AcDbSavedByObjectVersion
1070
     0
  0
VISUALSTYLE
  5
39
102
{ACAD_REACTORS
330
2A
102
}
102
{ACAD_XDICTIONARY
360
49B
102
}
330
2A
100
AcDbVisualStyle
  2
Facepattern
 70
    15
 71
     2
 72
     2
 73
     0
 90
        0
 40
-0.6
 41
-30.0
 62
     5
 63
     7
421
 16777215
 74
     1
 91
        4
 64
     7
 65
   257
 75
     1
175
     1
 42
1.0
 92
        8
 66
     7
 43
1.0
 76
     1
 77
     6
 78
     2
 67
     7
 79
     5
170
     0
171
     0
290
     0
174
     0
 93
        1
 44
0.0
173
     0
291
     1
 45
0.0
1001
ACAD
1000
AcDbSavedByObjectVersion
1070
     0
  0
VISUALSTYLE
  5
2B
102
{ACAD_REACTORS
330
2A
102
}
102
{ACAD_XDICTIONARY
360
47F
102
}
330
2A
100
AcDbVisualStyle
  2
Flat
 70
     0
 71
     2
 72
     1
 73
     1
 90
        2
 40
-0.6
 41
30.0
 62
     5
 63
     7
421
 16777215
 74
     0
 91
        4
 64
     7
 65
   257
 75
     1
175
     1
 42
1.0
 92
        8
 66
     7
 43
1.0
 76
     1
 77
     6
 78
     2
 67
     7
 79
     5
170
     0
171
     0
290
     0
174
     0
 93
       13
 44
0.0
173
     0
291
     1
 45
0.0
1001
ACAD
1000
AcDbSavedByObjectVersion
1070
     0
  0
VISUALSTYLE
  5
2C
102
{ACAD_REACTORS
330
2A
102
}
102
{ACAD_XDICTIONARY
360
481
102
}
330
2A
100
AcDbVisualStyle
  2
FlatWithEdges
 70
     1
 71
     2
 72
     1
 73
     1
 90
        2
 40
-0.6
 41
30.0
 62
     5
 63
     7
421
 16777215
 74
     1
 91
        4
 64
     7
 65
   257
 75
     1
175
     1
 42
1.0
 92
        0
 66
   257
 43
1.0
 76
     1
 77
     6
 78
     2
 67
     7
 79
     5
170
     0
171
     0
290
     0
174
     0
 93
       13
 44
0.0
173
     0
291
     1
 45
0.0
1001
ACAD
1000
AcDbSavedByObjectVersion
1070
     0
  0
VISUALSTYLE
  5
2D
102
{ACAD_REACTORS
330
2A
102
}
102
{ACAD_XDICTIONARY
360
483
102
}
330
2A
100
AcDbVisualStyle
  2
Gouraud
 70
     2
 71
     2
 72
     2
 73
     1
 90
        2
 40
-0.6
 41
30.0
 62
     5
 63
     7
421
 16777215
 74
     0
 91
        4
 64
     7
 65
   257
 75
     1
175
     1
 42
1.0
 92
        0
 66
     7
 43
1.0
 76
     1
 77
     6
 78
     2
 67
     7
 79
     5
170
     0
171
     0
290
     0
174
     0
 93
       13
 44
0.0
173
     0
291
     1
 45
0.0
1001
ACAD
1000
AcDbSavedByObjectVersion
1070
     0
  0
VISUALSTYLE
  5
2E
102
{ACAD_REACTORS
330
2A
102
}
102
{ACAD_XDICTIONARY
360
485
102
}
330
2A
100
AcDbVisualStyle
  2
GouraudWithEdges
 70
     3
 71
     2
 72
     2
 73
     1
 90
        2
 40
-0.6
 41
30.0
 62
     5
 63
     7
421
 16777215
 74
     1
 91
        4
 64
     7
 65
   257
 75
     1
175
     1
 42
1.0
 92
        0
 66
   257
 43
1.0
 76
     1
 77
     6
 78
     2
 67
     7
 79
     5
170
     0
171
     0
290
     0
174
     0
 93
       13
 44
0.0
173
     0
291
     1
 45
0.0
1001
ACAD
1000
AcDbSavedByObjectVersion
1070
     0
  0
VISUALSTYLE
  5
38
102
{ACAD_REACTORS
330
2A
102
}
102
{ACAD_XDICTIONARY
360
499
102
}
330
2A
100
AcDbVisualStyle
  2
Linepattern
 70
    14
 71
     2
 72
     2
 73
     0
 90
        0
 40
-0.6
 41
-30.0
 62
     5
 63
     7
421
 16777215
 74
     1
 91
        4
 64
     7
 65
   257
 75
     7
175
     7
 42
1.0
 92
        8
 66
     7
 43
1.0
 76
     1
 77
     6
 78
     2
 67
     7
 79
     5
170
     0
171
     0
290
     0
174
     0
 93
        1
 44
0.0
173
     0
291
     1
 45
0.0
1001
ACAD
1000
AcDbSavedByObjectVersion
1070
     0
  0
VISUALSTYLE
  5
33
102
{ACAD_REACTORS
330
2A
102
}
102
{ACAD_XDICTIONARY
360
48F
102
}
330
2A
100
AcDbVisualStyle
  2
Realistic
 70
     8
 71
     2
 72
     2
 73
     0
 90
        0
 40
-0.6
 41
-30.0
 62
     5
 63
     7
421
 16777215
 74
     1
 91
        0
 64
     7
 65
   257
 75
     1
175
     1
 42
1.0
 92
        8
 66
     8
424
  7895160
 43
1.0
 76
     1
 77
     6
 78
     2
 67
     7
 79
     5
170
     0
171
     0
290
     0
174
     0
 93
       13
 44
0.0
173
     0
291
     0
 45
0.0
1001
ACAD
1000
AcDbSavedByObjectVersion
1070
     0
  0
VISUALSTYLE
  5
37
102
{ACAD_REACTORS
330
2A
102
}
102
{ACAD_XDICTIONARY
360
497
102
}
330
2A
100
AcDbVisualStyle
  2
Thicken
 70
    13
 71
     2
 72
     2
 73
     0
 90
        0
 40
-0.6
 41
-30.0
 62
     5
 63
     7
421
 16777215
 74
     1
 91
        4
 64
     7
 65
   257
 75
     1
175
     1
 42
1.0
 92
       12
 66
     7
 43
1.0
 76
     1
 77
     6
 78
     2
 67
     7
 79
     5
170
     0
171
     0
290
     0
174
     0
 93
        1
 44
0.0
173
     0
291
     1
 45
0.0
1001
ACAD
1000
AcDbSavedByObjectVersion
1070
     0
  0
DICTIONARY
  5
4A1
330
3D
100
AcDbDictionary
280
     1
281
     1
  3
ACAD_XREC_ROUNDTRIP
360
4A2
  0
DICTIONARY
  5
49F
330
3C
100
AcDbDictionary
280
     1
281
     1
  3
ACAD_XREC_ROUNDTRIP
360
4A0
  0
DICTIONARY
  5
4A3
330
3E
100
AcDbDictionary
280
     1
281
     1
  3
ACAD_XREC_ROUNDTRIP
360
4A4
  0
DICTIONARY
  5
487
330
2F
100
AcDbDictionary
280
     1
281
     1
  3
ACAD_XREC_ROUNDTRIP
360
488
  0
DICTIONARY
  5
48B
330
31
100
AcDbDictionary
280
     1
281
     1
  3
ACAD_XREC_ROUNDTRIP
360
48C
  0
DICTIONARY
  5
489
330
30
100
AcDbDictionary
280
     1
281
     1
  3
ACAD_XREC_ROUNDTRIP
360
48A
  0
DICTIONARY
  5
48D
330
32
100
AcDbDictionary
280
     1
281
     1
  3
ACAD_XREC_ROUNDTRIP
360
48E
  0
DICTIONARY
  5
495
330
36
100
AcDbDictionary
280
     1
281
     1
  3
ACAD_XREC_ROUNDTRIP
360
496
  0
DICTIONARY
  5
49D
330
3A
100
AcDbDictionary
280
     1
281
     1
  3
ACAD_XREC_ROUNDTRIP
360
49E
  0
DICTIONARY
  5
491
330
34
100
AcDbDictionary
280
     1
281
     1
  3
ACAD_XREC_ROUNDTRIP
360
492
  0
DICTIONARY
  5
493
330
35
100
AcDbDictionary
280
     1
281
     1
  3
ACAD_XREC_ROUNDTRIP
360
494
  0
DICTIONARY
  5
49B
330
39
100
AcDbDictionary
280
     1
281
     1
  3
ACAD_XREC_ROUNDTRIP
360
49C
  0
DICTIONARY
  5
47F
330
2B
100
AcDbDictionary
280
     1
281
     1
  3
ACAD_XREC_ROUNDTRIP
360
480
  0
DICTIONARY
  5
481
330
2C
100
AcDbDictionary
280
     1
281
     1
  3
ACAD_XREC_ROUNDTRIP
360
482
  0
DICTIONARY
  5
483
330
2D
100
AcDbDictionary
280
     1
281
     1
  3
ACAD_XREC_ROUNDTRIP
360
484
  0
DICTIONARY
  5
485
330
2E
100
AcDbDictionary
280
     1
281
     1
  3
ACAD_XREC_ROUNDTRIP
360
486
  0
DICTIONARY
  5
499
330
38
100
AcDbDictionary
280
     1
281
     1
  3
ACAD_XREC_ROUNDTRIP
360
49A
  0
DICTIONARY
  5
48F
330
33
100
AcDbDictionary
280
     1
281
     1
  3
ACAD_XREC_ROUNDTRIP
360
490
  0
DICTIONARY
  5
497
330
37
100
AcDbDictionary
280
     1
281
     1
  3
ACAD_XREC_ROUNDTRIP
360
498
  0
XRECORD
  5
4A2
102
{ACAD_REACTORS
330
4A1
102
}
330
4A1
100
AcDbXrecord
280
     1
102
MATERIAL
148
0.0
149
0.0
149
0.0
 93
        0
 94
      127
282
     0
 72
     1
 77
     1
171
     1
175
     1
179
     1
273
     0
  0
XRECORD
  5
4A0
102
{ACAD_REACTORS
330
49F
102
}
330
49F
100
AcDbXrecord
280
     1
102
MATERIAL
148
0.0
149
0.0
149
0.0
 93
        0
 94
      127
282
     0
 72
     1
 77
     1
171
     1
175
     1
179
     1
273
     0
  0
XRECORD
  5
4A4
102
{ACAD_REACTORS
330
4A3
102
}
330
4A3
100
AcDbXrecord
280
     1
102
MATERIAL
148
0.0
149
0.0
149
0.0
 93
        0
 94
      127
282
     0
 72
     1
 77
     1
171
     1
175
     1
179
     1
273
     0
  0
XRECORD
  5
488
102
{ACAD_REACTORS
330
487
102
}
330
487
100
AcDbXrecord
280
     1
102
RTVSPropertyOp0
 70
     1
102
RTVSPropertyOp1
 70
     1
102
RTVSPropertyOp2
 70
     1
102
RTVSPropertyOp3
 70
     1
102
RTVSPropertyOp4
 70
     1
102
RTVSPropertyOp5
 70
     1
102
RTVSPropertyOp6
 70
     1
102
RTVSPropertyOp7
 70
     1
102
RTVSPropertyOp8
 70
     1
102
RTVSPropertyOp9
 70
     1
102
RTVSPropertyOp10
 70
     1
102
RTVSPropertyOp11
 70
     1
102
RTVSPropertyOp12
 70
     1
102
RTVSPropertyOp13
 70
     1
102
RTVSPropertyOp14
 70
     1
102
RTVSPropertyOp15
 70
     1
102
RTVSPropertyOp16
 70
     1
102
RTVSPropertyOp17
 70
     1
102
RTVSPropertyOp18
 70
     1
102
RTVSPropertyOp19
 70
     1
102
RTVSPropertyOp20
 70
     1
102
RTVSPropertyOp21
 70
     1
102
RTVSPropertyOp22
 70
     1
102
RTVSPropertyOp23
 70
     1
102
RTVSPropertyOp24
 70
     1
102
RTVSPropertyOp25
 70
     1
102
RTVSPropertyOp26
 70
     1
102
RTVSPropertyOp27
 70
     1
102
RTVSPropertyOp28
 70
     1
102
RTVSPropertyOp29
 70
     1
102
RTVSPropertyOp30
 70
     1
102
RTVSPropertyOp31
 70
     1
102
RTVSPropertyOp32
 70
     1
  0
XRECORD
  5
48C
102
{ACAD_REACTORS
330
48B
102
}
330
48B
100
AcDbXrecord
280
     1
102
RTVSPropertyOp0
 70
     1
102
RTVSPropertyOp1
 70
     1
102
RTVSPropertyOp2
 70
     1
102
RTVSPropertyOp3
 70
     1
102
RTVSPropertyOp4
 70
     1
102
RTVSPropertyOp5
 70
     1
102
RTVSPropertyOp6
 70
     1
102
RTVSPropertyOp7
 70
     1
102
RTVSPropertyOp8
 70
     1
102
RTVSPropertyOp9
 70
     1
102
RTVSPropertyOp10
 70
     1
102
RTVSPropertyOp11
 70
     1
102
RTVSPropertyOp12
 70
     1
102
RTVSPropertyOp13
 70
     1
102
RTVSPropertyOp14
 70
     1
102
RTVSPropertyOp15
 70
     1
102
RTVSPropertyOp16
 70
     1
102
RTVSPropertyOp17
 70
     1
102
RTVSPropertyOp18
 70
     1
102
RTVSPropertyOp19
 70
     1
102
RTVSPropertyOp20
 70
     1
102
RTVSPropertyOp21
 70
     1
102
RTVSPropertyOp22
 70
     1
102
RTVSPropertyOp23
 70
     1
102
RTVSPropertyOp24
 70
     1
102
RTVSPropertyOp25
 70
     1
102
RTVSPropertyOp26
 70
     1
102
RTVSPropertyOp27
 70
     1
102
RTVSPropertyOp28
 70
     1
102
RTVSPropertyOp29
 70
     1
102
RTVSPropertyOp30
 70
     1
102
RTVSPropertyOp31
 70
     1
102
RTVSPropertyOp32
 70
     1
  0
XRECORD
  5
48A
102
{ACAD_REACTORS
330
489
102
}
330
489
100
AcDbXrecord
280
     1
102
RTVSPropertyOp0
 70
     1
102
RTVSPropertyOp1
 70
     1
102
RTVSPropertyOp2
 70
     1
102
RTVSPropertyOp3
 70
     1
102
RTVSPropertyOp4
 70
     1
102
RTVSPropertyOp5
 70
     1
102
RTVSPropertyOp6
 70
     1
102
RTVSPropertyOp7
 70
     1
102
RTVSPropertyOp8
 70
     1
102
RTVSPropertyOp9
 70
     1
102
RTVSPropertyOp10
 70
     1
102
RTVSPropertyOp11
 70
     1
102
RTVSPropertyOp12
 70
     1
102
RTVSPropertyOp13
 70
     1
102
RTVSPropertyOp14
 70
     1
102
RTVSPropertyOp15
 70
     1
102
RTVSPropertyOp16
 70
     1
102
RTVSPropertyOp17
 70
     1
102
RTVSPropertyOp18
 70
     1
102
RTVSPropertyOp19
 70
     1
102
RTVSPropertyOp20
 70
     1
102
RTVSPropertyOp21
 70
     1
102
RTVSPropertyOp22
 70
     1
102
RTVSPropertyOp23
 70
     1
102
RTVSPropertyOp24
 70
     1
102
RTVSPropertyOp25
 70
     1
102
RTVSPropertyOp26
 70
     1
102
RTVSPropertyOp27
 70
     1
102
RTVSPropertyOp28
 70
     1
102
RTVSPropertyOp29
 70
     1
102
RTVSPropertyOp30
 70
     1
102
RTVSPropertyOp31
 70
     1
102
RTVSPropertyOp32
 70
     1
  0
XRECORD
  5
48E
102
{ACAD_REACTORS
330
48D
102
}
330
48D
100
AcDbXrecord
280
     1
102
RTVSPropertyOp0
 70
     1
102
RTVSPropertyOp1
 70
     1
102
RTVSPropertyOp2
 70
     1
102
RTVSPropertyOp3
 70
     1
102
RTVSPropertyOp4
 70
     1
102
RTVSPropertyOp5
 70
     1
102
RTVSPropertyOp6
 70
     1
102
RTVSPropertyOp7
 70
     1
102
RTVSPropertyOp8
 70
     1
102
RTVSPropertyOp9
 70
     1
102
RTVSPropertyOp10
 70
     1
102
RTVSPropertyOp11
 70
     1
102
RTVSPropertyOp12
 70
     1
102
RTVSPropertyOp13
 70
     1
102
RTVSPropertyOp14
 70
     1
102
RTVSPropertyOp15
 70
     1
102
RTVSPropertyOp16
 70
     1
102
RTVSPropertyOp17
 70
     1
102
RTVSPropertyOp18
 70
     1
102
RTVSPropertyOp19
 70
     1
102
RTVSPropertyOp20
 70
     1
102
RTVSPropertyOp21
 70
     1
102
RTVSPropertyOp22
 70
     1
102
RTVSPropertyOp23
 70
     1
102
RTVSPropertyOp24
 70
     1
102
RTVSPropertyOp25
 70
     1
102
RTVSPropertyOp26
 70
     1
102
RTVSPropertyOp27
 70
     1
102
RTVSPropertyOp28
 70
     1
102
RTVSPropertyOp29
 70
     1
102
RTVSPropertyOp30
 70
     1
102
RTVSPropertyOp31
 70
     1
102
RTVSPropertyOp32
 70
     1
  0
XRECORD
  5
496
102
{ACAD_REACTORS
330
495
102
}
330
495
100
AcDbXrecord
280
     1
102
RTVSPropertyOp0
 70
     1
102
RTVSPropertyOp1
 70
     1
102
RTVSPropertyOp2
 70
     1
102
RTVSPropertyOp3
 70
     1
102
RTVSPropertyOp4
 70
     1
102
RTVSPropertyOp5
 70
     1
102
RTVSPropertyOp6
 70
     1
102
RTVSPropertyOp7
 70
     1
102
RTVSPropertyOp8
 70
     1
102
RTVSPropertyOp9
 70
     1
102
RTVSPropertyOp10
 70
     1
102
RTVSPropertyOp11
 70
     1
102
RTVSPropertyOp12
 70
     1
102
RTVSPropertyOp13
 70
     1
102
RTVSPropertyOp14
 70
     1
102
RTVSPropertyOp15
 70
     1
102
RTVSPropertyOp16
 70
     1
102
RTVSPropertyOp17
 70
     1
102
RTVSPropertyOp18
 70
     1
102
RTVSPropertyOp19
 70
     1
102
RTVSPropertyOp20
 70
     1
102
RTVSPropertyOp21
 70
     1
102
RTVSPropertyOp22
 70
     1
102
RTVSPropertyOp23
 70
     1
102
RTVSPropertyOp24
 70
     1
102
RTVSPropertyOp25
 70
     1
102
RTVSPropertyOp26
 70
     1
102
RTVSPropertyOp27
 70
     1
102
RTVSPropertyOp28
 70
     1
102
RTVSPropertyOp29
 70
     1
102
RTVSPropertyOp30
 70
     1
102
RTVSPropertyOp31
 70
     1
102
RTVSPropertyOp32
 70
     1
  0
XRECORD
  5
49E
102
{ACAD_REACTORS
330
49D
102
}
330
49D
100
AcDbXrecord
280
     1
102
RTVSPropertyOp0
 70
     1
102
RTVSPropertyOp1
 70
     1
102
RTVSPropertyOp2
 70
     1
102
RTVSPropertyOp3
 70
     1
102
RTVSPropertyOp4
 70
     1
102
RTVSPropertyOp5
 70
     1
102
RTVSPropertyOp6
 70
     1
102
RTVSPropertyOp7
 70
     1
102
RTVSPropertyOp8
 70
     1
102
RTVSPropertyOp9
 70
     1
102
RTVSPropertyOp10
 70
     1
102
RTVSPropertyOp11
 70
     1
102
RTVSPropertyOp12
 70
     1
102
RTVSPropertyOp13
 70
     1
102
RTVSPropertyOp14
 70
     1
102
RTVSPropertyOp15
 70
     1
102
RTVSPropertyOp16
 70
     1
102
RTVSPropertyOp17
 70
     1
102
RTVSPropertyOp18
 70
     1
102
RTVSPropertyOp19
 70
     1
102
RTVSPropertyOp20
 70
     1
102
RTVSPropertyOp21
 70
     1
102
RTVSPropertyOp22
 70
     1
102
RTVSPropertyOp23
 70
     1
102
RTVSPropertyOp24
 70
     1
102
RTVSPropertyOp25
 70
     1
102
RTVSPropertyOp26
 70
     1
102
RTVSPropertyOp27
 70
     1
102
RTVSPropertyOp28
 70
     1
102
RTVSPropertyOp29
 70
     1
102
RTVSPropertyOp30
 70
     1
102
RTVSPropertyOp31
 70
     1
102
RTVSPropertyOp32
 70
     1
  0
XRECORD
  5
492
102
{ACAD_REACTORS
330
491
102
}
330
491
100
AcDbXrecord
280
     1
102
RTVSPropertyOp0
 70
     1
102
RTVSPropertyOp1
 70
     1
102
RTVSPropertyOp2
 70
     1
102
RTVSPropertyOp3
 70
     1
102
RTVSPropertyOp4
 70
     1
102
RTVSPropertyOp5
 70
     1
102
RTVSPropertyOp6
 70
     1
102
RTVSPropertyOp7
 70
     1
102
RTVSPropertyOp8
 70
     1
102
RTVSPropertyOp9
 70
     1
102
RTVSPropertyOp10
 70
     1
102
RTVSPropertyOp11
 70
     1
102
RTVSPropertyOp12
 70
     1
102
RTVSPropertyOp13
 70
     1
102
RTVSPropertyOp14
 70
     1
102
RTVSPropertyOp15
 70
     1
102
RTVSPropertyOp16
 70
     1
102
RTVSPropertyOp17
 70
     1
102
RTVSPropertyOp18
 70
     1
102
RTVSPropertyOp19
 70
     1
102
RTVSPropertyOp20
 70
     1
102
RTVSPropertyOp21
 70
     1
102
RTVSPropertyOp22
 70
     1
102
RTVSPropertyOp23
 70
     1
102
RTVSPropertyOp24
 70
     1
102
RTVSPropertyOp25
 70
     1
102
RTVSPropertyOp26
 70
     1
102
RTVSPropertyOp27
 70
     1
102
RTVSPropertyOp28
 70
     1
102
RTVSPropertyOp29
 70
     1
102
RTVSPropertyOp30
 70
     1
102
RTVSPropertyOp31
 70
     1
102
RTVSPropertyOp32
 70
     1
  0
XRECORD
  5
494
102
{ACAD_REACTORS
330
493
102
}
330
493
100
AcDbXrecord
280
     1
102
RTVSPropertyOp0
 70
     1
102
RTVSPropertyOp1
 70
     1
102
RTVSPropertyOp2
 70
     1
102
RTVSPropertyOp3
 70
     1
102
RTVSPropertyOp4
 70
     1
102
RTVSPropertyOp5
 70
     1
102
RTVSPropertyOp6
 70
     1
102
RTVSPropertyOp7
 70
     1
102
RTVSPropertyOp8
 70
     1
102
RTVSPropertyOp9
 70
     1
102
RTVSPropertyOp10
 70
     1
102
RTVSPropertyOp11
 70
     1
102
RTVSPropertyOp12
 70
     1
102
RTVSPropertyOp13
 70
     1
102
RTVSPropertyOp14
 70
     1
102
RTVSPropertyOp15
 70
     1
102
RTVSPropertyOp16
 70
     1
102
RTVSPropertyOp17
 70
     1
102
RTVSPropertyOp18
 70
     1
102
RTVSPropertyOp19
 70
     1
102
RTVSPropertyOp20
 70
     1
102
RTVSPropertyOp21
 70
     1
102
RTVSPropertyOp22
 70
     1
102
RTVSPropertyOp23
 70
     1
102
RTVSPropertyOp24
 70
     1
102
RTVSPropertyOp25
 70
     1
102
RTVSPropertyOp26
 70
     1
102
RTVSPropertyOp27
 70
     1
102
RTVSPropertyOp28
 70
     1
102
RTVSPropertyOp29
 70
     1
102
RTVSPropertyOp30
 70
     1
102
RTVSPropertyOp31
 70
     1
102
RTVSPropertyOp32
 70
     1
  0
XRECORD
  5
49C
102
{ACAD_REACTORS
330
49B
102
}
330
49B
100
AcDbXrecord
280
     1
102
RTVSPropertyOp0
 70
     1
102
RTVSPropertyOp1
 70
     1
102
RTVSPropertyOp2
 70
     1
102
RTVSPropertyOp3
 70
     1
102
RTVSPropertyOp4
 70
     1
102
RTVSPropertyOp5
 70
     1
102
RTVSPropertyOp6
 70
     1
102
RTVSPropertyOp7
 70
     1
102
RTVSPropertyOp8
 70
     1
102
RTVSPropertyOp9
 70
     1
102
RTVSPropertyOp10
 70
     1
102
RTVSPropertyOp11
 70
     1
102
RTVSPropertyOp12
 70
     1
102
RTVSPropertyOp13
 70
     1
102
RTVSPropertyOp14
 70
     1
102
RTVSPropertyOp15
 70
     1
102
RTVSPropertyOp16
 70
     1
102
RTVSPropertyOp17
 70
     1
102
RTVSPropertyOp18
 70
     1
102
RTVSPropertyOp19
 70
     1
102
RTVSPropertyOp20
 70
     1
102
RTVSPropertyOp21
 70
     1
102
RTVSPropertyOp22
 70
     1
102
RTVSPropertyOp23
 70
     1
102
RTVSPropertyOp24
 70
     1
102
RTVSPropertyOp25
 70
     1
102
RTVSPropertyOp26
 70
     1
102
RTVSPropertyOp27
 70
     1
102
RTVSPropertyOp28
 70
     1
102
RTVSPropertyOp29
 70
     1
102
RTVSPropertyOp30
 70
     1
102
RTVSPropertyOp31
 70
     1
102
RTVSPropertyOp32
 70
     1
  0
XRECORD
  5
480
102
{ACAD_REACTORS
330
47F
102
}
330
47F
100
AcDbXrecord
280
     1
102
RTVSPropertyOp0
 70
     1
102
RTVSPropertyOp1
 70
     1
102
RTVSPropertyOp2
 70
     1
102
RTVSPropertyOp3
 70
     1
102
RTVSPropertyOp4
 70
     1
102
RTVSPropertyOp5
 70
     1
102
RTVSPropertyOp6
 70
     1
102
RTVSPropertyOp7
 70
     1
102
RTVSPropertyOp8
 70
     1
102
RTVSPropertyOp9
 70
     1
102
RTVSPropertyOp10
 70
     1
102
RTVSPropertyOp11
 70
     1
102
RTVSPropertyOp12
 70
     1
102
RTVSPropertyOp13
 70
     1
102
RTVSPropertyOp14
 70
     1
102
RTVSPropertyOp15
 70
     1
102
RTVSPropertyOp16
 70
     1
102
RTVSPropertyOp17
 70
     1
102
RTVSPropertyOp18
 70
     1
102
RTVSPropertyOp19
 70
     1
102
RTVSPropertyOp20
 70
     1
102
RTVSPropertyOp21
 70
     1
102
RTVSPropertyOp22
 70
     1
102
RTVSPropertyOp23
 70
     1
102
RTVSPropertyOp24
 70
     1
102
RTVSPropertyOp25
 70
     1
102
RTVSPropertyOp26
 70
     1
102
RTVSPropertyOp27
 70
     1
102
RTVSPropertyOp28
 70
     1
102
RTVSPropertyOp29
 70
     1
102
RTVSPropertyOp30
 70
     1
102
RTVSPropertyOp31
 70
     1
102
RTVSPropertyOp32
 70
     1
  0
XRECORD
  5
482
102
{ACAD_REACTORS
330
481
102
}
330
481
100
AcDbXrecord
280
     1
102
RTVSPropertyOp0
 70
     1
102
RTVSPropertyOp1
 70
     1
102
RTVSPropertyOp2
 70
     1
102
RTVSPropertyOp3
 70
     1
102
RTVSPropertyOp4
 70
     1
102
RTVSPropertyOp5
 70
     1
102
RTVSPropertyOp6
 70
     1
102
RTVSPropertyOp7
 70
     1
102
RTVSPropertyOp8
 70
     1
102
RTVSPropertyOp9
 70
     1
102
RTVSPropertyOp10
 70
     1
102
RTVSPropertyOp11
 70
     1
102
RTVSPropertyOp12
 70
     1
102
RTVSPropertyOp13
 70
     1
102
RTVSPropertyOp14
 70
     1
102
RTVSPropertyOp15
 70
     1
102
RTVSPropertyOp16
 70
     1
102
RTVSPropertyOp17
 70
     1
102
RTVSPropertyOp18
 70
     1
102
RTVSPropertyOp19
 70
     1
102
RTVSPropertyOp20
 70
     1
102
RTVSPropertyOp21
 70
     1
102
RTVSPropertyOp22
 70
     1
102
RTVSPropertyOp23
 70
     1
102
RTVSPropertyOp24
 70
     1
102
RTVSPropertyOp25
 70
     1
102
RTVSPropertyOp26
 70
     1
102
RTVSPropertyOp27
 70
     1
102
RTVSPropertyOp28
 70
     1
102
RTVSPropertyOp29
 70
     1
102
RTVSPropertyOp30
 70
     1
102
RTVSPropertyOp31
 70
     1
102
RTVSPropertyOp32
 70
     1
  0
XRECORD
  5
484
102
{ACAD_REACTORS
330
483
102
}
330
483
100
AcDbXrecord
280
     1
102
RTVSPropertyOp0
 70
     1
102
RTVSPropertyOp1
 70
     1
102
RTVSPropertyOp2
 70
     1
102
RTVSPropertyOp3
 70
     1
102
RTVSPropertyOp4
 70
     1
102
RTVSPropertyOp5
 70
     1
102
RTVSPropertyOp6
 70
     1
102
RTVSPropertyOp7
 70
     1
102
RTVSPropertyOp8
 70
     1
102
RTVSPropertyOp9
 70
     1
102
RTVSPropertyOp10
 70
     1
102
RTVSPropertyOp11
 70
     1
102
RTVSPropertyOp12
 70
     1
102
RTVSPropertyOp13
 70
     1
102
RTVSPropertyOp14
 70
     1
102
RTVSPropertyOp15
 70
     1
102
RTVSPropertyOp16
 70
     1
102
RTVSPropertyOp17
 70
     1
102
RTVSPropertyOp18
 70
     1
102
RTVSPropertyOp19
 70
     1
102
RTVSPropertyOp20
 70
     1
102
RTVSPropertyOp21
 70
     1
102
RTVSPropertyOp22
 70
     1
102
RTVSPropertyOp23
 70
     1
102
RTVSPropertyOp24
 70
     1
102
RTVSPropertyOp25
 70
     1
102
RTVSPropertyOp26
 70
     1
102
RTVSPropertyOp27
 70
     1
102
RTVSPropertyOp28
 70
     1
102
RTVSPropertyOp29
 70
     1
102
RTVSPropertyOp30
 70
     1
102
RTVSPropertyOp31
 70
     1
102
RTVSPropertyOp32
 70
     1
  0
XRECORD
  5
486
102
{ACAD_REACTORS
330
485
102
}
330
485
100
AcDbXrecord
280
     1
102
RTVSPropertyOp0
 70
     1
102
RTVSPropertyOp1
 70
     1
102
RTVSPropertyOp2
 70
     1
102
RTVSPropertyOp3
 70
     1
102
RTVSPropertyOp4
 70
     1
102
RTVSPropertyOp5
 70
     1
102
RTVSPropertyOp6
 70
     1
102
RTVSPropertyOp7
 70
     1
102
RTVSPropertyOp8
 70
     1
102
RTVSPropertyOp9
 70
     1
102
RTVSPropertyOp10
 70
     1
102
RTVSPropertyOp11
 70
     1
102
RTVSPropertyOp12
 70
     1
102
RTVSPropertyOp13
 70
     1
102
RTVSPropertyOp14
 70
     1
102
RTVSPropertyOp15
 70
     1
102
RTVSPropertyOp16
 70
     1
102
RTVSPropertyOp17
 70
     1
102
RTVSPropertyOp18
 70
     1
102
RTVSPropertyOp19
 70
     1
102
RTVSPropertyOp20
 70
     1
102
RTVSPropertyOp21
 70
     1
102
RTVSPropertyOp22
 70
     1
102
RTVSPropertyOp23
 70
     1
102
RTVSPropertyOp24
 70
     1
102
RTVSPropertyOp25
 70
     1
102
RTVSPropertyOp26
 70
     1
102
RTVSPropertyOp27
 70
     1
102
RTVSPropertyOp28
 70
     1
102
RTVSPropertyOp29
 70
     1
102
RTVSPropertyOp30
 70
     1
102
RTVSPropertyOp31
 70
     1
102
RTVSPropertyOp32
 70
     1
  0
XRECORD
  5
49A
102
{ACAD_REACTORS
330
499
102
}
330
499
100
AcDbXrecord
280
     1
102
RTVSPropertyOp0
 70
     1
102
RTVSPropertyOp1
 70
     1
102
RTVSPropertyOp2
 70
     1
102
RTVSPropertyOp3
 70
     1
102
RTVSPropertyOp4
 70
     1
102
RTVSPropertyOp5
 70
     1
102
RTVSPropertyOp6
 70
     1
102
RTVSPropertyOp7
 70
     1
102
RTVSPropertyOp8
 70
     1
102
RTVSPropertyOp9
 70
     1
102
RTVSPropertyOp10
 70
     1
102
RTVSPropertyOp11
 70
     1
102
RTVSPropertyOp12
 70
     1
102
RTVSPropertyOp13
 70
     1
102
RTVSPropertyOp14
 70
     1
102
RTVSPropertyOp15
 70
     1
102
RTVSPropertyOp16
 70
     1
102
RTVSPropertyOp17
 70
     1
102
RTVSPropertyOp18
 70
     1
102
RTVSPropertyOp19
 70
     1
102
RTVSPropertyOp20
 70
     1
102
RTVSPropertyOp21
 70
     1
102
RTVSPropertyOp22
 70
     1
102
RTVSPropertyOp23
 70
     1
102
RTVSPropertyOp24
 70
     1
102
RTVSPropertyOp25
 70
     1
102
RTVSPropertyOp26
 70
     1
102
RTVSPropertyOp27
 70
     1
102
RTVSPropertyOp28
 70
     1
102
RTVSPropertyOp29
 70
     1
102
RTVSPropertyOp30
 70
     1
102
RTVSPropertyOp31
 70
     1
102
RTVSPropertyOp32
 70
     1
  0
XRECORD
  5
490
102
{ACAD_REACTORS
330
48F
102
}
330
48F
100
AcDbXrecord
280
     1
102
RTVSPropertyOp0
 70
     1
102
RTVSPropertyOp1
 70
     1
102
RTVSPropertyOp2
 70
     1
102
RTVSPropertyOp3
 70
     1
102
RTVSPropertyOp4
 70
     1
102
RTVSPropertyOp5
 70
     1
102
RTVSPropertyOp6
 70
     1
102
RTVSPropertyOp7
 70
     1
102
RTVSPropertyOp8
 70
     1
102
RTVSPropertyOp9
 70
     1
102
RTVSPropertyOp10
 70
     1
102
RTVSPropertyOp11
 70
     1
102
RTVSPropertyOp12
 70
     1
102
RTVSPropertyOp13
 70
     1
102
RTVSPropertyOp14
 70
     1
102
RTVSPropertyOp15
 70
     1
102
RTVSPropertyOp16
 70
     1
102
RTVSPropertyOp17
 70
     1
102
RTVSPropertyOp18
 70
     1
102
RTVSPropertyOp19
 70
     1
102
RTVSPropertyOp20
 70
     1
102
RTVSPropertyOp21
 70
     1
102
RTVSPropertyOp22
 70
     1
102
RTVSPropertyOp23
 70
     1
102
RTVSPropertyOp24
 70
     1
102
RTVSPropertyOp25
 70
     1
102
RTVSPropertyOp26
 70
     1
102
RTVSPropertyOp27
 70
     1
102
RTVSPropertyOp28
 70
     1
102
RTVSPropertyOp29
 70
     1
102
RTVSPropertyOp30
 70
     1
102
RTVSPropertyOp31
 70
     1
102
RTVSPropertyOp32
 70
     1
  0
XRECORD
  5
498
102
{ACAD_REACTORS
330
497
102
}
330
497
100
AcDbXrecord
280
     1
102
RTVSPropertyOp0
 70
     1
102
RTVSPropertyOp1
 70
     1
102
RTVSPropertyOp2
 70
     1
102
RTVSPropertyOp3
 70
     1
102
RTVSPropertyOp4
 70
     1
102
RTVSPropertyOp5
 70
     1
102
RTVSPropertyOp6
 70
     1
102
RTVSPropertyOp7
 70
     1
102
RTVSPropertyOp8
 70
     1
102
RTVSPropertyOp9
 70
     1
102
RTVSPropertyOp10
 70
     1
102
RTVSPropertyOp11
 70
     1
102
RTVSPropertyOp12
 70
     1
102
RTVSPropertyOp13
 70
     1
102
RTVSPropertyOp14
 70
     1
102
RTVSPropertyOp15
 70
     1
102
RTVSPropertyOp16
 70
     1
102
RTVSPropertyOp17
 70
     1
102
RTVSPropertyOp18
 70
     1
102
RTVSPropertyOp19
 70
     1
102
RTVSPropertyOp20
 70
     1
102
RTVSPropertyOp21
 70
     1
102
RTVSPropertyOp22
 70
     1
102
RTVSPropertyOp23
 70
     1
102
RTVSPropertyOp24
 70
     1
102
RTVSPropertyOp25
 70
     1
102
RTVSPropertyOp26
 70
     1
102
RTVSPropertyOp27
 70
     1
102
RTVSPropertyOp28
 70
     1
102
RTVSPropertyOp29
 70
     1
102
RTVSPropertyOp30
 70
     1
102
RTVSPropertyOp31
 70
     1
102
RTVSPropertyOp32
 70
     1
  0
ENDSEC
  0
EOF
