  0
SECTION
  2
HEADER
  9
$ACADVER
  1
AC1018
  9
$ACADMAINTVER
 70
     0
  9
$DWGCODEPAGE
  3
ANSI_1252
  9
$INSBASE
 10
0.0
 20
0.0
 30
0.0
  9
$EXTMIN
 10
-243.2503216077197
 20
4.93130807946284
 30
0.0
  9
$EXTMAX
 10
53.74967839227833
 20
214.931308079463
 30
0.0
  9
$LIMMIN
 10
0.0
 20
0.0
  9
$LIMMAX
 10
12.0
 20
9.0
  9
$ORTHOMODE
 70
     0
  9
$REGENMODE
 70
     1
  9
$FILLMODE
 70
     1
  9
$QTEXTMODE
 70
     0
  9
$MIRRTEXT
 70
     1
  9
$LTSCALE
 40
1.0
  9
$ATTMODE
 70
     1
  9
$TEXTSIZE
 40
0.2
  9
$TRACEWID
 40
0.05
  9
$TEXTSTYLE
  7
Standard
  9
$CLAYER
  8
0
  9
$CELTYPE
  6
ByLayer
  9
$CECOLOR
 62
   256
  9
$CELTSCALE
 40
1.0
  9
$DISPSILH
 70
     0
  9
$DIMSCALE
 40
1.0
  9
$DIMASZ
 40
0.18
  9
$DIMEXO
 40
0.0625
  9
$DIMDLI
 40
0.38
  9
$DIMRND
 40
0.0
  9
$DIMDLE
 40
0.0
  9
$DIMEXE
 40
0.18
  9
$DIMTP
 40
0.0
  9
$DIMTM
 40
0.0
  9
$DIMTXT
 40
0.18
  9
$DIMCEN
 40
0.09
  9
$DIMTSZ
 40
0.0
  9
$DIMTOL
 70
     0
  9
$DIMLIM
 70
     0
  9
$DIMTIH
 70
     1
  9
$DIMTOH
 70
     1
  9
$DIMSE1
 70
     0
  9
$DIMSE2
 70
     0
  9
$DIMTAD
 70
     0
  9
$DIMZIN
 70
     0
  9
$DIMBLK
  1

  9
$DIMASO
 70
     1
  9
$DIMSHO
 70
     1
  9
$DIMPOST
  1

  9
$DIMAPOST
  1

  9
$DIMALT
 70
     0
  9
$DIMALTD
 70
     2
  9
$DIMALTF
 40
25.4
  9
$DIMLFAC
 40
1.0
  9
$DIMTOFL
 70
     0
  9
$DIMTVP
 40
0.0
  9
$DIMTIX
 70
     0
  9
$DIMSOXD
 70
     0
  9
$DIMSAH
 70
     0
  9
$DIMBLK1
  1

  9
$DIMBLK2
  1

  9
$DIMSTYLE
  2
Standard
  9
$DIMCLRD
 70
     0
  9
$DIMCLRE
 70
     0
  9
$DIMCLRT
 70
     0
  9
$DIMTFAC
 40
1.0
  9
$DIMGAP
 40
0.09
  9
$DIMJUST
 70
     0
  9
$DIMSD1
 70
     0
  9
$DIMSD2
 70
     0
  9
$DIMTOLJ
 70
     1
  9
$DIMTZIN
 70
     0
  9
$DIMALTZ
 70
     0
  9
$DIMALTTZ
 70
     0
  9
$DIMUPT
 70
     0
  9
$DIMDEC
 70
     4
  9
$DIMTDEC
 70
     4
  9
$DIMALTU
 70
     2
  9
$DIMALTTD
 70
     2
  9
$DIMTXSTY
  7
Standard
  9
$DIMAUNIT
 70
     0
  9
$DIMADEC
 70
     0
  9
$DIMALTRND
 40
0.0
  9
$DIMAZIN
 70
     0
  9
$DIMDSEP
 70
    46
  9
$DIMATFIT
 70
     3
  9
$DIMFRAC
 70
     0
  9
$DIMLDRBLK
  1

  9
$DIMLUNIT
 70
     2
  9
$DIMLWD
 70
    -2
  9
$DIMLWE
 70
    -2
  9
$DIMTMOVE
 70
     0
  9
$LUNITS
 70
     2
  9
$LUPREC
 70
     4
  9
$SKETCHINC
 40
0.1
  9
$FILLETRAD
 40
0.5
  9
$AUNITS
 70
     0
  9
$AUPREC
 70
     0
  9
$MENU
  1
.
  9
$ELEVATION
 40
0.0
  9
$PELEVATION
 40
0.0
  9
$THICKNESS
 40
0.0
  9
$LIMCHECK
 70
     0
  9
$CHAMFERA
 40
0.5
  9
$CHAMFERB
 40
0.5
  9
$CHAMFERC
 40
1.0
  9
$CHAMFERD
 40
0.0
  9
$SKPOLY
 70
     0
  9
$TDCREATE
 40
2458103.621240208
  9
$TDUCREATE
 40
2458103.579573542
  9
$TDUPDATE
 40
2458103.621240567
  9
$TDUUPDATE
 40
2458103.5795739
  9
$TDINDWG
 40
0.0000000116
  9
$TDUSRTIMER
 40
0.0000000116
  9
$USRTIMER
 70
     1
  9
$ANGBASE
 50
0.0
  9
$ANGDIR
 70
     0
  9
$PDMODE
 70
     0
  9
$PDSIZE
 40
0.0
  9
$PLINEWID
 40
0.0
  9
$SPLFRAME
 70
     0
  9
$SPLINETYPE
 70
     6
  9
$SPLINESEGS
 70
     8
  9
$HANDSEED
  5
246
  9
$SURFTAB1
 70
     6
  9
$SURFTAB2
 70
     6
  9
$SURFTYPE
 70
     6
  9
$SURFU
 70
     6
  9
$SURFV
 70
     6
  9
$UCSBASE
  2

  9
$UCSNAME
  2

  9
$UCSORG
 10
0.0
 20
0.0
 30
0.0
  9
$UCSXDIR
 10
1.0
 20
0.0
 30
0.0
  9
$UCSYDIR
 10
0.0
 20
1.0
 30
0.0
  9
$UCSORTHOREF
  2

  9
$UCSORTHOVIEW
 70
     0
  9
$UCSORGTOP
 10
0.0
 20
0.0
 30
0.0
  9
$UCSORGBOTTOM
 10
0.0
 20
0.0
 30
0.0
  9
$UCSORGLEFT
 10
0.0
 20
0.0
 30
0.0
  9
$UCSORGRIGHT
 10
0.0
 20
0.0
 30
0.0
  9
$UCSORGFRONT
 10
0.0
 20
0.0
 30
0.0
  9
$UCSORGBACK
 10
0.0
 20
0.0
 30
0.0
  9
$PUCSBASE
  2

  9
$PUCSNAME
  2

  9
$PUCSORG
 10
0.0
 20
0.0
 30
0.0
  9
$PUCSXDIR
 10
1.0
 20
0.0
 30
0.0
  9
$PUCSYDIR
 10
0.0
 20
1.0
 30
0.0
  9
$PUCSORTHOREF
  2

  9
$PUCSORTHOVIEW
 70
     0
  9
$PUCSORGTOP
 10
0.0
 20
0.0
 30
0.0
  9
$PUCSORGBOTTOM
 10
0.0
 20
0.0
 30
0.0
  9
$PUCSORGLEFT
 10
0.0
 20
0.0
 30
0.0
  9
$PUCSORGRIGHT
 10
0.0
 20
0.0
 30
0.0
  9
$PUCSORGFRONT
 10
0.0
 20
0.0
 30
0.0
  9
$PUCSORGBACK
 10
0.0
 20
0.0
 30
0.0
  9
$USERI1
 70
     0
  9
$USERI2
 70
     0
  9
$USERI3
 70
     0
  9
$USERI4
 70
     0
  9
$USERI5
 70
     0
  9
$USERR1
 40
18.1
  9
$USERR2
 40
0.0
  9
$USERR3
 40
0.0
  9
$USERR4
 40
0.0
  9
$USERR5
 40
0.0
  9
$WORLDVIEW
 70
     1
  9
$SHADEDGE
 70
     3
  9
$SHADEDIF
 70
    70
  9
$TILEMODE
 70
     1
  9
$MAXACTVP
 70
    64
  9
$PINSBASE
 10
0.0
 20
0.0
 30
0.0
  9
$PLIMCHECK
 70
     0
  9
$PEXTMIN
 10
1.00000000000000E+20
 20
1.00000000000000E+20
 30
1.00000000000000E+20
  9
$PEXTMAX
 10
-1.00000000000000E+20
 20
-1.00000000000000E+20
 30
-1.00000000000000E+20
  9
$PLIMMIN
 10
0.0
 20
0.0
  9
$PLIMMAX
 10
12.0
 20
9.0
  9
$UNITMODE
 70
     0
  9
$VISRETAIN
 70
     1
  9
$PLINEGEN
 70
     0
  9
$PSLTSCALE
 70
     1
  9
$TREEDEPTH
 70
  3020
  9
$CMLSTYLE
  2
Standard
  9
$CMLJUST
 70
     0
  9
$CMLSCALE
 40
1.0
  9
$PROXYGRAPHICS
 70
     1
  9
$MEASUREMENT
 70
     1
  9
$CELWEIGHT
370
    -1
  9
$ENDCAPS
280
     0
  9
$JOINSTYLE
280
     0
  9
$LWDISPLAY
290
     0
  9
$INSUNITS
 70
     4
  9
$HYPERLINKBASE
  1

  9
$STYLESHEET
  1

  9
$XEDIT
290
     1
  9
$CEPSNTYPE
380
     0
  9
$PSTYLEMODE
290
     1
  9
$FINGERPRINTGUID
  2
{BF653AFB-EC9A-4CD6-B6D3-688932FD1382}
  9
$VERSIONGUID
  2
{FAEB1C32-E019-11D5-929B-00C0DF256EC4}
  9
$EXTNAMES
290
     1
  9
$PSVPSCALE
 40
0.0
  9
$OLESTARTUP
290
     0
  9
$SORTENTS
280
   127
  9
$INDEXCTL
280
     0
  9
$HIDETEXT
280
     1
  9
$XCLIPFRAME
290
     0
  9
$HALOGAP
280
     0
  9
$OBSCOLOR
 70
   257
  9
$OBSLTYPE
280
     0
  9
$INTERSECTIONDISPLAY
280
     0
  9
$INTERSECTIONCOLOR
 70
   257
  9
$DIMASSOC
280
     2
  9
$PROJECTNAME
  1

  0
ENDSEC
  0
SECTION
  2
CLASSES
  0
CLASS
  1
ACDBDICTIONARYWDFLT
  2
AcDbDictionaryWithDefault
  3
ObjectDBX Classes
 90
        0
 91
        4
280
     0
281
     0
  0
CLASS
  1
VISUALSTYLE
  2
AcDbVisualStyle
  3
ObjectDBX Classes
 90
     4095
 91
        4
280
     0
281
     0
  0
CLASS
  1
MATERIAL
  2
AcDbMaterial
  3
ObjectDBX Classes
 90
     1153
 91
        4
280
     0
281
     0
  0
ENDSEC
  0
SECTION
  2
TABLES
  0
TABLE
  2
VPORT
  5
8
330
0
100
AcDbSymbolTable
 70
     1
  0
VPORT
  5
29
330
8
100
AcDbSymbolTableRecord
100
AcDbViewportTableRecord
  2
*Active
 70
     0
 10
0.0
 20
0.0
 11
1.0
 21
1.0
 12
-94.7503216077207
 22
109.9313080794629
 13
0.0
 23
0.0
 14
0.5
 24
0.5
 15
0.5
 25
0.5
 16
0.0
 26
0.0
 36
1.0
 17
0.0
 27
0.0
 37
0.0
 40
231.0000000000002
 41
1.60267857142857
 42
50.0
 43
0.0
 44
0.0
 50
0.0
 51
0.0
 71
     0
 72
   100
 73
     1
 74
     3
 75
     0
 76
     0
 77
     0
 78
     0
281
     0
 65
     1
110
0.0
120
0.0
130
0.0
111
1.0
121
0.0
131
0.0
112
0.0
122
1.0
132
0.0
 79
     0
146
0.0
  0
ENDTAB
  0
TABLE
  2
LTYPE
  5
5
330
0
100
AcDbSymbolTable
 70
     8
  0
LTYPE
  5
14
330
5
100
AcDbSymbolTableRecord
100
AcDbLinetypeTableRecord
  2
ByBlock
 70
     0
  3

 72
    65
 73
     0
 40
0.0
  0
LTYPE
  5
15
330
5
100
AcDbSymbolTableRecord
100
AcDbLinetypeTableRecord
  2
ByLayer
 70
     0
  3

 72
    65
 73
     0
 40
0.0
  0
LTYPE
  5
16
330
5
100
AcDbSymbolTableRecord
100
AcDbLinetypeTableRecord
  2
Continuous
 70
     0
  3
Solid line
 72
    65
 73
     0
 40
0.0
  0
LTYPE
  5
3F
330
5
100
AcDbSymbolTableRecord
100
AcDbLinetypeTableRecord
  2
DASHED
 70
     0
  3
Dashed
 72
    65
 73
     2
 40
15.0
 49
7.0
 74
     0
 49
-8.0
 74
     0
  0
LTYPE
  5
40
330
5
100
AcDbSymbolTableRecord
100
AcDbLinetypeTableRecord
  2
DOTTED
 70
     0
  3
Dotted
 72
    65
 73
     2
 40
1.0
 49
0.0
 74
     0
 49
-1.0
 74
     0
  0
LTYPE
  5
41
330
5
100
AcDbSymbolTableRecord
100
AcDbLinetypeTableRecord
  2
DOT_CENTER
 70
     0
  3
Dot_Center
 72
    65
 73
     4
 40
14.0
 49
12.0
 74
     0
 49
-1.0
 74
     0
 49
0.0
 74
     0
 49
-1.0
 74
     0
  0
LTYPE
  5
42
330
5
100
AcDbSymbolTableRecord
100
AcDbLinetypeTableRecord
  2
LONG_DASHED
 70
     0
  3
Long_Dashed
 72
    65
 73
     2
 40
15.0
 49
10.0
 74
     0
 49
-5.0
 74
     0
  0
LTYPE
  5
43
330
5
100
AcDbSymbolTableRecord
100
AcDbLinetypeTableRecord
  2
DASH_CENTER
 70
     0
  3
Dash_Center
 72
    65
 73
     4
 40
14.0
 49
11.0
 74
     0
 49
-1.0
 74
     0
 49
1.0
 74
     0
 49
-1.0
 74
     0
  0
LTYPE
  5
44
330
5
100
AcDbSymbolTableRecord
100
AcDbLinetypeTableRecord
  2
PHANTOM
 70
     0
  3
Phantom
 72
    65
 73
     6
 40
13.0
 49
10.0
 74
     0
 49
-1.0
 74
     0
 49
0.0
 74
     0
 49
-1.0
 74
     0
 49
0.0
 74
     0
 49
-1.0
 74
     0
  0
LTYPE
  5
45
330
5
100
AcDbSymbolTableRecord
100
AcDbLinetypeTableRecord
  2
CENTER_DASH_DASH
 70
     0
  3
Center_Dash_Dash
 72
    65
 73
     6
 40
14.0
 49
9.0
 74
     0
 49
-1.0
 74
     0
 49
1.0
 74
     0
 49
-1.0
 74
     0
 49
1.0
 74
     0
 49
-1.0
 74
     0
  0
ENDTAB
  0
TABLE
  2
LAYER
  5
2
330
0
100
AcDbSymbolTable
 70
     2
  0
LAYER
  5
10
330
2
100
AcDbSymbolTableRecord
100
AcDbLayerTableRecord
  2
0
 70
     0
 62
     7
  6
Continuous
370
    -3
390
F
  0
LAYER
  5
46
330
2
100
AcDbSymbolTableRecord
100
AcDbLayerTableRecord
  2
1
 70
     0
 62
     7
  6
Continuous
370
    -3
390
F
  0
ENDTAB
  0
TABLE
  2
STYLE
  5
3
330
0
100
AcDbSymbolTable
 70
     5
  0
STYLE
  5
11
330
3
100
AcDbSymbolTableRecord
100
AcDbTextStyleTableRecord
  2
Standard
 70
     0
 40
0.0
 41
1.0
 50
0.0
 71
     0
 42
0.2
  3
txt
  4

  0
STYLE
  5
9A
330
3
100
AcDbSymbolTableRecord
100
AcDbTextStyleTableRecord
  2
CONVERTER_11
 70
     0
 40
0.0
 41
0.9
 50
0.0
 71
     0
 42
0.2
  3
txt.shx
  4

  0
STYLE
  5
1DC
330
3
100
AcDbSymbolTableRecord
100
AcDbTextStyleTableRecord
  2
CONVERTER_12
 70
     0
 40
0.0
 41
0.81
 50
0.0
 71
     0
 42
0.2
  3
txt.shx
  4

  0
STYLE
  5
1E2
330
3
100
AcDbSymbolTableRecord
100
AcDbTextStyleTableRecord
  2
CONVERTER_13
 70
     0
 40
0.0
 41
0.855
 50
0.0
 71
     0
 42
0.2
  3
txt.shx
  4

  0
STYLE
  5
1E5
330
3
100
AcDbSymbolTableRecord
100
AcDbTextStyleTableRecord
  2
CONVERTER_14
 70
     0
 40
0.0
 41
0.72
 50
0.0
 71
     0
 42
0.2
  3
txt.shx
  4

  0
ENDTAB
  0
TABLE
  2
VIEW
  5
6
330
0
100
AcDbSymbolTable
 70
     0
  0
ENDTAB
  0
TABLE
  2
UCS
  5
7
330
0
100
AcDbSymbolTable
 70
     0
  0
ENDTAB
  0
TABLE
  2
APPID
  5
9
330
0
100
AcDbSymbolTable
 70
     1
  0
APPID
  5
12
330
9
100
AcDbSymbolTableRecord
100
AcDbRegAppTableRecord
  2
ACAD
 70
     0
  0
ENDTAB
  0
TABLE
  2
DIMSTYLE
  5
A
330
0
100
AcDbSymbolTable
 70
     4
100
AcDbDimStyleTable
  0
DIMSTYLE
105
27
330
A
100
AcDbSymbolTableRecord
100
AcDbDimStyleTableRecord
  2
Standard
 70
     0
178
     0
340
11
  0
DIMSTYLE
105
B2
102
{ACAD_REACTORS
330
B3
102
}
330
A
100
AcDbSymbolTableRecord
100
AcDbDimStyleTableRecord
  2
ME10_DIM_10
 70
     0
 41
3.5
 42
0.5
 44
1.5
 73
     0
 74
     0
 77
     1
 78
     8
140
3.5
147
2.0
172
     1
173
     1
174
     1
175
     1
176
     2
177
     2
178
     3
340
9A
  0
DIMSTYLE
105
D8
102
{ACAD_REACTORS
330
D9
102
}
330
A
100
AcDbSymbolTableRecord
100
AcDbDimStyleTableRecord
  2
ME10_DIM_11
 70
     0
 41
3.5
 42
0.0
 44
2.0
 73
     0
 74
     0
 77
     1
 78
     8
140
3.5
147
2.0
172
     1
173
     1
174
     1
175
     1
176
     2
177
     2
178
     3
340
9A
  0
DIMSTYLE
105
E3
102
{ACAD_REACTORS
330
E4
102
}
330
A
100
AcDbSymbolTableRecord
100
AcDbDimStyleTableRecord
  2
ME10_DIM_12
 70
     0
 41
3.5
 42
0.0
 44
2.0
 73
     0
 74
     0
 77
     1
 78
     8
140
3.5
147
2.0
172
     1
173
     1
174
     1
175
     1
176
     2
177
     2
178
     3
340
9A
  0
ENDTAB
  0
TABLE
  2
BLOCK_RECORD
  5
1
330
0
100
AcDbSymbolTable
 70
    20
  0
BLOCK_RECORD
  5
1F
330
1
100
AcDbSymbolTableRecord
100
AcDbBlockTableRecord
  2
*Model_Space
340
22
  0
BLOCK_RECORD
  5
1B
330
1
100
AcDbSymbolTableRecord
100
AcDbBlockTableRecord
  2
*Paper_Space
340
1E
  0
BLOCK_RECORD
  5
23
330
1
100
AcDbSymbolTableRecord
100
AcDbBlockTableRecord
  2
*Paper_Space0
340
26
  0
BLOCK_RECORD
  5
47
330
1
100
AcDbSymbolTableRecord
100
AcDbBlockTableRecord
  2
D_MXK_4_select__1
340
0
102
{BLKREFS
331
4B
102
}
  0
BLOCK_RECORD
  5
4A
330
1
100
AcDbSymbolTableRecord
100
AcDbBlockTableRecord
  2
AllgSicht1
340
0
102
{BLKREFS
331
7D
102
}
  0
BLOCK_RECORD
  5
4E
330
1
100
AcDbSymbolTableRecord
100
AcDbBlockTableRecord
  2
D_MXK_4_select__2
340
0
102
{BLKREFS
331
52
102
}
  0
BLOCK_RECORD
  5
51
330
1
100
AcDbSymbolTableRecord
100
AcDbBlockTableRecord
  2
Drfsicht1
340
0
102
{BLKREFS
331
7E
102
}
  0
BLOCK_RECORD
  5
55
330
1
100
AcDbSymbolTableRecord
100
AcDbBlockTableRecord
  2
D_MXK_4_select__3
340
0
102
{BLKREFS
331
59
102
}
  0
BLOCK_RECORD
  5
58
330
1
100
AcDbSymbolTableRecord
100
AcDbBlockTableRecord
  2
Rckans1
340
0
102
{BLKREFS
331
7F
102
}
  0
BLOCK_RECORD
  5
5C
330
1
100
AcDbSymbolTableRecord
100
AcDbBlockTableRecord
  2
D_MXK_4_select__4
340
0
102
{BLKREFS
331
60
102
}
  0
BLOCK_RECORD
  5
5F
330
1
100
AcDbSymbolTableRecord
100
AcDbBlockTableRecord
  2
SA_Links1
340
0
102
{BLKREFS
331
80
102
}
  0
BLOCK_RECORD
  5
63
330
1
100
AcDbSymbolTableRecord
100
AcDbBlockTableRecord
  2
D_MXK_4_select__5
340
0
102
{BLKREFS
331
67
102
}
  0
BLOCK_RECORD
  5
66
330
1
100
AcDbSymbolTableRecord
100
AcDbBlockTableRecord
  2
SA_Rechts1
340
0
102
{BLKREFS
331
81
102
}
  0
BLOCK_RECORD
  5
6A
330
1
100
AcDbSymbolTableRecord
100
AcDbBlockTableRecord
  2
D_MXK_4_select__6
340
0
102
{BLKREFS
331
6E
102
}
  0
BLOCK_RECORD
  5
6D
330
1
100
AcDbSymbolTableRecord
100
AcDbBlockTableRecord
  2
Vordans1
340
0
102
{BLKREFS
331
82
102
}
  0
BLOCK_RECORD
  5
71
330
1
100
AcDbSymbolTableRecord
100
AcDbBlockTableRecord
  2
_rahmen
340
0
102
{BLKREFS
331
78
102
}
  0
BLOCK_RECORD
  5
74
330
1
100
AcDbSymbolTableRecord
100
AcDbBlockTableRecord
  2
_punkt
340
0
102
{BLKREFS
331
79
102
}
  0
BLOCK_RECORD
  5
77
330
1
100
AcDbSymbolTableRecord
100
AcDbBlockTableRecord
  2
A4I_CS
340
0
102
{BLKREFS
331
83
102
}
  0
BLOCK_RECORD
  5
7C
330
1
100
AcDbSymbolTableRecord
100
AcDbBlockTableRecord
  2
1
340
0
102
{BLKREFS
331
86
102
}
  0
BLOCK_RECORD
  5
A7
330
1
100
AcDbSymbolTableRecord
100
AcDbBlockTableRecord
  2
*D17
340
0
  0
BLOCK_RECORD
  5
CF
330
1
100
AcDbSymbolTableRecord
100
AcDbBlockTableRecord
  2
*D18
340
0
  0
BLOCK_RECORD
  5
DA
330
1
100
AcDbSymbolTableRecord
100
AcDbBlockTableRecord
  2
*D19
340
0
  0
ENDTAB
  0
ENDSEC
  0
SECTION
  2
BLOCKS
  0
BLOCK
  5
20
330
1F
100
AcDbEntity
  8
0
100
AcDbBlockBegin
  2
*Model_Space
 70
     0
 10
0.0
 20
0.0
 30
0.0
  3
*Model_Space
  1

  0
ENDBLK
  5
21
330
1F
100
AcDbEntity
  8
0
100
AcDbBlockEnd
  0
BLOCK
  5
1C
330
1B
100
AcDbEntity
 67
     1
  8
0
100
AcDbBlockBegin
  2
*Paper_Space
 70
     0
 10
0.0
 20
0.0
 30
0.0
  3
*Paper_Space
  1

  0
ENDBLK
  5
1D
330
1B
100
AcDbEntity
 67
     1
  8
0
100
AcDbBlockEnd
  0
BLOCK
  5
24
330
23
100
AcDbEntity
  8
0
100
AcDbBlockBegin
  2
*Paper_Space0
 70
     0
 10
0.0
 20
0.0
 30
0.0
  3
*Paper_Space0
  1

  0
ENDBLK
  5
25
330
23
100
AcDbEntity
  8
0
100
AcDbBlockEnd
  0
BLOCK
  5
48
330
47
100
AcDbEntity
  8
0
100
AcDbBlockBegin
  2
D_MXK_4_select__1
 70
     0
 10
-28.49935452140055
 20
62.71261582939014
 30
0.0
  3
D_MXK_4_select__1
  1

  0
LINE
  5
87
330
47
100
AcDbEntity
  8
0
  6
Continuous
 62
     7
100
AcDbLine
 10
-17.76063951447351
 20
88.60966108551489
 30
0.0
 11
-17.51063951447351
 21
88.82616743646099
 31
0.0
  0
LINE
  5
88
330
47
100
AcDbEntity
  8
0
  6
Continuous
 62
     7
100
AcDbLine
 10
-14.98935822236331
 20
87.80966108551489
 30
0.0
 11
-17.76063951447351
 21
88.60966108551489
 31
0.0
  0
LINE
  5
89
330
47
100
AcDbEntity
  8
0
  6
Continuous
 62
     7
100
AcDbLine
 10
-14.98935822236329
 20
88.0983362201097
 30
0.0
 11
-17.51063951447351
 21
88.82616743646099
 31
0.0
  0
LINE
  5
8A
330
47
100
AcDbEntity
  8
0
  6
Continuous
 62
     7
100
AcDbLine
 10
-4.25064321543626
 20
91.6378643157904
 30
0.0
 11
-4.25064321543626
 21
62.71261582939014
 31
0.0
  0
LINE
  5
8B
330
47
100
AcDbEntity
  8
0
  6
Continuous
 62
     7
100
AcDbLine
 10
-3.50064321543626
 20
63.36213488222848
 30
0.0
 11
-4.25064321543626
 21
62.71261582939014
 31
0.0
  0
LINE
  5
8C
330
47
100
AcDbEntity
  8
0
  6
Continuous
 62
     7
100
AcDbLine
 10
-3.50064321543626
 20
92.28738336862872
 30
0.0
 11
-3.50064321543626
 21
63.36213488222848
 31
0.0
  0
LINE
  5
8D
330
47
100
AcDbEntity
  8
0
  6
Continuous
 62
     7
100
AcDbLine
 10
-17.51063951447351
 20
88.82616743646099
 30
0.0
 11
-17.51063951447351
 21
95.7543706667365
 31
0.0
  0
LINE
  5
8E
330
47
100
AcDbEntity
  8
0
  6
Continuous
 62
     7
100
AcDbLine
 10
-14.73935822236331
 20
94.9543706667365
 30
0.0
 11
-14.98935822236331
 21
94.73786431579039
 31
0.0
  0
LINE
  5
8F
330
47
100
AcDbEntity
  8
0
  6
Continuous
 62
     7
100
AcDbLine
 10
-17.76063951447351
 20
88.60966108551489
 30
0.0
 11
-17.76063951447351
 21
95.53786431579039
 31
0.0
  0
LINE
  5
90
330
47
100
AcDbEntity
  8
0
  6
Continuous
 62
     7
100
AcDbLine
 10
-17.76063951447351
 20
95.53786431579039
 30
0.0
 11
-17.51063951447351
 21
95.7543706667365
 31
0.0
  0
LINE
  5
91
330
47
100
AcDbEntity
  8
0
  6
Continuous
 62
     7
100
AcDbLine
 10
-17.51063951447351
 20
95.7543706667365
 30
0.0
 11
-14.73935822236331
 21
94.9543706667365
 31
0.0
  0
LINE
  5
92
330
47
100
AcDbEntity
  8
0
  6
Continuous
 62
     7
100
AcDbLine
 10
-28.49935452140055
 20
69.71261582939015
 30
0.0
 11
-28.49935452140055
 21
98.6378643157904
 31
0.0
  0
LINE
  5
93
330
47
100
AcDbEntity
  8
0
  6
Continuous
 62
     7
100
AcDbLine
 10
-27.74935452140055
 20
99.28738336862872
 30
0.0
 11
-28.49935452140055
 21
98.6378643157904
 31
0.0
  0
LINE
  5
94
330
47
100
AcDbEntity
  8
0
  6
Continuous
 62
     7
100
AcDbLine
 10
-3.50064321543626
 20
92.28738336862872
 30
0.0
 11
-4.25064321543626
 21
91.6378643157904
 31
0.0
  0
LINE
  5
95
330
47
100
AcDbEntity
  8
0
  6
Continuous
 62
     7
100
AcDbLine
 10
-14.98935822236331
 20
94.73786431579039
 30
0.0
 11
-4.25064321543626
 21
91.6378643157904
 31
0.0
  0
LINE
  5
96
330
47
100
AcDbEntity
  8
0
  6
Continuous
 62
     7
100
AcDbLine
 10
-28.49935452140055
 20
98.6378643157904
 30
0.0
 11
-17.76063951447351
 21
95.53786431579039
 31
0.0
  0
LINE
  5
97
330
47
100
AcDbEntity
  8
0
  6
Continuous
 62
     7
100
AcDbLine
 10
-27.74935452140055
 20
99.28738336862872
 30
0.0
 11
-3.50064321543626
 21
92.28738336862872
 31
0.0
  0
LINE
  5
98
330
47
100
AcDbEntity
  8
0
  6
Continuous
 62
     7
100
AcDbLine
 10
-14.98935822236331
 20
94.73786431579039
 30
0.0
 11
-14.98935822236331
 21
87.80966108551489
 31
0.0
  0
LINE
  5
99
330
47
100
AcDbEntity
  8
0
  6
Continuous
 62
     7
100
AcDbLine
 10
-4.25064321543626
 20
62.71261582939014
 30
0.0
 11
-28.49935452140055
 21
69.71261582939015
 31
0.0
  0
ENDBLK
  5
49
330
47
100
AcDbEntity
  8
0
100
AcDbBlockEnd
  0
BLOCK
  5
4C
330
4A
100
AcDbEntity
  8
0
100
AcDbBlockBegin
  2
AllgSicht1
 70
     0
 10
-15.99999999999989
 20
81.0
 30
0.0
  3
AllgSicht1
  1

  0
INSERT
  5
4B
330
4A
100
AcDbEntity
  8
0
100
AcDbBlockReference
  2
D_MXK_4_select__1
 10
-28.49935452140055
 20
62.71261582939014
 30
0.0
  0
MTEXT
  5
9B
330
4A
100
AcDbEntity
  8
1
 62
     6
100
AcDbMText
 10
-16.00000000000205
 20
57.71261613746424
 30
0.0
 40
5.0
 41
0.0
 71
     2
 72
     1
  1
 
  7
CONVERTER_11
 73
     1
 44
1.32052821128451
  0
ENDBLK
  5
4D
330
4A
100
AcDbEntity
  8
0
100
AcDbBlockEnd
  0
BLOCK
  5
4F
330
4E
100
AcDbEntity
  8
0
100
AcDbBlockBegin
  2
D_MXK_4_select__2
 70
     0
 10
-141.9999986933594
 20
81.24999999999005
 30
0.0
  3
D_MXK_4_select__2
  1

  0
LINE
  5
9C
330
4E
100
AcDbEntity
  8
0
  6
Continuous
 62
     7
100
AcDbLine
 10
-126.3999986933594
 20
81.24999999999005
 30
0.0
 11
-129.5999986933594
 21
81.24999999999005
 31
0.0
  0
LINE
  5
9D
330
4E
100
AcDbEntity
  8
0
  6
Continuous
 62
     7
100
AcDbLine
 10
-141.9999986933594
 20
81.24999999999005
 30
0.0
 11
-129.5999986933594
 21
81.24999999999005
 31
0.0
  0
LINE
  5
9E
330
4E
100
AcDbEntity
  8
0
  6
Continuous
 62
     7
100
AcDbLine
 10
-113.9999986933594
 20
82.74999999999005
 30
0.0
 11
-113.9999986933594
 21
81.24999999999005
 31
0.0
  0
LINE
  5
9F
330
4E
100
AcDbEntity
  8
0
  6
Continuous
 62
     7
100
AcDbLine
 10
-126.3999986933594
 20
81.24999999999005
 30
0.0
 11
-113.9999986933594
 21
81.24999999999005
 31
0.0
  0
LINE
  5
A0
330
4E
100
AcDbEntity
  8
0
  6
Continuous
 62
     7
100
AcDbLine
 10
-126.3999986933594
 20
81.74999999999005
 30
0.0
 11
-126.3999986933594
 21
81.24999999999005
 31
0.0
  0
LINE
  5
A1
330
4E
100
AcDbEntity
  8
0
  6
Continuous
 62
     7
100
AcDbLine
 10
-129.5999986933594
 20
81.74999999999005
 30
0.0
 11
-126.3999986933594
 21
81.74999999999005
 31
0.0
  0
LINE
  5
A2
330
4E
100
AcDbEntity
  8
0
  6
Continuous
 62
     7
100
AcDbLine
 10
-129.5999986933594
 20
81.24999999999005
 30
0.0
 11
-129.5999986933594
 21
81.74999999999005
 31
0.0
  0
LINE
  5
A3
330
4E
100
AcDbEntity
  8
0
  6
Continuous
 62
     7
100
AcDbLine
 10
-141.9999986933594
 20
82.74999999999005
 30
0.0
 11
-141.9999986933594
 21
81.24999999999005
 31
0.0
  0
LINE
  5
A4
330
4E
100
AcDbEntity
  8
0
  6
Continuous
 62
     7
100
AcDbLine
 10
-141.9999986933594
 20
82.74999999999005
 30
0.0
 11
-113.9999986933594
 21
82.74999999999005
 31
0.0
  0
LINE
  5
A5
330
4E
100
AcDbEntity
  8
1
  6
DOT_CENTER
 62
     2
100
AcDbLine
 10
-127.9999986933594
 20
83.0794007192749
 30
0.0
 11
-127.9999986933594
 21
80.8552673655991
 31
0.0
  0
ENDBLK
  5
50
330
4E
100
AcDbEntity
  8
0
100
AcDbBlockEnd
  0
BLOCK
  5
53
330
51
100
AcDbEntity
  8
0
100
AcDbBlockBegin
  2
Drfsicht1
 70
     0
 10
-128.0
 20
81.99999999999505
 30
0.0
  3
Drfsicht1
  1

  0
INSERT
  5
52
330
51
100
AcDbEntity
  8
0
100
AcDbBlockReference
  2
D_MXK_4_select__2
 10
-141.9999986933594
 20
81.24999999999005
 30
0.0
  0
MTEXT
  5
A6
330
51
100
AcDbEntity
  8
1
 62
     6
100
AcDbMText
 10
-128.0
 20
76.249999999995
 30
0.0
 40
5.0
 41
0.0
 71
     2
 72
     1
  1
 
  7
CONVERTER_11
 73
     1
 44
1.32052821128451
  0
DIMENSION
  5
B3
330
51
100
AcDbEntity
  8
1
100
AcDbDimension
  2
*D17
 10
-150.5684759876603
 20
82.74999999999005
 30
0.0
 11
-154.4934759876603
 21
89.850184609065
 31
0.0
 70
    33
  1
<>
 71
     5
 42
-1.0
 53
90.0
  3
ME10_DIM_10
100
AcDbAlignedDimension
 13
-141.9999986933594
 23
81.24999999999005
 33
0.0
 14
-141.9999986933594
 24
82.74999999999005
 34
0.0
  0
ENDBLK
  5
54
330
51
100
AcDbEntity
  8
0
100
AcDbBlockEnd
  0
BLOCK
  5
56
330
55
100
AcDbEntity
  8
0
100
AcDbBlockBegin
  2
D_MXK_4_select__3
 70
     0
 10
-30.00000130664052
 20
128.7500000214615
 30
0.0
  3
D_MXK_4_select__3
  1

  0
LINE
  5
B4
330
55
100
AcDbEntity
  8
0
  6
Continuous
 62
     7
100
AcDbLine
 10
-2.00000130664052
 20
162.1500000214615
 30
0.0
 11
-30.00000130664052
 21
162.1500000214615
 31
0.0
  0
LINE
  5
B5
330
55
100
AcDbEntity
  8
0
  6
Continuous
 62
     7
100
AcDbLine
 10
-2.00000130664052
 20
128.7500000214615
 30
0.0
 11
-2.00000130664052
 21
162.1500000214615
 31
0.0
  0
LINE
  5
B6
330
55
100
AcDbEntity
  8
0
  6
Continuous
 62
     7
100
AcDbLine
 10
-30.00000130664052
 20
128.7500000214615
 30
0.0
 11
-2.00000130664052
 21
128.7500000214615
 31
0.0
  0
LINE
  5
B7
330
55
100
AcDbEntity
  8
0
  6
Continuous
 62
     7
100
AcDbLine
 10
-30.00000130664052
 20
162.1500000214615
 30
0.0
 11
-30.00000130664052
 21
128.7500000214615
 31
0.0
  0
LINE
  5
B8
330
55
100
AcDbEntity
  8
1
  6
DOT_CENTER
 62
     2
100
AcDbLine
 10
-16.00000130664052
 20
164.317998705437
 30
0.0
 11
-16.00000130664052
 21
126.595737651149
 31
0.0
  0
ENDBLK
  5
57
330
55
100
AcDbEntity
  8
0
100
AcDbBlockEnd
  0
BLOCK
  5
5A
330
58
100
AcDbEntity
  8
0
100
AcDbBlockBegin
  2
Rckans1
 70
     0
 10
-15.99999999999989
 20
145.4500001072884
 30
0.0
  3
Rckans1
  1

  0
INSERT
  5
59
330
58
100
AcDbEntity
  8
0
100
AcDbBlockReference
  2
D_MXK_4_select__3
 10
-30.00000130664052
 20
128.7500000214615
 30
0.0
  0
MTEXT
  5
B9
330
58
100
AcDbEntity
  8
1
 62
     6
100
AcDbMText
 10
-15.99999999999989
 20
123.75
 30
0.0
 40
5.0
 41
0.0
 71
     2
 72
     1
  1
 
  7
CONVERTER_11
 73
     1
 44
1.32052821128451
  0
ENDBLK
  5
5B
330
58
100
AcDbEntity
  8
0
100
AcDbBlockEnd
  0
BLOCK
  5
5D
330
5C
100
AcDbEntity
  8
0
100
AcDbBlockBegin
  2
D_MXK_4_select__4
 70
     0
 10
-78.74999999998481
 20
128.7500000214616
 30
0.0
  3
D_MXK_4_select__4
  1

  0
LINE
  5
BA
330
5C
100
AcDbEntity
  8
0
  6
Continuous
 62
     7
100
AcDbLine
 10
-78.74999999998481
 20
162.1500000214616
 30
0.0
 11
-77.24999999998481
 21
162.1500000214616
 31
0.0
  0
LINE
  5
BB
330
5C
100
AcDbEntity
  8
0
  6
Continuous
 62
     7
100
AcDbLine
 10
-77.24999999998481
 20
128.7500000214616
 30
0.0
 11
-77.24999999998481
 21
162.1500000214616
 31
0.0
  0
LINE
  5
BC
330
5C
100
AcDbEntity
  8
0
  6
Continuous
 62
     7
100
AcDbLine
 10
-77.24999999998481
 20
128.7500000214616
 30
0.0
 11
-78.74999999998481
 21
128.7500000214616
 31
0.0
  0
LINE
  5
BD
330
5C
100
AcDbEntity
  8
0
  6
Continuous
 62
     7
100
AcDbLine
 10
-78.74999999998481
 20
128.7500000214616
 30
0.0
 11
-78.74999999998481
 21
162.1500000214616
 31
0.0
  0
ENDBLK
  5
5E
330
5C
100
AcDbEntity
  8
0
100
AcDbBlockEnd
  0
BLOCK
  5
61
330
5F
100
AcDbEntity
  8
0
100
AcDbBlockBegin
  2
SA_Links1
 70
     0
 10
-77.99999999998981
 20
145.4500001072884
 30
0.0
  3
SA_Links1
  1

  0
INSERT
  5
60
330
5F
100
AcDbEntity
  8
0
100
AcDbBlockReference
  2
D_MXK_4_select__4
 10
-78.74999999998481
 20
128.7500000214616
 30
0.0
  0
MTEXT
  5
BE
330
5F
100
AcDbEntity
  8
1
 62
     6
100
AcDbMText
 10
-77.99999999998988
 20
123.75
 30
0.0
 40
5.0
 41
0.0
 71
     2
 72
     1
  1
 
  7
CONVERTER_11
 73
     1
 44
1.32052821128451
  0
ENDBLK
  5
62
330
5F
100
AcDbEntity
  8
0
100
AcDbBlockEnd
  0
BLOCK
  5
64
330
63
100
AcDbEntity
  8
0
100
AcDbBlockBegin
  2
D_MXK_4_select__5
 70
     0
 10
-196.7500000000101
 20
125.7500000214615
 30
0.0
  3
D_MXK_4_select__5
  1

  0
LINE
  5
BF
330
63
100
AcDbEntity
  8
0
  6
Continuous
 62
     7
100
AcDbLine
 10
-196.7500000000101
 20
159.1500000214615
 30
0.0
 11
-196.7500000000101
 21
125.7500000214615
 31
0.0
  0
LINE
  5
C0
330
63
100
AcDbEntity
  8
0
  6
Continuous
 62
     7
100
AcDbLine
 10
-195.2500000000101
 20
159.1500000214615
 30
0.0
 11
-195.2500000000101
 21
125.7500000214615
 31
0.0
  0
LINE
  5
C1
330
63
100
AcDbEntity
  8
0
  6
Continuous
 62
     7
100
AcDbLine
 10
-195.2500000000101
 20
125.7500000214615
 30
0.0
 11
-196.7500000000101
 21
125.7500000214615
 31
0.0
  0
LINE
  5
C2
330
63
100
AcDbEntity
  8
0
  6
Continuous
 62
     7
100
AcDbLine
 10
-195.2500000000101
 20
159.1500000214615
 30
0.0
 11
-196.7500000000101
 21
159.1500000214615
 31
0.0
  0
ENDBLK
  5
65
330
63
100
AcDbEntity
  8
0
100
AcDbBlockEnd
  0
BLOCK
  5
68
330
66
100
AcDbEntity
  8
0
100
AcDbBlockBegin
  2
SA_Rechts1
 70
     0
 10
-196.0000000000051
 20
142.4500001072884
 30
0.0
  3
SA_Rechts1
  1

  0
INSERT
  5
67
330
66
100
AcDbEntity
  8
0
100
AcDbBlockReference
  2
D_MXK_4_select__5
 10
-196.7500000000101
 20
125.7500000214615
 30
0.0
  0
MTEXT
  5
C3
330
66
100
AcDbEntity
  8
1
 62
     6
100
AcDbMText
 10
-196.0000000000051
 20
120.7500000000001
 30
0.0
 40
5.0
 41
0.0
 71
     2
 72
     1
  1
 
  7
CONVERTER_11
 73
     1
 44
1.32052821128451
  0
ENDBLK
  5
69
330
66
100
AcDbEntity
  8
0
100
AcDbBlockEnd
  0
BLOCK
  5
6B
330
6A
100
AcDbEntity
  8
0
100
AcDbBlockBegin
  2
D_MXK_4_select__6
 70
     0
 10
-141.9999986933594
 20
128.7500000214615
 30
0.0
  3
D_MXK_4_select__6
  1

  0
LINE
  5
C4
330
6A
100
AcDbEntity
  8
0
  6
Continuous
 62
     7
100
AcDbLine
 10
-129.5999986933594
 20
162.1500000214615
 30
0.0
 11
-126.3999986933594
 21
162.1500000214615
 31
0.0
  0
LINE
  5
C5
330
6A
100
AcDbEntity
  8
0
  6
Continuous
 62
     7
100
AcDbLine
 10
-113.9999986933594
 20
162.1500000214615
 30
0.0
 11
-113.9999986933594
 21
128.7500000214615
 31
0.0
  0
LINE
  5
C6
330
6A
100
AcDbEntity
  8
0
  6
Continuous
 62
     7
100
AcDbLine
 10
-113.9999986933594
 20
128.7500000214615
 30
0.0
 11
-141.9999986933594
 21
128.7500000214615
 31
0.0
  0
LINE
  5
C7
330
6A
100
AcDbEntity
  8
0
  6
Continuous
 62
     7
100
AcDbLine
 10
-126.3999986933594
 20
162.1500000214615
 30
0.0
 11
-113.9999986933594
 21
162.1500000214615
 31
0.0
  0
LINE
  5
C8
330
6A
100
AcDbEntity
  8
0
  6
Continuous
 62
     7
100
AcDbLine
 10
-141.9999986933594
 20
162.1500000214615
 30
0.0
 11
-129.5999986933594
 21
162.1500000214615
 31
0.0
  0
LINE
  5
C9
330
6A
100
AcDbEntity
  8
0
  6
Continuous
 62
     7
100
AcDbLine
 10
-129.5999986933594
 20
154.1500000214615
 30
0.0
 11
-129.5999986933594
 21
162.1500000214615
 31
0.0
  0
LINE
  5
CA
330
6A
100
AcDbEntity
  8
0
  6
Continuous
 62
     7
100
AcDbLine
 10
-126.3999986933594
 20
154.1500000214615
 30
0.0
 11
-129.5999986933594
 21
154.1500000214615
 31
0.0
  0
LINE
  5
CB
330
6A
100
AcDbEntity
  8
0
  6
Continuous
 62
     7
100
AcDbLine
 10
-126.3999986933594
 20
162.1500000214615
 30
0.0
 11
-126.3999986933594
 21
154.1500000214615
 31
0.0
  0
LINE
  5
CC
330
6A
100
AcDbEntity
  8
0
  6
Continuous
 62
     7
100
AcDbLine
 10
-141.9999986933594
 20
128.7500000214615
 30
0.0
 11
-141.9999986933594
 21
162.1500000214615
 31
0.0
  0
LINE
  5
CD
330
6A
100
AcDbEntity
  8
1
  6
DOT_CENTER
 62
     2
100
AcDbLine
 10
-127.9999986933594
 20
126.58998115036
 30
0.0
 11
-127.9999986933594
 21
164.234542729261
 31
0.0
  0
ENDBLK
  5
6C
330
6A
100
AcDbEntity
  8
0
100
AcDbBlockEnd
  0
BLOCK
  5
6F
330
6D
100
AcDbEntity
  8
0
100
AcDbBlockBegin
  2
Vordans1
 70
     0
 10
-128.0
 20
145.4500001072884
 30
0.0
  3
Vordans1
  1

  0
INSERT
  5
6E
330
6D
100
AcDbEntity
  8
0
100
AcDbBlockReference
  2
D_MXK_4_select__6
 10
-141.9999986933594
 20
128.7500000214615
 30
0.0
  0
MTEXT
  5
CE
330
6D
100
AcDbEntity
  8
1
 62
     6
100
AcDbMText
 10
-127.9999999999999
 20
123.75
 30
0.0
 40
5.0
 41
0.0
 71
     2
 72
     1
  1
 
  7
CONVERTER_11
 73
     1
 44
1.32052821128451
  0
DIMENSION
  5
D9
330
6D
100
AcDbEntity
  8
1
100
AcDbDimension
  2
*D18
 10
-150.5684759876603
 20
128.7500000214615
 30
0.0
 11
-154.4934759876603
 21
146.659745925199
 31
0.0
 70
    32
  1
<>
 71
     5
 42
-1.0
 53
90.0
  3
ME10_DIM_11
100
AcDbAlignedDimension
 13
-113.9999986933594
 23
162.1500000214615
 33
0.0
 14
-113.9999986933594
 24
128.7500000214615
 34
0.0
 50
90.0
100
AcDbRotatedDimension
  0
DIMENSION
  5
E4
330
6D
100
AcDbEntity
  8
1
100
AcDbDimension
  2
*D19
 10
-141.9999986933595
 20
117.679212236346
 30
0.0
 11
-128.0
 21
121.429212236346
 31
0.0
 70
    32
  1
<>
 71
     5
 42
-1.0
 53
0.00013888888889
  3
ME10_DIM_12
100
AcDbAlignedDimension
 13
-113.9999986933594
 23
128.7500000214615
 33
0.0
 14
-141.9999986933594
 24
128.7500000214615
 34
0.0
100
AcDbRotatedDimension
  0
ENDBLK
  5
70
330
6D
100
AcDbEntity
  8
0
100
AcDbBlockEnd
  0
BLOCK
  5
72
330
71
100
AcDbEntity
  8
0
100
AcDbBlockBegin
  2
_rahmen
 70
     0
 10
48.74967839227934
 20
4.93130807946284
 30
0.0
  3
_rahmen
  1

  0
LINE
  5
E5
330
71
100
AcDbEntity
  8
1
  6
DOT_CENTER
 62
     2
100
AcDbLine
 10
-76.80847124790807
 20
31.05630807946287
 30
0.0
 11
-71.30847124790807
 21
31.05630807946287
 31
0.0
  0
LINE
  5
E6
330
71
100
AcDbEntity
  8
1
  6
PHANTOM
 62
     2
100
AcDbLine
 10
-68.05847124790807
 20
33.80630807946287
 30
0.0
 11
-68.05847124790807
 21
28.30630807946287
 31
0.0
  0
LINE
  5
E7
330
71
100
AcDbEntity
  8
1
  6
PHANTOM
 62
     2
100
AcDbLine
 10
-65.30847124790807
 20
31.05630807946287
 30
0.0
 11
-70.80847124790807
 21
31.05630807946287
 31
0.0
  0
LINE
  5
E8
330
71
100
AcDbEntity
  8
1
  6
Continuous
 62
     7
100
AcDbLine
 10
-16.49512613447067
 20
18.43130807946287
 30
0.0
 11
-16.49512613447067
 21
26.93130807946295
 31
0.0
  0
LINE
  5
E9
330
71
100
AcDbEntity
  8
1
  6
Continuous
 62
     6
100
AcDbLine
 10
-44.39512613447076
 20
26.93130807946295
 30
0.0
 11
48.74967839228103
 21
26.93130807946295
 31
0.0
  0
LINE
  5
EA
330
71
100
AcDbEntity
  8
1
  6
Continuous
 62
     7
100
AcDbLine
 10
-80.79512613447068
 20
26.93130807946295
 30
0.0
 11
-80.79512613447068
 21
35.43130807946295
 31
0.0
  0
LINE
  5
EB
330
71
100
AcDbEntity
  8
1
  6
Continuous
 62
     7
100
AcDbLine
 10
-44.39512613447076
 20
26.93130807946295
 30
0.0
 11
-44.39512613447076
 21
35.43130807946295
 31
0.0
  0
LINE
  5
EC
330
71
100
AcDbEntity
  8
1
  6
Continuous
 62
     7
100
AcDbLine
 10
13.33127011060222
 20
35.43130807946295
 30
0.0
 11
13.33127011060222
 21
26.93130807946295
 31
0.0
  0
LINE
  5
ED
330
71
100
AcDbEntity
  8
1
  6
Continuous
 62
     7
100
AcDbLine
 10
39.83127011060182
 20
35.43130807946295
 30
0.0
 11
39.83127011060182
 21
26.93130807946295
 31
0.0
  0
LINE
  5
EE
330
71
100
AcDbEntity
  8
1
  6
Continuous
 62
     6
100
AcDbLine
 10
-149.7951261344707
 20
9.93130807946295
 30
0.0
 11
-194.7503216077207
 21
9.93130807946295
 31
0.0
  0
LINE
  5
EF
330
71
100
AcDbEntity
  8
1
  6
Continuous
 62
     7
100
AcDbLine
 10
48.74967839228063
 20
18.43130807946295
 30
0.0
 11
-44.39512613447076
 21
18.43130807946295
 31
0.0
  0
LINE
  5
F0
102
{ACAD_REACTORS
330
202
330
203
102
}
330
71
100
AcDbEntity
  8
0
  6
Continuous
 62
     2
100
AcDbLine
 10
-67.08769719270327
 20
19.23159719512626
 30
0.0
 11
-67.08769719270327
 21
20.10411420192955
 31
0.0
  0
LINE
  5
F1
102
{ACAD_REACTORS
330
202
330
203
102
}
330
71
100
AcDbEntity
  8
0
  6
Continuous
 62
     2
100
AcDbLine
 10
-67.08769719270327
 20
18.27182848764335
 30
0.0
 11
-67.08769719270327
 21
17.39931148084014
 31
0.0
  0
LINE
  5
F2
102
{ACAD_REACTORS
330
204
330
205
102
}
330
71
100
AcDbEntity
  8
0
  6
Continuous
 62
     2
100
AcDbLine
 10
-51.75465305641276
 20
19.49335229716675
 30
0.0
 11
-50.65101375684466
 21
19.49335229716675
 31
0.0
  0
LINE
  5
F3
102
{ACAD_REACTORS
330
204
330
205
102
}
330
71
100
AcDbEntity
  8
0
  6
Continuous
 62
     2
100
AcDbLine
 10
-50.98499571345136
 20
18.27182848764286
 30
0.0
 11
-50.98499571345136
 21
17.39931148083954
 31
0.0
  0
LINE
  5
F4
102
{ACAD_REACTORS
330
20E
330
20F
102
}
330
71
100
AcDbEntity
  8
0
  6
Continuous
 62
     2
100
AcDbLine
 10
-52.84575232883128
 20
20.58399855565355
 30
0.0
 11
-51.44779928189098
 21
22.16485754942855
 31
0.0
  0
LINE
  5
F5
102
{ACAD_REACTORS
330
20E
330
20F
102
}
330
71
100
AcDbEntity
  8
0
  6
Continuous
 62
     2
100
AcDbLine
 10
-52.75032891265846
 20
23.63780807946475
 30
0.0
 11
-51.44779928189098
 21
22.16485754942855
 31
0.0
  0
LINE
  5
F6
102
{ACAD_REACTORS
330
20E
330
20F
102
}
330
71
100
AcDbEntity
  8
0
  6
Continuous
 62
     2
100
AcDbLine
 10
-50.14526965112458
 20
23.63780807946475
 30
0.0
 11
-48.74254543337736
 21
23.63780807946475
 31
0.0
  0
LINE
  5
F7
102
{ACAD_REACTORS
330
20E
330
20F
102
}
330
71
100
AcDbEntity
  8
0
  6
Continuous
 62
     2
100
AcDbLine
 10
-51.44302811108307
 20
20.58399855565355
 30
0.0
 11
-50.74643717301737
 21
21.37173034094727
 31
0.0
  0
LINE
  5
F8
102
{ACAD_REACTORS
330
20E
330
20F
102
}
330
71
100
AcDbEntity
  8
0
  6
Continuous
 62
     2
100
AcDbLine
 10
-51.44302811108307
 20
20.58399855565355
 30
0.0
 11
-52.84575232883128
 21
20.58399855565355
 31
0.0
  0
LINE
  5
F9
102
{ACAD_REACTORS
330
210
330
211
102
}
330
71
100
AcDbEntity
  8
0
  6
Continuous
 62
     2
100
AcDbLine
 10
-52.96503159904816
 20
20.58399855565355
 30
0.0
 11
-54.20553600930106
 21
20.58399855565355
 31
0.0
  0
LINE
  5
FA
102
{ACAD_REACTORS
330
212
330
213
102
}
330
71
100
AcDbEntity
  8
0
  6
Continuous
 62
     2
100
AcDbLine
 10
-55.07351561745617
 20
18.44633188900374
 30
0.0
 11
-55.37368085464627
 21
19.21414685499045
 31
0.0
  0
LINE
  5
FB
102
{ACAD_REACTORS
330
212
330
213
102
}
330
71
100
AcDbEntity
  8
0
  6
Continuous
 62
     2
100
AcDbLine
 10
-55.67384609183867
 20
18.44633188900374
 30
0.0
 11
-55.07351561745617
 21
18.44633188900374
 31
0.0
  0
LINE
  5
FC
102
{ACAD_REACTORS
330
212
330
213
102
}
330
71
100
AcDbEntity
  8
0
  6
Continuous
 62
     2
100
AcDbLine
 10
-57.39188610671246
 20
17.22480807947926
 30
0.0
 11
-56.15138169645948
 21
17.22480807947926
 31
0.0
  0
LINE
  5
FD
102
{ACAD_REACTORS
330
212
330
213
102
}
330
71
100
AcDbEntity
  8
0
  6
Continuous
 62
     2
100
AcDbLine
 10
-55.99393305977316
 20
20.27861760329034
 30
0.0
 11
-54.75342864952046
 21
20.27861760329034
 31
0.0
  0
LINE
  5
FE
102
{ACAD_REACTORS
330
212
330
213
102
}
330
71
100
AcDbEntity
  8
0
  6
Continuous
 62
     2
100
AcDbLine
 10
-54.75342864952046
 20
20.27861760329034
 30
0.0
 11
-53.35547560258016
 21
17.22480807947926
 31
0.0
  0
LINE
  5
FF
102
{ACAD_REACTORS
330
212
330
213
102
}
330
71
100
AcDbEntity
  8
0
  6
Continuous
 62
     2
100
AcDbLine
 10
-54.59598001283408
 20
17.22480807947926
 30
0.0
 11
-54.80746006630986
 21
17.76576862369714
 31
0.0
  0
LINE
  5
100
102
{ACAD_REACTORS
330
214
330
215
102
}
330
71
100
AcDbEntity
  8
0
  6
Continuous
 62
     2
100
AcDbLine
 10
-58.73829920842007
 20
17.22480807947926
 30
0.0
 11
-57.54550650625356
 21
17.22480807947926
 31
0.0
  0
LINE
  5
101
102
{ACAD_REACTORS
330
214
330
215
102
}
330
71
100
AcDbEntity
  8
0
  6
Continuous
 62
     2
100
AcDbLine
 10
-58.73829920842007
 20
19.49335229716675
 30
0.0
 11
-58.73829920842007
 21
17.22480807947926
 31
0.0
  0
LINE
  5
102
102
{ACAD_REACTORS
330
214
330
215
102
}
330
71
100
AcDbEntity
  8
0
  6
Continuous
 62
     2
100
AcDbLine
 10
-59.54939824589468
 20
20.27861760329034
 30
0.0
 11
-59.54939824589468
 21
19.49335229716675
 31
0.0
  0
LINE
  5
103
102
{ACAD_REACTORS
330
216
330
217
102
}
330
71
100
AcDbEntity
  8
0
  6
Continuous
 62
     2
100
AcDbLine
 10
-58.07018436432207
 20
20.58399855565355
 30
0.0
 11
-56.87739166215556
 21
20.58399855565355
 31
0.0
  0
LINE
  5
104
102
{ACAD_REACTORS
330
216
330
217
102
}
330
71
100
AcDbEntity
  8
0
  6
Continuous
 62
     2
100
AcDbLine
 10
-55.63688725190156
 20
22.32903256925957
 30
0.0
 11
-56.87739166215556
 21
23.63780807946475
 31
0.0
  0
LINE
  5
105
102
{ACAD_REACTORS
330
216
330
217
102
}
330
71
100
AcDbEntity
  8
0
  6
Continuous
 62
     2
100
AcDbLine
 10
-54.44409454973496
 20
23.63780807946475
 30
0.0
 11
-55.63688725190156
 21
23.63780807946475
 31
0.0
  0
LINE
  5
106
102
{ACAD_REACTORS
330
216
330
217
102
}
330
71
100
AcDbEntity
  8
0
  6
Continuous
 62
     2
100
AcDbLine
 10
-54.44409454973496
 20
20.58399855565355
 30
0.0
 11
-54.44409454973496
 21
23.63780807946475
 31
0.0
  0
LINE
  5
107
102
{ACAD_REACTORS
330
216
330
217
102
}
330
71
100
AcDbEntity
  8
0
  6
Continuous
 62
     2
100
AcDbLine
 10
-55.63688725190156
 20
20.58399855565355
 30
0.0
 11
-54.44409454973496
 21
20.58399855565355
 31
0.0
  0
LINE
  5
108
102
{ACAD_REACTORS
330
216
330
217
102
}
330
71
100
AcDbEntity
  8
0
  6
Continuous
 62
     2
100
AcDbLine
 10
-56.87739166215556
 20
21.89277406585825
 30
0.0
 11
-55.63688725190156
 21
20.58399855565355
 31
0.0
  0
LINE
  5
109
102
{ACAD_REACTORS
330
218
330
219
102
}
330
71
100
AcDbEntity
  8
0
  6
Continuous
 62
     2
100
AcDbLine
 10
-60.88532607232128
 20
18.96984209308525
 30
0.0
 11
-62.12583048257417
 21
20.27861760329034
 31
0.0
  0
LINE
  5
10A
102
{ACAD_REACTORS
330
218
330
219
102
}
330
71
100
AcDbEntity
  8
0
  6
Continuous
 62
     2
100
AcDbLine
 10
-60.88532607232128
 20
20.27861760329034
 30
0.0
 11
-60.88532607232128
 21
18.96984209308525
 31
0.0
  0
LINE
  5
10B
102
{ACAD_REACTORS
330
218
330
219
102
}
330
71
100
AcDbEntity
  8
0
  6
Continuous
 62
     2
100
AcDbLine
 10
-59.69253337015488
 20
20.27861760329034
 30
0.0
 11
-60.88532607232128
 21
20.27861760329034
 31
0.0
  0
LINE
  5
10C
102
{ACAD_REACTORS
330
218
330
219
102
}
330
71
100
AcDbEntity
  8
0
  6
Continuous
 62
     2
100
AcDbLine
 10
-59.69253337015488
 20
17.22480807947926
 30
0.0
 11
-59.69253337015488
 21
20.27861760329034
 31
0.0
  0
LINE
  5
10D
102
{ACAD_REACTORS
330
218
330
219
102
}
330
71
100
AcDbEntity
  8
0
  6
Continuous
 62
     2
100
AcDbLine
 10
-62.12583048257417
 20
18.53358358968384
 30
0.0
 11
-60.88532607232128
 21
17.22480807947926
 31
0.0
  0
LINE
  5
10E
102
{ACAD_REACTORS
330
218
330
219
102
}
330
71
100
AcDbEntity
  8
0
  6
Continuous
 62
     2
100
AcDbLine
 10
-62.12583048257417
 20
17.22480807947926
 30
0.0
 11
-62.12583048257417
 21
18.53358358968384
 31
0.0
  0
LINE
  5
10F
102
{ACAD_REACTORS
330
208
330
209
102
}
330
71
100
AcDbEntity
  8
0
  6
Continuous
 62
     2
100
AcDbLine
 10
-59.64467073118266
 20
22.93979447402177
 30
0.0
 11
-58.30874290475498
 21
22.93979447402177
 31
0.0
  0
LINE
  5
110
102
{ACAD_REACTORS
330
208
330
209
102
}
330
71
100
AcDbEntity
  8
0
  6
Continuous
 62
     2
100
AcDbLine
 10
-59.64467073118266
 20
21.28201216109605
 30
0.0
 11
-59.64467073118266
 21
21.76189651483776
 31
0.0
  0
LINE
  5
111
102
{ACAD_REACTORS
330
208
330
209
102
}
330
71
100
AcDbEntity
  8
0
  6
Continuous
 62
     2
100
AcDbLine
 10
-58.30874290475498
 20
21.28201216109605
 30
0.0
 11
-59.64467073118266
 21
21.28201216109605
 31
0.0
  0
LINE
  5
112
102
{ACAD_REACTORS
330
208
330
209
102
}
330
71
100
AcDbEntity
  8
0
  6
Continuous
 62
     2
100
AcDbLine
 10
-58.30874290475498
 20
20.58399855565355
 30
0.0
 11
-58.30874290475498
 21
21.28201216109605
 31
0.0
  0
LINE
  5
113
102
{ACAD_REACTORS
330
208
330
209
102
}
330
71
100
AcDbEntity
  8
0
  6
Continuous
 62
     2
100
AcDbLine
 10
-61.45906262853598
 20
20.58399855565355
 30
0.0
 11
-58.30874290475498
 21
20.58399855565355
 31
0.0
  0
LINE
  5
114
102
{ACAD_REACTORS
330
208
330
209
102
}
330
71
100
AcDbEntity
  8
0
  6
Continuous
 62
     2
100
AcDbLine
 10
-61.45906262853598
 20
23.63780807946475
 30
0.0
 11
-58.30874290475498
 21
23.63780807946475
 31
0.0
  0
LINE
  5
115
102
{ACAD_REACTORS
330
208
330
209
102
}
330
71
100
AcDbEntity
  8
0
  6
Continuous
 62
     2
100
AcDbLine
 10
-58.30874290475498
 20
22.93979447402177
 30
0.0
 11
-58.30874290475498
 21
23.63780807946475
 31
0.0
  0
LINE
  5
116
102
{ACAD_REACTORS
330
21A
330
21B
102
}
330
71
100
AcDbEntity
  8
0
  6
Continuous
 62
     2
100
AcDbLine
 10
-64.32041812367598
 20
22.56897474613015
 30
0.0
 11
-64.32041812367598
 21
23.63780807946475
 31
0.0
  0
LINE
  5
117
102
{ACAD_REACTORS
330
21A
330
21B
102
}
330
71
100
AcDbEntity
  8
0
  6
Continuous
 62
     2
100
AcDbLine
 10
-64.32041812367598
 20
23.63780807946475
 30
0.0
 11
-63.12762542150958
 21
23.63780807946475
 31
0.0
  0
LINE
  5
118
102
{ACAD_REACTORS
330
21A
330
21B
102
}
330
71
100
AcDbEntity
  8
0
  6
Continuous
 62
     2
100
AcDbLine
 10
-64.32041812367598
 20
21.71827066449737
 30
0.0
 11
-65.37007570158346
 21
21.71827066449737
 31
0.0
  0
LINE
  5
119
102
{ACAD_REACTORS
330
21A
330
21B
102
}
330
71
100
AcDbEntity
  8
0
  6
Continuous
 62
     2
100
AcDbLine
 10
-65.37007570158346
 20
21.71827066449737
 30
0.0
 11
-65.37007570158346
 21
20.58399855565355
 31
0.0
  0
LINE
  5
11A
102
{ACAD_REACTORS
330
21A
330
21B
102
}
330
71
100
AcDbEntity
  8
0
  6
Continuous
 62
     2
100
AcDbLine
 10
-66.56286840375006
 20
23.63780807946475
 30
0.0
 11
-66.56286840375006
 21
20.58399855565355
 31
0.0
  0
LINE
  5
11B
102
{ACAD_REACTORS
330
20C
330
20D
102
}
330
71
100
AcDbEntity
  8
0
  6
Continuous
 62
     2
100
AcDbLine
 10
-68.51904843530366
 20
22.26897458468244
 30
0.0
 11
-68.51904843530366
 21
22.97470223402465
 31
0.0
  0
LINE
  5
11C
102
{ACAD_REACTORS
330
20C
330
20D
102
}
330
71
100
AcDbEntity
  8
0
  6
Continuous
 62
     2
100
AcDbLine
 10
-69.75955284555778
 20
20.58399855565355
 30
0.0
 11
-68.51904843530366
 21
20.58399855565355
 31
0.0
  0
LINE
  5
11D
102
{ACAD_REACTORS
330
20C
330
20D
102
}
330
71
100
AcDbEntity
  8
0
  6
Continuous
 62
     2
100
AcDbLine
 10
-68.51904843530366
 20
20.58399855565355
 30
0.0
 11
-68.51904843530366
 21
21.52707679679736
 31
0.0
  0
LINE
  5
11E
102
{ACAD_REACTORS
330
206
330
207
102
}
330
71
100
AcDbEntity
  8
0
  6
Continuous
 62
     2
100
AcDbLine
 10
-74.06449869476916
 20
17.93736363503615
 30
0.0
 11
-75.54033195577878
 21
17.93736363503615
 31
0.0
  0
LINE
  5
11F
102
{ACAD_REACTORS
330
206
330
207
102
}
330
71
100
AcDbEntity
  8
0
  6
Continuous
 62
     2
100
AcDbLine
 10
-76.55847124790807
 20
23.21356346406276
 30
0.0
 11
-76.55847124790807
 21
17.64905269486255
 31
0.0
  0
LINE
  5
120
102
{ACAD_REACTORS
330
206
330
207
102
}
330
71
100
AcDbEntity
  8
0
  6
Continuous
 62
     2
100
AcDbLine
 10
-76.13422663252527
 20
23.63780807944656
 30
0.0
 11
-70.66091454180847
 21
23.63780807944656
 31
0.0
  0
LINE
  5
121
102
{ACAD_REACTORS
330
206
330
207
102
}
330
71
100
AcDbEntity
  8
0
  6
Continuous
 62
     2
100
AcDbLine
 10
-70.23666992642458
 20
23.21356346406276
 30
0.0
 11
-70.23666992642458
 21
17.64905269486255
 31
0.0
  0
LINE
  5
122
102
{ACAD_REACTORS
330
206
330
207
102
}
330
71
100
AcDbEntity
  8
0
  6
Continuous
 62
     2
100
AcDbLine
 10
-70.66091454180847
 20
17.22480807947926
 30
0.0
 11
-76.13422663252527
 21
17.22480807947926
 31
0.0
  0
LINE
  5
123
102
{ACAD_REACTORS
330
206
330
207
102
}
330
71
100
AcDbEntity
  8
0
  6
Continuous
 62
     2
100
AcDbLine
 10
-73.74878177169256
 20
18.25308055811286
 30
0.0
 11
-73.74878177169256
 21
19.78385148964446
 31
0.0
  0
LINE
  5
124
102
{ACAD_REACTORS
330
206
330
207
102
}
330
71
100
AcDbEntity
  8
0
  6
Continuous
 62
     2
100
AcDbLine
 10
-73.74878177169256
 20
22.00551098176945
 30
0.0
 11
-73.74878177169256
 21
22.60953560082996
 31
0.0
  0
LINE
  5
125
102
{ACAD_REACTORS
330
206
330
207
102
}
330
71
100
AcDbEntity
  8
0
  6
Continuous
 62
     2
100
AcDbLine
 10
-75.54033195577878
 20
22.92525252390615
 30
0.0
 11
-74.06449869476916
 21
22.92525252390615
 31
0.0
  0
LINE
  5
126
102
{ACAD_REACTORS
330
206
330
207
102
}
330
71
100
AcDbEntity
  8
0
  6
Continuous
 62
     2
100
AcDbLine
 10
-75.85604887885447
 20
22.60953560082996
 30
0.0
 11
-75.85604887885447
 21
18.25308055811286
 31
0.0
  0
LINE
  5
127
102
{ACAD_REACTORS
330
20C
330
20D
102
}
330
71
100
AcDbEntity
  8
0
  6
Continuous
 62
     2
100
AcDbLine
 10
-68.51904843530366
 20
21.52707679679736
 30
0.0
 11
-67.76028084752338
 21
21.52707679679736
 31
0.0
  0
LINE
  5
128
102
{ACAD_REACTORS
330
20C
330
20D
102
}
330
71
100
AcDbEntity
  8
0
  6
Continuous
 62
     2
100
AcDbLine
 10
-69.75955284555778
 20
23.63780807946475
 30
0.0
 11
-67.76028084752338
 21
23.63780807946475
 31
0.0
  0
LINE
  5
129
102
{ACAD_REACTORS
330
20C
330
20D
102
}
330
71
100
AcDbEntity
  8
0
  6
Continuous
 62
     2
100
AcDbLine
 10
-69.75955284555778
 20
23.63780807946475
 30
0.0
 11
-69.75955284555778
 21
20.58399855565355
 31
0.0
  0
LINE
  5
12A
102
{ACAD_REACTORS
330
20C
330
20D
102
}
330
71
100
AcDbEntity
  8
0
  6
Continuous
 62
     2
100
AcDbLine
 10
-68.51904843530366
 20
22.26897458468244
 30
0.0
 11
-68.20175337376176
 21
22.26897458468244
 31
0.0
  0
LINE
  5
12B
102
{ACAD_REACTORS
330
20C
330
20D
102
}
330
71
100
AcDbEntity
  8
0
  6
Continuous
 62
     2
100
AcDbLine
 10
-68.51904843530366
 20
22.97470223402465
 30
0.0
 11
-68.20175337376176
 21
22.97470223402465
 31
0.0
  0
LINE
  5
12C
102
{ACAD_REACTORS
330
21A
330
21B
102
}
330
71
100
AcDbEntity
  8
0
  6
Continuous
 62
     2
100
AcDbLine
 10
-65.37007570158346
 20
22.56897474613015
 30
0.0
 11
-64.32041812367598
 21
22.56897474613015
 31
0.0
  0
LINE
  5
12D
102
{ACAD_REACTORS
330
21A
330
21B
102
}
330
71
100
AcDbEntity
  8
0
  6
Continuous
 62
     2
100
AcDbLine
 10
-65.37007570158346
 20
23.63780807946475
 30
0.0
 11
-65.37007570158346
 21
22.56897474613015
 31
0.0
  0
LINE
  5
12E
102
{ACAD_REACTORS
330
21A
330
21B
102
}
330
71
100
AcDbEntity
  8
0
  6
Continuous
 62
     2
100
AcDbLine
 10
-66.56286840375006
 20
23.63780807946475
 30
0.0
 11
-65.37007570158346
 21
23.63780807946475
 31
0.0
  0
LINE
  5
12F
102
{ACAD_REACTORS
330
21A
330
21B
102
}
330
71
100
AcDbEntity
  8
0
  6
Continuous
 62
     2
100
AcDbLine
 10
-65.37007570158346
 20
20.58399855565355
 30
0.0
 11
-66.56286840375006
 21
20.58399855565355
 31
0.0
  0
LINE
  5
130
102
{ACAD_REACTORS
330
21A
330
21B
102
}
330
71
100
AcDbEntity
  8
0
  6
Continuous
 62
     2
100
AcDbLine
 10
-64.32041812367598
 20
20.58399855565355
 30
0.0
 11
-64.32041812367598
 21
21.71827066449737
 31
0.0
  0
LINE
  5
131
102
{ACAD_REACTORS
330
21A
330
21B
102
}
330
71
100
AcDbEntity
  8
0
  6
Continuous
 62
     2
100
AcDbLine
 10
-63.12762542150958
 20
20.58399855565355
 30
0.0
 11
-64.32041812367598
 21
20.58399855565355
 31
0.0
  0
LINE
  5
132
102
{ACAD_REACTORS
330
21A
330
21B
102
}
330
71
100
AcDbEntity
  8
0
  6
Continuous
 62
     2
100
AcDbLine
 10
-63.12762542150958
 20
23.63780807946475
 30
0.0
 11
-63.12762542150958
 21
20.58399855565355
 31
0.0
  0
LINE
  5
133
102
{ACAD_REACTORS
330
208
330
209
102
}
330
71
100
AcDbEntity
  8
0
  6
Continuous
 62
     2
100
AcDbLine
 10
-59.64467073118266
 20
21.76189651483776
 30
0.0
 11
-58.30874290475498
 21
21.76189651483776
 31
0.0
  0
LINE
  5
134
102
{ACAD_REACTORS
330
208
330
209
102
}
330
71
100
AcDbEntity
  8
0
  6
Continuous
 62
     2
100
AcDbLine
 10
-58.30874290475498
 20
21.76189651483776
 30
0.0
 11
-58.30874290475498
 21
22.45991012028006
 31
0.0
  0
LINE
  5
135
102
{ACAD_REACTORS
330
208
330
209
102
}
330
71
100
AcDbEntity
  8
0
  6
Continuous
 62
     2
100
AcDbLine
 10
-58.30874290475498
 20
22.45991012028006
 30
0.0
 11
-59.64467073118266
 21
22.45991012028006
 31
0.0
  0
LINE
  5
136
102
{ACAD_REACTORS
330
208
330
209
102
}
330
71
100
AcDbEntity
  8
0
  6
Continuous
 62
     2
100
AcDbLine
 10
-59.64467073118266
 20
22.45991012028006
 30
0.0
 11
-59.64467073118266
 21
22.93979447402177
 31
0.0
  0
LINE
  5
137
102
{ACAD_REACTORS
330
218
330
219
102
}
330
71
100
AcDbEntity
  8
0
  6
Continuous
 62
     2
100
AcDbLine
 10
-63.31862318474177
 20
17.22480807947926
 30
0.0
 11
-62.12583048257417
 21
17.22480807947926
 31
0.0
  0
LINE
  5
138
102
{ACAD_REACTORS
330
218
330
219
102
}
330
71
100
AcDbEntity
  8
0
  6
Continuous
 62
     2
100
AcDbLine
 10
-60.88532607232128
 20
17.22480807947926
 30
0.0
 11
-59.69253337015488
 21
17.22480807947926
 31
0.0
  0
LINE
  5
139
102
{ACAD_REACTORS
330
218
330
219
102
}
330
71
100
AcDbEntity
  8
0
  6
Continuous
 62
     2
100
AcDbLine
 10
-62.12583048257417
 20
20.27861760329034
 30
0.0
 11
-63.31862318474177
 21
20.27861760329034
 31
0.0
  0
LINE
  5
13A
102
{ACAD_REACTORS
330
218
330
219
102
}
330
71
100
AcDbEntity
  8
0
  6
Continuous
 62
     2
100
AcDbLine
 10
-63.31862318474177
 20
20.27861760329034
 30
0.0
 11
-63.31862318474177
 21
17.22480807947926
 31
0.0
  0
LINE
  5
13B
102
{ACAD_REACTORS
330
216
330
217
102
}
330
71
100
AcDbEntity
  8
0
  6
Continuous
 62
     2
100
AcDbLine
 10
-55.63688725190156
 20
23.63780807946475
 30
0.0
 11
-55.63688725190156
 21
22.32903256925957
 31
0.0
  0
LINE
  5
13C
102
{ACAD_REACTORS
330
216
330
217
102
}
330
71
100
AcDbEntity
  8
0
  6
Continuous
 62
     2
100
AcDbLine
 10
-56.87739166215556
 20
23.63780807946475
 30
0.0
 11
-58.07018436432207
 21
23.63780807946475
 31
0.0
  0
LINE
  5
13D
102
{ACAD_REACTORS
330
216
330
217
102
}
330
71
100
AcDbEntity
  8
0
  6
Continuous
 62
     2
100
AcDbLine
 10
-58.07018436432207
 20
23.63780807946475
 30
0.0
 11
-58.07018436432207
 21
20.58399855565355
 31
0.0
  0
LINE
  5
13E
102
{ACAD_REACTORS
330
216
330
217
102
}
330
71
100
AcDbEntity
  8
0
  6
Continuous
 62
     2
100
AcDbLine
 10
-56.87739166215556
 20
20.58399855565355
 30
0.0
 11
-56.87739166215556
 21
21.89277406585825
 31
0.0
  0
LINE
  5
13F
102
{ACAD_REACTORS
330
214
330
215
102
}
330
71
100
AcDbEntity
  8
0
  6
Continuous
 62
     2
100
AcDbLine
 10
-57.54550650625356
 20
17.22480807947926
 30
0.0
 11
-57.54550650625356
 21
19.49335229716675
 31
0.0
  0
LINE
  5
140
102
{ACAD_REACTORS
330
214
330
215
102
}
330
71
100
AcDbEntity
  8
0
  6
Continuous
 62
     2
100
AcDbLine
 10
-57.54550650625356
 20
19.49335229716675
 30
0.0
 11
-56.73440746878106
 21
19.49335229716675
 31
0.0
  0
LINE
  5
141
102
{ACAD_REACTORS
330
214
330
215
102
}
330
71
100
AcDbEntity
  8
0
  6
Continuous
 62
     2
100
AcDbLine
 10
-56.73440746878106
 20
19.49335229716675
 30
0.0
 11
-56.73440746878106
 21
20.27861760329034
 31
0.0
  0
LINE
  5
142
102
{ACAD_REACTORS
330
214
330
215
102
}
330
71
100
AcDbEntity
  8
0
  6
Continuous
 62
     2
100
AcDbLine
 10
-56.73440746878106
 20
20.27861760329034
 30
0.0
 11
-59.54939824589468
 21
20.27861760329034
 31
0.0
  0
LINE
  5
143
102
{ACAD_REACTORS
330
214
330
215
102
}
330
71
100
AcDbEntity
  8
0
  6
Continuous
 62
     2
100
AcDbLine
 10
-59.54939824589468
 20
19.49335229716675
 30
0.0
 11
-58.73829920842007
 21
19.49335229716675
 31
0.0
  0
LINE
  5
144
102
{ACAD_REACTORS
330
212
330
213
102
}
330
71
100
AcDbEntity
  8
0
  6
Continuous
 62
     2
100
AcDbLine
 10
-55.93990164298367
 20
17.76576862369714
 30
0.0
 11
-54.80746006630986
 21
17.76576862369714
 31
0.0
  0
LINE
  5
145
102
{ACAD_REACTORS
330
212
330
213
102
}
330
71
100
AcDbEntity
  8
0
  6
Continuous
 62
     2
100
AcDbLine
 10
-53.35547560258016
 20
17.22480807947926
 30
0.0
 11
-54.59598001283408
 21
17.22480807947926
 31
0.0
  0
LINE
  5
146
102
{ACAD_REACTORS
330
212
330
213
102
}
330
71
100
AcDbEntity
  8
0
  6
Continuous
 62
     2
100
AcDbLine
 10
-55.99393305977316
 20
20.27861760329034
 30
0.0
 11
-57.39188610671246
 21
17.22480807947926
 31
0.0
  0
LINE
  5
147
102
{ACAD_REACTORS
330
212
330
213
102
}
330
71
100
AcDbEntity
  8
0
  6
Continuous
 62
     2
100
AcDbLine
 10
-56.15138169645948
 20
17.22480807947926
 30
0.0
 11
-55.93990164298367
 21
17.76576862369714
 31
0.0
  0
LINE
  5
148
102
{ACAD_REACTORS
330
212
330
213
102
}
330
71
100
AcDbEntity
  8
0
  6
Continuous
 62
     2
100
AcDbLine
 10
-55.67384609183867
 20
18.44633188900374
 30
0.0
 11
-55.37368085464627
 21
19.21414685499045
 31
0.0
  0
LINE
  5
149
102
{ACAD_REACTORS
330
210
330
211
102
}
330
71
100
AcDbEntity
  8
0
  6
Continuous
 62
     2
100
AcDbLine
 10
-54.20553600930106
 20
20.58399855565355
 30
0.0
 11
-54.20553600930106
 21
23.63780807946475
 31
0.0
  0
LINE
  5
14A
102
{ACAD_REACTORS
330
210
330
211
102
}
330
71
100
AcDbEntity
  8
0
  6
Continuous
 62
     2
100
AcDbLine
 10
-52.96503159904816
 20
23.63780807946475
 30
0.0
 11
-52.96503159904816
 21
20.58399855565355
 31
0.0
  0
LINE
  5
14B
102
{ACAD_REACTORS
330
210
330
211
102
}
330
71
100
AcDbEntity
  8
0
  6
Continuous
 62
     2
100
AcDbLine
 10
-54.20553600930106
 20
23.63780807946475
 30
0.0
 11
-52.96503159904816
 21
23.63780807946475
 31
0.0
  0
LINE
  5
14C
102
{ACAD_REACTORS
330
20E
330
20F
102
}
330
71
100
AcDbEntity
  8
0
  6
Continuous
 62
     2
100
AcDbLine
 10
-50.74643717301737
 20
21.37173034094727
 30
0.0
 11
-50.04984623495187
 21
20.58399855565355
 31
0.0
  0
LINE
  5
14D
102
{ACAD_REACTORS
330
20E
330
20F
102
}
330
71
100
AcDbEntity
  8
0
  6
Continuous
 62
     2
100
AcDbLine
 10
-50.04984623495187
 20
20.58399855565355
 30
0.0
 11
-48.64712201720357
 21
20.58399855565355
 31
0.0
  0
LINE
  5
14E
102
{ACAD_REACTORS
330
20E
330
20F
102
}
330
71
100
AcDbEntity
  8
0
  6
Continuous
 62
     2
100
AcDbLine
 10
-50.04507506414387
 20
22.16485754942855
 30
0.0
 11
-48.64712201720357
 21
20.58399855565355
 31
0.0
  0
LINE
  5
14F
102
{ACAD_REACTORS
330
20E
330
20F
102
}
330
71
100
AcDbEntity
  8
0
  6
Continuous
 62
     2
100
AcDbLine
 10
-50.04507506414387
 20
22.16485754942855
 30
0.0
 11
-48.74254543337736
 21
23.63780807946475
 31
0.0
  0
LINE
  5
150
102
{ACAD_REACTORS
330
20E
330
20F
102
}
330
71
100
AcDbEntity
  8
0
  6
Continuous
 62
     2
100
AcDbLine
 10
-50.74643717301737
 20
22.95798475790926
 30
0.0
 11
-50.14526965112458
 21
23.63780807946475
 31
0.0
  0
LINE
  5
151
102
{ACAD_REACTORS
330
20E
330
20F
102
}
330
71
100
AcDbEntity
  8
0
  6
Continuous
 62
     2
100
AcDbLine
 10
-51.34760469490917
 20
23.63780807946475
 30
0.0
 11
-50.74643717301737
 21
22.95798475790926
 31
0.0
  0
LINE
  5
152
102
{ACAD_REACTORS
330
20E
330
20F
102
}
330
71
100
AcDbEntity
  8
0
  6
Continuous
 62
     2
100
AcDbLine
 10
-51.34760469490917
 20
23.63780807946475
 30
0.0
 11
-52.75032891265846
 21
23.63780807946475
 31
0.0
  0
LINE
  5
153
102
{ACAD_REACTORS
330
204
330
205
102
}
330
71
100
AcDbEntity
  8
0
  6
Continuous
 62
     2
100
AcDbLine
 10
-50.65101375684466
 20
17.22480807947926
 30
0.0
 11
-49.45822105467696
 21
17.22480807947926
 31
0.0
  0
LINE
  5
154
102
{ACAD_REACTORS
330
204
330
205
102
}
330
71
100
AcDbEntity
  8
0
  6
Continuous
 62
     2
100
AcDbLine
 10
-49.45822105467696
 20
17.22480807947926
 30
0.0
 11
-49.45822105467696
 21
19.49335229716675
 31
0.0
  0
LINE
  5
155
102
{ACAD_REACTORS
330
204
330
205
102
}
330
71
100
AcDbEntity
  8
0
  6
Continuous
 62
     2
100
AcDbLine
 10
-49.45822105467696
 20
19.49335229716675
 30
0.0
 11
-48.64712201720357
 21
19.49335229716675
 31
0.0
  0
LINE
  5
156
102
{ACAD_REACTORS
330
204
330
205
102
}
330
71
100
AcDbEntity
  8
0
  6
Continuous
 62
     2
100
AcDbLine
 10
-48.64712201720357
 20
19.49335229716675
 30
0.0
 11
-48.64712201720357
 21
20.27861760329034
 31
0.0
  0
LINE
  5
157
102
{ACAD_REACTORS
330
204
330
205
102
}
330
71
100
AcDbEntity
  8
0
  6
Continuous
 62
     2
100
AcDbLine
 10
-52.03206753583226
 20
20.27861760328986
 30
0.0
 11
-48.64712201720357
 21
20.27861760329034
 31
0.0
  0
LINE
  5
158
102
{ACAD_REACTORS
330
204
330
205
102
}
330
71
100
AcDbEntity
  8
0
  6
Continuous
 62
     2
100
AcDbLine
 10
-50.65101375684466
 20
19.49335229716675
 30
0.0
 11
-50.65101375684466
 21
17.22480807947926
 31
0.0
  0
LINE
  5
159
102
{ACAD_REACTORS
330
206
330
207
102
}
330
71
100
AcDbEntity
  8
0
  6
Continuous
 62
     2
100
AcDbLine
 10
-73.28050019232387
 20
19.20368822904376
 30
0.0
 11
-73.28050019232387
 21
19.78553963573884
 31
0.0
  0
LINE
  5
15A
102
{ACAD_REACTORS
330
206
330
207
102
}
330
71
100
AcDbEntity
  8
0
  6
Continuous
 62
     2
100
AcDbLine
 10
-73.28050019232387
 20
22.00382283567507
 30
0.0
 11
-73.28050019232387
 21
22.60935812418185
 31
0.0
  0
LINE
  5
15B
330
71
100
AcDbEntity
  8
1
  6
Continuous
 62
     6
100
AcDbLine
 10
-94.75032160772065
 20
9.93130807946295
 30
0.0
 11
-80.79512613447068
 21
9.93130807946284
 31
0.0
  0
LINE
  5
15C
330
71
100
AcDbEntity
  8
1
  6
Continuous
 62
     6
100
AcDbLine
 10
-144.7503216077209
 20
9.93130807946295
 30
0.0
 11
-149.7951261344707
 21
9.93130807946295
 31
0.0
  0
LINE
  5
15D
330
71
100
AcDbEntity
  8
1
  6
Continuous
 62
     6
100
AcDbLine
 10
5.24967839227932
 20
9.93130807946295
 30
0.0
 11
48.74967839227934
 21
9.93130807946295
 31
0.0
  0
LINE
  5
15E
330
71
100
AcDbEntity
  8
1
  6
Continuous
 62
     6
100
AcDbLine
 10
-44.75032160772068
 20
9.93130807946295
 30
0.0
 11
-62.59512613447066
 21
9.93130807946295
 31
0.0
  0
LINE
  5
15F
330
71
100
AcDbEntity
  8
1
  6
Continuous
 62
     2
100
AcDbLine
 10
48.74967839227934
 20
9.93130807946295
 30
0.0
 11
53.74967839227833
 21
9.93130807946295
 31
0.0
  0
LINE
  5
160
330
71
100
AcDbEntity
  8
1
  6
Continuous
 62
     2
100
AcDbLine
 10
48.74967839227934
 20
9.93130807946295
 30
0.0
 11
48.74967839227934
 21
4.93130807946284
 31
0.0
  0
LINE
  5
161
330
71
100
AcDbEntity
  8
1
  6
Continuous
 62
     6
100
AcDbLine
 10
-80.79512613447068
 20
26.93130807946295
 30
0.0
 11
-44.39512613447076
 21
26.93130807946295
 31
0.0
  0
LINE
  5
162
330
71
100
AcDbEntity
  8
1
  6
Continuous
 62
     2
100
AcDbLine
 10
53.74967839227833
 20
4.93130807946284
 30
0.0
 11
53.74967839227833
 21
9.93130807946295
 31
0.0
  0
LINE
  5
163
330
71
100
AcDbEntity
  8
1
  6
Continuous
 62
     2
100
AcDbLine
 10
53.74967839227833
 20
4.93130807946284
 30
0.0
 11
48.74967839227934
 21
4.93130807946284
 31
0.0
  0
LINE
  5
164
330
71
100
AcDbEntity
  8
1
  6
Continuous
 62
     2
100
AcDbLine
 10
48.74967839227934
 20
4.93130807946284
 30
0.0
 11
5.24967839227932
 21
4.93130807946284
 31
0.0
  0
LINE
  5
165
330
71
100
AcDbEntity
  8
1
  6
Continuous
 62
     6
100
AcDbLine
 10
48.74967839228103
 20
26.93130807946295
 30
0.0
 11
48.74967839228023
 21
59.93130807946307
 31
0.0
  0
LINE
  5
166
330
71
100
AcDbEntity
  8
1
  6
Continuous
 62
     2
100
AcDbLine
 10
53.74967839227833
 20
214.931308079463
 30
0.0
 11
-94.75032160772065
 21
214.931308079463
 31
0.0
  0
LINE
  5
167
330
71
100
AcDbEntity
  8
1
  6
Continuous
 62
     6
100
AcDbLine
 10
48.74967839227833
 20
194.931308079463
 30
0.0
 11
-238.2503216077197
 21
194.931308079463
 31
0.0
  0
LINE
  5
168
330
71
100
AcDbEntity
  8
1
  6
Continuous
 62
     2
100
AcDbLine
 10
48.74967839228023
 20
59.93130807946307
 30
0.0
 11
53.74967839227833
 21
59.93130807946307
 31
0.0
  0
LINE
  5
169
330
71
100
AcDbEntity
  8
1
  6
Continuous
 62
     6
100
AcDbLine
 10
48.74967839228023
 20
59.93130807946307
 30
0.0
 11
48.74967839227973
 21
109.9313080794629
 31
0.0
  0
LINE
  5
16A
330
71
100
AcDbEntity
  8
1
  6
Continuous
 62
     2
100
AcDbLine
 10
53.74967839227833
 20
59.93130807946307
 30
0.0
 11
53.74967839227833
 21
109.9313080794629
 31
0.0
  0
LINE
  5
16B
330
71
100
AcDbEntity
  8
1
  6
Continuous
 62
     2
100
AcDbLine
 10
48.74967839227973
 20
109.9313080794629
 30
0.0
 11
53.74967839227833
 21
109.9313080794629
 31
0.0
  0
LINE
  5
16C
330
71
100
AcDbEntity
  8
1
  6
Continuous
 62
     6
100
AcDbLine
 10
48.74967839227973
 20
109.9313080794629
 30
0.0
 11
48.74967839227853
 21
159.931308079463
 31
0.0
  0
LINE
  5
16D
330
71
100
AcDbEntity
  8
1
  6
Continuous
 62
     2
100
AcDbLine
 10
53.74967839227833
 20
109.9313080794629
 30
0.0
 11
53.74967839227833
 21
159.931308079463
 31
0.0
  0
LINE
  5
16E
330
71
100
AcDbEntity
  8
1
  6
Continuous
 62
     2
100
AcDbLine
 10
48.74967839227853
 20
159.931308079463
 30
0.0
 11
53.74967839227833
 21
159.931308079463
 31
0.0
  0
LINE
  5
16F
330
71
100
AcDbEntity
  8
1
  6
Continuous
 62
     6
100
AcDbLine
 10
48.74967839227853
 20
159.931308079463
 30
0.0
 11
48.74967839227833
 21
194.931308079463
 31
0.0
  0
LINE
  5
170
330
71
100
AcDbEntity
  8
1
  6
Continuous
 62
     2
100
AcDbLine
 10
53.74967839227833
 20
159.931308079463
 30
0.0
 11
53.74967839227833
 21
214.931308079463
 31
0.0
  0
LINE
  5
171
330
71
100
AcDbEntity
  8
1
  6
Continuous
 62
     2
100
AcDbLine
 10
53.74967839227833
 20
9.93130807946295
 30
0.0
 11
53.74967839227833
 21
59.93130807946307
 31
0.0
  0
LINE
  5
172
330
71
100
AcDbEntity
  8
1
  6
Continuous
 62
     2
100
AcDbLine
 10
-94.75032160772065
 20
214.931308079463
 30
0.0
 11
-243.2503216077197
 21
214.931308079463
 31
0.0
  0
LINE
  5
173
330
71
100
AcDbEntity
  8
1
  6
Continuous
 62
     2
100
AcDbLine
 10
-94.75032160772065
 20
214.931308079463
 30
0.0
 11
-94.75032160772065
 21
205.7226162347616
 31
0.0
  0
LINE
  5
174
330
71
100
AcDbEntity
  8
1
  6
Continuous
 62
     2
100
AcDbLine
 10
-243.2503216077197
 20
4.93130807946284
 30
0.0
 11
-238.2503216077188
 21
4.93130807946284
 31
0.0
  0
LINE
  5
175
330
71
100
AcDbEntity
  8
1
  6
Continuous
 62
     2
100
AcDbLine
 10
-243.2503216077197
 20
214.931308079463
 30
0.0
 11
-243.2503216077197
 21
159.931308079463
 31
0.0
  0
LINE
  5
176
330
71
100
AcDbEntity
  8
1
  6
Continuous
 62
     6
100
AcDbLine
 10
-238.2503216077197
 20
194.931308079463
 30
0.0
 11
-238.2503216077197
 21
159.931308079463
 31
0.0
  0
LINE
  5
177
330
71
100
AcDbEntity
  8
1
  6
Continuous
 62
     2
100
AcDbLine
 10
-243.2503216077197
 20
159.931308079463
 30
0.0
 11
-238.2503216077197
 21
159.931308079463
 31
0.0
  0
LINE
  5
178
330
71
100
AcDbEntity
  8
1
  6
Continuous
 62
     2
100
AcDbLine
 10
-243.2503216077197
 20
159.931308079463
 30
0.0
 11
-243.2503216077197
 21
109.9313080794629
 31
0.0
  0
LINE
  5
179
330
71
100
AcDbEntity
  8
1
  6
Continuous
 62
     6
100
AcDbLine
 10
-238.2503216077197
 20
159.931308079463
 30
0.0
 11
-238.2503216077192
 21
109.9313080794629
 31
0.0
  0
LINE
  5
17A
330
71
100
AcDbEntity
  8
1
  6
Continuous
 62
     2
100
AcDbLine
 10
-243.2503216077197
 20
109.9313080794629
 30
0.0
 11
-238.2503216077192
 21
109.9313080794629
 31
0.0
  0
LINE
  5
17B
330
71
100
AcDbEntity
  8
1
  6
Continuous
 62
     2
100
AcDbLine
 10
-243.2503216077197
 20
109.9313080794629
 30
0.0
 11
-243.2503216077197
 21
59.93130807946307
 31
0.0
  0
LINE
  5
17C
330
71
100
AcDbEntity
  8
1
  6
Continuous
 62
     6
100
AcDbLine
 10
-238.2503216077192
 20
109.9313080794629
 30
0.0
 11
-238.2503216077189
 21
59.93130807946307
 31
0.0
  0
LINE
  5
17D
330
71
100
AcDbEntity
  8
1
  6
Continuous
 62
     2
100
AcDbLine
 10
-243.2503216077197
 20
59.93130807946307
 30
0.0
 11
-238.2503216077189
 21
59.93130807946307
 31
0.0
  0
LINE
  5
17E
330
71
100
AcDbEntity
  8
1
  6
Continuous
 62
     2
100
AcDbLine
 10
-243.2503216077197
 20
59.93130807946307
 30
0.0
 11
-243.2503216077197
 21
9.93130807946295
 31
0.0
  0
LINE
  5
17F
330
71
100
AcDbEntity
  8
1
  6
Continuous
 62
     6
100
AcDbLine
 10
-238.2503216077189
 20
59.93130807946307
 30
0.0
 11
-238.2503216077188
 21
9.93130807946295
 31
0.0
  0
LINE
  5
180
330
71
100
AcDbEntity
  8
1
  6
Continuous
 62
     2
100
AcDbLine
 10
-194.7503216077207
 20
4.93130807946284
 30
0.0
 11
-194.7503216077207
 21
9.93130807946295
 31
0.0
  0
LINE
  5
181
330
71
100
AcDbEntity
  8
1
  6
Continuous
 62
     2
100
AcDbLine
 10
-194.7503216077207
 20
4.93130807946284
 30
0.0
 11
-144.7503216077209
 21
4.93130807946284
 31
0.0
  0
LINE
  5
182
330
71
100
AcDbEntity
  8
1
  6
Continuous
 62
     2
100
AcDbLine
 10
-144.7503216077209
 20
4.93130807946284
 30
0.0
 11
-144.7503216077209
 21
9.93130807946295
 31
0.0
  0
LINE
  5
183
330
71
100
AcDbEntity
  8
1
  6
Continuous
 62
     2
100
AcDbLine
 10
-144.7503216077209
 20
4.93130807946284
 30
0.0
 11
-94.75032160772065
 21
4.93130807946284
 31
0.0
  0
LINE
  5
184
330
71
100
AcDbEntity
  8
1
  6
Continuous
 62
     2
100
AcDbLine
 10
-94.75032160772065
 20
4.93130807946284
 30
0.0
 11
-94.75032160772065
 21
9.93130807946295
 31
0.0
  0
LINE
  5
185
330
71
100
AcDbEntity
  8
1
  6
Continuous
 62
     2
100
AcDbLine
 10
-94.75032160772065
 20
4.93130807946284
 30
0.0
 11
-44.75032160772068
 21
4.93130807946284
 31
0.0
  0
LINE
  5
186
330
71
100
AcDbEntity
  8
1
  6
Continuous
 62
     2
100
AcDbLine
 10
-44.75032160772068
 20
4.93130807946284
 30
0.0
 11
-44.75032160772068
 21
9.93130807946295
 31
0.0
  0
LINE
  5
187
330
71
100
AcDbEntity
  8
1
  6
Continuous
 62
     2
100
AcDbLine
 10
5.24967839227932
 20
4.93130807946284
 30
0.0
 11
5.24967839227932
 21
9.93130807946295
 31
0.0
  0
LINE
  5
188
330
71
100
AcDbEntity
  8
1
  6
Continuous
 62
     2
100
AcDbLine
 10
5.24967839227932
 20
4.93130807946284
 30
0.0
 11
-44.75032160772068
 21
4.93130807946284
 31
0.0
  0
LINE
  5
189
330
71
100
AcDbEntity
  8
1
  6
Continuous
 62
     2
100
AcDbLine
 10
-238.2503216077188
 20
9.93130807946295
 30
0.0
 11
-238.2503216077188
 21
4.93130807946284
 31
0.0
  0
LINE
  5
18A
330
71
100
AcDbEntity
  8
1
  6
Continuous
 62
     2
100
AcDbLine
 10
-238.2503216077188
 20
4.93130807946284
 30
0.0
 11
-194.7503216077207
 21
4.93130807946284
 31
0.0
  0
LINE
  5
18B
330
71
100
AcDbEntity
  8
1
  6
Continuous
 62
     2
100
AcDbLine
 10
-238.2503216077188
 20
9.93130807946295
 30
0.0
 11
-243.2503216077197
 21
9.93130807946295
 31
0.0
  0
LINE
  5
18C
330
71
100
AcDbEntity
  8
1
  6
Continuous
 62
     2
100
AcDbLine
 10
-243.2503216077197
 20
9.93130807946295
 30
0.0
 11
-243.2503216077197
 21
4.93130807946284
 31
0.0
  0
LINE
  5
18D
330
71
100
AcDbEntity
  8
1
  6
Continuous
 62
     6
100
AcDbLine
 10
48.74967839227934
 20
9.93130807946295
 30
0.0
 11
48.74967839228063
 21
18.43130807946295
 31
0.0
  0
LINE
  5
18E
330
71
100
AcDbEntity
  8
1
  6
Continuous
 62
     6
100
AcDbLine
 10
-44.39512613447076
 20
9.93130807946284
 30
0.0
 11
5.24967839227932
 21
9.93130807946295
 31
0.0
  0
LINE
  5
18F
330
71
100
AcDbEntity
  8
1
  6
Continuous
 62
     6
100
AcDbLine
 10
-197.0503216077209
 20
9.93130807946284
 30
0.0
 11
-194.7503216077207
 21
9.93130807946295
 31
0.0
  0
LINE
  5
190
330
71
100
AcDbEntity
  8
1
  6
Continuous
 62
     6
100
AcDbLine
 10
-94.75032160772065
 20
9.93130807946295
 30
0.0
 11
-144.7503216077209
 21
9.93130807946295
 31
0.0
  0
LINE
  5
191
330
71
100
AcDbEntity
  8
1
  6
Continuous
 62
     7
100
AcDbLine
 10
-80.79512613447068
 20
26.93130807946295
 30
0.0
 11
-80.79512613447068
 21
14.18130807946284
 31
0.0
  0
LINE
  5
192
330
71
100
AcDbEntity
  8
1
  6
Continuous
 62
     7
100
AcDbLine
 10
-44.39512613447076
 20
26.93130807946295
 30
0.0
 11
-44.39512613447076
 21
14.18130807946295
 31
0.0
  0
LINE
  5
193
330
71
100
AcDbEntity
  8
1
  6
Continuous
 62
     6
100
AcDbLine
 10
-197.0503216077209
 20
9.93130807946284
 30
0.0
 11
-203.2503216077189
 21
9.93130807946295
 31
0.0
  0
LINE
  5
194
330
71
100
AcDbEntity
  8
1
  6
Continuous
 62
     6
100
AcDbLine
 10
-44.39512613447076
 20
9.93130807946284
 30
0.0
 11
-44.75032160772068
 21
9.93130807946295
 31
0.0
  0
LINE
  5
195
330
71
100
AcDbEntity
  8
1
  6
Continuous
 62
     6
100
AcDbLine
 10
48.74967839228103
 20
26.93130807946295
 30
0.0
 11
48.74967839228063
 21
18.43130807946295
 31
0.0
  0
LINE
  5
196
330
71
100
AcDbEntity
  8
1
  6
Continuous
 62
     6
100
AcDbLine
 10
-203.2503216077189
 20
9.93130807946295
 30
0.0
 11
-238.2503216077188
 21
9.93130807946295
 31
0.0
  0
LINE
  5
197
330
71
100
AcDbEntity
  8
1
  6
Continuous
 62
     2
100
AcDbLine
 10
-76.55847124790807
 20
32.30630807946287
 30
0.0
 11
-71.55847124790807
 21
33.55630807946287
 31
0.0
  0
LINE
  5
198
330
71
100
AcDbEntity
  8
1
  6
Continuous
 62
     2
100
AcDbLine
 10
-76.55847124790807
 20
29.80630807946287
 30
0.0
 11
-76.55847124790807
 21
32.30630807946287
 31
0.0
  0
LINE
  5
199
330
71
100
AcDbEntity
  8
1
  6
Continuous
 62
     2
100
AcDbLine
 10
-71.55847124790807
 20
28.55630807946287
 30
0.0
 11
-76.55847124790807
 21
29.80630807946287
 31
0.0
  0
LINE
  5
19A
330
71
100
AcDbEntity
  8
1
  6
Continuous
 62
     2
100
AcDbLine
 10
-71.55847124790807
 20
33.55630807946287
 30
0.0
 11
-71.55847124790807
 21
28.55630807946287
 31
0.0
  0
LINE
  5
19B
330
71
100
AcDbEntity
  8
1
  6
Continuous
 62
     7
100
AcDbLine
 10
-80.79512613447068
 20
14.18130807946284
 30
0.0
 11
-62.59512613447066
 21
14.18130807946295
 31
0.0
  0
LINE
  5
19C
330
71
100
AcDbEntity
  8
1
  6
Continuous
 62
     7
100
AcDbLine
 10
-80.79512613447068
 20
14.18130807946284
 30
0.0
 11
-80.79512613447068
 21
9.93130807946284
 31
0.0
  0
LINE
  5
19D
330
71
100
AcDbEntity
  8
1
  6
Continuous
 62
     7
100
AcDbLine
 10
-44.39512613447076
 20
14.18130807946295
 30
0.0
 11
-44.39512613447076
 21
9.93130807946284
 31
0.0
  0
LINE
  5
19E
330
71
100
AcDbEntity
  8
1
  6
Continuous
 62
     7
100
AcDbLine
 10
-62.59512613447066
 20
14.18130807946295
 30
0.0
 11
-62.59512613447066
 21
9.93130807946295
 31
0.0
  0
LINE
  5
19F
330
71
100
AcDbEntity
  8
1
  6
Continuous
 62
     6
100
AcDbLine
 10
-62.59512613447066
 20
9.93130807946295
 30
0.0
 11
-80.79512613447068
 21
9.93130807946284
 31
0.0
  0
LINE
  5
1A0
330
71
100
AcDbEntity
  8
1
  6
Continuous
 62
     7
100
AcDbLine
 10
-62.59512613447066
 20
14.18130807946295
 30
0.0
 11
-44.39512613447076
 21
14.18130807946295
 31
0.0
  0
LINE
  5
1A1
330
71
100
AcDbEntity
  8
1
  6
Continuous
 62
     6
100
AcDbLine
 10
-80.79512613447068
 20
35.43130807946295
 30
0.0
 11
48.74967839228103
 21
35.43130807946295
 31
0.0
  0
ARC
  5
1A2
102
{ACAD_REACTORS
330
20A
330
20B
102
}
330
71
100
AcDbEntity
  8
0
  6
Continuous
 62
     2
100
AcDbCircle
 10
-65.40347813551068
 20
18.75171284138455
 30
0.0
 40
0.7717997786796947
100
AcDbArc
 50
321.8795802028417
 51
38.12041979715308
  0
ARC
  5
1A3
102
{ACAD_REACTORS
330
20A
330
20B
102
}
330
71
100
AcDbEntity
  8
0
  6
Continuous
 62
     2
100
AcDbCircle
 10
-65.20373809916427
 20
18.59498166326455
 30
0.0
 40
0.5179085730137354
100
AcDbArc
 50
218.1204197971931
 51
321.879580202801
  0
ARC
  5
1A4
102
{ACAD_REACTORS
330
20A
330
20B
102
}
330
71
100
AcDbEntity
  8
0
  6
Continuous
 62
     2
100
AcDbCircle
 10
-65.00399806281817
 20
18.75171284138455
 30
0.0
 40
0.771799778679461
100
AcDbArc
 50
141.8795802028365
 51
218.1204197971687
  0
ARC
  5
1A5
102
{ACAD_REACTORS
330
20A
330
20B
102
}
330
71
100
AcDbEntity
  8
0
  6
Continuous
 62
     2
100
AcDbCircle
 10
-65.20373809916427
 20
18.90844401950506
 30
0.0
 40
0.5179085730132976
100
AcDbArc
 50
38.12041979714672
 51
141.8795802028591
  0
ARC
  5
1A6
102
{ACAD_REACTORS
330
202
330
203
102
}
330
71
100
AcDbEntity
  8
0
  6
Continuous
 62
     2
100
AcDbCircle
 10
-68.26575223472815
 20
17.34124647597636
 30
0.0
 40
2.227384008973484
100
AcDbArc
 50
58.06909105004083
 51
71.55192388186725
  0
ARC
  5
1A7
102
{ACAD_REACTORS
330
202
330
203
102
}
330
71
100
AcDbEntity
  8
0
  6
Continuous
 62
     2
100
AcDbCircle
 10
-68.00402453376938
 20
18.95678427072355
 30
0.0
 40
0.5115800601948713
100
AcDbArc
 50
113.3722778881994
 51
151.4785267423044
  0
ARC
  5
1A8
102
{ACAD_REACTORS
330
202
330
203
102
}
330
71
100
AcDbEntity
  8
0
  6
Continuous
 62
     2
100
AcDbCircle
 10
-67.62666727568907
 20
18.75171284138455
 30
0.0
 40
0.9410597353332545
100
AcDbArc
 50
151.4785267422669
 51
208.5214732577057
  0
ARC
  5
1A9
102
{ACAD_REACTORS
330
202
330
203
102
}
330
71
100
AcDbEntity
  8
0
  6
Continuous
 62
     2
100
AcDbCircle
 10
-68.42362510982107
 20
22.06439378664095
 30
0.0
 40
4.852596863498134
100
AcDbArc
 50
275.1581447696249
 51
285.9799912583529
  0
ARC
  5
1AA
102
{ACAD_REACTORS
330
202
330
203
102
}
330
71
100
AcDbEntity
  8
0
  6
Continuous
 62
     2
100
AcDbCircle
 10
-68.13476901508517
 20
18.86450320341936
 30
0.0
 40
1.639695123939387
100
AcDbArc
 50
195.0618917770896
 51
275.1581447696395
  0
ARC
  5
1AB
102
{ACAD_REACTORS
330
202
330
203
102
}
330
71
100
AcDbEntity
  8
0
  6
Continuous
 62
     2
100
AcDbCircle
 10
-68.55389685854797
 20
18.75171284138455
 30
0.0
 40
1.205656168390944
100
AcDbArc
 50
164.9381082228765
 51
195.061891777095
  0
ARC
  5
1AC
102
{ACAD_REACTORS
330
202
330
203
102
}
330
71
100
AcDbEntity
  8
0
  6
Continuous
 62
     2
100
AcDbCircle
 10
-68.13476901508517
 20
18.63892247934965
 30
0.0
 40
1.639695123940507
100
AcDbArc
 50
84.84185523036236
 51
164.9381082228864
  0
ARC
  5
1AD
102
{ACAD_REACTORS
330
206
330
207
102
}
330
71
100
AcDbEntity
  8
0
  6
Continuous
 62
     2
100
AcDbCircle
 10
-72.96478326924708
 20
19.78553963573884
 30
0.0
 40
0.315716923076536
100
AcDbArc
 50
115.3740086783516
 51
180.0
  0
ARC
  5
1AE
102
{ACAD_REACTORS
330
206
330
207
102
}
330
71
100
AcDbEntity
  8
0
  6
Continuous
 62
     2
100
AcDbCircle
 10
-72.96478326924708
 20
22.00382283567507
 30
0.0
 40
0.315716923076792
100
AcDbArc
 50
180.0
 51
244.6259913216482
  0
ARC
  5
1AF
102
{ACAD_REACTORS
330
206
330
207
102
}
330
71
100
AcDbEntity
  8
0
  6
Continuous
 62
     2
100
AcDbCircle
 10
-72.95916713393706
 20
20.90652317661275
 30
0.0
 40
2.018561131933269
100
AcDbArc
 50
269.8110329575858
 51
90.18896704241416
  0
ARC
  5
1B0
102
{ACAD_REACTORS
330
206
330
207
102
}
330
71
100
AcDbEntity
  8
0
  6
Continuous
 62
     2
100
AcDbCircle
 10
-72.96478326924708
 20
19.20368822904376
 30
0.0
 40
0.315716923076792
100
AcDbArc
 50
180.0
 51
269.8110329574542
  0
ARC
  5
1B1
102
{ACAD_REACTORS
330
204
330
205
102
}
330
71
100
AcDbEntity
  8
0
  6
Continuous
 62
     2
100
AcDbCircle
 10
-51.90132305451647
 20
18.95678427072355
 30
0.0
 40
0.5115800601944086
100
AcDbArc
 50
109.3371432194847
 51
151.4785267424224
  0
ARC
  5
1B2
102
{ACAD_REACTORS
330
204
330
205
102
}
330
71
100
AcDbEntity
  8
0
  6
Continuous
 62
     2
100
AcDbCircle
 10
-51.90132305451647
 20
18.54664141204606
 30
0.0
 40
0.5115800601960153
100
AcDbArc
 50
208.521473257687
 51
246.6277221118451
  0
ARC
  5
1B3
102
{ACAD_REACTORS
330
204
330
205
102
}
330
71
100
AcDbEntity
  8
0
  6
Continuous
 62
     2
100
AcDbCircle
 10
-52.45119537929386
 20
18.75171284138455
 30
0.0
 40
1.205656168393009
100
AcDbArc
 50
164.9381082229029
 51
195.0618917770962
  0
ARC
  5
1B4
102
{ACAD_REACTORS
330
204
330
205
102
}
330
71
100
AcDbEntity
  8
0
  6
Continuous
 62
     2
100
AcDbCircle
 10
-52.03206753583226
 20
18.63892247934965
 30
0.0
 40
1.639695123940211
100
AcDbArc
 50
90.0
 51
164.9381082228949
  0
ARC
  5
1B5
102
{ACAD_REACTORS
330
208
330
209
102
}
330
71
100
AcDbEntity
  8
0
  6
Continuous
 62
     2
100
AcDbCircle
 10
-61.45906262853598
 20
22.11090331755887
 30
0.0
 40
1.526904761905882
100
AcDbArc
 50
90.0
 51
270.0
  0
ARC
  5
1B6
102
{ACAD_REACTORS
330
20C
330
20D
102
}
330
71
100
AcDbEntity
  8
0
  6
Continuous
 62
     2
100
AcDbCircle
 10
-68.20175337376176
 20
22.62183840935356
 30
0.0
 40
0.3528638246711218
100
AcDbArc
 50
270.0
 51
90.0
  0
ARC
  5
1B7
102
{ACAD_REACTORS
330
206
330
207
102
}
330
71
100
AcDbEntity
  8
0
  6
Continuous
 62
     2
100
AcDbCircle
 10
-75.54033195577878
 20
22.60953560082996
 30
0.0
 40
0.315716923076188
100
AcDbArc
 50
90.0
 51
180.0
  0
ARC
  5
1B8
102
{ACAD_REACTORS
330
206
330
207
102
}
330
71
100
AcDbEntity
  8
0
  6
Continuous
 62
     2
100
AcDbCircle
 10
-73.54191424719417
 20
20.89468123570725
 30
0.0
 40
0.911897523557621
100
AcDbArc
 50
115.194410648528
 51
244.8055893514878
  0
ARC
  5
1B9
102
{ACAD_REACTORS
330
206
330
207
102
}
330
71
100
AcDbEntity
  8
0
  6
Continuous
 62
     2
100
AcDbCircle
 10
-74.06449869476916
 20
19.78385148964446
 30
0.0
 40
0.315716923076593
100
AcDbArc
 50
0.0
 51
64.80558935146027
  0
ARC
  5
1BA
102
{ACAD_REACTORS
330
206
330
207
102
}
330
71
100
AcDbEntity
  8
0
  6
Continuous
 62
     2
100
AcDbCircle
 10
-76.13422663252527
 20
17.64905269486255
 30
0.0
 40
0.4242446153828041
100
AcDbArc
 50
180.0
 51
270.0
  0
ARC
  5
1BB
102
{ACAD_REACTORS
330
208
330
209
102
}
330
71
100
AcDbEntity
  8
0
  6
Continuous
 62
     2
100
AcDbCircle
 10
-61.24279061837078
 20
22.26763449567935
 30
0.0
 40
0.5179085730135278
100
AcDbArc
 50
38.12041979714224
 51
141.879580202849
  0
ARC
  5
1BC
102
{ACAD_REACTORS
330
208
330
209
102
}
330
71
100
AcDbEntity
  8
0
  6
Continuous
 62
     2
100
AcDbCircle
 10
-61.04305058202448
 20
22.11090331755887
 30
0.0
 40
0.771799778679668
100
AcDbArc
 50
141.8795802028409
 51
218.1204197971566
  0
ARC
  5
1BD
102
{ACAD_REACTORS
330
20A
330
20B
102
}
330
71
100
AcDbEntity
  8
0
  6
Continuous
 62
     2
100
AcDbCircle
 10
-65.20373809916427
 20
19.29028785168785
 30
0.0
 40
2.065479772208505
100
AcDbArc
 50
242.4518518243401
 51
297.5481481756871
  0
ARC
  5
1BE
102
{ACAD_REACTORS
330
20A
330
20B
102
}
330
71
100
AcDbEntity
  8
0
  6
Continuous
 62
     2
100
AcDbCircle
 10
-65.20373809916427
 20
18.21313783108175
 30
0.0
 40
2.065479772208577
100
AcDbArc
 50
62.45185182430651
 51
117.5481481756662
  0
ARC
  5
1BF
102
{ACAD_REACTORS
330
20A
330
20B
102
}
330
71
100
AcDbEntity
  8
0
  6
Continuous
 62
     2
100
AcDbCircle
 10
-65.48467799099757
 20
18.75171284138455
 30
0.0
 40
1.458034083651493
100
AcDbArc
 50
117.5481481756624
 51
242.4518518243375
  0
ARC
  5
1C0
102
{ACAD_REACTORS
330
20A
330
20B
102
}
330
71
100
AcDbEntity
  8
0
  6
Continuous
 62
     2
100
AcDbCircle
 10
-64.92279820733097
 20
18.75171284138455
 30
0.0
 40
1.458034083652003
100
AcDbArc
 50
297.548148175701
 51
62.45185182429901
  0
ARC
  5
1C1
102
{ACAD_REACTORS
330
208
330
209
102
}
330
71
100
AcDbEntity
  8
0
  6
Continuous
 62
     2
100
AcDbCircle
 10
-61.24279061837078
 20
21.95417213943844
 30
0.0
 40
0.5179085730134337
100
AcDbArc
 50
218.1204197971519
 51
321.8795802028569
  0
ARC
  5
1C2
102
{ACAD_REACTORS
330
208
330
209
102
}
330
71
100
AcDbEntity
  8
0
  6
Continuous
 62
     2
100
AcDbCircle
 10
-61.44253065471696
 20
22.11090331755887
 30
0.0
 40
0.7717997786796417
100
AcDbArc
 50
321.8795802028433
 51
38.12041979715916
  0
ARC
  5
1C3
102
{ACAD_REACTORS
330
206
330
207
102
}
330
71
100
AcDbEntity
  8
0
  6
Continuous
 62
     2
100
AcDbCircle
 10
-70.66091454180847
 20
17.64905269486255
 30
0.0
 40
0.4242446153832908
100
AcDbArc
 50
270.0
 51
0.0
  0
ARC
  5
1C4
102
{ACAD_REACTORS
330
206
330
207
102
}
330
71
100
AcDbEntity
  8
0
  6
Continuous
 62
     2
100
AcDbCircle
 10
-70.66091454180847
 20
23.21356346406276
 30
0.0
 40
0.4242446153838841
100
AcDbArc
 50
0.0
 51
90.0
  0
ARC
  5
1C5
102
{ACAD_REACTORS
330
206
330
207
102
}
330
71
100
AcDbEntity
  8
0
  6
Continuous
 62
     2
100
AcDbCircle
 10
-76.13422663252527
 20
23.21356346406276
 30
0.0
 40
0.4242446153838024
100
AcDbArc
 50
90.0
 51
180.0
  0
ARC
  5
1C6
102
{ACAD_REACTORS
330
206
330
207
102
}
330
71
100
AcDbEntity
  8
0
  6
Continuous
 62
     2
100
AcDbCircle
 10
-74.06449869476916
 20
18.25308055811286
 30
0.0
 40
0.3157169230767103
100
AcDbArc
 50
270.0
 51
0.0
  0
ARC
  5
1C7
102
{ACAD_REACTORS
330
206
330
207
102
}
330
71
100
AcDbEntity
  8
0
  6
Continuous
 62
     2
100
AcDbCircle
 10
-74.06449869476916
 20
22.00551098176945
 30
0.0
 40
0.3157169230761203
100
AcDbArc
 50
295.1944106485397
 51
0.0
  0
ARC
  5
1C8
102
{ACAD_REACTORS
330
206
330
207
102
}
330
71
100
AcDbEntity
  8
0
  6
Continuous
 62
     2
100
AcDbCircle
 10
-74.06449869476916
 20
22.60953560082996
 30
0.0
 40
0.315716923076593
100
AcDbArc
 50
0.0
 51
90.0
  0
ARC
  5
1C9
102
{ACAD_REACTORS
330
206
330
207
102
}
330
71
100
AcDbEntity
  8
0
  6
Continuous
 62
     2
100
AcDbCircle
 10
-75.54033195577878
 20
18.25308055811286
 30
0.0
 40
0.3157169230756836
100
AcDbArc
 50
180.0
 51
270.0
  0
ARC
  5
1CA
102
{ACAD_REACTORS
330
20C
330
20D
102
}
330
71
100
AcDbEntity
  8
0
  6
Continuous
 62
     2
100
AcDbCircle
 10
-67.76028084752338
 20
22.58244243813107
 30
0.0
 40
1.055365641333712
100
AcDbArc
 50
270.0
 51
90.0
  0
ARC
  5
1CB
102
{ACAD_REACTORS
330
204
330
205
102
}
330
71
100
AcDbEntity
  8
0
  6
Continuous
 62
     2
100
AcDbCircle
 10
-52.03206753583226
 20
18.86450320341936
 30
0.0
 40
1.639695123940442
100
AcDbArc
 50
195.0618917771014
 51
275.1581447696765
  0
ARC
  5
1CC
102
{ACAD_REACTORS
330
204
330
205
102
}
330
71
100
AcDbEntity
  8
0
  6
Continuous
 62
     2
100
AcDbCircle
 10
-52.32092363056808
 20
22.06439378664095
 30
0.0
 40
4.852596863498825
100
AcDbArc
 50
275.1581447696364
 51
285.9799912583387
  0
ARC
  5
1CD
102
{ACAD_REACTORS
330
204
330
205
102
}
330
71
100
AcDbEntity
  8
0
  6
Continuous
 62
     2
100
AcDbCircle
 10
-52.16305075547527
 20
20.16217920679264
 30
0.0
 40
2.227384008972746
100
AcDbArc
 50
288.4480761181335
 51
301.9309089499396
  0
ARC
  5
1CE
102
{ACAD_REACTORS
330
204
330
205
102
}
330
71
100
AcDbEntity
  8
0
  6
Continuous
 62
     2
100
AcDbCircle
 10
-51.74488302181337
 20
18.90863343075606
 30
0.0
 40
0.9059297849852804
100
AcDbArc
 50
246.6277221118187
 51
288.448076118082
  0
ARC
  5
1CF
102
{ACAD_REACTORS
330
204
330
205
102
}
330
71
100
AcDbEntity
  8
0
  6
Continuous
 62
     2
100
AcDbCircle
 10
-51.52396579643508
 20
18.75171284138455
 30
0.0
 40
0.9410597353348844
100
AcDbArc
 50
151.4785267423624
 51
208.5214732576697
  0
ARC
  5
1D0
102
{ACAD_REACTORS
330
204
330
205
102
}
330
71
100
AcDbEntity
  8
0
  6
Continuous
 62
     2
100
AcDbCircle
 10
-51.75465305641276
 20
18.53882929034066
 30
0.0
 40
0.9545230068260899
100
AcDbArc
 50
90.0
 51
109.3371432194321
  0
ARC
  5
1D1
102
{ACAD_REACTORS
330
206
330
207
102
}
330
71
100
AcDbEntity
  8
0
  6
Continuous
 62
     2
100
AcDbCircle
 10
-72.96478326924708
 20
22.60935812418185
 30
0.0
 40
0.3157169230760746
100
AcDbArc
 50
90.18896704254594
 51
180.0
  0
ARC
  5
1D2
102
{ACAD_REACTORS
330
206
330
207
102
}
330
71
100
AcDbEntity
  8
0
  6
Continuous
 62
     2
100
AcDbCircle
 10
-73.49082596733496
 20
20.89468123570725
 30
0.0
 40
0.9118481501444557
100
AcDbArc
 50
295.3740086781766
 51
64.62599132180766
  0
ARC
  5
1D3
102
{ACAD_REACTORS
330
202
330
203
102
}
330
71
100
AcDbEntity
  8
0
  6
Continuous
 62
     2
100
AcDbCircle
 10
-68.26575223472815
 20
20.16217920679324
 30
0.0
 40
2.227384008972737
100
AcDbArc
 50
288.4480761181328
 51
301.9309089499593
  0
ARC
  5
1D4
102
{ACAD_REACTORS
330
202
330
203
102
}
330
71
100
AcDbEntity
  8
0
  6
Continuous
 62
     2
100
AcDbCircle
 10
-67.84758450106736
 20
18.90863343075606
 30
0.0
 40
0.9059297849849225
100
AcDbArc
 50
246.6277221118711
 51
288.4480761181584
  0
ARC
  5
1D5
102
{ACAD_REACTORS
330
202
330
203
102
}
330
71
100
AcDbEntity
  8
0
  6
Continuous
 62
     2
100
AcDbCircle
 10
-68.00402453376938
 20
18.54664141204606
 30
0.0
 40
0.5115800601948034
100
AcDbArc
 50
208.5214732576956
 51
246.6277221118275
  0
ARC
  5
1D6
102
{ACAD_REACTORS
330
202
330
203
102
}
330
71
100
AcDbEntity
  8
0
  6
Continuous
 62
     2
100
AcDbCircle
 10
-67.84758450106736
 20
18.59479225201295
 30
0.0
 40
0.9059297849853228
100
AcDbArc
 50
71.55192388185348
 51
113.372277888129
  0
ARC
  5
1D7
102
{ACAD_REACTORS
330
202
330
203
102
}
330
71
100
AcDbEntity
  8
0
  6
Continuous
 62
     2
100
AcDbCircle
 10
-68.42362510982107
 20
15.43903189612865
 30
0.0
 40
4.852596863498075
100
AcDbArc
 50
74.02000874164742
 51
84.84185523037506
  0
CIRCLE
  5
1D8
102
{ACAD_REACTORS
330
206
330
207
102
}
330
71
100
AcDbEntity
  8
0
  6
Continuous
 62
     2
100
AcDbCircle
 10
-73.51464098200776
 20
20.89468123570725
 30
0.0
 40
0.4709789327785074
  0
CIRCLE
  5
1D9
330
71
100
AcDbEntity
  8
1
  6
Continuous
 62
     2
100
AcDbCircle
 10
-68.05847124790807
 20
31.05630807946287
 30
0.0
 40
1.249999999999915
  0
CIRCLE
  5
1DA
330
71
100
AcDbEntity
  8
1
  6
Continuous
 62
     2
100
AcDbCircle
 10
-68.05847124790807
 20
31.05630807946287
 30
0.0
 40
2.5
  0
TEXT
  5
1DB
330
71
100
AcDbEntity
  8
1
 62
     7
100
AcDbText
 10
-25.42157841245688
 20
28.23130807946285
 30
0.0
 40
2.5
  1
/
 41
0.9
  7
CONVERTER_11
100
AcDbText
  0
TEXT
  5
1DD
330
71
100
AcDbEntity
  8
1
 62
     7
100
AcDbText
 10
-23.26521391541488
 20
28.23130807946285
 30
0.0
 40
2.5
  1
01
 41
0.81
  7
CONVERTER_12
100
AcDbText
  0
TEXT
  5
1DE
330
71
100
AcDbEntity
  8
1
 62
     3
100
AcDbText
 10
14.33127011060222
 20
28.23130807946285
 30
0.0
 40
2.5
  1
15.12.2017
 41
0.81
  7
CONVERTER_12
100
AcDbText
  0
MTEXT
  5
1DF
330
71
100
AcDbEntity
  8
1
 62
     2
100
AcDbMText
 10
14.33127011060222
 20
34.43130807946287
 30
0.0
 40
1.8
 41
0.0
 71
     1
 72
     1
  1
date
  7
CONVERTER_11
 73
     1
 44
1.32052821128451
  0
MTEXT
  5
1E0
330
71
100
AcDbEntity
  8
1
 62
     2
100
AcDbMText
 10
-15.49512613447067
 20
25.93130807946287
 30
0.0
 40
1.8
 41
0.0
 71
     1
 72
     1
  1
document-type
  7
CONVERTER_11
 73
     1
 44
1.20048019207683
  0
TEXT
  5
1E1
330
71
100
AcDbEntity
  8
1
 62
     3
100
AcDbText
 10
-15.49512613447067
 20
19.73130807946285
 30
0.0
 40
2.5
  1
TECDOC 2D_Productdrawing
 41
0.81
  7
CONVERTER_12
100
AcDbText
  0
MTEXT
  5
1E3
330
71
100
AcDbEntity
  8
1
 62
     2
100
AcDbMText
 10
-43.29512613447068
 20
34.43130807946295
 30
0.0
 40
1.8
 41
0.0
 71
     1
 72
     1
  1
document-No. / RI
  7
CONVERTER_13
 73
     1
 44
1.32052821128451
  0
TEXT
  5
1E4
330
71
100
AcDbEntity
  8
1
 62
     7
100
AcDbText
 10
-43.29512613447068
 20
28.23130807946285
 30
0.0
 40
2.5
  1
00447608
 41
0.81
  7
CONVERTER_12
100
AcDbText
  0
MTEXT
  5
1E6
330
71
100
AcDbEntity
  8
1
 62
     3
100
AcDbMText
 10
44.29047425144164
 20
28.23130807946305
 30
0.0
 40
2.5
 41
0.0
 71
     8
 72
     1
  1
1:1
  7
CONVERTER_14
 73
     1
 44
1.32052821128451
  0
MTEXT
  5
1E7
330
71
100
AcDbEntity
  8
1
 62
     2
100
AcDbMText
 10
40.93127011060204
 20
34.43130807946295
 30
0.0
 40
1.8
 41
0.0
 71
     1
 72
     1
  1
scale
  7
CONVERTER_11
 73
     1
 44
1.20048019207683
  0
MTEXT
  5
1E8
330
71
100
AcDbEntity
  8
1
 62
     2
100
AcDbMText
 10
-43.29512613447068
 20
25.93130807946295
 30
0.0
 40
1.8
 41
0.0
 71
     1
 72
     1
  1
ident.-No.
  7
CONVERTER_11
 73
     1
 44
1.20048019207683
  0
TEXT
  5
1E9
330
71
100
AcDbEntity
  8
1
 62
     7
100
AcDbText
 10
-42.89512613447096
 20
19.73130807946285
 30
0.0
 40
2.5
  1
0561015
 41
0.81
  7
CONVERTER_12
100
AcDbText
  0
MTEXT
  5
1EA
330
71
100
AcDbEntity
  8
1
 62
     2
100
AcDbMText
 10
-115.2331408595182
 20
22.68130807946287
 30
0.0
 40
2.0
 41
0.0
 71
     5
 72
     1
  1
General Information\P- Simplified representation\P- Document excluded from change process\P- Linear dimensions [mm]
  7
CONVERTER_11
 73
     1
 44
1.20048019207683
  0
MTEXT
  5
1EB
330
71
100
AcDbEntity
  8
1
 62
     7
100
AcDbMText
 10
51.24967839227833
 20
84.93130807946486
 30
0.0
 40
3.5
 41
0.0
 71
     5
 72
     1
  1
C
  7
CONVERTER_11
 73
     1
 44
1.20048019207683
  0
MTEXT
  5
1EC
330
71
100
AcDbEntity
  8
1
 62
     7
100
AcDbMText
 10
51.24967839227833
 20
187.431308079463
 30
0.0
 40
3.5
 41
0.0
 71
     5
 72
     1
  1
A
  7
CONVERTER_11
 73
     1
 44
1.20048019207683
  0
MTEXT
  5
1ED
330
71
100
AcDbEntity
  8
1
 62
     7
100
AcDbMText
 10
51.24967839227833
 20
134.9313080794649
 30
0.0
 40
3.5
 41
0.0
 71
     5
 72
     1
  1
B
  7
CONVERTER_11
 73
     1
 44
1.20048019207683
  0
MTEXT
  5
1EE
330
71
100
AcDbEntity
  8
1
 62
     7
100
AcDbMText
 10
51.24967839227833
 20
32.43130807946295
 30
0.0
 40
3.5
 41
0.0
 71
     5
 72
     1
  1
D
  7
CONVERTER_11
 73
     1
 44
1.20048019207683
  0
MTEXT
  5
1EF
330
71
100
AcDbEntity
  8
1
 62
     7
100
AcDbMText
 10
-219.0003216077203
 20
7.43130807946284
 30
0.0
 40
3.5
 41
0.0
 71
     5
 72
     1
  1
1
  7
CONVERTER_11
 73
     1
 44
1.20048019207683
  0
MTEXT
  5
1F0
330
71
100
AcDbEntity
  8
1
 62
     7
100
AcDbMText
 10
-169.7503216077207
 20
7.43130807946284
 30
0.0
 40
3.5
 41
0.0
 71
     5
 72
     1
  1
2
  7
CONVERTER_11
 73
     1
 44
1.20048019207683
  0
MTEXT
  5
1F1
330
71
100
AcDbEntity
  8
1
 62
     7
100
AcDbMText
 10
-119.7503216077207
 20
7.43130807946284
 30
0.0
 40
3.5
 41
0.0
 71
     5
 72
     1
  1
3
  7
CONVERTER_11
 73
     1
 44
1.20048019207683
  0
MTEXT
  5
1F2
330
71
100
AcDbEntity
  8
1
 62
     7
100
AcDbMText
 10
-69.75032160772076
 20
7.43130807946284
 30
0.0
 40
3.5
 41
0.0
 71
     5
 72
     1
  1
4
  7
CONVERTER_11
 73
     1
 44
1.20048019207683
  0
MTEXT
  5
1F3
330
71
100
AcDbEntity
  8
1
 62
     7
100
AcDbMText
 10
-19.75032160772068
 20
7.43130807946284
 30
0.0
 40
3.5
 41
0.0
 71
     5
 72
     1
  1
5
  7
CONVERTER_11
 73
     1
 44
1.20048019207683
  0
MTEXT
  5
1F4
330
71
100
AcDbEntity
  8
1
 62
     7
100
AcDbMText
 10
29.49967839227853
 20
7.43130807946284
 30
0.0
 40
3.5
 41
0.0
 71
     5
 72
     1
  1
6
  7
CONVERTER_11
 73
     1
 44
1.20048019207683
  0
MTEXT
  5
1F5
330
71
100
AcDbEntity
  8
1
 62
     7
100
AcDbMText
 10
-240.7503216077197
 20
187.431308079463
 30
0.0
 40
3.5
 41
0.0
 71
     5
 72
     1
  1
A
  7
CONVERTER_11
 73
     1
 44
1.20048019207683
  0
MTEXT
  5
1F6
330
71
100
AcDbEntity
  8
1
 62
     7
100
AcDbMText
 10
-240.7503216077197
 20
134.931308079463
 30
0.0
 40
3.5
 41
0.0
 71
     5
 72
     1
  1
B
  7
CONVERTER_11
 73
     1
 44
1.20048019207683
  0
MTEXT
  5
1F7
330
71
100
AcDbEntity
  8
1
 62
     7
100
AcDbMText
 10
-240.7503216077197
 20
84.93130807946295
 30
0.0
 40
3.5
 41
0.0
 71
     5
 72
     1
  1
C
  7
CONVERTER_11
 73
     1
 44
1.20048019207683
  0
MTEXT
  5
1F8
330
71
100
AcDbEntity
  8
1
 62
     7
100
AcDbMText
 10
-240.7503216077197
 20
32.43130807946295
 30
0.0
 40
3.5
 41
0.0
 71
     5
 72
     1
  1
D
  7
CONVERTER_11
 73
     1
 44
1.20048019207683
  0
MTEXT
  5
1F9
330
71
100
AcDbEntity
  8
1
 62
     3
100
AcDbMText
 10
-54.59512613447078
 20
31.05630807946295
 30
0.0
 40
2.5
 41
0.0
 71
     5
 72
     1
  1
DIN A4
  7
CONVERTER_11
 73
     1
 44
1.20048019207683
  0
MTEXT
  5
1FA
330
71
100
AcDbEntity
  8
1
 62
     2
100
AcDbMText
 10
-43.39512613447076
 20
17.43130807946295
 30
0.0
 40
1.8
 41
0.0
 71
     1
 72
     1
  1
description
  7
CONVERTER_11
 73
     1
 44
1.20048019207683
  0
MTEXT
  5
1FB
330
71
100
AcDbEntity
  8
1
 62
     7
100
AcDbMText
 10
2.17727612890482
 20
13.18130807946318
 30
0.0
 40
3.0
 41
0.0
 71
     5
 72
     1
  1
D-MXK 4
  7
CONVERTER_12
 73
     1
 44
1.20048019207683
  0
TEXT
  5
1FC
330
71
100
AcDbEntity
  8
1
 62
     2
100
AcDbText
 10
-56.35981732465717
 20
11.18130807946284
 30
0.0
 40
1.8
  1
1
 41
0.9
  7
CONVERTER_11
100
AcDbText
  0
TEXT
  5
1FD
330
71
100
AcDbEntity
  8
1
 62
     2
100
AcDbText
 10
-71.14886116412868
 20
11.13205942566094
 30
0.0
 40
1.8
  1
1
 41
0.9
  7
CONVERTER_11
100
AcDbText
  0
TEXT
  5
1FE
330
71
100
AcDbEntity
  8
1
 62
     2
100
AcDbText
 10
-79.79512613447068
 20
11.17229086447128
 30
0.0
 40
1.8
  1
page
 41
0.9
  7
CONVERTER_11
100
AcDbText
  0
TEXT
  5
1FF
330
71
100
AcDbEntity
  8
1
 62
     2
100
AcDbText
 10
-61.59512613447086
 20
11.17229086447134
 30
0.0
 40
1.8
  1
of
 41
0.9
  7
CONVERTER_11
100
AcDbText
  0
MTEXT
  5
200
330
71
100
AcDbEntity
  8
1
 62
     3
100
AcDbMText
 10
-55.39214398286077
 20
196.7226162347617
 30
0.0
 40
1.8
 41
0.0
 71
     7
 72
     1
  3
Transfer or duplication of this document as well as the utilisation or\Pcommunication of its content are not permitted unless express consent\Pis granted. Violations give rise to claims for damages. All rights reserved\Pin case of patent, utility mo
  1
del or design patent registrations.
  7
CONVERTER_11
 73
     1
 44
0.99639855942377
  0
MTEXT
  5
201
330
71
100
AcDbEntity
  8
1
 62
     3
100
AcDbMText
 10
-238.2452538216489
 20
196.7226162347617
 30
0.0
 40
1.8
 41
0.0
 71
     7
 72
     1
  3
Weitergabe sowie Vervielf\U+00e4ltigung dieses Dokuments, Verwertung und \PMitteilung seines Inhalts sind verboten, soweit nicht ausdr\U+00fccklich gestattet. \PZuwiderhandlungen verpflichten zu Schadenersatz. Alle Rechte f\U+00fcr den Fall\Pder Pat
  1
ent-, Gebrauchsmuster- oder Designeintragung vorbehalten.
  7
CONVERTER_11
 73
     1
 44
0.99639855942377
  0
HATCH
  5
202
330
71
100
AcDbEntity
  8
1
  6
Continuous
 62
     2
100
AcDbHatch
 10
0.0
 20
0.0
 30
0.0
210
0.0
220
0.0
230
1.0
  2
_USER
 70
     0
 71
     1
 91
        1
 92
        1
 93
       14
 72
     2
 10
-68.55389685854797
 20
18.75171284138455
 40
1.205656168390944
 50
164.9381082228765
 51
195.061891777095
 73
     1
 72
     2
 10
-68.13476901508517
 20
18.86450320341936
 40
1.639695123939387
 50
195.0618917770896
 51
275.1581447696395
 73
     1
 72
     2
 10
-68.42362510982107
 20
22.06439378664095
 40
4.852596863498134
 50
275.1581447696249
 51
285.9799912583529
 73
     1
 72
     1
 10
-67.08769719270327
 20
17.39931148084014
 11
-67.08769719270327
 21
18.27182848764335
 72
     2
 10
-68.26575223472815
 20
20.16217920679324
 40
2.227384008972737
 50
58.06909105004065
 51
71.55192388186722
 73
     0
 72
     2
 10
-67.84758450106736
 20
18.90863343075606
 40
0.9059297849849225
 50
71.55192388184157
 51
113.3722778881289
 73
     0
 72
     2
 10
-68.00402453376938
 20
18.54664141204606
 40
0.5115800601948034
 50
113.3722778881725
 51
151.4785267423044
 73
     0
 72
     2
 10
-67.62666727568907
 20
18.75171284138455
 40
0.9410597353332545
 50
151.4785267422943
 51
208.5214732577331
 73
     0
 72
     2
 10
-68.00402453376938
 20
18.95678427072355
 40
0.5115800601948713
 50
208.5214732576956
 51
246.6277221118006
 73
     0
 72
     2
 10
-67.84758450106736
 20
18.59479225201295
 40
0.9059297849853228
 50
246.6277221118709
 51
288.4480761181465
 73
     0
 72
     2
 10
-68.26575223472815
 20
17.34124647597636
 40
2.227384008973484
 50
288.4480761181328
 51
301.9309089499592
 73
     0
 72
     1
 10
-67.08769719270327
 20
19.23159719512626
 11
-67.08769719270327
 21
20.10411420192955
 72
     2
 10
-68.42362510982107
 20
15.43903189612865
 40
4.852596863498075
 50
74.02000874164742
 51
84.84185523037506
 73
     1
 72
     2
 10
-68.13476901508517
 20
18.63892247934965
 40
1.639695123940507
 50
84.84185523036236
 51
164.9381082228864
 73
     1
 97
       14
330
1D7
330
F0
330
1A6
330
1D6
330
1A7
330
1A8
330
1D5
330
1D4
330
1D3
330
F1
330
1A9
330
1AA
330
1AB
330
1AC
 75
     1
 76
     0
 52
45.0
 41
0.1
 77
     0
 78
     1
 53
45.0
 43
0.0
 44
0.0
 45
-0.0707106781186548
 46
0.0707106781186548
 79
     0
 98
        1
 10
0.0
 20
0.0
  0
HATCH
  5
203
330
71
100
AcDbEntity
  8
1
  6
Continuous
 62
     2
100
AcDbHatch
 10
0.0
 20
0.0
 30
0.0
210
0.0
220
0.0
230
1.0
  2
_USER
 70
     0
 71
     1
 91
        1
 92
        1
 93
       14
 72
     2
 10
-68.55389685854797
 20
18.75171284138455
 40
1.205656168390944
 50
164.9381082228765
 51
195.061891777095
 73
     1
 72
     2
 10
-68.13476901508517
 20
18.86450320341936
 40
1.639695123939387
 50
195.0618917770896
 51
275.1581447696395
 73
     1
 72
     2
 10
-68.42362510982107
 20
22.06439378664095
 40
4.852596863498134
 50
275.1581447696249
 51
285.9799912583529
 73
     1
 72
     1
 10
-67.08769719270327
 20
17.39931148084014
 11
-67.08769719270327
 21
18.27182848764335
 72
     2
 10
-68.26575223472815
 20
20.16217920679324
 40
2.227384008972737
 50
58.06909105004065
 51
71.55192388186722
 73
     0
 72
     2
 10
-67.84758450106736
 20
18.90863343075606
 40
0.9059297849849225
 50
71.55192388184157
 51
113.3722778881289
 73
     0
 72
     2
 10
-68.00402453376938
 20
18.54664141204606
 40
0.5115800601948034
 50
113.3722778881725
 51
151.4785267423044
 73
     0
 72
     2
 10
-67.62666727568907
 20
18.75171284138455
 40
0.9410597353332545
 50
151.4785267422943
 51
208.5214732577331
 73
     0
 72
     2
 10
-68.00402453376938
 20
18.95678427072355
 40
0.5115800601948713
 50
208.5214732576956
 51
246.6277221118006
 73
     0
 72
     2
 10
-67.84758450106736
 20
18.59479225201295
 40
0.9059297849853228
 50
246.6277221118709
 51
288.4480761181465
 73
     0
 72
     2
 10
-68.26575223472815
 20
17.34124647597636
 40
2.227384008973484
 50
288.4480761181328
 51
301.9309089499592
 73
     0
 72
     1
 10
-67.08769719270327
 20
19.23159719512626
 11
-67.08769719270327
 21
20.10411420192955
 72
     2
 10
-68.42362510982107
 20
15.43903189612865
 40
4.852596863498075
 50
74.02000874164742
 51
84.84185523037506
 73
     1
 72
     2
 10
-68.13476901508517
 20
18.63892247934965
 40
1.639695123940507
 50
84.84185523036236
 51
164.9381082228864
 73
     1
 97
       14
330
1D7
330
F0
330
1A6
330
1D6
330
1A7
330
1A8
330
1D5
330
1D4
330
1D3
330
F1
330
1A9
330
1AA
330
1AB
330
1AC
 75
     1
 76
     0
 52
45.0
 41
0.1
 77
     0
 78
     1
 53
45.0
 43
0.0
 44
0.0
 45
-0.0707106781186548
 46
0.0707106781186548
 79
     0
 98
        1
 10
0.0
 20
0.0
  0
HATCH
  5
204
330
71
100
AcDbEntity
  8
1
  6
Continuous
 62
     2
100
AcDbHatch
 10
0.0
 20
0.0
 30
0.0
210
0.0
220
0.0
230
1.0
  2
_USER
 70
     0
 71
     1
 91
        1
 92
        1
 93
       18
 72
     2
 10
-52.03206753583226
 20
18.63892247934965
 40
1.639695123940211
 50
90.0
 51
164.9381082228949
 73
     1
 72
     2
 10
-52.45119537929386
 20
18.75171284138455
 40
1.205656168393009
 50
164.9381082229029
 51
195.0618917770962
 73
     1
 72
     2
 10
-52.03206753583226
 20
18.86450320341936
 40
1.639695123940442
 50
195.0618917771014
 51
275.1581447696765
 73
     1
 72
     2
 10
-52.32092363056808
 20
22.06439378664095
 40
4.852596863498825
 50
275.1581447696364
 51
285.9799912583387
 73
     1
 72
     1
 10
-50.98499571345136
 20
17.39931148083954
 11
-50.98499571345136
 21
18.27182848764286
 72
     2
 10
-52.16305075547527
 20
20.16217920679264
 40
2.227384008972746
 50
58.0690910500604
 51
71.55192388186651
 73
     0
 72
     2
 10
-51.74488302181337
 20
18.90863343075606
 40
0.9059297849852804
 50
71.55192388191801
 51
113.3722778881813
 73
     0
 72
     2
 10
-51.90132305451647
 20
18.54664141204606
 40
0.5115800601960153
 50
113.3722778881549
 51
151.478526742313
 73
     0
 72
     2
 10
-51.52396579643508
 20
18.75171284138455
 40
0.9410597353348844
 50
151.4785267423303
 51
208.5214732576376
 73
     0
 72
     2
 10
-51.90132305451647
 20
18.95678427072355
 40
0.5115800601944086
 50
208.5214732575776
 51
250.6628567805153
 73
     0
 72
     2
 10
-51.75465305641276
 20
18.53882929034066
 40
0.9545230068260899
 50
250.6628567805679
 51
270.0
 73
     0
 72
     1
 10
-51.75465305641276
 20
19.49335229716675
 11
-50.65101375684466
 21
19.49335229716675
 72
     1
 10
-50.65101375684466
 20
19.49335229716675
 11
-50.65101375684466
 21
17.22480807947926
 72
     1
 10
-50.65101375684466
 20
17.22480807947926
 11
-49.45822105467696
 21
17.22480807947926
 72
     1
 10
-49.45822105467696
 20
17.22480807947926
 11
-49.45822105467696
 21
19.49335229716675
 72
     1
 10
-49.45822105467696
 20
19.49335229716675
 11
-48.64712201720357
 21
19.49335229716675
 72
     1
 10
-48.64712201720357
 20
19.49335229716675
 11
-48.64712201720357
 21
20.27861760329034
 72
     1
 10
-48.64712201720357
 20
20.27861760329034
 11
-52.03206753583226
 21
20.27861760328986
 97
       18
330
156
330
155
330
154
330
153
330
158
330
F2
330
1D0
330
1B1
330
1CF
330
1B2
330
1CE
330
1CD
330
F3
330
1CC
330
1CB
330
1B3
330
1B4
330
157
 75
     1
 76
     0
 52
45.0
 41
0.1
 77
     0
 78
     1
 53
45.0
 43
0.0
 44
0.0
 45
-0.0707106781186548
 46
0.0707106781186548
 79
     0
 98
        1
 10
0.0
 20
0.0
  0
HATCH
  5
205
330
71
100
AcDbEntity
  8
1
  6
Continuous
 62
     2
100
AcDbHatch
 10
0.0
 20
0.0
 30
0.0
210
0.0
220
0.0
230
1.0
  2
_USER
 70
     0
 71
     1
 91
        1
 92
        1
 93
       18
 72
     2
 10
-52.03206753583226
 20
18.63892247934965
 40
1.639695123940211
 50
90.0
 51
164.9381082228949
 73
     1
 72
     2
 10
-52.45119537929386
 20
18.75171284138455
 40
1.205656168393009
 50
164.9381082229029
 51
195.0618917770962
 73
     1
 72
     2
 10
-52.03206753583226
 20
18.86450320341936
 40
1.639695123940442
 50
195.0618917771014
 51
275.1581447696765
 73
     1
 72
     2
 10
-52.32092363056808
 20
22.06439378664095
 40
4.852596863498825
 50
275.1581447696364
 51
285.9799912583387
 73
     1
 72
     1
 10
-50.98499571345136
 20
17.39931148083954
 11
-50.98499571345136
 21
18.27182848764286
 72
     2
 10
-52.16305075547527
 20
20.16217920679264
 40
2.227384008972746
 50
58.0690910500604
 51
71.55192388186651
 73
     0
 72
     2
 10
-51.74488302181337
 20
18.90863343075606
 40
0.9059297849852804
 50
71.55192388191801
 51
113.3722778881813
 73
     0
 72
     2
 10
-51.90132305451647
 20
18.54664141204606
 40
0.5115800601960153
 50
113.3722778881549
 51
151.478526742313
 73
     0
 72
     2
 10
-51.52396579643508
 20
18.75171284138455
 40
0.9410597353348844
 50
151.4785267423303
 51
208.5214732576376
 73
     0
 72
     2
 10
-51.90132305451647
 20
18.95678427072355
 40
0.5115800601944086
 50
208.5214732575776
 51
250.6628567805153
 73
     0
 72
     2
 10
-51.75465305641276
 20
18.53882929034066
 40
0.9545230068260899
 50
250.6628567805679
 51
270.0
 73
     0
 72
     1
 10
-51.75465305641276
 20
19.49335229716675
 11
-50.65101375684466
 21
19.49335229716675
 72
     1
 10
-50.65101375684466
 20
19.49335229716675
 11
-50.65101375684466
 21
17.22480807947926
 72
     1
 10
-50.65101375684466
 20
17.22480807947926
 11
-49.45822105467696
 21
17.22480807947926
 72
     1
 10
-49.45822105467696
 20
17.22480807947926
 11
-49.45822105467696
 21
19.49335229716675
 72
     1
 10
-49.45822105467696
 20
19.49335229716675
 11
-48.64712201720357
 21
19.49335229716675
 72
     1
 10
-48.64712201720357
 20
19.49335229716675
 11
-48.64712201720357
 21
20.27861760329034
 72
     1
 10
-48.64712201720357
 20
20.27861760329034
 11
-52.03206753583226
 21
20.27861760328986
 97
       18
330
156
330
155
330
154
330
153
330
158
330
F2
330
1D0
330
1B1
330
1CF
330
1B2
330
1CE
330
1CD
330
F3
330
1CC
330
1CB
330
1B3
330
1B4
330
157
 75
     1
 76
     0
 52
45.0
 41
0.1
 77
     0
 78
     1
 53
45.0
 43
0.0
 44
0.0
 45
-0.0707106781186548
 46
0.0707106781186548
 79
     0
 98
        1
 10
0.0
 20
0.0
  0
HATCH
  5
206
330
71
100
AcDbEntity
  8
1
  6
Continuous
 62
     2
100
AcDbHatch
 10
0.0
 20
0.0
 30
0.0
210
0.0
220
0.0
230
1.0
  2
_USER
 70
     0
 71
     1
 91
        4
 92
        1
 93
        8
 72
     2
 10
-76.13422663252527
 20
23.21356346406276
 40
0.4242446153838024
 50
90.0
 51
180.0
 73
     1
 72
     1
 10
-76.55847124790807
 20
23.21356346406276
 11
-76.55847124790807
 21
17.64905269486255
 72
     2
 10
-76.13422663252527
 20
17.64905269486255
 40
0.4242446153828041
 50
180.0
 51
270.0
 73
     1
 72
     1
 10
-76.13422663252527
 20
17.22480807947926
 11
-70.66091454180847
 21
17.22480807947926
 72
     2
 10
-70.66091454180847
 20
17.64905269486255
 40
0.4242446153832908
 50
270.0
 51
360.0
 73
     1
 72
     1
 10
-70.23666992642458
 20
17.64905269486255
 11
-70.23666992642458
 21
23.21356346406276
 72
     2
 10
-70.66091454180847
 20
23.21356346406276
 40
0.4242446153838841
 50
0.0
 51
90.0
 73
     1
 72
     1
 10
-70.66091454180847
 20
23.63780807944656
 11
-76.13422663252527
 21
23.63780807944656
 97
        8
330
1C4
330
121
330
1C3
330
122
330
1BA
330
11F
330
1C5
330
120
 92
       16
 93
        1
 72
     2
 10
-73.51464098200776
 20
20.89468123570725
 40
0.4709789327785074
 50
0.0
 51
360.0
 73
     1
 97
        1
330
1D8
 92
       16
 93
        8
 72
     2
 10
-73.49082596733496
 20
20.89468123570725
 40
0.9118481501444557
 50
295.3740086781766
 51
424.6259913218076
 73
     1
 72
     2
 10
-72.96478326924708
 20
22.00382283567507
 40
0.315716923076792
 50
115.3740086783518
 51
180.0
 73
     0
 72
     1
 10
-73.28050019232387
 20
22.00382283567507
 11
-73.28050019232387
 21
22.60935812418185
 72
     2
 10
-72.96478326924708
 20
22.60935812418185
 40
0.3157169230760746
 50
180.0
 51
269.8110329574541
 73
     0
 72
     2
 10
-72.95916713393706
 20
20.90652317661275
 40
2.018561131933269
 50
269.8110329575858
 51
450.1889670424142
 73
     0
 72
     2
 10
-72.96478326924708
 20
19.20368822904376
 40
0.315716923076792
 50
90.18896704254585
 51
180.0
 73
     0
 72
     1
 10
-73.28050019232387
 20
19.20368822904376
 11
-73.28050019232387
 21
19.78553963573884
 72
     2
 10
-72.96478326924708
 20
19.78553963573884
 40
0.315716923076536
 50
180.0
 51
244.6259913216484
 73
     0
 97
        8
330
1D2
330
1AE
330
15A
330
1D1
330
1AF
330
1B0
330
159
330
1AD
 92
       16
 93
       12
 72
     1
 10
-75.54033195577878
 20
17.93736363503615
 11
-74.06449869476916
 21
17.93736363503615
 72
     2
 10
-74.06449869476916
 20
18.25308055811286
 40
0.3157169230767103
 50
270.0
 51
360.0
 73
     1
 72
     1
 10
-73.74878177169256
 20
18.25308055811286
 11
-73.74878177169256
 21
19.78385148964446
 72
     2
 10
-74.06449869476916
 20
19.78385148964446
 40
0.315716923076593
 50
0.0
 51
64.80558935146027
 73
     1
 72
     2
 10
-73.54191424719417
 20
20.89468123570725
 40
0.911897523557621
 50
115.1944106485122
 51
244.805589351472
 73
     0
 72
     2
 10
-74.06449869476916
 20
22.00551098176945
 40
0.3157169230761203
 50
295.1944106485397
 51
360.0
 73
     1
 72
     1
 10
-73.74878177169256
 20
22.00551098176945
 11
-73.74878177169256
 21
22.60953560082996
 72
     2
 10
-74.06449869476916
 20
22.60953560082996
 40
0.315716923076593
 50
0.0
 51
90.0
 73
     1
 72
     1
 10
-74.06449869476916
 20
22.92525252390615
 11
-75.54033195577878
 21
22.92525252390615
 72
     2
 10
-75.54033195577878
 20
22.60953560082996
 40
0.315716923076188
 50
90.0
 51
180.0
 73
     1
 72
     1
 10
-75.85604887885447
 20
22.60953560082996
 11
-75.85604887885447
 21
18.25308055811286
 72
     2
 10
-75.54033195577878
 20
18.25308055811286
 40
0.3157169230756836
 50
180.0
 51
270.0
 73
     1
 97
       12
330
126
330
1B7
330
125
330
1C8
330
124
330
1C7
330
1B8
330
1B9
330
123
330
1C6
330
11E
330
1C9
 75
     1
 76
     0
 52
45.0
 41
0.1
 77
     0
 78
     1
 53
45.0
 43
0.0
 44
0.0
 45
-0.0707106781186548
 46
0.0707106781186548
 79
     0
 98
        1
 10
0.0
 20
0.0
  0
HATCH
  5
207
330
71
100
AcDbEntity
  8
1
  6
Continuous
 62
     2
100
AcDbHatch
 10
0.0
 20
0.0
 30
0.0
210
0.0
220
0.0
230
1.0
  2
_USER
 70
     0
 71
     1
 91
        4
 92
        1
 93
        8
 72
     2
 10
-76.13422663252527
 20
23.21356346406276
 40
0.4242446153838024
 50
90.0
 51
180.0
 73
     1
 72
     1
 10
-76.55847124790807
 20
23.21356346406276
 11
-76.55847124790807
 21
17.64905269486255
 72
     2
 10
-76.13422663252527
 20
17.64905269486255
 40
0.4242446153828041
 50
180.0
 51
270.0
 73
     1
 72
     1
 10
-76.13422663252527
 20
17.22480807947926
 11
-70.66091454180847
 21
17.22480807947926
 72
     2
 10
-70.66091454180847
 20
17.64905269486255
 40
0.4242446153832908
 50
270.0
 51
360.0
 73
     1
 72
     1
 10
-70.23666992642458
 20
17.64905269486255
 11
-70.23666992642458
 21
23.21356346406276
 72
     2
 10
-70.66091454180847
 20
23.21356346406276
 40
0.4242446153838841
 50
0.0
 51
90.0
 73
     1
 72
     1
 10
-70.66091454180847
 20
23.63780807944656
 11
-76.13422663252527
 21
23.63780807944656
 97
        8
330
1C4
330
121
330
1C3
330
122
330
1BA
330
11F
330
1C5
330
120
 92
       16
 93
        1
 72
     2
 10
-73.51464098200776
 20
20.89468123570725
 40
0.4709789327785074
 50
0.0
 51
360.0
 73
     1
 97
        1
330
1D8
 92
       16
 93
        8
 72
     2
 10
-73.49082596733496
 20
20.89468123570725
 40
0.9118481501444557
 50
295.3740086781766
 51
424.6259913218076
 73
     1
 72
     2
 10
-72.96478326924708
 20
22.00382283567507
 40
0.315716923076792
 50
115.3740086783518
 51
180.0
 73
     0
 72
     1
 10
-73.28050019232387
 20
22.00382283567507
 11
-73.28050019232387
 21
22.60935812418185
 72
     2
 10
-72.96478326924708
 20
22.60935812418185
 40
0.3157169230760746
 50
180.0
 51
269.8110329574541
 73
     0
 72
     2
 10
-72.95916713393706
 20
20.90652317661275
 40
2.018561131933269
 50
269.8110329575858
 51
450.1889670424142
 73
     0
 72
     2
 10
-72.96478326924708
 20
19.20368822904376
 40
0.315716923076792
 50
90.18896704254585
 51
180.0
 73
     0
 72
     1
 10
-73.28050019232387
 20
19.20368822904376
 11
-73.28050019232387
 21
19.78553963573884
 72
     2
 10
-72.96478326924708
 20
19.78553963573884
 40
0.315716923076536
 50
180.0
 51
244.6259913216484
 73
     0
 97
        8
330
1D2
330
1AE
330
15A
330
1D1
330
1AF
330
1B0
330
159
330
1AD
 92
       16
 93
       12
 72
     1
 10
-75.54033195577878
 20
17.93736363503615
 11
-74.06449869476916
 21
17.93736363503615
 72
     2
 10
-74.06449869476916
 20
18.25308055811286
 40
0.3157169230767103
 50
270.0
 51
360.0
 73
     1
 72
     1
 10
-73.74878177169256
 20
18.25308055811286
 11
-73.74878177169256
 21
19.78385148964446
 72
     2
 10
-74.06449869476916
 20
19.78385148964446
 40
0.315716923076593
 50
0.0
 51
64.80558935146027
 73
     1
 72
     2
 10
-73.54191424719417
 20
20.89468123570725
 40
0.911897523557621
 50
115.1944106485122
 51
244.805589351472
 73
     0
 72
     2
 10
-74.06449869476916
 20
22.00551098176945
 40
0.3157169230761203
 50
295.1944106485397
 51
360.0
 73
     1
 72
     1
 10
-73.74878177169256
 20
22.00551098176945
 11
-73.74878177169256
 21
22.60953560082996
 72
     2
 10
-74.06449869476916
 20
22.60953560082996
 40
0.315716923076593
 50
0.0
 51
90.0
 73
     1
 72
     1
 10
-74.06449869476916
 20
22.92525252390615
 11
-75.54033195577878
 21
22.92525252390615
 72
     2
 10
-75.54033195577878
 20
22.60953560082996
 40
0.315716923076188
 50
90.0
 51
180.0
 73
     1
 72
     1
 10
-75.85604887885447
 20
22.60953560082996
 11
-75.85604887885447
 21
18.25308055811286
 72
     2
 10
-75.54033195577878
 20
18.25308055811286
 40
0.3157169230756836
 50
180.0
 51
270.0
 73
     1
 97
       12
330
126
330
1B7
330
125
330
1C8
330
124
330
1C7
330
1B8
330
1B9
330
123
330
1C6
330
11E
330
1C9
 75
     1
 76
     0
 52
45.0
 41
0.1
 77
     0
 78
     1
 53
45.0
 43
0.0
 44
0.0
 45
-0.0707106781186548
 46
0.0707106781186548
 79
     0
 98
        1
 10
0.0
 20
0.0
  0
HATCH
  5
208
330
71
100
AcDbEntity
  8
1
  6
Continuous
 62
     2
100
AcDbHatch
 10
0.0
 20
0.0
 30
0.0
210
0.0
220
0.0
230
1.0
  2
_USER
 70
     0
 71
     1
 91
        2
 92
        1
 93
       12
 72
     2
 10
-61.45906262853598
 20
22.11090331755887
 40
1.526904761905882
 50
90.0
 51
270.0
 73
     1
 72
     1
 10
-61.45906262853598
 20
20.58399855565355
 11
-58.30874290475498
 21
20.58399855565355
 72
     1
 10
-58.30874290475498
 20
20.58399855565355
 11
-58.30874290475498
 21
21.28201216109605
 72
     1
 10
-58.30874290475498
 20
21.28201216109605
 11
-59.64467073118266
 21
21.28201216109605
 72
     1
 10
-59.64467073118266
 20
21.28201216109605
 11
-59.64467073118266
 21
21.76189651483776
 72
     1
 10
-59.64467073118266
 20
21.76189651483776
 11
-58.30874290475498
 21
21.76189651483776
 72
     1
 10
-58.30874290475498
 20
21.76189651483776
 11
-58.30874290475498
 21
22.45991012028006
 72
     1
 10
-58.30874290475498
 20
22.45991012028006
 11
-59.64467073118266
 21
22.45991012028006
 72
     1
 10
-59.64467073118266
 20
22.45991012028006
 11
-59.64467073118266
 21
22.93979447402177
 72
     1
 10
-59.64467073118266
 20
22.93979447402177
 11
-58.30874290475498
 21
22.93979447402177
 72
     1
 10
-58.30874290475498
 20
22.93979447402177
 11
-58.30874290475498
 21
23.63780807946475
 72
     1
 10
-58.30874290475498
 20
23.63780807946475
 11
-61.45906262853598
 21
23.63780807946475
 97
       12
330
115
330
10F
330
136
330
135
330
134
330
133
330
110
330
111
330
112
330
113
330
1B5
330
114
 92
       16
 93
        4
 72
     2
 10
-61.04305058202448
 20
22.11090331755887
 40
0.771799778679668
 50
141.8795802028409
 51
218.1204197971566
 73
     1
 72
     2
 10
-61.24279061837078
 20
21.95417213943844
 40
0.5179085730134337
 50
218.1204197971519
 51
321.8795802028569
 73
     1
 72
     2
 10
-61.44253065471696
 20
22.11090331755887
 40
0.7717997786796417
 50
321.8795802028433
 51
398.1204197971591
 73
     1
 72
     2
 10
-61.24279061837078
 20
22.26763449567935
 40
0.5179085730135278
 50
38.12041979714224
 51
141.879580202849
 73
     1
 97
        4
330
1C2
330
1C1
330
1BC
330
1BB
 75
     1
 76
     0
 52
45.0
 41
0.1
 77
     0
 78
     1
 53
45.0
 43
0.0
 44
0.0
 45
-0.0707106781186548
 46
0.0707106781186548
 79
     0
 98
        1
 10
0.0
 20
0.0
  0
HATCH
  5
209
330
71
100
AcDbEntity
  8
1
  6
Continuous
 62
     2
100
AcDbHatch
 10
0.0
 20
0.0
 30
0.0
210
0.0
220
0.0
230
1.0
  2
_USER
 70
     0
 71
     1
 91
        2
 92
        1
 93
       12
 72
     2
 10
-61.45906262853598
 20
22.11090331755887
 40
1.526904761905882
 50
90.0
 51
270.0
 73
     1
 72
     1
 10
-61.45906262853598
 20
20.58399855565355
 11
-58.30874290475498
 21
20.58399855565355
 72
     1
 10
-58.30874290475498
 20
20.58399855565355
 11
-58.30874290475498
 21
21.28201216109605
 72
     1
 10
-58.30874290475498
 20
21.28201216109605
 11
-59.64467073118266
 21
21.28201216109605
 72
     1
 10
-59.64467073118266
 20
21.28201216109605
 11
-59.64467073118266
 21
21.76189651483776
 72
     1
 10
-59.64467073118266
 20
21.76189651483776
 11
-58.30874290475498
 21
21.76189651483776
 72
     1
 10
-58.30874290475498
 20
21.76189651483776
 11
-58.30874290475498
 21
22.45991012028006
 72
     1
 10
-58.30874290475498
 20
22.45991012028006
 11
-59.64467073118266
 21
22.45991012028006
 72
     1
 10
-59.64467073118266
 20
22.45991012028006
 11
-59.64467073118266
 21
22.93979447402177
 72
     1
 10
-59.64467073118266
 20
22.93979447402177
 11
-58.30874290475498
 21
22.93979447402177
 72
     1
 10
-58.30874290475498
 20
22.93979447402177
 11
-58.30874290475498
 21
23.63780807946475
 72
     1
 10
-58.30874290475498
 20
23.63780807946475
 11
-61.45906262853598
 21
23.63780807946475
 97
       12
330
115
330
10F
330
136
330
135
330
134
330
133
330
110
330
111
330
112
330
113
330
1B5
330
114
 92
       16
 93
        4
 72
     2
 10
-61.04305058202448
 20
22.11090331755887
 40
0.771799778679668
 50
141.8795802028409
 51
218.1204197971566
 73
     1
 72
     2
 10
-61.24279061837078
 20
21.95417213943844
 40
0.5179085730134337
 50
218.1204197971519
 51
321.8795802028569
 73
     1
 72
     2
 10
-61.44253065471696
 20
22.11090331755887
 40
0.7717997786796417
 50
321.8795802028433
 51
398.1204197971591
 73
     1
 72
     2
 10
-61.24279061837078
 20
22.26763449567935
 40
0.5179085730135278
 50
38.12041979714224
 51
141.879580202849
 73
     1
 97
        4
330
1C2
330
1C1
330
1BC
330
1BB
 75
     1
 76
     0
 52
45.0
 41
0.1
 77
     0
 78
     1
 53
45.0
 43
0.0
 44
0.0
 45
-0.0707106781186548
 46
0.0707106781186548
 79
     0
 98
        1
 10
0.0
 20
0.0
  0
HATCH
  5
20A
330
71
100
AcDbEntity
  8
1
  6
Continuous
 62
     2
100
AcDbHatch
 10
0.0
 20
0.0
 30
0.0
210
0.0
220
0.0
230
1.0
  2
_USER
 70
     0
 71
     1
 91
        2
 92
        1
 93
        4
 72
     2
 10
-65.48467799099757
 20
18.75171284138455
 40
1.458034083651493
 50
117.5481481756624
 51
242.4518518243375
 73
     1
 72
     2
 10
-65.20373809916427
 20
19.29028785168785
 40
2.065479772208505
 50
242.4518518243401
 51
297.5481481756871
 73
     1
 72
     2
 10
-64.92279820733097
 20
18.75171284138455
 40
1.458034083652003
 50
297.548148175701
 51
422.451851824299
 73
     1
 72
     2
 10
-65.20373809916427
 20
18.21313783108175
 40
2.065479772208577
 50
62.45185182430651
 51
117.5481481756662
 73
     1
 97
        4
330
1C0
330
1BD
330
1BF
330
1BE
 92
       16
 93
        4
 72
     2
 10
-65.20373809916427
 20
18.90844401950506
 40
0.5179085730132976
 50
38.12041979714672
 51
141.8795802028591
 73
     1
 72
     2
 10
-65.00399806281817
 20
18.75171284138455
 40
0.771799778679461
 50
141.8795802028365
 51
218.1204197971687
 73
     1
 72
     2
 10
-65.20373809916427
 20
18.59498166326455
 40
0.5179085730137354
 50
218.1204197971931
 51
321.879580202801
 73
     1
 72
     2
 10
-65.40347813551068
 20
18.75171284138455
 40
0.7717997786796947
 50
321.8795802028417
 51
398.120419797153
 73
     1
 97
        4
330
1A3
330
1A4
330
1A5
330
1A2
 75
     1
 76
     0
 52
45.0
 41
0.1
 77
     0
 78
     1
 53
45.0
 43
0.0
 44
0.0
 45
-0.0707106781186548
 46
0.0707106781186548
 79
     0
 98
        1
 10
0.0
 20
0.0
  0
HATCH
  5
20B
330
71
100
AcDbEntity
  8
1
  6
Continuous
 62
     2
100
AcDbHatch
 10
0.0
 20
0.0
 30
0.0
210
0.0
220
0.0
230
1.0
  2
_USER
 70
     0
 71
     1
 91
        2
 92
        1
 93
        4
 72
     2
 10
-65.48467799099757
 20
18.75171284138455
 40
1.458034083651493
 50
117.5481481756624
 51
242.4518518243375
 73
     1
 72
     2
 10
-65.20373809916427
 20
19.29028785168785
 40
2.065479772208505
 50
242.4518518243401
 51
297.5481481756871
 73
     1
 72
     2
 10
-64.92279820733097
 20
18.75171284138455
 40
1.458034083652003
 50
297.548148175701
 51
422.451851824299
 73
     1
 72
     2
 10
-65.20373809916427
 20
18.21313783108175
 40
2.065479772208577
 50
62.45185182430651
 51
117.5481481756662
 73
     1
 97
        4
330
1C0
330
1BD
330
1BF
330
1BE
 92
       16
 93
        4
 72
     2
 10
-65.20373809916427
 20
18.90844401950506
 40
0.5179085730132976
 50
38.12041979714672
 51
141.8795802028591
 73
     1
 72
     2
 10
-65.00399806281817
 20
18.75171284138455
 40
0.771799778679461
 50
141.8795802028365
 51
218.1204197971687
 73
     1
 72
     2
 10
-65.20373809916427
 20
18.59498166326455
 40
0.5179085730137354
 50
218.1204197971931
 51
321.879580202801
 73
     1
 72
     2
 10
-65.40347813551068
 20
18.75171284138455
 40
0.7717997786796947
 50
321.8795802028417
 51
398.120419797153
 73
     1
 97
        4
330
1A3
330
1A4
330
1A5
330
1A2
 75
     1
 76
     0
 52
45.0
 41
0.1
 77
     0
 78
     1
 53
45.0
 43
0.0
 44
0.0
 45
-0.0707106781186548
 46
0.0707106781186548
 79
     0
 98
        1
 10
0.0
 20
0.0
  0
HATCH
  5
20C
330
71
100
AcDbEntity
  8
1
  6
Continuous
 62
     2
100
AcDbHatch
 10
0.0
 20
0.0
 30
0.0
210
0.0
220
0.0
230
1.0
  2
_USER
 70
     0
 71
     1
 91
        2
 92
        1
 93
        6
 72
     1
 10
-69.75955284555778
 20
23.63780807946475
 11
-69.75955284555778
 21
20.58399855565355
 72
     1
 10
-69.75955284555778
 20
20.58399855565355
 11
-68.51904843530366
 21
20.58399855565355
 72
     1
 10
-68.51904843530366
 20
20.58399855565355
 11
-68.51904843530366
 21
21.52707679679736
 72
     1
 10
-68.51904843530366
 20
21.52707679679736
 11
-67.76028084752338
 21
21.52707679679736
 72
     2
 10
-67.76028084752338
 20
22.58244243813107
 40
1.055365641333712
 50
270.0
 51
450.0
 73
     1
 72
     1
 10
-67.76028084752338
 20
23.63780807946475
 11
-69.75955284555778
 21
23.63780807946475
 97
        6
330
1CA
330
127
330
11D
330
11C
330
129
330
128
 92
       16
 93
        4
 72
     1
 10
-68.20175337376176
 20
22.97470223402465
 11
-68.51904843530366
 21
22.97470223402465
 72
     1
 10
-68.51904843530366
 20
22.97470223402465
 11
-68.51904843530366
 21
22.26897458468244
 72
     1
 10
-68.51904843530366
 20
22.26897458468244
 11
-68.20175337376176
 21
22.26897458468244
 72
     2
 10
-68.20175337376176
 20
22.62183840935356
 40
0.3528638246711218
 50
270.0
 51
450.0
 73
     1
 97
        4
330
12A
330
11B
330
12B
330
1B6
 75
     1
 76
     0
 52
45.0
 41
0.1
 77
     0
 78
     1
 53
45.0
 43
0.0
 44
0.0
 45
-0.0707106781186548
 46
0.0707106781186548
 79
     0
 98
        1
 10
0.0
 20
0.0
  0
HATCH
  5
20D
330
71
100
AcDbEntity
  8
1
  6
Continuous
 62
     2
100
AcDbHatch
 10
0.0
 20
0.0
 30
0.0
210
0.0
220
0.0
230
1.0
  2
_USER
 70
     0
 71
     1
 91
        2
 92
        1
 93
        6
 72
     1
 10
-69.75955284555778
 20
23.63780807946475
 11
-69.75955284555778
 21
20.58399855565355
 72
     1
 10
-69.75955284555778
 20
20.58399855565355
 11
-68.51904843530366
 21
20.58399855565355
 72
     1
 10
-68.51904843530366
 20
20.58399855565355
 11
-68.51904843530366
 21
21.52707679679736
 72
     1
 10
-68.51904843530366
 20
21.52707679679736
 11
-67.76028084752338
 21
21.52707679679736
 72
     2
 10
-67.76028084752338
 20
22.58244243813107
 40
1.055365641333712
 50
270.0
 51
450.0
 73
     1
 72
     1
 10
-67.76028084752338
 20
23.63780807946475
 11
-69.75955284555778
 21
23.63780807946475
 97
        6
330
1CA
330
127
330
11D
330
11C
330
129
330
128
 92
       16
 93
        4
 72
     1
 10
-68.20175337376176
 20
22.97470223402465
 11
-68.51904843530366
 21
22.97470223402465
 72
     1
 10
-68.51904843530366
 20
22.97470223402465
 11
-68.51904843530366
 21
22.26897458468244
 72
     1
 10
-68.51904843530366
 20
22.26897458468244
 11
-68.20175337376176
 21
22.26897458468244
 72
     2
 10
-68.20175337376176
 20
22.62183840935356
 40
0.3528638246711218
 50
270.0
 51
450.0
 73
     1
 97
        4
330
12A
330
11B
330
12B
330
1B6
 75
     1
 76
     0
 52
45.0
 41
0.1
 77
     0
 78
     1
 53
45.0
 43
0.0
 44
0.0
 45
-0.0707106781186548
 46
0.0707106781186548
 79
     0
 98
        1
 10
0.0
 20
0.0
  0
HATCH
  5
20E
330
71
100
AcDbEntity
  8
1
  6
Continuous
 62
     2
100
AcDbHatch
 10
0.0
 20
0.0
 30
0.0
210
0.0
220
0.0
230
1.0
  2
_USER
 70
     0
 71
     1
 91
        1
 92
        1
 93
       12
 72
     1
 10
-50.14526965112458
 20
23.63780807946475
 11
-48.74254543337736
 21
23.63780807946475
 72
     1
 10
-48.74254543337736
 20
23.63780807946475
 11
-50.04507506414387
 21
22.16485754942855
 72
     1
 10
-50.04507506414387
 20
22.16485754942855
 11
-48.64712201720357
 21
20.58399855565355
 72
     1
 10
-48.64712201720357
 20
20.58399855565355
 11
-50.04984623495187
 21
20.58399855565355
 72
     1
 10
-50.04984623495187
 20
20.58399855565355
 11
-50.74643717301737
 21
21.37173034094727
 72
     1
 10
-50.74643717301737
 20
21.37173034094727
 11
-51.44302811108307
 21
20.58399855565355
 72
     1
 10
-51.44302811108307
 20
20.58399855565355
 11
-52.84575232883128
 21
20.58399855565355
 72
     1
 10
-52.84575232883128
 20
20.58399855565355
 11
-51.44779928189098
 21
22.16485754942855
 72
     1
 10
-51.44779928189098
 20
22.16485754942855
 11
-52.75032891265846
 21
23.63780807946475
 72
     1
 10
-52.75032891265846
 20
23.63780807946475
 11
-51.34760469490917
 21
23.63780807946475
 72
     1
 10
-51.34760469490917
 20
23.63780807946475
 11
-50.74643717301737
 21
22.95798475790926
 72
     1
 10
-50.74643717301737
 20
22.95798475790926
 11
-50.14526965112458
 21
23.63780807946475
 97
       12
330
F6
330
14F
330
14E
330
14D
330
14C
330
F7
330
F8
330
F4
330
F5
330
152
330
151
330
150
 75
     1
 76
     0
 52
45.0
 41
0.1
 77
     0
 78
     1
 53
45.0
 43
0.0
 44
0.0
 45
-0.0707106781186548
 46
0.0707106781186548
 79
     0
 98
        1
 10
0.0
 20
0.0
  0
HATCH
  5
20F
330
71
100
AcDbEntity
  8
1
  6
Continuous
 62
     2
100
AcDbHatch
 10
0.0
 20
0.0
 30
0.0
210
0.0
220
0.0
230
1.0
  2
_USER
 70
     0
 71
     1
 91
        1
 92
        1
 93
       12
 72
     1
 10
-50.14526965112458
 20
23.63780807946475
 11
-48.74254543337736
 21
23.63780807946475
 72
     1
 10
-48.74254543337736
 20
23.63780807946475
 11
-50.04507506414387
 21
22.16485754942855
 72
     1
 10
-50.04507506414387
 20
22.16485754942855
 11
-48.64712201720357
 21
20.58399855565355
 72
     1
 10
-48.64712201720357
 20
20.58399855565355
 11
-50.04984623495187
 21
20.58399855565355
 72
     1
 10
-50.04984623495187
 20
20.58399855565355
 11
-50.74643717301737
 21
21.37173034094727
 72
     1
 10
-50.74643717301737
 20
21.37173034094727
 11
-51.44302811108307
 21
20.58399855565355
 72
     1
 10
-51.44302811108307
 20
20.58399855565355
 11
-52.84575232883128
 21
20.58399855565355
 72
     1
 10
-52.84575232883128
 20
20.58399855565355
 11
-51.44779928189098
 21
22.16485754942855
 72
     1
 10
-51.44779928189098
 20
22.16485754942855
 11
-52.75032891265846
 21
23.63780807946475
 72
     1
 10
-52.75032891265846
 20
23.63780807946475
 11
-51.34760469490917
 21
23.63780807946475
 72
     1
 10
-51.34760469490917
 20
23.63780807946475
 11
-50.74643717301737
 21
22.95798475790926
 72
     1
 10
-50.74643717301737
 20
22.95798475790926
 11
-50.14526965112458
 21
23.63780807946475
 97
       12
330
F6
330
14F
330
14E
330
14D
330
14C
330
F7
330
F8
330
F4
330
F5
330
152
330
151
330
150
 75
     1
 76
     0
 52
45.0
 41
0.1
 77
     0
 78
     1
 53
45.0
 43
0.0
 44
0.0
 45
-0.0707106781186548
 46
0.0707106781186548
 79
     0
 98
        1
 10
0.0
 20
0.0
  0
HATCH
  5
210
330
71
100
AcDbEntity
  8
1
  6
Continuous
 62
     2
100
AcDbHatch
 10
0.0
 20
0.0
 30
0.0
210
0.0
220
0.0
230
1.0
  2
_USER
 70
     0
 71
     1
 91
        1
 92
        1
 93
        4
 72
     1
 10
-52.96503159904816
 20
23.63780807946475
 11
-52.96503159904816
 21
20.58399855565355
 72
     1
 10
-52.96503159904816
 20
20.58399855565355
 11
-54.20553600930106
 21
20.58399855565355
 72
     1
 10
-54.20553600930106
 20
20.58399855565355
 11
-54.20553600930106
 21
23.63780807946475
 72
     1
 10
-54.20553600930106
 20
23.63780807946475
 11
-52.96503159904816
 21
23.63780807946475
 97
        4
330
14A
330
F9
330
149
330
14B
 75
     1
 76
     0
 52
45.0
 41
0.1
 77
     0
 78
     1
 53
45.0
 43
0.0
 44
0.0
 45
-0.0707106781186548
 46
0.0707106781186548
 79
     0
 98
        1
 10
0.0
 20
0.0
  0
HATCH
  5
211
330
71
100
AcDbEntity
  8
1
  6
Continuous
 62
     2
100
AcDbHatch
 10
0.0
 20
0.0
 30
0.0
210
0.0
220
0.0
230
1.0
  2
_USER
 70
     0
 71
     1
 91
        1
 92
        1
 93
        4
 72
     1
 10
-52.96503159904816
 20
23.63780807946475
 11
-52.96503159904816
 21
20.58399855565355
 72
     1
 10
-52.96503159904816
 20
20.58399855565355
 11
-54.20553600930106
 21
20.58399855565355
 72
     1
 10
-54.20553600930106
 20
20.58399855565355
 11
-54.20553600930106
 21
23.63780807946475
 72
     1
 10
-54.20553600930106
 20
23.63780807946475
 11
-52.96503159904816
 21
23.63780807946475
 97
        4
330
14A
330
F9
330
149
330
14B
 75
     1
 76
     0
 52
45.0
 41
0.1
 77
     0
 78
     1
 53
45.0
 43
0.0
 44
0.0
 45
-0.0707106781186548
 46
0.0707106781186548
 79
     0
 98
        1
 10
0.0
 20
0.0
  0
HATCH
  5
212
330
71
100
AcDbEntity
  8
1
  6
Continuous
 62
     2
100
AcDbHatch
 10
0.0
 20
0.0
 30
0.0
210
0.0
220
0.0
230
1.0
  2
_USER
 70
     0
 71
     1
 91
        2
 92
        1
 93
        8
 72
     1
 10
-53.35547560258016
 20
17.22480807947926
 11
-54.59598001283408
 21
17.22480807947926
 72
     1
 10
-54.59598001283408
 20
17.22480807947926
 11
-54.80746006630986
 21
17.76576862369714
 72
     1
 10
-54.80746006630986
 20
17.76576862369714
 11
-55.93990164298367
 21
17.76576862369714
 72
     1
 10
-55.93990164298367
 20
17.76576862369714
 11
-56.15138169645948
 21
17.22480807947926
 72
     1
 10
-56.15138169645948
 20
17.22480807947926
 11
-57.39188610671246
 21
17.22480807947926
 72
     1
 10
-57.39188610671246
 20
17.22480807947926
 11
-55.99393305977316
 21
20.27861760329034
 72
     1
 10
-55.99393305977316
 20
20.27861760329034
 11
-54.75342864952046
 21
20.27861760329034
 72
     1
 10
-54.75342864952046
 20
20.27861760329034
 11
-53.35547560258016
 21
17.22480807947926
 97
        8
330
145
330
FF
330
144
330
147
330
FC
330
146
330
FD
330
FE
 92
       16
 93
        3
 72
     1
 10
-55.67384609183867
 20
18.44633188900374
 11
-55.07351561745617
 21
18.44633188900374
 72
     1
 10
-55.07351561745617
 20
18.44633188900374
 11
-55.37368085464627
 21
19.21414685499045
 72
     1
 10
-55.37368085464627
 20
19.21414685499045
 11
-55.67384609183867
 21
18.44633188900374
 97
        3
330
FB
330
FA
330
148
 75
     1
 76
     0
 52
45.0
 41
0.1
 77
     0
 78
     1
 53
45.0
 43
0.0
 44
0.0
 45
-0.0707106781186548
 46
0.0707106781186548
 79
     0
 98
        1
 10
0.0
 20
0.0
  0
HATCH
  5
213
330
71
100
AcDbEntity
  8
1
  6
Continuous
 62
     2
100
AcDbHatch
 10
0.0
 20
0.0
 30
0.0
210
0.0
220
0.0
230
1.0
  2
_USER
 70
     0
 71
     1
 91
        2
 92
        1
 93
        8
 72
     1
 10
-53.35547560258016
 20
17.22480807947926
 11
-54.59598001283408
 21
17.22480807947926
 72
     1
 10
-54.59598001283408
 20
17.22480807947926
 11
-54.80746006630986
 21
17.76576862369714
 72
     1
 10
-54.80746006630986
 20
17.76576862369714
 11
-55.93990164298367
 21
17.76576862369714
 72
     1
 10
-55.93990164298367
 20
17.76576862369714
 11
-56.15138169645948
 21
17.22480807947926
 72
     1
 10
-56.15138169645948
 20
17.22480807947926
 11
-57.39188610671246
 21
17.22480807947926
 72
     1
 10
-57.39188610671246
 20
17.22480807947926
 11
-55.99393305977316
 21
20.27861760329034
 72
     1
 10
-55.99393305977316
 20
20.27861760329034
 11
-54.75342864952046
 21
20.27861760329034
 72
     1
 10
-54.75342864952046
 20
20.27861760329034
 11
-53.35547560258016
 21
17.22480807947926
 97
        8
330
145
330
FF
330
144
330
147
330
FC
330
146
330
FD
330
FE
 92
       16
 93
        3
 72
     1
 10
-55.67384609183867
 20
18.44633188900374
 11
-55.07351561745617
 21
18.44633188900374
 72
     1
 10
-55.07351561745617
 20
18.44633188900374
 11
-55.37368085464627
 21
19.21414685499045
 72
     1
 10
-55.37368085464627
 20
19.21414685499045
 11
-55.67384609183867
 21
18.44633188900374
 97
        3
330
FB
330
FA
330
148
 75
     1
 76
     0
 52
45.0
 41
0.1
 77
     0
 78
     1
 53
45.0
 43
0.0
 44
0.0
 45
-0.0707106781186548
 46
0.0707106781186548
 79
     0
 98
        1
 10
0.0
 20
0.0
  0
HATCH
  5
214
330
71
100
AcDbEntity
  8
1
  6
Continuous
 62
     2
100
AcDbHatch
 10
0.0
 20
0.0
 30
0.0
210
0.0
220
0.0
230
1.0
  2
_USER
 70
     0
 71
     1
 91
        1
 92
        1
 93
        8
 72
     1
 10
-59.54939824589468
 20
20.27861760329034
 11
-59.54939824589468
 21
19.49335229716675
 72
     1
 10
-59.54939824589468
 20
19.49335229716675
 11
-58.73829920842007
 21
19.49335229716675
 72
     1
 10
-58.73829920842007
 20
19.49335229716675
 11
-58.73829920842007
 21
17.22480807947926
 72
     1
 10
-58.73829920842007
 20
17.22480807947926
 11
-57.54550650625356
 21
17.22480807947926
 72
     1
 10
-57.54550650625356
 20
17.22480807947926
 11
-57.54550650625356
 21
19.49335229716675
 72
     1
 10
-57.54550650625356
 20
19.49335229716675
 11
-56.73440746878106
 21
19.49335229716675
 72
     1
 10
-56.73440746878106
 20
19.49335229716675
 11
-56.73440746878106
 21
20.27861760329034
 72
     1
 10
-56.73440746878106
 20
20.27861760329034
 11
-59.54939824589468
 21
20.27861760329034
 97
        8
330
141
330
140
330
13F
330
100
330
101
330
143
330
102
330
142
 75
     1
 76
     0
 52
45.0
 41
0.1
 77
     0
 78
     1
 53
45.0
 43
0.0
 44
0.0
 45
-0.0707106781186548
 46
0.0707106781186548
 79
     0
 98
        1
 10
0.0
 20
0.0
  0
HATCH
  5
215
330
71
100
AcDbEntity
  8
1
  6
Continuous
 62
     2
100
AcDbHatch
 10
0.0
 20
0.0
 30
0.0
210
0.0
220
0.0
230
1.0
  2
_USER
 70
     0
 71
     1
 91
        1
 92
        1
 93
        8
 72
     1
 10
-59.54939824589468
 20
20.27861760329034
 11
-59.54939824589468
 21
19.49335229716675
 72
     1
 10
-59.54939824589468
 20
19.49335229716675
 11
-58.73829920842007
 21
19.49335229716675
 72
     1
 10
-58.73829920842007
 20
19.49335229716675
 11
-58.73829920842007
 21
17.22480807947926
 72
     1
 10
-58.73829920842007
 20
17.22480807947926
 11
-57.54550650625356
 21
17.22480807947926
 72
     1
 10
-57.54550650625356
 20
17.22480807947926
 11
-57.54550650625356
 21
19.49335229716675
 72
     1
 10
-57.54550650625356
 20
19.49335229716675
 11
-56.73440746878106
 21
19.49335229716675
 72
     1
 10
-56.73440746878106
 20
19.49335229716675
 11
-56.73440746878106
 21
20.27861760329034
 72
     1
 10
-56.73440746878106
 20
20.27861760329034
 11
-59.54939824589468
 21
20.27861760329034
 97
        8
330
141
330
140
330
13F
330
100
330
101
330
143
330
102
330
142
 75
     1
 76
     0
 52
45.0
 41
0.1
 77
     0
 78
     1
 53
45.0
 43
0.0
 44
0.0
 45
-0.0707106781186548
 46
0.0707106781186548
 79
     0
 98
        1
 10
0.0
 20
0.0
  0
HATCH
  5
216
330
71
100
AcDbEntity
  8
1
  6
Continuous
 62
     2
100
AcDbHatch
 10
0.0
 20
0.0
 30
0.0
210
0.0
220
0.0
230
1.0
  2
_USER
 70
     0
 71
     1
 91
        1
 92
        1
 93
       10
 72
     1
 10
-56.87739166215556
 20
23.63780807946475
 11
-58.07018436432207
 21
23.63780807946475
 72
     1
 10
-58.07018436432207
 20
23.63780807946475
 11
-58.07018436432207
 21
20.58399855565355
 72
     1
 10
-58.07018436432207
 20
20.58399855565355
 11
-56.87739166215556
 21
20.58399855565355
 72
     1
 10
-56.87739166215556
 20
20.58399855565355
 11
-56.87739166215556
 21
21.89277406585825
 72
     1
 10
-56.87739166215556
 20
21.89277406585825
 11
-55.63688725190156
 21
20.58399855565355
 72
     1
 10
-55.63688725190156
 20
20.58399855565355
 11
-54.44409454973496
 21
20.58399855565355
 72
     1
 10
-54.44409454973496
 20
20.58399855565355
 11
-54.44409454973496
 21
23.63780807946475
 72
     1
 10
-54.44409454973496
 20
23.63780807946475
 11
-55.63688725190156
 21
23.63780807946475
 72
     1
 10
-55.63688725190156
 20
23.63780807946475
 11
-55.63688725190156
 21
22.32903256925957
 72
     1
 10
-55.63688725190156
 20
22.32903256925957
 11
-56.87739166215556
 21
23.63780807946475
 97
       10
330
13B
330
105
330
106
330
107
330
108
330
13E
330
103
330
13D
330
13C
330
104
 75
     1
 76
     0
 52
45.0
 41
0.1
 77
     0
 78
     1
 53
45.0
 43
0.0
 44
0.0
 45
-0.0707106781186548
 46
0.0707106781186548
 79
     0
 98
        1
 10
0.0
 20
0.0
  0
HATCH
  5
217
330
71
100
AcDbEntity
  8
1
  6
Continuous
 62
     2
100
AcDbHatch
 10
0.0
 20
0.0
 30
0.0
210
0.0
220
0.0
230
1.0
  2
_USER
 70
     0
 71
     1
 91
        1
 92
        1
 93
       10
 72
     1
 10
-56.87739166215556
 20
23.63780807946475
 11
-58.07018436432207
 21
23.63780807946475
 72
     1
 10
-58.07018436432207
 20
23.63780807946475
 11
-58.07018436432207
 21
20.58399855565355
 72
     1
 10
-58.07018436432207
 20
20.58399855565355
 11
-56.87739166215556
 21
20.58399855565355
 72
     1
 10
-56.87739166215556
 20
20.58399855565355
 11
-56.87739166215556
 21
21.89277406585825
 72
     1
 10
-56.87739166215556
 20
21.89277406585825
 11
-55.63688725190156
 21
20.58399855565355
 72
     1
 10
-55.63688725190156
 20
20.58399855565355
 11
-54.44409454973496
 21
20.58399855565355
 72
     1
 10
-54.44409454973496
 20
20.58399855565355
 11
-54.44409454973496
 21
23.63780807946475
 72
     1
 10
-54.44409454973496
 20
23.63780807946475
 11
-55.63688725190156
 21
23.63780807946475
 72
     1
 10
-55.63688725190156
 20
23.63780807946475
 11
-55.63688725190156
 21
22.32903256925957
 72
     1
 10
-55.63688725190156
 20
22.32903256925957
 11
-56.87739166215556
 21
23.63780807946475
 97
       10
330
13B
330
105
330
106
330
107
330
108
330
13E
330
103
330
13D
330
13C
330
104
 75
     1
 76
     0
 52
45.0
 41
0.1
 77
     0
 78
     1
 53
45.0
 43
0.0
 44
0.0
 45
-0.0707106781186548
 46
0.0707106781186548
 79
     0
 98
        1
 10
0.0
 20
0.0
  0
HATCH
  5
218
330
71
100
AcDbEntity
  8
1
  6
Continuous
 62
     2
100
AcDbHatch
 10
0.0
 20
0.0
 30
0.0
210
0.0
220
0.0
230
1.0
  2
_USER
 70
     0
 71
     1
 91
        1
 92
        1
 93
       10
 72
     1
 10
-62.12583048257417
 20
20.27861760329034
 11
-63.31862318474177
 21
20.27861760329034
 72
     1
 10
-63.31862318474177
 20
20.27861760329034
 11
-63.31862318474177
 21
17.22480807947926
 72
     1
 10
-63.31862318474177
 20
17.22480807947926
 11
-62.12583048257417
 21
17.22480807947926
 72
     1
 10
-62.12583048257417
 20
17.22480807947926
 11
-62.12583048257417
 21
18.53358358968384
 72
     1
 10
-62.12583048257417
 20
18.53358358968384
 11
-60.88532607232128
 21
17.22480807947926
 72
     1
 10
-60.88532607232128
 20
17.22480807947926
 11
-59.69253337015488
 21
17.22480807947926
 72
     1
 10
-59.69253337015488
 20
17.22480807947926
 11
-59.69253337015488
 21
20.27861760329034
 72
     1
 10
-59.69253337015488
 20
20.27861760329034
 11
-60.88532607232128
 21
20.27861760329034
 72
     1
 10
-60.88532607232128
 20
20.27861760329034
 11
-60.88532607232128
 21
18.96984209308525
 72
     1
 10
-60.88532607232128
 20
18.96984209308525
 11
-62.12583048257417
 21
20.27861760329034
 97
       10
330
10A
330
10B
330
10C
330
138
330
10D
330
10E
330
137
330
13A
330
139
330
109
 75
     1
 76
     0
 52
45.0
 41
0.1
 77
     0
 78
     1
 53
45.0
 43
0.0
 44
0.0
 45
-0.0707106781186548
 46
0.0707106781186548
 79
     0
 98
        1
 10
0.0
 20
0.0
  0
HATCH
  5
219
330
71
100
AcDbEntity
  8
1
  6
Continuous
 62
     2
100
AcDbHatch
 10
0.0
 20
0.0
 30
0.0
210
0.0
220
0.0
230
1.0
  2
_USER
 70
     0
 71
     1
 91
        1
 92
        1
 93
       10
 72
     1
 10
-62.12583048257417
 20
20.27861760329034
 11
-63.31862318474177
 21
20.27861760329034
 72
     1
 10
-63.31862318474177
 20
20.27861760329034
 11
-63.31862318474177
 21
17.22480807947926
 72
     1
 10
-63.31862318474177
 20
17.22480807947926
 11
-62.12583048257417
 21
17.22480807947926
 72
     1
 10
-62.12583048257417
 20
17.22480807947926
 11
-62.12583048257417
 21
18.53358358968384
 72
     1
 10
-62.12583048257417
 20
18.53358358968384
 11
-60.88532607232128
 21
17.22480807947926
 72
     1
 10
-60.88532607232128
 20
17.22480807947926
 11
-59.69253337015488
 21
17.22480807947926
 72
     1
 10
-59.69253337015488
 20
17.22480807947926
 11
-59.69253337015488
 21
20.27861760329034
 72
     1
 10
-59.69253337015488
 20
20.27861760329034
 11
-60.88532607232128
 21
20.27861760329034
 72
     1
 10
-60.88532607232128
 20
20.27861760329034
 11
-60.88532607232128
 21
18.96984209308525
 72
     1
 10
-60.88532607232128
 20
18.96984209308525
 11
-62.12583048257417
 21
20.27861760329034
 97
       10
330
10A
330
10B
330
10C
330
138
330
10D
330
10E
330
137
330
13A
330
139
330
109
 75
     1
 76
     0
 52
45.0
 41
0.1
 77
     0
 78
     1
 53
45.0
 43
0.0
 44
0.0
 45
-0.0707106781186548
 46
0.0707106781186548
 79
     0
 98
        1
 10
0.0
 20
0.0
  0
HATCH
  5
21A
330
71
100
AcDbEntity
  8
1
  6
Continuous
 62
     2
100
AcDbHatch
 10
0.0
 20
0.0
 30
0.0
210
0.0
220
0.0
230
1.0
  2
_USER
 70
     0
 71
     1
 91
        1
 92
        1
 93
       12
 72
     1
 10
-63.12762542150958
 20
23.63780807946475
 11
-63.12762542150958
 21
20.58399855565355
 72
     1
 10
-63.12762542150958
 20
20.58399855565355
 11
-64.32041812367598
 21
20.58399855565355
 72
     1
 10
-64.32041812367598
 20
20.58399855565355
 11
-64.32041812367598
 21
21.71827066449737
 72
     1
 10
-64.32041812367598
 20
21.71827066449737
 11
-65.37007570158346
 21
21.71827066449737
 72
     1
 10
-65.37007570158346
 20
21.71827066449737
 11
-65.37007570158346
 21
20.58399855565355
 72
     1
 10
-65.37007570158346
 20
20.58399855565355
 11
-66.56286840375006
 21
20.58399855565355
 72
     1
 10
-66.56286840375006
 20
20.58399855565355
 11
-66.56286840375006
 21
23.63780807946475
 72
     1
 10
-66.56286840375006
 20
23.63780807946475
 11
-65.37007570158346
 21
23.63780807946475
 72
     1
 10
-65.37007570158346
 20
23.63780807946475
 11
-65.37007570158346
 21
22.56897474613015
 72
     1
 10
-65.37007570158346
 20
22.56897474613015
 11
-64.32041812367598
 21
22.56897474613015
 72
     1
 10
-64.32041812367598
 20
22.56897474613015
 11
-64.32041812367598
 21
23.63780807946475
 72
     1
 10
-64.32041812367598
 20
23.63780807946475
 11
-63.12762542150958
 21
23.63780807946475
 97
       12
330
132
330
131
330
130
330
118
330
119
330
12F
330
11A
330
12E
330
12D
330
12C
330
116
330
117
 75
     1
 76
     0
 52
45.0
 41
0.1
 77
     0
 78
     1
 53
45.0
 43
0.0
 44
0.0
 45
-0.0707106781186548
 46
0.0707106781186548
 79
     0
 98
        1
 10
0.0
 20
0.0
  0
HATCH
  5
21B
330
71
100
AcDbEntity
  8
1
  6
Continuous
 62
     2
100
AcDbHatch
 10
0.0
 20
0.0
 30
0.0
210
0.0
220
0.0
230
1.0
  2
_USER
 70
     0
 71
     1
 91
        1
 92
        1
 93
       12
 72
     1
 10
-63.12762542150958
 20
23.63780807946475
 11
-63.12762542150958
 21
20.58399855565355
 72
     1
 10
-63.12762542150958
 20
20.58399855565355
 11
-64.32041812367598
 21
20.58399855565355
 72
     1
 10
-64.32041812367598
 20
20.58399855565355
 11
-64.32041812367598
 21
21.71827066449737
 72
     1
 10
-64.32041812367598
 20
21.71827066449737
 11
-65.37007570158346
 21
21.71827066449737
 72
     1
 10
-65.37007570158346
 20
21.71827066449737
 11
-65.37007570158346
 21
20.58399855565355
 72
     1
 10
-65.37007570158346
 20
20.58399855565355
 11
-66.56286840375006
 21
20.58399855565355
 72
     1
 10
-66.56286840375006
 20
20.58399855565355
 11
-66.56286840375006
 21
23.63780807946475
 72
     1
 10
-66.56286840375006
 20
23.63780807946475
 11
-65.37007570158346
 21
23.63780807946475
 72
     1
 10
-65.37007570158346
 20
23.63780807946475
 11
-65.37007570158346
 21
22.56897474613015
 72
     1
 10
-65.37007570158346
 20
22.56897474613015
 11
-64.32041812367598
 21
22.56897474613015
 72
     1
 10
-64.32041812367598
 20
22.56897474613015
 11
-64.32041812367598
 21
23.63780807946475
 72
     1
 10
-64.32041812367598
 20
23.63780807946475
 11
-63.12762542150958
 21
23.63780807946475
 97
       12
330
132
330
131
330
130
330
118
330
119
330
12F
330
11A
330
12E
330
12D
330
12C
330
116
330
117
 75
     1
 76
     0
 52
45.0
 41
0.1
 77
     0
 78
     1
 53
45.0
 43
0.0
 44
0.0
 45
-0.0707106781186548
 46
0.0707106781186548
 79
     0
 98
        1
 10
0.0
 20
0.0
  0
ENDBLK
  5
73
330
71
100
AcDbEntity
  8
0
100
AcDbBlockEnd
  0
BLOCK
  5
75
330
74
100
AcDbEntity
  8
0
100
AcDbBlockBegin
  2
_punkt
 70
     0
 10
48.74967839227934
 20
9.93130807946295
 30
0.0
  3
_punkt
  1

  0
LINE
  5
21C
330
74
100
AcDbEntity
  8
1
  6
Continuous
 62
     2
100
AcDbLine
 10
48.74967839227934
 20
9.93130807946295
 30
0.0
 11
48.74967839227934
 21
4.93130807946284
 31
0.0
  0
LINE
  5
21D
330
74
100
AcDbEntity
  8
1
  6
Continuous
 62
     2
100
AcDbLine
 10
48.74967839227934
 20
9.93130807946295
 30
0.0
 11
53.74967839227833
 21
9.93130807946295
 31
0.0
  0
ENDBLK
  5
76
330
74
100
AcDbEntity
  8
0
100
AcDbBlockEnd
  0
BLOCK
  5
7A
330
77
100
AcDbEntity
  8
0
100
AcDbBlockBegin
  2
A4I_CS
 70
     0
 10
48.74967839227934
 20
4.93130807946284
 30
0.0
  3
A4I_CS
  1

  0
INSERT
  5
78
330
77
100
AcDbEntity
  8
1
100
AcDbBlockReference
  2
_rahmen
 10
48.74967839227934
 20
4.93130807946284
 30
0.0
  0
INSERT
  5
79
330
77
100
AcDbEntity
  8
1
100
AcDbBlockReference
  2
_punkt
 10
48.74967839227934
 20
9.93130807946295
 30
0.0
  0
ENDBLK
  5
7B
330
77
100
AcDbEntity
  8
0
100
AcDbBlockEnd
  0
BLOCK
  5
84
330
7C
100
AcDbEntity
  8
0
100
AcDbBlockBegin
  2
1
 70
     0
 10
0.0
 20
0.0
 30
0.0
  3
1
  1

  0
INSERT
  5
7D
330
7C
100
AcDbEntity
  8
0
100
AcDbBlockReference
  2
AllgSicht1
 10
-15.99999999999989
 20
81.0
 30
0.0
  0
INSERT
  5
7E
330
7C
100
AcDbEntity
  8
0
100
AcDbBlockReference
  2
Drfsicht1
 10
-128.0
 20
81.99999999999505
 30
0.0
  0
INSERT
  5
7F
330
7C
100
AcDbEntity
  8
0
100
AcDbBlockReference
  2
Rckans1
 10
-15.99999999999989
 20
145.4500001072884
 30
0.0
  0
INSERT
  5
80
330
7C
100
AcDbEntity
  8
0
100
AcDbBlockReference
  2
SA_Links1
 10
-77.99999999998981
 20
145.4500001072884
 30
0.0
  0
INSERT
  5
81
330
7C
100
AcDbEntity
  8
0
100
AcDbBlockReference
  2
SA_Rechts1
 10
-196.0000000000051
 20
142.4500001072884
 30
0.0
  0
INSERT
  5
82
330
7C
100
AcDbEntity
  8
0
100
AcDbBlockReference
  2
Vordans1
 10
-128.0
 20
145.4500001072884
 30
0.0
  0
INSERT
  5
83
330
7C
100
AcDbEntity
  8
0
100
AcDbBlockReference
  2
A4I_CS
 10
48.74967839227934
 20
4.93130807946284
 30
0.0
  0
ENDBLK
  5
85
330
7C
100
AcDbEntity
  8
0
100
AcDbBlockEnd
  0
BLOCK
  5
B0
330
A7
100
AcDbEntity
  8
0
100
AcDbBlockBegin
  2
*D17
 70
     1
 10
0.0
 20
0.0
 30
0.0
  3
*D17
  1

  0
LINE
  5
A8
330
A7
100
AcDbEntity
  8
1
  6
Continuous
 62
     2
100
AcDbLine
 10
-150.5684759876603
 20
92.562684609065
 30
0.0
 11
-150.5684759876603
 21
82.74999999999005
 31
0.0
  0
LINE
  5
A9
330
A7
100
AcDbEntity
  8
1
  6
Continuous
 62
     2
100
AcDbLine
 10
-150.5684759876603
 20
82.74999999999005
 30
0.0
 11
-150.5684759876603
 21
81.24999999999005
 31
0.0
  0
LINE
  5
AA
330
A7
100
AcDbEntity
  8
1
  6
Continuous
 62
     2
100
AcDbLine
 10
-150.5684759876603
 20
81.24999999999005
 30
0.0
 11
-150.5684759876603
 21
74.24999999999005
 31
0.0
  0
LINE
  5
AB
330
A7
100
AcDbEntity
  8
1
  6
Continuous
 62
     2
100
AcDbLine
 10
-142.4999986933594
 20
82.74999999999005
 30
0.0
 11
-152.0684759876603
 21
82.74999999999005
 31
0.0
  0
LINE
  5
AC
330
A7
100
AcDbEntity
  8
1
  6
Continuous
 62
     2
100
AcDbLine
 10
-142.4999986933594
 20
81.24999999999005
 30
0.0
 11
-152.0684759876603
 21
81.24999999999005
 31
0.0
  0
SOLID
  5
AD
330
A7
100
AcDbEntity
  8
1
 62
     2
100
AcDbTrace
 10
-151.0292597292162
 20
86.24999999999005
 30
0.0
 11
-150.1076922461044
 21
86.24999999999005
 31
0.0
 12
-150.5684759876603
 22
82.74999999999005
 32
0.0
 13
-150.5684759876603
 23
82.74999999999005
 33
0.0
  0
SOLID
  5
AE
330
A7
100
AcDbEntity
  8
1
 62
     2
100
AcDbTrace
 10
-150.1076922461044
 20
77.74999999999005
 30
0.0
 11
-151.0292597292162
 21
77.74999999999005
 31
0.0
 12
-150.5684759876603
 22
81.24999999999005
 32
0.0
 13
-150.5684759876603
 23
81.24999999999005
 33
0.0
  0
MTEXT
  5
AF
330
A7
100
AcDbEntity
  8
1
 62
     3
100
AcDbMText
 10
-152.9184759876603
 20
87.13768460906499
 30
0.0
 40
3.5
 41
0.0
 71
     7
 72
     1
  1
1,5
  7
CONVERTER_11
 11
0.0
 21
1.0
 31
0.0
 73
     1
 44
0.60024009603842
  0
ENDBLK
  5
B1
330
A7
100
AcDbEntity
  8
0
100
AcDbBlockEnd
  0
BLOCK
  5
D6
330
CF
100
AcDbEntity
  8
0
100
AcDbBlockBegin
  2
*D18
 70
     1
 10
0.0
 20
0.0
 30
0.0
  3
*D18
  1

  0
LINE
  5
D0
330
CF
100
AcDbEntity
  8
1
  6
Continuous
 62
     2
100
AcDbLine
 10
-150.5684759876603
 20
128.7500000214615
 30
0.0
 11
-150.5684759876603
 21
162.1500000214615
 31
0.0
  0
LINE
  5
D1
330
CF
100
AcDbEntity
  8
1
  6
Continuous
 62
     2
100
AcDbLine
 10
-113.9999986933594
 20
128.7500000214615
 30
0.0
 11
-152.5684759876603
 21
128.7500000214615
 31
0.0
  0
LINE
  5
D2
330
CF
100
AcDbEntity
  8
1
  6
Continuous
 62
     2
100
AcDbLine
 10
-113.9999986933594
 20
162.1500000214615
 30
0.0
 11
-152.5684759876603
 21
162.1500000214615
 31
0.0
  0
SOLID
  5
D3
330
CF
100
AcDbEntity
  8
1
 62
     2
100
AcDbTrace
 10
-151.0292597292162
 20
132.2500000214615
 30
0.0
 11
-150.1076922461044
 21
132.2500000214615
 31
0.0
 12
-150.5684759876603
 22
128.7500000214615
 32
0.0
 13
-150.5684759876603
 23
128.7500000214615
 33
0.0
  0
SOLID
  5
D4
330
CF
100
AcDbEntity
  8
1
 62
     2
100
AcDbTrace
 10
-150.1076922461044
 20
158.6500000214615
 30
0.0
 11
-151.0292597292162
 21
158.6500000214615
 31
0.0
 12
-150.5684759876603
 22
162.1500000214615
 32
0.0
 13
-150.5684759876603
 23
162.1500000214615
 33
0.0
  0
MTEXT
  5
D5
330
CF
100
AcDbEntity
  8
1
 62
     3
100
AcDbMText
 10
-152.9184759876603
 20
141.847245925199
 30
0.0
 40
3.5
 41
0.0
 71
     7
 72
     1
  1
33,4
  7
CONVERTER_11
 11
0.0
 21
1.0
 31
0.0
 73
     1
 44
0.60024009603842
  0
ENDBLK
  5
D7
330
CF
100
AcDbEntity
  8
0
100
AcDbBlockEnd
  0
BLOCK
  5
E1
330
DA
100
AcDbEntity
  8
0
100
AcDbBlockBegin
  2
*D19
 70
     1
 10
0.0
 20
0.0
 30
0.0
  3
*D19
  1

  0
LINE
  5
DB
330
DA
100
AcDbEntity
  8
1
  6
Continuous
 62
     2
100
AcDbLine
 10
-141.9999986933595
 20
117.679212236346
 30
0.0
 11
-113.9999986933595
 21
117.679212236346
 31
0.0
  0
LINE
  5
DC
330
DA
100
AcDbEntity
  8
1
  6
Continuous
 62
     2
100
AcDbLine
 10
-141.9999986933595
 20
128.7500000214615
 30
0.0
 11
-141.9999986933595
 21
115.679212236346
 31
0.0
  0
LINE
  5
DD
330
DA
100
AcDbEntity
  8
1
  6
Continuous
 62
     2
100
AcDbLine
 10
-113.9999986933595
 20
128.7500000214615
 30
0.0
 11
-113.9999986933595
 21
115.679212236346
 31
0.0
  0
SOLID
  5
DE
330
DA
100
AcDbEntity
  8
1
 62
     2
100
AcDbTrace
 10
-138.4999986933595
 20
118.1399959779019
 30
0.0
 11
-138.4999986933595
 21
117.2184284947901
 31
0.0
 12
-141.9999986933595
 22
117.679212236346
 32
0.0
 13
-141.9999986933595
 23
117.679212236346
 33
0.0
  0
SOLID
  5
DF
330
DA
100
AcDbEntity
  8
1
 62
     2
100
AcDbTrace
 10
-117.4999986933595
 20
117.2184284947901
 30
0.0
 11
-117.4999986933595
 21
118.1399959779019
 31
0.0
 12
-113.9999986933595
 22
117.679212236346
 32
0.0
 13
-113.9999986933595
 23
117.679212236346
 33
0.0
  0
MTEXT
  5
E0
330
DA
100
AcDbEntity
  8
1
 62
     3
100
AcDbMText
 10
-130.625
 20
119.679212236346
 30
0.0
 40
3.5
 41
0.0
 71
     7
 72
     1
  1
28
  7
CONVERTER_11
 11
0.9999999999970619
 21
2.424068405545306E-6
 31
0.0
 73
     1
 44
0.60024009603842
  0
ENDBLK
  5
E2
330
DA
100
AcDbEntity
  8
0
100
AcDbBlockEnd
  0
ENDSEC
  0
SECTION
  2
ENTITIES
  0
INSERT
  5
86
330
1F
100
AcDbEntity
  8
1
100
AcDbBlockReference
  2
1
 10
0.0
 20
0.0
 30
0.0
  0
ENDSEC
  0
SECTION
  2
OBJECTS
  0
DICTIONARY
  5
C
330
0
100
AcDbDictionary
281
     1
  3
ACAD_GROUP
350
D
  3
ACAD_LAYOUT
350
1A
  3
ACAD_MATERIAL
350
3B
  3
ACAD_MLEADERSTYLE
350
245
  3
ACAD_MLINESTYLE
350
17
  3
ACAD_PLOTSETTINGS
350
19
  3
ACAD_PLOTSTYLENAME
350
E
  3
ACAD_TABLESTYLE
350
244
  3
ACAD_VISUALSTYLE
350
2A
  0
DICTIONARY
  5
D
102
{ACAD_REACTORS
330
C
102
}
330
C
100
AcDbDictionary
281
     1
  0
DICTIONARY
  5
1A
102
{ACAD_REACTORS
330
C
102
}
330
C
100
AcDbDictionary
281
     1
  3
Layout1
350
1E
  3
Layout2
350
26
  3
Model
350
22
  0
DICTIONARY
  5
3B
102
{ACAD_REACTORS
330
C
102
}
330
C
100
AcDbDictionary
281
     1
  3
ByBlock
350
3D
  3
ByLayer
350
3C
  3
Global
350
3E
  0
DICTIONARY
  5
245
102
{ACAD_REACTORS
330
C
102
}
330
C
100
AcDbDictionary
281
     1
  0
DICTIONARY
  5
17
102
{ACAD_REACTORS
330
C
102
}
330
C
100
AcDbDictionary
281
     1
  3
Standard
350
18
  0
DICTIONARY
  5
19
102
{ACAD_REACTORS
330
C
102
}
330
C
100
AcDbDictionary
281
     1
  0
ACDBDICTIONARYWDFLT
  5
E
102
{ACAD_REACTORS
330
C
102
}
330
C
100
AcDbDictionary
281
     1
  3
Normal
350
F
100
AcDbDictionaryWithDefault
340
F
  0
DICTIONARY
  5
244
102
{ACAD_REACTORS
330
C
102
}
330
C
100
AcDbDictionary
281
     1
  0
DICTIONARY
  5
2A
102
{ACAD_REACTORS
330
C
102
}
330
C
100
AcDbDictionary
281
     1
  3
2dWireframe
350
2F
  3
3D Hidden
350
31
  3
3dWireframe
350
30
  3
Basic
350
32
  3
Brighten
350
36
  3
ColorChange
350
3A
  3
Conceptual
350
34
  3
Dim
350
35
  3
Facepattern
350
39
  3
Flat
350
2B
  3
FlatWithEdges
350
2C
  3
Gouraud
350
2D
  3
GouraudWithEdges
350
2E
  3
Linepattern
350
38
  3
Realistic
350
33
  3
Thicken
350
37
  0
LAYOUT
  5
1E
102
{ACAD_REACTORS
330
1A
102
}
330
1A
100
AcDbPlotSettings
  1

  2
none_device
  4

  6

 40
0.0
 41
0.0
 42
0.0
 43
0.0
 44
0.0
 45
0.0
 46
0.0
 47
0.0
 48
0.0
 49
0.0
140
0.0
141
0.0
142
1.0
143
1.0
 70
   688
 72
     0
 73
     0
 74
     5
  7

 75
    16
 76
     0
 77
     2
 78
   300
147
1.0
148
0.0
149
0.0
100
AcDbLayout
  1
Layout1
 70
     1
 71
     1
 10
0.0
 20
0.0
 11
12.0
 21
9.0
 12
0.0
 22
0.0
 32
0.0
 14
1.00000000000000E+20
 24
1.00000000000000E+20
 34
1.00000000000000E+20
 15
-1.00000000000000E+20
 25
-1.00000000000000E+20
 35
-1.00000000000000E+20
146
0.0
 13
0.0
 23
0.0
 33
0.0
 16
1.0
 26
0.0
 36
0.0
 17
0.0
 27
1.0
 37
0.0
 76
     0
330
1B
  0
LAYOUT
  5
26
102
{ACAD_REACTORS
330
1A
102
}
330
1A
100
AcDbPlotSettings
  1

  2
none_device
  4

  6

 40
0.0
 41
0.0
 42
0.0
 43
0.0
 44
0.0
 45
0.0
 46
0.0
 47
0.0
 48
0.0
 49
0.0
140
0.0
141
0.0
142
1.0
143
1.0
 70
   688
 72
     0
 73
     0
 74
     5
  7

 75
    16
 76
     0
 77
     2
 78
   300
147
1.0
148
0.0
149
0.0
100
AcDbLayout
  1
Layout2
 70
     1
 71
     2
 10
0.0
 20
0.0
 11
0.0
 21
0.0
 12
0.0
 22
0.0
 32
0.0
 14
0.0
 24
0.0
 34
0.0
 15
0.0
 25
0.0
 35
0.0
146
0.0
 13
0.0
 23
0.0
 33
0.0
 16
1.0
 26
0.0
 36
0.0
 17
0.0
 27
1.0
 37
0.0
 76
     0
330
23
  0
LAYOUT
  5
22
102
{ACAD_REACTORS
330
1A
102
}
330
1A
100
AcDbPlotSettings
  1

  2
none_device
  4

  6

 40
0.0
 41
0.0
 42
0.0
 43
0.0
 44
0.0
 45
0.0
 46
0.0
 47
0.0
 48
0.0
 49
0.0
140
0.0
141
0.0
142
1.0
143
1.0
 70
  1712
 72
     0
 73
     0
 74
     0
  7

 75
     0
 76
     0
 77
     2
 78
   300
147
1.0
148
0.0
149
0.0
100
AcDbLayout
  1
Model
 70
     1
 71
     0
 10
0.0
 20
0.0
 11
12.0
 21
9.0
 12
0.0
 22
0.0
 32
0.0
 14
-243.2503216077197
 24
4.93130807946284
 34
0.0
 15
53.74967839227833
 25
214.931308079463
 35
0.0
146
0.0
 13
0.0
 23
0.0
 33
0.0
 16
1.0
 26
0.0
 36
0.0
 17
0.0
 27
1.0
 37
0.0
 76
     0
330
1F
331
29
  0
MATERIAL
  5
3D
102
{ACAD_REACTORS
330
3B
102
}
102
{ACAD_XDICTIONARY
360
240
102
}
330
3B
100
AcDbMaterial
  1
ByBlock
  0
MATERIAL
  5
3C
102
{ACAD_REACTORS
330
3B
102
}
102
{ACAD_XDICTIONARY
360
23E
102
}
330
3B
100
AcDbMaterial
  1
ByLayer
  0
MATERIAL
  5
3E
102
{ACAD_REACTORS
330
3B
102
}
102
{ACAD_XDICTIONARY
360
242
102
}
330
3B
100
AcDbMaterial
  1
Global
  0
MLINESTYLE
  5
18
102
{ACAD_REACTORS
330
17
102
}
330
17
100
AcDbMlineStyle
  2
Standard
 70
     0
  3

 62
   256
 51
90.0
 52
90.0
 71
     2
 49
0.5
 62
   256
  6
BYLAYER
 49
-0.5
 62
   256
  6
BYLAYER
  0
ACDBPLACEHOLDER
  5
F
102
{ACAD_REACTORS
330
E
102
}
330
E
  0
VISUALSTYLE
  5
2F
102
{ACAD_REACTORS
330
2A
102
}
102
{ACAD_XDICTIONARY
360
226
102
}
330
2A
100
AcDbVisualStyle
  2
2dWireframe
 70
     4
 71
     0
 72
     2
 73
     0
 90
        0
 40
-0.6
 41
-30.0
 62
     5
 63
     7
421
 16777215
 74
     1
 91
        4
 64
     7
 65
   257
 75
     1
175
     1
 42
1.0
 92
        0
 66
   257
 43
1.0
 76
     1
 77
     6
 78
     2
 67
     7
 79
     5
170
     0
171
     0
290
     0
174
     0
 93
        1
 44
0.0
173
     0
291
     0
 45
0.0
1001
ACAD
1000
AcDbSavedByObjectVersion
1070
     0
  0
VISUALSTYLE
  5
31
102
{ACAD_REACTORS
330
2A
102
}
102
{ACAD_XDICTIONARY
360
22A
102
}
330
2A
100
AcDbVisualStyle
  2
3D Hidden
 70
     6
 71
     1
 72
     2
 73
     2
 90
        0
 40
-0.6
 41
-30.0
 62
     5
 63
     7
421
 16777215
 74
     2
 91
        2
 64
     7
 65
   257
 75
     2
175
     1
 42
40.0
 92
        0
 66
   257
 43
1.0
 76
     1
 77
     6
 78
     2
 67
     7
 79
     3
170
     0
171
     0
290
     0
174
     0
 93
        1
 44
0.0
173
     0
291
     0
 45
0.0
1001
ACAD
1000
AcDbSavedByObjectVersion
1070
     0
  0
VISUALSTYLE
  5
30
102
{ACAD_REACTORS
330
2A
102
}
102
{ACAD_XDICTIONARY
360
228
102
}
330
2A
100
AcDbVisualStyle
  2
3dWireframe
 70
     5
 71
     0
 72
     2
 73
     0
 90
        0
 40
-0.6
 41
-30.0
 62
     5
 63
     7
421
 16777215
 74
     1
 91
        4
 64
     7
 65
   257
 75
     1
175
     1
 42
1.0
 92
        0
 66
   257
 43
1.0
 76
     1
 77
     6
 78
     2
 67
     7
 79
     5
170
     0
171
     0
290
     0
174
     0
 93
        1
 44
0.0
173
     0
291
     0
 45
0.0
1001
ACAD
1000
AcDbSavedByObjectVersion
1070
     0
  0
VISUALSTYLE
  5
32
102
{ACAD_REACTORS
330
2A
102
}
102
{ACAD_XDICTIONARY
360
22C
102
}
330
2A
100
AcDbVisualStyle
  2
Basic
 70
     7
 71
     1
 72
     0
 73
     1
 90
        0
 40
-0.6
 41
-30.0
 62
     5
 63
     7
421
 16777215
 74
     0
 91
        4
 64
     7
 65
   257
 75
     1
175
     1
 42
1.0
 92
        8
 66
     7
 43
1.0
 76
     1
 77
     6
 78
     2
 67
     7
 79
     5
170
     0
171
     0
290
     0
174
     0
 93
        1
 44
0.0
173
     0
291
     1
 45
0.0
1001
ACAD
1000
AcDbSavedByObjectVersion
1070
     0
  0
VISUALSTYLE
  5
36
102
{ACAD_REACTORS
330
2A
102
}
102
{ACAD_XDICTIONARY
360
234
102
}
330
2A
100
AcDbVisualStyle
  2
Brighten
 70
    12
 71
     2
 72
     2
 73
     0
 90
        0
 40
-0.6
 41
-30.0
 62
     5
 63
     7
421
 16777215
 74
     1
 91
        4
 64
     7
 65
   257
 75
     1
175
     1
 42
1.0
 92
        8
 66
     7
 43
1.0
 76
     1
 77
     6
 78
     2
 67
     7
 79
     5
170
     0
171
     0
290
     0
174
     0
 93
        1
 44
50.0
173
     0
291
     1
 45
0.0
1001
ACAD
1000
AcDbSavedByObjectVersion
1070
     0
  0
VISUALSTYLE
  5
3A
102
{ACAD_REACTORS
330
2A
102
}
102
{ACAD_XDICTIONARY
360
23C
102
}
330
2A
100
AcDbVisualStyle
  2
ColorChange
 70
    16
 71
     2
 72
     2
 73
     3
 90
        0
 40
-0.6
 41
-30.0
 62
     5
 63
     8
421
  8421504
 74
     1
 91
        4
 64
     7
 65
   257
 75
     1
175
     1
 42
1.0
 92
        8
 66
     8
424
  8421504
 43
1.0
 76
     1
 77
     6
 78
     2
 67
     7
 79
     5
170
     0
171
     0
290
     0
174
     0
 93
        1
 44
0.0
173
     0
291
     1
 45
0.0
1001
ACAD
1000
AcDbSavedByObjectVersion
1070
     0
  0
VISUALSTYLE
  5
34
102
{ACAD_REACTORS
330
2A
102
}
102
{ACAD_XDICTIONARY
360
230
102
}
330
2A
100
AcDbVisualStyle
  2
Conceptual
 70
     9
 71
     3
 72
     2
 73
     0
 90
        0
 40
-0.6
 41
-30.0
 62
     5
 63
     7
421
 16777215
 74
     2
 91
        2
 64
     7
 65
   257
 75
     1
175
     1
 42
40.0
 92
        8
 66
     7
 43
1.0
 76
     1
 77
     6
 78
     2
 67
     7
 79
     3
170
     0
171
     0
290
     0
174
     0
 93
        1
 44
0.0
173
     0
291
     0
 45
0.0
1001
ACAD
1000
AcDbSavedByObjectVersion
1070
     0
  0
VISUALSTYLE
  5
35
102
{ACAD_REACTORS
330
2A
102
}
102
{ACAD_XDICTIONARY
360
232
102
}
330
2A
100
AcDbVisualStyle
  2
Dim
 70
    11
 71
     2
 72
     2
 73
     0
 90
        0
 40
-0.6
 41
-30.0
 62
     5
 63
     7
421
 16777215
 74
     1
 91
        4
 64
     7
 65
   257
 75
     1
175
     1
 42
1.0
 92
        8
 66
     7
 43
1.0
 76
     1
 77
     6
 78
     2
 67
     7
 79
     5
170
     0
171
     0
290
     0
174
     0
 93
        1
 44
-50.0
173
     0
291
     1
 45
0.0
1001
ACAD
1000
AcDbSavedByObjectVersion
1070
     0
  0
VISUALSTYLE
  5
39
102
{ACAD_REACTORS
330
2A
102
}
102
{ACAD_XDICTIONARY
360
23A
102
}
330
2A
100
AcDbVisualStyle
  2
Facepattern
 70
    15
 71
     2
 72
     2
 73
     0
 90
        0
 40
-0.6
 41
-30.0
 62
     5
 63
     7
421
 16777215
 74
     1
 91
        4
 64
     7
 65
   257
 75
     1
175
     1
 42
1.0
 92
        8
 66
     7
 43
1.0
 76
     1
 77
     6
 78
     2
 67
     7
 79
     5
170
     0
171
     0
290
     0
174
     0
 93
        1
 44
0.0
173
     0
291
     1
 45
0.0
1001
ACAD
1000
AcDbSavedByObjectVersion
1070
     0
  0
VISUALSTYLE
  5
2B
102
{ACAD_REACTORS
330
2A
102
}
102
{ACAD_XDICTIONARY
360
21E
102
}
330
2A
100
AcDbVisualStyle
  2
Flat
 70
     0
 71
     2
 72
     1
 73
     1
 90
        2
 40
-0.6
 41
30.0
 62
     5
 63
     7
421
 16777215
 74
     0
 91
        4
 64
     7
 65
   257
 75
     1
175
     1
 42
1.0
 92
        8
 66
     7
 43
1.0
 76
     1
 77
     6
 78
     2
 67
     7
 79
     5
170
     0
171
     0
290
     0
174
     0
 93
       13
 44
0.0
173
     0
291
     1
 45
0.0
1001
ACAD
1000
AcDbSavedByObjectVersion
1070
     0
  0
VISUALSTYLE
  5
2C
102
{ACAD_REACTORS
330
2A
102
}
102
{ACAD_XDICTIONARY
360
220
102
}
330
2A
100
AcDbVisualStyle
  2
FlatWithEdges
 70
     1
 71
     2
 72
     1
 73
     1
 90
        2
 40
-0.6
 41
30.0
 62
     5
 63
     7
421
 16777215
 74
     1
 91
        4
 64
     7
 65
   257
 75
     1
175
     1
 42
1.0
 92
        0
 66
   257
 43
1.0
 76
     1
 77
     6
 78
     2
 67
     7
 79
     5
170
     0
171
     0
290
     0
174
     0
 93
       13
 44
0.0
173
     0
291
     1
 45
0.0
1001
ACAD
1000
AcDbSavedByObjectVersion
1070
     0
  0
VISUALSTYLE
  5
2D
102
{ACAD_REACTORS
330
2A
102
}
102
{ACAD_XDICTIONARY
360
222
102
}
330
2A
100
AcDbVisualStyle
  2
Gouraud
 70
     2
 71
     2
 72
     2
 73
     1
 90
        2
 40
-0.6
 41
30.0
 62
     5
 63
     7
421
 16777215
 74
     0
 91
        4
 64
     7
 65
   257
 75
     1
175
     1
 42
1.0
 92
        0
 66
     7
 43
1.0
 76
     1
 77
     6
 78
     2
 67
     7
 79
     5
170
     0
171
     0
290
     0
174
     0
 93
       13
 44
0.0
173
     0
291
     1
 45
0.0
1001
ACAD
1000
AcDbSavedByObjectVersion
1070
     0
  0
VISUALSTYLE
  5
2E
102
{ACAD_REACTORS
330
2A
102
}
102
{ACAD_XDICTIONARY
360
224
102
}
330
2A
100
AcDbVisualStyle
  2
GouraudWithEdges
 70
     3
 71
     2
 72
     2
 73
     1
 90
        2
 40
-0.6
 41
30.0
 62
     5
 63
     7
421
 16777215
 74
     1
 91
        4
 64
     7
 65
   257
 75
     1
175
     1
 42
1.0
 92
        0
 66
   257
 43
1.0
 76
     1
 77
     6
 78
     2
 67
     7
 79
     5
170
     0
171
     0
290
     0
174
     0
 93
       13
 44
0.0
173
     0
291
     1
 45
0.0
1001
ACAD
1000
AcDbSavedByObjectVersion
1070
     0
  0
VISUALSTYLE
  5
38
102
{ACAD_REACTORS
330
2A
102
}
102
{ACAD_XDICTIONARY
360
238
102
}
330
2A
100
AcDbVisualStyle
  2
Linepattern
 70
    14
 71
     2
 72
     2
 73
     0
 90
        0
 40
-0.6
 41
-30.0
 62
     5
 63
     7
421
 16777215
 74
     1
 91
        4
 64
     7
 65
   257
 75
     7
175
     7
 42
1.0
 92
        8
 66
     7
 43
1.0
 76
     1
 77
     6
 78
     2
 67
     7
 79
     5
170
     0
171
     0
290
     0
174
     0
 93
        1
 44
0.0
173
     0
291
     1
 45
0.0
1001
ACAD
1000
AcDbSavedByObjectVersion
1070
     0
  0
VISUALSTYLE
  5
33
102
{ACAD_REACTORS
330
2A
102
}
102
{ACAD_XDICTIONARY
360
22E
102
}
330
2A
100
AcDbVisualStyle
  2
Realistic
 70
     8
 71
     2
 72
     2
 73
     0
 90
        0
 40
-0.6
 41
-30.0
 62
     5
 63
     7
421
 16777215
 74
     1
 91
        0
 64
     7
 65
   257
 75
     1
175
     1
 42
1.0
 92
        8
 66
     8
424
  7895160
 43
1.0
 76
     1
 77
     6
 78
     2
 67
     7
 79
     5
170
     0
171
     0
290
     0
174
     0
 93
       13
 44
0.0
173
     0
291
     0
 45
0.0
1001
ACAD
1000
AcDbSavedByObjectVersion
1070
     0
  0
VISUALSTYLE
  5
37
102
{ACAD_REACTORS
330
2A
102
}
102
{ACAD_XDICTIONARY
360
236
102
}
330
2A
100
AcDbVisualStyle
  2
Thicken
 70
    13
 71
     2
 72
     2
 73
     0
 90
        0
 40
-0.6
 41
-30.0
 62
     5
 63
     7
421
 16777215
 74
     1
 91
        4
 64
     7
 65
   257
 75
     1
175
     1
 42
1.0
 92
       12
 66
     7
 43
1.0
 76
     1
 77
     6
 78
     2
 67
     7
 79
     5
170
     0
171
     0
290
     0
174
     0
 93
        1
 44
0.0
173
     0
291
     1
 45
0.0
1001
ACAD
1000
AcDbSavedByObjectVersion
1070
     0
  0
DICTIONARY
  5
240
330
3D
100
AcDbDictionary
280
     1
281
     1
  3
ACAD_XREC_ROUNDTRIP
360
241
  0
DICTIONARY
  5
23E
330
3C
100
AcDbDictionary
280
     1
281
     1
  3
ACAD_XREC_ROUNDTRIP
360
23F
  0
DICTIONARY
  5
242
330
3E
100
AcDbDictionary
280
     1
281
     1
  3
ACAD_XREC_ROUNDTRIP
360
243
  0
DICTIONARY
  5
226
330
2F
100
AcDbDictionary
280
     1
281
     1
  3
ACAD_XREC_ROUNDTRIP
360
227
  0
DICTIONARY
  5
22A
330
31
100
AcDbDictionary
280
     1
281
     1
  3
ACAD_XREC_ROUNDTRIP
360
22B
  0
DICTIONARY
  5
228
330
30
100
AcDbDictionary
280
     1
281
     1
  3
ACAD_XREC_ROUNDTRIP
360
229
  0
DICTIONARY
  5
22C
330
32
100
AcDbDictionary
280
     1
281
     1
  3
ACAD_XREC_ROUNDTRIP
360
22D
  0
DICTIONARY
  5
234
330
36
100
AcDbDictionary
280
     1
281
     1
  3
ACAD_XREC_ROUNDTRIP
360
235
  0
DICTIONARY
  5
23C
330
3A
100
AcDbDictionary
280
     1
281
     1
  3
ACAD_XREC_ROUNDTRIP
360
23D
  0
DICTIONARY
  5
230
330
34
100
AcDbDictionary
280
     1
281
     1
  3
ACAD_XREC_ROUNDTRIP
360
231
  0
DICTIONARY
  5
232
330
35
100
AcDbDictionary
280
     1
281
     1
  3
ACAD_XREC_ROUNDTRIP
360
233
  0
DICTIONARY
  5
23A
330
39
100
AcDbDictionary
280
     1
281
     1
  3
ACAD_XREC_ROUNDTRIP
360
23B
  0
DICTIONARY
  5
21E
330
2B
100
AcDbDictionary
280
     1
281
     1
  3
ACAD_XREC_ROUNDTRIP
360
21F
  0
DICTIONARY
  5
220
330
2C
100
AcDbDictionary
280
     1
281
     1
  3
ACAD_XREC_ROUNDTRIP
360
221
  0
DICTIONARY
  5
222
330
2D
100
AcDbDictionary
280
     1
281
     1
  3
ACAD_XREC_ROUNDTRIP
360
223
  0
DICTIONARY
  5
224
330
2E
100
AcDbDictionary
280
     1
281
     1
  3
ACAD_XREC_ROUNDTRIP
360
225
  0
DICTIONARY
  5
238
330
38
100
AcDbDictionary
280
     1
281
     1
  3
ACAD_XREC_ROUNDTRIP
360
239
  0
DICTIONARY
  5
22E
330
33
100
AcDbDictionary
280
     1
281
     1
  3
ACAD_XREC_ROUNDTRIP
360
22F
  0
DICTIONARY
  5
236
330
37
100
AcDbDictionary
280
     1
281
     1
  3
ACAD_XREC_ROUNDTRIP
360
237
  0
XRECORD
  5
241
102
{ACAD_REACTORS
330
240
102
}
330
240
100
AcDbXrecord
280
     1
102
MATERIAL
148
0.0
149
0.0
149
0.0
 93
        0
 94
      127
282
     0
 72
     1
 77
     1
171
     1
175
     1
179
     1
273
     0
  0
XRECORD
  5
23F
102
{ACAD_REACTORS
330
23E
102
}
330
23E
100
AcDbXrecord
280
     1
102
MATERIAL
148
0.0
149
0.0
149
0.0
 93
        0
 94
      127
282
     0
 72
     1
 77
     1
171
     1
175
     1
179
     1
273
     0
  0
XRECORD
  5
243
102
{ACAD_REACTORS
330
242
102
}
330
242
100
AcDbXrecord
280
     1
102
MATERIAL
148
0.0
149
0.0
149
0.0
 93
        0
 94
      127
282
     0
 72
     1
 77
     1
171
     1
175
     1
179
     1
273
     0
  0
XRECORD
  5
227
102
{ACAD_REACTORS
330
226
102
}
330
226
100
AcDbXrecord
280
     1
102
RTVSPropertyOp0
 70
     1
102
RTVSPropertyOp1
 70
     1
102
RTVSPropertyOp2
 70
     1
102
RTVSPropertyOp3
 70
     1
102
RTVSPropertyOp4
 70
     1
102
RTVSPropertyOp5
 70
     1
102
RTVSPropertyOp6
 70
     1
102
RTVSPropertyOp7
 70
     1
102
RTVSPropertyOp8
 70
     1
102
RTVSPropertyOp9
 70
     1
102
RTVSPropertyOp10
 70
     1
102
RTVSPropertyOp11
 70
     1
102
RTVSPropertyOp12
 70
     1
102
RTVSPropertyOp13
 70
     1
102
RTVSPropertyOp14
 70
     1
102
RTVSPropertyOp15
 70
     1
102
RTVSPropertyOp16
 70
     1
102
RTVSPropertyOp17
 70
     1
102
RTVSPropertyOp18
 70
     1
102
RTVSPropertyOp19
 70
     1
102
RTVSPropertyOp20
 70
     1
102
RTVSPropertyOp21
 70
     1
102
RTVSPropertyOp22
 70
     1
102
RTVSPropertyOp23
 70
     1
102
RTVSPropertyOp24
 70
     1
102
RTVSPropertyOp25
 70
     1
102
RTVSPropertyOp26
 70
     1
102
RTVSPropertyOp27
 70
     1
102
RTVSPropertyOp28
 70
     1
102
RTVSPropertyOp29
 70
     1
102
RTVSPropertyOp30
 70
     1
102
RTVSPropertyOp31
 70
     1
102
RTVSPropertyOp32
 70
     1
  0
XRECORD
  5
22B
102
{ACAD_REACTORS
330
22A
102
}
330
22A
100
AcDbXrecord
280
     1
102
RTVSPropertyOp0
 70
     1
102
RTVSPropertyOp1
 70
     1
102
RTVSPropertyOp2
 70
     1
102
RTVSPropertyOp3
 70
     1
102
RTVSPropertyOp4
 70
     1
102
RTVSPropertyOp5
 70
     1
102
RTVSPropertyOp6
 70
     1
102
RTVSPropertyOp7
 70
     1
102
RTVSPropertyOp8
 70
     1
102
RTVSPropertyOp9
 70
     1
102
RTVSPropertyOp10
 70
     1
102
RTVSPropertyOp11
 70
     1
102
RTVSPropertyOp12
 70
     1
102
RTVSPropertyOp13
 70
     1
102
RTVSPropertyOp14
 70
     1
102
RTVSPropertyOp15
 70
     1
102
RTVSPropertyOp16
 70
     1
102
RTVSPropertyOp17
 70
     1
102
RTVSPropertyOp18
 70
     1
102
RTVSPropertyOp19
 70
     1
102
RTVSPropertyOp20
 70
     1
102
RTVSPropertyOp21
 70
     1
102
RTVSPropertyOp22
 70
     1
102
RTVSPropertyOp23
 70
     1
102
RTVSPropertyOp24
 70
     1
102
RTVSPropertyOp25
 70
     1
102
RTVSPropertyOp26
 70
     1
102
RTVSPropertyOp27
 70
     1
102
RTVSPropertyOp28
 70
     1
102
RTVSPropertyOp29
 70
     1
102
RTVSPropertyOp30
 70
     1
102
RTVSPropertyOp31
 70
     1
102
RTVSPropertyOp32
 70
     1
  0
XRECORD
  5
229
102
{ACAD_REACTORS
330
228
102
}
330
228
100
AcDbXrecord
280
     1
102
RTVSPropertyOp0
 70
     1
102
RTVSPropertyOp1
 70
     1
102
RTVSPropertyOp2
 70
     1
102
RTVSPropertyOp3
 70
     1
102
RTVSPropertyOp4
 70
     1
102
RTVSPropertyOp5
 70
     1
102
RTVSPropertyOp6
 70
     1
102
RTVSPropertyOp7
 70
     1
102
RTVSPropertyOp8
 70
     1
102
RTVSPropertyOp9
 70
     1
102
RTVSPropertyOp10
 70
     1
102
RTVSPropertyOp11
 70
     1
102
RTVSPropertyOp12
 70
     1
102
RTVSPropertyOp13
 70
     1
102
RTVSPropertyOp14
 70
     1
102
RTVSPropertyOp15
 70
     1
102
RTVSPropertyOp16
 70
     1
102
RTVSPropertyOp17
 70
     1
102
RTVSPropertyOp18
 70
     1
102
RTVSPropertyOp19
 70
     1
102
RTVSPropertyOp20
 70
     1
102
RTVSPropertyOp21
 70
     1
102
RTVSPropertyOp22
 70
     1
102
RTVSPropertyOp23
 70
     1
102
RTVSPropertyOp24
 70
     1
102
RTVSPropertyOp25
 70
     1
102
RTVSPropertyOp26
 70
     1
102
RTVSPropertyOp27
 70
     1
102
RTVSPropertyOp28
 70
     1
102
RTVSPropertyOp29
 70
     1
102
RTVSPropertyOp30
 70
     1
102
RTVSPropertyOp31
 70
     1
102
RTVSPropertyOp32
 70
     1
  0
XRECORD
  5
22D
102
{ACAD_REACTORS
330
22C
102
}
330
22C
100
AcDbXrecord
280
     1
102
RTVSPropertyOp0
 70
     1
102
RTVSPropertyOp1
 70
     1
102
RTVSPropertyOp2
 70
     1
102
RTVSPropertyOp3
 70
     1
102
RTVSPropertyOp4
 70
     1
102
RTVSPropertyOp5
 70
     1
102
RTVSPropertyOp6
 70
     1
102
RTVSPropertyOp7
 70
     1
102
RTVSPropertyOp8
 70
     1
102
RTVSPropertyOp9
 70
     1
102
RTVSPropertyOp10
 70
     1
102
RTVSPropertyOp11
 70
     1
102
RTVSPropertyOp12
 70
     1
102
RTVSPropertyOp13
 70
     1
102
RTVSPropertyOp14
 70
     1
102
RTVSPropertyOp15
 70
     1
102
RTVSPropertyOp16
 70
     1
102
RTVSPropertyOp17
 70
     1
102
RTVSPropertyOp18
 70
     1
102
RTVSPropertyOp19
 70
     1
102
RTVSPropertyOp20
 70
     1
102
RTVSPropertyOp21
 70
     1
102
RTVSPropertyOp22
 70
     1
102
RTVSPropertyOp23
 70
     1
102
RTVSPropertyOp24
 70
     1
102
RTVSPropertyOp25
 70
     1
102
RTVSPropertyOp26
 70
     1
102
RTVSPropertyOp27
 70
     1
102
RTVSPropertyOp28
 70
     1
102
RTVSPropertyOp29
 70
     1
102
RTVSPropertyOp30
 70
     1
102
RTVSPropertyOp31
 70
     1
102
RTVSPropertyOp32
 70
     1
  0
XRECORD
  5
235
102
{ACAD_REACTORS
330
234
102
}
330
234
100
AcDbXrecord
280
     1
102
RTVSPropertyOp0
 70
     1
102
RTVSPropertyOp1
 70
     1
102
RTVSPropertyOp2
 70
     1
102
RTVSPropertyOp3
 70
     1
102
RTVSPropertyOp4
 70
     1
102
RTVSPropertyOp5
 70
     1
102
RTVSPropertyOp6
 70
     1
102
RTVSPropertyOp7
 70
     1
102
RTVSPropertyOp8
 70
     1
102
RTVSPropertyOp9
 70
     1
102
RTVSPropertyOp10
 70
     1
102
RTVSPropertyOp11
 70
     1
102
RTVSPropertyOp12
 70
     1
102
RTVSPropertyOp13
 70
     1
102
RTVSPropertyOp14
 70
     1
102
RTVSPropertyOp15
 70
     1
102
RTVSPropertyOp16
 70
     1
102
RTVSPropertyOp17
 70
     1
102
RTVSPropertyOp18
 70
     1
102
RTVSPropertyOp19
 70
     1
102
RTVSPropertyOp20
 70
     1
102
RTVSPropertyOp21
 70
     1
102
RTVSPropertyOp22
 70
     1
102
RTVSPropertyOp23
 70
     1
102
RTVSPropertyOp24
 70
     1
102
RTVSPropertyOp25
 70
     1
102
RTVSPropertyOp26
 70
     1
102
RTVSPropertyOp27
 70
     1
102
RTVSPropertyOp28
 70
     1
102
RTVSPropertyOp29
 70
     1
102
RTVSPropertyOp30
 70
     1
102
RTVSPropertyOp31
 70
     1
102
RTVSPropertyOp32
 70
     1
  0
XRECORD
  5
23D
102
{ACAD_REACTORS
330
23C
102
}
330
23C
100
AcDbXrecord
280
     1
102
RTVSPropertyOp0
 70
     1
102
RTVSPropertyOp1
 70
     1
102
RTVSPropertyOp2
 70
     1
102
RTVSPropertyOp3
 70
     1
102
RTVSPropertyOp4
 70
     1
102
RTVSPropertyOp5
 70
     1
102
RTVSPropertyOp6
 70
     1
102
RTVSPropertyOp7
 70
     1
102
RTVSPropertyOp8
 70
     1
102
RTVSPropertyOp9
 70
     1
102
RTVSPropertyOp10
 70
     1
102
RTVSPropertyOp11
 70
     1
102
RTVSPropertyOp12
 70
     1
102
RTVSPropertyOp13
 70
     1
102
RTVSPropertyOp14
 70
     1
102
RTVSPropertyOp15
 70
     1
102
RTVSPropertyOp16
 70
     1
102
RTVSPropertyOp17
 70
     1
102
RTVSPropertyOp18
 70
     1
102
RTVSPropertyOp19
 70
     1
102
RTVSPropertyOp20
 70
     1
102
RTVSPropertyOp21
 70
     1
102
RTVSPropertyOp22
 70
     1
102
RTVSPropertyOp23
 70
     1
102
RTVSPropertyOp24
 70
     1
102
RTVSPropertyOp25
 70
     1
102
RTVSPropertyOp26
 70
     1
102
RTVSPropertyOp27
 70
     1
102
RTVSPropertyOp28
 70
     1
102
RTVSPropertyOp29
 70
     1
102
RTVSPropertyOp30
 70
     1
102
RTVSPropertyOp31
 70
     1
102
RTVSPropertyOp32
 70
     1
  0
XRECORD
  5
231
102
{ACAD_REACTORS
330
230
102
}
330
230
100
AcDbXrecord
280
     1
102
RTVSPropertyOp0
 70
     1
102
RTVSPropertyOp1
 70
     1
102
RTVSPropertyOp2
 70
     1
102
RTVSPropertyOp3
 70
     1
102
RTVSPropertyOp4
 70
     1
102
RTVSPropertyOp5
 70
     1
102
RTVSPropertyOp6
 70
     1
102
RTVSPropertyOp7
 70
     1
102
RTVSPropertyOp8
 70
     1
102
RTVSPropertyOp9
 70
     1
102
RTVSPropertyOp10
 70
     1
102
RTVSPropertyOp11
 70
     1
102
RTVSPropertyOp12
 70
     1
102
RTVSPropertyOp13
 70
     1
102
RTVSPropertyOp14
 70
     1
102
RTVSPropertyOp15
 70
     1
102
RTVSPropertyOp16
 70
     1
102
RTVSPropertyOp17
 70
     1
102
RTVSPropertyOp18
 70
     1
102
RTVSPropertyOp19
 70
     1
102
RTVSPropertyOp20
 70
     1
102
RTVSPropertyOp21
 70
     1
102
RTVSPropertyOp22
 70
     1
102
RTVSPropertyOp23
 70
     1
102
RTVSPropertyOp24
 70
     1
102
RTVSPropertyOp25
 70
     1
102
RTVSPropertyOp26
 70
     1
102
RTVSPropertyOp27
 70
     1
102
RTVSPropertyOp28
 70
     1
102
RTVSPropertyOp29
 70
     1
102
RTVSPropertyOp30
 70
     1
102
RTVSPropertyOp31
 70
     1
102
RTVSPropertyOp32
 70
     1
  0
XRECORD
  5
233
102
{ACAD_REACTORS
330
232
102
}
330
232
100
AcDbXrecord
280
     1
102
RTVSPropertyOp0
 70
     1
102
RTVSPropertyOp1
 70
     1
102
RTVSPropertyOp2
 70
     1
102
RTVSPropertyOp3
 70
     1
102
RTVSPropertyOp4
 70
     1
102
RTVSPropertyOp5
 70
     1
102
RTVSPropertyOp6
 70
     1
102
RTVSPropertyOp7
 70
     1
102
RTVSPropertyOp8
 70
     1
102
RTVSPropertyOp9
 70
     1
102
RTVSPropertyOp10
 70
     1
102
RTVSPropertyOp11
 70
     1
102
RTVSPropertyOp12
 70
     1
102
RTVSPropertyOp13
 70
     1
102
RTVSPropertyOp14
 70
     1
102
RTVSPropertyOp15
 70
     1
102
RTVSPropertyOp16
 70
     1
102
RTVSPropertyOp17
 70
     1
102
RTVSPropertyOp18
 70
     1
102
RTVSPropertyOp19
 70
     1
102
RTVSPropertyOp20
 70
     1
102
RTVSPropertyOp21
 70
     1
102
RTVSPropertyOp22
 70
     1
102
RTVSPropertyOp23
 70
     1
102
RTVSPropertyOp24
 70
     1
102
RTVSPropertyOp25
 70
     1
102
RTVSPropertyOp26
 70
     1
102
RTVSPropertyOp27
 70
     1
102
RTVSPropertyOp28
 70
     1
102
RTVSPropertyOp29
 70
     1
102
RTVSPropertyOp30
 70
     1
102
RTVSPropertyOp31
 70
     1
102
RTVSPropertyOp32
 70
     1
  0
XRECORD
  5
23B
102
{ACAD_REACTORS
330
23A
102
}
330
23A
100
AcDbXrecord
280
     1
102
RTVSPropertyOp0
 70
     1
102
RTVSPropertyOp1
 70
     1
102
RTVSPropertyOp2
 70
     1
102
RTVSPropertyOp3
 70
     1
102
RTVSPropertyOp4
 70
     1
102
RTVSPropertyOp5
 70
     1
102
RTVSPropertyOp6
 70
     1
102
RTVSPropertyOp7
 70
     1
102
RTVSPropertyOp8
 70
     1
102
RTVSPropertyOp9
 70
     1
102
RTVSPropertyOp10
 70
     1
102
RTVSPropertyOp11
 70
     1
102
RTVSPropertyOp12
 70
     1
102
RTVSPropertyOp13
 70
     1
102
RTVSPropertyOp14
 70
     1
102
RTVSPropertyOp15
 70
     1
102
RTVSPropertyOp16
 70
     1
102
RTVSPropertyOp17
 70
     1
102
RTVSPropertyOp18
 70
     1
102
RTVSPropertyOp19
 70
     1
102
RTVSPropertyOp20
 70
     1
102
RTVSPropertyOp21
 70
     1
102
RTVSPropertyOp22
 70
     1
102
RTVSPropertyOp23
 70
     1
102
RTVSPropertyOp24
 70
     1
102
RTVSPropertyOp25
 70
     1
102
RTVSPropertyOp26
 70
     1
102
RTVSPropertyOp27
 70
     1
102
RTVSPropertyOp28
 70
     1
102
RTVSPropertyOp29
 70
     1
102
RTVSPropertyOp30
 70
     1
102
RTVSPropertyOp31
 70
     1
102
RTVSPropertyOp32
 70
     1
  0
XRECORD
  5
21F
102
{ACAD_REACTORS
330
21E
102
}
330
21E
100
AcDbXrecord
280
     1
102
RTVSPropertyOp0
 70
     1
102
RTVSPropertyOp1
 70
     1
102
RTVSPropertyOp2
 70
     1
102
RTVSPropertyOp3
 70
     1
102
RTVSPropertyOp4
 70
     1
102
RTVSPropertyOp5
 70
     1
102
RTVSPropertyOp6
 70
     1
102
RTVSPropertyOp7
 70
     1
102
RTVSPropertyOp8
 70
     1
102
RTVSPropertyOp9
 70
     1
102
RTVSPropertyOp10
 70
     1
102
RTVSPropertyOp11
 70
     1
102
RTVSPropertyOp12
 70
     1
102
RTVSPropertyOp13
 70
     1
102
RTVSPropertyOp14
 70
     1
102
RTVSPropertyOp15
 70
     1
102
RTVSPropertyOp16
 70
     1
102
RTVSPropertyOp17
 70
     1
102
RTVSPropertyOp18
 70
     1
102
RTVSPropertyOp19
 70
     1
102
RTVSPropertyOp20
 70
     1
102
RTVSPropertyOp21
 70
     1
102
RTVSPropertyOp22
 70
     1
102
RTVSPropertyOp23
 70
     1
102
RTVSPropertyOp24
 70
     1
102
RTVSPropertyOp25
 70
     1
102
RTVSPropertyOp26
 70
     1
102
RTVSPropertyOp27
 70
     1
102
RTVSPropertyOp28
 70
     1
102
RTVSPropertyOp29
 70
     1
102
RTVSPropertyOp30
 70
     1
102
RTVSPropertyOp31
 70
     1
102
RTVSPropertyOp32
 70
     1
  0
XRECORD
  5
221
102
{ACAD_REACTORS
330
220
102
}
330
220
100
AcDbXrecord
280
     1
102
RTVSPropertyOp0
 70
     1
102
RTVSPropertyOp1
 70
     1
102
RTVSPropertyOp2
 70
     1
102
RTVSPropertyOp3
 70
     1
102
RTVSPropertyOp4
 70
     1
102
RTVSPropertyOp5
 70
     1
102
RTVSPropertyOp6
 70
     1
102
RTVSPropertyOp7
 70
     1
102
RTVSPropertyOp8
 70
     1
102
RTVSPropertyOp9
 70
     1
102
RTVSPropertyOp10
 70
     1
102
RTVSPropertyOp11
 70
     1
102
RTVSPropertyOp12
 70
     1
102
RTVSPropertyOp13
 70
     1
102
RTVSPropertyOp14
 70
     1
102
RTVSPropertyOp15
 70
     1
102
RTVSPropertyOp16
 70
     1
102
RTVSPropertyOp17
 70
     1
102
RTVSPropertyOp18
 70
     1
102
RTVSPropertyOp19
 70
     1
102
RTVSPropertyOp20
 70
     1
102
RTVSPropertyOp21
 70
     1
102
RTVSPropertyOp22
 70
     1
102
RTVSPropertyOp23
 70
     1
102
RTVSPropertyOp24
 70
     1
102
RTVSPropertyOp25
 70
     1
102
RTVSPropertyOp26
 70
     1
102
RTVSPropertyOp27
 70
     1
102
RTVSPropertyOp28
 70
     1
102
RTVSPropertyOp29
 70
     1
102
RTVSPropertyOp30
 70
     1
102
RTVSPropertyOp31
 70
     1
102
RTVSPropertyOp32
 70
     1
  0
XRECORD
  5
223
102
{ACAD_REACTORS
330
222
102
}
330
222
100
AcDbXrecord
280
     1
102
RTVSPropertyOp0
 70
     1
102
RTVSPropertyOp1
 70
     1
102
RTVSPropertyOp2
 70
     1
102
RTVSPropertyOp3
 70
     1
102
RTVSPropertyOp4
 70
     1
102
RTVSPropertyOp5
 70
     1
102
RTVSPropertyOp6
 70
     1
102
RTVSPropertyOp7
 70
     1
102
RTVSPropertyOp8
 70
     1
102
RTVSPropertyOp9
 70
     1
102
RTVSPropertyOp10
 70
     1
102
RTVSPropertyOp11
 70
     1
102
RTVSPropertyOp12
 70
     1
102
RTVSPropertyOp13
 70
     1
102
RTVSPropertyOp14
 70
     1
102
RTVSPropertyOp15
 70
     1
102
RTVSPropertyOp16
 70
     1
102
RTVSPropertyOp17
 70
     1
102
RTVSPropertyOp18
 70
     1
102
RTVSPropertyOp19
 70
     1
102
RTVSPropertyOp20
 70
     1
102
RTVSPropertyOp21
 70
     1
102
RTVSPropertyOp22
 70
     1
102
RTVSPropertyOp23
 70
     1
102
RTVSPropertyOp24
 70
     1
102
RTVSPropertyOp25
 70
     1
102
RTVSPropertyOp26
 70
     1
102
RTVSPropertyOp27
 70
     1
102
RTVSPropertyOp28
 70
     1
102
RTVSPropertyOp29
 70
     1
102
RTVSPropertyOp30
 70
     1
102
RTVSPropertyOp31
 70
     1
102
RTVSPropertyOp32
 70
     1
  0
XRECORD
  5
225
102
{ACAD_REACTORS
330
224
102
}
330
224
100
AcDbXrecord
280
     1
102
RTVSPropertyOp0
 70
     1
102
RTVSPropertyOp1
 70
     1
102
RTVSPropertyOp2
 70
     1
102
RTVSPropertyOp3
 70
     1
102
RTVSPropertyOp4
 70
     1
102
RTVSPropertyOp5
 70
     1
102
RTVSPropertyOp6
 70
     1
102
RTVSPropertyOp7
 70
     1
102
RTVSPropertyOp8
 70
     1
102
RTVSPropertyOp9
 70
     1
102
RTVSPropertyOp10
 70
     1
102
RTVSPropertyOp11
 70
     1
102
RTVSPropertyOp12
 70
     1
102
RTVSPropertyOp13
 70
     1
102
RTVSPropertyOp14
 70
     1
102
RTVSPropertyOp15
 70
     1
102
RTVSPropertyOp16
 70
     1
102
RTVSPropertyOp17
 70
     1
102
RTVSPropertyOp18
 70
     1
102
RTVSPropertyOp19
 70
     1
102
RTVSPropertyOp20
 70
     1
102
RTVSPropertyOp21
 70
     1
102
RTVSPropertyOp22
 70
     1
102
RTVSPropertyOp23
 70
     1
102
RTVSPropertyOp24
 70
     1
102
RTVSPropertyOp25
 70
     1
102
RTVSPropertyOp26
 70
     1
102
RTVSPropertyOp27
 70
     1
102
RTVSPropertyOp28
 70
     1
102
RTVSPropertyOp29
 70
     1
102
RTVSPropertyOp30
 70
     1
102
RTVSPropertyOp31
 70
     1
102
RTVSPropertyOp32
 70
     1
  0
XRECORD
  5
239
102
{ACAD_REACTORS
330
238
102
}
330
238
100
AcDbXrecord
280
     1
102
RTVSPropertyOp0
 70
     1
102
RTVSPropertyOp1
 70
     1
102
RTVSPropertyOp2
 70
     1
102
RTVSPropertyOp3
 70
     1
102
RTVSPropertyOp4
 70
     1
102
RTVSPropertyOp5
 70
     1
102
RTVSPropertyOp6
 70
     1
102
RTVSPropertyOp7
 70
     1
102
RTVSPropertyOp8
 70
     1
102
RTVSPropertyOp9
 70
     1
102
RTVSPropertyOp10
 70
     1
102
RTVSPropertyOp11
 70
     1
102
RTVSPropertyOp12
 70
     1
102
RTVSPropertyOp13
 70
     1
102
RTVSPropertyOp14
 70
     1
102
RTVSPropertyOp15
 70
     1
102
RTVSPropertyOp16
 70
     1
102
RTVSPropertyOp17
 70
     1
102
RTVSPropertyOp18
 70
     1
102
RTVSPropertyOp19
 70
     1
102
RTVSPropertyOp20
 70
     1
102
RTVSPropertyOp21
 70
     1
102
RTVSPropertyOp22
 70
     1
102
RTVSPropertyOp23
 70
     1
102
RTVSPropertyOp24
 70
     1
102
RTVSPropertyOp25
 70
     1
102
RTVSPropertyOp26
 70
     1
102
RTVSPropertyOp27
 70
     1
102
RTVSPropertyOp28
 70
     1
102
RTVSPropertyOp29
 70
     1
102
RTVSPropertyOp30
 70
     1
102
RTVSPropertyOp31
 70
     1
102
RTVSPropertyOp32
 70
     1
  0
XRECORD
  5
22F
102
{ACAD_REACTORS
330
22E
102
}
330
22E
100
AcDbXrecord
280
     1
102
RTVSPropertyOp0
 70
     1
102
RTVSPropertyOp1
 70
     1
102
RTVSPropertyOp2
 70
     1
102
RTVSPropertyOp3
 70
     1
102
RTVSPropertyOp4
 70
     1
102
RTVSPropertyOp5
 70
     1
102
RTVSPropertyOp6
 70
     1
102
RTVSPropertyOp7
 70
     1
102
RTVSPropertyOp8
 70
     1
102
RTVSPropertyOp9
 70
     1
102
RTVSPropertyOp10
 70
     1
102
RTVSPropertyOp11
 70
     1
102
RTVSPropertyOp12
 70
     1
102
RTVSPropertyOp13
 70
     1
102
RTVSPropertyOp14
 70
     1
102
RTVSPropertyOp15
 70
     1
102
RTVSPropertyOp16
 70
     1
102
RTVSPropertyOp17
 70
     1
102
RTVSPropertyOp18
 70
     1
102
RTVSPropertyOp19
 70
     1
102
RTVSPropertyOp20
 70
     1
102
RTVSPropertyOp21
 70
     1
102
RTVSPropertyOp22
 70
     1
102
RTVSPropertyOp23
 70
     1
102
RTVSPropertyOp24
 70
     1
102
RTVSPropertyOp25
 70
     1
102
RTVSPropertyOp26
 70
     1
102
RTVSPropertyOp27
 70
     1
102
RTVSPropertyOp28
 70
     1
102
RTVSPropertyOp29
 70
     1
102
RTVSPropertyOp30
 70
     1
102
RTVSPropertyOp31
 70
     1
102
RTVSPropertyOp32
 70
     1
  0
XRECORD
  5
237
102
{ACAD_REACTORS
330
236
102
}
330
236
100
AcDbXrecord
280
     1
102
RTVSPropertyOp0
 70
     1
102
RTVSPropertyOp1
 70
     1
102
RTVSPropertyOp2
 70
     1
102
RTVSPropertyOp3
 70
     1
102
RTVSPropertyOp4
 70
     1
102
RTVSPropertyOp5
 70
     1
102
RTVSPropertyOp6
 70
     1
102
RTVSPropertyOp7
 70
     1
102
RTVSPropertyOp8
 70
     1
102
RTVSPropertyOp9
 70
     1
102
RTVSPropertyOp10
 70
     1
102
RTVSPropertyOp11
 70
     1
102
RTVSPropertyOp12
 70
     1
102
RTVSPropertyOp13
 70
     1
102
RTVSPropertyOp14
 70
     1
102
RTVSPropertyOp15
 70
     1
102
RTVSPropertyOp16
 70
     1
102
RTVSPropertyOp17
 70
     1
102
RTVSPropertyOp18
 70
     1
102
RTVSPropertyOp19
 70
     1
102
RTVSPropertyOp20
 70
     1
102
RTVSPropertyOp21
 70
     1
102
RTVSPropertyOp22
 70
     1
102
RTVSPropertyOp23
 70
     1
102
RTVSPropertyOp24
 70
     1
102
RTVSPropertyOp25
 70
     1
102
RTVSPropertyOp26
 70
     1
102
RTVSPropertyOp27
 70
     1
102
RTVSPropertyOp28
 70
     1
102
RTVSPropertyOp29
 70
     1
102
RTVSPropertyOp30
 70
     1
102
RTVSPropertyOp31
 70
     1
102
RTVSPropertyOp32
 70
     1
  0
ENDSEC
  0
EOF
