  0
SECTION
  2
HEADER
  9
$ACADVER
  1
AC1018
  9
$ACADMAINTVER
 70
     0
  9
$DWGCODEPAGE
  3
ANSI_1252
  9
$INSBASE
 10
0.0
 20
0.0
 30
0.0
  9
$EXTMIN
 10
-248.0749997376517
 20
9.70269041848786
 30
0.0
  9
$EXTMAX
 10
48.92500026234637
 20
219.702690418488
 30
0.0
  9
$LIMMIN
 10
0.0
 20
0.0
  9
$LIMMAX
 10
12.0
 20
9.0
  9
$ORTHOMODE
 70
     0
  9
$REGENMODE
 70
     1
  9
$FILLMODE
 70
     1
  9
$QTEXTMODE
 70
     0
  9
$MIRRTEXT
 70
     1
  9
$LTSCALE
 40
1.0
  9
$ATTMODE
 70
     1
  9
$TEXTSIZE
 40
0.2
  9
$TRACEWID
 40
0.05
  9
$TEXTSTYLE
  7
Standard
  9
$CLAYER
  8
0
  9
$CELTYPE
  6
ByLayer
  9
$CECOLOR
 62
   256
  9
$CELTSCALE
 40
1.0
  9
$DISPSILH
 70
     0
  9
$DIMSCALE
 40
1.0
  9
$DIMASZ
 40
0.18
  9
$DIMEXO
 40
0.0625
  9
$DIMDLI
 40
0.38
  9
$DIMRND
 40
0.0
  9
$DIMDLE
 40
0.0
  9
$DIMEXE
 40
0.18
  9
$DIMTP
 40
0.0
  9
$DIMTM
 40
0.0
  9
$DIMTXT
 40
0.18
  9
$DIMCEN
 40
0.09
  9
$DIMTSZ
 40
0.0
  9
$DIMTOL
 70
     0
  9
$DIMLIM
 70
     0
  9
$DIMTIH
 70
     1
  9
$DIMTOH
 70
     1
  9
$DIMSE1
 70
     0
  9
$DIMSE2
 70
     0
  9
$DIMTAD
 70
     0
  9
$DIMZIN
 70
     0
  9
$DIMBLK
  1

  9
$DIMASO
 70
     1
  9
$DIMSHO
 70
     1
  9
$DIMPOST
  1

  9
$DIMAPOST
  1

  9
$DIMALT
 70
     0
  9
$DIMALTD
 70
     2
  9
$DIMALTF
 40
25.4
  9
$DIMLFAC
 40
1.0
  9
$DIMTOFL
 70
     0
  9
$DIMTVP
 40
0.0
  9
$DIMTIX
 70
     0
  9
$DIMSOXD
 70
     0
  9
$DIMSAH
 70
     0
  9
$DIMBLK1
  1

  9
$DIMBLK2
  1

  9
$DIMSTYLE
  2
Standard
  9
$DIMCLRD
 70
     0
  9
$DIMCLRE
 70
     0
  9
$DIMCLRT
 70
     0
  9
$DIMTFAC
 40
1.0
  9
$DIMGAP
 40
0.09
  9
$DIMJUST
 70
     0
  9
$DIMSD1
 70
     0
  9
$DIMSD2
 70
     0
  9
$DIMTOLJ
 70
     1
  9
$DIMTZIN
 70
     0
  9
$DIMALTZ
 70
     0
  9
$DIMALTTZ
 70
     0
  9
$DIMUPT
 70
     0
  9
$DIMDEC
 70
     4
  9
$DIMTDEC
 70
     4
  9
$DIMALTU
 70
     2
  9
$DIMALTTD
 70
     2
  9
$DIMTXSTY
  7
Standard
  9
$DIMAUNIT
 70
     0
  9
$DIMADEC
 70
     0
  9
$DIMALTRND
 40
0.0
  9
$DIMAZIN
 70
     0
  9
$DIMDSEP
 70
    46
  9
$DIMATFIT
 70
     3
  9
$DIMFRAC
 70
     0
  9
$DIMLDRBLK
  1

  9
$DIMLUNIT
 70
     2
  9
$DIMLWD
 70
    -2
  9
$DIMLWE
 70
    -2
  9
$DIMTMOVE
 70
     0
  9
$LUNITS
 70
     2
  9
$LUPREC
 70
     4
  9
$SKETCHINC
 40
0.1
  9
$FILLETRAD
 40
0.5
  9
$AUNITS
 70
     0
  9
$AUPREC
 70
     0
  9
$MENU
  1
.
  9
$ELEVATION
 40
0.0
  9
$PELEVATION
 40
0.0
  9
$THICKNESS
 40
0.0
  9
$LIMCHECK
 70
     0
  9
$CHAMFERA
 40
0.5
  9
$CHAMFERB
 40
0.5
  9
$CHAMFERC
 40
1.0
  9
$CHAMFERD
 40
0.0
  9
$SKPOLY
 70
     0
  9
$TDCREATE
 40
2458138.243450255
  9
$TDUCREATE
 40
2458138.201783588
  9
$TDUPDATE
 40
2458138.243450799
  9
$TDUUPDATE
 40
2458138.201784132
  9
$TDINDWG
 40
0.0000000116
  9
$TDUSRTIMER
 40
0.0000000116
  9
$USRTIMER
 70
     1
  9
$ANGBASE
 50
0.0
  9
$ANGDIR
 70
     0
  9
$PDMODE
 70
     0
  9
$PDSIZE
 40
0.0
  9
$PLINEWID
 40
0.0
  9
$SPLFRAME
 70
     0
  9
$SPLINETYPE
 70
     6
  9
$SPLINESEGS
 70
     8
  9
$HANDSEED
  5
4A4
  9
$SURFTAB1
 70
     6
  9
$SURFTAB2
 70
     6
  9
$SURFTYPE
 70
     6
  9
$SURFU
 70
     6
  9
$SURFV
 70
     6
  9
$UCSBASE
  2

  9
$UCSNAME
  2

  9
$UCSORG
 10
0.0
 20
0.0
 30
0.0
  9
$UCSXDIR
 10
1.0
 20
0.0
 30
0.0
  9
$UCSYDIR
 10
0.0
 20
1.0
 30
0.0
  9
$UCSORTHOREF
  2

  9
$UCSORTHOVIEW
 70
     0
  9
$UCSORGTOP
 10
0.0
 20
0.0
 30
0.0
  9
$UCSORGBOTTOM
 10
0.0
 20
0.0
 30
0.0
  9
$UCSORGLEFT
 10
0.0
 20
0.0
 30
0.0
  9
$UCSORGRIGHT
 10
0.0
 20
0.0
 30
0.0
  9
$UCSORGFRONT
 10
0.0
 20
0.0
 30
0.0
  9
$UCSORGBACK
 10
0.0
 20
0.0
 30
0.0
  9
$PUCSBASE
  2

  9
$PUCSNAME
  2

  9
$PUCSORG
 10
0.0
 20
0.0
 30
0.0
  9
$PUCSXDIR
 10
1.0
 20
0.0
 30
0.0
  9
$PUCSYDIR
 10
0.0
 20
1.0
 30
0.0
  9
$PUCSORTHOREF
  2

  9
$PUCSORTHOVIEW
 70
     0
  9
$PUCSORGTOP
 10
0.0
 20
0.0
 30
0.0
  9
$PUCSORGBOTTOM
 10
0.0
 20
0.0
 30
0.0
  9
$PUCSORGLEFT
 10
0.0
 20
0.0
 30
0.0
  9
$PUCSORGRIGHT
 10
0.0
 20
0.0
 30
0.0
  9
$PUCSORGFRONT
 10
0.0
 20
0.0
 30
0.0
  9
$PUCSORGBACK
 10
0.0
 20
0.0
 30
0.0
  9
$USERI1
 70
     0
  9
$USERI2
 70
     0
  9
$USERI3
 70
     0
  9
$USERI4
 70
     0
  9
$USERI5
 70
     0
  9
$USERR1
 40
18.1
  9
$USERR2
 40
0.0
  9
$USERR3
 40
0.0
  9
$USERR4
 40
0.0
  9
$USERR5
 40
0.0
  9
$WORLDVIEW
 70
     1
  9
$SHADEDGE
 70
     3
  9
$SHADEDIF
 70
    70
  9
$TILEMODE
 70
     1
  9
$MAXACTVP
 70
    64
  9
$PINSBASE
 10
0.0
 20
0.0
 30
0.0
  9
$PLIMCHECK
 70
     0
  9
$PEXTMIN
 10
1.00000000000000E+20
 20
1.00000000000000E+20
 30
1.00000000000000E+20
  9
$PEXTMAX
 10
-1.00000000000000E+20
 20
-1.00000000000000E+20
 30
-1.00000000000000E+20
  9
$PLIMMIN
 10
0.0
 20
0.0
  9
$PLIMMAX
 10
12.0
 20
9.0
  9
$UNITMODE
 70
     0
  9
$VISRETAIN
 70
     1
  9
$PLINEGEN
 70
     0
  9
$PSLTSCALE
 70
     1
  9
$TREEDEPTH
 70
  3020
  9
$CMLSTYLE
  2
Standard
  9
$CMLJUST
 70
     0
  9
$CMLSCALE
 40
1.0
  9
$PROXYGRAPHICS
 70
     1
  9
$MEASUREMENT
 70
     1
  9
$CELWEIGHT
370
    -1
  9
$ENDCAPS
280
     0
  9
$JOINSTYLE
280
     0
  9
$LWDISPLAY
290
     0
  9
$INSUNITS
 70
     4
  9
$HYPERLINKBASE
  1

  9
$STYLESHEET
  1

  9
$XEDIT
290
     1
  9
$CEPSNTYPE
380
     0
  9
$PSTYLEMODE
290
     1
  9
$FINGERPRINTGUID
  2
{5598C179-31FA-43D9-A652-CD0EB0048DF7}
  9
$VERSIONGUID
  2
{FAEB1C32-E019-11D5-929B-00C0DF256EC4}
  9
$EXTNAMES
290
     1
  9
$PSVPSCALE
 40
0.0
  9
$OLESTARTUP
290
     0
  9
$SORTENTS
280
   127
  9
$INDEXCTL
280
     0
  9
$HIDETEXT
280
     1
  9
$XCLIPFRAME
290
     0
  9
$HALOGAP
280
     0
  9
$OBSCOLOR
 70
   257
  9
$OBSLTYPE
280
     0
  9
$INTERSECTIONDISPLAY
280
     0
  9
$INTERSECTIONCOLOR
 70
   257
  9
$DIMASSOC
280
     2
  9
$PROJECTNAME
  1

  0
ENDSEC
  0
SECTION
  2
CLASSES
  0
CLASS
  1
ACDBDICTIONARYWDFLT
  2
AcDbDictionaryWithDefault
  3
ObjectDBX Classes
 90
        0
 91
        4
280
     0
281
     0
  0
CLASS
  1
VISUALSTYLE
  2
AcDbVisualStyle
  3
ObjectDBX Classes
 90
     4095
 91
        4
280
     0
281
     0
  0
CLASS
  1
MATERIAL
  2
AcDbMaterial
  3
ObjectDBX Classes
 90
     1153
 91
        4
280
     0
281
     0
  0
ENDSEC
  0
SECTION
  2
TABLES
  0
TABLE
  2
VPORT
  5
8
330
0
100
AcDbSymbolTable
 70
     1
  0
VPORT
  5
29
330
8
100
AcDbSymbolTableRecord
100
AcDbViewportTableRecord
  2
*Active
 70
     0
 10
0.0
 20
0.0
 11
1.0
 21
1.0
 12
-99.57499973765266
 22
114.7026904184879
 13
0.0
 23
0.0
 14
0.5
 24
0.5
 15
0.5
 25
0.5
 16
0.0
 26
0.0
 36
1.0
 17
0.0
 27
0.0
 37
0.0
 40
231.0000000000002
 41
1.60267857142857
 42
50.0
 43
0.0
 44
0.0
 50
0.0
 51
0.0
 71
     0
 72
   100
 73
     1
 74
     3
 75
     0
 76
     0
 77
     0
 78
     0
281
     0
 65
     1
110
0.0
120
0.0
130
0.0
111
1.0
121
0.0
131
0.0
112
0.0
122
1.0
132
0.0
 79
     0
146
0.0
  0
ENDTAB
  0
TABLE
  2
LTYPE
  5
5
330
0
100
AcDbSymbolTable
 70
     8
  0
LTYPE
  5
14
330
5
100
AcDbSymbolTableRecord
100
AcDbLinetypeTableRecord
  2
ByBlock
 70
     0
  3

 72
    65
 73
     0
 40
0.0
  0
LTYPE
  5
15
330
5
100
AcDbSymbolTableRecord
100
AcDbLinetypeTableRecord
  2
ByLayer
 70
     0
  3

 72
    65
 73
     0
 40
0.0
  0
LTYPE
  5
16
330
5
100
AcDbSymbolTableRecord
100
AcDbLinetypeTableRecord
  2
Continuous
 70
     0
  3
Solid line
 72
    65
 73
     0
 40
0.0
  0
LTYPE
  5
3F
330
5
100
AcDbSymbolTableRecord
100
AcDbLinetypeTableRecord
  2
DASHED
 70
     0
  3
Dashed
 72
    65
 73
     2
 40
15.0
 49
7.0
 74
     0
 49
-8.0
 74
     0
  0
LTYPE
  5
40
330
5
100
AcDbSymbolTableRecord
100
AcDbLinetypeTableRecord
  2
DOTTED
 70
     0
  3
Dotted
 72
    65
 73
     2
 40
1.0
 49
0.0
 74
     0
 49
-1.0
 74
     0
  0
LTYPE
  5
41
330
5
100
AcDbSymbolTableRecord
100
AcDbLinetypeTableRecord
  2
DOT_CENTER
 70
     0
  3
Dot_Center
 72
    65
 73
     4
 40
14.0
 49
12.0
 74
     0
 49
-1.0
 74
     0
 49
0.0
 74
     0
 49
-1.0
 74
     0
  0
LTYPE
  5
42
330
5
100
AcDbSymbolTableRecord
100
AcDbLinetypeTableRecord
  2
LONG_DASHED
 70
     0
  3
Long_Dashed
 72
    65
 73
     2
 40
15.0
 49
10.0
 74
     0
 49
-5.0
 74
     0
  0
LTYPE
  5
43
330
5
100
AcDbSymbolTableRecord
100
AcDbLinetypeTableRecord
  2
DASH_CENTER
 70
     0
  3
Dash_Center
 72
    65
 73
     4
 40
14.0
 49
11.0
 74
     0
 49
-1.0
 74
     0
 49
1.0
 74
     0
 49
-1.0
 74
     0
  0
LTYPE
  5
44
330
5
100
AcDbSymbolTableRecord
100
AcDbLinetypeTableRecord
  2
PHANTOM
 70
     0
  3
Phantom
 72
    65
 73
     6
 40
13.0
 49
10.0
 74
     0
 49
-1.0
 74
     0
 49
0.0
 74
     0
 49
-1.0
 74
     0
 49
0.0
 74
     0
 49
-1.0
 74
     0
  0
LTYPE
  5
45
330
5
100
AcDbSymbolTableRecord
100
AcDbLinetypeTableRecord
  2
CENTER_DASH_DASH
 70
     0
  3
Center_Dash_Dash
 72
    65
 73
     6
 40
14.0
 49
9.0
 74
     0
 49
-1.0
 74
     0
 49
1.0
 74
     0
 49
-1.0
 74
     0
 49
1.0
 74
     0
 49
-1.0
 74
     0
  0
ENDTAB
  0
TABLE
  2
LAYER
  5
2
330
0
100
AcDbSymbolTable
 70
     2
  0
LAYER
  5
10
330
2
100
AcDbSymbolTableRecord
100
AcDbLayerTableRecord
  2
0
 70
     0
 62
     7
  6
Continuous
370
    -3
390
F
  0
LAYER
  5
46
330
2
100
AcDbSymbolTableRecord
100
AcDbLayerTableRecord
  2
1
 70
     0
 62
     7
  6
Continuous
370
    -3
390
F
  0
ENDTAB
  0
TABLE
  2
STYLE
  5
3
330
0
100
AcDbSymbolTable
 70
     5
  0
STYLE
  5
11
330
3
100
AcDbSymbolTableRecord
100
AcDbTextStyleTableRecord
  2
Standard
 70
     0
 40
0.0
 41
1.0
 50
0.0
 71
     0
 42
0.2
  3
txt
  4

  0
STYLE
  5
154
330
3
100
AcDbSymbolTableRecord
100
AcDbTextStyleTableRecord
  2
CONVERTER_11
 70
     0
 40
0.0
 41
0.9
 50
0.0
 71
     0
 42
0.2
  3
txt.shx
  4

  0
STYLE
  5
43A
330
3
100
AcDbSymbolTableRecord
100
AcDbTextStyleTableRecord
  2
CONVERTER_12
 70
     0
 40
0.0
 41
0.81
 50
0.0
 71
     0
 42
0.2
  3
txt.shx
  4

  0
STYLE
  5
440
330
3
100
AcDbSymbolTableRecord
100
AcDbTextStyleTableRecord
  2
CONVERTER_13
 70
     0
 40
0.0
 41
0.855
 50
0.0
 71
     0
 42
0.2
  3
txt.shx
  4

  0
STYLE
  5
443
330
3
100
AcDbSymbolTableRecord
100
AcDbTextStyleTableRecord
  2
CONVERTER_14
 70
     0
 40
0.0
 41
0.72
 50
0.0
 71
     0
 42
0.2
  3
txt.shx
  4

  0
ENDTAB
  0
TABLE
  2
VIEW
  5
6
330
0
100
AcDbSymbolTable
 70
     0
  0
ENDTAB
  0
TABLE
  2
UCS
  5
7
330
0
100
AcDbSymbolTable
 70
     0
  0
ENDTAB
  0
TABLE
  2
APPID
  5
9
330
0
100
AcDbSymbolTable
 70
     1
  0
APPID
  5
12
330
9
100
AcDbSymbolTableRecord
100
AcDbRegAppTableRecord
  2
ACAD
 70
     0
  0
ENDTAB
  0
TABLE
  2
DIMSTYLE
  5
A
330
0
100
AcDbSymbolTable
 70
     7
100
AcDbDimStyleTable
  0
DIMSTYLE
105
27
330
A
100
AcDbSymbolTableRecord
100
AcDbDimStyleTableRecord
  2
Standard
 70
     0
178
     0
340
11
  0
DIMSTYLE
105
1E6
102
{ACAD_REACTORS
330
1E7
102
}
330
A
100
AcDbSymbolTableRecord
100
AcDbDimStyleTableRecord
  2
ME10_DIM_10
 70
     0
 41
3.5
 42
0.5
 44
1.5
 73
     0
 74
     0
 77
     1
 78
     8
140
3.5
147
2.0
172
     1
173
     1
174
     1
175
     1
176
     2
177
     2
271
     2
178
     3
271
     2
340
154
  0
DIMSTYLE
105
313
102
{ACAD_REACTORS
330
314
102
}
330
A
100
AcDbSymbolTableRecord
100
AcDbDimStyleTableRecord
  2
ME10_DIM_11
 70
     0
 41
3.5
 42
0.5
 44
1.5
 73
     0
 74
     0
 77
     1
 78
     8
140
3.5
147
2.0
172
     1
173
     1
174
     1
175
     1
176
     2
177
     2
271
     2
178
     3
271
     2
340
154
  0
DIMSTYLE
105
320
102
{ACAD_REACTORS
330
321
102
}
330
A
100
AcDbSymbolTableRecord
100
AcDbDimStyleTableRecord
  2
ME10_DIM_12
 70
     0
 41
3.5
 42
0.0
 44
1.5
 73
     0
 74
     0
 77
     1
 78
     8
140
3.5
147
1.5
172
     1
173
     1
174
     1
175
     1
176
     2
177
     2
271
     2
178
     3
271
     2
340
154
  0
DIMSTYLE
105
32B
102
{ACAD_REACTORS
330
32C
102
}
330
A
100
AcDbSymbolTableRecord
100
AcDbDimStyleTableRecord
  2
ME10_DIM_13
 70
     0
 41
3.5
 42
0.0
 44
1.5
 73
     0
 74
     0
 77
     1
 78
     8
140
3.5
147
1.5
172
     1
173
     1
174
     1
175
     1
176
     2
177
     2
271
     2
178
     3
271
     2
340
154
  0
DIMSTYLE
105
336
102
{ACAD_REACTORS
330
337
102
}
330
A
100
AcDbSymbolTableRecord
100
AcDbDimStyleTableRecord
  2
ME10_DIM_14
 70
     0
 41
3.5
 42
0.0
 44
1.5
 73
     0
 74
     0
 77
     1
 78
     8
140
3.5
147
1.5
172
     1
173
     1
174
     1
175
     1
176
     2
177
     2
271
     3
178
     3
271
     3
340
154
  0
DIMSTYLE
105
341
102
{ACAD_REACTORS
330
342
102
}
330
A
100
AcDbSymbolTableRecord
100
AcDbDimStyleTableRecord
  2
ME10_DIM_15
 70
     0
 41
3.5
 42
0.0
 44
1.5
 73
     0
 74
     0
 77
     1
 78
     8
140
3.5
147
1.5
172
     1
173
     1
174
     1
175
     1
176
     2
177
     2
271
     3
178
     3
271
     3
340
154
  0
ENDTAB
  0
TABLE
  2
BLOCK_RECORD
  5
1
330
0
100
AcDbSymbolTable
 70
    23
  0
BLOCK_RECORD
  5
1F
330
1
100
AcDbSymbolTableRecord
100
AcDbBlockTableRecord
  2
*Model_Space
340
22
  0
BLOCK_RECORD
  5
1B
330
1
100
AcDbSymbolTableRecord
100
AcDbBlockTableRecord
  2
*Paper_Space
340
1E
  0
BLOCK_RECORD
  5
23
330
1
100
AcDbSymbolTableRecord
100
AcDbBlockTableRecord
  2
*Paper_Space0
340
26
  0
BLOCK_RECORD
  5
47
330
1
100
AcDbSymbolTableRecord
100
AcDbBlockTableRecord
  2
MSLKG_5-select__1
340
0
102
{BLKREFS
331
4B
102
}
  0
BLOCK_RECORD
  5
4A
330
1
100
AcDbSymbolTableRecord
100
AcDbBlockTableRecord
  2
AllgSicht1
340
0
102
{BLKREFS
331
7D
102
}
  0
BLOCK_RECORD
  5
4E
330
1
100
AcDbSymbolTableRecord
100
AcDbBlockTableRecord
  2
MSLKG_5-select__2
340
0
102
{BLKREFS
331
52
102
}
  0
BLOCK_RECORD
  5
51
330
1
100
AcDbSymbolTableRecord
100
AcDbBlockTableRecord
  2
Drfsicht1
340
0
102
{BLKREFS
331
7E
102
}
  0
BLOCK_RECORD
  5
55
330
1
100
AcDbSymbolTableRecord
100
AcDbBlockTableRecord
  2
MSLKG_5-select__3
340
0
102
{BLKREFS
331
59
102
}
  0
BLOCK_RECORD
  5
58
330
1
100
AcDbSymbolTableRecord
100
AcDbBlockTableRecord
  2
Rckans1
340
0
102
{BLKREFS
331
7F
102
}
  0
BLOCK_RECORD
  5
5C
330
1
100
AcDbSymbolTableRecord
100
AcDbBlockTableRecord
  2
MSLKG_5-select__4
340
0
102
{BLKREFS
331
60
102
}
  0
BLOCK_RECORD
  5
5F
330
1
100
AcDbSymbolTableRecord
100
AcDbBlockTableRecord
  2
SA_Links1
340
0
102
{BLKREFS
331
80
102
}
  0
BLOCK_RECORD
  5
63
330
1
100
AcDbSymbolTableRecord
100
AcDbBlockTableRecord
  2
MSLKG_5-select__5
340
0
102
{BLKREFS
331
67
102
}
  0
BLOCK_RECORD
  5
66
330
1
100
AcDbSymbolTableRecord
100
AcDbBlockTableRecord
  2
SA_Rechts1
340
0
102
{BLKREFS
331
81
102
}
  0
BLOCK_RECORD
  5
6A
330
1
100
AcDbSymbolTableRecord
100
AcDbBlockTableRecord
  2
MSLKG_5-select__6
340
0
102
{BLKREFS
331
6E
102
}
  0
BLOCK_RECORD
  5
6D
330
1
100
AcDbSymbolTableRecord
100
AcDbBlockTableRecord
  2
Vordans1
340
0
102
{BLKREFS
331
82
102
}
  0
BLOCK_RECORD
  5
71
330
1
100
AcDbSymbolTableRecord
100
AcDbBlockTableRecord
  2
_rahmen
340
0
102
{BLKREFS
331
78
102
}
  0
BLOCK_RECORD
  5
74
330
1
100
AcDbSymbolTableRecord
100
AcDbBlockTableRecord
  2
_punkt
340
0
102
{BLKREFS
331
79
102
}
  0
BLOCK_RECORD
  5
77
330
1
100
AcDbSymbolTableRecord
100
AcDbBlockTableRecord
  2
A4I_CS
340
0
102
{BLKREFS
331
83
102
}
  0
BLOCK_RECORD
  5
7C
330
1
100
AcDbSymbolTableRecord
100
AcDbBlockTableRecord
  2
1
340
0
102
{BLKREFS
331
86
102
}
  0
BLOCK_RECORD
  5
1DB
330
1
100
AcDbSymbolTableRecord
100
AcDbBlockTableRecord
  2
*D17
340
0
  0
BLOCK_RECORD
  5
30A
330
1
100
AcDbSymbolTableRecord
100
AcDbBlockTableRecord
  2
*D18
340
0
  0
BLOCK_RECORD
  5
315
330
1
100
AcDbSymbolTableRecord
100
AcDbBlockTableRecord
  2
*D19
340
0
  0
BLOCK_RECORD
  5
322
330
1
100
AcDbSymbolTableRecord
100
AcDbBlockTableRecord
  2
*D20
340
0
  0
BLOCK_RECORD
  5
32D
330
1
100
AcDbSymbolTableRecord
100
AcDbBlockTableRecord
  2
*D21
340
0
  0
BLOCK_RECORD
  5
338
330
1
100
AcDbSymbolTableRecord
100
AcDbBlockTableRecord
  2
*D22
340
0
  0
ENDTAB
  0
ENDSEC
  0
SECTION
  2
BLOCKS
  0
BLOCK
  5
20
330
1F
100
AcDbEntity
  8
0
100
AcDbBlockBegin
  2
*Model_Space
 70
     0
 10
0.0
 20
0.0
 30
0.0
  3
*Model_Space
  1

  0
ENDBLK
  5
21
330
1F
100
AcDbEntity
  8
0
100
AcDbBlockEnd
  0
BLOCK
  5
1C
330
1B
100
AcDbEntity
 67
     1
  8
0
100
AcDbBlockBegin
  2
*Paper_Space
 70
     0
 10
0.0
 20
0.0
 30
0.0
  3
*Paper_Space
  1

  0
ENDBLK
  5
1D
330
1B
100
AcDbEntity
 67
     1
  8
0
100
AcDbBlockEnd
  0
BLOCK
  5
24
330
23
100
AcDbEntity
  8
0
100
AcDbBlockBegin
  2
*Paper_Space0
 70
     0
 10
0.0
 20
0.0
 30
0.0
  3
*Paper_Space0
  1

  0
ENDBLK
  5
25
330
23
100
AcDbEntity
  8
0
100
AcDbBlockEnd
  0
BLOCK
  5
48
330
47
100
AcDbEntity
  8
0
100
AcDbBlockBegin
  2
MSLKG_5-select__1
 70
     0
 10
-47.4169829601063
 20
66.96733531254615
 30
0.0
  3
MSLKG_5-select__1
  1

  0
LINE
  5
87
330
47
100
AcDbEntity
  8
0
  6
Continuous
 62
     7
100
AcDbLine
 10
-34.89823527320803
 20
102.5004204619596
 30
0.0
 11
-18.87676530319591
 21
97.87542046195962
 31
0.0
  0
LINE
  5
88
330
47
100
AcDbEntity
  8
0
  6
Continuous
 62
     7
100
AcDbLine
 10
-10.43301761629762
 20
75.17292601340371
 30
0.0
 11
-14.76314463521983
 21
78.92292601340368
 31
0.0
  0
LINE
  5
89
330
47
100
AcDbEntity
  8
0
  6
Continuous
 62
     7
100
AcDbLine
 10
-10.82051761629764
 20
74.83734116943722
 30
0.0
 11
-15.15064463521982
 21
78.58734116943722
 31
0.0
  0
LINE
  5
8A
330
47
100
AcDbEntity
  8
0
  6
Continuous
 62
     7
100
AcDbLine
 10
-18.45064463521983
 20
75.72945733694857
 30
0.0
 11
-14.12051761629762
 21
71.97945733694858
 31
0.0
  0
LINE
  5
8B
330
47
100
AcDbEntity
  8
0
  6
Continuous
 62
     7
100
AcDbLine
 10
-19.33525862336563
 20
73.16358984605041
 30
0.0
 11
-21.84979434507375
 21
69.53417015651262
 31
0.0
  0
LINE
  5
8C
330
47
100
AcDbEntity
  8
0
  6
Continuous
 62
     7
100
AcDbLine
 10
-12.58115826235267
 20
73.59440537720796
 30
0.0
 11
-14.04579556106678
 21
75.31000541393642
 31
0.0
  0
LINE
  5
8D
330
47
100
AcDbEntity
  8
0
  6
Continuous
 62
     7
100
AcDbLine
 10
-20.43729434507375
 20
68.67897007027548
 30
0.0
 11
-14.50801761629764
 21
66.96733531254615
 31
0.0
  0
LINE
  5
8E
330
47
100
AcDbEntity
  8
0
  6
Continuous
 62
     7
100
AcDbLine
 10
-19.29755501232641
 20
73.44173355031866
 30
0.0
 11
-22.23729434507374
 21
69.19858531254616
 31
0.0
  0
LINE
  5
8F
330
47
100
AcDbEntity
  8
0
  6
Continuous
 62
     7
100
AcDbLine
 10
-24.33740594925101
 20
69.80483531254615
 30
0.0
 11
-22.23729434507374
 21
69.19858531254616
 31
0.0
  0
LINE
  5
90
330
47
100
AcDbEntity
  8
0
  6
Continuous
 62
     7
100
AcDbLine
 10
-14.50801761629764
 20
66.96733531254615
 30
0.0
 11
-14.50801761629764
 21
71.64387249298211
 31
0.0
  0
LINE
  5
91
330
47
100
AcDbEntity
  8
0
  6
Continuous
 62
     7
100
AcDbLine
 10
-20.43729434507375
 20
68.67897007027548
 30
0.0
 11
-20.93729434507375
 21
69.68933304135734
 31
0.0
  0
LINE
  5
92
330
47
100
AcDbEntity
  8
0
  6
Continuous
 62
     7
100
AcDbLine
 10
-21.56833608884381
 20
67.59096553837617
 30
0.0
 11
-16.28931976981502
 21
67.48155295146682
 31
0.0
  0
LINE
  5
93
330
47
100
AcDbEntity
  8
0
  6
Continuous
 62
     7
100
AcDbLine
 10
-22.23729434507374
 20
69.19858531254616
 30
0.0
 11
-21.84979434507375
 21
69.53417015651262
 31
0.0
  0
LINE
  5
94
330
47
100
AcDbEntity
  8
0
  6
Continuous
 62
     7
100
AcDbLine
 10
-20.93729434507375
 20
69.68933304135734
 30
0.0
 11
-18.69755501232643
 21
72.92211830804798
 31
0.0
  0
LINE
  5
95
330
47
100
AcDbEntity
  8
0
  6
Continuous
 62
     2
100
AcDbLine
 10
-14.85208747670482
 20
72.61301542070424
 30
0.0
 11
-14.85208747670482
 21
72.6669573369486
 31
0.0
  0
LINE
  5
96
330
47
100
AcDbEntity
  8
0
  6
Continuous
 62
     7
100
AcDbLine
 10
-14.85208747670482
 20
72.6669573369486
 30
0.0
 11
-14.8832308565691
 21
72.63998637882642
 31
0.0
  0
LINE
  5
97
330
47
100
AcDbEntity
  8
0
  6
Continuous
 62
     2
100
AcDbLine
 10
-14.85208747670482
 20
72.6669573369486
 30
0.0
 11
-14.94551761629764
 21
72.69392829507075
 31
0.0
  0
LINE
  5
98
330
47
100
AcDbEntity
  8
0
  6
Continuous
 62
     7
100
AcDbLine
 10
-14.12051761629762
 20
71.97945733694858
 30
0.0
 11
-14.12051761629762
 21
70.5331949126286
 31
0.0
  0
LINE
  5
99
330
47
100
AcDbEntity
  8
0
  6
Continuous
 62
     7
100
AcDbLine
 10
-14.12051761629762
 20
71.97945733694858
 30
0.0
 11
-14.50801761629764
 21
71.64387249298211
 31
0.0
  0
LINE
  5
9A
330
47
100
AcDbEntity
  8
0
  6
Continuous
 62
     7
100
AcDbLine
 10
-16.60817638995034
 20
74.64613972677375
 30
0.0
 11
-16.90395679873279
 21
74.3899863788264
 31
0.0
  0
LINE
  5
9B
330
47
100
AcDbEntity
  8
0
  6
Continuous
 62
     7
100
AcDbLine
 10
-13.75801761629764
 20
70.21926070375675
 30
0.0
 11
-13.75801761629764
 21
67.61685436538447
 31
0.0
  0
LINE
  5
9C
330
47
100
AcDbEntity
  8
0
  6
Continuous
 62
     7
100
AcDbLine
 10
-13.57708747670482
 20
70.74005081352823
 30
0.0
 11
-13.57708747670482
 21
73.77113972677375
 31
0.0
  0
LINE
  5
9D
330
47
100
AcDbEntity
  8
0
  6
Continuous
 62
     7
100
AcDbLine
 10
-13.75801761629764
 20
67.61685436538447
 30
0.0
 11
-14.50801761629764
 21
66.96733531254615
 31
0.0
  0
LINE
  5
9E
330
47
100
AcDbEntity
  8
0
  6
Continuous
 62
     7
100
AcDbLine
 10
-14.12051761629762
 20
70.5331949126286
 30
0.0
 11
-13.75801761629764
 21
70.21926070375675
 31
0.0
  0
LINE
  5
9F
330
47
100
AcDbEntity
  8
0
  6
Continuous
 62
     7
100
AcDbLine
 10
-13.57708747670482
 20
70.74005081352823
 30
0.0
 11
-13.96823085656908
 21
70.40131071004367
 31
0.0
  0
LINE
  5
A0
330
47
100
AcDbEntity
  8
0
  6
Continuous
 62
     7
100
AcDbLine
 10
-13.75801761629764
 20
70.02283701633249
 30
0.0
 11
-12.58115826235267
 21
69.99844549742784
 31
0.0
  0
LINE
  5
A1
330
47
100
AcDbEntity
  8
0
  6
Continuous
 62
     7
100
AcDbLine
 10
-12.58115826235267
 20
69.99844549742784
 30
0.0
 11
-12.58115826235267
 21
73.59440537720796
 31
0.0
  0
LINE
  5
A2
330
47
100
AcDbEntity
  8
0
  6
Continuous
 62
     7
100
AcDbLine
 10
-12.2061582623527
 20
73.91916490362712
 30
0.0
 11
-13.6707955610668
 21
75.63476494035558
 31
0.0
  0
LINE
  5
A3
330
47
100
AcDbEntity
  8
0
  6
Continuous
 62
     7
100
AcDbLine
 10
-14.04579556106678
 20
75.31000541393642
 30
0.0
 11
-13.6707955610668
 21
75.63476494035558
 31
0.0
  0
LINE
  5
A4
330
47
100
AcDbEntity
  8
0
  6
Continuous
 62
     7
100
AcDbLine
 10
-12.2061582623527
 20
70.32320502384698
 30
0.0
 11
-12.2061582623527
 21
70.56080398900124
 31
0.0
  0
LINE
  5
A5
330
47
100
AcDbEntity
  8
0
  6
Continuous
 62
     7
100
AcDbLine
 10
-12.58115826235267
 20
69.99844549742784
 30
0.0
 11
-12.2061582623527
 21
70.32320502384698
 31
0.0
  0
LINE
  5
A6
330
47
100
AcDbEntity
  8
0
  6
Continuous
 62
     7
100
AcDbLine
 10
-24.68125255606336
 20
68.48958711853322
 30
0.0
 11
-21.56833608884381
 21
67.59096553837617
 31
0.0
  0
LINE
  5
A7
330
47
100
AcDbEntity
  8
0
  6
Continuous
 62
     7
100
AcDbLine
 10
-24.33740594925101
 20
70.92796116313436
 30
0.0
 11
-24.36006146750741
 21
70.90834090878842
 31
0.0
  0
LINE
  5
A8
330
47
100
AcDbEntity
  8
0
  6
Continuous
 62
     7
100
AcDbLine
 10
-18.83814463521982
 20
75.3938724929821
 30
0.0
 11
-18.45064463521983
 21
75.72945733694857
 31
0.0
  0
LINE
  5
A9
330
47
100
AcDbEntity
  8
0
  6
Continuous
 62
     7
100
AcDbLine
 10
-15.1729658763991
 20
75.8804454064374
 30
0.0
 11
-13.6707955610668
 21
75.63476494035558
 31
0.0
  0
LINE
  5
AA
330
47
100
AcDbEntity
  8
0
  6
Continuous
 62
     7
100
AcDbLine
 10
-12.2061582623527
 20
73.91916490362712
 30
0.0
 11
-12.2061582623527
 21
70.56080398900124
 31
0.0
  0
LINE
  5
AB
330
47
100
AcDbEntity
  8
0
  6
Continuous
 62
     7
100
AcDbLine
 10
-12.2061582623527
 20
70.56080398900124
 30
0.0
 11
-12.13564556046052
 21
70.5404487252919
 31
0.0
  0
LINE
  5
AC
330
47
100
AcDbEntity
  8
0
  6
Continuous
 62
     7
100
AcDbLine
 10
-12.13564556046052
 20
70.12186978012942
 30
0.0
 11
-12.13564556046052
 21
72.72427611850165
 31
0.0
  0
LINE
  5
AD
330
47
100
AcDbEntity
  8
0
  6
Continuous
 62
     7
100
AcDbLine
 10
-11.77314556046052
 20
73.66607874511723
 30
0.0
 11
-12.13564556046052
 21
72.72427611850165
 31
0.0
  0
LINE
  5
AE
330
47
100
AcDbEntity
  8
0
  6
Continuous
 62
     7
100
AcDbLine
 10
-11.18301761629762
 20
69.8468697801294
 30
0.0
 11
-11.18301761629762
 21
72.44927611850164
 31
0.0
  0
LINE
  5
AF
330
47
100
AcDbEntity
  8
0
  6
Continuous
 62
     7
100
AcDbLine
 10
-12.13564556046052
 20
70.12186978012942
 30
0.0
 11
-11.18301761629762
 21
69.8468697801294
 31
0.0
  0
LINE
  5
B0
330
47
100
AcDbEntity
  8
0
  6
Continuous
 62
     7
100
AcDbLine
 10
-14.04579556106678
 20
75.31000541393642
 30
0.0
 11
-18.08814463521982
 21
75.97113298014297
 31
0.0
  0
LINE
  5
B1
330
47
100
AcDbEntity
  8
0
  6
Continuous
 62
     7
100
AcDbLine
 10
-15.15064463521982
 20
77.58734116943724
 30
0.0
 11
-15.51314463521983
 21
77.27340696056538
 31
0.0
  0
LINE
  5
B2
330
47
100
AcDbEntity
  8
0
  6
Continuous
 62
     7
100
AcDbLine
 10
-39.01185594118411
 20
103.2549077600674
 30
0.0
 11
-41.04935594118412
 21
101.4903809998566
 31
0.0
  0
LINE
  5
B3
330
47
100
AcDbEntity
  8
0
  6
Continuous
 62
     7
100
AcDbLine
 10
-43.08685594118411
 20
99.72585423964576
 30
0.0
 11
-43.08685594118411
 21
82.39387249298211
 31
0.0
  0
LINE
  5
B4
330
47
100
AcDbEntity
  8
0
  6
Continuous
 62
     7
100
AcDbLine
 10
-43.34198296010631
 20
84.67292601340371
 30
0.0
 11
-43.0868559411841
 21
84.74657483992985
 31
0.0
  0
LINE
  5
B5
330
47
100
AcDbEntity
  8
0
  6
Continuous
 62
     7
100
AcDbLine
 10
-43.7294829601063
 20
84.33734116943725
 30
0.0
 11
-43.7294829601063
 21
82.89107874511723
 31
0.0
  0
LINE
  5
B6
330
47
100
AcDbEntity
  8
0
  6
Continuous
 62
     7
100
AcDbLine
 10
-43.7294829601063
 20
84.33734116943725
 30
0.0
 11
-43.34198296010631
 21
84.67292601340371
 31
0.0
  0
LINE
  5
B7
330
47
100
AcDbEntity
  8
0
  6
Continuous
 62
     7
100
AcDbLine
 10
-43.0868559411841
 20
84.52285161061887
 30
0.0
 11
-43.7294829601063
 21
84.33734116943725
 31
0.0
  0
LINE
  5
B8
330
47
100
AcDbEntity
  8
0
  6
Continuous
 62
     7
100
AcDbLine
 10
-44.86068080658892
 20
75.72939444431451
 30
0.0
 11
-39.58166448756013
 21
72.79096553837617
 31
0.0
  0
LINE
  5
B9
330
47
100
AcDbEntity
  8
0
  6
Continuous
 62
     7
100
AcDbLine
 10
-39.68770623133018
 20
74.23608531254614
 30
0.0
 11
-42.62744556407749
 21
80.17649284542762
 31
0.0
  0
LINE
  5
BA
330
47
100
AcDbEntity
  8
0
  6
Continuous
 62
     7
100
AcDbLine
 10
-43.22744556407751
 20
80.00328776467074
 30
0.0
 11
-40.98770623133019
 21
75.47738839130383
 31
0.0
  0
LINE
  5
BB
330
47
100
AcDbEntity
  8
0
  6
Continuous
 62
     7
100
AcDbLine
 10
-40.98770623133019
 20
75.47738839130383
 30
0.0
 11
-41.48770623133018
 21
74.75570055481681
 31
0.0
  0
LINE
  5
BC
330
47
100
AcDbEntity
  8
0
  6
Continuous
 62
     7
100
AcDbLine
 10
-47.4169829601063
 20
76.46733531254614
 30
0.0
 11
-41.48770623133018
 21
74.75570055481681
 31
0.0
  0
LINE
  5
BD
330
47
100
AcDbEntity
  8
0
  6
Continuous
 62
     7
100
AcDbLine
 10
-41.48770623133018
 20
74.75570055481681
 30
0.0
 11
-41.10020623133018
 21
75.09128539878328
 31
0.0
  0
LINE
  5
BE
330
47
100
AcDbEntity
  8
0
  6
Continuous
 62
     7
100
AcDbLine
 10
-42.51086370189148
 20
79.9409128521226
 30
0.0
 11
-42.67703470000483
 21
80.00967439934526
 31
0.0
  0
LINE
  5
BF
330
47
100
AcDbEntity
  8
0
  6
Continuous
 62
     7
100
AcDbLine
 10
-39.68770623133018
 20
74.23608531254614
 30
0.0
 11
-37.58759462715292
 21
73.62983531254613
 31
0.0
  0
LINE
  5
C0
330
47
100
AcDbEntity
  8
0
  6
Continuous
 62
     7
100
AcDbLine
 10
-37.58759462715292
 20
75.70829628162883
 30
0.0
 11
-37.58759462715292
 21
73.62983531254613
 31
0.0
  0
LINE
  5
C1
330
47
100
AcDbEntity
  8
0
  6
Continuous
 62
     7
100
AcDbLine
 10
-37.20009462715292
 20
74.93175835627122
 30
0.0
 11
-37.20009462715292
 21
74.6445302239445
 31
0.0
  0
LINE
  5
C2
330
47
100
AcDbEntity
  8
0
  6
Continuous
 62
     7
100
AcDbLine
 10
-37.58759462715292
 20
73.62983531254613
 30
0.0
 11
-37.20009462715292
 21
73.96542015651261
 31
0.0
  0
LINE
  5
C3
330
47
100
AcDbEntity
  8
0
  6
Continuous
 62
     7
100
AcDbLine
 10
-37.20009462715292
 20
74.6445302239445
 30
0.0
 11
-37.20009462715292
 21
73.96542015651261
 31
0.0
  0
LINE
  5
C4
330
47
100
AcDbEntity
  8
0
  6
Continuous
 62
     7
100
AcDbLine
 10
-39.58166448756013
 20
72.79096553837617
 30
0.0
 11
-36.46874802034047
 21
71.89234395821936
 31
0.0
  0
LINE
  5
C5
330
47
100
AcDbEntity
  8
0
  6
Continuous
 62
     7
100
AcDbLine
 10
-37.20009462715292
 20
75.59643466697331
 30
0.0
 11
-37.20009462715292
 21
74.93175835627122
 31
0.0
  0
LINE
  5
C6
330
47
100
AcDbEntity
  8
0
  6
Continuous
 62
     7
100
AcDbLine
 10
-36.98358827620679
 20
74.98545191124315
 30
0.0
 11
-36.98358827620679
 21
75.53393466697331
 31
0.0
  0
LINE
  5
C7
330
47
100
AcDbEntity
  8
0
  6
Continuous
 62
     7
100
AcDbLine
 10
-36.98358827620679
 20
74.98545191124315
 30
0.0
 11
-36.6085882762068
 21
75.3102114376623
 31
0.0
  0
LINE
  5
C8
330
47
100
AcDbEntity
  8
0
  6
Continuous
 62
     7
100
AcDbLine
 10
-36.6085882762068
 20
75.3102114376623
 30
0.0
 11
-36.6085882762068
 21
75.42568149150026
 31
0.0
  0
LINE
  5
C9
330
47
100
AcDbEntity
  8
0
  6
Continuous
 62
     7
100
AcDbLine
 10
-36.09374802034049
 20
72.2171034846385
 30
0.0
 11
-36.46874802034047
 21
71.89234395821936
 31
0.0
  0
LINE
  5
CA
330
47
100
AcDbEntity
  8
0
  6
Continuous
 62
     7
100
AcDbLine
 10
-18.08814463521983
 20
80.10977226878539
 30
0.0
 11
-15.51314463521983
 21
87.16164102033076
 31
0.0
  0
LINE
  5
CB
330
47
100
AcDbEntity
  8
0
  6
Continuous
 62
     7
100
AcDbLine
 10
-18.08814463521982
 20
79.50342237531031
 30
0.0
 11
-15.51314463521983
 21
77.27340696056538
 31
0.0
  0
LINE
  5
CC
330
47
100
AcDbEntity
  8
0
  6
Continuous
 62
     2
100
AcDbLine
 10
-16.80064463521983
 20
86.0466333129583
 30
0.0
 11
-18.08814463521983
 21
82.52069893718561
 31
0.0
  0
LINE
  5
CD
330
47
100
AcDbEntity
  8
0
  6
Continuous
 62
     7
100
AcDbLine
 10
-18.83814463521982
 20
75.3938724929821
 30
0.0
 11
-18.83814463521982
 21
92.72585423964577
 31
0.0
  0
LINE
  5
CE
330
47
100
AcDbEntity
  8
0
  6
Continuous
 62
     7
100
AcDbLine
 10
-14.76314463521983
 20
78.92292601340368
 30
0.0
 11
-15.15064463521982
 21
78.58734116943722
 31
0.0
  0
LINE
  5
CF
330
47
100
AcDbEntity
  8
0
  6
Continuous
 62
     7
100
AcDbLine
 10
-15.15064463521982
 20
77.58734116943724
 30
0.0
 11
-15.15064463521982
 21
78.58734116943722
 31
0.0
  0
LINE
  5
D0
330
47
100
AcDbEntity
  8
0
  6
Continuous
 62
     7
100
AcDbLine
 10
-15.01005501232643
 20
76.1155869845031
 30
0.0
 11
-15.1729658763991
 21
75.8804454064374
 31
0.0
  0
LINE
  5
D1
330
47
100
AcDbEntity
  8
0
  6
Continuous
 62
     7
100
AcDbLine
 10
-18.08814463521982
 20
76.35722388412985
 30
0.0
 11
-16.03525862336564
 21
76.02147367853905
 31
0.0
  0
LINE
  5
D2
330
47
100
AcDbEntity
  8
0
  6
Continuous
 62
     7
100
AcDbLine
 10
-15.51314463521983
 20
77.27340696056538
 30
0.0
 11
-15.51314463521983
 21
87.16164102033076
 31
0.0
  0
LINE
  5
D3
330
47
100
AcDbEntity
  8
0
  6
Continuous
 62
     7
100
AcDbLine
 10
-15.1729658763991
 20
75.8804454064374
 30
0.0
 11
-16.03525862336564
 21
76.02147367853905
 31
0.0
  0
LINE
  5
D4
330
47
100
AcDbEntity
  8
0
  6
Continuous
 62
     7
100
AcDbLine
 10
-16.80064463521983
 20
86.0466333129583
 30
0.0
 11
-18.08814463521982
 21
84.93162560558584
 31
0.0
  0
LINE
  5
D5
330
47
100
AcDbEntity
  8
0
  6
Continuous
 62
     7
100
AcDbLine
 10
-18.08814463521982
 20
84.93162560558584
 30
0.0
 11
-18.08814463521982
 21
75.41552312807671
 31
0.0
  0
LINE
  5
D6
330
47
100
AcDbEntity
  8
0
  6
Continuous
 62
     7
100
AcDbLine
 10
-15.51314463521983
 20
87.16164102033076
 30
0.0
 11
-16.80064463521983
 21
86.0466333129583
 31
0.0
  0
LINE
  5
D7
330
47
100
AcDbEntity
  8
0
  6
Continuous
 62
     7
100
AcDbLine
 10
-15.38571729310262
 20
76.73528260392091
 30
0.0
 11
-15.89603427359499
 21
75.99870348877265
 31
0.0
  0
LINE
  5
D8
330
47
100
AcDbEntity
  8
0
  6
Continuous
 62
     7
100
AcDbLine
 10
-16.03525862336564
 20
76.02147367853905
 30
0.0
 11
-15.61005501232641
 21
76.63520222677379
 31
0.0
  0
LINE
  5
D9
330
47
100
AcDbEntity
  8
0
  6
Continuous
 62
     2
100
AcDbLine
 10
-15.52434072661214
 20
76.70943297566956
 30
0.0
 11
-15.61005501232641
 21
76.63520222677379
 31
0.0
  0
LINE
  5
DA
330
47
100
AcDbEntity
  8
0
  6
Continuous
 62
     2
100
AcDbLine
 10
-16.80064463521983
 20
94.49038099985657
 30
0.0
 11
-16.80064463521983
 21
86.0466333129583
 31
0.0
  0
LINE
  5
DB
330
47
100
AcDbEntity
  8
0
  6
Continuous
 62
     7
100
AcDbLine
 10
-14.76314463521983
 20
96.25490776006737
 30
0.0
 11
-14.76314463521983
 21
78.92292601340368
 31
0.0
  0
LINE
  5
DC
330
47
100
AcDbEntity
  8
0
  6
Continuous
 62
     7
100
AcDbLine
 10
-11.77314556046052
 20
73.66607874511723
 30
0.0
 11
-10.82051761629764
 21
73.39107874511723
 31
0.0
  0
LINE
  5
DD
330
47
100
AcDbEntity
  8
0
  6
Continuous
 62
     7
100
AcDbLine
 10
-27.49839867306422
 20
71.23695055481681
 30
0.0
 11
-34.42660190333972
 21
73.2369505548168
 31
0.0
  0
LINE
  5
DE
330
47
100
AcDbEntity
  8
0
  6
Continuous
 62
     7
100
AcDbLine
 10
-24.33740594925101
 20
71.8832962816288
 30
0.0
 11
-27.49839867306422
 21
72.79579628162881
 31
0.0
  0
LINE
  5
DF
330
47
100
AcDbEntity
  8
0
  6
Continuous
 62
     7
100
AcDbLine
 10
-18.83814463521982
 20
75.3938724929821
 30
0.0
 11
-14.50801761629764
 21
71.64387249298211
 31
0.0
  0
LINE
  5
E0
330
47
100
AcDbEntity
  8
0
  6
Continuous
 62
     7
100
AcDbLine
 10
-34.42660190333972
 20
73.2369505548168
 30
0.0
 11
-34.42660190333972
 21
74.7957962816288
 31
0.0
  0
LINE
  5
E1
330
47
100
AcDbEntity
  8
0
  6
Continuous
 62
     7
100
AcDbLine
 10
-19.07321729310412
 20
73.54181392746362
 30
0.0
 11
-19.33525862336563
 21
73.16358984605041
 31
0.0
  0
LINE
  5
E2
330
47
100
AcDbEntity
  8
0
  6
Continuous
 62
     7
100
AcDbLine
 10
-18.65248047966533
 20
73.05192124838032
 30
0.0
 11
-19.33525862336563
 21
73.16358984605041
 31
0.0
  0
LINE
  5
E3
330
47
100
AcDbEntity
  8
0
  6
Continuous
 62
     2
100
AcDbLine
 10
-19.29755501232641
 20
73.44173355031866
 30
0.0
 11
-19.2118407266122
 21
73.51596429921442
 31
0.0
  0
LINE
  5
E4
330
47
100
AcDbEntity
  8
0
  6
Continuous
 62
     7
100
AcDbLine
 10
-18.88286599367919
 20
73.47569178155688
 30
0.0
 11
-19.09499186507914
 21
73.51038503998545
 31
0.0
  0
LINE
  5
E5
330
47
100
AcDbEntity
  8
0
  6
Continuous
 62
     7
100
AcDbLine
 10
-27.49839867306422
 20
72.79579628162881
 30
0.0
 11
-27.49839867306422
 21
71.23695055481681
 31
0.0
  0
LINE
  5
E6
330
47
100
AcDbEntity
  8
0
  6
Continuous
 62
     7
100
AcDbLine
 10
-27.49839867306422
 20
71.23695055481681
 30
0.0
 11
-26.14839867306421
 21
72.4060848499258
 31
0.0
  0
LINE
  5
E7
330
47
100
AcDbEntity
  8
0
  6
Continuous
 62
     7
100
AcDbLine
 10
-24.33740594925101
 20
71.33481352589862
 30
0.0
 11
-24.84931048018061
 21
71.48258763526444
 31
0.0
  0
LINE
  5
E8
330
47
100
AcDbEntity
  8
0
  6
Continuous
 62
     7
100
AcDbLine
 10
-35.55069009622332
 20
74.57180983627575
 30
0.0
 11
-36.41493910889652
 21
74.8212970363326
 31
0.0
  0
LINE
  5
E9
330
47
100
AcDbEntity
  8
0
  6
Continuous
 62
     7
100
AcDbLine
 10
-36.46874802034047
 20
71.89234395821936
 30
0.0
 11
-35.68155079181848
 21
73.82790630234452
 31
0.0
  0
LINE
  5
EA
330
47
100
AcDbEntity
  8
0
  6
Continuous
 62
     7
100
AcDbLine
 10
-36.09374802034049
 20
72.2171034846385
 30
0.0
 11
-35.3065507918185
 21
74.15266582876367
 31
0.0
  0
LINE
  5
EB
330
47
100
AcDbEntity
  8
0
  6
Continuous
 62
     2
100
AcDbLine
 10
-35.3065507918185
 20
74.15266582876367
 30
0.0
 11
-35.68155079181848
 21
73.82790630234452
 31
0.0
  0
LINE
  5
EC
330
47
100
AcDbEntity
  8
0
  6
Continuous
 62
     2
100
AcDbLine
 10
-35.55069009622332
 20
74.57180983627575
 30
0.0
 11
-35.92569009622331
 21
74.2470503098566
 31
0.0
  0
LINE
  5
ED
330
47
100
AcDbEntity
  8
0
  6
Continuous
 62
     7
100
AcDbLine
 10
-12.58115826235267
 20
73.59440537720796
 30
0.0
 11
-12.2061582623527
 21
73.91916490362712
 31
0.0
  0
LINE
  5
EE
330
47
100
AcDbEntity
  8
0
  6
Continuous
 62
     7
100
AcDbLine
 10
-13.57708747670482
 20
73.77113972677375
 30
0.0
 11
-14.85208747670482
 21
72.6669573369486
 31
0.0
  0
LINE
  5
EF
330
47
100
AcDbEntity
  8
0
  6
Continuous
 62
     7
100
AcDbLine
 10
-13.57708747670482
 20
73.77113972677375
 30
0.0
 11
-16.60817638995034
 21
74.64613972677375
 31
0.0
  0
LINE
  5
F0
330
47
100
AcDbEntity
  8
0
  6
Continuous
 62
     7
100
AcDbLine
 10
-12.13564556046052
 20
72.72427611850165
 30
0.0
 11
-11.18301761629762
 21
72.44927611850164
 31
0.0
  0
LINE
  5
F1
330
47
100
AcDbEntity
  8
0
  6
Continuous
 62
     7
100
AcDbLine
 10
-10.82051761629764
 20
73.39107874511723
 30
0.0
 11
-10.82051761629764
 21
74.83734116943722
 31
0.0
  0
LINE
  5
F2
330
47
100
AcDbEntity
  8
0
  6
Continuous
 62
     7
100
AcDbLine
 10
-11.18301761629762
 20
72.44927611850164
 30
0.0
 11
-10.82051761629764
 21
73.39107874511723
 31
0.0
  0
LINE
  5
F3
330
47
100
AcDbEntity
  8
0
  6
Continuous
 62
     7
100
AcDbLine
 10
-10.43301761629762
 20
75.17292601340371
 30
0.0
 11
-10.43301761629762
 21
70.49638883296774
 31
0.0
  0
LINE
  5
F4
330
47
100
AcDbEntity
  8
0
  6
Continuous
 62
     7
100
AcDbLine
 10
-10.43301761629762
 20
75.17292601340371
 30
0.0
 11
-10.82051761629764
 21
74.83734116943722
 31
0.0
  0
LINE
  5
F5
330
47
100
AcDbEntity
  8
0
  6
Continuous
 62
     7
100
AcDbLine
 10
-10.43301761629762
 20
70.49638883296774
 30
0.0
 11
-11.18301761629762
 21
69.8468697801294
 31
0.0
  0
LINE
  5
F6
330
47
100
AcDbEntity
  8
0
  6
Continuous
 62
     7
100
AcDbLine
 10
-25.04570658139299
 20
71.44955869793463
 30
0.0
 11
-25.42070658139298
 21
71.12479917151549
 31
0.0
  0
LINE
  5
F7
330
47
100
AcDbEntity
  8
0
  6
Continuous
 62
     2
100
AcDbLine
 10
-24.84931048018061
 20
71.48258763526444
 30
0.0
 11
-25.22431048018059
 21
71.15782810884528
 31
0.0
  0
LINE
  5
F8
330
47
100
AcDbEntity
  8
0
  6
Continuous
 62
     7
100
AcDbLine
 10
-36.6085882762068
 20
75.3102114376623
 30
0.0
 11
-34.42660190333972
 21
74.68032622779114
 31
0.0
  0
LINE
  5
F9
330
47
100
AcDbEntity
  8
0
  6
Continuous
 62
     7
100
AcDbLine
 10
-42.67703470000483
 20
80.00967439934526
 30
0.0
 11
-40.60020623133018
 21
75.81297323527032
 31
0.0
  0
LINE
  5
FA
330
47
100
AcDbEntity
  8
0
  6
Continuous
 62
     7
100
AcDbLine
 10
-47.4169829601063
 20
81.14387249298213
 30
0.0
 11
-47.4169829601063
 21
76.46733531254614
 31
0.0
  0
LINE
  5
FB
330
47
100
AcDbEntity
  8
0
  6
Continuous
 62
     2
100
AcDbLine
 10
-43.22744556407751
 20
80.00328776467074
 30
0.0
 11
-42.83994556407754
 21
80.33887260863726
 31
0.0
  0
LINE
  5
FC
330
47
100
AcDbEntity
  8
0
  6
Continuous
 62
     7
100
AcDbLine
 10
-34.42660190333972
 20
74.7957962816288
 30
0.0
 11
-37.58759462715292
 21
75.70829628162883
 31
0.0
  0
LINE
  5
FD
330
47
100
AcDbEntity
  8
0
  6
Continuous
 62
     7
100
AcDbLine
 10
-40.60020623133018
 20
75.81297323527032
 30
0.0
 11
-41.10020623133018
 21
75.09128539878328
 31
0.0
  0
LINE
  5
FE
330
47
100
AcDbEntity
  8
0
  6
Continuous
 62
     7
100
AcDbLine
 10
-40.98770623133019
 20
75.47738839130383
 30
0.0
 11
-40.60020623133018
 21
75.81297323527032
 31
0.0
  0
LINE
  5
FF
330
47
100
AcDbEntity
  8
0
  6
Continuous
 62
     7
100
AcDbLine
 10
-42.83994556407754
 20
80.33887260863726
 30
0.0
 11
-42.67703470000483
 21
80.00967439934526
 31
0.0
  0
LINE
  5
100
330
47
100
AcDbEntity
  8
0
  6
Continuous
 62
     7
100
AcDbLine
 10
-35.92569009622331
 20
74.2470503098566
 30
0.0
 11
-36.78993910889651
 21
74.49653750991347
 31
0.0
  0
LINE
  5
101
330
47
100
AcDbEntity
  8
0
  6
Continuous
 62
     7
100
AcDbLine
 10
-36.78993910889651
 20
74.49653750991347
 30
0.0
 11
-36.41493910889652
 21
74.8212970363326
 31
0.0
  0
LINE
  5
102
330
47
100
AcDbEntity
  8
0
  6
Continuous
 62
     7
100
AcDbLine
 10
-35.27323527320804
 20
102.1756609355404
 30
0.0
 11
-39.01185594118411
 21
103.2549077600674
 31
0.0
  0
LINE
  5
103
330
47
100
AcDbEntity
  8
0
  6
Continuous
 62
     7
100
AcDbLine
 10
-36.93573527320802
 20
100.7358937017488
 30
0.0
 11
-38.97323527320803
 21
98.97136694153798
 31
0.0
  0
LINE
  5
104
330
47
100
AcDbEntity
  8
0
  6
Continuous
 62
     2
100
AcDbLine
 10
-41.04935594118412
 20
101.4903809998566
 30
0.0
 11
-39.32596538765307
 21
100.9928809998566
 31
0.0
  0
LINE
  5
105
330
47
100
AcDbEntity
  8
0
  6
Continuous
 62
     2
100
AcDbLine
 10
-38.44261947579295
 20
100.7378809998566
 30
0.0
 11
-37.31073527320802
 21
100.4111341753296
 31
0.0
  0
LINE
  5
106
330
47
100
AcDbEntity
  8
0
  6
Continuous
 62
     7
100
AcDbLine
 10
-41.04935594118412
 20
101.4903809998566
 30
0.0
 11
-43.08685594118411
 21
99.72585423964576
 31
0.0
  0
LINE
  5
107
330
47
100
AcDbEntity
  8
0
  6
Continuous
 62
     7
100
AcDbLine
 10
-38.97323527320803
 20
98.53835423964577
 30
0.0
 11
-43.08685594118411
 21
99.72585423964576
 31
0.0
  0
LINE
  5
108
330
47
100
AcDbEntity
  8
0
  6
Continuous
 62
     7
100
AcDbLine
 10
-38.97323527320803
 20
98.97136694153798
 30
0.0
 11
-38.97323527320803
 21
98.53835423964577
 31
0.0
  0
LINE
  5
109
330
47
100
AcDbEntity
  8
0
  6
Continuous
 62
     7
100
AcDbLine
 10
-38.69761947579295
 20
100.5170445218915
 30
0.0
 11
-38.44261947579295
 21
100.7378809998566
 31
0.0
  0
LINE
  5
10A
330
47
100
AcDbEntity
  8
0
  6
Continuous
 62
     7
100
AcDbLine
 10
-39.58096538765307
 20
100.7720445218915
 30
0.0
 11
-38.69761947579295
 21
100.5170445218915
 31
0.0
  0
LINE
  5
10B
330
47
100
AcDbEntity
  8
0
  6
Continuous
 62
     7
100
AcDbLine
 10
-39.32596538765307
 20
100.9928809998566
 30
0.0
 11
-39.58096538765307
 21
100.7720445218915
 31
0.0
  0
LINE
  5
10C
330
47
100
AcDbEntity
  8
0
  6
Continuous
 62
     7
100
AcDbLine
 10
-38.18761947579294
 20
100.9587174778216
 30
0.0
 11
-39.07096538765306
 21
101.2137174778216
 31
0.0
  0
LINE
  5
10D
330
47
100
AcDbEntity
  8
0
  6
Continuous
 62
     7
100
AcDbLine
 10
-39.07096538765306
 20
101.2137174778216
 30
0.0
 11
-39.07096538765306
 21
100.6248202032482
 31
0.0
  0
LINE
  5
10E
330
47
100
AcDbEntity
  8
0
  6
Continuous
 62
     2
100
AcDbLine
 10
-39.32596538765307
 20
100.6984323625699
 30
0.0
 11
-39.32596538765307
 21
100.9928809998566
 31
0.0
  0
LINE
  5
10F
330
47
100
AcDbEntity
  8
0
  6
Continuous
 62
     7
100
AcDbLine
 10
-39.07096538765306
 20
101.2137174778216
 30
0.0
 11
-39.32596538765307
 21
100.9928809998566
 31
0.0
  0
LINE
  5
110
330
47
100
AcDbEntity
  8
0
  6
Continuous
 62
     7
100
AcDbLine
 10
-38.44261947579295
 20
100.7378809998566
 30
0.0
 11
-38.18761947579294
 21
100.9587174778216
 31
0.0
  0
LINE
  5
111
330
47
100
AcDbEntity
  8
0
  6
Continuous
 62
     2
100
AcDbLine
 10
-36.93573527320802
 20
100.7358937017488
 30
0.0
 11
-36.24291495018046
 21
100.5358937017488
 31
0.0
  0
LINE
  5
112
330
47
100
AcDbEntity
  8
0
  6
Continuous
 62
     2
100
AcDbLine
 10
-36.24291495018046
 20
99.56089370174878
 30
0.0
 11
-36.24291495018046
 21
100.5358937017488
 31
0.0
  0
LINE
  5
113
330
47
100
AcDbEntity
  8
0
  6
Continuous
 62
     7
100
AcDbLine
 10
-34.89823527320803
 20
102.5004204619596
 30
0.0
 11
-36.93573527320802
 21
100.7358937017488
 31
0.0
  0
LINE
  5
114
330
47
100
AcDbEntity
  8
0
  6
Continuous
 62
     7
100
AcDbLine
 10
-22.95176530319591
 20
94.34636694153804
 30
0.0
 11
-38.97323527320803
 21
98.97136694153798
 31
0.0
  0
LINE
  5
115
330
47
100
AcDbEntity
  8
0
  6
Continuous
 62
     7
100
AcDbLine
 10
-16.80064463521983
 20
94.49038099985657
 30
0.0
 11
-18.83814463521982
 21
92.72585423964577
 31
0.0
  0
LINE
  5
116
330
47
100
AcDbEntity
  8
0
  6
Continuous
 62
     7
100
AcDbLine
 10
-20.9142653031959
 20
95.67788099985655
 30
0.0
 11
-22.95176530319591
 21
93.91335423964577
 31
0.0
  0
LINE
  5
117
330
47
100
AcDbEntity
  8
0
  6
Continuous
 62
     7
100
AcDbLine
 10
-20.9142653031959
 20
96.11089370174884
 30
0.0
 11
-18.87676530319591
 21
97.87542046195962
 31
0.0
  0
LINE
  5
118
330
47
100
AcDbEntity
  8
0
  6
Continuous
 62
     7
100
AcDbLine
 10
-20.9142653031959
 20
96.11089370174884
 30
0.0
 11
-22.95176530319591
 21
94.34636694153804
 31
0.0
  0
LINE
  5
119
330
47
100
AcDbEntity
  8
0
  6
Continuous
 62
     7
100
AcDbLine
 10
-18.87676530319591
 20
97.44240776006735
 30
0.0
 11
-20.9142653031959
 21
95.67788099985655
 31
0.0
  0
LINE
  5
11A
330
47
100
AcDbEntity
  8
0
  6
Continuous
 62
     7
100
AcDbLine
 10
-14.76314463521983
 20
96.25490776006737
 30
0.0
 11
-18.87676530319591
 21
97.44240776006735
 31
0.0
  0
LINE
  5
11B
330
47
100
AcDbEntity
  8
0
  6
Continuous
 62
     7
100
AcDbLine
 10
-14.76314463521983
 20
96.25490776006737
 30
0.0
 11
-16.80064463521983
 21
94.49038099985657
 31
0.0
  0
LINE
  5
11C
330
47
100
AcDbEntity
  8
0
  6
Continuous
 62
     2
100
AcDbLine
 10
-18.52403518875084
 20
94.98788099985656
 30
0.0
 11
-16.80064463521983
 21
94.49038099985657
 31
0.0
  0
LINE
  5
11D
330
47
100
AcDbEntity
  8
0
  6
Continuous
 62
     7
100
AcDbLine
 10
-18.83814463521982
 20
92.72585423964577
 30
0.0
 11
-22.95176530319591
 21
93.91335423964577
 31
0.0
  0
LINE
  5
11E
330
47
100
AcDbEntity
  8
0
  6
Continuous
 62
     7
100
AcDbLine
 10
-18.77903518875084
 20
94.76704452189153
 30
0.0
 11
-18.52403518875084
 21
94.98788099985656
 31
0.0
  0
LINE
  5
11F
330
47
100
AcDbEntity
  8
0
  6
Continuous
 62
     2
100
AcDbLine
 10
-20.9142653031959
 20
95.67788099985655
 30
0.0
 11
-19.40738110061098
 21
95.24288099985657
 31
0.0
  0
LINE
  5
120
330
47
100
AcDbEntity
  8
0
  6
Continuous
 62
     7
100
AcDbLine
 10
-18.26903518875085
 20
95.2087174778216
 30
0.0
 11
-19.15238110061098
 21
95.46371747782159
 31
0.0
  0
LINE
  5
121
330
47
100
AcDbEntity
  8
0
  6
Continuous
 62
     7
100
AcDbLine
 10
-19.15238110061098
 20
95.46371747782159
 30
0.0
 11
-19.40738110061098
 21
95.24288099985657
 31
0.0
  0
LINE
  5
122
330
47
100
AcDbEntity
  8
0
  6
Continuous
 62
     7
100
AcDbLine
 10
-18.52403518875084
 20
94.98788099985656
 30
0.0
 11
-18.26903518875085
 21
95.2087174778216
 31
0.0
  0
LINE
  5
123
330
47
100
AcDbEntity
  8
0
  6
Continuous
 62
     2
100
AcDbLine
 10
-20.9142653031959
 20
96.11089370174884
 30
0.0
 11
-20.9142653031959
 21
95.67788099985655
 31
0.0
  0
LINE
  5
124
330
47
100
AcDbEntity
  8
0
  6
Continuous
 62
     7
100
AcDbLine
 10
-19.66238110061097
 20
95.02204452189153
 30
0.0
 11
-18.77903518875084
 21
94.76704452189153
 31
0.0
  0
LINE
  5
125
330
47
100
AcDbEntity
  8
0
  6
Continuous
 62
     7
100
AcDbLine
 10
-19.40738110061098
 20
95.24288099985657
 30
0.0
 11
-19.66238110061097
 21
95.02204452189153
 31
0.0
  0
LINE
  5
126
330
47
100
AcDbEntity
  8
0
  6
Continuous
 62
     7
100
AcDbLine
 10
-19.15238110061098
 20
95.46371747782159
 30
0.0
 11
-19.15238110061097
 21
94.87482020324818
 31
0.0
  0
LINE
  5
127
330
47
100
AcDbEntity
  8
0
  6
Continuous
 62
     2
100
AcDbLine
 10
-19.40738110061098
 20
94.94843236256986
 30
0.0
 11
-19.40738110061098
 21
95.24288099985657
 31
0.0
  0
LINE
  5
128
330
47
100
AcDbEntity
  8
0
  6
Continuous
 62
     2
100
AcDbLine
 10
-21.60708562622345
 20
96.31089370174882
 30
0.0
 11
-20.9142653031959
 21
96.11089370174884
 31
0.0
  0
LINE
  5
129
330
47
100
AcDbEntity
  8
0
  6
Continuous
 62
     2
100
AcDbLine
 10
-30.61374982558161
 20
97.9358937017488
 30
0.0
 11
-30.61374982558161
 21
98.91089370174879
 31
0.0
  0
LINE
  5
12A
330
47
100
AcDbEntity
  8
0
  6
Continuous
 62
     2
100
AcDbLine
 10
-24.98458470098275
 20
96.31089370174882
 30
0.0
 11
-24.98458470098275
 21
97.28589370174882
 31
0.0
  0
LINE
  5
12B
330
47
100
AcDbEntity
  8
0
  6
Continuous
 62
     7
100
AcDbLine
 10
-18.87676530319591
 20
97.87542046195962
 30
0.0
 11
-18.87676530319591
 21
97.44240776006735
 31
0.0
  0
LINE
  5
12C
330
47
100
AcDbEntity
  8
0
  6
Continuous
 62
     2
100
AcDbLine
 10
-27.23625075082231
 20
97.93589370174881
 30
0.0
 11
-24.98458470098275
 21
97.28589370174882
 31
0.0
  0
LINE
  5
12D
330
47
100
AcDbEntity
  8
0
  6
Continuous
 62
     2
100
AcDbLine
 10
-32.86541587542115
 20
99.5608937017488
 30
0.0
 11
-30.61374982558161
 21
98.91089370174879
 31
0.0
  0
LINE
  5
12E
330
47
100
AcDbEntity
  8
0
  6
Continuous
 62
     7
100
AcDbLine
 10
-47.0294829601063
 20
81.4794573369486
 30
0.0
 11
-43.0868559411841
 21
82.6175957222931
 31
0.0
  0
LINE
  5
12F
330
47
100
AcDbEntity
  8
0
  6
Continuous
 62
     7
100
AcDbLine
 10
-47.4169829601063
 20
81.14387249298213
 30
0.0
 11
-43.08685594118411
 21
82.39387249298211
 31
0.0
  0
LINE
  5
130
330
47
100
AcDbEntity
  8
0
  6
Continuous
 62
     7
100
AcDbLine
 10
-47.4169829601063
 20
81.14387249298213
 30
0.0
 11
-47.0294829601063
 21
81.4794573369486
 31
0.0
  0
LINE
  5
131
330
47
100
AcDbEntity
  8
0
  6
Continuous
 62
     7
100
AcDbLine
 10
-43.7294829601063
 20
82.89107874511723
 30
0.0
 11
-43.08685594118411
 21
82.70556830393559
 31
0.0
  0
LINE
  5
132
330
47
100
AcDbEntity
  8
0
  6
Continuous
 62
     7
100
AcDbLine
 10
-43.7294829601063
 20
82.89107874511723
 30
0.0
 11
-43.92823296010631
 21
82.37471109811075
 31
0.0
  0
LINE
  5
133
330
47
100
AcDbEntity
  8
0
  6
Continuous
 62
     7
100
AcDbLine
 10
-25.4684497845854
 20
70.87963799445109
 30
0.0
 11
-24.68125255606336
 21
68.48958711853322
 31
0.0
  0
LINE
  5
134
330
47
100
AcDbEntity
  8
0
  6
Continuous
 62
     7
100
AcDbLine
 10
-24.36006146750741
 20
70.90834090878842
 30
0.0
 11
-25.22431048018059
 21
71.15782810884528
 31
0.0
  0
LINE
  5
135
330
47
100
AcDbEntity
  8
0
  6
Continuous
 62
     7
100
AcDbLine
 10
-22.95176530319591
 20
93.91335423964577
 30
0.0
 11
-22.95176530319591
 21
94.34636694153804
 31
0.0
  0
LINE
  5
136
330
47
100
AcDbEntity
  8
0
  6
Continuous
 62
     7
100
AcDbLine
 10
-24.33740594925101
 20
69.80483531254615
 30
0.0
 11
-24.33740594925101
 21
71.8832962816288
 31
0.0
  0
SPLINE
  5
137
330
47
100
AcDbEntity
  8
0
  6
Continuous
 62
     7
100
AcDbSpline
210
0.0
220
0.0
230
1.0
 70
     8
 71
     3
 72
    11
 73
     7
 74
     5
 42
0.000000001
 43
0.0000000001
 44
0.00000001
 40
0.0
 40
0.0
 40
0.0
 40
0.0
 40
0.0932788028865359
 40
0.1926469665692511
 40
0.3012076762850649
 40
0.4183678142263266
 40
0.4183678142263266
 40
0.4183678142263266
 40
0.4183678142263266
 10
-43.1893070323607
 20
80.39226188345657
 30
0.0
 10
-43.2103948014721
 20
80.36881652162032
 30
0.0
 10
-43.25394696482161
 20
80.3203952458253
 30
0.0
 10
-43.27765346290873
 20
80.21932835950896
 30
0.0
 10
-43.27148668474314
 20
80.1096125699835
 30
0.0
 10
-43.24249412491569
 20
80.03961823754489
 30
0.0
 10
-43.22744556407751
 20
80.00328776467074
 30
0.0
 11
-43.1893070323607
 21
80.39226188345657
 31
0.0
 11
-43.24591445440046
 21
80.31812326064501
 31
0.0
 11
-43.27229166071153
 21
80.22231994249364
 31
0.0
 11
-43.26593387821638
 21
80.11394555933191
 31
0.0
 11
-43.22744556407751
 21
80.00328776467074
 31
0.0
  0
SPLINE
  5
138
330
47
100
AcDbEntity
  8
0
  6
Continuous
 62
     7
100
AcDbSpline
210
0.0
220
0.0
230
1.0
 70
     8
 71
     3
 72
     9
 73
     5
 74
     3
 42
0.000000001
 43
0.0000000001
 44
0.00000001
 40
0.0
 40
0.0
 40
0.0
 40
0.0
 40
0.0404399140588836
 40
0.0816755815182234
 40
0.0816755815182234
 40
0.0816755815182234
 40
0.0816755815182234
 10
-42.86978136509325
 20
80.41482107473107
 30
0.0
 10
-42.86567650098644
 20
80.40196485854949
 30
0.0
 10
-42.85738598086827
 20
80.37599945582937
 30
0.0
 10
-42.84579668017209
 20
80.35132834414046
 30
0.0
 10
-42.83994556407754
 20
80.33887260863726
 30
0.0
 11
-42.86978136509325
 21
80.41482107473107
 31
0.0
 11
-42.85665805986237
 21
80.37656972777441
 31
0.0
 11
-42.83994556407754
 21
80.33887260863726
 31
0.0
  0
SPLINE
  5
139
330
47
100
AcDbEntity
  8
0
  6
Continuous
 62
     7
100
AcDbSpline
210
0.0
220
0.0
230
1.0
 70
     8
 71
     3
 72
    13
 73
     9
 74
     7
 42
0.000000001
 43
0.0000000001
 44
0.00000001
 40
0.0
 40
0.0
 40
0.0
 40
0.0
 40
0.0689570472188241
 40
0.1424654792831226
 40
0.2226695721643281
 40
0.3091155664007818
 40
0.3993955966113598
 40
0.4900706891854542
 40
0.4900706891854542
 40
0.4900706891854542
 40
0.4900706891854542
 10
-36.78993910889651
 20
74.49653750991347
 30
0.0
 10
-36.80954824587187
 20
74.4839783521962
 30
0.0
 10
-36.85006079174565
 20
74.45803110475222
 30
0.0
 10
-36.92659184654172
 20
74.45188871471039
 30
0.0
 10
-37.00554768487495
 20
74.46900460953208
 30
0.0
 10
-37.08195104104023
 20
74.5095976351787
 30
0.0
 10
-37.1505427328327
 20
74.56827672344171
 30
0.0
 10
-37.18355330990961
 20
74.61907541965263
 30
0.0
 10
-37.20009462715292
 20
74.6445302239445
 30
0.0
 11
-36.78993910889651
 21
74.49653750991347
 31
0.0
 11
-36.85074679826072
 21
74.4640182864498
 31
0.0
 11
-36.92376564786112
 21
74.45554845706108
 31
0.0
 11
-37.00228371112529
 21
74.47190727089138
 31
0.0
 11
-37.079083237717
 21
74.51159030127971
 31
0.0
 11
-37.14710436035553
 21
74.5709503109767
 31
0.0
 11
-37.20009462715292
 21
74.6445302239445
 31
0.0
  0
SPLINE
  5
13A
330
47
100
AcDbEntity
  8
0
  6
Continuous
 62
     7
100
AcDbSpline
210
0.0
220
0.0
230
1.0
 70
     8
 71
     3
 72
    11
 73
     7
 74
     5
 42
0.000000001
 43
0.0000000001
 44
0.00000001
 40
0.0
 40
0.0
 40
0.0
 40
0.0
 40
0.048331607197233
 40
0.0982821809032094
 40
0.1510507047030047
 40
0.2071930616845396
 40
0.2071930616845396
 40
0.2071930616845396
 40
0.2071930616845396
 10
-37.17998437741916
 20
74.95242297391337
 30
0.0
 10
-37.16687058454012
 20
74.96197793344464
 30
0.0
 10
-37.14020371754201
 20
74.9814079029992
 30
0.0
 10
-37.09086137841506
 20
74.99518667410312
 30
0.0
 10
-37.03744201378393
 20
74.9978707648186
 30
0.0
 10
-37.00190646051329
 20
74.98967615142216
 30
0.0
 10
-36.98358827620679
 20
74.98545191124315
 30
0.0
 11
-37.17998437741916
 21
74.95242297391337
 31
0.0
 11
-37.13932789907167
 21
74.97855715103627
 31
0.0
 11
-37.09154863288276
 21
74.99312429969444
 31
0.0
 11
-37.03883174089201
 21
74.99545810421155
 31
0.0
 11
-36.98358827620679
 21
74.98545191124315
 31
0.0
  0
SPLINE
  5
13B
330
47
100
AcDbEntity
  8
0
  6
Continuous
 62
     7
100
AcDbSpline
210
0.0
220
0.0
230
1.0
 70
     8
 71
     3
 72
     9
 73
     5
 74
     3
 42
0.000000001
 43
0.0000000001
 44
0.00000001
 40
0.0
 40
0.0
 40
0.0
 40
0.0
 40
0.0144533063461804
 40
0.0288609507408724
 40
0.0288609507408724
 40
0.0288609507408724
 40
0.0288609507408724
 10
-37.20009462715292
 20
74.93175835627122
 30
0.0
 10
-37.1969576988339
 20
74.93542211559426
 30
0.0
 10
-37.19069373800953
 20
74.94273804580072
 30
0.0
 10
-37.18355040170154
 20
74.94919807616061
 30
0.0
 10
-37.17998437741916
 20
74.95242297391337
 30
0.0
 11
-37.20009462715292
 21
74.93175835627122
 31
0.0
 11
-37.19046329467012
 21
74.94253497500037
 31
0.0
 11
-37.17998437741916
 21
74.95242297391337
 31
0.0
  0
SPLINE
  5
13C
330
47
100
AcDbEntity
  8
0
  6
Continuous
 62
     7
100
AcDbSpline
210
0.0
220
0.0
230
1.0
 70
     8
 71
     3
 72
    13
 73
     9
 74
     7
 42
0.000000001
 43
0.0000000001
 44
0.00000001
 40
0.0
 40
0.0
 40
0.0
 40
0.0
 40
0.0859161566817823
 40
0.1799233388921805
 40
0.2842776619556642
 40
0.3957231036299826
 40
0.5079469229172962
 40
0.6143293043122322
 40
0.6143293043122322
 40
0.6143293043122322
 40
0.6143293043122322
 10
-36.41493910889652
 20
74.8212970363326
 30
0.0
 10
-36.44003061386756
 20
74.80637811208506
 30
0.0
 10
-36.49257658445899
 20
74.77513530897897
 30
0.0
 10
-36.59181327483426
 20
74.78059240659672
 30
0.0
 10
-36.6885353587635
 20
74.81976902455548
 30
0.0
 10
-36.77373807264114
 20
74.89041504000534
 30
0.0
 10
-36.83955015842743
 20
74.98152003444785
 30
0.0
 10
-36.85716100774741
 20
75.05282122374525
 30
0.0
 10
-36.86573113334963
 20
75.0875191909749
 30
0.0
 11
-36.41493910889652
 21
74.8212970363326
 31
0.0
 11
-36.49255365552861
 21
74.78445183376138
 31
0.0
 11
-36.58655808343023
 21
74.78517232835407
 31
0.0
 11
-36.68367447267401
 21
74.82335913775783
 31
0.0
 11
-36.77018494242682
 21
74.89361599062067
 31
0.0
 11
-36.83386844087721
 21
74.98602052317423
 31
0.0
 11
-36.86573113334963
 21
75.0875191909749
 31
0.0
  0
SPLINE
  5
13D
330
47
100
AcDbEntity
  8
0
  6
Continuous
 62
     7
100
AcDbSpline
210
0.0
220
0.0
230
1.0
 70
     8
 71
     3
 72
    15
 73
    11
 74
     9
 42
0.000000001
 43
0.0000000001
 44
0.00000001
 40
0.0
 40
0.0
 40
0.0
 40
0.0
 40
0.1156413218894544
 40
0.243812276713898
 40
0.3841255116496893
 40
0.5306070563074546
 40
0.6748805008821944
 40
0.8094010599027199
 40
0.9307018870354534
 40
1.042185834707233
 40
1.042185834707233
 40
1.042185834707233
 40
1.042185834707233
 10
-15.01005501232643
 20
76.1155869845031
 30
0.0
 10
-14.99276357239614
 20
76.15069835505126
 30
0.0
 10
-14.95630719420674
 20
76.22472538680113
 30
0.0
 10
-14.9661014050193
 20
76.35748474571326
 30
0.0
 10
-15.01584511833189
 20
76.48768591011753
 30
0.0
 10
-15.10393979515093
 20
76.60373179557887
 30
0.0
 10
-15.21831038538214
 20
76.69101075027001
 30
0.0
 10
-15.34471832091816
 20
76.73738867239162
 30
0.0
 10
-15.47300118143089
 20
76.74007437978247
 30
0.0
 10
-15.53988491155668
 20
76.69794334385966
 30
0.0
 10
-15.57191648060962
 20
76.6777661840458
 30
0.0
 11
-15.01005501232643
 21
76.1155869845031
 31
0.0
 11
-14.96778061858733
 21
76.223224299569
 31
0.0
 11
-14.97156645254437
 21
76.35133933389864
 31
0.0
 11
-15.02090568994874
 21
76.4826916992013
 31
0.0
 11
-15.10915605792706
 21
76.59960498097611
 31
0.0
 11
-15.22444317753975
 21
76.6863442867341
 31
0.0
 11
-15.35125117243815
 21
76.73123876455492
 31
0.0
 11
-15.47251503520026
 21
76.72824414223618
 31
0.0
 11
-15.57191648060962
 21
76.6777661840458
 31
0.0
  0
SPLINE
  5
13E
330
47
100
AcDbEntity
  8
0
  6
Continuous
 62
     7
100
AcDbSpline
210
0.0
220
0.0
230
1.0
 70
     8
 71
     3
 72
     9
 73
     5
 74
     3
 42
0.000000001
 43
0.0000000001
 44
0.00000001
 40
0.0
 40
0.0
 40
0.0
 40
0.0
 40
0.0285331197585905
 40
0.0572642489233508
 40
0.0572642489233508
 40
0.0572642489233508
 40
0.0572642489233508
 10
-15.57191648060962
 20
76.6777661840458
 30
0.0
 10
-15.57891943964992
 20
76.67129599371145
 30
0.0
 10
-15.59297394129061
 20
76.65831069852266
 30
0.0
 10
-15.60434821701976
 20
76.64292279118195
 30
0.0
 10
-15.61005501232641
 20
76.63520222677379
 30
0.0
 11
-15.57191648060962
 21
76.6777661840458
 31
0.0
 11
-15.59225992019299
 21
76.65775909967684
 31
0.0
 11
-15.61005501232641
 21
76.63520222677379
 31
0.0
  0
SPLINE
  5
13F
330
47
100
AcDbEntity
  8
0
  6
Continuous
 62
     7
100
AcDbSpline
210
0.0
220
0.0
230
1.0
 70
     8
 71
     3
 72
    15
 73
    11
 74
     9
 42
0.000000001
 43
0.0000000001
 44
0.00000001
 40
0.0
 40
0.0
 40
0.0
 40
0.0
 40
0.1156413218894525
 40
0.2438122767138817
 40
0.3841255116496857
 40
0.5306070563074531
 40
0.674880500882183
 40
0.8094010599027152
 40
0.930701887035449
 40
1.042185834707219
 40
1.042185834707219
 40
1.042185834707219
 40
1.042185834707219
 10
-18.69755501232643
 20
72.92211830804798
 30
0.0
 10
-18.68026357239615
 20
72.95722967859618
 30
0.0
 10
-18.64380719420674
 20
73.03125671034599
 30
0.0
 10
-18.65360140501931
 20
73.16401606925817
 30
0.0
 10
-18.70334511833188
 20
73.29421723366241
 30
0.0
 10
-18.79143979515094
 20
73.41026311912377
 30
0.0
 10
-18.90581038538214
 20
73.49754207381488
 30
0.0
 10
-19.03221832091817
 20
73.54391999593649
 30
0.0
 10
-19.16050118143089
 20
73.54660570332732
 30
0.0
 10
-19.22738491155669
 20
73.50447466740454
 30
0.0
 10
-19.25941648060963
 20
73.48429750759068
 30
0.0
 11
-18.69755501232643
 21
72.92211830804798
 31
0.0
 11
-18.65528061858733
 21
73.02975562311389
 31
0.0
 11
-18.65906645254437
 21
73.15787065744351
 31
0.0
 11
-18.70840568994874
 21
73.28922302274619
 31
0.0
 11
-18.79665605792706
 21
73.406136304521
 31
0.0
 11
-18.91194317753975
 21
73.49287561027897
 31
0.0
 11
-19.03875117243815
 21
73.53777008809979
 31
0.0
 11
-19.16001503520027
 21
73.53477546578104
 31
0.0
 11
-19.25941648060963
 21
73.48429750759068
 31
0.0
  0
SPLINE
  5
140
330
47
100
AcDbEntity
  8
0
  6
Continuous
 62
     7
100
AcDbSpline
210
0.0
220
0.0
230
1.0
 70
     8
 71
     3
 72
     9
 73
     5
 74
     3
 42
0.000000001
 43
0.0000000001
 44
0.00000001
 40
0.0
 40
0.0
 40
0.0
 40
0.0
 40
0.0285331197586054
 40
0.0572642489233523
 40
0.0572642489233523
 40
0.0572642489233523
 40
0.0572642489233523
 10
-19.25941648060963
 20
73.48429750759068
 30
0.0
 10
-19.26641943964992
 20
73.47782731725633
 30
0.0
 10
-19.28047394129061
 20
73.46484202206756
 30
0.0
 10
-19.29184821701975
 20
73.44945411472679
 30
0.0
 10
-19.29755501232641
 20
73.44173355031866
 30
0.0
 11
-19.25941648060963
 21
73.48429750759068
 31
0.0
 11
-19.27975992019299
 21
73.4642904232217
 31
0.0
 11
-19.29755501232641
 21
73.44173355031866
 31
0.0
  0
SPLINE
  5
141
330
47
100
AcDbEntity
  8
0
  6
Continuous
 62
     7
100
AcDbSpline
210
0.0
220
0.0
230
1.0
 70
     8
 71
     3
 72
    11
 73
     7
 74
     5
 42
0.000000001
 43
0.0000000001
 44
0.00000001
 40
0.0
 40
0.0
 40
0.0
 40
0.0
 40
0.0561423569815339
 40
0.1089108807813298
 40
0.1588614544873274
 40
0.2071930616845651
 40
0.2071930616845651
 40
0.2071930616845651
 40
0.2071930616845651
 10
-24.84931048018061
 20
71.48258763526444
 30
0.0
 10
-24.86762866448711
 20
71.48681187544345
 30
0.0
 10
-24.90316421775774
 20
71.49500648883993
 30
0.0
 10
-24.9565835823889
 20
71.49232239812443
 30
0.0
 10
-25.00592592151583
 20
71.47854362702049
 30
0.0
 10
-25.03259278851396
 20
71.45911365746589
 30
0.0
 10
-25.04570658139299
 20
71.44955869793463
 30
0.0
 11
-24.84931048018061
 21
71.48258763526444
 31
0.0
 11
-24.90455394486583
 21
71.49259382823286
 31
0.0
 11
-24.95727083685658
 21
71.49026002371573
 31
0.0
 11
-25.00505010304551
 21
71.47569287505755
 31
0.0
 11
-25.04570658139299
 21
71.44955869793463
 31
0.0
  0
SPLINE
  5
142
330
47
100
AcDbEntity
  8
0
  6
Continuous
 62
     7
100
AcDbSpline
210
0.0
220
0.0
230
1.0
 70
     8
 71
     3
 72
    13
 73
     9
 74
     7
 42
0.000000001
 43
0.0000000001
 44
0.00000001
 40
0.0
 40
0.0
 40
0.0
 40
0.0
 40
0.0896156609155282
 40
0.1840711743114641
 40
0.2795000711968575
 40
0.3717621996083047
 40
0.4576337086859509
 40
0.5360052745784486
 40
0.5360052745784486
 40
0.5360052745784486
 40
0.5360052745784486
 10
-35.92569009622331
 20
74.2470503098566
 30
0.0
 10
-35.89766693007597
 20
74.23620706479748
 30
0.0
 10
-35.84010716317196
 20
74.21393495251348
 30
0.0
 10
-35.76775099216692
 20
74.15289973085092
 30
0.0
 10
-35.7099668990381
 20
74.0777226859618
 30
0.0
 10
-35.67395647080869
 20
73.9932565759903
 30
0.0
 10
-35.65995496763129
 20
73.90666972563542
 30
0.0
 10
-35.67457470958253
 20
73.85334917163642
 30
0.0
 10
-35.68155079181848
 20
73.82790630234452
 30
0.0
 11
-35.92569009622331
 21
74.2470503098566
 31
0.0
 11
-35.84396904404939
 21
74.21027210680978
 31
0.0
 11
-35.77054374307248
 21
74.15085351291073
 31
0.0
 11
-35.71286834147931
 21
74.07482573699261
 31
0.0
 11
-35.67679711995602
 21
73.98990714092218
 31
0.0
 11
-35.66599261759126
 21
73.904718059254
 31
0.0
 11
-35.68155079181848
 21
73.82790630234452
 31
0.0
  0
SPLINE
  5
143
330
47
100
AcDbEntity
  8
0
  6
Continuous
 62
     7
100
AcDbSpline
210
0.0
220
0.0
230
1.0
 70
     8
 71
     3
 72
    13
 73
     9
 74
     7
 42
0.000000001
 43
0.0000000001
 44
0.00000001
 40
0.0
 40
0.0
 40
0.0
 40
0.0
 40
0.0896156609155159
 40
0.1840711743114629
 40
0.2795000711968633
 40
0.3717621996082815
 40
0.4576337086859427
 40
0.5360052745784432
 40
0.5360052745784432
 40
0.5360052745784432
 40
0.5360052745784432
 10
-35.55069009622332
 20
74.57180983627575
 30
0.0
 10
-35.52266693007597
 20
74.56096659121663
 30
0.0
 10
-35.46510716317199
 20
74.53869447893264
 30
0.0
 10
-35.39275099216691
 20
74.47765925727006
 30
0.0
 10
-35.33496689903811
 20
74.40248221238095
 30
0.0
 10
-35.2989564708087
 20
74.31801610240946
 30
0.0
 10
-35.2849549676313
 20
74.23142925205461
 30
0.0
 10
-35.29957470958254
 20
74.17810869805557
 30
0.0
 10
-35.3065507918185
 20
74.15266582876367
 30
0.0
 11
-35.55069009622332
 21
74.57180983627575
 31
0.0
 11
-35.46896904404941
 21
74.53503163322894
 31
0.0
 11
-35.39554374307248
 21
74.47561303932989
 31
0.0
 11
-35.33786834147932
 21
74.39958526341175
 31
0.0
 11
-35.30179711995603
 21
74.31466666734136
 31
0.0
 11
-35.29099261759126
 21
74.22947758567315
 31
0.0
 11
-35.3065507918185
 21
74.15266582876367
 31
0.0
  0
SPLINE
  5
144
330
47
100
AcDbEntity
  8
0
  6
Continuous
 62
     7
100
AcDbSpline
210
0.0
220
0.0
230
1.0
 70
     8
 71
     3
 72
    17
 73
    13
 74
    11
 42
0.000000001
 43
0.0000000001
 44
0.00000001
 40
0.0
 40
0.0
 40
0.0
 40
0.0
 40
0.2609496472310448
 40
0.5663106474643236
 40
0.9361865014816605
 40
1.368747921305707
 40
1.849031366287003
 40
2.354820655287904
 40
2.860609944065771
 40
3.34089338813801
 40
3.77345480856926
 40
4.143330668260182
 40
4.143330668260182
 40
4.143330668260182
 40
4.143330668260182
 10
-32.60416541280081
 20
100.0483937017488
 30
0.0
 10
-32.61902398164973
 20
100.1357676263022
 30
0.0
 10
-32.65126992906928
 20
100.3253857498855
 30
0.0
 10
-32.87484789881228
 20
100.562756764915
 30
0.0
 10
-33.18734411940831
 20
100.7593655719242
 30
0.0
 10
-33.59166448973679
 20
100.9086395822587
 30
0.0
 10
-34.05642675042139
 20
101.0023219562813
 30
0.0
 10
-34.55409293264026
 20
101.0340912815241
 30
0.0
 10
-35.05218663484911
 20
101.0027540700626
 30
0.0
 10
-35.51577029060519
 20
100.9070793472799
 30
0.0
 10
-35.9237745964961
 20
100.7642640578988
 30
0.0
 10
-36.14222315867573
 20
100.6079467078563
 30
0.0
 10
-36.24291495018046
 20
100.5358937017488
 30
0.0
 11
-32.60416541280081
 21
100.0483937017488
 31
0.0
 11
-32.67061055370385
 21
100.3007422034461
 31
0.0
 11
-32.86541587542116
 21
100.5358937017488
 31
0.0
 11
-33.17530755709861
 21
100.7378226295999
 31
0.0
 11
-33.57916541280082
 21
100.8927684704387
 31
0.0
 11
-34.04946840940606
 21
100.9901711312973
 31
0.0
 11
-34.55416541280081
 21
101.0233937017488
 31
0.0
 11
-35.05886241619555
 21
100.9901711312973
 31
0.0
 11
-35.52916541280081
 21
100.8927684704386
 31
0.0
 11
-35.93302326850302
 21
100.7378226295999
 31
0.0
 11
-36.24291495018046
 21
100.5358937017488
 31
0.0
  0
SPLINE
  5
145
330
47
100
AcDbEntity
  8
0
  6
Continuous
 62
     7
100
AcDbSpline
210
0.0
220
0.0
230
1.0
 70
     8
 71
     3
 72
    17
 73
    13
 74
    11
 42
0.000000001
 43
0.0000000001
 44
0.00000001
 40
0.0
 40
0.0
 40
0.0
 40
0.0
 40
0.260949647231064
 40
0.5663106474643427
 40
0.9361865014816486
 40
1.3687479213057
 40
1.849031366287007
 40
2.354820655287901
 40
2.860609944065768
 40
3.340893388137998
 40
3.773454808569253
 40
4.143330668260191
 40
4.143330668260191
 40
4.143330668260191
 40
4.143330668260191
 10
-36.50416541280082
 20
100.0483937017488
 30
0.0
 10
-36.4893068439519
 20
99.9610197771954
 30
0.0
 10
-36.45706089653232
 20
99.77140165361206
 30
0.0
 10
-36.23348292678936
 20
99.53403063858256
 30
0.0
 10
-35.92098670619326
 20
99.33742183157341
 30
0.0
 10
-35.51666633586483
 20
99.18814782123889
 30
0.0
 10
-35.05190407518022
 20
99.09446544721627
 30
0.0
 10
-34.55423789296135
 20
99.0626961219734
 30
0.0
 10
-34.05614419075253
 20
99.09403333343509
 30
0.0
 10
-33.59256053499641
 20
99.18970805621764
 30
0.0
 10
-33.18455622910551
 20
99.33252334559882
 30
0.0
 10
-32.96610766692587
 20
99.48884069564133
 30
0.0
 10
-32.86541587542115
 20
99.5608937017488
 30
0.0
 11
-36.50416541280082
 21
100.0483937017488
 31
0.0
 11
-36.43772027189776
 21
99.79604520005142
 31
0.0
 11
-36.24291495018045
 21
99.56089370174878
 31
0.0
 11
-35.93302326850301
 21
99.35896477389768
 31
0.0
 11
-35.52916541280079
 21
99.20401893305896
 31
0.0
 11
-35.05886241619555
 21
99.10661627220031
 31
0.0
 11
-34.55416541280081
 21
99.07339370174878
 31
0.0
 11
-34.04946840940606
 21
99.10661627220031
 31
0.0
 11
-33.5791654128008
 21
99.20401893305896
 31
0.0
 11
-33.17530755709859
 21
99.35896477389768
 31
0.0
 11
-32.86541587542115
 21
99.5608937017488
 31
0.0
  0
SPLINE
  5
146
330
47
100
AcDbEntity
  8
0
  6
Continuous
 62
     7
100
AcDbSpline
210
0.0
220
0.0
230
1.0
 70
     8
 71
     3
 72
     9
 73
     5
 74
     3
 42
0.000000001
 43
0.0000000001
 44
0.00000001
 40
0.0
 40
0.0
 40
0.0
 40
0.0
 40
0.3053609981765448
 40
0.5663106521980104
 40
0.5663106521980104
 40
0.5663106521980104
 40
0.5663106521980104
 10
-36.24291495018046
 20
100.5358937017488
 30
0.0
 10
-36.31836932883449
 20
100.4629149672233
 30
0.0
 10
-36.45830407388139
 20
100.3275714290856
 30
0.0
 10
-36.4896989919109
 20
100.1364570749538
 30
0.0
 10
-36.50416541280082
 20
100.0483937017488
 30
0.0
 11
-36.24291495018046
 21
100.5358937017488
 31
0.0
 11
-36.43772027189777
 21
100.3007422034461
 31
0.0
 11
-36.50416541280082
 21
100.0483937017488
 31
0.0
  0
SPLINE
  5
147
330
47
100
AcDbEntity
  8
0
  6
Continuous
 62
     7
100
AcDbSpline
210
0.0
220
0.0
230
1.0
 70
     8
 71
     3
 72
     9
 73
     5
 74
     3
 42
0.000000001
 43
0.0000000001
 44
0.00000001
 40
0.0
 40
0.0
 40
0.0
 40
0.0
 40
0.3053609981765029
 40
0.5663106521979941
 40
0.5663106521979941
 40
0.5663106521979941
 40
0.5663106521979941
 10
-32.86541587542115
 20
99.5608937017488
 30
0.0
 10
-32.78996149676712
 20
99.63387243627422
 30
0.0
 10
-32.65002675172022
 20
99.769215974412
 30
0.0
 10
-32.61863183369073
 20
99.9603303285438
 30
0.0
 10
-32.60416541280081
 20
100.0483937017488
 30
0.0
 11
-32.86541587542115
 21
99.5608937017488
 31
0.0
 11
-32.67061055370385
 21
99.79604520005141
 31
0.0
 11
-32.60416541280081
 21
100.0483937017488
 31
0.0
  0
SPLINE
  5
148
330
47
100
AcDbEntity
  8
0
  6
Continuous
 62
     7
100
AcDbSpline
210
0.0
220
0.0
230
1.0
 70
     8
 71
     3
 72
    17
 73
    13
 74
    11
 42
0.000000001
 43
0.0000000001
 44
0.00000001
 40
0.0
 40
0.0
 40
0.0
 40
0.0
 40
0.2609496472310759
 40
0.5663106474643196
 40
0.9361865014816302
 40
1.368747921305682
 40
1.849031366286988
 40
2.354820655287889
 40
2.86060994406576
 40
3.34089338813798
 40
3.773454808569227
 40
4.14333066826016
 40
4.14333066826016
 40
4.14333066826016
 40
4.14333066826016
 10
-21.3458351636031
 20
96.79839370174884
 30
0.0
 10
-21.36069373245202
 20
96.88576762630225
 30
0.0
 10
-21.39293967987158
 20
97.07538574988556
 30
0.0
 10
-21.61651764961458
 20
97.31275676491504
 30
0.0
 10
-21.92901387021064
 20
97.50936557192422
 30
0.0
 10
-22.33333424053908
 20
97.65863958225873
 30
0.0
 10
-22.79809650122369
 20
97.75232195628136
 30
0.0
 10
-23.29576268344256
 20
97.78409128152416
 30
0.0
 10
-23.7938563856514
 20
97.75275407006257
 30
0.0
 10
-24.25744004140749
 20
97.65707934727993
 30
0.0
 10
-24.6654443472984
 20
97.51426405789883
 30
0.0
 10
-24.88389290947801
 20
97.35794670785624
 30
0.0
 10
-24.98458470098275
 20
97.28589370174882
 30
0.0
 11
-21.3458351636031
 21
96.79839370174884
 31
0.0
 11
-21.41228030450615
 21
97.05074220344622
 31
0.0
 11
-21.60708562622346
 21
97.28589370174882
 31
0.0
 11
-21.9169773079009
 21
97.48782262959993
 31
0.0
 11
-22.32083516360311
 21
97.64276847043865
 31
0.0
 11
-22.79113816020836
 21
97.7401711312973
 31
0.0
 11
-23.29583516360311
 21
97.77339370174882
 31
0.0
 11
-23.80053216699786
 21
97.74017113129729
 31
0.0
 11
-24.2708351636031
 21
97.64276847043865
 31
0.0
 11
-24.67469301930531
 21
97.48782262959992
 31
0.0
 11
-24.98458470098275
 21
97.28589370174882
 31
0.0
  0
SPLINE
  5
149
330
47
100
AcDbEntity
  8
0
  6
Continuous
 62
     7
100
AcDbSpline
210
0.0
220
0.0
230
1.0
 70
     8
 71
     3
 72
    17
 73
    13
 74
    11
 42
0.000000001
 43
0.0000000001
 44
0.00000001
 40
0.0
 40
0.0
 40
0.0
 40
0.0
 40
0.260949647231043
 40
0.5663106474643108
 40
0.9361865014816293
 40
1.368747921305682
 40
1.849031366286992
 40
2.354820655287885
 40
2.860609944065753
 40
3.340893388137986
 40
3.773454808569228
 40
4.143330668260174
 40
4.143330668260174
 40
4.143330668260174
 40
4.143330668260174
 10
-25.2458351636031
 20
96.79839370174881
 30
0.0
 10
-25.23097659475419
 20
96.71101977719543
 30
0.0
 10
-25.19873064733463
 20
96.52140165361209
 30
0.0
 10
-24.97515267759164
 20
96.2840306385826
 30
0.0
 10
-24.66265645699558
 20
96.08742183157338
 30
0.0
 10
-24.25833608666712
 20
95.93814782123893
 30
0.0
 10
-23.79357382598251
 20
95.84446544721624
 30
0.0
 10
-23.29590764376366
 20
95.81269612197346
 30
0.0
 10
-22.79781394155481
 20
95.84403333343505
 30
0.0
 10
-22.33423028579872
 20
95.93970805621774
 30
0.0
 10
-21.92622597990781
 20
96.08252334559879
 30
0.0
 10
-21.70777741772818
 20
96.23884069564137
 30
0.0
 10
-21.60708562622345
 20
96.31089370174882
 30
0.0
 11
-25.2458351636031
 21
96.79839370174881
 31
0.0
 11
-25.17939002270007
 21
96.54604520005145
 31
0.0
 11
-24.98458470098276
 21
96.31089370174882
 31
0.0
 11
-24.67469301930531
 21
96.1089647738977
 31
0.0
 11
-24.2708351636031
 21
95.95401893305899
 31
0.0
 11
-23.80053216699785
 21
95.85661627220033
 31
0.0
 11
-23.29583516360311
 21
95.82339370174881
 31
0.0
 11
-22.79113816020836
 21
95.85661627220034
 31
0.0
 11
-22.32083516360311
 21
95.95401893305899
 31
0.0
 11
-21.9169773079009
 21
96.10896477389771
 31
0.0
 11
-21.60708562622345
 21
96.31089370174882
 31
0.0
  0
SPLINE
  5
14A
330
47
100
AcDbEntity
  8
0
  6
Continuous
 62
     7
100
AcDbSpline
210
0.0
220
0.0
230
1.0
 70
     8
 71
     3
 72
     9
 73
     5
 74
     3
 42
0.000000001
 43
0.0000000001
 44
0.00000001
 40
0.0
 40
0.0
 40
0.0
 40
0.0
 40
0.305360998176523
 40
0.5663106521980142
 40
0.5663106521980142
 40
0.5663106521980142
 40
0.5663106521980142
 10
-21.60708562622345
 20
96.31089370174882
 30
0.0
 10
-21.53163124756941
 20
96.38387243627425
 30
0.0
 10
-21.3916965025225
 20
96.51921597441205
 30
0.0
 10
-21.36030158449303
 20
96.71033032854382
 30
0.0
 10
-21.3458351636031
 20
96.79839370174884
 30
0.0
 11
-21.60708562622345
 21
96.31089370174882
 31
0.0
 11
-21.41228030450614
 21
96.54604520005145
 31
0.0
 11
-21.3458351636031
 21
96.79839370174884
 31
0.0
  0
SPLINE
  5
14B
330
47
100
AcDbEntity
  8
0
  6
Continuous
 62
     7
100
AcDbSpline
210
0.0
220
0.0
230
1.0
 70
     8
 71
     3
 72
     9
 73
     5
 74
     3
 42
0.000000001
 43
0.0000000001
 44
0.00000001
 40
0.0
 40
0.0
 40
0.0
 40
0.0
 40
0.3053609981765207
 40
0.5663106521980119
 40
0.5663106521980119
 40
0.5663106521980119
 40
0.5663106521980119
 10
-24.98458470098275
 20
97.28589370174882
 30
0.0
 10
-25.06003907963678
 20
97.21291496722337
 30
0.0
 10
-25.1999738246837
 20
97.0775714290856
 30
0.0
 10
-25.23136874271317
 20
96.8864570749538
 30
0.0
 10
-25.2458351636031
 20
96.79839370174881
 30
0.0
 11
-24.98458470098275
 21
97.28589370174882
 31
0.0
 11
-25.17939002270006
 21
97.05074220344619
 31
0.0
 11
-25.2458351636031
 21
96.79839370174881
 31
0.0
  0
SPLINE
  5
14C
330
47
100
AcDbEntity
  8
0
  6
Continuous
 62
     7
100
AcDbSpline
210
0.0
220
0.0
230
1.0
 70
     8
 71
     3
 72
     9
 73
     5
 74
     3
 42
0.000000001
 43
0.0000000001
 44
0.00000001
 40
0.0
 40
0.0
 40
0.0
 40
0.0
 40
0.3053609981765362
 40
0.5663106521980008
 40
0.5663106521980008
 40
0.5663106521980008
 40
0.5663106521980008
 10
-27.23625075082231
 20
97.93589370174881
 30
0.0
 10
-27.16079637216828
 20
98.00887243627427
 30
0.0
 10
-27.02086162712137
 20
98.14421597441202
 30
0.0
 10
-26.98946670909188
 20
98.33533032854385
 30
0.0
 10
-26.97500028820195
 20
98.42339370174881
 30
0.0
 11
-27.23625075082231
 21
97.93589370174881
 31
0.0
 11
-27.041445429105
 21
98.17104520005145
 31
0.0
 11
-26.97500028820195
 21
98.42339370174881
 31
0.0
  0
SPLINE
  5
14D
330
47
100
AcDbEntity
  8
0
  6
Continuous
 62
     7
100
AcDbSpline
210
0.0
220
0.0
230
1.0
 70
     8
 71
     3
 72
    17
 73
    13
 74
    11
 42
0.000000001
 43
0.0000000001
 44
0.00000001
 40
0.0
 40
0.0
 40
0.0
 40
0.0
 40
0.2609496472310741
 40
0.5663106474643287
 40
0.9361865014816393
 40
1.368747921305689
 40
1.849031366287006
 40
2.354820655287904
 40
2.860609944065767
 40
3.340893388137993
 40
3.773454808569241
 40
4.143330668260185
 40
4.143330668260185
 40
4.143330668260185
 40
4.143330668260185
 10
-26.97500028820195
 20
98.42339370174881
 30
0.0
 10
-26.98985885705086
 20
98.51076762630218
 30
0.0
 10
-27.02210480447043
 20
98.70038574988554
 30
0.0
 10
-27.24568277421341
 20
98.93775676491501
 30
0.0
 10
-27.55817899480948
 20
99.1343655719242
 30
0.0
 10
-27.96249936513794
 20
99.28363958225869
 30
0.0
 10
-28.42726162582255
 20
99.37732195628134
 30
0.0
 10
-28.92492780804141
 20
99.40909128152416
 30
0.0
 10
-29.42302151025025
 20
99.37775407006257
 30
0.0
 10
-29.88660516600635
 20
99.2820793472799
 30
0.0
 10
-30.29460947189725
 20
99.1392640578988
 30
0.0
 10
-30.51305803407687
 20
98.98294670785623
 30
0.0
 10
-30.61374982558161
 20
98.91089370174879
 30
0.0
 11
-26.97500028820195
 21
98.42339370174881
 31
0.0
 11
-27.041445429105
 21
98.67574220344619
 31
0.0
 11
-27.2362507508223
 21
98.9108937017488
 31
0.0
 11
-27.54614243249975
 21
99.11282262959992
 31
0.0
 11
-27.95000028820196
 21
99.26776847043863
 31
0.0
 11
-28.42030328480722
 21
99.36517113129727
 31
0.0
 11
-28.92500028820196
 21
99.3983937017488
 31
0.0
 11
-29.42969729159671
 21
99.36517113129729
 31
0.0
 11
-29.90000028820195
 21
99.26776847043863
 31
0.0
 11
-30.30385814390416
 21
99.1128226295999
 31
0.0
 11
-30.61374982558161
 21
98.91089370174879
 31
0.0
  0
SPLINE
  5
14E
330
47
100
AcDbEntity
  8
0
  6
Continuous
 62
     7
100
AcDbSpline
210
0.0
220
0.0
230
1.0
 70
     8
 71
     3
 72
     9
 73
     5
 74
     3
 42
0.000000001
 43
0.0000000001
 44
0.00000001
 40
0.0
 40
0.0
 40
0.0
 40
0.0
 40
0.305360998176523
 40
0.5663106521979858
 40
0.5663106521979858
 40
0.5663106521979858
 40
0.5663106521979858
 10
-30.61374982558161
 20
98.91089370174879
 30
0.0
 10
-30.68920420423563
 20
98.83791496722333
 30
0.0
 10
-30.82913894928257
 20
98.7025714290856
 30
0.0
 10
-30.86053386731203
 20
98.51145707495377
 30
0.0
 10
-30.87500028820196
 20
98.42339370174881
 30
0.0
 11
-30.61374982558161
 21
98.91089370174879
 31
0.0
 11
-30.80855514729892
 21
98.67574220344616
 31
0.0
 11
-30.87500028820196
 21
98.42339370174881
 31
0.0
  0
SPLINE
  5
14F
330
47
100
AcDbEntity
  8
0
  6
Continuous
 62
     7
100
AcDbSpline
210
0.0
220
0.0
230
1.0
 70
     8
 71
     3
 72
    17
 73
    13
 74
    11
 42
0.000000001
 43
0.0000000001
 44
0.00000001
 40
0.0
 40
0.0
 40
0.0
 40
0.0
 40
0.2609496472310714
 40
0.5663106474643392
 40
0.9361865014816451
 40
1.3687479213057
 40
1.849031366287013
 40
2.354820655287909
 40
2.860609944065775
 40
3.340893388138004
 40
3.773454808569253
 40
4.14333066826019
 40
4.14333066826019
 40
4.14333066826019
 40
4.14333066826019
 10
-30.87500028820196
 20
98.42339370174881
 30
0.0
 10
-30.86014171935305
 20
98.33601977719542
 30
0.0
 10
-30.82789577193349
 20
98.14640165361209
 30
0.0
 10
-30.60431780219051
 20
97.90903063858258
 30
0.0
 10
-30.29182158159443
 20
97.71242183157342
 30
0.0
 10
-29.88750121126599
 20
97.56314782123894
 30
0.0
 10
-29.42273895058137
 20
97.46946544721622
 30
0.0
 10
-28.92507276836251
 20
97.43769612197349
 30
0.0
 10
-28.42697906615366
 20
97.469033333435
 30
0.0
 10
-27.96339541039759
 20
97.56470805621773
 30
0.0
 10
-27.55539110450666
 20
97.70752334559877
 30
0.0
 10
-27.33694254232705
 20
97.86384069564136
 30
0.0
 10
-27.23625075082231
 20
97.93589370174881
 30
0.0
 11
-30.87500028820196
 21
98.42339370174881
 31
0.0
 11
-30.80855514729892
 21
98.17104520005142
 31
0.0
 11
-30.61374982558161
 21
97.9358937017488
 31
0.0
 11
-30.30385814390416
 21
97.7339647738977
 31
0.0
 11
-29.90000028820195
 21
97.57901893305898
 31
0.0
 11
-29.4296972915967
 21
97.48161627220031
 31
0.0
 11
-28.92500028820196
 21
97.44839370174881
 31
0.0
 11
-28.42030328480721
 21
97.48161627220031
 31
0.0
 11
-27.95000028820196
 21
97.57901893305898
 31
0.0
 11
-27.54614243249975
 21
97.7339647738977
 31
0.0
 11
-27.23625075082231
 21
97.93589370174881
 31
0.0
  0
SPLINE
  5
150
330
47
100
AcDbEntity
  8
0
  6
Continuous
 62
     7
100
AcDbSpline
210
0.0
220
0.0
230
1.0
 70
     8
 71
     3
 72
    13
 73
     9
 74
     7
 42
0.000000001
 43
0.0000000001
 44
0.00000001
 40
0.0
 40
0.0
 40
0.0
 40
0.0
 40
0.1255800882744542
 40
0.2514394723788405
 40
0.3722859336806057
 40
0.4842772521528892
 40
0.5865428744461488
 40
0.6822735524187691
 40
0.6822735524187691
 40
0.6822735524187691
 40
0.6822735524187691
 10
-42.62744556407749
 20
80.17649284542762
 30
0.0
 10
-42.64878748758098
 20
80.21273641247136
 30
0.0
 10
-42.69151881183402
 20
80.28530414604649
 30
0.0
 10
-42.78452910091787
 20
80.37002063665449
 30
0.0
 10
-42.88982356309214
 20
80.42933377074726
 30
0.0
 10
-42.99963359877508
 20
80.45507250426257
 30
0.0
 10
-43.10653268741111
 20
80.44713266302666
 30
0.0
 10
-43.16232945070844
 20
80.41014521898667
 30
0.0
 10
-43.1893070323607
 20
80.39226188345657
 30
0.0
 11
-42.62744556407749
 21
80.17649284542762
 31
0.0
 11
-42.69648199025181
 21
80.28139436982354
 31
0.0
 11
-42.78858813255867
 21
80.36716757740572
 31
0.0
 11
-42.89456444783293
 21
80.42524414905384
 31
0.0
 11
-43.00382508195158
 21
80.44982401878922
 31
0.0
 11
-43.10545632877356
 21
80.43845087677889
 31
0.0
 11
-43.1893070323607
 21
80.39226188345657
 31
0.0
  0
SPLINE
  5
151
330
47
100
AcDbEntity
  8
0
  6
Continuous
 62
     7
100
AcDbSpline
210
0.0
220
0.0
230
1.0
 70
     8
 71
     3
 72
     9
 73
     5
 74
     3
 42
0.000000001
 43
0.0000000001
 44
0.00000001
 40
0.0
 40
0.0
 40
0.0
 40
0.0
 40
0.0183650700537239
 40
0.036762659885706
 40
0.036762659885706
 40
0.036762659885706
 40
0.036762659885706
 10
-24.36006146750741
 20
70.90834090878842
 30
0.0
 10
-24.35645561457062
 20
70.90339138566921
 30
0.0
 10
-24.34923750778382
 20
70.89348358724831
 30
0.0
 10
-24.34135213239985
 20
70.88409814096603
 30
0.0
 10
-24.33740594925075
 20
70.87940127295899
 30
0.0
 11
-24.36006146750741
 21
70.90834090878842
 31
0.0
 11
-24.34907737855171
 21
70.89362270249967
 31
0.0
 11
-24.33740594925075
 21
70.87940127295899
 31
0.0
  0
SPLINE
  5
152
330
47
100
AcDbEntity
  8
0
  6
Continuous
 62
     7
100
AcDbSpline
210
0.0
220
0.0
230
1.0
 70
     8
 71
     3
 72
    11
 73
     7
 74
     5
 42
0.000000001
 43
0.0000000001
 44
0.00000001
 40
0.0
 40
0.0
 40
0.0
 40
0.0
 40
0.0561423569815399
 40
0.1089108807813429
 40
0.1588614544873405
 40
0.2071930616845752
 40
0.2071930616845752
 40
0.2071930616845752
 40
0.2071930616845752
 10
-25.22431048018059
 20
71.15782810884528
 30
0.0
 10
-25.2426286644871
 20
71.1620523490243
 30
0.0
 10
-25.27816421775773
 20
71.17024696242078
 30
0.0
 10
-25.33158358238889
 20
71.16756287170527
 30
0.0
 10
-25.38092592151582
 20
71.15378410060137
 30
0.0
 10
-25.40759278851394
 20
71.13435413104676
 30
0.0
 10
-25.42070658139298
 20
71.12479917151549
 30
0.0
 11
-25.22431048018059
 21
71.15782810884528
 31
0.0
 11
-25.27955394486582
 21
71.16783430181371
 31
0.0
 11
-25.33227083685657
 21
71.16550049729659
 31
0.0
 11
-25.3800501030455
 21
71.1509333486384
 31
0.0
 11
-25.42070658139298
 21
71.12479917151549
 31
0.0
  0
SPLINE
  5
153
330
47
100
AcDbEntity
  8
0
  6
Continuous
 62
     7
100
AcDbSpline
210
0.0
220
0.0
230
1.0
 70
     8
 71
     3
 72
    11
 73
     7
 74
     5
 42
0.000000001
 43
0.0000000001
 44
0.00000001
 40
0.0
 40
0.0
 40
0.0
 40
0.0
 40
0.0600115779271292
 40
0.1230122191256045
 40
0.1908581131447838
 40
0.2638545098688706
 40
0.2638545098688706
 40
0.2638545098688706
 40
0.2638545098688706
 10
-25.42070658139298
 20
71.12479917151549
 30
0.0
 10
-25.4345093853032
 20
71.11002572029939
 30
0.0
 10
-25.46280247318954
 20
71.07974297116438
 30
0.0
 10
-25.48297699823068
 20
71.01766588000663
 30
0.0
 10
-25.48669388935913
 20
70.94897300775602
 30
0.0
 10
-25.47467763307764
 20
70.90330633065666
 30
0.0
 10
-25.4684497845854
 20
70.87963799445109
 30
0.0
 11
-25.42070658139298
 21
71.12479917151549
 31
0.0
 11
-25.45847595969686
 21
71.07816373592665
 31
0.0
 11
-25.47981153462263
 21
71.0188857933073
 31
0.0
 11
-25.48321568184227
 21
70.95112535148955
 31
0.0
 11
-25.4684497845854
 21
70.87963799445109
 31
0.0
  0
ENDBLK
  5
49
330
47
100
AcDbEntity
  8
0
100
AcDbBlockEnd
  0
BLOCK
  5
4C
330
4A
100
AcDbEntity
  8
0
100
AcDbBlockBegin
  2
AllgSicht1
 70
     0
 10
-28.9249999998102
 20
85.00000000016007
 30
0.0
  3
AllgSicht1
  1

  0
INSERT
  5
4B
330
4A
100
AcDbEntity
  8
0
100
AcDbBlockReference
  2
MSLKG_5-select__1
 10
-47.4169829601063
 20
66.96733531254615
 30
0.0
  0
MTEXT
  5
155
330
4A
100
AcDbEntity
  8
1
 62
     6
100
AcDbMText
 10
-28.92499999981003
 20
60.10538099925179
 30
0.0
 40
5.0
 41
0.0
 71
     2
 72
     1
  1
 
  7
CONVERTER_11
 73
     1
 44
1.32052821128451
  0
ENDBLK
  5
4D
330
4A
100
AcDbEntity
  8
0
100
AcDbBlockEnd
  0
BLOCK
  5
4F
330
4E
100
AcDbEntity
  8
0
100
AcDbBlockBegin
  2
MSLKG_5-select__2
 70
     0
 10
-145.0750001424849
 20
72.40000038220984
 30
0.0
  3
MSLKG_5-select__2
  1

  0
LINE
  5
156
330
4E
100
AcDbEntity
  8
1
  6
DOT_CENTER
 62
     2
100
AcDbLine
 10
-119.5750001424849
 20
78.62000038220987
 30
0.0
 11
-119.5750001424849
 21
74.33000038220985
 31
0.0
  0
LINE
  5
157
330
4E
100
AcDbEntity
  8
1
  6
DOT_CENTER
 62
     2
100
AcDbLine
 10
-117.4300001424849
 20
76.47500038220986
 30
0.0
 11
-121.7200001424849
 21
76.47500038220986
 31
0.0
  0
LINE
  5
158
330
4E
100
AcDbEntity
  8
1
  6
DOT_CENTER
 62
     2
100
AcDbLine
 10
-126.0750001424849
 20
78.6200003822099
 30
0.0
 11
-126.0750001424849
 21
74.33000038220982
 31
0.0
  0
LINE
  5
159
330
4E
100
AcDbEntity
  8
1
  6
DOT_CENTER
 62
     2
100
AcDbLine
 10
-123.9300001424849
 20
76.47500038220986
 30
0.0
 11
-128.2200001424849
 21
76.47500038220986
 31
0.0
  0
LINE
  5
15A
330
4E
100
AcDbEntity
  8
1
  6
DOT_CENTER
 62
     2
100
AcDbLine
 10
-132.5750001424849
 20
78.62000038220984
 30
0.0
 11
-132.5750001424849
 21
74.33000038220987
 31
0.0
  0
LINE
  5
15B
330
4E
100
AcDbEntity
  8
1
  6
DOT_CENTER
 62
     2
100
AcDbLine
 10
-130.4300001424849
 20
76.47500038220986
 30
0.0
 11
-134.7200001424849
 21
76.47500038220986
 31
0.0
  0
LINE
  5
15C
330
4E
100
AcDbEntity
  8
0
  6
Continuous
 62
     7
100
AcDbLine
 10
-121.1789535125252
 20
75.36602175900009
 30
0.0
 11
-118.4660215192751
 21
78.0789537522502
 31
0.0
  0
LINE
  5
15D
330
4E
100
AcDbEntity
  8
0
  6
Continuous
 62
     7
100
AcDbLine
 10
-143.4750001424849
 20
73.17500038220984
 30
0.0
 11
-141.7837826651294
 21
73.17500038220984
 31
0.0
  0
LINE
  5
15E
330
4E
100
AcDbEntity
  8
0
  6
Continuous
 62
     7
100
AcDbLine
 10
-141.7837826651294
 20
73.17500038220984
 30
0.0
 11
-140.0750001424849
 21
73.17500038220984
 31
0.0
  0
LINE
  5
15F
330
4E
100
AcDbEntity
  8
0
  6
Continuous
 62
     7
100
AcDbLine
 10
-143.9750001424849
 20
73.17500038220984
 30
0.0
 11
-143.4750001424849
 21
73.17500038220984
 31
0.0
  0
LINE
  5
160
330
4E
100
AcDbEntity
  8
0
  6
Continuous
 62
     7
100
AcDbLine
 10
-145.0750001424849
 20
73.17500038220984
 30
0.0
 11
-143.9750001424849
 21
73.17500038220984
 31
0.0
  0
LINE
  5
161
330
4E
100
AcDbEntity
  8
0
  6
Continuous
 62
     7
100
AcDbLine
 10
-143.4750001424849
 20
73.92500038220982
 30
0.0
 11
-142.3250001424849
 21
73.92500038220982
 31
0.0
  0
LINE
  5
162
330
4E
100
AcDbEntity
  8
0
  6
Continuous
 62
     7
100
AcDbLine
 10
-112.0750001424849
 20
73.17500038220984
 30
0.0
 11
-110.3662176198404
 21
73.17500038220984
 31
0.0
  0
LINE
  5
163
330
4E
100
AcDbEntity
  8
0
  6
Continuous
 62
     7
100
AcDbLine
 10
-107.0750001424849
 20
73.17500038220984
 30
0.0
 11
-107.0750001424849
 21
73.90000038220984
 31
0.0
  0
LINE
  5
164
330
4E
100
AcDbEntity
  8
0
  6
Continuous
 62
     7
100
AcDbLine
 10
-108.1750001424849
 20
73.90000038220984
 30
0.0
 11
-108.1750001424849
 21
73.17500038220984
 31
0.0
  0
LINE
  5
165
330
4E
100
AcDbEntity
  8
0
  6
Continuous
 62
     7
100
AcDbLine
 10
-108.1750001424849
 20
73.17500038220984
 30
0.0
 11
-107.0750001424849
 21
73.17500038220984
 31
0.0
  0
LINE
  5
166
330
4E
100
AcDbEntity
  8
0
  6
Continuous
 62
     7
100
AcDbLine
 10
-110.3662176198404
 20
73.17500038220984
 30
0.0
 11
-108.6750001424849
 21
73.17500038220984
 31
0.0
  0
LINE
  5
167
330
4E
100
AcDbEntity
  8
0
  6
Continuous
 62
     7
100
AcDbLine
 10
-108.6750001424849
 20
73.17500038220984
 30
0.0
 11
-108.1750001424849
 21
73.17500038220984
 31
0.0
  0
LINE
  5
168
330
4E
100
AcDbEntity
  8
0
  6
Continuous
 62
     7
100
AcDbLine
 10
-108.6750001424849
 20
73.92500038220982
 30
0.0
 11
-108.6750001424849
 21
73.17500038220984
 31
0.0
  0
LINE
  5
169
330
4E
100
AcDbEntity
  8
0
  6
Continuous
 62
     7
100
AcDbLine
 10
-109.8250001424849
 20
73.92500038220982
 30
0.0
 11
-110.3662176198404
 21
73.92500038220982
 31
0.0
  0
LINE
  5
16A
330
4E
100
AcDbEntity
  8
0
  6
Continuous
 62
     7
100
AcDbLine
 10
-108.6750001424849
 20
73.92500038220982
 30
0.0
 11
-109.8250001424849
 21
73.92500038220982
 31
0.0
  0
LINE
  5
16B
330
4E
100
AcDbEntity
  8
0
  6
Continuous
 62
     7
100
AcDbLine
 10
-112.0750001424849
 20
76.47500038220986
 30
0.0
 11
-112.0750001424849
 21
73.17500038220984
 31
0.0
  0
LINE
  5
16C
330
4E
100
AcDbEntity
  8
0
  6
Continuous
 62
     7
100
AcDbLine
 10
-109.8250001424849
 20
76.47500038220986
 30
0.0
 11
-109.8250001424849
 21
73.92500038220982
 31
0.0
  0
LINE
  5
16D
330
4E
100
AcDbEntity
  8
0
  6
Continuous
 62
     7
100
AcDbLine
 10
-109.8250001424849
 20
79.02500038220987
 30
0.0
 11
-109.8250001424849
 21
76.47500038220986
 31
0.0
  0
LINE
  5
16E
330
4E
100
AcDbEntity
  8
0
  6
Continuous
 62
     7
100
AcDbLine
 10
-110.3662176198404
 20
73.92500038220982
 30
0.0
 11
-110.3662176198404
 21
73.17500038220984
 31
0.0
  0
LINE
  5
16F
330
4E
100
AcDbEntity
  8
0
  6
Continuous
 62
     2
100
AcDbLine
 10
-109.8250001424849
 20
76.47500038220986
 30
0.0
 11
-112.0750001424849
 21
76.47500038220986
 31
0.0
  0
LINE
  5
170
330
4E
100
AcDbEntity
  8
0
  6
Continuous
 62
     7
100
AcDbLine
 10
-108.6750001424849
 20
79.02500038220987
 30
0.0
 11
-109.8250001424849
 21
79.02500038220987
 31
0.0
  0
LINE
  5
171
330
4E
100
AcDbEntity
  8
0
  6
Continuous
 62
     7
100
AcDbLine
 10
-110.3662176198404
 20
79.02500038220987
 30
0.0
 11
-112.0750001424849
 21
79.02500038220987
 31
0.0
  0
LINE
  5
172
330
4E
100
AcDbEntity
  8
0
  6
Continuous
 62
     7
100
AcDbLine
 10
-109.8250001424849
 20
79.02500038220987
 30
0.0
 11
-110.3662176198404
 21
79.02500038220987
 31
0.0
  0
LINE
  5
173
330
4E
100
AcDbEntity
  8
0
  6
Continuous
 62
     7
100
AcDbLine
 10
-110.3662176198404
 20
73.92500038220982
 30
0.0
 11
-112.0750001424849
 21
73.92500038220982
 31
0.0
  0
LINE
  5
174
330
4E
100
AcDbEntity
  8
0
  6
Continuous
 62
     7
100
AcDbLine
 10
-110.3662176198404
 20
79.02500038220987
 30
0.0
 11
-110.3662176198404
 21
79.77500038220984
 31
0.0
  0
LINE
  5
175
330
4E
100
AcDbEntity
  8
0
  6
Continuous
 62
     7
100
AcDbLine
 10
-108.6750001424849
 20
79.02500038220987
 30
0.0
 11
-108.6750001424849
 21
79.77500038220984
 31
0.0
  0
LINE
  5
176
330
4E
100
AcDbEntity
  8
0
  6
Continuous
 62
     7
100
AcDbLine
 10
-108.6750001424849
 20
79.77500038220984
 30
0.0
 11
-110.3662176198404
 21
79.77500038220984
 31
0.0
  0
LINE
  5
177
330
4E
100
AcDbEntity
  8
0
  6
Continuous
 62
     7
100
AcDbLine
 10
-108.1750001424849
 20
79.77500038220985
 30
0.0
 11
-108.1750001424849
 21
79.05000038220984
 31
0.0
  0
LINE
  5
178
330
4E
100
AcDbEntity
  8
0
  6
Continuous
 62
     7
100
AcDbLine
 10
-107.0750001424849
 20
79.05000038220984
 30
0.0
 11
-107.0750001424849
 21
79.77500038220984
 31
0.0
  0
LINE
  5
179
330
4E
100
AcDbEntity
  8
0
  6
Continuous
 62
     7
100
AcDbLine
 10
-108.1750001424849
 20
79.05000038220984
 30
0.0
 11
-107.0750001424849
 21
79.05000038220984
 31
0.0
  0
LINE
  5
17A
330
4E
100
AcDbEntity
  8
0
  6
Continuous
 62
     7
100
AcDbLine
 10
-108.1750001424849
 20
79.77500038220985
 30
0.0
 11
-108.6750001424849
 21
79.77500038220984
 31
0.0
  0
LINE
  5
17B
330
4E
100
AcDbEntity
  8
0
  6
Continuous
 62
     7
100
AcDbLine
 10
-107.0750001424849
 20
79.77500038220984
 30
0.0
 11
-108.1750001424849
 21
79.77500038220985
 31
0.0
  0
LINE
  5
17C
330
4E
100
AcDbEntity
  8
0
  6
Continuous
 62
     7
100
AcDbLine
 10
-107.0750001424849
 20
73.90000038220984
 30
0.0
 11
-108.1750001424849
 21
73.90000038220984
 31
0.0
  0
LINE
  5
17D
330
4E
100
AcDbEntity
  8
0
  6
Continuous
 62
     7
100
AcDbLine
 10
-107.0750001424849
 20
80.55000038220984
 30
0.0
 11
-107.0750001424849
 21
79.77500038220984
 31
0.0
  0
LINE
  5
17E
330
4E
100
AcDbEntity
  8
0
  6
Continuous
 62
     7
100
AcDbLine
 10
-112.0750001424849
 20
73.17500038220984
 30
0.0
 11
-112.0750001424849
 21
72.40000038220984
 31
0.0
  0
LINE
  5
17F
330
4E
100
AcDbEntity
  8
0
  6
Continuous
 62
     2
100
AcDbLine
 10
-114.0650001424849
 20
76.47500038220986
 30
0.0
 11
-112.0750001424849
 21
76.47500038220986
 31
0.0
  0
LINE
  5
180
330
4E
100
AcDbEntity
  8
0
  6
Continuous
 62
     7
100
AcDbLine
 10
-114.0650001424849
 20
75.96500038220984
 30
0.0
 11
-114.0650001424849
 21
76.47500038220986
 31
0.0
  0
LINE
  5
181
330
4E
100
AcDbEntity
  8
0
  6
Continuous
 62
     7
100
AcDbLine
 10
-114.0650001424849
 20
76.47500038220986
 30
0.0
 11
-114.0650001424849
 21
76.98500038220985
 31
0.0
  0
LINE
  5
182
330
4E
100
AcDbEntity
  8
0
  6
Continuous
 62
     7
100
AcDbLine
 10
-107.0750001424849
 20
80.55000038220984
 30
0.0
 11
-112.0750001424849
 21
80.55000038220984
 31
0.0
  0
LINE
  5
183
330
4E
100
AcDbEntity
  8
0
  6
Continuous
 62
     7
100
AcDbLine
 10
-110.3662176198404
 20
79.77500038220984
 30
0.0
 11
-112.0750001424849
 21
79.77500038220984
 31
0.0
  0
LINE
  5
184
330
4E
100
AcDbEntity
  8
0
  6
Continuous
 62
     7
100
AcDbLine
 10
-112.0750001424849
 20
79.77500038220984
 30
0.0
 11
-112.0750001424849
 21
76.47500038220986
 31
0.0
  0
LINE
  5
185
330
4E
100
AcDbEntity
  8
0
  6
Continuous
 62
     7
100
AcDbLine
 10
-135.3250001424849
 20
80.55000038220984
 30
0.0
 11
-135.3250001424849
 21
76.47500038220986
 31
0.0
  0
LINE
  5
186
330
4E
100
AcDbEntity
  8
0
  6
Continuous
 62
     7
100
AcDbLine
 10
-140.0750001424849
 20
79.77500038220984
 30
0.0
 11
-140.0750001424849
 21
76.47500038220986
 31
0.0
  0
LINE
  5
187
330
4E
100
AcDbEntity
  8
0
  6
Continuous
 62
     7
100
AcDbLine
 10
-140.0750001424849
 20
76.47500038220986
 30
0.0
 11
-140.0750001424849
 21
73.17500038220984
 31
0.0
  0
LINE
  5
188
330
4E
100
AcDbEntity
  8
0
  6
Continuous
 62
     7
100
AcDbLine
 10
-138.0850001424849
 20
75.96500038220984
 30
0.0
 11
-137.0650001424849
 21
75.96500038220984
 31
0.0
  0
LINE
  5
189
330
4E
100
AcDbEntity
  8
0
  6
Continuous
 62
     7
100
AcDbLine
 10
-140.0750001424849
 20
73.17500038220984
 30
0.0
 11
-140.0750001424849
 21
72.40000038220984
 31
0.0
  0
LINE
  5
18A
330
4E
100
AcDbEntity
  8
0
  6
Continuous
 62
     2
100
AcDbLine
 10
-137.0650001424849
 20
76.47500038220986
 30
0.0
 11
-138.0850001424849
 21
76.47500038220986
 31
0.0
  0
LINE
  5
18B
330
4E
100
AcDbEntity
  8
0
  6
Continuous
 62
     7
100
AcDbLine
 10
-138.0850001424849
 20
76.47500038220986
 30
0.0
 11
-138.0850001424849
 21
75.96500038220984
 31
0.0
  0
LINE
  5
18C
330
4E
100
AcDbEntity
  8
0
  6
Continuous
 62
     7
100
AcDbLine
 10
-140.0750001424849
 20
80.55000038220984
 30
0.0
 11
-140.0750001424849
 21
79.77500038220984
 31
0.0
  0
LINE
  5
18D
330
4E
100
AcDbEntity
  8
0
  6
Continuous
 62
     7
100
AcDbLine
 10
-135.3250001424849
 20
80.55000038220984
 30
0.0
 11
-140.0750001424849
 21
80.55000038220984
 31
0.0
  0
LINE
  5
18E
330
4E
100
AcDbEntity
  8
0
  6
Continuous
 62
     7
100
AcDbLine
 10
-116.8250001424849
 20
72.40000038220984
 30
0.0
 11
-135.3250001424849
 21
72.40000038220984
 31
0.0
  0
LINE
  5
18F
330
4E
100
AcDbEntity
  8
0
  6
Continuous
 62
     7
100
AcDbLine
 10
-112.0750001424849
 20
72.40000038220984
 30
0.0
 11
-116.8250001424849
 21
72.40000038220984
 31
0.0
  0
LINE
  5
190
330
4E
100
AcDbEntity
  8
0
  6
Continuous
 62
     7
100
AcDbLine
 10
-145.0750001424849
 20
72.40000038220984
 30
0.0
 11
-140.0750001424849
 21
72.40000038220984
 31
0.0
  0
LINE
  5
191
330
4E
100
AcDbEntity
  8
0
  6
Continuous
 62
     7
100
AcDbLine
 10
-112.0750001424849
 20
72.40000038220984
 30
0.0
 11
-107.0750001424849
 21
72.40000038220984
 31
0.0
  0
LINE
  5
192
330
4E
100
AcDbEntity
  8
0
  6
Continuous
 62
     7
100
AcDbLine
 10
-107.0750001424849
 20
73.17500038220984
 30
0.0
 11
-107.0750001424849
 21
72.40000038220984
 31
0.0
  0
LINE
  5
193
330
4E
100
AcDbEntity
  8
0
  6
Continuous
 62
     7
100
AcDbLine
 10
-127.6789535125252
 20
75.36602175900009
 30
0.0
 11
-124.9660215192751
 21
78.0789537522502
 31
0.0
  0
LINE
  5
194
330
4E
100
AcDbEntity
  8
0
  6
Continuous
 62
     7
100
AcDbLine
 10
-142.3250001424849
 20
76.47500038220986
 30
0.0
 11
-142.3250001424849
 21
73.92500038220982
 31
0.0
  0
LINE
  5
195
330
4E
100
AcDbEntity
  8
0
  6
Continuous
 62
     2
100
AcDbLine
 10
-140.0750001424849
 20
76.47500038220986
 30
0.0
 11
-142.3250001424849
 21
76.47500038220986
 31
0.0
  0
LINE
  5
196
330
4E
100
AcDbEntity
  8
0
  6
Continuous
 62
     7
100
AcDbLine
 10
-143.9750001424849
 20
73.90000038220984
 30
0.0
 11
-145.0750001424849
 21
73.90000038220984
 31
0.0
  0
LINE
  5
197
330
4E
100
AcDbEntity
  8
0
  6
Continuous
 62
     2
100
AcDbLine
 10
-138.0850001424849
 20
76.47500038220986
 30
0.0
 11
-140.0750001424849
 21
76.47500038220986
 31
0.0
  0
LINE
  5
198
330
4E
100
AcDbEntity
  8
0
  6
Continuous
 62
     7
100
AcDbLine
 10
-140.0750001424849
 20
73.92500038220982
 30
0.0
 11
-141.7837826651294
 21
73.92500038220982
 31
0.0
  0
LINE
  5
199
330
4E
100
AcDbEntity
  8
0
  6
Continuous
 62
     7
100
AcDbLine
 10
-142.3250001424849
 20
73.92500038220982
 30
0.0
 11
-141.7837826651294
 21
73.92500038220982
 31
0.0
  0
LINE
  5
19A
330
4E
100
AcDbEntity
  8
0
  6
Continuous
 62
     7
100
AcDbLine
 10
-140.0750001424849
 20
79.02500038220987
 30
0.0
 11
-141.7837826651294
 21
79.02500038220987
 31
0.0
  0
LINE
  5
19B
330
4E
100
AcDbEntity
  8
0
  6
Continuous
 62
     7
100
AcDbLine
 10
-142.3250001424849
 20
79.02500038220987
 30
0.0
 11
-141.7837826651294
 21
79.02500038220987
 31
0.0
  0
LINE
  5
19C
330
4E
100
AcDbEntity
  8
0
  6
Continuous
 62
     7
100
AcDbLine
 10
-143.4750001424849
 20
79.02500038220987
 30
0.0
 11
-142.3250001424849
 21
79.02500038220987
 31
0.0
  0
LINE
  5
19D
330
4E
100
AcDbEntity
  8
0
  6
Continuous
 62
     7
100
AcDbLine
 10
-124.4710467724445
 20
77.58397900541961
 30
0.0
 11
-127.1839787656946
 21
74.8710470121695
 31
0.0
  0
LINE
  5
19E
330
4E
100
AcDbEntity
  8
0
  6
Continuous
 62
     7
100
AcDbLine
 10
-145.0750001424849
 20
80.55000038220984
 30
0.0
 11
-140.0750001424849
 21
80.55000038220984
 31
0.0
  0
LINE
  5
19F
330
4E
100
AcDbEntity
  8
0
  6
Continuous
 62
     7
100
AcDbLine
 10
-141.7837826651294
 20
79.77500038220984
 30
0.0
 11
-143.4750001424849
 21
79.77500038220984
 31
0.0
  0
LINE
  5
1A0
330
4E
100
AcDbEntity
  8
0
  6
Continuous
 62
     7
100
AcDbLine
 10
-143.4750001424849
 20
79.02500038220987
 30
0.0
 11
-143.4750001424849
 21
79.77500038220984
 31
0.0
  0
LINE
  5
1A1
330
4E
100
AcDbEntity
  8
0
  6
Continuous
 62
     7
100
AcDbLine
 10
-142.3250001424849
 20
79.02500038220987
 30
0.0
 11
-142.3250001424849
 21
76.47500038220986
 31
0.0
  0
LINE
  5
1A2
330
4E
100
AcDbEntity
  8
0
  6
Continuous
 62
     7
100
AcDbLine
 10
-143.9750001424849
 20
73.17500038220984
 30
0.0
 11
-143.9750001424849
 21
73.90000038220984
 31
0.0
  0
LINE
  5
1A3
330
4E
100
AcDbEntity
  8
0
  6
Continuous
 62
     7
100
AcDbLine
 10
-143.4750001424849
 20
73.92500038220982
 30
0.0
 11
-143.4750001424849
 21
73.17500038220984
 31
0.0
  0
LINE
  5
1A4
330
4E
100
AcDbEntity
  8
0
  6
Continuous
 62
     7
100
AcDbLine
 10
-141.7837826651294
 20
79.02500038220987
 30
0.0
 11
-141.7837826651294
 21
79.77500038220984
 31
0.0
  0
LINE
  5
1A5
330
4E
100
AcDbEntity
  8
0
  6
Continuous
 62
     7
100
AcDbLine
 10
-141.7837826651294
 20
73.92500038220982
 30
0.0
 11
-141.7837826651294
 21
73.17500038220984
 31
0.0
  0
LINE
  5
1A6
330
4E
100
AcDbEntity
  8
0
  6
Continuous
 62
     7
100
AcDbLine
 10
-141.7837826651294
 20
79.77500038220984
 30
0.0
 11
-140.0750001424849
 21
79.77500038220984
 31
0.0
  0
LINE
  5
1A7
330
4E
100
AcDbEntity
  8
0
  6
Continuous
 62
     7
100
AcDbLine
 10
-145.0750001424849
 20
79.77500038220984
 30
0.0
 11
-145.0750001424849
 21
80.55000038220984
 31
0.0
  0
LINE
  5
1A8
330
4E
100
AcDbEntity
  8
0
  6
Continuous
 62
     7
100
AcDbLine
 10
-143.4750001424849
 20
79.77500038220984
 30
0.0
 11
-143.9750001424849
 21
79.77500038220984
 31
0.0
  0
LINE
  5
1A9
330
4E
100
AcDbEntity
  8
0
  6
Continuous
 62
     7
100
AcDbLine
 10
-143.9750001424849
 20
79.77500038220984
 30
0.0
 11
-145.0750001424849
 21
79.77500038220984
 31
0.0
  0
LINE
  5
1AA
330
4E
100
AcDbEntity
  8
0
  6
Continuous
 62
     7
100
AcDbLine
 10
-145.0750001424849
 20
79.77500038220984
 30
0.0
 11
-145.0750001424849
 21
79.05000038220984
 31
0.0
  0
LINE
  5
1AB
330
4E
100
AcDbEntity
  8
0
  6
Continuous
 62
     7
100
AcDbLine
 10
-145.0750001424849
 20
72.40000038220984
 30
0.0
 11
-145.0750001424849
 21
73.17500038220984
 31
0.0
  0
LINE
  5
1AC
330
4E
100
AcDbEntity
  8
0
  6
Continuous
 62
     7
100
AcDbLine
 10
-145.0750001424849
 20
73.90000038220984
 30
0.0
 11
-145.0750001424849
 21
73.17500038220984
 31
0.0
  0
LINE
  5
1AD
330
4E
100
AcDbEntity
  8
0
  6
Continuous
 62
     7
100
AcDbLine
 10
-143.9750001424849
 20
79.05000038220984
 30
0.0
 11
-143.9750001424849
 21
79.77500038220984
 31
0.0
  0
LINE
  5
1AE
330
4E
100
AcDbEntity
  8
0
  6
Continuous
 62
     7
100
AcDbLine
 10
-145.0750001424849
 20
79.05000038220984
 30
0.0
 11
-143.9750001424849
 21
79.05000038220984
 31
0.0
  0
LINE
  5
1AF
330
4E
100
AcDbEntity
  8
0
  6
Continuous
 62
     7
100
AcDbLine
 10
-117.9710467724445
 20
77.58397900541961
 30
0.0
 11
-120.6839787656946
 21
74.8710470121695
 31
0.0
  0
LINE
  5
1B0
330
4E
100
AcDbEntity
  8
0
  6
Continuous
 62
     7
100
AcDbLine
 10
-116.8250001424849
 20
76.47500038220986
 30
0.0
 11
-116.8250001424849
 21
72.40000038220984
 31
0.0
  0
LINE
  5
1B1
330
4E
100
AcDbEntity
  8
0
  6
Continuous
 62
     7
100
AcDbLine
 10
-116.8250001424849
 20
76.47500038220986
 30
0.0
 11
-116.8250001424849
 21
80.55000038220984
 31
0.0
  0
LINE
  5
1B2
330
4E
100
AcDbEntity
  8
0
  6
Continuous
 62
     7
100
AcDbLine
 10
-112.0750001424849
 20
80.55000038220984
 30
0.0
 11
-116.8250001424849
 21
80.55000038220984
 31
0.0
  0
LINE
  5
1B3
330
4E
100
AcDbEntity
  8
0
  6
Continuous
 62
     2
100
AcDbLine
 10
-116.8250001424849
 20
76.47500038220986
 30
0.0
 11
-115.0850001424849
 21
76.47500038220986
 31
0.0
  0
LINE
  5
1B4
330
4E
100
AcDbEntity
  8
0
  6
Continuous
 62
     7
100
AcDbLine
 10
-115.0850001424849
 20
76.98500038220985
 30
0.0
 11
-115.0850001424849
 21
76.47500038220986
 31
0.0
  0
LINE
  5
1B5
330
4E
100
AcDbEntity
  8
0
  6
Continuous
 62
     7
100
AcDbLine
 10
-114.0650001424849
 20
76.98500038220985
 30
0.0
 11
-115.0850001424849
 21
76.98500038220985
 31
0.0
  0
LINE
  5
1B6
330
4E
100
AcDbEntity
  8
0
  6
Continuous
 62
     7
100
AcDbLine
 10
-112.0750001424849
 20
80.55000038220984
 30
0.0
 11
-112.0750001424849
 21
79.77500038220984
 31
0.0
  0
LINE
  5
1B7
330
4E
100
AcDbEntity
  8
0
  6
Continuous
 62
     2
100
AcDbLine
 10
-114.0650001424849
 20
76.47500038220986
 30
0.0
 11
-115.0850001424849
 21
76.47500038220986
 31
0.0
  0
LINE
  5
1B8
330
4E
100
AcDbEntity
  8
0
  6
Continuous
 62
     7
100
AcDbLine
 10
-115.0850001424849
 20
75.96500038220984
 30
0.0
 11
-114.0650001424849
 21
75.96500038220984
 31
0.0
  0
LINE
  5
1B9
330
4E
100
AcDbEntity
  8
0
  6
Continuous
 62
     7
100
AcDbLine
 10
-115.0850001424849
 20
76.47500038220986
 30
0.0
 11
-115.0850001424849
 21
75.96500038220984
 31
0.0
  0
LINE
  5
1BA
330
4E
100
AcDbEntity
  8
0
  6
Continuous
 62
     2
100
AcDbLine
 10
-117.6250001424849
 20
76.47500038220986
 30
0.0
 11
-116.8250001424849
 21
76.47500038220986
 31
0.0
  0
LINE
  5
1BB
330
4E
100
AcDbEntity
  8
0
  6
Continuous
 62
     2
100
AcDbLine
 10
-124.1250001424849
 20
76.47500038220986
 30
0.0
 11
-121.5250001424849
 21
76.47500038220986
 31
0.0
  0
LINE
  5
1BC
330
4E
100
AcDbEntity
  8
0
  6
Continuous
 62
     7
100
AcDbLine
 10
-135.3250001424849
 20
80.55000038220984
 30
0.0
 11
-116.8250001424849
 21
80.55000038220984
 31
0.0
  0
LINE
  5
1BD
330
4E
100
AcDbEntity
  8
0
  6
Continuous
 62
     7
100
AcDbLine
 10
-134.1789535125252
 20
75.36602175900009
 30
0.0
 11
-131.4660215192751
 21
78.0789537522502
 31
0.0
  0
LINE
  5
1BE
330
4E
100
AcDbEntity
  8
0
  6
Continuous
 62
     7
100
AcDbLine
 10
-135.3250001424849
 20
76.47500038220986
 30
0.0
 11
-135.3250001424849
 21
72.40000038220984
 31
0.0
  0
LINE
  5
1BF
330
4E
100
AcDbEntity
  8
0
  6
Continuous
 62
     2
100
AcDbLine
 10
-137.0650001424849
 20
76.47500038220986
 30
0.0
 11
-135.3250001424849
 21
76.47500038220986
 31
0.0
  0
LINE
  5
1C0
330
4E
100
AcDbEntity
  8
0
  6
Continuous
 62
     7
100
AcDbLine
 10
-137.0650001424849
 20
75.96500038220984
 30
0.0
 11
-137.0650001424849
 21
76.47500038220986
 31
0.0
  0
LINE
  5
1C1
330
4E
100
AcDbEntity
  8
0
  6
Continuous
 62
     2
100
AcDbLine
 10
-135.3250001424849
 20
76.47500038220986
 30
0.0
 11
-134.5250001424849
 21
76.47500038220986
 31
0.0
  0
LINE
  5
1C2
330
4E
100
AcDbEntity
  8
0
  6
Continuous
 62
     7
100
AcDbLine
 10
-135.3250001424849
 20
72.40000038220984
 30
0.0
 11
-140.0750001424849
 21
72.40000038220984
 31
0.0
  0
LINE
  5
1C3
330
4E
100
AcDbEntity
  8
0
  6
Continuous
 62
     7
100
AcDbLine
 10
-137.0650001424849
 20
76.47500038220986
 30
0.0
 11
-137.0650001424849
 21
76.98500038220985
 31
0.0
  0
LINE
  5
1C4
330
4E
100
AcDbEntity
  8
0
  6
Continuous
 62
     7
100
AcDbLine
 10
-138.0850001424849
 20
76.98500038220985
 30
0.0
 11
-138.0850001424849
 21
76.47500038220986
 31
0.0
  0
LINE
  5
1C5
330
4E
100
AcDbEntity
  8
0
  6
Continuous
 62
     7
100
AcDbLine
 10
-137.0650001424849
 20
76.98500038220985
 30
0.0
 11
-138.0850001424849
 21
76.98500038220985
 31
0.0
  0
LINE
  5
1C6
330
4E
100
AcDbEntity
  8
0
  6
Continuous
 62
     2
100
AcDbLine
 10
-130.6250001424849
 20
76.47500038220986
 30
0.0
 11
-128.0250001424849
 21
76.47500038220986
 31
0.0
  0
LINE
  5
1C7
330
4E
100
AcDbEntity
  8
0
  6
Continuous
 62
     7
100
AcDbLine
 10
-130.9710467724445
 20
77.58397900541961
 30
0.0
 11
-133.6839787656946
 21
74.8710470121695
 31
0.0
  0
ARC
  5
1C8
330
4E
100
AcDbEntity
  8
0
  6
Continuous
 62
     7
100
AcDbCircle
 10
-126.0750001424849
 20
76.47500038220986
 30
0.0
 40
1.94999999999998
100
AcDbArc
 50
235.3398908939291
 51
0.0
  0
ARC
  5
1C9
330
4E
100
AcDbEntity
  8
0
  6
Continuous
 62
     7
100
AcDbCircle
 10
-132.5750001424849
 20
76.47500038220986
 30
0.0
 40
1.949999999999989
100
AcDbArc
 50
0.0
 51
34.66010910607149
  0
ARC
  5
1CA
330
4E
100
AcDbEntity
  8
0
  6
Continuous
 62
     7
100
AcDbCircle
 10
-132.5750001424849
 20
76.47500038220986
 30
0.0
 40
1.950000000000017
100
AcDbArc
 50
55.33989089392676
 51
180.0
  0
ARC
  5
1CB
330
4E
100
AcDbEntity
  8
0
  6
Continuous
 62
     7
100
AcDbCircle
 10
-132.5750001424849
 20
76.47500038220986
 30
0.0
 40
1.950000000000028
100
AcDbArc
 50
34.66010910607149
 51
55.33989089392676
  0
ARC
  5
1CC
330
4E
100
AcDbEntity
  8
0
  6
Continuous
 62
     7
100
AcDbCircle
 10
-126.0750001424849
 20
76.47500038220986
 30
0.0
 40
1.950000000000017
100
AcDbArc
 50
55.33989089392676
 51
180.0
  0
ARC
  5
1CD
330
4E
100
AcDbEntity
  8
0
  6
Continuous
 62
     7
100
AcDbCircle
 10
-126.0750001424849
 20
76.47500038220986
 30
0.0
 40
1.950000000000017
100
AcDbArc
 50
180.0
 51
214.6601091060733
  0
ARC
  5
1CE
330
4E
100
AcDbEntity
  8
0
  6
Continuous
 62
     7
100
AcDbCircle
 10
-126.0750001424849
 20
76.47500038220986
 30
0.0
 40
1.949999999999966
100
AcDbArc
 50
214.6601091060733
 51
235.3398908939291
  0
ARC
  5
1CF
330
4E
100
AcDbEntity
  8
0
  6
Continuous
 62
     7
100
AcDbCircle
 10
-126.0750001424849
 20
76.47500038220986
 30
0.0
 40
1.950000000000039
100
AcDbArc
 50
34.66010910607125
 51
55.33989089392676
  0
ARC
  5
1D0
330
4E
100
AcDbEntity
  8
0
  6
Continuous
 62
     7
100
AcDbCircle
 10
-126.0750001424849
 20
76.47500038220986
 30
0.0
 40
1.950000000000003
100
AcDbArc
 50
0.0
 51
34.66010910607125
  0
ARC
  5
1D1
330
4E
100
AcDbEntity
  8
0
  6
Continuous
 62
     7
100
AcDbCircle
 10
-119.5750001424849
 20
76.47500038220986
 30
0.0
 40
1.950000000000003
100
AcDbArc
 50
0.0
 51
34.66010910607125
  0
ARC
  5
1D2
330
4E
100
AcDbEntity
  8
0
  6
Continuous
 62
     7
100
AcDbCircle
 10
-119.5750001424849
 20
76.47500038220986
 30
0.0
 40
1.950000000000039
100
AcDbArc
 50
34.66010910607125
 51
55.33989089392676
  0
ARC
  5
1D3
330
4E
100
AcDbEntity
  8
0
  6
Continuous
 62
     7
100
AcDbCircle
 10
-119.5750001424849
 20
76.47500038220986
 30
0.0
 40
1.94999999999998
100
AcDbArc
 50
235.3398908939291
 51
0.0
  0
ARC
  5
1D4
330
4E
100
AcDbEntity
  8
0
  6
Continuous
 62
     7
100
AcDbCircle
 10
-119.5750001424849
 20
76.47500038220986
 30
0.0
 40
1.950000000000003
100
AcDbArc
 50
180.0
 51
214.6601091060733
  0
ARC
  5
1D5
330
4E
100
AcDbEntity
  8
0
  6
Continuous
 62
     7
100
AcDbCircle
 10
-119.5750001424849
 20
76.47500038220986
 30
0.0
 40
1.949999999999966
100
AcDbArc
 50
214.6601091060733
 51
235.3398908939291
  0
ARC
  5
1D6
330
4E
100
AcDbEntity
  8
0
  6
Continuous
 62
     7
100
AcDbCircle
 10
-119.5750001424849
 20
76.47500038220986
 30
0.0
 40
1.950000000000017
100
AcDbArc
 50
55.33989089392676
 51
180.0
  0
ARC
  5
1D7
330
4E
100
AcDbEntity
  8
0
  6
Continuous
 62
     7
100
AcDbCircle
 10
-132.5750001424849
 20
76.47500038220986
 30
0.0
 40
1.950000000000017
100
AcDbArc
 50
180.0
 51
214.6601091060733
  0
ARC
  5
1D8
330
4E
100
AcDbEntity
  8
0
  6
Continuous
 62
     7
100
AcDbCircle
 10
-132.5750001424849
 20
76.47500038220986
 30
0.0
 40
1.949999999999966
100
AcDbArc
 50
214.6601091060733
 51
235.3398908939291
  0
ARC
  5
1D9
330
4E
100
AcDbEntity
  8
0
  6
Continuous
 62
     7
100
AcDbCircle
 10
-132.5750001424849
 20
76.47500038220986
 30
0.0
 40
1.94999999999998
100
AcDbArc
 50
235.3398908939291
 51
0.0
  0
ENDBLK
  5
50
330
4E
100
AcDbEntity
  8
0
100
AcDbBlockEnd
  0
BLOCK
  5
53
330
51
100
AcDbEntity
  8
0
100
AcDbBlockBegin
  2
Drfsicht1
 70
     0
 10
-126.0749998092652
 20
76.4750003818399
 30
0.0
  3
Drfsicht1
  1

  0
INSERT
  5
52
330
51
100
AcDbEntity
  8
0
100
AcDbBlockReference
  2
MSLKG_5-select__2
 10
-145.0750001424849
 20
72.40000038220984
 30
0.0
  0
MTEXT
  5
1DA
330
51
100
AcDbEntity
  8
1
 62
     6
100
AcDbMText
 10
-126.0749998092653
 20
67.40000057257475
 30
0.0
 40
5.0
 41
0.0
 71
     2
 72
     1
  1
 
  7
CONVERTER_11
 73
     1
 44
1.32052821128451
  0
DIMENSION
  5
1E7
330
51
100
AcDbEntity
  8
1
100
AcDbDimension
  2
*D17
 10
-150.392306191577
 20
72.40000038220984
 30
0.0
 11
-154.317306191577
 21
89.8638273612967
 31
0.0
 70
    32
  1
<>
 71
     5
 42
-1.0
 53
90.0
  3
ME10_DIM_10
100
AcDbAlignedDimension
 13
-145.0750001424849
 23
80.55000038220984
 33
0.0
 14
-145.0750001424849
 24
72.40000038220984
 34
0.0
 50
90.0
100
AcDbRotatedDimension
  0
ENDBLK
  5
54
330
51
100
AcDbEntity
  8
0
100
AcDbBlockEnd
  0
BLOCK
  5
56
330
55
100
AcDbEntity
  8
0
100
AcDbBlockBegin
  2
MSLKG_5-select__3
 70
     0
 10
-47.92499985751515
 20
145.549999837724
 30
0.0
  3
MSLKG_5-select__3
  1

  0
LINE
  5
1E8
330
55
100
AcDbEntity
  8
0
  6
Continuous
 62
     7
100
AcDbLine
 10
-15.94646410588493
 20
152.7290712811402
 30
0.0
 11
-18.84999985751514
 21
147.6999998377239
 31
0.0
  0
LINE
  5
1E9
330
55
100
AcDbEntity
  8
0
  6
Continuous
 62
     7
100
AcDbLine
 10
-9.92499985751515
 20
153.0999998377239
 30
0.0
 11
-14.92499985751515
 21
155.986751183672
 31
0.0
  0
LINE
  5
1EA
330
55
100
AcDbEntity
  8
0
  6
Continuous
 62
     7
100
AcDbLine
 10
-15.94646410588493
 20
152.7290712811402
 30
0.0
 11
-15.45548126729717
 21
153.5794785032186
 31
0.0
  0
LINE
  5
1EB
330
55
100
AcDbEntity
  8
0
  6
Continuous
 62
     7
100
AcDbLine
 10
-14.7626609442696
 20
153.1794785032186
 30
0.0
 11
-14.95077420672216
 21
152.8536567750732
 31
0.0
  0
LINE
  5
1EC
330
55
100
AcDbEntity
  8
0
  6
Continuous
 62
     7
100
AcDbLine
 10
-42.92499985751515
 20
155.986751183672
 30
0.0
 11
-47.92499985751515
 21
153.0999998377239
 31
0.0
  0
LINE
  5
1ED
330
55
100
AcDbEntity
  8
0
  6
Continuous
 62
     7
100
AcDbLine
 10
-47.92499985751515
 20
153.0999998377239
 30
0.0
 11
-47.92499985751515
 21
147.6999998377239
 31
0.0
  0
LINE
  5
1EE
330
55
100
AcDbEntity
  8
0
  6
Continuous
 62
     7
100
AcDbLine
 10
-47.92499985751515
 20
147.6999998377239
 30
0.0
 11
-46.3249998575152
 21
147.6999998377239
 31
0.0
  0
LINE
  5
1EF
330
55
100
AcDbEntity
  8
0
  6
Continuous
 62
     7
100
AcDbLine
 10
-38.17499985751515
 20
176.499999837724
 30
0.0
 11
-38.17499985751515
 21
175.9999998377239
 31
0.0
  0
LINE
  5
1F0
330
55
100
AcDbEntity
  8
0
  6
Continuous
 62
     7
100
AcDbLine
 10
-42.92499985751515
 20
175.9999998377239
 30
0.0
 11
-38.17499985751515
 21
175.9999998377239
 31
0.0
  0
LINE
  5
1F1
330
55
100
AcDbEntity
  8
0
  6
Continuous
 62
     7
100
AcDbLine
 10
-42.92499985751515
 20
175.9999998377239
 30
0.0
 11
-42.92499985751515
 21
155.986751183672
 31
0.0
  0
LINE
  5
1F2
330
55
100
AcDbEntity
  8
0
  6
Continuous
 62
     7
100
AcDbLine
 10
-42.89922550830814
 20
152.8536567750732
 30
0.0
 11
-43.08733877076068
 21
153.1794785032186
 31
0.0
  0
LINE
  5
1F3
330
55
100
AcDbEntity
  8
0
  6
Continuous
 62
     7
100
AcDbLine
 10
-15.94646410588493
 20
152.7290712811402
 30
0.0
 11
-14.95077420672216
 21
152.8536567750732
 31
0.0
  0
LINE
  5
1F4
330
55
100
AcDbEntity
  8
0
  6
Continuous
 62
     7
100
AcDbLine
 10
-42.89922550830814
 20
152.8536567750732
 30
0.0
 11
-41.90353560914537
 21
152.7290712811402
 31
0.0
  0
LINE
  5
1F5
330
55
100
AcDbEntity
  8
0
  6
Continuous
 62
     7
100
AcDbLine
 10
-36.57499985751515
 20
150.0999998377239
 30
0.0
 11
-32.92499985751515
 21
150.0999998377239
 31
0.0
  0
LINE
  5
1F6
330
55
100
AcDbEntity
  8
0
  6
Continuous
 62
     7
100
AcDbLine
 10
-34.82153647330203
 20
148.0473937947262
 30
0.0
 11
-35.7305135368871
 21
145.5499998377241
 31
0.0
  0
LINE
  5
1F7
330
55
100
AcDbEntity
  8
0
  6
Continuous
 62
     7
100
AcDbLine
 10
-22.11948617814332
 20
145.5499998377243
 30
0.0
 11
-23.02846324172832
 21
148.0473937947262
 31
0.0
  0
LINE
  5
1F8
330
55
100
AcDbEntity
  8
0
  6
Continuous
 62
     7
100
AcDbLine
 10
-36.10139305976527
 20
148.4499998377239
 30
0.0
 11
-35.10344425953781
 21
148.4499998377239
 31
0.0
  0
LINE
  5
1F9
330
55
100
AcDbEntity
  8
0
  6
Continuous
 62
     7
100
AcDbLine
 10
-36.57499985751515
 20
148.4841685982062
 30
0.0
 11
-36.57499985751515
 21
147.6999998377239
 31
0.0
  0
LINE
  5
1FA
330
55
100
AcDbEntity
  8
0
  6
Continuous
 62
     7
100
AcDbLine
 10
-36.57499985751515
 20
148.4841685982062
 30
0.0
 11
-36.57499985751515
 21
148.8158310772417
 31
0.0
  0
LINE
  5
1FB
330
55
100
AcDbEntity
  8
0
  6
Continuous
 62
     7
100
AcDbLine
 10
-32.92499985751515
 20
148.2999998377239
 30
0.0
 11
-24.92499985751515
 21
148.2999998377239
 31
0.0
  0
LINE
  5
1FC
330
55
100
AcDbEntity
  8
0
  6
Continuous
 62
     7
100
AcDbLine
 10
-18.52499985751514
 20
145.549999837724
 30
0.0
 11
-22.11948617814332
 21
145.5499998377243
 31
0.0
  0
LINE
  5
1FD
330
55
100
AcDbEntity
  8
0
  6
Continuous
 62
     7
100
AcDbLine
 10
-22.74655545549254
 20
148.4499998377239
 30
0.0
 11
-21.74860665526506
 21
148.4499998377239
 31
0.0
  0
LINE
  5
1FE
330
55
100
AcDbEntity
  8
0
  6
Continuous
 62
     7
100
AcDbLine
 10
-21.27499985751514
 20
148.4841685982063
 30
0.0
 11
-21.27499985751516
 21
148.8158310772417
 31
0.0
  0
LINE
  5
1FF
330
55
100
AcDbEntity
  8
0
  6
Continuous
 62
     7
100
AcDbLine
 10
-46.3249998575152
 20
147.6999998377239
 30
0.0
 11
-41.07846082659781
 21
147.6999998377239
 31
0.0
  0
LINE
  5
200
330
55
100
AcDbEntity
  8
0
  6
Continuous
 62
     7
100
AcDbLine
 10
-38.99999985751514
 20
147.6999998377239
 30
0.0
 11
-36.57499985751515
 21
147.6999998377239
 31
0.0
  0
LINE
  5
201
330
55
100
AcDbEntity
  8
0
  6
Continuous
 62
     7
100
AcDbLine
 10
-46.3249998575152
 20
147.4256441847419
 30
0.0
 11
-46.3249998575152
 21
147.6999998377239
 31
0.0
  0
LINE
  5
202
330
55
100
AcDbEntity
  8
0
  6
Continuous
 62
     7
100
AcDbLine
 10
-14.95077420672216
 20
152.8536567750732
 30
0.0
 11
-17.34888915762213
 21
148.6999998377239
 31
0.0
  0
LINE
  5
203
330
55
100
AcDbEntity
  8
0
  6
Continuous
 62
     7
100
AcDbLine
 10
-11.52499985751514
 20
147.4256441847419
 30
0.0
 11
-18.52499985751514
 21
145.549999837724
 31
0.0
  0
LINE
  5
204
330
55
100
AcDbEntity
  8
0
  6
Continuous
 62
     7
100
AcDbLine
 10
-17.34888915762213
 20
148.6999998377239
 30
0.0
 11
-16.7715388884325
 21
147.6999998377239
 31
0.0
  0
LINE
  5
205
330
55
100
AcDbEntity
  8
0
  6
Continuous
 62
     7
100
AcDbLine
 10
-16.7715388884325
 20
147.6999998377239
 30
0.0
 11
-11.52499985751514
 21
147.6999998377239
 31
0.0
  0
LINE
  5
206
330
55
100
AcDbEntity
  8
0
  6
Continuous
 62
     7
100
AcDbLine
 10
-11.52499985751514
 20
147.6999998377239
 30
0.0
 11
-11.52499985751514
 21
147.4256441847419
 31
0.0
  0
LINE
  5
207
330
55
100
AcDbEntity
  8
0
  6
Continuous
 62
     7
100
AcDbLine
 10
-11.52499985751514
 20
147.6999998377239
 30
0.0
 11
-9.92499985751515
 21
147.6999998377239
 31
0.0
  0
LINE
  5
208
330
55
100
AcDbEntity
  8
0
  6
Continuous
 62
     7
100
AcDbLine
 10
-9.92499985751515
 20
147.6999998377239
 30
0.0
 11
-9.92499985751515
 21
153.0999998377239
 31
0.0
  0
LINE
  5
209
330
55
100
AcDbEntity
  8
0
  6
Continuous
 62
     7
100
AcDbLine
 10
-14.92499985751515
 20
155.986751183672
 30
0.0
 11
-14.92499985751515
 21
175.9999998377239
 31
0.0
  0
LINE
  5
20A
330
55
100
AcDbEntity
  8
0
  6
Continuous
 62
     7
100
AcDbLine
 10
-21.27499985751516
 20
148.8158310772417
 30
0.0
 11
-21.27499985751514
 21
150.0999998377239
 31
0.0
  0
LINE
  5
20B
330
55
100
AcDbEntity
  8
0
  6
Continuous
 62
     7
100
AcDbLine
 10
-21.27499985751514
 20
147.6999998377239
 30
0.0
 11
-21.27499985751514
 21
148.4841685982063
 31
0.0
  0
LINE
  5
20C
330
55
100
AcDbEntity
  8
0
  6
Continuous
 62
     7
100
AcDbLine
 10
-21.27499985751514
 20
147.6999998377239
 30
0.0
 11
-18.84999985751514
 21
147.6999998377239
 31
0.0
  0
LINE
  5
20D
330
55
100
AcDbEntity
  8
0
  6
Continuous
 62
     7
100
AcDbLine
 10
-19.67499985751515
 20
175.9999998377239
 30
0.0
 11
-19.67499985751515
 21
176.4999998377239
 31
0.0
  0
LINE
  5
20E
330
55
100
AcDbEntity
  8
0
  6
Continuous
 62
     7
100
AcDbLine
 10
-19.67499985751515
 20
175.9999998377239
 30
0.0
 11
-14.92499985751515
 21
175.9999998377239
 31
0.0
  0
LINE
  5
20F
330
55
100
AcDbEntity
  8
0
  6
Continuous
 62
     7
100
AcDbLine
 10
-32.92499985751515
 20
150.0999998377239
 30
0.0
 11
-32.92499985751515
 21
149.7999998377239
 31
0.0
  0
LINE
  5
210
330
55
100
AcDbEntity
  8
0
  6
Continuous
 62
     7
100
AcDbLine
 10
-32.92499985751515
 20
149.7999998377239
 30
0.0
 11
-36.32499985751515
 21
149.7999998377239
 31
0.0
  0
LINE
  5
211
330
55
100
AcDbEntity
  8
0
  6
Continuous
 62
     7
100
AcDbLine
 10
-32.92499985751515
 20
149.7999998377239
 30
0.0
 11
-32.92499985751515
 21
148.2999998377239
 31
0.0
  0
LINE
  5
212
330
55
100
AcDbEntity
  8
0
  6
Continuous
 62
     7
100
AcDbLine
 10
-36.32499985751515
 20
149.7999998377239
 30
0.0
 11
-36.32499985751515
 21
148.9499998377239
 31
0.0
  0
LINE
  5
213
330
55
100
AcDbEntity
  8
0
  6
Continuous
 62
     7
100
AcDbLine
 10
-21.52499985751516
 20
148.9499998377239
 30
0.0
 11
-21.52499985751516
 21
149.7999998377239
 31
0.0
  0
LINE
  5
214
330
55
100
AcDbEntity
  8
0
  6
Continuous
 62
     7
100
AcDbLine
 10
-24.92499985751515
 20
149.7999998377239
 30
0.0
 11
-24.92499985751515
 21
148.2999998377239
 31
0.0
  0
LINE
  5
215
330
55
100
AcDbEntity
  8
0
  6
Continuous
 62
     7
100
AcDbLine
 10
-21.27499985751514
 20
150.0999998377239
 30
0.0
 11
-24.92499985751515
 21
150.0999998377239
 31
0.0
  0
LINE
  5
216
330
55
100
AcDbEntity
  8
0
  6
Continuous
 62
     7
100
AcDbLine
 10
-24.92499985751515
 20
150.0999998377239
 30
0.0
 11
-24.92499985751515
 21
149.7999998377239
 31
0.0
  0
LINE
  5
217
330
55
100
AcDbEntity
  8
0
  6
Continuous
 62
     7
100
AcDbLine
 10
-21.52499985751516
 20
149.7999998377239
 30
0.0
 11
-24.92499985751515
 21
149.7999998377239
 31
0.0
  0
LINE
  5
218
330
55
100
AcDbEntity
  8
0
  6
Continuous
 62
     7
100
AcDbLine
 10
-41.90353560914537
 20
152.7290712811402
 30
0.0
 11
-38.99999985751514
 21
147.6999998377239
 31
0.0
  0
LINE
  5
219
330
55
100
AcDbEntity
  8
0
  6
Continuous
 62
     7
100
AcDbLine
 10
-39.32499985751512
 20
145.549999837724
 30
0.0
 11
-46.3249998575152
 21
147.4256441847419
 31
0.0
  0
LINE
  5
21A
330
55
100
AcDbEntity
  8
0
  6
Continuous
 62
     7
100
AcDbLine
 10
-41.07846082659781
 20
147.6999998377239
 30
0.0
 11
-40.50111055740817
 21
148.6999998377239
 31
0.0
  0
LINE
  5
21B
330
55
100
AcDbEntity
  8
0
  6
Continuous
 62
     7
100
AcDbLine
 10
-35.7305135368871
 20
145.5499998377241
 30
0.0
 11
-39.32499985751512
 21
145.549999837724
 31
0.0
  0
LINE
  5
21C
330
55
100
AcDbEntity
  8
0
  6
Continuous
 62
     7
100
AcDbLine
 10
-19.67499985751515
 20
176.4999998377239
 30
0.0
 11
-38.17499985751515
 21
176.499999837724
 31
0.0
  0
LINE
  5
21D
330
55
100
AcDbEntity
  8
0
  6
Continuous
 62
     7
100
AcDbLine
 10
-36.57499985751515
 20
150.0999998377239
 30
0.0
 11
-36.57499985751515
 21
148.8158310772417
 31
0.0
  0
LINE
  5
21E
330
55
100
AcDbEntity
  8
0
  6
Continuous
 62
     7
100
AcDbLine
 10
-42.89922550830814
 20
152.8536567750732
 30
0.0
 11
-40.50111055740817
 21
148.6999998377239
 31
0.0
  0
LINE
  5
21F
330
55
100
AcDbEntity
  8
0
  6
Continuous
 62
     7
100
AcDbLine
 10
-42.39451844773314
 20
153.5794785032186
 30
0.0
 11
-41.90353560914537
 21
152.7290712811402
 31
0.0
  0
ARC
  5
220
330
55
100
AcDbEntity
  8
0
  6
Continuous
 62
     7
100
AcDbCircle
 10
-15.10907110578339
 20
153.3794785032185
 30
0.0
 40
0.3999999999999639
100
AcDbArc
 50
330.000000000013
 51
149.9999999999877
  0
ARC
  5
221
330
55
100
AcDbEntity
  8
0
  6
Continuous
 62
     7
100
AcDbCircle
 10
-42.74092860924691
 20
153.3794785032185
 30
0.0
 40
0.4000000000000434
100
AcDbArc
 50
30.00000000001334
 51
209.9999999999881
  0
ARC
  5
222
330
55
100
AcDbEntity
  8
0
  6
Continuous
 62
     7
100
AcDbCircle
 10
-36.32499985751517
 20
148.649999837724
 30
0.0
 40
0.3000000000000126
100
AcDbArc
 50
213.5573097619293
 51
318.1896851041961
  0
ARC
  5
223
330
55
100
AcDbEntity
  8
0
  6
Continuous
 62
     7
100
AcDbCircle
 10
-22.74655545549254
 20
148.1499998377239
 30
0.0
 40
0.3000000000000114
100
AcDbArc
 50
90.0
 51
200.0000000000005
  0
ARC
  5
224
330
55
100
AcDbEntity
  8
0
  6
Continuous
 62
     7
100
AcDbCircle
 10
-35.10344425953781
 20
148.1499998377239
 30
0.0
 40
0.3000000000000065
100
AcDbArc
 50
339.9999999999993
 51
90.0
  0
ARC
  5
225
330
55
100
AcDbEntity
  8
0
  6
Continuous
 62
     7
100
AcDbCircle
 10
-21.52499985751517
 20
148.649999837724
 30
0.0
 40
0.3000000000000028
100
AcDbArc
 50
221.8103148958043
 51
326.4426902380933
  0
ARC
  5
226
330
55
100
AcDbEntity
  8
0
  6
Continuous
 62
     7
100
AcDbCircle
 10
-21.52499985751517
 20
148.649999837724
 30
0.0
 40
0.2999999999999705
100
AcDbArc
 50
33.55730976190856
 51
89.99999999999797
  0
ARC
  5
227
330
55
100
AcDbEntity
  8
0
  6
Continuous
 62
     7
100
AcDbCircle
 10
-36.32499985751517
 20
148.649999837724
 30
0.0
 40
0.2999999999998977
100
AcDbArc
 50
89.99999999999729
 51
146.4426902380888
  0
ENDBLK
  5
57
330
55
100
AcDbEntity
  8
0
100
AcDbBlockEnd
  0
BLOCK
  5
5A
330
58
100
AcDbEntity
  8
0
100
AcDbBlockBegin
  2
Rckans1
 70
     0
 10
-28.92500019073486
 20
161.0
 30
0.0
  3
Rckans1
  1

  0
INSERT
  5
59
330
58
100
AcDbEntity
  8
0
100
AcDbBlockReference
  2
MSLKG_5-select__3
 10
-47.92499985751515
 20
145.549999837724
 30
0.0
  0
MTEXT
  5
228
330
58
100
AcDbEntity
  8
1
 62
     6
100
AcDbMText
 10
-28.92500019073486
 20
140.5500001907349
 30
0.0
 40
5.0
 41
0.0
 71
     2
 72
     1
  1
 
  7
CONVERTER_11
 73
     1
 44
1.32052821128451
  0
ENDBLK
  5
5B
330
58
100
AcDbEntity
  8
0
100
AcDbBlockEnd
  0
BLOCK
  5
5D
330
5C
100
AcDbEntity
  8
0
100
AcDbBlockBegin
  2
MSLKG_5-select__4
 70
     0
 10
-79.07500000073999
 20
145.549999837724
 30
0.0
  3
MSLKG_5-select__4
  1

  0
LINE
  5
229
330
5C
100
AcDbEntity
  8
0
  6
Continuous
 62
     7
100
AcDbLine
 10
-72.42500000073998
 20
150.704999837724
 30
0.0
 11
-71.70000000073998
 21
151.429999837724
 31
0.0
  0
LINE
  5
22A
330
5C
100
AcDbEntity
  8
0
  6
Continuous
 62
     7
100
AcDbLine
 10
-75.00000000073999
 20
151.4499998377239
 30
0.0
 11
-72.45000000073996
 21
151.4499998377239
 31
0.0
  0
LINE
  5
22B
330
5C
100
AcDbEntity
  8
0
  6
Continuous
 62
     7
100
AcDbLine
 10
-76.60000000074
 20
151.874999837724
 30
0.0
 11
-73.40000000074
 21
151.874999837724
 31
0.0
  0
LINE
  5
22C
330
5C
100
AcDbEntity
  8
0
  6
Continuous
 62
     7
100
AcDbLine
 10
-70.92500000073998
 20
153.0999998377239
 30
0.0
 11
-71.70000000073999
 21
153.0999998377239
 31
0.0
  0
LINE
  5
22D
330
5C
100
AcDbEntity
  8
0
  6
Continuous
 62
     7
100
AcDbLine
 10
-78.30000000073998
 20
153.0999998377239
 30
0.0
 11
-79.07500000073999
 21
153.0999998377239
 31
0.0
  0
LINE
  5
22E
330
5C
100
AcDbEntity
  8
0
  6
Continuous
 62
     7
100
AcDbLine
 10
-72.45000000073996
 20
153.0706928470634
 30
0.0
 11
-71.70000000073999
 21
153.0706928470634
 31
0.0
  0
LINE
  5
22F
330
5C
100
AcDbEntity
  8
0
  6
Continuous
 62
     7
100
AcDbLine
 10
-78.30000000073998
 20
153.0999998377239
 30
0.0
 11
-78.30000000073998
 21
153.0706928470634
 31
0.0
  0
LINE
  5
230
330
5C
100
AcDbEntity
  8
0
  6
Continuous
 62
     7
100
AcDbLine
 10
-77.55000000074001
 20
153.0706928470634
 30
0.0
 11
-78.30000000073998
 21
153.0706928470634
 31
0.0
  0
LINE
  5
231
330
5C
100
AcDbEntity
  8
0
  6
Continuous
 62
     7
100
AcDbLine
 10
-72.45000000073996
 20
151.5779009939142
 30
0.0
 11
-72.45000000073996
 21
153.0706928470634
 31
0.0
  0
LINE
  5
232
330
5C
100
AcDbEntity
  8
0
  6
Continuous
 62
     7
100
AcDbLine
 10
-72.45000000073996
 20
151.5779009939142
 30
0.0
 11
-71.70000000073999
 21
151.5779009939142
 31
0.0
  0
LINE
  5
233
330
5C
100
AcDbEntity
  8
0
  6
Continuous
 62
     7
100
AcDbLine
 10
-72.45000000073996
 20
151.5779009939142
 30
0.0
 11
-72.45000000073996
 21
151.4499998377239
 31
0.0
  0
LINE
  5
234
330
5C
100
AcDbEntity
  8
0
  6
Continuous
 62
     7
100
AcDbLine
 10
-77.55000000074001
 20
151.4499998377239
 30
0.0
 11
-75.00000000073999
 21
151.4499998377239
 31
0.0
  0
LINE
  5
235
330
5C
100
AcDbEntity
  8
0
  6
Continuous
 62
     7
100
AcDbLine
 10
-77.55000000074001
 20
151.5779009939142
 30
0.0
 11
-77.55000000074001
 21
153.0706928470634
 31
0.0
  0
LINE
  5
236
330
5C
100
AcDbEntity
  8
0
  6
Continuous
 62
     7
100
AcDbLine
 10
-75.00000000073999
 20
156.9000133475931
 30
0.0
 11
-72.42500000073998
 21
156.9000133475931
 31
0.0
  0
LINE
  5
237
330
5C
100
AcDbEntity
  8
0
  6
Continuous
 62
     7
100
AcDbLine
 10
-73.40000000074
 20
156.524999837724
 30
0.0
 11
-76.60000000074
 21
156.524999837724
 31
0.0
  0
LINE
  5
238
330
5C
100
AcDbEntity
  8
0
  6
Continuous
 62
     7
100
AcDbLine
 10
-71.70000000073999
 20
154.8320506452928
 30
0.0
 11
-71.70000000073999
 21
155.986751183672
 31
0.0
  0
LINE
  5
239
330
5C
100
AcDbEntity
  8
0
  6
Continuous
 62
     7
100
AcDbLine
 10
-70.92500000073998
 20
155.986751183672
 30
0.0
 11
-71.70000000073999
 21
155.986751183672
 31
0.0
  0
LINE
  5
23A
330
5C
100
AcDbEntity
  8
0
  6
Continuous
 62
     7
100
AcDbLine
 10
-78.30000000073998
 20
151.4299998377239
 30
0.0
 11
-77.57500000073999
 21
150.7049998377239
 31
0.0
  0
LINE
  5
23B
330
5C
100
AcDbEntity
  8
0
  6
Continuous
 62
     7
100
AcDbLine
 10
-76.60000000074
 20
156.524999837724
 30
0.0
 11
-76.60000000074
 21
151.874999837724
 31
0.0
  0
LINE
  5
23C
330
5C
100
AcDbEntity
  8
0
  6
Continuous
 62
     7
100
AcDbLine
 10
-78.30000000073998
 20
153.0706928470634
 30
0.0
 11
-78.30000000073998
 21
151.5779009939142
 31
0.0
  0
LINE
  5
23D
330
5C
100
AcDbEntity
  8
0
  6
Continuous
 62
     7
100
AcDbLine
 10
-78.30000000073998
 20
151.5779009939142
 30
0.0
 11
-78.30000000073998
 21
151.4299998377239
 31
0.0
  0
LINE
  5
23E
330
5C
100
AcDbEntity
  8
0
  6
Continuous
 62
     7
100
AcDbLine
 10
-78.30000000073998
 20
154.8320506452928
 30
0.0
 11
-77.57500000073999
 21
154.8320506452928
 31
0.0
  0
LINE
  5
23F
330
5C
100
AcDbEntity
  8
0
  6
Continuous
 62
     7
100
AcDbLine
 10
-77.55000000074001
 20
151.5779009939142
 30
0.0
 11
-77.55000000074001
 21
151.4499998377239
 31
0.0
  0
LINE
  5
240
330
5C
100
AcDbEntity
  8
0
  6
Continuous
 62
     7
100
AcDbLine
 10
-77.55000000074001
 20
151.5779009939142
 30
0.0
 11
-78.30000000073998
 21
151.5779009939142
 31
0.0
  0
LINE
  5
241
330
5C
100
AcDbEntity
  8
0
  6
Continuous
 62
     7
100
AcDbLine
 10
-78.30000000073998
 20
154.8320506452928
 30
0.0
 11
-78.30000000073998
 21
153.0999998377239
 31
0.0
  0
LINE
  5
242
330
5C
100
AcDbEntity
  8
0
  6
Continuous
 62
     7
100
AcDbLine
 10
-78.30000000073998
 20
155.986751183672
 30
0.0
 11
-78.30000000073998
 21
154.8320506452928
 31
0.0
  0
LINE
  5
243
330
5C
100
AcDbEntity
  8
0
  6
Continuous
 62
     7
100
AcDbLine
 10
-79.07500000073999
 20
155.986751183672
 30
0.0
 11
-79.07500000073999
 21
175.9999998377239
 31
0.0
  0
LINE
  5
244
330
5C
100
AcDbEntity
  8
0
  6
Continuous
 62
     7
100
AcDbLine
 10
-79.07500000073999
 20
153.0999998377239
 30
0.0
 11
-79.07500000073999
 21
155.986751183672
 31
0.0
  0
LINE
  5
245
330
5C
100
AcDbEntity
  8
0
  6
Continuous
 62
     7
100
AcDbLine
 10
-77.57500000073999
 20
156.9000133475931
 30
0.0
 11
-77.57500000073999
 21
154.8320506452928
 31
0.0
  0
LINE
  5
246
330
5C
100
AcDbEntity
  8
0
  6
Continuous
 62
     7
100
AcDbLine
 10
-79.07500000073999
 20
155.986751183672
 30
0.0
 11
-78.30000000073998
 21
155.986751183672
 31
0.0
  0
LINE
  5
247
330
5C
100
AcDbEntity
  8
0
  6
Continuous
 62
     7
100
AcDbLine
 10
-77.57500000073999
 20
166.249999837724
 30
0.0
 11
-77.57500000073999
 21
156.9000133475931
 31
0.0
  0
LINE
  5
248
330
5C
100
AcDbEntity
  8
0
  6
Continuous
 62
     7
100
AcDbLine
 10
-77.57500000073999
 20
150.7049998377239
 30
0.0
 11
-77.57500000073999
 21
147.6999998377239
 31
0.0
  0
LINE
  5
249
330
5C
100
AcDbEntity
  8
0
  6
Continuous
 62
     7
100
AcDbLine
 10
-77.55000000074001
 20
151.4499998377239
 30
0.0
 11
-77.55000000074001
 21
147.9499998377239
 31
0.0
  0
LINE
  5
24A
330
5C
100
AcDbEntity
  8
0
  6
Continuous
 62
     2
100
AcDbLine
 10
-75.00000000073999
 20
151.4499998377239
 30
0.0
 11
-75.00000000073999
 21
147.9499998377239
 31
0.0
  0
LINE
  5
24B
330
5C
100
AcDbEntity
  8
0
  6
Continuous
 62
     7
100
AcDbLine
 10
-77.55000000074001
 20
147.9499998377239
 30
0.0
 11
-75.00000000073999
 21
147.9499998377239
 31
0.0
  0
LINE
  5
24C
330
5C
100
AcDbEntity
  8
0
  6
Continuous
 62
     7
100
AcDbLine
 10
-77.57500000073999
 20
156.9000133475931
 30
0.0
 11
-75.00000000073999
 21
156.9000133475931
 31
0.0
  0
LINE
  5
24D
330
5C
100
AcDbEntity
  8
0
  6
Continuous
 62
     7
100
AcDbLine
 10
-75.00000000073999
 20
166.249999837724
 30
0.0
 11
-77.57500000073999
 21
166.249999837724
 31
0.0
  0
LINE
  5
24E
330
5C
100
AcDbEntity
  8
0
  6
Continuous
 62
     2
100
AcDbLine
 10
-75.00000000073999
 20
156.9000133475931
 30
0.0
 11
-75.00000000073999
 21
166.249999837724
 31
0.0
  0
LINE
  5
24F
330
5C
100
AcDbEntity
  8
0
  6
Continuous
 62
     7
100
AcDbLine
 10
-79.07500000073999
 20
175.9999998377239
 30
0.0
 11
-75.00000000073999
 21
175.9999998377239
 31
0.0
  0
LINE
  5
250
330
5C
100
AcDbEntity
  8
0
  6
Continuous
 62
     2
100
AcDbLine
 10
-75.00000000073999
 20
166.249999837724
 30
0.0
 11
-75.00000000073999
 21
175.9999998377239
 31
0.0
  0
LINE
  5
251
330
5C
100
AcDbEntity
  8
0
  6
Continuous
 62
     7
100
AcDbLine
 10
-70.92500000073998
 20
175.9999998377239
 30
0.0
 11
-70.92500000073998
 21
155.986751183672
 31
0.0
  0
LINE
  5
252
330
5C
100
AcDbEntity
  8
0
  6
Continuous
 62
     7
100
AcDbLine
 10
-71.70000000073999
 20
147.4256441847419
 30
0.0
 11
-71.70000000073999
 21
145.549999837724
 31
0.0
  0
LINE
  5
253
330
5C
100
AcDbEntity
  8
0
  6
Continuous
 62
     7
100
AcDbLine
 10
-70.92500000073998
 20
147.6999998377239
 30
0.0
 11
-70.92500000073998
 21
153.0999998377239
 31
0.0
  0
LINE
  5
254
330
5C
100
AcDbEntity
  8
0
  6
Continuous
 62
     7
100
AcDbLine
 10
-70.92500000073998
 20
153.0999998377239
 30
0.0
 11
-70.92500000073998
 21
155.986751183672
 31
0.0
  0
LINE
  5
255
330
5C
100
AcDbEntity
  8
0
  6
Continuous
 62
     7
100
AcDbLine
 10
-71.70000000073999
 20
147.6999998377239
 30
0.0
 11
-71.70000000073999
 21
147.4256441847419
 31
0.0
  0
LINE
  5
256
330
5C
100
AcDbEntity
  8
0
  6
Continuous
 62
     7
100
AcDbLine
 10
-70.92500000073998
 20
176.4999998377239
 30
0.0
 11
-70.92500000073998
 21
175.9999998377239
 31
0.0
  0
LINE
  5
257
330
5C
100
AcDbEntity
  8
0
  6
Continuous
 62
     7
100
AcDbLine
 10
-77.55000000074001
 20
147.4256441847419
 30
0.0
 11
-77.55000000074001
 21
145.549999837724
 31
0.0
  0
LINE
  5
258
330
5C
100
AcDbEntity
  8
0
  6
Continuous
 62
     7
100
AcDbLine
 10
-78.30000000073998
 20
147.4256441847419
 30
0.0
 11
-78.30000000073998
 21
145.549999837724
 31
0.0
  0
LINE
  5
259
330
5C
100
AcDbEntity
  8
0
  6
Continuous
 62
     7
100
AcDbLine
 10
-79.07500000073999
 20
147.6999998377239
 30
0.0
 11
-78.30000000073998
 21
147.6999998377239
 31
0.0
  0
LINE
  5
25A
330
5C
100
AcDbEntity
  8
0
  6
Continuous
 62
     7
100
AcDbLine
 10
-78.30000000073998
 20
147.6999998377239
 30
0.0
 11
-77.57500000073999
 21
147.6999998377239
 31
0.0
  0
LINE
  5
25B
330
5C
100
AcDbEntity
  8
0
  6
Continuous
 62
     7
100
AcDbLine
 10
-78.30000000073998
 20
147.6999998377239
 30
0.0
 11
-78.30000000073998
 21
147.4256441847419
 31
0.0
  0
LINE
  5
25C
330
5C
100
AcDbEntity
  8
0
  6
Continuous
 62
     7
100
AcDbLine
 10
-77.55000000074001
 20
147.9499998377239
 30
0.0
 11
-77.55000000074001
 21
147.4256441847419
 31
0.0
  0
LINE
  5
25D
330
5C
100
AcDbEntity
  8
0
  6
Continuous
 62
     7
100
AcDbLine
 10
-77.55000000074001
 20
147.4256441847419
 30
0.0
 11
-78.30000000073998
 21
147.4256441847419
 31
0.0
  0
LINE
  5
25E
330
5C
100
AcDbEntity
  8
0
  6
Continuous
 62
     7
100
AcDbLine
 10
-77.55000000074001
 20
145.549999837724
 30
0.0
 11
-78.30000000073998
 21
145.549999837724
 31
0.0
  0
LINE
  5
25F
330
5C
100
AcDbEntity
  8
0
  6
Continuous
 62
     7
100
AcDbLine
 10
-72.42500000073998
 20
156.9000133475931
 30
0.0
 11
-72.42500000073998
 21
166.249999837724
 31
0.0
  0
LINE
  5
260
330
5C
100
AcDbEntity
  8
0
  6
Continuous
 62
     7
100
AcDbLine
 10
-73.40000000074
 20
151.874999837724
 30
0.0
 11
-73.40000000074
 21
156.524999837724
 31
0.0
  0
LINE
  5
261
330
5C
100
AcDbEntity
  8
0
  6
Continuous
 62
     7
100
AcDbLine
 10
-72.42500000073998
 20
147.6999998377239
 30
0.0
 11
-72.42500000073998
 21
150.704999837724
 31
0.0
  0
LINE
  5
262
330
5C
100
AcDbEntity
  8
0
  6
Continuous
 62
     7
100
AcDbLine
 10
-71.70000000073999
 20
151.5779009939142
 30
0.0
 11
-71.70000000073999
 21
153.0706928470634
 31
0.0
  0
LINE
  5
263
330
5C
100
AcDbEntity
  8
0
  6
Continuous
 62
     7
100
AcDbLine
 10
-71.70000000073998
 20
151.429999837724
 30
0.0
 11
-71.70000000073999
 21
151.5779009939142
 31
0.0
  0
LINE
  5
264
330
5C
100
AcDbEntity
  8
0
  6
Continuous
 62
     7
100
AcDbLine
 10
-71.70000000073999
 20
153.0706928470634
 30
0.0
 11
-71.70000000073999
 21
153.0999998377239
 31
0.0
  0
LINE
  5
265
330
5C
100
AcDbEntity
  8
0
  6
Continuous
 62
     7
100
AcDbLine
 10
-71.70000000073999
 20
153.0999998377239
 30
0.0
 11
-71.70000000073999
 21
154.8320506452928
 31
0.0
  0
LINE
  5
266
330
5C
100
AcDbEntity
  8
0
  6
Continuous
 62
     7
100
AcDbLine
 10
-72.42500000073998
 20
147.6999998377239
 30
0.0
 11
-71.70000000073999
 21
147.6999998377239
 31
0.0
  0
LINE
  5
267
330
5C
100
AcDbEntity
  8
0
  6
Continuous
 62
     7
100
AcDbLine
 10
-72.45000000073996
 20
151.4499998377239
 30
0.0
 11
-72.45000000073996
 21
147.9499998377239
 31
0.0
  0
LINE
  5
268
330
5C
100
AcDbEntity
  8
0
  6
Continuous
 62
     7
100
AcDbLine
 10
-71.70000000073999
 20
154.8320506452928
 30
0.0
 11
-72.42500000073998
 21
154.8320506452928
 31
0.0
  0
LINE
  5
269
330
5C
100
AcDbEntity
  8
0
  6
Continuous
 62
     2
100
AcDbLine
 10
-75.00000000073999
 20
175.9999998377239
 30
0.0
 11
-75.00000000073999
 21
176.4999998377239
 31
0.0
  0
LINE
  5
26A
330
5C
100
AcDbEntity
  8
0
  6
Continuous
 62
     7
100
AcDbLine
 10
-75.00000000073999
 20
176.4999998377239
 30
0.0
 11
-70.92500000073998
 21
176.4999998377239
 31
0.0
  0
LINE
  5
26B
330
5C
100
AcDbEntity
  8
0
  6
Continuous
 62
     7
100
AcDbLine
 10
-72.42500000073998
 20
156.9000133475931
 30
0.0
 11
-72.42500000073998
 21
154.8320506452928
 31
0.0
  0
LINE
  5
26C
330
5C
100
AcDbEntity
  8
0
  6
Continuous
 62
     7
100
AcDbLine
 10
-72.42500000073998
 20
166.249999837724
 30
0.0
 11
-75.00000000073999
 21
166.249999837724
 31
0.0
  0
LINE
  5
26D
330
5C
100
AcDbEntity
  8
0
  6
Continuous
 62
     7
100
AcDbLine
 10
-75.00000000073999
 20
175.9999998377239
 30
0.0
 11
-70.92500000073998
 21
175.9999998377239
 31
0.0
  0
LINE
  5
26E
330
5C
100
AcDbEntity
  8
0
  6
Continuous
 62
     7
100
AcDbLine
 10
-75.00000000073999
 20
147.9499998377239
 30
0.0
 11
-72.45000000073996
 21
147.9499998377239
 31
0.0
  0
LINE
  5
26F
330
5C
100
AcDbEntity
  8
0
  6
Continuous
 62
     7
100
AcDbLine
 10
-72.45000000073996
 20
147.4256441847419
 30
0.0
 11
-72.45000000073996
 21
145.549999837724
 31
0.0
  0
LINE
  5
270
330
5C
100
AcDbEntity
  8
0
  6
Continuous
 62
     7
100
AcDbLine
 10
-72.45000000073996
 20
147.4256441847419
 30
0.0
 11
-71.70000000073999
 21
147.4256441847419
 31
0.0
  0
LINE
  5
271
330
5C
100
AcDbEntity
  8
0
  6
Continuous
 62
     7
100
AcDbLine
 10
-70.92500000073998
 20
147.6999998377239
 30
0.0
 11
-71.70000000073999
 21
147.6999998377239
 31
0.0
  0
LINE
  5
272
330
5C
100
AcDbEntity
  8
0
  6
Continuous
 62
     7
100
AcDbLine
 10
-72.45000000073996
 20
147.9499998377239
 30
0.0
 11
-72.45000000073996
 21
147.4256441847419
 31
0.0
  0
LINE
  5
273
330
5C
100
AcDbEntity
  8
0
  6
Continuous
 62
     7
100
AcDbLine
 10
-72.45000000073996
 20
145.549999837724
 30
0.0
 11
-71.70000000073999
 21
145.549999837724
 31
0.0
  0
LINE
  5
274
330
5C
100
AcDbEntity
  8
0
  6
Continuous
 62
     7
100
AcDbLine
 10
-79.07500000073999
 20
176.4999998377239
 30
0.0
 11
-75.00000000073999
 21
176.4999998377239
 31
0.0
  0
LINE
  5
275
330
5C
100
AcDbEntity
  8
0
  6
Continuous
 62
     7
100
AcDbLine
 10
-79.07500000073999
 20
147.6999998377239
 30
0.0
 11
-79.07500000073999
 21
153.0999998377239
 31
0.0
  0
LINE
  5
276
330
5C
100
AcDbEntity
  8
0
  6
Continuous
 62
     7
100
AcDbLine
 10
-79.07500000073999
 20
175.9999998377239
 30
0.0
 11
-79.07500000073999
 21
176.4999998377239
 31
0.0
  0
ENDBLK
  5
5E
330
5C
100
AcDbEntity
  8
0
100
AcDbBlockEnd
  0
BLOCK
  5
61
330
5F
100
AcDbEntity
  8
0
100
AcDbBlockBegin
  2
SA_Links1
 70
     0
 10
-75.00000000037005
 20
161.0
 30
0.0
  3
SA_Links1
  1

  0
INSERT
  5
60
330
5F
100
AcDbEntity
  8
0
100
AcDbBlockReference
  2
MSLKG_5-select__4
 10
-79.07500000073999
 20
145.549999837724
 30
0.0
  0
MTEXT
  5
277
330
5F
100
AcDbEntity
  8
1
 62
     6
100
AcDbMText
 10
-75.00000000037005
 20
140.5500001907349
 30
0.0
 40
5.0
 41
0.0
 71
     2
 72
     1
  1
 
  7
CONVERTER_11
 73
     1
 44
1.32052821128451
  0
ENDBLK
  5
62
330
5F
100
AcDbEntity
  8
0
100
AcDbBlockEnd
  0
BLOCK
  5
64
330
63
100
AcDbEntity
  8
0
100
AcDbBlockBegin
  2
MSLKG_5-select__5
 70
     0
 10
-197.2249996177902
 20
145.5499998377243
 30
0.0
  3
MSLKG_5-select__5
  1

  0
LINE
  5
278
330
63
100
AcDbEntity
  8
0
  6
Continuous
 62
     7
100
AcDbLine
 10
-189.0749996177902
 20
175.9999998377239
 30
0.0
 11
-189.0749996177902
 21
155.986751183672
 31
0.0
  0
LINE
  5
279
330
63
100
AcDbEntity
  8
0
  6
Continuous
 62
     7
100
AcDbLine
 10
-193.1499996177902
 20
147.9499998377239
 30
0.0
 11
-195.6999996177902
 21
147.9499998377239
 31
0.0
  0
LINE
  5
27A
330
63
100
AcDbEntity
  8
0
  6
Continuous
 62
     7
100
AcDbLine
 10
-197.2249996177902
 20
147.6999998377239
 30
0.0
 11
-196.4499996177902
 21
147.6999998377239
 31
0.0
  0
LINE
  5
27B
330
63
100
AcDbEntity
  8
0
  6
Continuous
 62
     7
100
AcDbLine
 10
-196.4499996177902
 20
147.6999998377239
 30
0.0
 11
-195.7249996177902
 21
147.6999998377239
 31
0.0
  0
LINE
  5
27C
330
63
100
AcDbEntity
  8
0
  6
Continuous
 62
     7
100
AcDbLine
 10
-189.8499996177902
 20
147.6999998377239
 30
0.0
 11
-189.0749996177902
 21
147.6999998377239
 31
0.0
  0
LINE
  5
27D
330
63
100
AcDbEntity
  8
0
  6
Continuous
 62
     7
100
AcDbLine
 10
-191.5499996177902
 20
151.874999837724
 30
0.0
 11
-194.7499996177902
 21
151.874999837724
 31
0.0
  0
LINE
  5
27E
330
63
100
AcDbEntity
  8
0
  6
Continuous
 62
     7
100
AcDbLine
 10
-193.1499996177902
 20
151.4499998377239
 30
0.0
 11
-195.6999996177902
 21
151.4499998377239
 31
0.0
  0
LINE
  5
27F
330
63
100
AcDbEntity
  8
0
  6
Continuous
 62
     7
100
AcDbLine
 10
-196.4499996177902
 20
153.0999998377239
 30
0.0
 11
-196.4499996177902
 21
153.0706928470634
 31
0.0
  0
LINE
  5
280
330
63
100
AcDbEntity
  8
0
  6
Continuous
 62
     7
100
AcDbLine
 10
-195.6999996177902
 20
153.0706928470634
 30
0.0
 11
-196.4499996177902
 21
153.0706928470634
 31
0.0
  0
LINE
  5
281
330
63
100
AcDbEntity
  8
0
  6
Continuous
 62
     7
100
AcDbLine
 10
-190.5999996177901
 20
151.4499998377239
 30
0.0
 11
-190.5999996177901
 21
151.5779009939143
 31
0.0
  0
LINE
  5
282
330
63
100
AcDbEntity
  8
0
  6
Continuous
 62
     7
100
AcDbLine
 10
-195.6999996177902
 20
151.5779009939143
 30
0.0
 11
-196.4499996177902
 21
151.5779009939143
 31
0.0
  0
LINE
  5
283
330
63
100
AcDbEntity
  8
0
  6
Continuous
 62
     7
100
AcDbLine
 10
-190.5999996177901
 20
151.5779009939143
 30
0.0
 11
-190.5999996177901
 21
153.0706928470634
 31
0.0
  0
LINE
  5
284
330
63
100
AcDbEntity
  8
0
  6
Continuous
 62
     7
100
AcDbLine
 10
-196.4499996177902
 20
151.5779009939143
 30
0.0
 11
-196.4499996177902
 21
153.0706928470634
 31
0.0
  0
LINE
  5
285
330
63
100
AcDbEntity
  8
0
  6
Continuous
 62
     7
100
AcDbLine
 10
-190.5999996177901
 20
151.4499998377239
 30
0.0
 11
-193.1499996177902
 21
151.4499998377239
 31
0.0
  0
LINE
  5
286
330
63
100
AcDbEntity
  8
0
  6
Continuous
 62
     7
100
AcDbLine
 10
-195.6999996177902
 20
151.5779009939143
 30
0.0
 11
-195.6999996177902
 21
153.0706928470634
 31
0.0
  0
LINE
  5
287
330
63
100
AcDbEntity
  8
0
  6
Continuous
 62
     7
100
AcDbLine
 10
-190.5999996177901
 20
151.5779009939143
 30
0.0
 11
-189.8499996177902
 21
151.5779009939143
 31
0.0
  0
LINE
  5
288
330
63
100
AcDbEntity
  8
0
  6
Continuous
 62
     7
100
AcDbLine
 10
-189.8499996177902
 20
153.0706928470634
 30
0.0
 11
-189.8499996177902
 21
153.0999998377239
 31
0.0
  0
LINE
  5
289
330
63
100
AcDbEntity
  8
0
  6
Continuous
 62
     7
100
AcDbLine
 10
-190.5999996177901
 20
153.0706928470634
 30
0.0
 11
-189.8499996177902
 21
153.0706928470634
 31
0.0
  0
LINE
  5
28A
330
63
100
AcDbEntity
  8
0
  6
Continuous
 62
     7
100
AcDbLine
 10
-189.8499996177902
 20
151.5779009939143
 30
0.0
 11
-189.8499996177902
 21
153.0706928470634
 31
0.0
  0
LINE
  5
28B
330
63
100
AcDbEntity
  8
0
  6
Continuous
 62
     7
100
AcDbLine
 10
-195.7249996177902
 20
166.249999837724
 30
0.0
 11
-195.7249996177902
 21
156.9000133475931
 31
0.0
  0
LINE
  5
28C
330
63
100
AcDbEntity
  8
0
  6
Continuous
 62
     7
100
AcDbLine
 10
-191.5499996177902
 20
151.874999837724
 30
0.0
 11
-191.5499996177902
 21
156.524999837724
 31
0.0
  0
LINE
  5
28D
330
63
100
AcDbEntity
  8
0
  6
Continuous
 62
     7
100
AcDbLine
 10
-191.5499996177902
 20
156.524999837724
 30
0.0
 11
-194.7499996177902
 21
156.524999837724
 31
0.0
  0
LINE
  5
28E
330
63
100
AcDbEntity
  8
0
  6
Continuous
 62
     7
100
AcDbLine
 10
-196.4499996177902
 20
154.8320506452928
 30
0.0
 11
-195.7249996177902
 21
154.8320506452928
 31
0.0
  0
LINE
  5
28F
330
63
100
AcDbEntity
  8
0
  6
Continuous
 62
     7
100
AcDbLine
 10
-196.4499996177902
 20
154.8320506452928
 30
0.0
 11
-196.4499996177902
 21
153.0999998377239
 31
0.0
  0
LINE
  5
290
330
63
100
AcDbEntity
  8
0
  6
Continuous
 62
     7
100
AcDbLine
 10
-197.2249996177902
 20
155.986751183672
 30
0.0
 11
-196.4499996177902
 21
155.986751183672
 31
0.0
  0
LINE
  5
291
330
63
100
AcDbEntity
  8
0
  6
Continuous
 62
     7
100
AcDbLine
 10
-195.7249996177902
 20
156.9000133475931
 30
0.0
 11
-195.7249996177902
 21
154.8320506452928
 31
0.0
  0
LINE
  5
292
330
63
100
AcDbEntity
  8
0
  6
Continuous
 62
     7
100
AcDbLine
 10
-196.4499996177902
 20
155.986751183672
 30
0.0
 11
-196.4499996177902
 21
154.8320506452928
 31
0.0
  0
LINE
  5
293
330
63
100
AcDbEntity
  8
0
  6
Continuous
 62
     7
100
AcDbLine
 10
-195.7249996177902
 20
156.9000133475931
 30
0.0
 11
-193.1499996177902
 21
156.9000133475931
 31
0.0
  0
LINE
  5
294
330
63
100
AcDbEntity
  8
0
  6
Continuous
 62
     7
100
AcDbLine
 10
-196.4499996177902
 20
153.0999998377239
 30
0.0
 11
-197.2249996177902
 21
153.0999998377239
 31
0.0
  0
LINE
  5
295
330
63
100
AcDbEntity
  8
0
  6
Continuous
 62
     7
100
AcDbLine
 10
-197.2249996177902
 20
155.986751183672
 30
0.0
 11
-197.2249996177902
 21
153.0999998377239
 31
0.0
  0
LINE
  5
296
330
63
100
AcDbEntity
  8
0
  6
Continuous
 62
     7
100
AcDbLine
 10
-193.1499996177902
 20
166.249999837724
 30
0.0
 11
-195.7249996177902
 21
166.249999837724
 31
0.0
  0
LINE
  5
297
330
63
100
AcDbEntity
  8
0
  6
Continuous
 62
     2
100
AcDbLine
 10
-193.1499996177902
 20
166.249999837724
 30
0.0
 11
-193.1499996177902
 21
156.9000133475931
 31
0.0
  0
LINE
  5
298
330
63
100
AcDbEntity
  8
0
  6
Continuous
 62
     7
100
AcDbLine
 10
-190.5749996177902
 20
156.9000133475931
 30
0.0
 11
-190.5749996177902
 21
166.249999837724
 31
0.0
  0
LINE
  5
299
330
63
100
AcDbEntity
  8
0
  6
Continuous
 62
     7
100
AcDbLine
 10
-190.5749996177902
 20
150.7049998377239
 30
0.0
 11
-189.8499996177902
 21
151.4299998377239
 31
0.0
  0
LINE
  5
29A
330
63
100
AcDbEntity
  8
0
  6
Continuous
 62
     7
100
AcDbLine
 10
-189.0749996177902
 20
153.0999998377239
 30
0.0
 11
-189.0749996177902
 21
147.6999998377239
 31
0.0
  0
LINE
  5
29B
330
63
100
AcDbEntity
  8
0
  6
Continuous
 62
     7
100
AcDbLine
 10
-190.5749996177902
 20
147.6999998377239
 30
0.0
 11
-190.5749996177902
 21
150.7049998377239
 31
0.0
  0
LINE
  5
29C
330
63
100
AcDbEntity
  8
0
  6
Continuous
 62
     7
100
AcDbLine
 10
-190.5999996177901
 20
147.9499998377239
 30
0.0
 11
-190.5999996177901
 21
151.4499998377239
 31
0.0
  0
LINE
  5
29D
330
63
100
AcDbEntity
  8
0
  6
Continuous
 62
     7
100
AcDbLine
 10
-189.0749996177902
 20
153.0999998377239
 30
0.0
 11
-189.8499996177902
 21
153.0999998377239
 31
0.0
  0
LINE
  5
29E
330
63
100
AcDbEntity
  8
0
  6
Continuous
 62
     7
100
AcDbLine
 10
-189.8499996177902
 20
151.4299998377239
 30
0.0
 11
-189.8499996177902
 21
151.5779009939143
 31
0.0
  0
LINE
  5
29F
330
63
100
AcDbEntity
  8
0
  6
Continuous
 62
     7
100
AcDbLine
 10
-190.5749996177902
 20
166.249999837724
 30
0.0
 11
-193.1499996177902
 21
166.249999837724
 31
0.0
  0
LINE
  5
2A0
330
63
100
AcDbEntity
  8
0
  6
Continuous
 62
     7
100
AcDbLine
 10
-190.5749996177902
 20
156.9000133475931
 30
0.0
 11
-190.5749996177902
 21
154.8320506452928
 31
0.0
  0
LINE
  5
2A1
330
63
100
AcDbEntity
  8
0
  6
Continuous
 62
     7
100
AcDbLine
 10
-189.8499996177902
 20
154.8320506452928
 30
0.0
 11
-190.5749996177902
 21
154.8320506452928
 31
0.0
  0
LINE
  5
2A2
330
63
100
AcDbEntity
  8
0
  6
Continuous
 62
     7
100
AcDbLine
 10
-193.1499996177902
 20
156.9000133475931
 30
0.0
 11
-190.5749996177902
 21
156.9000133475931
 31
0.0
  0
LINE
  5
2A3
330
63
100
AcDbEntity
  8
0
  6
Continuous
 62
     7
100
AcDbLine
 10
-195.6999996177902
 20
145.5499998377243
 30
0.0
 11
-195.6999996177902
 21
147.4256441847419
 31
0.0
  0
LINE
  5
2A4
330
63
100
AcDbEntity
  8
0
  6
Continuous
 62
     7
100
AcDbLine
 10
-195.6999996177902
 20
145.5499998377243
 30
0.0
 11
-196.4499996177902
 21
145.5499998377243
 31
0.0
  0
LINE
  5
2A5
330
63
100
AcDbEntity
  8
0
  6
Continuous
 62
     7
100
AcDbLine
 10
-195.6999996177902
 20
147.4256441847419
 30
0.0
 11
-195.6999996177902
 21
147.9499998377239
 31
0.0
  0
LINE
  5
2A6
330
63
100
AcDbEntity
  8
0
  6
Continuous
 62
     7
100
AcDbLine
 10
-196.4499996177902
 20
145.5499998377243
 30
0.0
 11
-196.4499996177902
 21
147.4256441847419
 31
0.0
  0
LINE
  5
2A7
330
63
100
AcDbEntity
  8
0
  6
Continuous
 62
     7
100
AcDbLine
 10
-196.4499996177902
 20
147.4256441847419
 30
0.0
 11
-196.4499996177902
 21
147.6999998377239
 31
0.0
  0
LINE
  5
2A8
330
63
100
AcDbEntity
  8
0
  6
Continuous
 62
     7
100
AcDbLine
 10
-195.6999996177902
 20
147.4256441847419
 30
0.0
 11
-196.4499996177902
 21
147.4256441847419
 31
0.0
  0
LINE
  5
2A9
330
63
100
AcDbEntity
  8
0
  6
Continuous
 62
     7
100
AcDbLine
 10
-189.8499996177902
 20
154.8320506452928
 30
0.0
 11
-189.8499996177902
 21
155.986751183672
 31
0.0
  0
LINE
  5
2AA
330
63
100
AcDbEntity
  8
0
  6
Continuous
 62
     7
100
AcDbLine
 10
-189.0749996177902
 20
155.986751183672
 30
0.0
 11
-189.0749996177902
 21
153.0999998377239
 31
0.0
  0
LINE
  5
2AB
330
63
100
AcDbEntity
  8
0
  6
Continuous
 62
     7
100
AcDbLine
 10
-189.8499996177902
 20
153.0999998377239
 30
0.0
 11
-189.8499996177902
 21
154.8320506452928
 31
0.0
  0
LINE
  5
2AC
330
63
100
AcDbEntity
  8
0
  6
Continuous
 62
     7
100
AcDbLine
 10
-189.0749996177902
 20
155.986751183672
 30
0.0
 11
-189.8499996177902
 21
155.986751183672
 31
0.0
  0
LINE
  5
2AD
330
63
100
AcDbEntity
  8
0
  6
Continuous
 62
     7
100
AcDbLine
 10
-189.0749996177902
 20
176.499999837724
 30
0.0
 11
-189.0749996177902
 21
175.9999998377239
 31
0.0
  0
LINE
  5
2AE
330
63
100
AcDbEntity
  8
0
  6
Continuous
 62
     7
100
AcDbLine
 10
-193.1499996177902
 20
176.499999837724
 30
0.0
 11
-189.0749996177902
 21
176.499999837724
 31
0.0
  0
LINE
  5
2AF
330
63
100
AcDbEntity
  8
0
  6
Continuous
 62
     7
100
AcDbLine
 10
-190.5999996177901
 20
147.9499998377239
 30
0.0
 11
-193.1499996177902
 21
147.9499998377239
 31
0.0
  0
LINE
  5
2B0
330
63
100
AcDbEntity
  8
0
  6
Continuous
 62
     7
100
AcDbLine
 10
-190.5999996177901
 20
145.5499998377243
 30
0.0
 11
-190.5999996177901
 21
147.4256441847419
 31
0.0
  0
LINE
  5
2B1
330
63
100
AcDbEntity
  8
0
  6
Continuous
 62
     7
100
AcDbLine
 10
-190.5999996177901
 20
145.5499998377243
 30
0.0
 11
-189.8499996177902
 21
145.5499998377243
 31
0.0
  0
LINE
  5
2B2
330
63
100
AcDbEntity
  8
0
  6
Continuous
 62
     7
100
AcDbLine
 10
-190.5749996177902
 20
147.6999998377239
 30
0.0
 11
-189.8499996177902
 21
147.6999998377239
 31
0.0
  0
LINE
  5
2B3
330
63
100
AcDbEntity
  8
0
  6
Continuous
 62
     7
100
AcDbLine
 10
-190.5999996177901
 20
147.4256441847419
 30
0.0
 11
-190.5999996177901
 21
147.9499998377239
 31
0.0
  0
LINE
  5
2B4
330
63
100
AcDbEntity
  8
0
  6
Continuous
 62
     7
100
AcDbLine
 10
-190.5999996177901
 20
147.4256441847419
 30
0.0
 11
-189.8499996177902
 21
147.4256441847419
 31
0.0
  0
LINE
  5
2B5
330
63
100
AcDbEntity
  8
0
  6
Continuous
 62
     7
100
AcDbLine
 10
-189.8499996177902
 20
147.4256441847419
 30
0.0
 11
-189.8499996177902
 21
147.6999998377239
 31
0.0
  0
LINE
  5
2B6
330
63
100
AcDbEntity
  8
0
  6
Continuous
 62
     7
100
AcDbLine
 10
-189.8499996177902
 20
145.5499998377243
 30
0.0
 11
-189.8499996177902
 21
147.4256441847419
 31
0.0
  0
LINE
  5
2B7
330
63
100
AcDbEntity
  8
0
  6
Continuous
 62
     7
100
AcDbLine
 10
-194.7499996177902
 20
151.874999837724
 30
0.0
 11
-194.7499996177902
 21
156.524999837724
 31
0.0
  0
LINE
  5
2B8
330
63
100
AcDbEntity
  8
0
  6
Continuous
 62
     2
100
AcDbLine
 10
-193.1499996177902
 20
166.249999837724
 30
0.0
 11
-193.1499996177902
 21
175.9999998377239
 31
0.0
  0
LINE
  5
2B9
330
63
100
AcDbEntity
  8
0
  6
Continuous
 62
     7
100
AcDbLine
 10
-195.7249996177902
 20
147.6999998377239
 30
0.0
 11
-195.7249996177902
 21
150.704999837724
 31
0.0
  0
LINE
  5
2BA
330
63
100
AcDbEntity
  8
0
  6
Continuous
 62
     2
100
AcDbLine
 10
-193.1499996177902
 20
147.9499998377239
 30
0.0
 11
-193.1499996177902
 21
151.4499998377239
 31
0.0
  0
LINE
  5
2BB
330
63
100
AcDbEntity
  8
0
  6
Continuous
 62
     7
100
AcDbLine
 10
-195.6999996177902
 20
147.9499998377239
 30
0.0
 11
-195.6999996177902
 21
151.4499998377239
 31
0.0
  0
LINE
  5
2BC
330
63
100
AcDbEntity
  8
0
  6
Continuous
 62
     7
100
AcDbLine
 10
-195.6999996177902
 20
151.4499998377239
 30
0.0
 11
-195.6999996177902
 21
151.5779009939143
 31
0.0
  0
LINE
  5
2BD
330
63
100
AcDbEntity
  8
0
  6
Continuous
 62
     2
100
AcDbLine
 10
-193.1499996177902
 20
175.9999998377239
 30
0.0
 11
-193.1499996177902
 21
176.499999837724
 31
0.0
  0
LINE
  5
2BE
330
63
100
AcDbEntity
  8
0
  6
Continuous
 62
     7
100
AcDbLine
 10
-189.0749996177902
 20
175.9999998377239
 30
0.0
 11
-193.1499996177902
 21
175.9999998377239
 31
0.0
  0
LINE
  5
2BF
330
63
100
AcDbEntity
  8
0
  6
Continuous
 62
     7
100
AcDbLine
 10
-196.4499996177902
 20
151.429999837724
 30
0.0
 11
-195.7249996177902
 21
150.704999837724
 31
0.0
  0
LINE
  5
2C0
330
63
100
AcDbEntity
  8
0
  6
Continuous
 62
     7
100
AcDbLine
 10
-197.2249996177902
 20
153.0999998377239
 30
0.0
 11
-197.2249996177902
 21
147.6999998377239
 31
0.0
  0
LINE
  5
2C1
330
63
100
AcDbEntity
  8
0
  6
Continuous
 62
     7
100
AcDbLine
 10
-196.4499996177902
 20
151.5779009939143
 30
0.0
 11
-196.4499996177902
 21
151.429999837724
 31
0.0
  0
LINE
  5
2C2
330
63
100
AcDbEntity
  8
0
  6
Continuous
 62
     7
100
AcDbLine
 10
-193.1499996177902
 20
175.9999998377239
 30
0.0
 11
-197.2249996177902
 21
175.9999998377239
 31
0.0
  0
LINE
  5
2C3
330
63
100
AcDbEntity
  8
0
  6
Continuous
 62
     7
100
AcDbLine
 10
-193.1499996177902
 20
176.499999837724
 30
0.0
 11
-197.2249996177902
 21
176.499999837724
 31
0.0
  0
LINE
  5
2C4
330
63
100
AcDbEntity
  8
0
  6
Continuous
 62
     7
100
AcDbLine
 10
-197.2249996177902
 20
155.986751183672
 30
0.0
 11
-197.2249996177902
 21
175.9999998377239
 31
0.0
  0
LINE
  5
2C5
330
63
100
AcDbEntity
  8
0
  6
Continuous
 62
     7
100
AcDbLine
 10
-197.2249996177902
 20
175.9999998377239
 30
0.0
 11
-197.2249996177902
 21
176.499999837724
 31
0.0
  0
ENDBLK
  5
65
330
63
100
AcDbEntity
  8
0
100
AcDbBlockEnd
  0
BLOCK
  5
68
330
66
100
AcDbEntity
  8
0
100
AcDbBlockBegin
  2
SA_Rechts1
 70
     0
 10
-193.1499996181601
 20
161.0
 30
0.0
  3
SA_Rechts1
  1

  0
INSERT
  5
67
330
66
100
AcDbEntity
  8
0
100
AcDbBlockReference
  2
MSLKG_5-select__5
 10
-197.2249996177902
 20
145.5499998377243
 30
0.0
  0
MTEXT
  5
2C6
330
66
100
AcDbEntity
  8
1
 62
     6
100
AcDbMText
 10
-193.1499996181601
 20
140.5500001907349
 30
0.0
 40
5.0
 41
0.0
 71
     2
 72
     1
  1
 
  7
CONVERTER_11
 73
     1
 44
1.32052821128451
  0
ENDBLK
  5
69
330
66
100
AcDbEntity
  8
0
100
AcDbBlockEnd
  0
BLOCK
  5
6B
330
6A
100
AcDbEntity
  8
0
100
AcDbBlockBegin
  2
MSLKG_5-select__6
 70
     0
 10
-145.0750001424849
 20
145.549999837724
 30
0.0
  3
MSLKG_5-select__6
  1

  0
LINE
  5
2C7
330
6A
100
AcDbEntity
  8
0
  6
Continuous
 62
     7
100
AcDbLine
 10
-113.0964643908547
 20
152.7290712811402
 30
0.0
 11
-116.0000001424849
 21
147.6999998377239
 31
0.0
  0
LINE
  5
2C8
330
6A
100
AcDbEntity
  8
0
  6
Continuous
 62
     7
100
AcDbLine
 10
-135.3250001424849
 20
175.9999998377239
 30
0.0
 11
-140.0750001424849
 21
175.9999998377239
 31
0.0
  0
LINE
  5
2C9
330
6A
100
AcDbEntity
  8
0
  6
Continuous
 62
     7
100
AcDbLine
 10
-116.8250001424849
 20
175.9999998377239
 30
0.0
 11
-116.8250001424849
 21
176.499999837724
 31
0.0
  0
LINE
  5
2CA
330
6A
100
AcDbEntity
  8
0
  6
Continuous
 62
     7
100
AcDbLine
 10
-112.0750001424849
 20
175.9999998377239
 30
0.0
 11
-116.8250001424849
 21
175.9999998377239
 31
0.0
  0
LINE
  5
2CB
330
6A
100
AcDbEntity
  8
0
  6
Continuous
 62
     7
100
AcDbLine
 10
-145.0750001424849
 20
153.0999998377239
 30
0.0
 11
-140.0750001424849
 21
155.9867511836721
 31
0.0
  0
LINE
  5
2CC
330
6A
100
AcDbEntity
  8
0
  6
Continuous
 62
     7
100
AcDbLine
 10
-140.0492257932779
 20
152.8536567750732
 30
0.0
 11
-137.6511108423779
 21
148.6999998377239
 31
0.0
  0
LINE
  5
2CD
330
6A
100
AcDbEntity
  8
0
  6
Continuous
 62
     7
100
AcDbLine
 10
-137.6511108423779
 20
148.6999998377239
 30
0.0
 11
-138.2284611115676
 21
147.6999998377239
 31
0.0
  0
LINE
  5
2CE
330
6A
100
AcDbEntity
  8
0
  6
Continuous
 62
     7
100
AcDbLine
 10
-145.0750001424849
 20
153.0999998377239
 30
0.0
 11
-145.0750001424849
 21
147.6999998377239
 31
0.0
  0
LINE
  5
2CF
330
6A
100
AcDbEntity
  8
0
  6
Continuous
 62
     7
100
AcDbLine
 10
-143.4750001424849
 20
147.6999998377239
 30
0.0
 11
-138.2284611115676
 21
147.6999998377239
 31
0.0
  0
LINE
  5
2D0
330
6A
100
AcDbEntity
  8
0
  6
Continuous
 62
     7
100
AcDbLine
 10
-145.0750001424849
 20
147.6999998377239
 30
0.0
 11
-143.4750001424849
 21
147.6999998377239
 31
0.0
  0
LINE
  5
2D1
330
6A
100
AcDbEntity
  8
0
  6
Continuous
 62
     7
100
AcDbLine
 10
-130.0750001424849
 20
148.2999998377239
 30
0.0
 11
-130.0750001424849
 21
149.799999837724
 31
0.0
  0
LINE
  5
2D2
330
6A
100
AcDbEntity
  8
0
  6
Continuous
 62
     7
100
AcDbLine
 10
-130.0750001424849
 20
149.799999837724
 30
0.0
 11
-130.0750001424849
 21
150.0999998377239
 31
0.0
  0
LINE
  5
2D3
330
6A
100
AcDbEntity
  8
0
  6
Continuous
 62
     7
100
AcDbLine
 10
-132.2534445445075
 20
148.4499998377239
 30
0.0
 11
-133.251393344735
 21
148.4499998377239
 31
0.0
  0
LINE
  5
2D4
330
6A
100
AcDbEntity
  8
0
  6
Continuous
 62
     7
100
AcDbLine
 10
-130.0750001424849
 20
150.0999998377239
 30
0.0
 11
-133.7250001424849
 21
150.099999837724
 31
0.0
  0
LINE
  5
2D5
330
6A
100
AcDbEntity
  8
0
  6
Continuous
 62
     7
100
AcDbLine
 10
-133.4750001424849
 20
148.9499998377239
 30
0.0
 11
-133.4750001424849
 21
149.799999837724
 31
0.0
  0
LINE
  5
2D6
330
6A
100
AcDbEntity
  8
0
  6
Continuous
 62
     7
100
AcDbLine
 10
-133.4750001424849
 20
149.799999837724
 30
0.0
 11
-130.0750001424849
 21
149.799999837724
 31
0.0
  0
LINE
  5
2D7
330
6A
100
AcDbEntity
  8
0
  6
Continuous
 62
     7
100
AcDbLine
 10
-133.7250001424849
 20
148.8158310772416
 30
0.0
 11
-133.7250001424849
 21
148.4841685982063
 31
0.0
  0
LINE
  5
2D8
330
6A
100
AcDbEntity
  8
0
  6
Continuous
 62
     7
100
AcDbLine
 10
-143.4750001424849
 20
147.6999998377239
 30
0.0
 11
-143.4750001424849
 21
147.4256441847419
 31
0.0
  0
LINE
  5
2D9
330
6A
100
AcDbEntity
  8
0
  6
Continuous
 62
     7
100
AcDbLine
 10
-136.4750001424849
 20
145.549999837724
 30
0.0
 11
-132.8805138218567
 21
145.5499998377243
 31
0.0
  0
LINE
  5
2DA
330
6A
100
AcDbEntity
  8
0
  6
Continuous
 62
     7
100
AcDbLine
 10
-132.8805138218567
 20
145.5499998377243
 30
0.0
 11
-131.9715367582717
 21
148.0473937947263
 31
0.0
  0
LINE
  5
2DB
330
6A
100
AcDbEntity
  8
0
  6
Continuous
 62
     7
100
AcDbLine
 10
-143.4750001424849
 20
147.4256441847419
 30
0.0
 11
-136.4750001424849
 21
145.549999837724
 31
0.0
  0
LINE
  5
2DC
330
6A
100
AcDbEntity
  8
0
  6
Continuous
 62
     7
100
AcDbLine
 10
-116.8250001424849
 20
176.499999837724
 30
0.0
 11
-135.3250001424849
 21
176.4999998377239
 31
0.0
  0
LINE
  5
2DD
330
6A
100
AcDbEntity
  8
0
  6
Continuous
 62
     7
100
AcDbLine
 10
-135.3250001424849
 20
176.4999998377239
 30
0.0
 11
-135.3250001424849
 21
175.9999998377239
 31
0.0
  0
LINE
  5
2DE
330
6A
100
AcDbEntity
  8
0
  6
Continuous
 62
     7
100
AcDbLine
 10
-133.7250001424849
 20
150.099999837724
 30
0.0
 11
-133.7250001424849
 21
148.8158310772416
 31
0.0
  0
LINE
  5
2DF
330
6A
100
AcDbEntity
  8
0
  6
Continuous
 62
     7
100
AcDbLine
 10
-133.7250001424849
 20
148.4841685982063
 30
0.0
 11
-133.7250001424849
 21
147.6999998377239
 31
0.0
  0
LINE
  5
2E0
330
6A
100
AcDbEntity
  8
0
  6
Continuous
 62
     7
100
AcDbLine
 10
-136.1500001424849
 20
147.6999998377239
 30
0.0
 11
-133.7250001424849
 21
147.6999998377239
 31
0.0
  0
LINE
  5
2E1
330
6A
100
AcDbEntity
  8
0
  6
Continuous
 62
     7
100
AcDbLine
 10
-112.0750001424849
 20
155.986751183672
 30
0.0
 11
-107.0750001424849
 21
153.0999998377239
 31
0.0
  0
LINE
  5
2E2
330
6A
100
AcDbEntity
  8
0
  6
Continuous
 62
     7
100
AcDbLine
 10
-120.178463526698
 20
148.0473937947262
 30
0.0
 11
-119.269486463113
 21
145.5499998377241
 31
0.0
  0
LINE
  5
2E3
330
6A
100
AcDbEntity
  8
0
  6
Continuous
 62
     7
100
AcDbLine
 10
-112.1007744916919
 20
152.8536567750732
 30
0.0
 11
-111.9126612292394
 21
153.1794785032186
 31
0.0
  0
LINE
  5
2E4
330
6A
100
AcDbEntity
  8
0
  6
Continuous
 62
     7
100
AcDbLine
 10
-112.6054815522669
 20
153.5794785032186
 30
0.0
 11
-113.0964643908547
 21
152.7290712811402
 31
0.0
  0
LINE
  5
2E5
330
6A
100
AcDbEntity
  8
0
  6
Continuous
 62
     7
100
AcDbLine
 10
-108.6750001424848
 20
147.4256441847419
 30
0.0
 11
-108.6750001424849
 21
147.6999998377239
 31
0.0
  0
LINE
  5
2E6
330
6A
100
AcDbEntity
  8
0
  6
Continuous
 62
     7
100
AcDbLine
 10
-118.6750001424849
 20
149.799999837724
 30
0.0
 11
-118.6750001424849
 21
148.9499998377239
 31
0.0
  0
LINE
  5
2E7
330
6A
100
AcDbEntity
  8
0
  6
Continuous
 62
     7
100
AcDbLine
 10
-119.269486463113
 20
145.5499998377241
 30
0.0
 11
-115.6750001424849
 21
145.549999837724
 31
0.0
  0
LINE
  5
2E8
330
6A
100
AcDbEntity
  8
0
  6
Continuous
 62
     7
100
AcDbLine
 10
-115.6750001424849
 20
145.549999837724
 30
0.0
 11
-108.6750001424848
 21
147.4256441847419
 31
0.0
  0
LINE
  5
2E9
330
6A
100
AcDbEntity
  8
0
  6
Continuous
 62
     7
100
AcDbLine
 10
-114.4988894425919
 20
148.6999998377239
 30
0.0
 11
-112.1007744916919
 21
152.8536567750732
 31
0.0
  0
LINE
  5
2EA
330
6A
100
AcDbEntity
  8
0
  6
Continuous
 62
     7
100
AcDbLine
 10
-122.0750001424849
 20
149.799999837724
 30
0.0
 11
-122.0750001424849
 21
148.2999998377239
 31
0.0
  0
LINE
  5
2EB
330
6A
100
AcDbEntity
  8
0
  6
Continuous
 62
     7
100
AcDbLine
 10
-122.0750001424849
 20
150.0999998377239
 30
0.0
 11
-122.0750001424849
 21
149.799999837724
 31
0.0
  0
LINE
  5
2EC
330
6A
100
AcDbEntity
  8
0
  6
Continuous
 62
     7
100
AcDbLine
 10
-113.9215391734023
 20
147.6999998377239
 30
0.0
 11
-114.4988894425919
 21
148.6999998377239
 31
0.0
  0
LINE
  5
2ED
330
6A
100
AcDbEntity
  8
0
  6
Continuous
 62
     7
100
AcDbLine
 10
-118.4250001424849
 20
147.6999998377239
 30
0.0
 11
-116.0000001424849
 21
147.6999998377239
 31
0.0
  0
LINE
  5
2EE
330
6A
100
AcDbEntity
  8
0
  6
Continuous
 62
     7
100
AcDbLine
 10
-118.4250001424849
 20
150.0999998377239
 30
0.0
 11
-122.0750001424849
 21
150.0999998377239
 31
0.0
  0
LINE
  5
2EF
330
6A
100
AcDbEntity
  8
0
  6
Continuous
 62
     7
100
AcDbLine
 10
-112.1007744916919
 20
152.8536567750732
 30
0.0
 11
-113.0964643908547
 21
152.7290712811402
 31
0.0
  0
LINE
  5
2F0
330
6A
100
AcDbEntity
  8
0
  6
Continuous
 62
     7
100
AcDbLine
 10
-122.0750001424849
 20
148.2999998377239
 30
0.0
 11
-130.0750001424849
 21
148.2999998377239
 31
0.0
  0
LINE
  5
2F1
330
6A
100
AcDbEntity
  8
0
  6
Continuous
 62
     7
100
AcDbLine
 10
-113.9215391734023
 20
147.6999998377239
 30
0.0
 11
-108.6750001424849
 21
147.6999998377239
 31
0.0
  0
LINE
  5
2F2
330
6A
100
AcDbEntity
  8
0
  6
Continuous
 62
     7
100
AcDbLine
 10
-108.6750001424849
 20
147.6999998377239
 30
0.0
 11
-107.0750001424849
 21
147.6999998377239
 31
0.0
  0
LINE
  5
2F3
330
6A
100
AcDbEntity
  8
0
  6
Continuous
 62
     7
100
AcDbLine
 10
-118.4250001424849
 20
148.8158310772417
 30
0.0
 11
-118.4250001424849
 21
150.0999998377239
 31
0.0
  0
LINE
  5
2F4
330
6A
100
AcDbEntity
  8
0
  6
Continuous
 62
     7
100
AcDbLine
 10
-118.4250001424849
 20
148.4841685982063
 30
0.0
 11
-118.4250001424849
 21
148.8158310772417
 31
0.0
  0
LINE
  5
2F5
330
6A
100
AcDbEntity
  8
0
  6
Continuous
 62
     7
100
AcDbLine
 10
-118.4250001424849
 20
147.6999998377239
 30
0.0
 11
-118.4250001424849
 21
148.4841685982063
 31
0.0
  0
LINE
  5
2F6
330
6A
100
AcDbEntity
  8
0
  6
Continuous
 62
     7
100
AcDbLine
 10
-107.0750001424849
 20
147.6999998377239
 30
0.0
 11
-107.0750001424849
 21
153.0999998377239
 31
0.0
  0
LINE
  5
2F7
330
6A
100
AcDbEntity
  8
0
  6
Continuous
 62
     7
100
AcDbLine
 10
-122.0750001424849
 20
149.799999837724
 30
0.0
 11
-118.6750001424849
 21
149.799999837724
 31
0.0
  0
LINE
  5
2F8
330
6A
100
AcDbEntity
  8
0
  6
Continuous
 62
     7
100
AcDbLine
 10
-118.8986069402348
 20
148.4499998377239
 30
0.0
 11
-119.8965557404623
 21
148.4499998377239
 31
0.0
  0
LINE
  5
2F9
330
6A
100
AcDbEntity
  8
0
  6
Continuous
 62
     7
100
AcDbLine
 10
-136.1500001424849
 20
147.6999998377239
 30
0.0
 11
-139.0535358941151
 21
152.7290712811402
 31
0.0
  0
LINE
  5
2FA
330
6A
100
AcDbEntity
  8
0
  6
Continuous
 62
     7
100
AcDbLine
 10
-140.0750001424849
 20
175.9999998377239
 30
0.0
 11
-140.0750001424849
 21
155.9867511836721
 31
0.0
  0
LINE
  5
2FB
330
6A
100
AcDbEntity
  8
0
  6
Continuous
 62
     7
100
AcDbLine
 10
-139.0535358941151
 20
152.7290712811402
 30
0.0
 11
-140.0492257932779
 21
152.8536567750732
 31
0.0
  0
LINE
  5
2FC
330
6A
100
AcDbEntity
  8
0
  6
Continuous
 62
     7
100
AcDbLine
 10
-139.0535358941151
 20
152.7290712811402
 30
0.0
 11
-139.5445187327029
 21
153.5794785032186
 31
0.0
  0
LINE
  5
2FD
330
6A
100
AcDbEntity
  8
0
  6
Continuous
 62
     7
100
AcDbLine
 10
-140.2373390557304
 20
153.1794785032186
 30
0.0
 11
-140.0492257932779
 21
152.8536567750732
 31
0.0
  0
LINE
  5
2FE
330
6A
100
AcDbEntity
  8
0
  6
Continuous
 62
     7
100
AcDbLine
 10
-112.0750001424849
 20
155.986751183672
 30
0.0
 11
-112.0750001424849
 21
175.9999998377239
 31
0.0
  0
ARC
  5
2FF
330
6A
100
AcDbEntity
  8
0
  6
Continuous
 62
     7
100
AcDbCircle
 10
-133.4750001424849
 20
148.649999837724
 30
0.0
 40
0.2999999999998977
100
AcDbArc
 50
90.0
 51
146.4426902381084
  0
ARC
  5
300
330
6A
100
AcDbEntity
  8
0
  6
Continuous
 62
     7
100
AcDbCircle
 10
-133.4750001424849
 20
148.649999837724
 30
0.0
 40
0.2999999999999616
100
AcDbArc
 50
213.5573097619097
 51
318.1896851041979
  0
ARC
  5
301
330
6A
100
AcDbEntity
  8
0
  6
Continuous
 62
     7
100
AcDbCircle
 10
-132.2534445445075
 20
148.1499998377239
 30
0.0
 40
0.2999999999999809
100
AcDbArc
 50
340.0000000000206
 51
90.0
  0
ARC
  5
302
330
6A
100
AcDbEntity
  8
0
  6
Continuous
 62
     7
100
AcDbCircle
 10
-112.2590713907532
 20
153.3794785032186
 30
0.0
 40
0.4000000000000173
100
AcDbArc
 50
330.0000000000033
 51
149.9999999999916
  0
ARC
  5
303
330
6A
100
AcDbEntity
  8
0
  6
Continuous
 62
     7
100
AcDbCircle
 10
-118.6750001424849
 20
148.649999837724
 30
0.0
 40
0.2999999999999616
100
AcDbArc
 50
33.55730976190967
 51
90.0
  0
ARC
  5
304
330
6A
100
AcDbEntity
  8
0
  6
Continuous
 62
     7
100
AcDbCircle
 10
-118.6750001424849
 20
148.649999837724
 30
0.0
 40
0.3000000000000054
100
AcDbArc
 50
221.8103148958039
 51
326.4426902380903
  0
ARC
  5
305
330
6A
100
AcDbEntity
  8
0
  6
Continuous
 62
     7
100
AcDbCircle
 10
-119.8965557404623
 20
148.1499998377239
 30
0.0
 40
0.3000000000000114
100
AcDbArc
 50
90.0
 51
200.0000000000063
  0
ARC
  5
306
330
6A
100
AcDbEntity
  8
0
  6
Continuous
 62
     7
100
AcDbCircle
 10
-139.8909288942167
 20
153.3794785032186
 30
0.0
 40
0.4000000000000315
100
AcDbArc
 50
30.00000000000021
 51
210.0000000000048
  0
ENDBLK
  5
6C
330
6A
100
AcDbEntity
  8
0
100
AcDbBlockEnd
  0
BLOCK
  5
6F
330
6D
100
AcDbEntity
  8
0
100
AcDbBlockBegin
  2
Vordans1
 70
     0
 10
-126.0749998092652
 20
161.0
 30
0.0
  3
Vordans1
  1

  0
INSERT
  5
6E
330
6D
100
AcDbEntity
  8
0
100
AcDbBlockReference
  2
MSLKG_5-select__6
 10
-145.0750001424849
 20
145.549999837724
 30
0.0
  0
LINE
  5
307
330
6D
100
AcDbEntity
  8
1
  6
DOT_CENTER
 62
     2
100
AcDbLine
 10
-118.5750001424849
 20
151.598964432867
 30
0.0
 11
-118.5750001424849
 21
148.598964432867
 31
0.0
  0
LINE
  5
308
330
6D
100
AcDbEntity
  8
1
  6
DOT_CENTER
 62
     2
100
AcDbLine
 10
-126.0750001424849
 20
149.800827813056
 30
0.0
 11
-126.0750001424849
 21
146.800827813056
 31
0.0
  0
MTEXT
  5
309
330
6D
100
AcDbEntity
  8
1
 62
     6
100
AcDbMText
 10
-126.0749998092653
 20
140.550000190735
 30
0.0
 40
5.0
 41
0.0
 71
     2
 72
     1
  1
 
  7
CONVERTER_11
 73
     1
 44
1.32052821128451
  0
DIMENSION
  5
314
330
6D
100
AcDbEntity
  8
1
100
AcDbDimension
  2
*D18
 10
-145.0750001424849
 20
118.55594655191
 30
0.0
 11
-125.658892601697
 21
122.30594655191
 31
0.0
 70
    32
  1
<>
 71
     5
 42
-1.0
 53
0.00013888888889
  3
ME10_DIM_11
100
AcDbAlignedDimension
 13
-107.0750001424849
 23
147.6999998377239
 33
0.0
 14
-145.0750001424849
 24
147.6999998377239
 34
0.0
100
AcDbRotatedDimension
  0
DIMENSION
  5
321
330
6D
100
AcDbEntity
  8
1
100
AcDbDimension
  2
*D19
 10
-126.0750001424849
 20
136.800827813056
 30
0.0
 11
-122.279502179977
 21
140.225827813056
 31
0.0
 70
    32
  1
<>
 71
     5
 42
-1.0
 53
0.00013888888889
  3
ME10_DIM_12
100
AcDbAlignedDimension
 13
-118.5750001424849
 23
148.598964432867
 33
0.0
 14
-126.0750001424849
 24
146.800827813056
 34
0.0
100
AcDbRotatedDimension
  0
DIMENSION
  5
32C
330
6D
100
AcDbEntity
  8
1
100
AcDbDimension
  2
*D20
 10
-126.0750001424849
 20
128.800827813056
 30
0.0
 11
-116.5750001424849
 21
132.050827813056
 31
0.0
 70
    32
  1
<>
 71
     5
 42
-1.0
 53
0.00013888888889
  3
ME10_DIM_13
100
AcDbAlignedDimension
 13
-107.0750001424849
 23
147.6999998377239
 33
0.0
 14
-126.0750001424849
 24
146.800827813056
 34
0.0
100
AcDbRotatedDimension
  0
DIMENSION
  5
337
330
6D
100
AcDbEntity
  8
1
100
AcDbDimension
  2
*D21
 10
-150.392306191577
 20
176.499999837724
 30
0.0
 11
-153.817306191577
 21
163.707713822577
 31
0.0
 70
    32
  1
<>
 71
     5
 42
-1.0
 53
90.0
  3
ME10_DIM_14
100
AcDbAlignedDimension
 13
-130.0750001424849
 23
149.799999837724
 33
0.0
 14
-135.3250001424849
 24
176.4999998377239
 34
0.0
 50
90.0
100
AcDbRotatedDimension
  0
DIMENSION
  5
342
330
6D
100
AcDbEntity
  8
1
100
AcDbDimension
  2
*D22
 10
-158.392306191577
 20
176.4999998377239
 30
0.0
 11
-161.817306191577
 21
161.0249998377241
 31
0.0
 70
    32
  1
<>
 71
     5
 42
-1.0
 53
90.0
  3
ME10_DIM_15
100
AcDbAlignedDimension
 13
-132.8805138218567
 23
145.5499998377243
 33
0.0
 14
-135.3250001424849
 24
176.4999998377239
 34
0.0
 50
90.0
100
AcDbRotatedDimension
  0
ENDBLK
  5
70
330
6D
100
AcDbEntity
  8
0
100
AcDbBlockEnd
  0
BLOCK
  5
72
330
71
100
AcDbEntity
  8
0
100
AcDbBlockBegin
  2
_rahmen
 70
     0
 10
43.92500026234738
 20
9.70269041848786
 30
0.0
  3
_rahmen
  1

  0
LINE
  5
343
330
71
100
AcDbEntity
  8
1
  6
DOT_CENTER
 62
     2
100
AcDbLine
 10
-81.63314937784003
 20
35.82769041848789
 30
0.0
 11
-76.13314937784003
 21
35.82769041848789
 31
0.0
  0
LINE
  5
344
330
71
100
AcDbEntity
  8
1
  6
PHANTOM
 62
     2
100
AcDbLine
 10
-72.88314937784003
 20
38.57769041848789
 30
0.0
 11
-72.88314937784003
 21
33.07769041848789
 31
0.0
  0
LINE
  5
345
330
71
100
AcDbEntity
  8
1
  6
PHANTOM
 62
     2
100
AcDbLine
 10
-70.13314937784003
 20
35.82769041848789
 30
0.0
 11
-75.63314937784003
 21
35.82769041848789
 31
0.0
  0
LINE
  5
346
330
71
100
AcDbEntity
  8
1
  6
Continuous
 62
     7
100
AcDbLine
 10
-21.31980426440262
 20
23.20269041848789
 30
0.0
 11
-21.31980426440262
 21
31.70269041848798
 31
0.0
  0
LINE
  5
347
330
71
100
AcDbEntity
  8
1
  6
Continuous
 62
     6
100
AcDbLine
 10
-49.21980426440271
 20
31.70269041848798
 30
0.0
 11
43.92500026234907
 21
31.70269041848798
 31
0.0
  0
LINE
  5
348
330
71
100
AcDbEntity
  8
1
  6
Continuous
 62
     7
100
AcDbLine
 10
-85.61980426440263
 20
31.70269041848798
 30
0.0
 11
-85.61980426440263
 21
40.20269041848798
 31
0.0
  0
LINE
  5
349
330
71
100
AcDbEntity
  8
1
  6
Continuous
 62
     7
100
AcDbLine
 10
-49.21980426440271
 20
31.70269041848798
 30
0.0
 11
-49.21980426440271
 21
40.20269041848798
 31
0.0
  0
LINE
  5
34A
330
71
100
AcDbEntity
  8
1
  6
Continuous
 62
     7
100
AcDbLine
 10
8.50659198067027
 20
40.20269041848798
 30
0.0
 11
8.50659198067027
 21
31.70269041848798
 31
0.0
  0
LINE
  5
34B
330
71
100
AcDbEntity
  8
1
  6
Continuous
 62
     7
100
AcDbLine
 10
35.00659198066987
 20
40.20269041848798
 30
0.0
 11
35.00659198066987
 21
31.70269041848798
 31
0.0
  0
LINE
  5
34C
330
71
100
AcDbEntity
  8
1
  6
Continuous
 62
     6
100
AcDbLine
 10
-154.6198042644026
 20
14.70269041848798
 30
0.0
 11
-199.5749997376526
 21
14.70269041848798
 31
0.0
  0
LINE
  5
34D
330
71
100
AcDbEntity
  8
1
  6
Continuous
 62
     7
100
AcDbLine
 10
43.92500026234868
 20
23.20269041848798
 30
0.0
 11
-49.21980426440271
 21
23.20269041848798
 31
0.0
  0
LINE
  5
34E
102
{ACAD_REACTORS
330
460
330
461
102
}
330
71
100
AcDbEntity
  8
0
  6
Continuous
 62
     2
100
AcDbLine
 10
-71.91237532263523
 20
24.00297953415128
 30
0.0
 11
-71.91237532263523
 21
24.87549654095457
 31
0.0
  0
LINE
  5
34F
102
{ACAD_REACTORS
330
460
330
461
102
}
330
71
100
AcDbEntity
  8
0
  6
Continuous
 62
     2
100
AcDbLine
 10
-71.91237532263523
 20
23.04321082666837
 30
0.0
 11
-71.91237532263523
 21
22.17069381986516
 31
0.0
  0
LINE
  5
350
102
{ACAD_REACTORS
330
462
330
463
102
}
330
71
100
AcDbEntity
  8
0
  6
Continuous
 62
     2
100
AcDbLine
 10
-56.57933118634472
 20
24.26473463619178
 30
0.0
 11
-55.47569188677662
 21
24.26473463619178
 31
0.0
  0
LINE
  5
351
102
{ACAD_REACTORS
330
462
330
463
102
}
330
71
100
AcDbEntity
  8
0
  6
Continuous
 62
     2
100
AcDbLine
 10
-55.80967384338331
 20
23.04321082666789
 30
0.0
 11
-55.80967384338331
 21
22.17069381986457
 31
0.0
  0
LINE
  5
352
102
{ACAD_REACTORS
330
46C
330
46D
102
}
330
71
100
AcDbEntity
  8
0
  6
Continuous
 62
     2
100
AcDbLine
 10
-57.67043045876324
 20
25.35538089467858
 30
0.0
 11
-56.27247741182293
 21
26.93623988845357
 31
0.0
  0
LINE
  5
353
102
{ACAD_REACTORS
330
46C
330
46D
102
}
330
71
100
AcDbEntity
  8
0
  6
Continuous
 62
     2
100
AcDbLine
 10
-57.57500704259041
 20
28.40919041848977
 30
0.0
 11
-56.27247741182293
 21
26.93623988845357
 31
0.0
  0
LINE
  5
354
102
{ACAD_REACTORS
330
46C
330
46D
102
}
330
71
100
AcDbEntity
  8
0
  6
Continuous
 62
     2
100
AcDbLine
 10
-54.96994778105653
 20
28.40919041848977
 30
0.0
 11
-53.56722356330931
 21
28.40919041848977
 31
0.0
  0
LINE
  5
355
102
{ACAD_REACTORS
330
46C
330
46D
102
}
330
71
100
AcDbEntity
  8
0
  6
Continuous
 62
     2
100
AcDbLine
 10
-56.26770624101502
 20
25.35538089467858
 30
0.0
 11
-55.57111530294932
 21
26.14311267997229
 31
0.0
  0
LINE
  5
356
102
{ACAD_REACTORS
330
46C
330
46D
102
}
330
71
100
AcDbEntity
  8
0
  6
Continuous
 62
     2
100
AcDbLine
 10
-56.26770624101502
 20
25.35538089467858
 30
0.0
 11
-57.67043045876324
 21
25.35538089467858
 31
0.0
  0
LINE
  5
357
102
{ACAD_REACTORS
330
46E
330
46F
102
}
330
71
100
AcDbEntity
  8
0
  6
Continuous
 62
     2
100
AcDbLine
 10
-57.78970972898011
 20
25.35538089467858
 30
0.0
 11
-59.03021413923301
 21
25.35538089467858
 31
0.0
  0
LINE
  5
358
102
{ACAD_REACTORS
330
470
330
471
102
}
330
71
100
AcDbEntity
  8
0
  6
Continuous
 62
     2
100
AcDbLine
 10
-59.89819374738812
 20
23.21771422802877
 30
0.0
 11
-60.19835898457822
 21
23.98552919401547
 31
0.0
  0
LINE
  5
359
102
{ACAD_REACTORS
330
470
330
471
102
}
330
71
100
AcDbEntity
  8
0
  6
Continuous
 62
     2
100
AcDbLine
 10
-60.49852422177062
 20
23.21771422802877
 30
0.0
 11
-59.89819374738812
 21
23.21771422802877
 31
0.0
  0
LINE
  5
35A
102
{ACAD_REACTORS
330
470
330
471
102
}
330
71
100
AcDbEntity
  8
0
  6
Continuous
 62
     2
100
AcDbLine
 10
-62.21656423664442
 20
21.99619041850428
 30
0.0
 11
-60.97605982639144
 21
21.99619041850428
 31
0.0
  0
LINE
  5
35B
102
{ACAD_REACTORS
330
470
330
471
102
}
330
71
100
AcDbEntity
  8
0
  6
Continuous
 62
     2
100
AcDbLine
 10
-60.81861118970511
 20
25.04999994231537
 30
0.0
 11
-59.57810677945241
 21
25.04999994231537
 31
0.0
  0
LINE
  5
35C
102
{ACAD_REACTORS
330
470
330
471
102
}
330
71
100
AcDbEntity
  8
0
  6
Continuous
 62
     2
100
AcDbLine
 10
-59.57810677945241
 20
25.04999994231537
 30
0.0
 11
-58.18015373251211
 21
21.99619041850428
 31
0.0
  0
LINE
  5
35D
102
{ACAD_REACTORS
330
470
330
471
102
}
330
71
100
AcDbEntity
  8
0
  6
Continuous
 62
     2
100
AcDbLine
 10
-59.42065814276603
 20
21.99619041850428
 30
0.0
 11
-59.63213819624181
 21
22.53715096272217
 31
0.0
  0
LINE
  5
35E
102
{ACAD_REACTORS
330
472
330
473
102
}
330
71
100
AcDbEntity
  8
0
  6
Continuous
 62
     2
100
AcDbLine
 10
-63.56297733835203
 20
21.99619041850428
 30
0.0
 11
-62.37018463618551
 21
21.99619041850428
 31
0.0
  0
LINE
  5
35F
102
{ACAD_REACTORS
330
472
330
473
102
}
330
71
100
AcDbEntity
  8
0
  6
Continuous
 62
     2
100
AcDbLine
 10
-63.56297733835203
 20
24.26473463619178
 30
0.0
 11
-63.56297733835203
 21
21.99619041850428
 31
0.0
  0
LINE
  5
360
102
{ACAD_REACTORS
330
472
330
473
102
}
330
71
100
AcDbEntity
  8
0
  6
Continuous
 62
     2
100
AcDbLine
 10
-64.37407637582663
 20
25.04999994231537
 30
0.0
 11
-64.37407637582663
 21
24.26473463619178
 31
0.0
  0
LINE
  5
361
102
{ACAD_REACTORS
330
474
330
475
102
}
330
71
100
AcDbEntity
  8
0
  6
Continuous
 62
     2
100
AcDbLine
 10
-62.89486249425403
 20
25.35538089467858
 30
0.0
 11
-61.70206979208751
 21
25.35538089467858
 31
0.0
  0
LINE
  5
362
102
{ACAD_REACTORS
330
474
330
475
102
}
330
71
100
AcDbEntity
  8
0
  6
Continuous
 62
     2
100
AcDbLine
 10
-60.46156538183351
 20
27.10041490828459
 30
0.0
 11
-61.70206979208751
 21
28.40919041848977
 31
0.0
  0
LINE
  5
363
102
{ACAD_REACTORS
330
474
330
475
102
}
330
71
100
AcDbEntity
  8
0
  6
Continuous
 62
     2
100
AcDbLine
 10
-59.26877267966691
 20
28.40919041848977
 30
0.0
 11
-60.46156538183351
 21
28.40919041848977
 31
0.0
  0
LINE
  5
364
102
{ACAD_REACTORS
330
474
330
475
102
}
330
71
100
AcDbEntity
  8
0
  6
Continuous
 62
     2
100
AcDbLine
 10
-59.26877267966691
 20
25.35538089467858
 30
0.0
 11
-59.26877267966691
 21
28.40919041848977
 31
0.0
  0
LINE
  5
365
102
{ACAD_REACTORS
330
474
330
475
102
}
330
71
100
AcDbEntity
  8
0
  6
Continuous
 62
     2
100
AcDbLine
 10
-60.46156538183351
 20
25.35538089467858
 30
0.0
 11
-59.26877267966691
 21
25.35538089467858
 31
0.0
  0
LINE
  5
366
102
{ACAD_REACTORS
330
474
330
475
102
}
330
71
100
AcDbEntity
  8
0
  6
Continuous
 62
     2
100
AcDbLine
 10
-61.70206979208751
 20
26.66415640488327
 30
0.0
 11
-60.46156538183351
 21
25.35538089467858
 31
0.0
  0
LINE
  5
367
102
{ACAD_REACTORS
330
476
330
477
102
}
330
71
100
AcDbEntity
  8
0
  6
Continuous
 62
     2
100
AcDbLine
 10
-65.71000420225323
 20
23.74122443211027
 30
0.0
 11
-66.95050861250613
 21
25.04999994231537
 31
0.0
  0
LINE
  5
368
102
{ACAD_REACTORS
330
476
330
477
102
}
330
71
100
AcDbEntity
  8
0
  6
Continuous
 62
     2
100
AcDbLine
 10
-65.71000420225323
 20
25.04999994231537
 30
0.0
 11
-65.71000420225323
 21
23.74122443211027
 31
0.0
  0
LINE
  5
369
102
{ACAD_REACTORS
330
476
330
477
102
}
330
71
100
AcDbEntity
  8
0
  6
Continuous
 62
     2
100
AcDbLine
 10
-64.51721150008683
 20
25.04999994231537
 30
0.0
 11
-65.71000420225323
 21
25.04999994231537
 31
0.0
  0
LINE
  5
36A
102
{ACAD_REACTORS
330
476
330
477
102
}
330
71
100
AcDbEntity
  8
0
  6
Continuous
 62
     2
100
AcDbLine
 10
-64.51721150008683
 20
21.99619041850428
 30
0.0
 11
-64.51721150008683
 21
25.04999994231537
 31
0.0
  0
LINE
  5
36B
102
{ACAD_REACTORS
330
476
330
477
102
}
330
71
100
AcDbEntity
  8
0
  6
Continuous
 62
     2
100
AcDbLine
 10
-66.95050861250613
 20
23.30496592870887
 30
0.0
 11
-65.71000420225323
 21
21.99619041850428
 31
0.0
  0
LINE
  5
36C
102
{ACAD_REACTORS
330
476
330
477
102
}
330
71
100
AcDbEntity
  8
0
  6
Continuous
 62
     2
100
AcDbLine
 10
-66.95050861250613
 20
21.99619041850428
 30
0.0
 11
-66.95050861250613
 21
23.30496592870887
 31
0.0
  0
LINE
  5
36D
102
{ACAD_REACTORS
330
466
330
467
102
}
330
71
100
AcDbEntity
  8
0
  6
Continuous
 62
     2
100
AcDbLine
 10
-64.46934886111461
 20
27.71117681304679
 30
0.0
 11
-63.13342103468693
 21
27.71117681304679
 31
0.0
  0
LINE
  5
36E
102
{ACAD_REACTORS
330
466
330
467
102
}
330
71
100
AcDbEntity
  8
0
  6
Continuous
 62
     2
100
AcDbLine
 10
-64.46934886111461
 20
26.05339450012107
 30
0.0
 11
-64.46934886111461
 21
26.53327885386278
 31
0.0
  0
LINE
  5
36F
102
{ACAD_REACTORS
330
466
330
467
102
}
330
71
100
AcDbEntity
  8
0
  6
Continuous
 62
     2
100
AcDbLine
 10
-63.13342103468693
 20
26.05339450012107
 30
0.0
 11
-64.46934886111461
 21
26.05339450012107
 31
0.0
  0
LINE
  5
370
102
{ACAD_REACTORS
330
466
330
467
102
}
330
71
100
AcDbEntity
  8
0
  6
Continuous
 62
     2
100
AcDbLine
 10
-63.13342103468693
 20
25.35538089467858
 30
0.0
 11
-63.13342103468693
 21
26.05339450012107
 31
0.0
  0
LINE
  5
371
102
{ACAD_REACTORS
330
466
330
467
102
}
330
71
100
AcDbEntity
  8
0
  6
Continuous
 62
     2
100
AcDbLine
 10
-66.28374075846793
 20
25.35538089467858
 30
0.0
 11
-63.13342103468693
 21
25.35538089467858
 31
0.0
  0
LINE
  5
372
102
{ACAD_REACTORS
330
466
330
467
102
}
330
71
100
AcDbEntity
  8
0
  6
Continuous
 62
     2
100
AcDbLine
 10
-66.28374075846793
 20
28.40919041848977
 30
0.0
 11
-63.13342103468693
 21
28.40919041848977
 31
0.0
  0
LINE
  5
373
102
{ACAD_REACTORS
330
466
330
467
102
}
330
71
100
AcDbEntity
  8
0
  6
Continuous
 62
     2
100
AcDbLine
 10
-63.13342103468693
 20
27.71117681304679
 30
0.0
 11
-63.13342103468693
 21
28.40919041848977
 31
0.0
  0
LINE
  5
374
102
{ACAD_REACTORS
330
478
330
479
102
}
330
71
100
AcDbEntity
  8
0
  6
Continuous
 62
     2
100
AcDbLine
 10
-69.14509625360793
 20
27.34035708515518
 30
0.0
 11
-69.14509625360793
 21
28.40919041848977
 31
0.0
  0
LINE
  5
375
102
{ACAD_REACTORS
330
478
330
479
102
}
330
71
100
AcDbEntity
  8
0
  6
Continuous
 62
     2
100
AcDbLine
 10
-69.14509625360793
 20
28.40919041848977
 30
0.0
 11
-67.95230355144153
 21
28.40919041848977
 31
0.0
  0
LINE
  5
376
102
{ACAD_REACTORS
330
478
330
479
102
}
330
71
100
AcDbEntity
  8
0
  6
Continuous
 62
     2
100
AcDbLine
 10
-69.14509625360793
 20
26.48965300352239
 30
0.0
 11
-70.19475383151541
 21
26.48965300352239
 31
0.0
  0
LINE
  5
377
102
{ACAD_REACTORS
330
478
330
479
102
}
330
71
100
AcDbEntity
  8
0
  6
Continuous
 62
     2
100
AcDbLine
 10
-70.19475383151541
 20
26.48965300352239
 30
0.0
 11
-70.19475383151541
 21
25.35538089467858
 31
0.0
  0
LINE
  5
378
102
{ACAD_REACTORS
330
478
330
479
102
}
330
71
100
AcDbEntity
  8
0
  6
Continuous
 62
     2
100
AcDbLine
 10
-71.38754653368201
 20
28.40919041848977
 30
0.0
 11
-71.38754653368201
 21
25.35538089467858
 31
0.0
  0
LINE
  5
379
102
{ACAD_REACTORS
330
46A
330
46B
102
}
330
71
100
AcDbEntity
  8
0
  6
Continuous
 62
     2
100
AcDbLine
 10
-73.34372656523561
 20
27.04035692370746
 30
0.0
 11
-73.34372656523561
 21
27.74608457304967
 31
0.0
  0
LINE
  5
37A
102
{ACAD_REACTORS
330
46A
330
46B
102
}
330
71
100
AcDbEntity
  8
0
  6
Continuous
 62
     2
100
AcDbLine
 10
-74.58423097548973
 20
25.35538089467858
 30
0.0
 11
-73.34372656523561
 21
25.35538089467858
 31
0.0
  0
LINE
  5
37B
102
{ACAD_REACTORS
330
46A
330
46B
102
}
330
71
100
AcDbEntity
  8
0
  6
Continuous
 62
     2
100
AcDbLine
 10
-73.34372656523561
 20
25.35538089467858
 30
0.0
 11
-73.34372656523561
 21
26.29845913582238
 31
0.0
  0
LINE
  5
37C
102
{ACAD_REACTORS
330
464
330
465
102
}
330
71
100
AcDbEntity
  8
0
  6
Continuous
 62
     2
100
AcDbLine
 10
-78.88917682470111
 20
22.70874597406117
 30
0.0
 11
-80.36501008571074
 21
22.70874597406117
 31
0.0
  0
LINE
  5
37D
102
{ACAD_REACTORS
330
464
330
465
102
}
330
71
100
AcDbEntity
  8
0
  6
Continuous
 62
     2
100
AcDbLine
 10
-81.38314937784003
 20
27.98494580308778
 30
0.0
 11
-81.38314937784003
 21
22.42043503388757
 31
0.0
  0
LINE
  5
37E
102
{ACAD_REACTORS
330
464
330
465
102
}
330
71
100
AcDbEntity
  8
0
  6
Continuous
 62
     2
100
AcDbLine
 10
-80.95890476245722
 20
28.40919041847158
 30
0.0
 11
-75.48559267174042
 21
28.40919041847158
 31
0.0
  0
LINE
  5
37F
102
{ACAD_REACTORS
330
464
330
465
102
}
330
71
100
AcDbEntity
  8
0
  6
Continuous
 62
     2
100
AcDbLine
 10
-75.06134805635654
 20
27.98494580308778
 30
0.0
 11
-75.06134805635654
 21
22.42043503388757
 31
0.0
  0
LINE
  5
380
102
{ACAD_REACTORS
330
464
330
465
102
}
330
71
100
AcDbEntity
  8
0
  6
Continuous
 62
     2
100
AcDbLine
 10
-75.48559267174042
 20
21.99619041850428
 30
0.0
 11
-80.95890476245722
 21
21.99619041850428
 31
0.0
  0
LINE
  5
381
102
{ACAD_REACTORS
330
464
330
465
102
}
330
71
100
AcDbEntity
  8
0
  6
Continuous
 62
     2
100
AcDbLine
 10
-78.57345990162452
 20
23.02446289713788
 30
0.0
 11
-78.57345990162452
 21
24.55523382866949
 31
0.0
  0
LINE
  5
382
102
{ACAD_REACTORS
330
464
330
465
102
}
330
71
100
AcDbEntity
  8
0
  6
Continuous
 62
     2
100
AcDbLine
 10
-78.57345990162452
 20
26.77689332079447
 30
0.0
 11
-78.57345990162452
 21
27.38091793985498
 31
0.0
  0
LINE
  5
383
102
{ACAD_REACTORS
330
464
330
465
102
}
330
71
100
AcDbEntity
  8
0
  6
Continuous
 62
     2
100
AcDbLine
 10
-80.36501008571074
 20
27.69663486293118
 30
0.0
 11
-78.88917682470111
 21
27.69663486293118
 31
0.0
  0
LINE
  5
384
102
{ACAD_REACTORS
330
464
330
465
102
}
330
71
100
AcDbEntity
  8
0
  6
Continuous
 62
     2
100
AcDbLine
 10
-80.68072700878642
 20
27.38091793985498
 30
0.0
 11
-80.68072700878642
 21
23.02446289713788
 31
0.0
  0
LINE
  5
385
102
{ACAD_REACTORS
330
46A
330
46B
102
}
330
71
100
AcDbEntity
  8
0
  6
Continuous
 62
     2
100
AcDbLine
 10
-73.34372656523561
 20
26.29845913582238
 30
0.0
 11
-72.58495897745533
 21
26.29845913582238
 31
0.0
  0
LINE
  5
386
102
{ACAD_REACTORS
330
46A
330
46B
102
}
330
71
100
AcDbEntity
  8
0
  6
Continuous
 62
     2
100
AcDbLine
 10
-74.58423097548973
 20
28.40919041848977
 30
0.0
 11
-72.58495897745533
 21
28.40919041848977
 31
0.0
  0
LINE
  5
387
102
{ACAD_REACTORS
330
46A
330
46B
102
}
330
71
100
AcDbEntity
  8
0
  6
Continuous
 62
     2
100
AcDbLine
 10
-74.58423097548973
 20
28.40919041848977
 30
0.0
 11
-74.58423097548973
 21
25.35538089467858
 31
0.0
  0
LINE
  5
388
102
{ACAD_REACTORS
330
46A
330
46B
102
}
330
71
100
AcDbEntity
  8
0
  6
Continuous
 62
     2
100
AcDbLine
 10
-73.34372656523561
 20
27.04035692370746
 30
0.0
 11
-73.02643150369371
 21
27.04035692370746
 31
0.0
  0
LINE
  5
389
102
{ACAD_REACTORS
330
46A
330
46B
102
}
330
71
100
AcDbEntity
  8
0
  6
Continuous
 62
     2
100
AcDbLine
 10
-73.34372656523561
 20
27.74608457304967
 30
0.0
 11
-73.02643150369371
 21
27.74608457304967
 31
0.0
  0
LINE
  5
38A
102
{ACAD_REACTORS
330
478
330
479
102
}
330
71
100
AcDbEntity
  8
0
  6
Continuous
 62
     2
100
AcDbLine
 10
-70.19475383151541
 20
27.34035708515518
 30
0.0
 11
-69.14509625360793
 21
27.34035708515518
 31
0.0
  0
LINE
  5
38B
102
{ACAD_REACTORS
330
478
330
479
102
}
330
71
100
AcDbEntity
  8
0
  6
Continuous
 62
     2
100
AcDbLine
 10
-70.19475383151541
 20
28.40919041848977
 30
0.0
 11
-70.19475383151541
 21
27.34035708515518
 31
0.0
  0
LINE
  5
38C
102
{ACAD_REACTORS
330
478
330
479
102
}
330
71
100
AcDbEntity
  8
0
  6
Continuous
 62
     2
100
AcDbLine
 10
-71.38754653368201
 20
28.40919041848977
 30
0.0
 11
-70.19475383151541
 21
28.40919041848977
 31
0.0
  0
LINE
  5
38D
102
{ACAD_REACTORS
330
478
330
479
102
}
330
71
100
AcDbEntity
  8
0
  6
Continuous
 62
     2
100
AcDbLine
 10
-70.19475383151541
 20
25.35538089467858
 30
0.0
 11
-71.38754653368201
 21
25.35538089467858
 31
0.0
  0
LINE
  5
38E
102
{ACAD_REACTORS
330
478
330
479
102
}
330
71
100
AcDbEntity
  8
0
  6
Continuous
 62
     2
100
AcDbLine
 10
-69.14509625360793
 20
25.35538089467858
 30
0.0
 11
-69.14509625360793
 21
26.48965300352239
 31
0.0
  0
LINE
  5
38F
102
{ACAD_REACTORS
330
478
330
479
102
}
330
71
100
AcDbEntity
  8
0
  6
Continuous
 62
     2
100
AcDbLine
 10
-67.95230355144153
 20
25.35538089467858
 30
0.0
 11
-69.14509625360793
 21
25.35538089467858
 31
0.0
  0
LINE
  5
390
102
{ACAD_REACTORS
330
478
330
479
102
}
330
71
100
AcDbEntity
  8
0
  6
Continuous
 62
     2
100
AcDbLine
 10
-67.95230355144153
 20
28.40919041848977
 30
0.0
 11
-67.95230355144153
 21
25.35538089467858
 31
0.0
  0
LINE
  5
391
102
{ACAD_REACTORS
330
466
330
467
102
}
330
71
100
AcDbEntity
  8
0
  6
Continuous
 62
     2
100
AcDbLine
 10
-64.46934886111461
 20
26.53327885386278
 30
0.0
 11
-63.13342103468693
 21
26.53327885386278
 31
0.0
  0
LINE
  5
392
102
{ACAD_REACTORS
330
466
330
467
102
}
330
71
100
AcDbEntity
  8
0
  6
Continuous
 62
     2
100
AcDbLine
 10
-63.13342103468693
 20
26.53327885386278
 30
0.0
 11
-63.13342103468693
 21
27.23129245930508
 31
0.0
  0
LINE
  5
393
102
{ACAD_REACTORS
330
466
330
467
102
}
330
71
100
AcDbEntity
  8
0
  6
Continuous
 62
     2
100
AcDbLine
 10
-63.13342103468693
 20
27.23129245930508
 30
0.0
 11
-64.46934886111461
 21
27.23129245930508
 31
0.0
  0
LINE
  5
394
102
{ACAD_REACTORS
330
466
330
467
102
}
330
71
100
AcDbEntity
  8
0
  6
Continuous
 62
     2
100
AcDbLine
 10
-64.46934886111461
 20
27.23129245930508
 30
0.0
 11
-64.46934886111461
 21
27.71117681304679
 31
0.0
  0
LINE
  5
395
102
{ACAD_REACTORS
330
476
330
477
102
}
330
71
100
AcDbEntity
  8
0
  6
Continuous
 62
     2
100
AcDbLine
 10
-68.14330131467372
 20
21.99619041850428
 30
0.0
 11
-66.95050861250613
 21
21.99619041850428
 31
0.0
  0
LINE
  5
396
102
{ACAD_REACTORS
330
476
330
477
102
}
330
71
100
AcDbEntity
  8
0
  6
Continuous
 62
     2
100
AcDbLine
 10
-65.71000420225323
 20
21.99619041850428
 30
0.0
 11
-64.51721150008683
 21
21.99619041850428
 31
0.0
  0
LINE
  5
397
102
{ACAD_REACTORS
330
476
330
477
102
}
330
71
100
AcDbEntity
  8
0
  6
Continuous
 62
     2
100
AcDbLine
 10
-66.95050861250613
 20
25.04999994231537
 30
0.0
 11
-68.14330131467372
 21
25.04999994231537
 31
0.0
  0
LINE
  5
398
102
{ACAD_REACTORS
330
476
330
477
102
}
330
71
100
AcDbEntity
  8
0
  6
Continuous
 62
     2
100
AcDbLine
 10
-68.14330131467372
 20
25.04999994231537
 30
0.0
 11
-68.14330131467372
 21
21.99619041850428
 31
0.0
  0
LINE
  5
399
102
{ACAD_REACTORS
330
474
330
475
102
}
330
71
100
AcDbEntity
  8
0
  6
Continuous
 62
     2
100
AcDbLine
 10
-60.46156538183351
 20
28.40919041848977
 30
0.0
 11
-60.46156538183351
 21
27.10041490828459
 31
0.0
  0
LINE
  5
39A
102
{ACAD_REACTORS
330
474
330
475
102
}
330
71
100
AcDbEntity
  8
0
  6
Continuous
 62
     2
100
AcDbLine
 10
-61.70206979208751
 20
28.40919041848977
 30
0.0
 11
-62.89486249425403
 21
28.40919041848977
 31
0.0
  0
LINE
  5
39B
102
{ACAD_REACTORS
330
474
330
475
102
}
330
71
100
AcDbEntity
  8
0
  6
Continuous
 62
     2
100
AcDbLine
 10
-62.89486249425403
 20
28.40919041848977
 30
0.0
 11
-62.89486249425403
 21
25.35538089467858
 31
0.0
  0
LINE
  5
39C
102
{ACAD_REACTORS
330
474
330
475
102
}
330
71
100
AcDbEntity
  8
0
  6
Continuous
 62
     2
100
AcDbLine
 10
-61.70206979208751
 20
25.35538089467858
 30
0.0
 11
-61.70206979208751
 21
26.66415640488327
 31
0.0
  0
LINE
  5
39D
102
{ACAD_REACTORS
330
472
330
473
102
}
330
71
100
AcDbEntity
  8
0
  6
Continuous
 62
     2
100
AcDbLine
 10
-62.37018463618551
 20
21.99619041850428
 30
0.0
 11
-62.37018463618551
 21
24.26473463619178
 31
0.0
  0
LINE
  5
39E
102
{ACAD_REACTORS
330
472
330
473
102
}
330
71
100
AcDbEntity
  8
0
  6
Continuous
 62
     2
100
AcDbLine
 10
-62.37018463618551
 20
24.26473463619178
 30
0.0
 11
-61.55908559871301
 21
24.26473463619178
 31
0.0
  0
LINE
  5
39F
102
{ACAD_REACTORS
330
472
330
473
102
}
330
71
100
AcDbEntity
  8
0
  6
Continuous
 62
     2
100
AcDbLine
 10
-61.55908559871301
 20
24.26473463619178
 30
0.0
 11
-61.55908559871301
 21
25.04999994231537
 31
0.0
  0
LINE
  5
3A0
102
{ACAD_REACTORS
330
472
330
473
102
}
330
71
100
AcDbEntity
  8
0
  6
Continuous
 62
     2
100
AcDbLine
 10
-61.55908559871301
 20
25.04999994231537
 30
0.0
 11
-64.37407637582663
 21
25.04999994231537
 31
0.0
  0
LINE
  5
3A1
102
{ACAD_REACTORS
330
472
330
473
102
}
330
71
100
AcDbEntity
  8
0
  6
Continuous
 62
     2
100
AcDbLine
 10
-64.37407637582663
 20
24.26473463619178
 30
0.0
 11
-63.56297733835203
 21
24.26473463619178
 31
0.0
  0
LINE
  5
3A2
102
{ACAD_REACTORS
330
470
330
471
102
}
330
71
100
AcDbEntity
  8
0
  6
Continuous
 62
     2
100
AcDbLine
 10
-60.76457977291562
 20
22.53715096272217
 30
0.0
 11
-59.63213819624181
 21
22.53715096272217
 31
0.0
  0
LINE
  5
3A3
102
{ACAD_REACTORS
330
470
330
471
102
}
330
71
100
AcDbEntity
  8
0
  6
Continuous
 62
     2
100
AcDbLine
 10
-58.18015373251211
 20
21.99619041850428
 30
0.0
 11
-59.42065814276603
 21
21.99619041850428
 31
0.0
  0
LINE
  5
3A4
102
{ACAD_REACTORS
330
470
330
471
102
}
330
71
100
AcDbEntity
  8
0
  6
Continuous
 62
     2
100
AcDbLine
 10
-60.81861118970511
 20
25.04999994231537
 30
0.0
 11
-62.21656423664442
 21
21.99619041850428
 31
0.0
  0
LINE
  5
3A5
102
{ACAD_REACTORS
330
470
330
471
102
}
330
71
100
AcDbEntity
  8
0
  6
Continuous
 62
     2
100
AcDbLine
 10
-60.97605982639144
 20
21.99619041850428
 30
0.0
 11
-60.76457977291562
 21
22.53715096272217
 31
0.0
  0
LINE
  5
3A6
102
{ACAD_REACTORS
330
470
330
471
102
}
330
71
100
AcDbEntity
  8
0
  6
Continuous
 62
     2
100
AcDbLine
 10
-60.49852422177062
 20
23.21771422802877
 30
0.0
 11
-60.19835898457822
 21
23.98552919401547
 31
0.0
  0
LINE
  5
3A7
102
{ACAD_REACTORS
330
46E
330
46F
102
}
330
71
100
AcDbEntity
  8
0
  6
Continuous
 62
     2
100
AcDbLine
 10
-59.03021413923301
 20
25.35538089467858
 30
0.0
 11
-59.03021413923301
 21
28.40919041848977
 31
0.0
  0
LINE
  5
3A8
102
{ACAD_REACTORS
330
46E
330
46F
102
}
330
71
100
AcDbEntity
  8
0
  6
Continuous
 62
     2
100
AcDbLine
 10
-57.78970972898011
 20
28.40919041848977
 30
0.0
 11
-57.78970972898011
 21
25.35538089467858
 31
0.0
  0
LINE
  5
3A9
102
{ACAD_REACTORS
330
46E
330
46F
102
}
330
71
100
AcDbEntity
  8
0
  6
Continuous
 62
     2
100
AcDbLine
 10
-59.03021413923301
 20
28.40919041848977
 30
0.0
 11
-57.78970972898011
 21
28.40919041848977
 31
0.0
  0
LINE
  5
3AA
102
{ACAD_REACTORS
330
46C
330
46D
102
}
330
71
100
AcDbEntity
  8
0
  6
Continuous
 62
     2
100
AcDbLine
 10
-55.57111530294932
 20
26.14311267997229
 30
0.0
 11
-54.87452436488383
 21
25.35538089467858
 31
0.0
  0
LINE
  5
3AB
102
{ACAD_REACTORS
330
46C
330
46D
102
}
330
71
100
AcDbEntity
  8
0
  6
Continuous
 62
     2
100
AcDbLine
 10
-54.87452436488383
 20
25.35538089467858
 30
0.0
 11
-53.47180014713553
 21
25.35538089467858
 31
0.0
  0
LINE
  5
3AC
102
{ACAD_REACTORS
330
46C
330
46D
102
}
330
71
100
AcDbEntity
  8
0
  6
Continuous
 62
     2
100
AcDbLine
 10
-54.86975319407583
 20
26.93623988845357
 30
0.0
 11
-53.47180014713553
 21
25.35538089467858
 31
0.0
  0
LINE
  5
3AD
102
{ACAD_REACTORS
330
46C
330
46D
102
}
330
71
100
AcDbEntity
  8
0
  6
Continuous
 62
     2
100
AcDbLine
 10
-54.86975319407583
 20
26.93623988845357
 30
0.0
 11
-53.56722356330931
 21
28.40919041848977
 31
0.0
  0
LINE
  5
3AE
102
{ACAD_REACTORS
330
46C
330
46D
102
}
330
71
100
AcDbEntity
  8
0
  6
Continuous
 62
     2
100
AcDbLine
 10
-55.57111530294932
 20
27.72936709693428
 30
0.0
 11
-54.96994778105653
 21
28.40919041848977
 31
0.0
  0
LINE
  5
3AF
102
{ACAD_REACTORS
330
46C
330
46D
102
}
330
71
100
AcDbEntity
  8
0
  6
Continuous
 62
     2
100
AcDbLine
 10
-56.17228282484112
 20
28.40919041848977
 30
0.0
 11
-55.57111530294932
 21
27.72936709693428
 31
0.0
  0
LINE
  5
3B0
102
{ACAD_REACTORS
330
46C
330
46D
102
}
330
71
100
AcDbEntity
  8
0
  6
Continuous
 62
     2
100
AcDbLine
 10
-56.17228282484112
 20
28.40919041848977
 30
0.0
 11
-57.57500704259041
 21
28.40919041848977
 31
0.0
  0
LINE
  5
3B1
102
{ACAD_REACTORS
330
462
330
463
102
}
330
71
100
AcDbEntity
  8
0
  6
Continuous
 62
     2
100
AcDbLine
 10
-55.47569188677662
 20
21.99619041850428
 30
0.0
 11
-54.28289918460891
 21
21.99619041850428
 31
0.0
  0
LINE
  5
3B2
102
{ACAD_REACTORS
330
462
330
463
102
}
330
71
100
AcDbEntity
  8
0
  6
Continuous
 62
     2
100
AcDbLine
 10
-54.28289918460891
 20
21.99619041850428
 30
0.0
 11
-54.28289918460891
 21
24.26473463619178
 31
0.0
  0
LINE
  5
3B3
102
{ACAD_REACTORS
330
462
330
463
102
}
330
71
100
AcDbEntity
  8
0
  6
Continuous
 62
     2
100
AcDbLine
 10
-54.28289918460891
 20
24.26473463619178
 30
0.0
 11
-53.47180014713553
 21
24.26473463619178
 31
0.0
  0
LINE
  5
3B4
102
{ACAD_REACTORS
330
462
330
463
102
}
330
71
100
AcDbEntity
  8
0
  6
Continuous
 62
     2
100
AcDbLine
 10
-53.47180014713553
 20
24.26473463619178
 30
0.0
 11
-53.47180014713553
 21
25.04999994231537
 31
0.0
  0
LINE
  5
3B5
102
{ACAD_REACTORS
330
462
330
463
102
}
330
71
100
AcDbEntity
  8
0
  6
Continuous
 62
     2
100
AcDbLine
 10
-56.85674566576421
 20
25.04999994231488
 30
0.0
 11
-53.47180014713553
 21
25.04999994231537
 31
0.0
  0
LINE
  5
3B6
102
{ACAD_REACTORS
330
462
330
463
102
}
330
71
100
AcDbEntity
  8
0
  6
Continuous
 62
     2
100
AcDbLine
 10
-55.47569188677662
 20
24.26473463619178
 30
0.0
 11
-55.47569188677662
 21
21.99619041850428
 31
0.0
  0
LINE
  5
3B7
102
{ACAD_REACTORS
330
464
330
465
102
}
330
71
100
AcDbEntity
  8
0
  6
Continuous
 62
     2
100
AcDbLine
 10
-78.10517832225582
 20
23.97507056806879
 30
0.0
 11
-78.10517832225582
 21
24.55692197476387
 31
0.0
  0
LINE
  5
3B8
102
{ACAD_REACTORS
330
464
330
465
102
}
330
71
100
AcDbEntity
  8
0
  6
Continuous
 62
     2
100
AcDbLine
 10
-78.10517832225582
 20
26.77520517470009
 30
0.0
 11
-78.10517832225582
 21
27.38074046320688
 31
0.0
  0
LINE
  5
3B9
330
71
100
AcDbEntity
  8
1
  6
Continuous
 62
     6
100
AcDbLine
 10
-99.5749997376526
 20
14.70269041848798
 30
0.0
 11
-85.61980426440263
 21
14.70269041848786
 31
0.0
  0
LINE
  5
3BA
330
71
100
AcDbEntity
  8
1
  6
Continuous
 62
     6
100
AcDbLine
 10
-149.5749997376528
 20
14.70269041848798
 30
0.0
 11
-154.6198042644026
 21
14.70269041848798
 31
0.0
  0
LINE
  5
3BB
330
71
100
AcDbEntity
  8
1
  6
Continuous
 62
     6
100
AcDbLine
 10
0.42500026234737
 20
14.70269041848798
 30
0.0
 11
43.92500026234738
 21
14.70269041848798
 31
0.0
  0
LINE
  5
3BC
330
71
100
AcDbEntity
  8
1
  6
Continuous
 62
     6
100
AcDbLine
 10
-49.57499973765263
 20
14.70269041848798
 30
0.0
 11
-67.41980426440261
 21
14.70269041848798
 31
0.0
  0
LINE
  5
3BD
330
71
100
AcDbEntity
  8
1
  6
Continuous
 62
     2
100
AcDbLine
 10
43.92500026234738
 20
14.70269041848798
 30
0.0
 11
48.92500026234637
 21
14.70269041848798
 31
0.0
  0
LINE
  5
3BE
330
71
100
AcDbEntity
  8
1
  6
Continuous
 62
     2
100
AcDbLine
 10
43.92500026234738
 20
14.70269041848798
 30
0.0
 11
43.92500026234738
 21
9.70269041848786
 31
0.0
  0
LINE
  5
3BF
330
71
100
AcDbEntity
  8
1
  6
Continuous
 62
     6
100
AcDbLine
 10
-85.61980426440263
 20
31.70269041848798
 30
0.0
 11
-49.21980426440271
 21
31.70269041848798
 31
0.0
  0
LINE
  5
3C0
330
71
100
AcDbEntity
  8
1
  6
Continuous
 62
     2
100
AcDbLine
 10
48.92500026234637
 20
9.70269041848786
 30
0.0
 11
48.92500026234637
 21
14.70269041848798
 31
0.0
  0
LINE
  5
3C1
330
71
100
AcDbEntity
  8
1
  6
Continuous
 62
     2
100
AcDbLine
 10
48.92500026234637
 20
9.70269041848786
 30
0.0
 11
43.92500026234738
 21
9.70269041848786
 31
0.0
  0
LINE
  5
3C2
330
71
100
AcDbEntity
  8
1
  6
Continuous
 62
     2
100
AcDbLine
 10
43.92500026234738
 20
9.70269041848786
 30
0.0
 11
0.42500026234737
 21
9.70269041848786
 31
0.0
  0
LINE
  5
3C3
330
71
100
AcDbEntity
  8
1
  6
Continuous
 62
     6
100
AcDbLine
 10
43.92500026234907
 20
31.70269041848798
 30
0.0
 11
43.92500026234828
 21
64.70269041848809
 31
0.0
  0
LINE
  5
3C4
330
71
100
AcDbEntity
  8
1
  6
Continuous
 62
     2
100
AcDbLine
 10
48.92500026234637
 20
219.702690418488
 30
0.0
 11
-99.5749997376526
 21
219.702690418488
 31
0.0
  0
LINE
  5
3C5
330
71
100
AcDbEntity
  8
1
  6
Continuous
 62
     6
100
AcDbLine
 10
43.92500026234637
 20
199.702690418488
 30
0.0
 11
-243.0749997376517
 21
199.702690418488
 31
0.0
  0
LINE
  5
3C6
330
71
100
AcDbEntity
  8
1
  6
Continuous
 62
     2
100
AcDbLine
 10
43.92500026234828
 20
64.70269041848809
 30
0.0
 11
48.92500026234637
 21
64.70269041848809
 31
0.0
  0
LINE
  5
3C7
330
71
100
AcDbEntity
  8
1
  6
Continuous
 62
     6
100
AcDbLine
 10
43.92500026234828
 20
64.70269041848809
 30
0.0
 11
43.92500026234778
 21
114.7026904184879
 31
0.0
  0
LINE
  5
3C8
330
71
100
AcDbEntity
  8
1
  6
Continuous
 62
     2
100
AcDbLine
 10
48.92500026234637
 20
64.70269041848809
 30
0.0
 11
48.92500026234637
 21
114.7026904184879
 31
0.0
  0
LINE
  5
3C9
330
71
100
AcDbEntity
  8
1
  6
Continuous
 62
     2
100
AcDbLine
 10
43.92500026234778
 20
114.7026904184879
 30
0.0
 11
48.92500026234637
 21
114.7026904184879
 31
0.0
  0
LINE
  5
3CA
330
71
100
AcDbEntity
  8
1
  6
Continuous
 62
     6
100
AcDbLine
 10
43.92500026234778
 20
114.7026904184879
 30
0.0
 11
43.92500026234657
 21
164.702690418488
 31
0.0
  0
LINE
  5
3CB
330
71
100
AcDbEntity
  8
1
  6
Continuous
 62
     2
100
AcDbLine
 10
48.92500026234637
 20
114.7026904184879
 30
0.0
 11
48.92500026234637
 21
164.702690418488
 31
0.0
  0
LINE
  5
3CC
330
71
100
AcDbEntity
  8
1
  6
Continuous
 62
     2
100
AcDbLine
 10
43.92500026234657
 20
164.702690418488
 30
0.0
 11
48.92500026234637
 21
164.702690418488
 31
0.0
  0
LINE
  5
3CD
330
71
100
AcDbEntity
  8
1
  6
Continuous
 62
     6
100
AcDbLine
 10
43.92500026234657
 20
164.702690418488
 30
0.0
 11
43.92500026234637
 21
199.702690418488
 31
0.0
  0
LINE
  5
3CE
330
71
100
AcDbEntity
  8
1
  6
Continuous
 62
     2
100
AcDbLine
 10
48.92500026234637
 20
164.702690418488
 30
0.0
 11
48.92500026234637
 21
219.702690418488
 31
0.0
  0
LINE
  5
3CF
330
71
100
AcDbEntity
  8
1
  6
Continuous
 62
     2
100
AcDbLine
 10
48.92500026234637
 20
14.70269041848798
 30
0.0
 11
48.92500026234637
 21
64.70269041848809
 31
0.0
  0
LINE
  5
3D0
330
71
100
AcDbEntity
  8
1
  6
Continuous
 62
     2
100
AcDbLine
 10
-99.5749997376526
 20
219.702690418488
 30
0.0
 11
-248.0749997376517
 21
219.702690418488
 31
0.0
  0
LINE
  5
3D1
330
71
100
AcDbEntity
  8
1
  6
Continuous
 62
     2
100
AcDbLine
 10
-99.5749997376526
 20
219.702690418488
 30
0.0
 11
-99.5749997376526
 21
210.4939985737867
 31
0.0
  0
LINE
  5
3D2
330
71
100
AcDbEntity
  8
1
  6
Continuous
 62
     2
100
AcDbLine
 10
-248.0749997376517
 20
9.70269041848786
 30
0.0
 11
-243.0749997376507
 21
9.70269041848786
 31
0.0
  0
LINE
  5
3D3
330
71
100
AcDbEntity
  8
1
  6
Continuous
 62
     2
100
AcDbLine
 10
-248.0749997376517
 20
219.702690418488
 30
0.0
 11
-248.0749997376517
 21
164.702690418488
 31
0.0
  0
LINE
  5
3D4
330
71
100
AcDbEntity
  8
1
  6
Continuous
 62
     6
100
AcDbLine
 10
-243.0749997376517
 20
199.702690418488
 30
0.0
 11
-243.0749997376516
 21
164.702690418488
 31
0.0
  0
LINE
  5
3D5
330
71
100
AcDbEntity
  8
1
  6
Continuous
 62
     2
100
AcDbLine
 10
-248.0749997376517
 20
164.702690418488
 30
0.0
 11
-243.0749997376516
 21
164.702690418488
 31
0.0
  0
LINE
  5
3D6
330
71
100
AcDbEntity
  8
1
  6
Continuous
 62
     2
100
AcDbLine
 10
-248.0749997376517
 20
164.702690418488
 30
0.0
 11
-248.0749997376517
 21
114.7026904184879
 31
0.0
  0
LINE
  5
3D7
330
71
100
AcDbEntity
  8
1
  6
Continuous
 62
     6
100
AcDbLine
 10
-243.0749997376516
 20
164.702690418488
 30
0.0
 11
-243.0749997376511
 21
114.7026904184879
 31
0.0
  0
LINE
  5
3D8
330
71
100
AcDbEntity
  8
1
  6
Continuous
 62
     2
100
AcDbLine
 10
-248.0749997376517
 20
114.7026904184879
 30
0.0
 11
-243.0749997376511
 21
114.7026904184879
 31
0.0
  0
LINE
  5
3D9
330
71
100
AcDbEntity
  8
1
  6
Continuous
 62
     2
100
AcDbLine
 10
-248.0749997376517
 20
114.7026904184879
 30
0.0
 11
-248.0749997376517
 21
64.70269041848809
 31
0.0
  0
LINE
  5
3DA
330
71
100
AcDbEntity
  8
1
  6
Continuous
 62
     6
100
AcDbLine
 10
-243.0749997376511
 20
114.7026904184879
 30
0.0
 11
-243.0749997376509
 21
64.70269041848809
 31
0.0
  0
LINE
  5
3DB
330
71
100
AcDbEntity
  8
1
  6
Continuous
 62
     2
100
AcDbLine
 10
-248.0749997376517
 20
64.70269041848809
 30
0.0
 11
-243.0749997376509
 21
64.70269041848809
 31
0.0
  0
LINE
  5
3DC
330
71
100
AcDbEntity
  8
1
  6
Continuous
 62
     2
100
AcDbLine
 10
-248.0749997376517
 20
64.70269041848809
 30
0.0
 11
-248.0749997376517
 21
14.70269041848798
 31
0.0
  0
LINE
  5
3DD
330
71
100
AcDbEntity
  8
1
  6
Continuous
 62
     6
100
AcDbLine
 10
-243.0749997376509
 20
64.70269041848809
 30
0.0
 11
-243.0749997376507
 21
14.70269041848798
 31
0.0
  0
LINE
  5
3DE
330
71
100
AcDbEntity
  8
1
  6
Continuous
 62
     2
100
AcDbLine
 10
-199.5749997376526
 20
9.70269041848786
 30
0.0
 11
-199.5749997376526
 21
14.70269041848798
 31
0.0
  0
LINE
  5
3DF
330
71
100
AcDbEntity
  8
1
  6
Continuous
 62
     2
100
AcDbLine
 10
-199.5749997376526
 20
9.70269041848786
 30
0.0
 11
-149.5749997376528
 21
9.70269041848786
 31
0.0
  0
LINE
  5
3E0
330
71
100
AcDbEntity
  8
1
  6
Continuous
 62
     2
100
AcDbLine
 10
-149.5749997376528
 20
9.70269041848786
 30
0.0
 11
-149.5749997376528
 21
14.70269041848798
 31
0.0
  0
LINE
  5
3E1
330
71
100
AcDbEntity
  8
1
  6
Continuous
 62
     2
100
AcDbLine
 10
-149.5749997376528
 20
9.70269041848786
 30
0.0
 11
-99.5749997376526
 21
9.70269041848786
 31
0.0
  0
LINE
  5
3E2
330
71
100
AcDbEntity
  8
1
  6
Continuous
 62
     2
100
AcDbLine
 10
-99.5749997376526
 20
9.70269041848786
 30
0.0
 11
-99.5749997376526
 21
14.70269041848798
 31
0.0
  0
LINE
  5
3E3
330
71
100
AcDbEntity
  8
1
  6
Continuous
 62
     2
100
AcDbLine
 10
-99.5749997376526
 20
9.70269041848786
 30
0.0
 11
-49.57499973765263
 21
9.70269041848786
 31
0.0
  0
LINE
  5
3E4
330
71
100
AcDbEntity
  8
1
  6
Continuous
 62
     2
100
AcDbLine
 10
-49.57499973765263
 20
9.70269041848786
 30
0.0
 11
-49.57499973765263
 21
14.70269041848798
 31
0.0
  0
LINE
  5
3E5
330
71
100
AcDbEntity
  8
1
  6
Continuous
 62
     2
100
AcDbLine
 10
0.42500026234737
 20
9.70269041848786
 30
0.0
 11
0.42500026234737
 21
14.70269041848798
 31
0.0
  0
LINE
  5
3E6
330
71
100
AcDbEntity
  8
1
  6
Continuous
 62
     2
100
AcDbLine
 10
0.42500026234737
 20
9.70269041848786
 30
0.0
 11
-49.57499973765263
 21
9.70269041848786
 31
0.0
  0
LINE
  5
3E7
330
71
100
AcDbEntity
  8
1
  6
Continuous
 62
     2
100
AcDbLine
 10
-243.0749997376507
 20
14.70269041848798
 30
0.0
 11
-243.0749997376507
 21
9.70269041848786
 31
0.0
  0
LINE
  5
3E8
330
71
100
AcDbEntity
  8
1
  6
Continuous
 62
     2
100
AcDbLine
 10
-243.0749997376507
 20
9.70269041848786
 30
0.0
 11
-199.5749997376526
 21
9.70269041848786
 31
0.0
  0
LINE
  5
3E9
330
71
100
AcDbEntity
  8
1
  6
Continuous
 62
     2
100
AcDbLine
 10
-243.0749997376507
 20
14.70269041848798
 30
0.0
 11
-248.0749997376517
 21
14.70269041848798
 31
0.0
  0
LINE
  5
3EA
330
71
100
AcDbEntity
  8
1
  6
Continuous
 62
     2
100
AcDbLine
 10
-248.0749997376517
 20
14.70269041848798
 30
0.0
 11
-248.0749997376517
 21
9.70269041848786
 31
0.0
  0
LINE
  5
3EB
330
71
100
AcDbEntity
  8
1
  6
Continuous
 62
     6
100
AcDbLine
 10
43.92500026234738
 20
14.70269041848798
 30
0.0
 11
43.92500026234868
 21
23.20269041848798
 31
0.0
  0
LINE
  5
3EC
330
71
100
AcDbEntity
  8
1
  6
Continuous
 62
     6
100
AcDbLine
 10
-49.21980426440271
 20
14.70269041848786
 30
0.0
 11
0.42500026234737
 21
14.70269041848798
 31
0.0
  0
LINE
  5
3ED
330
71
100
AcDbEntity
  8
1
  6
Continuous
 62
     6
100
AcDbLine
 10
-201.8749997376528
 20
14.70269041848786
 30
0.0
 11
-199.5749997376526
 21
14.70269041848798
 31
0.0
  0
LINE
  5
3EE
330
71
100
AcDbEntity
  8
1
  6
Continuous
 62
     6
100
AcDbLine
 10
-99.5749997376526
 20
14.70269041848798
 30
0.0
 11
-149.5749997376528
 21
14.70269041848798
 31
0.0
  0
LINE
  5
3EF
330
71
100
AcDbEntity
  8
1
  6
Continuous
 62
     7
100
AcDbLine
 10
-85.61980426440263
 20
31.70269041848798
 30
0.0
 11
-85.61980426440263
 21
18.95269041848786
 31
0.0
  0
LINE
  5
3F0
330
71
100
AcDbEntity
  8
1
  6
Continuous
 62
     7
100
AcDbLine
 10
-49.21980426440271
 20
31.70269041848798
 30
0.0
 11
-49.21980426440271
 21
18.95269041848798
 31
0.0
  0
LINE
  5
3F1
330
71
100
AcDbEntity
  8
1
  6
Continuous
 62
     6
100
AcDbLine
 10
-201.8749997376528
 20
14.70269041848786
 30
0.0
 11
-208.0749997376508
 21
14.70269041848798
 31
0.0
  0
LINE
  5
3F2
330
71
100
AcDbEntity
  8
1
  6
Continuous
 62
     6
100
AcDbLine
 10
-49.21980426440271
 20
14.70269041848786
 30
0.0
 11
-49.57499973765263
 21
14.70269041848798
 31
0.0
  0
LINE
  5
3F3
330
71
100
AcDbEntity
  8
1
  6
Continuous
 62
     6
100
AcDbLine
 10
43.92500026234907
 20
31.70269041848798
 30
0.0
 11
43.92500026234868
 21
23.20269041848798
 31
0.0
  0
LINE
  5
3F4
330
71
100
AcDbEntity
  8
1
  6
Continuous
 62
     6
100
AcDbLine
 10
-208.0749997376508
 20
14.70269041848798
 30
0.0
 11
-243.0749997376507
 21
14.70269041848798
 31
0.0
  0
LINE
  5
3F5
330
71
100
AcDbEntity
  8
1
  6
Continuous
 62
     2
100
AcDbLine
 10
-81.38314937784003
 20
37.07769041848789
 30
0.0
 11
-76.38314937784003
 21
38.32769041848789
 31
0.0
  0
LINE
  5
3F6
330
71
100
AcDbEntity
  8
1
  6
Continuous
 62
     2
100
AcDbLine
 10
-81.38314937784003
 20
34.57769041848789
 30
0.0
 11
-81.38314937784003
 21
37.07769041848789
 31
0.0
  0
LINE
  5
3F7
330
71
100
AcDbEntity
  8
1
  6
Continuous
 62
     2
100
AcDbLine
 10
-76.38314937784003
 20
33.32769041848789
 30
0.0
 11
-81.38314937784003
 21
34.57769041848789
 31
0.0
  0
LINE
  5
3F8
330
71
100
AcDbEntity
  8
1
  6
Continuous
 62
     2
100
AcDbLine
 10
-76.38314937784003
 20
38.32769041848789
 30
0.0
 11
-76.38314937784003
 21
33.32769041848789
 31
0.0
  0
LINE
  5
3F9
330
71
100
AcDbEntity
  8
1
  6
Continuous
 62
     7
100
AcDbLine
 10
-85.61980426440263
 20
18.95269041848786
 30
0.0
 11
-67.41980426440261
 21
18.95269041848798
 31
0.0
  0
LINE
  5
3FA
330
71
100
AcDbEntity
  8
1
  6
Continuous
 62
     7
100
AcDbLine
 10
-85.61980426440263
 20
18.95269041848786
 30
0.0
 11
-85.61980426440263
 21
14.70269041848786
 31
0.0
  0
LINE
  5
3FB
330
71
100
AcDbEntity
  8
1
  6
Continuous
 62
     7
100
AcDbLine
 10
-49.21980426440271
 20
18.95269041848798
 30
0.0
 11
-49.21980426440271
 21
14.70269041848786
 31
0.0
  0
LINE
  5
3FC
330
71
100
AcDbEntity
  8
1
  6
Continuous
 62
     7
100
AcDbLine
 10
-67.41980426440261
 20
18.95269041848798
 30
0.0
 11
-67.41980426440261
 21
14.70269041848798
 31
0.0
  0
LINE
  5
3FD
330
71
100
AcDbEntity
  8
1
  6
Continuous
 62
     6
100
AcDbLine
 10
-67.41980426440261
 20
14.70269041848798
 30
0.0
 11
-85.61980426440263
 21
14.70269041848786
 31
0.0
  0
LINE
  5
3FE
330
71
100
AcDbEntity
  8
1
  6
Continuous
 62
     7
100
AcDbLine
 10
-67.41980426440261
 20
18.95269041848798
 30
0.0
 11
-49.21980426440271
 21
18.95269041848798
 31
0.0
  0
LINE
  5
3FF
330
71
100
AcDbEntity
  8
1
  6
Continuous
 62
     6
100
AcDbLine
 10
-85.61980426440263
 20
40.20269041848798
 30
0.0
 11
43.92500026234907
 21
40.20269041848798
 31
0.0
  0
ARC
  5
400
102
{ACAD_REACTORS
330
468
330
469
102
}
330
71
100
AcDbEntity
  8
0
  6
Continuous
 62
     2
100
AcDbCircle
 10
-70.22815626544264
 20
23.52309518040957
 30
0.0
 40
0.7717997786796947
100
AcDbArc
 50
321.8795802028417
 51
38.12041979715308
  0
ARC
  5
401
102
{ACAD_REACTORS
330
468
330
469
102
}
330
71
100
AcDbEntity
  8
0
  6
Continuous
 62
     2
100
AcDbCircle
 10
-70.02841622909622
 20
23.36636400228957
 30
0.0
 40
0.5179085730137332
100
AcDbArc
 50
218.1204197971929
 51
321.8795802028013
  0
ARC
  5
402
102
{ACAD_REACTORS
330
468
330
469
102
}
330
71
100
AcDbEntity
  8
0
  6
Continuous
 62
     2
100
AcDbCircle
 10
-69.82867619275012
 20
23.52309518040957
 30
0.0
 40
0.771799778679461
100
AcDbArc
 50
141.8795802028365
 51
218.1204197971687
  0
ARC
  5
403
102
{ACAD_REACTORS
330
468
330
469
102
}
330
71
100
AcDbEntity
  8
0
  6
Continuous
 62
     2
100
AcDbCircle
 10
-70.02841622909622
 20
23.67982635853008
 30
0.0
 40
0.5179085730132976
100
AcDbArc
 50
38.12041979714672
 51
141.8795802028591
  0
ARC
  5
404
102
{ACAD_REACTORS
330
460
330
461
102
}
330
71
100
AcDbEntity
  8
0
  6
Continuous
 62
     2
100
AcDbCircle
 10
-73.09043036466011
 20
22.11262881500139
 30
0.0
 40
2.227384008973474
100
AcDbArc
 50
58.06909105004068
 51
71.55192388186722
  0
ARC
  5
405
102
{ACAD_REACTORS
330
460
330
461
102
}
330
71
100
AcDbEntity
  8
0
  6
Continuous
 62
     2
100
AcDbCircle
 10
-72.82870266370134
 20
23.72816660974857
 30
0.0
 40
0.5115800601948779
100
AcDbArc
 50
113.3722778881992
 51
151.4785267423044
  0
ARC
  5
406
102
{ACAD_REACTORS
330
460
330
461
102
}
330
71
100
AcDbEntity
  8
0
  6
Continuous
 62
     2
100
AcDbCircle
 10
-72.45134540562103
 20
23.52309518040957
 30
0.0
 40
0.9410597353332545
100
AcDbArc
 50
151.4785267422669
 51
208.5214732577057
  0
ARC
  5
407
102
{ACAD_REACTORS
330
460
330
461
102
}
330
71
100
AcDbEntity
  8
0
  6
Continuous
 62
     2
100
AcDbCircle
 10
-73.24830323975303
 20
26.83577612566597
 30
0.0
 40
4.852596863498134
100
AcDbArc
 50
275.1581447696249
 51
285.9799912583529
  0
ARC
  5
408
102
{ACAD_REACTORS
330
460
330
461
102
}
330
71
100
AcDbEntity
  8
0
  6
Continuous
 62
     2
100
AcDbCircle
 10
-72.95944714501712
 20
23.63588554244439
 30
0.0
 40
1.63969512393939
100
AcDbArc
 50
195.06189177709
 51
275.1581447696395
  0
ARC
  5
409
102
{ACAD_REACTORS
330
460
330
461
102
}
330
71
100
AcDbEntity
  8
0
  6
Continuous
 62
     2
100
AcDbCircle
 10
-73.37857498847993
 20
23.52309518040957
 30
0.0
 40
1.205656168390944
100
AcDbArc
 50
164.9381082228765
 51
195.061891777095
  0
ARC
  5
40A
102
{ACAD_REACTORS
330
460
330
461
102
}
330
71
100
AcDbEntity
  8
0
  6
Continuous
 62
     2
100
AcDbCircle
 10
-72.95944714501712
 20
23.41030481837467
 30
0.0
 40
1.639695123940507
100
AcDbArc
 50
84.84185523036236
 51
164.9381082228864
  0
ARC
  5
40B
102
{ACAD_REACTORS
330
464
330
465
102
}
330
71
100
AcDbEntity
  8
0
  6
Continuous
 62
     2
100
AcDbCircle
 10
-77.78946139917903
 20
24.55692197476387
 30
0.0
 40
0.3157169230765328
100
AcDbArc
 50
115.3740086783519
 51
180.0
  0
ARC
  5
40C
102
{ACAD_REACTORS
330
464
330
465
102
}
330
71
100
AcDbEntity
  8
0
  6
Continuous
 62
     2
100
AcDbCircle
 10
-77.78946139917903
 20
26.77520517470009
 30
0.0
 40
0.315716923076792
100
AcDbArc
 50
180.0
 51
244.6259913216484
  0
ARC
  5
40D
102
{ACAD_REACTORS
330
464
330
465
102
}
330
71
100
AcDbEntity
  8
0
  6
Continuous
 62
     2
100
AcDbCircle
 10
-77.78384526386901
 20
25.67790551563778
 30
0.0
 40
2.018561131933266
100
AcDbArc
 50
269.8110329575858
 51
90.18896704241416
  0
ARC
  5
40E
102
{ACAD_REACTORS
330
464
330
465
102
}
330
71
100
AcDbEntity
  8
0
  6
Continuous
 62
     2
100
AcDbCircle
 10
-77.78946139917903
 20
23.97507056806879
 30
0.0
 40
0.315716923076792
100
AcDbArc
 50
180.0
 51
269.8110329574542
  0
ARC
  5
40F
102
{ACAD_REACTORS
330
462
330
463
102
}
330
71
100
AcDbEntity
  8
0
  6
Continuous
 62
     2
100
AcDbCircle
 10
-56.72600118444842
 20
23.72816660974857
 30
0.0
 40
0.5115800601944176
100
AcDbArc
 50
109.3371432194852
 51
151.4785267424228
  0
ARC
  5
410
102
{ACAD_REACTORS
330
462
330
463
102
}
330
71
100
AcDbEntity
  8
0
  6
Continuous
 62
     2
100
AcDbCircle
 10
-56.72600118444842
 20
23.31802375107108
 30
0.0
 40
0.5115800601960215
100
AcDbArc
 50
208.5214732576866
 51
246.6277221118455
  0
ARC
  5
411
102
{ACAD_REACTORS
330
462
330
463
102
}
330
71
100
AcDbEntity
  8
0
  6
Continuous
 62
     2
100
AcDbCircle
 10
-57.27587350922582
 20
23.52309518040957
 30
0.0
 40
1.205656168393002
100
AcDbArc
 50
164.9381082229028
 51
195.0618917770958
  0
ARC
  5
412
102
{ACAD_REACTORS
330
462
330
463
102
}
330
71
100
AcDbEntity
  8
0
  6
Continuous
 62
     2
100
AcDbCircle
 10
-56.85674566576421
 20
23.41030481837467
 30
0.0
 40
1.639695123940211
100
AcDbArc
 50
90.0
 51
164.938108222895
  0
ARC
  5
413
102
{ACAD_REACTORS
330
466
330
467
102
}
330
71
100
AcDbEntity
  8
0
  6
Continuous
 62
     2
100
AcDbCircle
 10
-66.28374075846793
 20
26.88228565658389
 30
0.0
 40
1.526904761905882
100
AcDbArc
 50
90.0
 51
270.0
  0
ARC
  5
414
102
{ACAD_REACTORS
330
46A
330
46B
102
}
330
71
100
AcDbEntity
  8
0
  6
Continuous
 62
     2
100
AcDbCircle
 10
-73.02643150369371
 20
27.39322074837858
 30
0.0
 40
0.3528638246711218
100
AcDbArc
 50
270.0
 51
90.0
  0
ARC
  5
415
102
{ACAD_REACTORS
330
464
330
465
102
}
330
71
100
AcDbEntity
  8
0
  6
Continuous
 62
     2
100
AcDbCircle
 10
-80.36501008571074
 20
27.38091793985498
 30
0.0
 40
0.3157169230761987
100
AcDbArc
 50
90.0
 51
180.0
  0
ARC
  5
416
102
{ACAD_REACTORS
330
464
330
465
102
}
330
71
100
AcDbEntity
  8
0
  6
Continuous
 62
     2
100
AcDbCircle
 10
-78.36659237712612
 20
25.66606357473228
 30
0.0
 40
0.9118975235576114
100
AcDbArc
 50
115.1944106485283
 51
244.8055893514878
  0
ARC
  5
417
102
{ACAD_REACTORS
330
464
330
465
102
}
330
71
100
AcDbEntity
  8
0
  6
Continuous
 62
     2
100
AcDbCircle
 10
-78.88917682470111
 20
24.55523382866949
 30
0.0
 40
0.315716923076593
100
AcDbArc
 50
0.0
 51
64.80558935146027
  0
ARC
  5
418
102
{ACAD_REACTORS
330
464
330
465
102
}
330
71
100
AcDbEntity
  8
0
  6
Continuous
 62
     2
100
AcDbCircle
 10
-80.95890476245722
 20
22.42043503388757
 30
0.0
 40
0.4242446153828041
100
AcDbArc
 50
180.0
 51
270.0
  0
ARC
  5
419
102
{ACAD_REACTORS
330
466
330
467
102
}
330
71
100
AcDbEntity
  8
0
  6
Continuous
 62
     2
100
AcDbCircle
 10
-66.06746874830273
 20
27.03901683470437
 30
0.0
 40
0.5179085730135266
100
AcDbArc
 50
38.12041979714334
 51
141.8795802028489
  0
ARC
  5
41A
102
{ACAD_REACTORS
330
466
330
467
102
}
330
71
100
AcDbEntity
  8
0
  6
Continuous
 62
     2
100
AcDbCircle
 10
-65.86772871195643
 20
26.88228565658389
 30
0.0
 40
0.7717997786796724
100
AcDbArc
 50
141.8795802028404
 51
218.120419797156
  0
ARC
  5
41B
102
{ACAD_REACTORS
330
468
330
469
102
}
330
71
100
AcDbEntity
  8
0
  6
Continuous
 62
     2
100
AcDbCircle
 10
-70.02841622909622
 20
24.06167019071287
 30
0.0
 40
2.065479772208505
100
AcDbArc
 50
242.4518518243401
 51
297.5481481756871
  0
ARC
  5
41C
102
{ACAD_REACTORS
330
468
330
469
102
}
330
71
100
AcDbEntity
  8
0
  6
Continuous
 62
     2
100
AcDbCircle
 10
-70.02841622909622
 20
22.98452017010678
 30
0.0
 40
2.065479772208564
100
AcDbArc
 50
62.45185182430632
 51
117.5481481756664
  0
ARC
  5
41D
102
{ACAD_REACTORS
330
468
330
469
102
}
330
71
100
AcDbEntity
  8
0
  6
Continuous
 62
     2
100
AcDbCircle
 10
-70.30935612092952
 20
23.52309518040957
 30
0.0
 40
1.45803408365149
100
AcDbArc
 50
117.5481481756624
 51
242.4518518243375
  0
ARC
  5
41E
102
{ACAD_REACTORS
330
468
330
469
102
}
330
71
100
AcDbEntity
  8
0
  6
Continuous
 62
     2
100
AcDbCircle
 10
-69.74747633726292
 20
23.52309518040957
 30
0.0
 40
1.458034083652003
100
AcDbArc
 50
297.548148175701
 51
62.45185182429896
  0
ARC
  5
41F
102
{ACAD_REACTORS
330
466
330
467
102
}
330
71
100
AcDbEntity
  8
0
  6
Continuous
 62
     2
100
AcDbCircle
 10
-66.06746874830273
 20
26.72555447846347
 30
0.0
 40
0.5179085730134372
100
AcDbArc
 50
218.1204197971511
 51
321.8795802028566
  0
ARC
  5
420
102
{ACAD_REACTORS
330
466
330
467
102
}
330
71
100
AcDbEntity
  8
0
  6
Continuous
 62
     2
100
AcDbCircle
 10
-66.26720878464891
 20
26.88228565658389
 30
0.0
 40
0.7717997786796351
100
AcDbArc
 50
321.879580202844
 51
38.12041979715956
  0
ARC
  5
421
102
{ACAD_REACTORS
330
464
330
465
102
}
330
71
100
AcDbEntity
  8
0
  6
Continuous
 62
     2
100
AcDbCircle
 10
-75.48559267174042
 20
22.42043503388757
 30
0.0
 40
0.4242446153832908
100
AcDbArc
 50
270.0
 51
0.0
  0
ARC
  5
422
102
{ACAD_REACTORS
330
464
330
465
102
}
330
71
100
AcDbEntity
  8
0
  6
Continuous
 62
     2
100
AcDbCircle
 10
-75.48559267174042
 20
27.98494580308778
 30
0.0
 40
0.4242446153838841
100
AcDbArc
 50
0.0
 51
90.0
  0
ARC
  5
423
102
{ACAD_REACTORS
330
464
330
465
102
}
330
71
100
AcDbEntity
  8
0
  6
Continuous
 62
     2
100
AcDbCircle
 10
-80.95890476245722
 20
27.98494580308778
 30
0.0
 40
0.4242446153838024
100
AcDbArc
 50
90.0
 51
180.0
  0
ARC
  5
424
102
{ACAD_REACTORS
330
464
330
465
102
}
330
71
100
AcDbEntity
  8
0
  6
Continuous
 62
     2
100
AcDbCircle
 10
-78.88917682470111
 20
23.02446289713788
 30
0.0
 40
0.3157169230767103
100
AcDbArc
 50
270.0
 51
0.0
  0
ARC
  5
425
102
{ACAD_REACTORS
330
464
330
465
102
}
330
71
100
AcDbEntity
  8
0
  6
Continuous
 62
     2
100
AcDbCircle
 10
-78.88917682470111
 20
26.77689332079447
 30
0.0
 40
0.3157169230761203
100
AcDbArc
 50
295.1944106485397
 51
0.0
  0
ARC
  5
426
102
{ACAD_REACTORS
330
464
330
465
102
}
330
71
100
AcDbEntity
  8
0
  6
Continuous
 62
     2
100
AcDbCircle
 10
-78.88917682470111
 20
27.38091793985498
 30
0.0
 40
0.315716923076593
100
AcDbArc
 50
0.0
 51
90.0
  0
ARC
  5
427
102
{ACAD_REACTORS
330
464
330
465
102
}
330
71
100
AcDbEntity
  8
0
  6
Continuous
 62
     2
100
AcDbCircle
 10
-80.36501008571074
 20
23.02446289713788
 30
0.0
 40
0.3157169230756836
100
AcDbArc
 50
180.0
 51
270.0
  0
ARC
  5
428
102
{ACAD_REACTORS
330
46A
330
46B
102
}
330
71
100
AcDbEntity
  8
0
  6
Continuous
 62
     2
100
AcDbCircle
 10
-72.58495897745533
 20
27.35382477715609
 30
0.0
 40
1.055365641333708
100
AcDbArc
 50
270.0
 51
90.0
  0
ARC
  5
429
102
{ACAD_REACTORS
330
462
330
463
102
}
330
71
100
AcDbEntity
  8
0
  6
Continuous
 62
     2
100
AcDbCircle
 10
-56.85674566576421
 20
23.63588554244439
 30
0.0
 40
1.639695123940449
100
AcDbArc
 50
195.0618917771013
 51
275.1581447696762
  0
ARC
  5
42A
102
{ACAD_REACTORS
330
462
330
463
102
}
330
71
100
AcDbEntity
  8
0
  6
Continuous
 62
     2
100
AcDbCircle
 10
-57.14560176050003
 20
26.83577612566597
 30
0.0
 40
4.852596863498825
100
AcDbArc
 50
275.1581447696364
 51
285.9799912583387
  0
ARC
  5
42B
102
{ACAD_REACTORS
330
462
330
463
102
}
330
71
100
AcDbEntity
  8
0
  6
Continuous
 62
     2
100
AcDbCircle
 10
-56.98772888540722
 20
24.93356154581767
 30
0.0
 40
2.227384008972746
100
AcDbArc
 50
288.4480761181335
 51
301.9309089499397
  0
ARC
  5
42C
102
{ACAD_REACTORS
330
462
330
463
102
}
330
71
100
AcDbEntity
  8
0
  6
Continuous
 62
     2
100
AcDbCircle
 10
-56.56956115174532
 20
23.68001576978108
 30
0.0
 40
0.905929784985274
100
AcDbArc
 50
246.6277221118186
 51
288.4480761180818
  0
ARC
  5
42D
102
{ACAD_REACTORS
330
462
330
463
102
}
330
71
100
AcDbEntity
  8
0
  6
Continuous
 62
     2
100
AcDbCircle
 10
-56.34864392636703
 20
23.52309518040957
 30
0.0
 40
0.9410597353348907
100
AcDbArc
 50
151.4785267423626
 51
208.5214732576695
  0
ARC
  5
42E
102
{ACAD_REACTORS
330
462
330
463
102
}
330
71
100
AcDbEntity
  8
0
  6
Continuous
 62
     2
100
AcDbCircle
 10
-56.57933118634472
 20
23.31021162936568
 30
0.0
 40
0.9545230068261006
100
AcDbArc
 50
90.0
 51
109.3371432194319
  0
ARC
  5
42F
102
{ACAD_REACTORS
330
464
330
465
102
}
330
71
100
AcDbEntity
  8
0
  6
Continuous
 62
     2
100
AcDbCircle
 10
-77.78946139917903
 20
27.38074046320688
 30
0.0
 40
0.315716923076064
100
AcDbArc
 50
90.18896704254594
 51
180.0
  0
ARC
  5
430
102
{ACAD_REACTORS
330
464
330
465
102
}
330
71
100
AcDbEntity
  8
0
  6
Continuous
 62
     2
100
AcDbCircle
 10
-78.31550409726691
 20
25.66606357473228
 30
0.0
 40
0.911848150144459
100
AcDbArc
 50
295.3740086781764
 51
64.62599132180728
  0
ARC
  5
431
102
{ACAD_REACTORS
330
460
330
461
102
}
330
71
100
AcDbEntity
  8
0
  6
Continuous
 62
     2
100
AcDbCircle
 10
-73.09043036466011
 20
24.93356154581826
 30
0.0
 40
2.22738400897273
100
AcDbArc
 50
288.4480761181328
 51
301.9309089499593
  0
ARC
  5
432
102
{ACAD_REACTORS
330
460
330
461
102
}
330
71
100
AcDbEntity
  8
0
  6
Continuous
 62
     2
100
AcDbCircle
 10
-72.67226263099931
 20
23.68001576978108
 30
0.0
 40
0.905929784984916
100
AcDbArc
 50
246.6277221118709
 51
288.4480761181586
  0
ARC
  5
433
102
{ACAD_REACTORS
330
460
330
461
102
}
330
71
100
AcDbEntity
  8
0
  6
Continuous
 62
     2
100
AcDbCircle
 10
-72.82870266370134
 20
23.31802375107108
 30
0.0
 40
0.5115800601948034
100
AcDbArc
 50
208.5214732576956
 51
246.6277221118272
  0
ARC
  5
434
102
{ACAD_REACTORS
330
460
330
461
102
}
330
71
100
AcDbEntity
  8
0
  6
Continuous
 62
     2
100
AcDbCircle
 10
-72.67226263099931
 20
23.36617459103798
 30
0.0
 40
0.9059297849853228
100
AcDbArc
 50
71.55192388185348
 51
113.372277888129
  0
ARC
  5
435
102
{ACAD_REACTORS
330
460
330
461
102
}
330
71
100
AcDbEntity
  8
0
  6
Continuous
 62
     2
100
AcDbCircle
 10
-73.24830323975303
 20
20.21041423515368
 30
0.0
 40
4.852596863498062
100
AcDbArc
 50
74.02000874164736
 51
84.84185523037506
  0
CIRCLE
  5
436
102
{ACAD_REACTORS
330
464
330
465
102
}
330
71
100
AcDbEntity
  8
0
  6
Continuous
 62
     2
100
AcDbCircle
 10
-78.33931911193972
 20
25.66606357473228
 30
0.0
 40
0.4709789327785074
  0
CIRCLE
  5
437
330
71
100
AcDbEntity
  8
1
  6
Continuous
 62
     2
100
AcDbCircle
 10
-72.88314937784003
 20
35.82769041848789
 30
0.0
 40
1.249999999999915
  0
CIRCLE
  5
438
330
71
100
AcDbEntity
  8
1
  6
Continuous
 62
     2
100
AcDbCircle
 10
-72.88314937784003
 20
35.82769041848789
 30
0.0
 40
2.5
  0
TEXT
  5
439
330
71
100
AcDbEntity
  8
1
 62
     7
100
AcDbText
 10
-30.24625654238884
 20
33.00269041848787
 30
0.0
 40
2.5
  1
/
 41
0.9
  7
CONVERTER_11
100
AcDbText
  0
TEXT
  5
43B
330
71
100
AcDbEntity
  8
1
 62
     7
100
AcDbText
 10
-28.08989204534683
 20
33.00269041848787
 30
0.0
 40
2.5
  1
00
 41
0.81
  7
CONVERTER_12
100
AcDbText
  0
TEXT
  5
43C
330
71
100
AcDbEntity
  8
1
 62
     3
100
AcDbText
 10
9.50659198067027
 20
33.00269041848787
 30
0.0
 40
2.5
  1
12.12.2017
 41
0.81
  7
CONVERTER_12
100
AcDbText
  0
MTEXT
  5
43D
330
71
100
AcDbEntity
  8
1
 62
     2
100
AcDbMText
 10
9.50659198067027
 20
39.20269041848789
 30
0.0
 40
1.8
 41
0.0
 71
     1
 72
     1
  1
date
  7
CONVERTER_11
 73
     1
 44
1.32052821128451
  0
MTEXT
  5
43E
330
71
100
AcDbEntity
  8
1
 62
     2
100
AcDbMText
 10
-20.31980426440262
 20
30.70269041848789
 30
0.0
 40
1.8
 41
0.0
 71
     1
 72
     1
  1
document-type
  7
CONVERTER_11
 73
     1
 44
1.20048019207683
  0
TEXT
  5
43F
330
71
100
AcDbEntity
  8
1
 62
     3
100
AcDbText
 10
-20.31980426440262
 20
24.50269041848787
 30
0.0
 40
2.5
  1
TECDOC 2D_Productdrawing
 41
0.81
  7
CONVERTER_12
100
AcDbText
  0
MTEXT
  5
441
330
71
100
AcDbEntity
  8
1
 62
     2
100
AcDbMText
 10
-48.11980426440263
 20
39.20269041848798
 30
0.0
 40
1.8
 41
0.0
 71
     1
 72
     1
  1
document-No. / RI
  7
CONVERTER_13
 73
     1
 44
1.32052821128451
  0
TEXT
  5
442
330
71
100
AcDbEntity
  8
1
 62
     7
100
AcDbText
 10
-48.11980426440263
 20
33.00269041848787
 30
0.0
 40
2.5
  1
40203048
 41
0.81
  7
CONVERTER_12
100
AcDbText
  0
MTEXT
  5
444
330
71
100
AcDbEntity
  8
1
 62
     3
100
AcDbMText
 10
39.46579612150968
 20
33.00269041848807
 30
0.0
 40
2.5
 41
0.0
 71
     8
 72
     1
  1
1:1
  7
CONVERTER_14
 73
     1
 44
1.32052821128451
  0
MTEXT
  5
445
330
71
100
AcDbEntity
  8
1
 62
     2
100
AcDbMText
 10
36.10659198067009
 20
39.20269041848798
 30
0.0
 40
1.8
 41
0.0
 71
     1
 72
     1
  1
scale
  7
CONVERTER_11
 73
     1
 44
1.20048019207683
  0
MTEXT
  5
446
330
71
100
AcDbEntity
  8
1
 62
     2
100
AcDbMText
 10
-48.11980426440263
 20
30.70269041848798
 30
0.0
 40
1.8
 41
0.0
 71
     1
 72
     1
  1
ident.-No.
  7
CONVERTER_11
 73
     1
 44
1.20048019207683
  0
TEXT
  5
447
330
71
100
AcDbEntity
  8
1
 62
     7
100
AcDbText
 10
-47.71980426440291
 20
24.50269041848787
 30
0.0
 40
2.5
  1
0452014
 41
0.81
  7
CONVERTER_12
100
AcDbText
  0
MTEXT
  5
448
330
71
100
AcDbEntity
  8
1
 62
     2
100
AcDbMText
 10
-120.0578189894501
 20
27.45269041848789
 30
0.0
 40
2.0
 41
0.0
 71
     5
 72
     1
  1
General Information\P- Simplified representation\P- Document excluded from change process\P- Linear dimensions [mm]
  7
CONVERTER_11
 73
     1
 44
1.20048019207683
  0
MTEXT
  5
449
330
71
100
AcDbEntity
  8
1
 62
     7
100
AcDbMText
 10
46.42500026234637
 20
89.70269041848988
 30
0.0
 40
3.5
 41
0.0
 71
     5
 72
     1
  1
C
  7
CONVERTER_11
 73
     1
 44
1.20048019207683
  0
MTEXT
  5
44A
330
71
100
AcDbEntity
  8
1
 62
     7
100
AcDbMText
 10
46.42500026234637
 20
192.202690418488
 30
0.0
 40
3.5
 41
0.0
 71
     5
 72
     1
  1
A
  7
CONVERTER_11
 73
     1
 44
1.20048019207683
  0
MTEXT
  5
44B
330
71
100
AcDbEntity
  8
1
 62
     7
100
AcDbMText
 10
46.42500026234637
 20
139.7026904184899
 30
0.0
 40
3.5
 41
0.0
 71
     5
 72
     1
  1
B
  7
CONVERTER_11
 73
     1
 44
1.20048019207683
  0
MTEXT
  5
44C
330
71
100
AcDbEntity
  8
1
 62
     7
100
AcDbMText
 10
46.42500026234637
 20
37.20269041848798
 30
0.0
 40
3.5
 41
0.0
 71
     5
 72
     1
  1
D
  7
CONVERTER_11
 73
     1
 44
1.20048019207683
  0
MTEXT
  5
44D
330
71
100
AcDbEntity
  8
1
 62
     7
100
AcDbMText
 10
-223.8249997376522
 20
12.20269041848786
 30
0.0
 40
3.5
 41
0.0
 71
     5
 72
     1
  1
1
  7
CONVERTER_11
 73
     1
 44
1.20048019207683
  0
MTEXT
  5
44E
330
71
100
AcDbEntity
  8
1
 62
     7
100
AcDbMText
 10
-174.5749997376526
 20
12.20269041848786
 30
0.0
 40
3.5
 41
0.0
 71
     5
 72
     1
  1
2
  7
CONVERTER_11
 73
     1
 44
1.20048019207683
  0
MTEXT
  5
44F
330
71
100
AcDbEntity
  8
1
 62
     7
100
AcDbMText
 10
-124.5749997376526
 20
12.20269041848786
 30
0.0
 40
3.5
 41
0.0
 71
     5
 72
     1
  1
3
  7
CONVERTER_11
 73
     1
 44
1.20048019207683
  0
MTEXT
  5
450
330
71
100
AcDbEntity
  8
1
 62
     7
100
AcDbMText
 10
-74.57499973765272
 20
12.20269041848786
 30
0.0
 40
3.5
 41
0.0
 71
     5
 72
     1
  1
4
  7
CONVERTER_11
 73
     1
 44
1.20048019207683
  0
MTEXT
  5
451
330
71
100
AcDbEntity
  8
1
 62
     7
100
AcDbMText
 10
-24.57499973765263
 20
12.20269041848786
 30
0.0
 40
3.5
 41
0.0
 71
     5
 72
     1
  1
5
  7
CONVERTER_11
 73
     1
 44
1.20048019207683
  0
MTEXT
  5
452
330
71
100
AcDbEntity
  8
1
 62
     7
100
AcDbMText
 10
24.67500026234657
 20
12.20269041848786
 30
0.0
 40
3.5
 41
0.0
 71
     5
 72
     1
  1
6
  7
CONVERTER_11
 73
     1
 44
1.20048019207683
  0
MTEXT
  5
453
330
71
100
AcDbEntity
  8
1
 62
     7
100
AcDbMText
 10
-245.5749997376517
 20
192.202690418488
 30
0.0
 40
3.5
 41
0.0
 71
     5
 72
     1
  1
A
  7
CONVERTER_11
 73
     1
 44
1.20048019207683
  0
MTEXT
  5
454
330
71
100
AcDbEntity
  8
1
 62
     7
100
AcDbMText
 10
-245.5749997376517
 20
139.702690418488
 30
0.0
 40
3.5
 41
0.0
 71
     5
 72
     1
  1
B
  7
CONVERTER_11
 73
     1
 44
1.20048019207683
  0
MTEXT
  5
455
330
71
100
AcDbEntity
  8
1
 62
     7
100
AcDbMText
 10
-245.5749997376517
 20
89.70269041848798
 30
0.0
 40
3.5
 41
0.0
 71
     5
 72
     1
  1
C
  7
CONVERTER_11
 73
     1
 44
1.20048019207683
  0
MTEXT
  5
456
330
71
100
AcDbEntity
  8
1
 62
     7
100
AcDbMText
 10
-245.5749997376517
 20
37.20269041848798
 30
0.0
 40
3.5
 41
0.0
 71
     5
 72
     1
  1
D
  7
CONVERTER_11
 73
     1
 44
1.20048019207683
  0
MTEXT
  5
457
330
71
100
AcDbEntity
  8
1
 62
     3
100
AcDbMText
 10
-59.41980426440273
 20
35.82769041848798
 30
0.0
 40
2.5
 41
0.0
 71
     5
 72
     1
  1
DIN A4
  7
CONVERTER_11
 73
     1
 44
1.20048019207683
  0
MTEXT
  5
458
330
71
100
AcDbEntity
  8
1
 62
     2
100
AcDbMText
 10
-48.21980426440271
 20
22.20269041848798
 30
0.0
 40
1.8
 41
0.0
 71
     1
 72
     1
  1
description
  7
CONVERTER_11
 73
     1
 44
1.20048019207683
  0
MTEXT
  5
459
330
71
100
AcDbEntity
  8
1
 62
     7
100
AcDbMText
 10
-2.64740200102713
 20
17.9526904184882
 30
0.0
 40
3.0
 41
0.0
 71
     5
 72
     1
  1
MSLKG 5
  7
CONVERTER_12
 73
     1
 44
1.20048019207683
  0
TEXT
  5
45A
330
71
100
AcDbEntity
  8
1
 62
     2
100
AcDbText
 10
-61.18449545458913
 20
15.95269041848786
 30
0.0
 40
1.8
  1
1
 41
0.9
  7
CONVERTER_11
100
AcDbText
  0
TEXT
  5
45B
330
71
100
AcDbEntity
  8
1
 62
     2
100
AcDbText
 10
-75.97353929406063
 20
15.90344176468597
 30
0.0
 40
1.8
  1
1
 41
0.9
  7
CONVERTER_11
100
AcDbText
  0
TEXT
  5
45C
330
71
100
AcDbEntity
  8
1
 62
     2
100
AcDbText
 10
-84.61980426440263
 20
15.9436732034963
 30
0.0
 40
1.8
  1
page
 41
0.9
  7
CONVERTER_11
100
AcDbText
  0
TEXT
  5
45D
330
71
100
AcDbEntity
  8
1
 62
     2
100
AcDbText
 10
-66.41980426440281
 20
15.94367320349636
 30
0.0
 40
1.8
  1
of
 41
0.9
  7
CONVERTER_11
100
AcDbText
  0
MTEXT
  5
45E
330
71
100
AcDbEntity
  8
1
 62
     3
100
AcDbMText
 10
-60.21682211279273
 20
201.4939985737868
 30
0.0
 40
1.8
 41
0.0
 71
     7
 72
     1
  3
Transfer or duplication of this document as well as the utilisation or\Pcommunication of its content are not permitted unless express consent\Pis granted. Violations give rise to claims for damages. All rights reserved\Pin case of patent, utility mo
  1
del or design patent registrations.
  7
CONVERTER_11
 73
     1
 44
0.99639855942377
  0
MTEXT
  5
45F
330
71
100
AcDbEntity
  8
1
 62
     3
100
AcDbMText
 10
-243.0699319515808
 20
201.4939985737868
 30
0.0
 40
1.8
 41
0.0
 71
     7
 72
     1
  3
Weitergabe sowie Vervielf\U+00e4ltigung dieses Dokuments, Verwertung und \PMitteilung seines Inhalts sind verboten, soweit nicht ausdr\U+00fccklich gestattet. \PZuwiderhandlungen verpflichten zu Schadenersatz. Alle Rechte f\U+00fcr den Fall\Pder Pat
  1
ent-, Gebrauchsmuster- oder Designeintragung vorbehalten.
  7
CONVERTER_11
 73
     1
 44
0.99639855942377
  0
HATCH
  5
460
330
71
100
AcDbEntity
  8
1
  6
Continuous
 62
     2
100
AcDbHatch
 10
0.0
 20
0.0
 30
0.0
210
0.0
220
0.0
230
1.0
  2
_USER
 70
     0
 71
     1
 91
        1
 92
        1
 93
       14
 72
     2
 10
-73.37857498847993
 20
23.52309518040957
 40
1.205656168390944
 50
164.9381082228765
 51
195.061891777095
 73
     1
 72
     2
 10
-72.95944714501712
 20
23.63588554244439
 40
1.63969512393939
 50
195.06189177709
 51
275.1581447696395
 73
     1
 72
     2
 10
-73.24830323975303
 20
26.83577612566597
 40
4.852596863498134
 50
275.1581447696249
 51
285.9799912583529
 73
     1
 72
     1
 10
-71.91237532263523
 20
22.17069381986516
 11
-71.91237532263523
 21
23.04321082666837
 72
     2
 10
-73.09043036466011
 20
24.93356154581826
 40
2.22738400897273
 50
58.06909105004065
 51
71.55192388186718
 73
     0
 72
     2
 10
-72.67226263099931
 20
23.68001576978108
 40
0.905929784984916
 50
71.55192388184147
 51
113.3722778881291
 73
     0
 72
     2
 10
-72.82870266370134
 20
23.31802375107108
 40
0.5115800601948034
 50
113.3722778881728
 51
151.4785267423044
 73
     0
 72
     2
 10
-72.45134540562103
 20
23.52309518040957
 40
0.9410597353332545
 50
151.4785267422943
 51
208.5214732577331
 73
     0
 72
     2
 10
-72.82870266370134
 20
23.72816660974857
 40
0.5115800601948779
 50
208.5214732576956
 51
246.6277221118009
 73
     0
 72
     2
 10
-72.67226263099931
 20
23.36617459103798
 40
0.9059297849853228
 50
246.6277221118709
 51
288.4480761181465
 73
     0
 72
     2
 10
-73.09043036466011
 20
22.11262881500139
 40
2.227384008973474
 50
288.4480761181328
 51
301.9309089499593
 73
     0
 72
     1
 10
-71.91237532263523
 20
24.00297953415128
 11
-71.91237532263523
 21
24.87549654095457
 72
     2
 10
-73.24830323975303
 20
20.21041423515368
 40
4.852596863498062
 50
74.02000874164736
 51
84.84185523037506
 73
     1
 72
     2
 10
-72.95944714501712
 20
23.41030481837467
 40
1.639695123940507
 50
84.84185523036236
 51
164.9381082228864
 73
     1
 97
       14
330
435
330
34E
330
404
330
434
330
405
330
406
330
433
330
432
330
431
330
34F
330
407
330
408
330
409
330
40A
 75
     1
 76
     0
 52
45.0
 41
0.1
 77
     0
 78
     1
 53
45.0
 43
0.0
 44
0.0
 45
-0.0707106781186548
 46
0.0707106781186548
 79
     0
 98
        1
 10
0.0
 20
0.0
  0
HATCH
  5
461
330
71
100
AcDbEntity
  8
1
  6
Continuous
 62
     2
100
AcDbHatch
 10
0.0
 20
0.0
 30
0.0
210
0.0
220
0.0
230
1.0
  2
_USER
 70
     0
 71
     1
 91
        1
 92
        1
 93
       14
 72
     2
 10
-73.37857498847993
 20
23.52309518040957
 40
1.205656168390944
 50
164.9381082228765
 51
195.061891777095
 73
     1
 72
     2
 10
-72.95944714501712
 20
23.63588554244439
 40
1.63969512393939
 50
195.06189177709
 51
275.1581447696395
 73
     1
 72
     2
 10
-73.24830323975303
 20
26.83577612566597
 40
4.852596863498134
 50
275.1581447696249
 51
285.9799912583529
 73
     1
 72
     1
 10
-71.91237532263523
 20
22.17069381986516
 11
-71.91237532263523
 21
23.04321082666837
 72
     2
 10
-73.09043036466011
 20
24.93356154581826
 40
2.22738400897273
 50
58.06909105004065
 51
71.55192388186718
 73
     0
 72
     2
 10
-72.67226263099931
 20
23.68001576978108
 40
0.905929784984916
 50
71.55192388184147
 51
113.3722778881291
 73
     0
 72
     2
 10
-72.82870266370134
 20
23.31802375107108
 40
0.5115800601948034
 50
113.3722778881728
 51
151.4785267423044
 73
     0
 72
     2
 10
-72.45134540562103
 20
23.52309518040957
 40
0.9410597353332545
 50
151.4785267422943
 51
208.5214732577331
 73
     0
 72
     2
 10
-72.82870266370134
 20
23.72816660974857
 40
0.5115800601948779
 50
208.5214732576956
 51
246.6277221118009
 73
     0
 72
     2
 10
-72.67226263099931
 20
23.36617459103798
 40
0.9059297849853228
 50
246.6277221118709
 51
288.4480761181465
 73
     0
 72
     2
 10
-73.09043036466011
 20
22.11262881500139
 40
2.227384008973474
 50
288.4480761181328
 51
301.9309089499593
 73
     0
 72
     1
 10
-71.91237532263523
 20
24.00297953415128
 11
-71.91237532263523
 21
24.87549654095457
 72
     2
 10
-73.24830323975303
 20
20.21041423515368
 40
4.852596863498062
 50
74.02000874164736
 51
84.84185523037506
 73
     1
 72
     2
 10
-72.95944714501712
 20
23.41030481837467
 40
1.639695123940507
 50
84.84185523036236
 51
164.9381082228864
 73
     1
 97
       14
330
435
330
34E
330
404
330
434
330
405
330
406
330
433
330
432
330
431
330
34F
330
407
330
408
330
409
330
40A
 75
     1
 76
     0
 52
45.0
 41
0.1
 77
     0
 78
     1
 53
45.0
 43
0.0
 44
0.0
 45
-0.0707106781186548
 46
0.0707106781186548
 79
     0
 98
        1
 10
0.0
 20
0.0
  0
HATCH
  5
462
330
71
100
AcDbEntity
  8
1
  6
Continuous
 62
     2
100
AcDbHatch
 10
0.0
 20
0.0
 30
0.0
210
0.0
220
0.0
230
1.0
  2
_USER
 70
     0
 71
     1
 91
        1
 92
        1
 93
       18
 72
     2
 10
-56.85674566576421
 20
23.41030481837467
 40
1.639695123940211
 50
90.0
 51
164.938108222895
 73
     1
 72
     2
 10
-57.27587350922582
 20
23.52309518040957
 40
1.205656168393002
 50
164.9381082229028
 51
195.0618917770958
 73
     1
 72
     2
 10
-56.85674566576421
 20
23.63588554244439
 40
1.639695123940449
 50
195.0618917771013
 51
275.1581447696762
 73
     1
 72
     2
 10
-57.14560176050003
 20
26.83577612566597
 40
4.852596863498825
 50
275.1581447696364
 51
285.9799912583387
 73
     1
 72
     1
 10
-55.80967384338331
 20
22.17069381986457
 11
-55.80967384338331
 21
23.04321082666789
 72
     2
 10
-56.98772888540722
 20
24.93356154581767
 40
2.227384008972746
 50
58.06909105006029
 51
71.55192388186651
 73
     0
 72
     2
 10
-56.56956115174532
 20
23.68001576978108
 40
0.905929784985274
 50
71.55192388191821
 51
113.3722778881814
 73
     0
 72
     2
 10
-56.72600118444842
 20
23.31802375107108
 40
0.5115800601960215
 50
113.3722778881545
 51
151.4785267423134
 73
     0
 72
     2
 10
-56.34864392636703
 20
23.52309518040957
 40
0.9410597353348907
 50
151.4785267423305
 51
208.5214732576374
 73
     0
 72
     2
 10
-56.72600118444842
 20
23.72816660974857
 40
0.5115800601944176
 50
208.5214732575772
 51
250.6628567805149
 73
     0
 72
     2
 10
-56.57933118634472
 20
23.31021162936568
 40
0.9545230068261006
 50
250.6628567805681
 51
270.0
 73
     0
 72
     1
 10
-56.57933118634472
 20
24.26473463619178
 11
-55.47569188677662
 21
24.26473463619178
 72
     1
 10
-55.47569188677662
 20
24.26473463619178
 11
-55.47569188677662
 21
21.99619041850428
 72
     1
 10
-55.47569188677662
 20
21.99619041850428
 11
-54.28289918460891
 21
21.99619041850428
 72
     1
 10
-54.28289918460891
 20
21.99619041850428
 11
-54.28289918460891
 21
24.26473463619178
 72
     1
 10
-54.28289918460891
 20
24.26473463619178
 11
-53.47180014713553
 21
24.26473463619178
 72
     1
 10
-53.47180014713553
 20
24.26473463619178
 11
-53.47180014713553
 21
25.04999994231537
 72
     1
 10
-53.47180014713553
 20
25.04999994231537
 11
-56.85674566576421
 21
25.04999994231488
 97
       18
330
3B4
330
3B3
330
3B2
330
3B1
330
3B6
330
350
330
42E
330
40F
330
42D
330
410
330
42C
330
42B
330
351
330
42A
330
429
330
411
330
412
330
3B5
 75
     1
 76
     0
 52
45.0
 41
0.1
 77
     0
 78
     1
 53
45.0
 43
0.0
 44
0.0
 45
-0.0707106781186548
 46
0.0707106781186548
 79
     0
 98
        1
 10
0.0
 20
0.0
  0
HATCH
  5
463
330
71
100
AcDbEntity
  8
1
  6
Continuous
 62
     2
100
AcDbHatch
 10
0.0
 20
0.0
 30
0.0
210
0.0
220
0.0
230
1.0
  2
_USER
 70
     0
 71
     1
 91
        1
 92
        1
 93
       18
 72
     2
 10
-56.85674566576421
 20
23.41030481837467
 40
1.639695123940211
 50
90.0
 51
164.938108222895
 73
     1
 72
     2
 10
-57.27587350922582
 20
23.52309518040957
 40
1.205656168393002
 50
164.9381082229028
 51
195.0618917770958
 73
     1
 72
     2
 10
-56.85674566576421
 20
23.63588554244439
 40
1.639695123940449
 50
195.0618917771013
 51
275.1581447696762
 73
     1
 72
     2
 10
-57.14560176050003
 20
26.83577612566597
 40
4.852596863498825
 50
275.1581447696364
 51
285.9799912583387
 73
     1
 72
     1
 10
-55.80967384338331
 20
22.17069381986457
 11
-55.80967384338331
 21
23.04321082666789
 72
     2
 10
-56.98772888540722
 20
24.93356154581767
 40
2.227384008972746
 50
58.06909105006029
 51
71.55192388186651
 73
     0
 72
     2
 10
-56.56956115174532
 20
23.68001576978108
 40
0.905929784985274
 50
71.55192388191821
 51
113.3722778881814
 73
     0
 72
     2
 10
-56.72600118444842
 20
23.31802375107108
 40
0.5115800601960215
 50
113.3722778881545
 51
151.4785267423134
 73
     0
 72
     2
 10
-56.34864392636703
 20
23.52309518040957
 40
0.9410597353348907
 50
151.4785267423305
 51
208.5214732576374
 73
     0
 72
     2
 10
-56.72600118444842
 20
23.72816660974857
 40
0.5115800601944176
 50
208.5214732575772
 51
250.6628567805149
 73
     0
 72
     2
 10
-56.57933118634472
 20
23.31021162936568
 40
0.9545230068261006
 50
250.6628567805681
 51
270.0
 73
     0
 72
     1
 10
-56.57933118634472
 20
24.26473463619178
 11
-55.47569188677662
 21
24.26473463619178
 72
     1
 10
-55.47569188677662
 20
24.26473463619178
 11
-55.47569188677662
 21
21.99619041850428
 72
     1
 10
-55.47569188677662
 20
21.99619041850428
 11
-54.28289918460891
 21
21.99619041850428
 72
     1
 10
-54.28289918460891
 20
21.99619041850428
 11
-54.28289918460891
 21
24.26473463619178
 72
     1
 10
-54.28289918460891
 20
24.26473463619178
 11
-53.47180014713553
 21
24.26473463619178
 72
     1
 10
-53.47180014713553
 20
24.26473463619178
 11
-53.47180014713553
 21
25.04999994231537
 72
     1
 10
-53.47180014713553
 20
25.04999994231537
 11
-56.85674566576421
 21
25.04999994231488
 97
       18
330
3B4
330
3B3
330
3B2
330
3B1
330
3B6
330
350
330
42E
330
40F
330
42D
330
410
330
42C
330
42B
330
351
330
42A
330
429
330
411
330
412
330
3B5
 75
     1
 76
     0
 52
45.0
 41
0.1
 77
     0
 78
     1
 53
45.0
 43
0.0
 44
0.0
 45
-0.0707106781186548
 46
0.0707106781186548
 79
     0
 98
        1
 10
0.0
 20
0.0
  0
HATCH
  5
464
330
71
100
AcDbEntity
  8
1
  6
Continuous
 62
     2
100
AcDbHatch
 10
0.0
 20
0.0
 30
0.0
210
0.0
220
0.0
230
1.0
  2
_USER
 70
     0
 71
     1
 91
        4
 92
        1
 93
        8
 72
     2
 10
-80.95890476245722
 20
27.98494580308778
 40
0.4242446153838024
 50
90.0
 51
180.0
 73
     1
 72
     1
 10
-81.38314937784003
 20
27.98494580308778
 11
-81.38314937784003
 21
22.42043503388757
 72
     2
 10
-80.95890476245722
 20
22.42043503388757
 40
0.4242446153828041
 50
180.0
 51
270.0
 73
     1
 72
     1
 10
-80.95890476245722
 20
21.99619041850428
 11
-75.48559267174042
 21
21.99619041850428
 72
     2
 10
-75.48559267174042
 20
22.42043503388757
 40
0.4242446153832908
 50
270.0
 51
360.0
 73
     1
 72
     1
 10
-75.06134805635654
 20
22.42043503388757
 11
-75.06134805635654
 21
27.98494580308778
 72
     2
 10
-75.48559267174042
 20
27.98494580308778
 40
0.4242446153838841
 50
0.0
 51
90.0
 73
     1
 72
     1
 10
-75.48559267174042
 20
28.40919041847158
 11
-80.95890476245722
 21
28.40919041847158
 97
        8
330
422
330
37F
330
421
330
380
330
418
330
37D
330
423
330
37E
 92
       16
 93
        1
 72
     2
 10
-78.33931911193972
 20
25.66606357473228
 40
0.4709789327785074
 50
0.0
 51
360.0
 73
     1
 97
        1
330
436
 92
       16
 93
        8
 72
     2
 10
-78.31550409726691
 20
25.66606357473228
 40
0.911848150144459
 50
295.3740086781764
 51
424.6259913218072
 73
     1
 72
     2
 10
-77.78946139917903
 20
26.77520517470009
 40
0.315716923076792
 50
115.3740086783516
 51
180.0
 73
     0
 72
     1
 10
-78.10517832225582
 20
26.77520517470009
 11
-78.10517832225582
 21
27.38074046320688
 72
     2
 10
-77.78946139917903
 20
27.38074046320688
 40
0.315716923076064
 50
180.0
 51
269.8110329574541
 73
     0
 72
     2
 10
-77.78384526386901
 20
25.67790551563778
 40
2.018561131933266
 50
269.8110329575858
 51
450.1889670424142
 73
     0
 72
     2
 10
-77.78946139917903
 20
23.97507056806879
 40
0.315716923076792
 50
90.18896704254585
 51
180.0
 73
     0
 72
     1
 10
-78.10517832225582
 20
23.97507056806879
 11
-78.10517832225582
 21
24.55692197476387
 72
     2
 10
-77.78946139917903
 20
24.55692197476387
 40
0.3157169230765328
 50
180.0
 51
244.6259913216482
 73
     0
 97
        8
330
430
330
40C
330
3B8
330
42F
330
40D
330
40E
330
3B7
330
40B
 92
       16
 93
       12
 72
     1
 10
-80.36501008571074
 20
22.70874597406117
 11
-78.88917682470111
 21
22.70874597406117
 72
     2
 10
-78.88917682470111
 20
23.02446289713788
 40
0.3157169230767103
 50
270.0
 51
360.0
 73
     1
 72
     1
 10
-78.57345990162452
 20
23.02446289713788
 11
-78.57345990162452
 21
24.55523382866949
 72
     2
 10
-78.88917682470111
 20
24.55523382866949
 40
0.315716923076593
 50
0.0
 51
64.80558935146027
 73
     1
 72
     2
 10
-78.36659237712612
 20
25.66606357473228
 40
0.9118975235576114
 50
115.1944106485122
 51
244.8055893514717
 73
     0
 72
     2
 10
-78.88917682470111
 20
26.77689332079447
 40
0.3157169230761203
 50
295.1944106485397
 51
360.0
 73
     1
 72
     1
 10
-78.57345990162452
 20
26.77689332079447
 11
-78.57345990162452
 21
27.38091793985498
 72
     2
 10
-78.88917682470111
 20
27.38091793985498
 40
0.315716923076593
 50
0.0
 51
90.0
 73
     1
 72
     1
 10
-78.88917682470111
 20
27.69663486293118
 11
-80.36501008571074
 21
27.69663486293118
 72
     2
 10
-80.36501008571074
 20
27.38091793985498
 40
0.3157169230761987
 50
90.0
 51
180.0
 73
     1
 72
     1
 10
-80.68072700878642
 20
27.38091793985498
 11
-80.68072700878642
 21
23.02446289713788
 72
     2
 10
-80.36501008571074
 20
23.02446289713788
 40
0.3157169230756836
 50
180.0
 51
270.0
 73
     1
 97
       12
330
384
330
415
330
383
330
426
330
382
330
425
330
416
330
417
330
381
330
424
330
37C
330
427
 75
     1
 76
     0
 52
45.0
 41
0.1
 77
     0
 78
     1
 53
45.0
 43
0.0
 44
0.0
 45
-0.0707106781186548
 46
0.0707106781186548
 79
     0
 98
        1
 10
0.0
 20
0.0
  0
HATCH
  5
465
330
71
100
AcDbEntity
  8
1
  6
Continuous
 62
     2
100
AcDbHatch
 10
0.0
 20
0.0
 30
0.0
210
0.0
220
0.0
230
1.0
  2
_USER
 70
     0
 71
     1
 91
        4
 92
        1
 93
        8
 72
     2
 10
-80.95890476245722
 20
27.98494580308778
 40
0.4242446153838024
 50
90.0
 51
180.0
 73
     1
 72
     1
 10
-81.38314937784003
 20
27.98494580308778
 11
-81.38314937784003
 21
22.42043503388757
 72
     2
 10
-80.95890476245722
 20
22.42043503388757
 40
0.4242446153828041
 50
180.0
 51
270.0
 73
     1
 72
     1
 10
-80.95890476245722
 20
21.99619041850428
 11
-75.48559267174042
 21
21.99619041850428
 72
     2
 10
-75.48559267174042
 20
22.42043503388757
 40
0.4242446153832908
 50
270.0
 51
360.0
 73
     1
 72
     1
 10
-75.06134805635654
 20
22.42043503388757
 11
-75.06134805635654
 21
27.98494580308778
 72
     2
 10
-75.48559267174042
 20
27.98494580308778
 40
0.4242446153838841
 50
0.0
 51
90.0
 73
     1
 72
     1
 10
-75.48559267174042
 20
28.40919041847158
 11
-80.95890476245722
 21
28.40919041847158
 97
        8
330
422
330
37F
330
421
330
380
330
418
330
37D
330
423
330
37E
 92
       16
 93
        1
 72
     2
 10
-78.33931911193972
 20
25.66606357473228
 40
0.4709789327785074
 50
0.0
 51
360.0
 73
     1
 97
        1
330
436
 92
       16
 93
        8
 72
     2
 10
-78.31550409726691
 20
25.66606357473228
 40
0.911848150144459
 50
295.3740086781764
 51
424.6259913218072
 73
     1
 72
     2
 10
-77.78946139917903
 20
26.77520517470009
 40
0.315716923076792
 50
115.3740086783516
 51
180.0
 73
     0
 72
     1
 10
-78.10517832225582
 20
26.77520517470009
 11
-78.10517832225582
 21
27.38074046320688
 72
     2
 10
-77.78946139917903
 20
27.38074046320688
 40
0.315716923076064
 50
180.0
 51
269.8110329574541
 73
     0
 72
     2
 10
-77.78384526386901
 20
25.67790551563778
 40
2.018561131933266
 50
269.8110329575858
 51
450.1889670424142
 73
     0
 72
     2
 10
-77.78946139917903
 20
23.97507056806879
 40
0.315716923076792
 50
90.18896704254585
 51
180.0
 73
     0
 72
     1
 10
-78.10517832225582
 20
23.97507056806879
 11
-78.10517832225582
 21
24.55692197476387
 72
     2
 10
-77.78946139917903
 20
24.55692197476387
 40
0.3157169230765328
 50
180.0
 51
244.6259913216482
 73
     0
 97
        8
330
430
330
40C
330
3B8
330
42F
330
40D
330
40E
330
3B7
330
40B
 92
       16
 93
       12
 72
     1
 10
-80.36501008571074
 20
22.70874597406117
 11
-78.88917682470111
 21
22.70874597406117
 72
     2
 10
-78.88917682470111
 20
23.02446289713788
 40
0.3157169230767103
 50
270.0
 51
360.0
 73
     1
 72
     1
 10
-78.57345990162452
 20
23.02446289713788
 11
-78.57345990162452
 21
24.55523382866949
 72
     2
 10
-78.88917682470111
 20
24.55523382866949
 40
0.315716923076593
 50
0.0
 51
64.80558935146027
 73
     1
 72
     2
 10
-78.36659237712612
 20
25.66606357473228
 40
0.9118975235576114
 50
115.1944106485122
 51
244.8055893514717
 73
     0
 72
     2
 10
-78.88917682470111
 20
26.77689332079447
 40
0.3157169230761203
 50
295.1944106485397
 51
360.0
 73
     1
 72
     1
 10
-78.57345990162452
 20
26.77689332079447
 11
-78.57345990162452
 21
27.38091793985498
 72
     2
 10
-78.88917682470111
 20
27.38091793985498
 40
0.315716923076593
 50
0.0
 51
90.0
 73
     1
 72
     1
 10
-78.88917682470111
 20
27.69663486293118
 11
-80.36501008571074
 21
27.69663486293118
 72
     2
 10
-80.36501008571074
 20
27.38091793985498
 40
0.3157169230761987
 50
90.0
 51
180.0
 73
     1
 72
     1
 10
-80.68072700878642
 20
27.38091793985498
 11
-80.68072700878642
 21
23.02446289713788
 72
     2
 10
-80.36501008571074
 20
23.02446289713788
 40
0.3157169230756836
 50
180.0
 51
270.0
 73
     1
 97
       12
330
384
330
415
330
383
330
426
330
382
330
425
330
416
330
417
330
381
330
424
330
37C
330
427
 75
     1
 76
     0
 52
45.0
 41
0.1
 77
     0
 78
     1
 53
45.0
 43
0.0
 44
0.0
 45
-0.0707106781186548
 46
0.0707106781186548
 79
     0
 98
        1
 10
0.0
 20
0.0
  0
HATCH
  5
466
330
71
100
AcDbEntity
  8
1
  6
Continuous
 62
     2
100
AcDbHatch
 10
0.0
 20
0.0
 30
0.0
210
0.0
220
0.0
230
1.0
  2
_USER
 70
     0
 71
     1
 91
        2
 92
        1
 93
       12
 72
     2
 10
-66.28374075846793
 20
26.88228565658389
 40
1.526904761905882
 50
90.0
 51
270.0
 73
     1
 72
     1
 10
-66.28374075846793
 20
25.35538089467858
 11
-63.13342103468693
 21
25.35538089467858
 72
     1
 10
-63.13342103468693
 20
25.35538089467858
 11
-63.13342103468693
 21
26.05339450012107
 72
     1
 10
-63.13342103468693
 20
26.05339450012107
 11
-64.46934886111461
 21
26.05339450012107
 72
     1
 10
-64.46934886111461
 20
26.05339450012107
 11
-64.46934886111461
 21
26.53327885386278
 72
     1
 10
-64.46934886111461
 20
26.53327885386278
 11
-63.13342103468693
 21
26.53327885386278
 72
     1
 10
-63.13342103468693
 20
26.53327885386278
 11
-63.13342103468693
 21
27.23129245930508
 72
     1
 10
-63.13342103468693
 20
27.23129245930508
 11
-64.46934886111461
 21
27.23129245930508
 72
     1
 10
-64.46934886111461
 20
27.23129245930508
 11
-64.46934886111461
 21
27.71117681304679
 72
     1
 10
-64.46934886111461
 20
27.71117681304679
 11
-63.13342103468693
 21
27.71117681304679
 72
     1
 10
-63.13342103468693
 20
27.71117681304679
 11
-63.13342103468693
 21
28.40919041848977
 72
     1
 10
-63.13342103468693
 20
28.40919041848977
 11
-66.28374075846793
 21
28.40919041848977
 97
       12
330
373
330
36D
330
394
330
393
330
392
330
391
330
36E
330
36F
330
370
330
371
330
413
330
372
 92
       16
 93
        4
 72
     2
 10
-65.86772871195643
 20
26.88228565658389
 40
0.7717997786796724
 50
141.8795802028404
 51
218.120419797156
 73
     1
 72
     2
 10
-66.06746874830273
 20
26.72555447846347
 40
0.5179085730134372
 50
218.1204197971511
 51
321.8795802028566
 73
     1
 72
     2
 10
-66.26720878464891
 20
26.88228565658389
 40
0.7717997786796351
 50
321.879580202844
 51
398.1204197971596
 73
     1
 72
     2
 10
-66.06746874830273
 20
27.03901683470437
 40
0.5179085730135266
 50
38.12041979714334
 51
141.8795802028489
 73
     1
 97
        4
330
420
330
41F
330
41A
330
419
 75
     1
 76
     0
 52
45.0
 41
0.1
 77
     0
 78
     1
 53
45.0
 43
0.0
 44
0.0
 45
-0.0707106781186548
 46
0.0707106781186548
 79
     0
 98
        1
 10
0.0
 20
0.0
  0
HATCH
  5
467
330
71
100
AcDbEntity
  8
1
  6
Continuous
 62
     2
100
AcDbHatch
 10
0.0
 20
0.0
 30
0.0
210
0.0
220
0.0
230
1.0
  2
_USER
 70
     0
 71
     1
 91
        2
 92
        1
 93
       12
 72
     2
 10
-66.28374075846793
 20
26.88228565658389
 40
1.526904761905882
 50
90.0
 51
270.0
 73
     1
 72
     1
 10
-66.28374075846793
 20
25.35538089467858
 11
-63.13342103468693
 21
25.35538089467858
 72
     1
 10
-63.13342103468693
 20
25.35538089467858
 11
-63.13342103468693
 21
26.05339450012107
 72
     1
 10
-63.13342103468693
 20
26.05339450012107
 11
-64.46934886111461
 21
26.05339450012107
 72
     1
 10
-64.46934886111461
 20
26.05339450012107
 11
-64.46934886111461
 21
26.53327885386278
 72
     1
 10
-64.46934886111461
 20
26.53327885386278
 11
-63.13342103468693
 21
26.53327885386278
 72
     1
 10
-63.13342103468693
 20
26.53327885386278
 11
-63.13342103468693
 21
27.23129245930508
 72
     1
 10
-63.13342103468693
 20
27.23129245930508
 11
-64.46934886111461
 21
27.23129245930508
 72
     1
 10
-64.46934886111461
 20
27.23129245930508
 11
-64.46934886111461
 21
27.71117681304679
 72
     1
 10
-64.46934886111461
 20
27.71117681304679
 11
-63.13342103468693
 21
27.71117681304679
 72
     1
 10
-63.13342103468693
 20
27.71117681304679
 11
-63.13342103468693
 21
28.40919041848977
 72
     1
 10
-63.13342103468693
 20
28.40919041848977
 11
-66.28374075846793
 21
28.40919041848977
 97
       12
330
373
330
36D
330
394
330
393
330
392
330
391
330
36E
330
36F
330
370
330
371
330
413
330
372
 92
       16
 93
        4
 72
     2
 10
-65.86772871195643
 20
26.88228565658389
 40
0.7717997786796724
 50
141.8795802028404
 51
218.120419797156
 73
     1
 72
     2
 10
-66.06746874830273
 20
26.72555447846347
 40
0.5179085730134372
 50
218.1204197971511
 51
321.8795802028566
 73
     1
 72
     2
 10
-66.26720878464891
 20
26.88228565658389
 40
0.7717997786796351
 50
321.879580202844
 51
398.1204197971596
 73
     1
 72
     2
 10
-66.06746874830273
 20
27.03901683470437
 40
0.5179085730135266
 50
38.12041979714334
 51
141.8795802028489
 73
     1
 97
        4
330
420
330
41F
330
41A
330
419
 75
     1
 76
     0
 52
45.0
 41
0.1
 77
     0
 78
     1
 53
45.0
 43
0.0
 44
0.0
 45
-0.0707106781186548
 46
0.0707106781186548
 79
     0
 98
        1
 10
0.0
 20
0.0
  0
HATCH
  5
468
330
71
100
AcDbEntity
  8
1
  6
Continuous
 62
     2
100
AcDbHatch
 10
0.0
 20
0.0
 30
0.0
210
0.0
220
0.0
230
1.0
  2
_USER
 70
     0
 71
     1
 91
        2
 92
        1
 93
        4
 72
     2
 10
-70.30935612092952
 20
23.52309518040957
 40
1.45803408365149
 50
117.5481481756624
 51
242.4518518243375
 73
     1
 72
     2
 10
-70.02841622909622
 20
24.06167019071287
 40
2.065479772208505
 50
242.4518518243401
 51
297.5481481756871
 73
     1
 72
     2
 10
-69.74747633726292
 20
23.52309518040957
 40
1.458034083652003
 50
297.548148175701
 51
422.451851824299
 73
     1
 72
     2
 10
-70.02841622909622
 20
22.98452017010678
 40
2.065479772208564
 50
62.45185182430632
 51
117.5481481756664
 73
     1
 97
        4
330
41E
330
41B
330
41D
330
41C
 92
       16
 93
        4
 72
     2
 10
-70.02841622909622
 20
23.67982635853008
 40
0.5179085730132976
 50
38.12041979714672
 51
141.8795802028591
 73
     1
 72
     2
 10
-69.82867619275012
 20
23.52309518040957
 40
0.771799778679461
 50
141.8795802028365
 51
218.1204197971687
 73
     1
 72
     2
 10
-70.02841622909622
 20
23.36636400228957
 40
0.5179085730137332
 50
218.1204197971929
 51
321.8795802028013
 73
     1
 72
     2
 10
-70.22815626544264
 20
23.52309518040957
 40
0.7717997786796947
 50
321.8795802028417
 51
398.120419797153
 73
     1
 97
        4
330
401
330
402
330
403
330
400
 75
     1
 76
     0
 52
45.0
 41
0.1
 77
     0
 78
     1
 53
45.0
 43
0.0
 44
0.0
 45
-0.0707106781186548
 46
0.0707106781186548
 79
     0
 98
        1
 10
0.0
 20
0.0
  0
HATCH
  5
469
330
71
100
AcDbEntity
  8
1
  6
Continuous
 62
     2
100
AcDbHatch
 10
0.0
 20
0.0
 30
0.0
210
0.0
220
0.0
230
1.0
  2
_USER
 70
     0
 71
     1
 91
        2
 92
        1
 93
        4
 72
     2
 10
-70.30935612092952
 20
23.52309518040957
 40
1.45803408365149
 50
117.5481481756624
 51
242.4518518243375
 73
     1
 72
     2
 10
-70.02841622909622
 20
24.06167019071287
 40
2.065479772208505
 50
242.4518518243401
 51
297.5481481756871
 73
     1
 72
     2
 10
-69.74747633726292
 20
23.52309518040957
 40
1.458034083652003
 50
297.548148175701
 51
422.451851824299
 73
     1
 72
     2
 10
-70.02841622909622
 20
22.98452017010678
 40
2.065479772208564
 50
62.45185182430632
 51
117.5481481756664
 73
     1
 97
        4
330
41E
330
41B
330
41D
330
41C
 92
       16
 93
        4
 72
     2
 10
-70.02841622909622
 20
23.67982635853008
 40
0.5179085730132976
 50
38.12041979714672
 51
141.8795802028591
 73
     1
 72
     2
 10
-69.82867619275012
 20
23.52309518040957
 40
0.771799778679461
 50
141.8795802028365
 51
218.1204197971687
 73
     1
 72
     2
 10
-70.02841622909622
 20
23.36636400228957
 40
0.5179085730137332
 50
218.1204197971929
 51
321.8795802028013
 73
     1
 72
     2
 10
-70.22815626544264
 20
23.52309518040957
 40
0.7717997786796947
 50
321.8795802028417
 51
398.120419797153
 73
     1
 97
        4
330
401
330
402
330
403
330
400
 75
     1
 76
     0
 52
45.0
 41
0.1
 77
     0
 78
     1
 53
45.0
 43
0.0
 44
0.0
 45
-0.0707106781186548
 46
0.0707106781186548
 79
     0
 98
        1
 10
0.0
 20
0.0
  0
HATCH
  5
46A
330
71
100
AcDbEntity
  8
1
  6
Continuous
 62
     2
100
AcDbHatch
 10
0.0
 20
0.0
 30
0.0
210
0.0
220
0.0
230
1.0
  2
_USER
 70
     0
 71
     1
 91
        2
 92
        1
 93
        6
 72
     1
 10
-74.58423097548973
 20
28.40919041848977
 11
-74.58423097548973
 21
25.35538089467858
 72
     1
 10
-74.58423097548973
 20
25.35538089467858
 11
-73.34372656523561
 21
25.35538089467858
 72
     1
 10
-73.34372656523561
 20
25.35538089467858
 11
-73.34372656523561
 21
26.29845913582238
 72
     1
 10
-73.34372656523561
 20
26.29845913582238
 11
-72.58495897745533
 21
26.29845913582238
 72
     2
 10
-72.58495897745533
 20
27.35382477715609
 40
1.055365641333708
 50
270.0
 51
450.0
 73
     1
 72
     1
 10
-72.58495897745533
 20
28.40919041848977
 11
-74.58423097548973
 21
28.40919041848977
 97
        6
330
428
330
385
330
37B
330
37A
330
387
330
386
 92
       16
 93
        4
 72
     1
 10
-73.02643150369371
 20
27.74608457304967
 11
-73.34372656523561
 21
27.74608457304967
 72
     1
 10
-73.34372656523561
 20
27.74608457304967
 11
-73.34372656523561
 21
27.04035692370746
 72
     1
 10
-73.34372656523561
 20
27.04035692370746
 11
-73.02643150369371
 21
27.04035692370746
 72
     2
 10
-73.02643150369371
 20
27.39322074837858
 40
0.3528638246711218
 50
270.0
 51
450.0
 73
     1
 97
        4
330
388
330
379
330
389
330
414
 75
     1
 76
     0
 52
45.0
 41
0.1
 77
     0
 78
     1
 53
45.0
 43
0.0
 44
0.0
 45
-0.0707106781186548
 46
0.0707106781186548
 79
     0
 98
        1
 10
0.0
 20
0.0
  0
HATCH
  5
46B
330
71
100
AcDbEntity
  8
1
  6
Continuous
 62
     2
100
AcDbHatch
 10
0.0
 20
0.0
 30
0.0
210
0.0
220
0.0
230
1.0
  2
_USER
 70
     0
 71
     1
 91
        2
 92
        1
 93
        6
 72
     1
 10
-74.58423097548973
 20
28.40919041848977
 11
-74.58423097548973
 21
25.35538089467858
 72
     1
 10
-74.58423097548973
 20
25.35538089467858
 11
-73.34372656523561
 21
25.35538089467858
 72
     1
 10
-73.34372656523561
 20
25.35538089467858
 11
-73.34372656523561
 21
26.29845913582238
 72
     1
 10
-73.34372656523561
 20
26.29845913582238
 11
-72.58495897745533
 21
26.29845913582238
 72
     2
 10
-72.58495897745533
 20
27.35382477715609
 40
1.055365641333708
 50
270.0
 51
450.0
 73
     1
 72
     1
 10
-72.58495897745533
 20
28.40919041848977
 11
-74.58423097548973
 21
28.40919041848977
 97
        6
330
428
330
385
330
37B
330
37A
330
387
330
386
 92
       16
 93
        4
 72
     1
 10
-73.02643150369371
 20
27.74608457304967
 11
-73.34372656523561
 21
27.74608457304967
 72
     1
 10
-73.34372656523561
 20
27.74608457304967
 11
-73.34372656523561
 21
27.04035692370746
 72
     1
 10
-73.34372656523561
 20
27.04035692370746
 11
-73.02643150369371
 21
27.04035692370746
 72
     2
 10
-73.02643150369371
 20
27.39322074837858
 40
0.3528638246711218
 50
270.0
 51
450.0
 73
     1
 97
        4
330
388
330
379
330
389
330
414
 75
     1
 76
     0
 52
45.0
 41
0.1
 77
     0
 78
     1
 53
45.0
 43
0.0
 44
0.0
 45
-0.0707106781186548
 46
0.0707106781186548
 79
     0
 98
        1
 10
0.0
 20
0.0
  0
HATCH
  5
46C
330
71
100
AcDbEntity
  8
1
  6
Continuous
 62
     2
100
AcDbHatch
 10
0.0
 20
0.0
 30
0.0
210
0.0
220
0.0
230
1.0
  2
_USER
 70
     0
 71
     1
 91
        1
 92
        1
 93
       12
 72
     1
 10
-54.96994778105653
 20
28.40919041848977
 11
-53.56722356330931
 21
28.40919041848977
 72
     1
 10
-53.56722356330931
 20
28.40919041848977
 11
-54.86975319407583
 21
26.93623988845357
 72
     1
 10
-54.86975319407583
 20
26.93623988845357
 11
-53.47180014713553
 21
25.35538089467858
 72
     1
 10
-53.47180014713553
 20
25.35538089467858
 11
-54.87452436488383
 21
25.35538089467858
 72
     1
 10
-54.87452436488383
 20
25.35538089467858
 11
-55.57111530294932
 21
26.14311267997229
 72
     1
 10
-55.57111530294932
 20
26.14311267997229
 11
-56.26770624101502
 21
25.35538089467858
 72
     1
 10
-56.26770624101502
 20
25.35538089467858
 11
-57.67043045876324
 21
25.35538089467858
 72
     1
 10
-57.67043045876324
 20
25.35538089467858
 11
-56.27247741182293
 21
26.93623988845357
 72
     1
 10
-56.27247741182293
 20
26.93623988845357
 11
-57.57500704259041
 21
28.40919041848977
 72
     1
 10
-57.57500704259041
 20
28.40919041848977
 11
-56.17228282484112
 21
28.40919041848977
 72
     1
 10
-56.17228282484112
 20
28.40919041848977
 11
-55.57111530294932
 21
27.72936709693428
 72
     1
 10
-55.57111530294932
 20
27.72936709693428
 11
-54.96994778105653
 21
28.40919041848977
 97
       12
330
354
330
3AD
330
3AC
330
3AB
330
3AA
330
355
330
356
330
352
330
353
330
3B0
330
3AF
330
3AE
 75
     1
 76
     0
 52
45.0
 41
0.1
 77
     0
 78
     1
 53
45.0
 43
0.0
 44
0.0
 45
-0.0707106781186548
 46
0.0707106781186548
 79
     0
 98
        1
 10
0.0
 20
0.0
  0
HATCH
  5
46D
330
71
100
AcDbEntity
  8
1
  6
Continuous
 62
     2
100
AcDbHatch
 10
0.0
 20
0.0
 30
0.0
210
0.0
220
0.0
230
1.0
  2
_USER
 70
     0
 71
     1
 91
        1
 92
        1
 93
       12
 72
     1
 10
-54.96994778105653
 20
28.40919041848977
 11
-53.56722356330931
 21
28.40919041848977
 72
     1
 10
-53.56722356330931
 20
28.40919041848977
 11
-54.86975319407583
 21
26.93623988845357
 72
     1
 10
-54.86975319407583
 20
26.93623988845357
 11
-53.47180014713553
 21
25.35538089467858
 72
     1
 10
-53.47180014713553
 20
25.35538089467858
 11
-54.87452436488383
 21
25.35538089467858
 72
     1
 10
-54.87452436488383
 20
25.35538089467858
 11
-55.57111530294932
 21
26.14311267997229
 72
     1
 10
-55.57111530294932
 20
26.14311267997229
 11
-56.26770624101502
 21
25.35538089467858
 72
     1
 10
-56.26770624101502
 20
25.35538089467858
 11
-57.67043045876324
 21
25.35538089467858
 72
     1
 10
-57.67043045876324
 20
25.35538089467858
 11
-56.27247741182293
 21
26.93623988845357
 72
     1
 10
-56.27247741182293
 20
26.93623988845357
 11
-57.57500704259041
 21
28.40919041848977
 72
     1
 10
-57.57500704259041
 20
28.40919041848977
 11
-56.17228282484112
 21
28.40919041848977
 72
     1
 10
-56.17228282484112
 20
28.40919041848977
 11
-55.57111530294932
 21
27.72936709693428
 72
     1
 10
-55.57111530294932
 20
27.72936709693428
 11
-54.96994778105653
 21
28.40919041848977
 97
       12
330
354
330
3AD
330
3AC
330
3AB
330
3AA
330
355
330
356
330
352
330
353
330
3B0
330
3AF
330
3AE
 75
     1
 76
     0
 52
45.0
 41
0.1
 77
     0
 78
     1
 53
45.0
 43
0.0
 44
0.0
 45
-0.0707106781186548
 46
0.0707106781186548
 79
     0
 98
        1
 10
0.0
 20
0.0
  0
HATCH
  5
46E
330
71
100
AcDbEntity
  8
1
  6
Continuous
 62
     2
100
AcDbHatch
 10
0.0
 20
0.0
 30
0.0
210
0.0
220
0.0
230
1.0
  2
_USER
 70
     0
 71
     1
 91
        1
 92
        1
 93
        4
 72
     1
 10
-57.78970972898011
 20
28.40919041848977
 11
-57.78970972898011
 21
25.35538089467858
 72
     1
 10
-57.78970972898011
 20
25.35538089467858
 11
-59.03021413923301
 21
25.35538089467858
 72
     1
 10
-59.03021413923301
 20
25.35538089467858
 11
-59.03021413923301
 21
28.40919041848977
 72
     1
 10
-59.03021413923301
 20
28.40919041848977
 11
-57.78970972898011
 21
28.40919041848977
 97
        4
330
3A8
330
357
330
3A7
330
3A9
 75
     1
 76
     0
 52
45.0
 41
0.1
 77
     0
 78
     1
 53
45.0
 43
0.0
 44
0.0
 45
-0.0707106781186548
 46
0.0707106781186548
 79
     0
 98
        1
 10
0.0
 20
0.0
  0
HATCH
  5
46F
330
71
100
AcDbEntity
  8
1
  6
Continuous
 62
     2
100
AcDbHatch
 10
0.0
 20
0.0
 30
0.0
210
0.0
220
0.0
230
1.0
  2
_USER
 70
     0
 71
     1
 91
        1
 92
        1
 93
        4
 72
     1
 10
-57.78970972898011
 20
28.40919041848977
 11
-57.78970972898011
 21
25.35538089467858
 72
     1
 10
-57.78970972898011
 20
25.35538089467858
 11
-59.03021413923301
 21
25.35538089467858
 72
     1
 10
-59.03021413923301
 20
25.35538089467858
 11
-59.03021413923301
 21
28.40919041848977
 72
     1
 10
-59.03021413923301
 20
28.40919041848977
 11
-57.78970972898011
 21
28.40919041848977
 97
        4
330
3A8
330
357
330
3A7
330
3A9
 75
     1
 76
     0
 52
45.0
 41
0.1
 77
     0
 78
     1
 53
45.0
 43
0.0
 44
0.0
 45
-0.0707106781186548
 46
0.0707106781186548
 79
     0
 98
        1
 10
0.0
 20
0.0
  0
HATCH
  5
470
330
71
100
AcDbEntity
  8
1
  6
Continuous
 62
     2
100
AcDbHatch
 10
0.0
 20
0.0
 30
0.0
210
0.0
220
0.0
230
1.0
  2
_USER
 70
     0
 71
     1
 91
        2
 92
        1
 93
        8
 72
     1
 10
-58.18015373251211
 20
21.99619041850428
 11
-59.42065814276603
 21
21.99619041850428
 72
     1
 10
-59.42065814276603
 20
21.99619041850428
 11
-59.63213819624181
 21
22.53715096272217
 72
     1
 10
-59.63213819624181
 20
22.53715096272217
 11
-60.76457977291562
 21
22.53715096272217
 72
     1
 10
-60.76457977291562
 20
22.53715096272217
 11
-60.97605982639144
 21
21.99619041850428
 72
     1
 10
-60.97605982639144
 20
21.99619041850428
 11
-62.21656423664442
 21
21.99619041850428
 72
     1
 10
-62.21656423664442
 20
21.99619041850428
 11
-60.81861118970511
 21
25.04999994231537
 72
     1
 10
-60.81861118970511
 20
25.04999994231537
 11
-59.57810677945241
 21
25.04999994231537
 72
     1
 10
-59.57810677945241
 20
25.04999994231537
 11
-58.18015373251211
 21
21.99619041850428
 97
        8
330
3A3
330
35D
330
3A2
330
3A5
330
35A
330
3A4
330
35B
330
35C
 92
       16
 93
        3
 72
     1
 10
-60.49852422177062
 20
23.21771422802877
 11
-59.89819374738812
 21
23.21771422802877
 72
     1
 10
-59.89819374738812
 20
23.21771422802877
 11
-60.19835898457822
 21
23.98552919401547
 72
     1
 10
-60.19835898457822
 20
23.98552919401547
 11
-60.49852422177062
 21
23.21771422802877
 97
        3
330
359
330
358
330
3A6
 75
     1
 76
     0
 52
45.0
 41
0.1
 77
     0
 78
     1
 53
45.0
 43
0.0
 44
0.0
 45
-0.0707106781186548
 46
0.0707106781186548
 79
     0
 98
        1
 10
0.0
 20
0.0
  0
HATCH
  5
471
330
71
100
AcDbEntity
  8
1
  6
Continuous
 62
     2
100
AcDbHatch
 10
0.0
 20
0.0
 30
0.0
210
0.0
220
0.0
230
1.0
  2
_USER
 70
     0
 71
     1
 91
        2
 92
        1
 93
        8
 72
     1
 10
-58.18015373251211
 20
21.99619041850428
 11
-59.42065814276603
 21
21.99619041850428
 72
     1
 10
-59.42065814276603
 20
21.99619041850428
 11
-59.63213819624181
 21
22.53715096272217
 72
     1
 10
-59.63213819624181
 20
22.53715096272217
 11
-60.76457977291562
 21
22.53715096272217
 72
     1
 10
-60.76457977291562
 20
22.53715096272217
 11
-60.97605982639144
 21
21.99619041850428
 72
     1
 10
-60.97605982639144
 20
21.99619041850428
 11
-62.21656423664442
 21
21.99619041850428
 72
     1
 10
-62.21656423664442
 20
21.99619041850428
 11
-60.81861118970511
 21
25.04999994231537
 72
     1
 10
-60.81861118970511
 20
25.04999994231537
 11
-59.57810677945241
 21
25.04999994231537
 72
     1
 10
-59.57810677945241
 20
25.04999994231537
 11
-58.18015373251211
 21
21.99619041850428
 97
        8
330
3A3
330
35D
330
3A2
330
3A5
330
35A
330
3A4
330
35B
330
35C
 92
       16
 93
        3
 72
     1
 10
-60.49852422177062
 20
23.21771422802877
 11
-59.89819374738812
 21
23.21771422802877
 72
     1
 10
-59.89819374738812
 20
23.21771422802877
 11
-60.19835898457822
 21
23.98552919401547
 72
     1
 10
-60.19835898457822
 20
23.98552919401547
 11
-60.49852422177062
 21
23.21771422802877
 97
        3
330
359
330
358
330
3A6
 75
     1
 76
     0
 52
45.0
 41
0.1
 77
     0
 78
     1
 53
45.0
 43
0.0
 44
0.0
 45
-0.0707106781186548
 46
0.0707106781186548
 79
     0
 98
        1
 10
0.0
 20
0.0
  0
HATCH
  5
472
330
71
100
AcDbEntity
  8
1
  6
Continuous
 62
     2
100
AcDbHatch
 10
0.0
 20
0.0
 30
0.0
210
0.0
220
0.0
230
1.0
  2
_USER
 70
     0
 71
     1
 91
        1
 92
        1
 93
        8
 72
     1
 10
-64.37407637582663
 20
25.04999994231537
 11
-64.37407637582663
 21
24.26473463619178
 72
     1
 10
-64.37407637582663
 20
24.26473463619178
 11
-63.56297733835203
 21
24.26473463619178
 72
     1
 10
-63.56297733835203
 20
24.26473463619178
 11
-63.56297733835203
 21
21.99619041850428
 72
     1
 10
-63.56297733835203
 20
21.99619041850428
 11
-62.37018463618551
 21
21.99619041850428
 72
     1
 10
-62.37018463618551
 20
21.99619041850428
 11
-62.37018463618551
 21
24.26473463619178
 72
     1
 10
-62.37018463618551
 20
24.26473463619178
 11
-61.55908559871301
 21
24.26473463619178
 72
     1
 10
-61.55908559871301
 20
24.26473463619178
 11
-61.55908559871301
 21
25.04999994231537
 72
     1
 10
-61.55908559871301
 20
25.04999994231537
 11
-64.37407637582663
 21
25.04999994231537
 97
        8
330
39F
330
39E
330
39D
330
35E
330
35F
330
3A1
330
360
330
3A0
 75
     1
 76
     0
 52
45.0
 41
0.1
 77
     0
 78
     1
 53
45.0
 43
0.0
 44
0.0
 45
-0.0707106781186548
 46
0.0707106781186548
 79
     0
 98
        1
 10
0.0
 20
0.0
  0
HATCH
  5
473
330
71
100
AcDbEntity
  8
1
  6
Continuous
 62
     2
100
AcDbHatch
 10
0.0
 20
0.0
 30
0.0
210
0.0
220
0.0
230
1.0
  2
_USER
 70
     0
 71
     1
 91
        1
 92
        1
 93
        8
 72
     1
 10
-64.37407637582663
 20
25.04999994231537
 11
-64.37407637582663
 21
24.26473463619178
 72
     1
 10
-64.37407637582663
 20
24.26473463619178
 11
-63.56297733835203
 21
24.26473463619178
 72
     1
 10
-63.56297733835203
 20
24.26473463619178
 11
-63.56297733835203
 21
21.99619041850428
 72
     1
 10
-63.56297733835203
 20
21.99619041850428
 11
-62.37018463618551
 21
21.99619041850428
 72
     1
 10
-62.37018463618551
 20
21.99619041850428
 11
-62.37018463618551
 21
24.26473463619178
 72
     1
 10
-62.37018463618551
 20
24.26473463619178
 11
-61.55908559871301
 21
24.26473463619178
 72
     1
 10
-61.55908559871301
 20
24.26473463619178
 11
-61.55908559871301
 21
25.04999994231537
 72
     1
 10
-61.55908559871301
 20
25.04999994231537
 11
-64.37407637582663
 21
25.04999994231537
 97
        8
330
39F
330
39E
330
39D
330
35E
330
35F
330
3A1
330
360
330
3A0
 75
     1
 76
     0
 52
45.0
 41
0.1
 77
     0
 78
     1
 53
45.0
 43
0.0
 44
0.0
 45
-0.0707106781186548
 46
0.0707106781186548
 79
     0
 98
        1
 10
0.0
 20
0.0
  0
HATCH
  5
474
330
71
100
AcDbEntity
  8
1
  6
Continuous
 62
     2
100
AcDbHatch
 10
0.0
 20
0.0
 30
0.0
210
0.0
220
0.0
230
1.0
  2
_USER
 70
     0
 71
     1
 91
        1
 92
        1
 93
       10
 72
     1
 10
-61.70206979208751
 20
28.40919041848977
 11
-62.89486249425403
 21
28.40919041848977
 72
     1
 10
-62.89486249425403
 20
28.40919041848977
 11
-62.89486249425403
 21
25.35538089467858
 72
     1
 10
-62.89486249425403
 20
25.35538089467858
 11
-61.70206979208751
 21
25.35538089467858
 72
     1
 10
-61.70206979208751
 20
25.35538089467858
 11
-61.70206979208751
 21
26.66415640488327
 72
     1
 10
-61.70206979208751
 20
26.66415640488327
 11
-60.46156538183351
 21
25.35538089467858
 72
     1
 10
-60.46156538183351
 20
25.35538089467858
 11
-59.26877267966691
 21
25.35538089467858
 72
     1
 10
-59.26877267966691
 20
25.35538089467858
 11
-59.26877267966691
 21
28.40919041848977
 72
     1
 10
-59.26877267966691
 20
28.40919041848977
 11
-60.46156538183351
 21
28.40919041848977
 72
     1
 10
-60.46156538183351
 20
28.40919041848977
 11
-60.46156538183351
 21
27.10041490828459
 72
     1
 10
-60.46156538183351
 20
27.10041490828459
 11
-61.70206979208751
 21
28.40919041848977
 97
       10
330
399
330
363
330
364
330
365
330
366
330
39C
330
361
330
39B
330
39A
330
362
 75
     1
 76
     0
 52
45.0
 41
0.1
 77
     0
 78
     1
 53
45.0
 43
0.0
 44
0.0
 45
-0.0707106781186548
 46
0.0707106781186548
 79
     0
 98
        1
 10
0.0
 20
0.0
  0
HATCH
  5
475
330
71
100
AcDbEntity
  8
1
  6
Continuous
 62
     2
100
AcDbHatch
 10
0.0
 20
0.0
 30
0.0
210
0.0
220
0.0
230
1.0
  2
_USER
 70
     0
 71
     1
 91
        1
 92
        1
 93
       10
 72
     1
 10
-61.70206979208751
 20
28.40919041848977
 11
-62.89486249425403
 21
28.40919041848977
 72
     1
 10
-62.89486249425403
 20
28.40919041848977
 11
-62.89486249425403
 21
25.35538089467858
 72
     1
 10
-62.89486249425403
 20
25.35538089467858
 11
-61.70206979208751
 21
25.35538089467858
 72
     1
 10
-61.70206979208751
 20
25.35538089467858
 11
-61.70206979208751
 21
26.66415640488327
 72
     1
 10
-61.70206979208751
 20
26.66415640488327
 11
-60.46156538183351
 21
25.35538089467858
 72
     1
 10
-60.46156538183351
 20
25.35538089467858
 11
-59.26877267966691
 21
25.35538089467858
 72
     1
 10
-59.26877267966691
 20
25.35538089467858
 11
-59.26877267966691
 21
28.40919041848977
 72
     1
 10
-59.26877267966691
 20
28.40919041848977
 11
-60.46156538183351
 21
28.40919041848977
 72
     1
 10
-60.46156538183351
 20
28.40919041848977
 11
-60.46156538183351
 21
27.10041490828459
 72
     1
 10
-60.46156538183351
 20
27.10041490828459
 11
-61.70206979208751
 21
28.40919041848977
 97
       10
330
399
330
363
330
364
330
365
330
366
330
39C
330
361
330
39B
330
39A
330
362
 75
     1
 76
     0
 52
45.0
 41
0.1
 77
     0
 78
     1
 53
45.0
 43
0.0
 44
0.0
 45
-0.0707106781186548
 46
0.0707106781186548
 79
     0
 98
        1
 10
0.0
 20
0.0
  0
HATCH
  5
476
330
71
100
AcDbEntity
  8
1
  6
Continuous
 62
     2
100
AcDbHatch
 10
0.0
 20
0.0
 30
0.0
210
0.0
220
0.0
230
1.0
  2
_USER
 70
     0
 71
     1
 91
        1
 92
        1
 93
       10
 72
     1
 10
-66.95050861250613
 20
25.04999994231537
 11
-68.14330131467372
 21
25.04999994231537
 72
     1
 10
-68.14330131467372
 20
25.04999994231537
 11
-68.14330131467372
 21
21.99619041850428
 72
     1
 10
-68.14330131467372
 20
21.99619041850428
 11
-66.95050861250613
 21
21.99619041850428
 72
     1
 10
-66.95050861250613
 20
21.99619041850428
 11
-66.95050861250613
 21
23.30496592870887
 72
     1
 10
-66.95050861250613
 20
23.30496592870887
 11
-65.71000420225323
 21
21.99619041850428
 72
     1
 10
-65.71000420225323
 20
21.99619041850428
 11
-64.51721150008683
 21
21.99619041850428
 72
     1
 10
-64.51721150008683
 20
21.99619041850428
 11
-64.51721150008683
 21
25.04999994231537
 72
     1
 10
-64.51721150008683
 20
25.04999994231537
 11
-65.71000420225323
 21
25.04999994231537
 72
     1
 10
-65.71000420225323
 20
25.04999994231537
 11
-65.71000420225323
 21
23.74122443211027
 72
     1
 10
-65.71000420225323
 20
23.74122443211027
 11
-66.95050861250613
 21
25.04999994231537
 97
       10
330
368
330
369
330
36A
330
396
330
36B
330
36C
330
395
330
398
330
397
330
367
 75
     1
 76
     0
 52
45.0
 41
0.1
 77
     0
 78
     1
 53
45.0
 43
0.0
 44
0.0
 45
-0.0707106781186548
 46
0.0707106781186548
 79
     0
 98
        1
 10
0.0
 20
0.0
  0
HATCH
  5
477
330
71
100
AcDbEntity
  8
1
  6
Continuous
 62
     2
100
AcDbHatch
 10
0.0
 20
0.0
 30
0.0
210
0.0
220
0.0
230
1.0
  2
_USER
 70
     0
 71
     1
 91
        1
 92
        1
 93
       10
 72
     1
 10
-66.95050861250613
 20
25.04999994231537
 11
-68.14330131467372
 21
25.04999994231537
 72
     1
 10
-68.14330131467372
 20
25.04999994231537
 11
-68.14330131467372
 21
21.99619041850428
 72
     1
 10
-68.14330131467372
 20
21.99619041850428
 11
-66.95050861250613
 21
21.99619041850428
 72
     1
 10
-66.95050861250613
 20
21.99619041850428
 11
-66.95050861250613
 21
23.30496592870887
 72
     1
 10
-66.95050861250613
 20
23.30496592870887
 11
-65.71000420225323
 21
21.99619041850428
 72
     1
 10
-65.71000420225323
 20
21.99619041850428
 11
-64.51721150008683
 21
21.99619041850428
 72
     1
 10
-64.51721150008683
 20
21.99619041850428
 11
-64.51721150008683
 21
25.04999994231537
 72
     1
 10
-64.51721150008683
 20
25.04999994231537
 11
-65.71000420225323
 21
25.04999994231537
 72
     1
 10
-65.71000420225323
 20
25.04999994231537
 11
-65.71000420225323
 21
23.74122443211027
 72
     1
 10
-65.71000420225323
 20
23.74122443211027
 11
-66.95050861250613
 21
25.04999994231537
 97
       10
330
368
330
369
330
36A
330
396
330
36B
330
36C
330
395
330
398
330
397
330
367
 75
     1
 76
     0
 52
45.0
 41
0.1
 77
     0
 78
     1
 53
45.0
 43
0.0
 44
0.0
 45
-0.0707106781186548
 46
0.0707106781186548
 79
     0
 98
        1
 10
0.0
 20
0.0
  0
HATCH
  5
478
330
71
100
AcDbEntity
  8
1
  6
Continuous
 62
     2
100
AcDbHatch
 10
0.0
 20
0.0
 30
0.0
210
0.0
220
0.0
230
1.0
  2
_USER
 70
     0
 71
     1
 91
        1
 92
        1
 93
       12
 72
     1
 10
-67.95230355144153
 20
28.40919041848977
 11
-67.95230355144153
 21
25.35538089467858
 72
     1
 10
-67.95230355144153
 20
25.35538089467858
 11
-69.14509625360793
 21
25.35538089467858
 72
     1
 10
-69.14509625360793
 20
25.35538089467858
 11
-69.14509625360793
 21
26.48965300352239
 72
     1
 10
-69.14509625360793
 20
26.48965300352239
 11
-70.19475383151541
 21
26.48965300352239
 72
     1
 10
-70.19475383151541
 20
26.48965300352239
 11
-70.19475383151541
 21
25.35538089467858
 72
     1
 10
-70.19475383151541
 20
25.35538089467858
 11
-71.38754653368201
 21
25.35538089467858
 72
     1
 10
-71.38754653368201
 20
25.35538089467858
 11
-71.38754653368201
 21
28.40919041848977
 72
     1
 10
-71.38754653368201
 20
28.40919041848977
 11
-70.19475383151541
 21
28.40919041848977
 72
     1
 10
-70.19475383151541
 20
28.40919041848977
 11
-70.19475383151541
 21
27.34035708515518
 72
     1
 10
-70.19475383151541
 20
27.34035708515518
 11
-69.14509625360793
 21
27.34035708515518
 72
     1
 10
-69.14509625360793
 20
27.34035708515518
 11
-69.14509625360793
 21
28.40919041848977
 72
     1
 10
-69.14509625360793
 20
28.40919041848977
 11
-67.95230355144153
 21
28.40919041848977
 97
       12
330
390
330
38F
330
38E
330
376
330
377
330
38D
330
378
330
38C
330
38B
330
38A
330
374
330
375
 75
     1
 76
     0
 52
45.0
 41
0.1
 77
     0
 78
     1
 53
45.0
 43
0.0
 44
0.0
 45
-0.0707106781186548
 46
0.0707106781186548
 79
     0
 98
        1
 10
0.0
 20
0.0
  0
HATCH
  5
479
330
71
100
AcDbEntity
  8
1
  6
Continuous
 62
     2
100
AcDbHatch
 10
0.0
 20
0.0
 30
0.0
210
0.0
220
0.0
230
1.0
  2
_USER
 70
     0
 71
     1
 91
        1
 92
        1
 93
       12
 72
     1
 10
-67.95230355144153
 20
28.40919041848977
 11
-67.95230355144153
 21
25.35538089467858
 72
     1
 10
-67.95230355144153
 20
25.35538089467858
 11
-69.14509625360793
 21
25.35538089467858
 72
     1
 10
-69.14509625360793
 20
25.35538089467858
 11
-69.14509625360793
 21
26.48965300352239
 72
     1
 10
-69.14509625360793
 20
26.48965300352239
 11
-70.19475383151541
 21
26.48965300352239
 72
     1
 10
-70.19475383151541
 20
26.48965300352239
 11
-70.19475383151541
 21
25.35538089467858
 72
     1
 10
-70.19475383151541
 20
25.35538089467858
 11
-71.38754653368201
 21
25.35538089467858
 72
     1
 10
-71.38754653368201
 20
25.35538089467858
 11
-71.38754653368201
 21
28.40919041848977
 72
     1
 10
-71.38754653368201
 20
28.40919041848977
 11
-70.19475383151541
 21
28.40919041848977
 72
     1
 10
-70.19475383151541
 20
28.40919041848977
 11
-70.19475383151541
 21
27.34035708515518
 72
     1
 10
-70.19475383151541
 20
27.34035708515518
 11
-69.14509625360793
 21
27.34035708515518
 72
     1
 10
-69.14509625360793
 20
27.34035708515518
 11
-69.14509625360793
 21
28.40919041848977
 72
     1
 10
-69.14509625360793
 20
28.40919041848977
 11
-67.95230355144153
 21
28.40919041848977
 97
       12
330
390
330
38F
330
38E
330
376
330
377
330
38D
330
378
330
38C
330
38B
330
38A
330
374
330
375
 75
     1
 76
     0
 52
45.0
 41
0.1
 77
     0
 78
     1
 53
45.0
 43
0.0
 44
0.0
 45
-0.0707106781186548
 46
0.0707106781186548
 79
     0
 98
        1
 10
0.0
 20
0.0
  0
ENDBLK
  5
73
330
71
100
AcDbEntity
  8
0
100
AcDbBlockEnd
  0
BLOCK
  5
75
330
74
100
AcDbEntity
  8
0
100
AcDbBlockBegin
  2
_punkt
 70
     0
 10
43.92500026234738
 20
14.70269041848798
 30
0.0
  3
_punkt
  1

  0
LINE
  5
47A
330
74
100
AcDbEntity
  8
1
  6
Continuous
 62
     2
100
AcDbLine
 10
43.92500026234738
 20
14.70269041848798
 30
0.0
 11
43.92500026234738
 21
9.70269041848786
 31
0.0
  0
LINE
  5
47B
330
74
100
AcDbEntity
  8
1
  6
Continuous
 62
     2
100
AcDbLine
 10
43.92500026234738
 20
14.70269041848798
 30
0.0
 11
48.92500026234637
 21
14.70269041848798
 31
0.0
  0
ENDBLK
  5
76
330
74
100
AcDbEntity
  8
0
100
AcDbBlockEnd
  0
BLOCK
  5
7A
330
77
100
AcDbEntity
  8
0
100
AcDbBlockBegin
  2
A4I_CS
 70
     0
 10
43.92500026234738
 20
9.70269041848786
 30
0.0
  3
A4I_CS
  1

  0
INSERT
  5
78
330
77
100
AcDbEntity
  8
1
100
AcDbBlockReference
  2
_rahmen
 10
43.92500026234738
 20
9.70269041848786
 30
0.0
  0
INSERT
  5
79
330
77
100
AcDbEntity
  8
1
100
AcDbBlockReference
  2
_punkt
 10
43.92500026234738
 20
14.70269041848798
 30
0.0
  0
ENDBLK
  5
7B
330
77
100
AcDbEntity
  8
0
100
AcDbBlockEnd
  0
BLOCK
  5
84
330
7C
100
AcDbEntity
  8
0
100
AcDbBlockBegin
  2
1
 70
     0
 10
0.0
 20
0.0
 30
0.0
  3
1
  1

  0
INSERT
  5
7D
330
7C
100
AcDbEntity
  8
0
100
AcDbBlockReference
  2
AllgSicht1
 10
-28.9249999998102
 20
85.00000000016007
 30
0.0
  0
INSERT
  5
7E
330
7C
100
AcDbEntity
  8
0
100
AcDbBlockReference
  2
Drfsicht1
 10
-126.0749998092652
 20
76.4750003818399
 30
0.0
  0
INSERT
  5
7F
330
7C
100
AcDbEntity
  8
0
100
AcDbBlockReference
  2
Rckans1
 10
-28.92500019073486
 20
161.0
 30
0.0
  0
INSERT
  5
80
330
7C
100
AcDbEntity
  8
0
100
AcDbBlockReference
  2
SA_Links1
 10
-75.00000000037005
 20
161.0
 30
0.0
  0
INSERT
  5
81
330
7C
100
AcDbEntity
  8
0
100
AcDbBlockReference
  2
SA_Rechts1
 10
-193.1499996181601
 20
161.0
 30
0.0
  0
INSERT
  5
82
330
7C
100
AcDbEntity
  8
0
100
AcDbBlockReference
  2
Vordans1
 10
-126.0749998092652
 20
161.0
 30
0.0
  0
INSERT
  5
83
330
7C
100
AcDbEntity
  8
0
100
AcDbBlockReference
  2
A4I_CS
 10
43.92500026234738
 20
9.70269041848786
 30
0.0
  0
ENDBLK
  5
85
330
7C
100
AcDbEntity
  8
0
100
AcDbBlockEnd
  0
BLOCK
  5
1E4
330
1DB
100
AcDbEntity
  8
0
100
AcDbBlockBegin
  2
*D17
 70
     1
 10
0.0
 20
0.0
 30
0.0
  3
*D17
  1

  0
LINE
  5
1DC
330
1DB
100
AcDbEntity
  8
1
  6
Continuous
 62
     2
100
AcDbLine
 10
-150.392306191577
 20
80.55000038220984
 30
0.0
 11
-150.392306191577
 21
94.1513273612967
 31
0.0
  0
LINE
  5
1DD
330
1DB
100
AcDbEntity
  8
1
  6
Continuous
 62
     2
100
AcDbLine
 10
-150.392306191577
 20
72.40000038220984
 30
0.0
 11
-150.392306191577
 21
80.55000038220984
 31
0.0
  0
LINE
  5
1DE
330
1DB
100
AcDbEntity
  8
1
  6
Continuous
 62
     2
100
AcDbLine
 10
-150.392306191577
 20
65.40000038220984
 30
0.0
 11
-150.392306191577
 21
72.40000038220984
 31
0.0
  0
LINE
  5
1DF
330
1DB
100
AcDbEntity
  8
1
  6
Continuous
 62
     2
100
AcDbLine
 10
-145.5750001424849
 20
80.55000038220984
 30
0.0
 11
-151.892306191577
 21
80.55000038220984
 31
0.0
  0
LINE
  5
1E0
330
1DB
100
AcDbEntity
  8
1
  6
Continuous
 62
     2
100
AcDbLine
 10
-145.5750001424849
 20
72.40000038220984
 30
0.0
 11
-151.892306191577
 21
72.40000038220984
 31
0.0
  0
SOLID
  5
1E1
330
1DB
100
AcDbEntity
  8
1
 62
     2
100
AcDbTrace
 10
-149.9315224500211
 20
68.90000038220984
 30
0.0
 11
-150.8530899331328
 21
68.90000038220984
 31
0.0
 12
-150.392306191577
 22
72.40000038220984
 32
0.0
 13
-150.392306191577
 23
72.40000038220984
 33
0.0
  0
SOLID
  5
1E2
330
1DB
100
AcDbEntity
  8
1
 62
     2
100
AcDbTrace
 10
-150.8530899331328
 20
84.05000038220984
 30
0.0
 11
-149.9315224500211
 21
84.05000038220984
 31
0.0
 12
-150.392306191577
 22
80.55000038220984
 32
0.0
 13
-150.392306191577
 23
80.55000038220984
 33
0.0
  0
MTEXT
  5
1E3
330
1DB
100
AcDbEntity
  8
1
 62
     3
100
AcDbMText
 10
-152.742306191577
 20
85.5763273612967
 30
0.0
 40
3.5
 41
0.0
 71
     7
 72
     1
  1
8,15
  7
CONVERTER_11
 11
0.0
 21
1.0
 31
0.0
 73
     1
 44
0.60024009603842
  0
ENDBLK
  5
1E5
330
1DB
100
AcDbEntity
  8
0
100
AcDbBlockEnd
  0
BLOCK
  5
311
330
30A
100
AcDbEntity
  8
0
100
AcDbBlockBegin
  2
*D18
 70
     1
 10
0.0
 20
0.0
 30
0.0
  3
*D18
  1

  0
LINE
  5
30B
330
30A
100
AcDbEntity
  8
1
  6
Continuous
 62
     2
100
AcDbLine
 10
-145.0750001424849
 20
118.55594655191
 30
0.0
 11
-107.0750001424849
 21
118.55594655191
 31
0.0
  0
LINE
  5
30C
330
30A
100
AcDbEntity
  8
1
  6
Continuous
 62
     2
100
AcDbLine
 10
-107.0750001424849
 20
147.1999998377239
 30
0.0
 11
-107.0750001424849
 21
117.05594655191
 31
0.0
  0
LINE
  5
30D
330
30A
100
AcDbEntity
  8
1
  6
Continuous
 62
     2
100
AcDbLine
 10
-145.0750001424849
 20
147.1999998377239
 30
0.0
 11
-145.0750001424849
 21
117.05594655191
 31
0.0
  0
SOLID
  5
30E
330
30A
100
AcDbEntity
  8
1
 62
     2
100
AcDbTrace
 10
-141.5750001424849
 20
119.0167302934659
 30
0.0
 11
-141.5750001424849
 21
118.0951628103541
 31
0.0
 12
-145.0750001424849
 22
118.55594655191
 32
0.0
 13
-145.0750001424849
 23
118.55594655191
 33
0.0
  0
SOLID
  5
30F
330
30A
100
AcDbEntity
  8
1
 62
     2
100
AcDbTrace
 10
-110.5750001424849
 20
118.0951628103541
 30
0.0
 11
-110.5750001424849
 21
119.0167302934659
 31
0.0
 12
-107.0750001424849
 22
118.55594655191
 32
0.0
 13
-107.0750001424849
 23
118.55594655191
 33
0.0
  0
MTEXT
  5
310
330
30A
100
AcDbEntity
  8
1
 62
     3
100
AcDbMText
 10
-128.283892601697
 20
120.55594655191
 30
0.0
 40
3.5
 41
0.0
 71
     7
 72
     1
  1
38
  7
CONVERTER_11
 11
0.9999999999970619
 21
2.424068405545306E-6
 31
0.0
 73
     1
 44
0.60024009603842
  0
ENDBLK
  5
312
330
30A
100
AcDbEntity
  8
0
100
AcDbBlockEnd
  0
BLOCK
  5
31E
330
315
100
AcDbEntity
  8
0
100
AcDbBlockBegin
  2
*D19
 70
     1
 10
0.0
 20
0.0
 30
0.0
  3
*D19
  1

  0
LINE
  5
316
330
315
100
AcDbEntity
  8
1
  6
Continuous
 62
     2
100
AcDbLine
 10
-118.5750001424849
 20
136.800827813056
 30
0.0
 11
-111.5750001424849
 21
136.800827813056
 31
0.0
  0
LINE
  5
317
330
315
100
AcDbEntity
  8
1
  6
Continuous
 62
     2
100
AcDbLine
 10
-126.0750001424849
 20
136.800827813056
 30
0.0
 11
-118.5750001424849
 21
136.800827813056
 31
0.0
  0
LINE
  5
318
330
315
100
AcDbEntity
  8
1
  6
Continuous
 62
     2
100
AcDbLine
 10
-133.0750001424849
 20
136.800827813056
 30
0.0
 11
-126.0750001424849
 21
136.800827813056
 31
0.0
  0
LINE
  5
319
330
315
100
AcDbEntity
  8
1
  6
Continuous
 62
     2
100
AcDbLine
 10
-118.5750001424849
 20
148.598964432867
 30
0.0
 11
-118.5750001424849
 21
135.300827813056
 31
0.0
  0
LINE
  5
31A
330
315
100
AcDbEntity
  8
1
  6
Continuous
 62
     2
100
AcDbLine
 10
-126.0750001424849
 20
146.800827813056
 30
0.0
 11
-126.0750001424849
 21
135.300827813056
 31
0.0
  0
SOLID
  5
31B
330
315
100
AcDbEntity
  8
1
 62
     2
100
AcDbTrace
 10
-129.5750001424849
 20
136.3400440715001
 30
0.0
 11
-129.5750001424849
 21
137.2616115546118
 31
0.0
 12
-126.0750001424849
 22
136.800827813056
 32
0.0
 13
-126.0750001424849
 23
136.800827813056
 33
0.0
  0
SOLID
  5
31C
330
315
100
AcDbEntity
  8
1
 62
     2
100
AcDbTrace
 10
-115.0750001424849
 20
137.2616115546118
 30
0.0
 11
-115.0750001424849
 21
136.3400440715001
 31
0.0
 12
-118.5750001424849
 22
136.800827813056
 32
0.0
 13
-118.5750001424849
 23
136.800827813056
 33
0.0
  0
MTEXT
  5
31D
330
315
100
AcDbEntity
  8
1
 62
     3
100
AcDbMText
 10
-125.517002179977
 20
138.650827813056
 30
0.0
 40
3.5
 41
0.0
 71
     7
 72
     1
  1
7,5
  7
CONVERTER_11
 11
0.9999999999970619
 21
2.424068405545306E-6
 31
0.0
 73
     1
 44
0.60024009603842
  0
ENDBLK
  5
31F
330
315
100
AcDbEntity
  8
0
100
AcDbBlockEnd
  0
BLOCK
  5
329
330
322
100
AcDbEntity
  8
0
100
AcDbBlockBegin
  2
*D20
 70
     1
 10
0.0
 20
0.0
 30
0.0
  3
*D20
  1

  0
LINE
  5
323
330
322
100
AcDbEntity
  8
1
  6
Continuous
 62
     2
100
AcDbLine
 10
-126.0750001424849
 20
128.800827813056
 30
0.0
 11
-107.0750001424849
 21
128.800827813056
 31
0.0
  0
LINE
  5
324
330
322
100
AcDbEntity
  8
1
  6
Continuous
 62
     2
100
AcDbLine
 10
-107.0750001424849
 20
147.6999998377239
 30
0.0
 11
-107.0750001424849
 21
127.300827813056
 31
0.0
  0
LINE
  5
325
330
322
100
AcDbEntity
  8
1
  6
Continuous
 62
     2
100
AcDbLine
 10
-126.0750001424849
 20
146.800827813056
 30
0.0
 11
-126.0750001424849
 21
127.300827813056
 31
0.0
  0
SOLID
  5
326
330
322
100
AcDbEntity
  8
1
 62
     2
100
AcDbTrace
 10
-122.5750001424849
 20
129.2616115546119
 30
0.0
 11
-122.5750001424849
 21
128.3400440715001
 31
0.0
 12
-126.0750001424849
 22
128.800827813056
 32
0.0
 13
-126.0750001424849
 23
128.800827813056
 33
0.0
  0
SOLID
  5
327
330
322
100
AcDbEntity
  8
1
 62
     2
100
AcDbTrace
 10
-110.5750001424849
 20
128.3400440715001
 30
0.0
 11
-110.5750001424849
 21
129.2616115546119
 31
0.0
 12
-107.0750001424849
 22
128.800827813056
 32
0.0
 13
-107.0750001424849
 23
128.800827813056
 33
0.0
  0
MTEXT
  5
328
330
322
100
AcDbEntity
  8
1
 62
     3
100
AcDbMText
 10
-118.6750001424849
 20
130.300827813056
 30
0.0
 40
3.5
 41
0.0
 71
     7
 72
     1
  1
19
  7
CONVERTER_11
 11
0.9999999999970619
 21
2.424068405545306E-6
 31
0.0
 73
     1
 44
0.60024009603842
  0
ENDBLK
  5
32A
330
322
100
AcDbEntity
  8
0
100
AcDbBlockEnd
  0
BLOCK
  5
334
330
32D
100
AcDbEntity
  8
0
100
AcDbBlockBegin
  2
*D21
 70
     1
 10
0.0
 20
0.0
 30
0.0
  3
*D21
  1

  0
LINE
  5
32E
330
32D
100
AcDbEntity
  8
1
  6
Continuous
 62
     2
100
AcDbLine
 10
-150.392306191577
 20
176.499999837724
 30
0.0
 11
-150.392306191577
 21
149.7999998377239
 31
0.0
  0
LINE
  5
32F
330
32D
100
AcDbEntity
  8
1
  6
Continuous
 62
     2
100
AcDbLine
 10
-130.0750001424849
 20
149.7999998377239
 30
0.0
 11
-151.892306191577
 21
149.7999998377239
 31
0.0
  0
LINE
  5
330
330
32D
100
AcDbEntity
  8
1
  6
Continuous
 62
     2
100
AcDbLine
 10
-135.3250001424849
 20
176.499999837724
 30
0.0
 11
-151.892306191577
 21
176.499999837724
 31
0.0
  0
SOLID
  5
331
330
32D
100
AcDbEntity
  8
1
 62
     2
100
AcDbTrace
 10
-149.9315224500211
 20
172.999999837724
 30
0.0
 11
-150.8530899331328
 21
172.999999837724
 31
0.0
 12
-150.392306191577
 22
176.499999837724
 32
0.0
 13
-150.392306191577
 23
176.499999837724
 33
0.0
  0
SOLID
  5
332
330
32D
100
AcDbEntity
  8
1
 62
     2
100
AcDbTrace
 10
-150.8530899331328
 20
153.2999998377239
 30
0.0
 11
-149.9315224500211
 21
153.2999998377239
 31
0.0
 12
-150.392306191577
 22
149.7999998377239
 32
0.0
 13
-150.392306191577
 23
149.7999998377239
 33
0.0
  0
MTEXT
  5
333
330
32D
100
AcDbEntity
  8
1
 62
     3
100
AcDbMText
 10
-152.242306191577
 20
158.895213822577
 30
0.0
 40
3.5
 41
0.0
 71
     7
 72
     1
  1
26,7
  7
CONVERTER_11
 11
0.0
 21
1.0
 31
0.0
 73
     1
 44
0.60024009603842
  0
ENDBLK
  5
335
330
32D
100
AcDbEntity
  8
0
100
AcDbBlockEnd
  0
BLOCK
  5
33F
330
338
100
AcDbEntity
  8
0
100
AcDbBlockBegin
  2
*D22
 70
     1
 10
0.0
 20
0.0
 30
0.0
  3
*D22
  1

  0
LINE
  5
339
330
338
100
AcDbEntity
  8
1
  6
Continuous
 62
     2
100
AcDbLine
 10
-158.392306191577
 20
176.4999998377239
 30
0.0
 11
-158.392306191577
 21
145.5499998377242
 31
0.0
  0
LINE
  5
33A
330
338
100
AcDbEntity
  8
1
  6
Continuous
 62
     2
100
AcDbLine
 10
-132.8805138218568
 20
145.5499998377242
 30
0.0
 11
-159.892306191577
 21
145.5499998377242
 31
0.0
  0
LINE
  5
33B
330
338
100
AcDbEntity
  8
1
  6
Continuous
 62
     2
100
AcDbLine
 10
-135.3250001424849
 20
176.4999998377239
 30
0.0
 11
-159.892306191577
 21
176.4999998377239
 31
0.0
  0
SOLID
  5
33C
330
338
100
AcDbEntity
  8
1
 62
     2
100
AcDbTrace
 10
-157.9315224500211
 20
172.9999998377239
 30
0.0
 11
-158.8530899331328
 21
172.9999998377239
 31
0.0
 12
-158.392306191577
 22
176.4999998377239
 32
0.0
 13
-158.392306191577
 23
176.4999998377239
 33
0.0
  0
SOLID
  5
33D
330
338
100
AcDbEntity
  8
1
 62
     2
100
AcDbTrace
 10
-158.8530899331328
 20
149.0499998377242
 30
0.0
 11
-157.9315224500211
 21
149.0499998377242
 31
0.0
 12
-158.392306191577
 22
145.5499998377242
 32
0.0
 13
-158.392306191577
 23
145.5499998377242
 33
0.0
  0
MTEXT
  5
33E
330
338
100
AcDbEntity
  8
1
 62
     3
100
AcDbMText
 10
-160.242306191577
 20
154.6374998377241
 30
0.0
 40
3.5
 41
0.0
 71
     7
 72
     1
  1
30,95
  7
CONVERTER_11
 11
0.0
 21
1.0
 31
0.0
 73
     1
 44
0.60024009603842
  0
ENDBLK
  5
340
330
338
100
AcDbEntity
  8
0
100
AcDbBlockEnd
  0
ENDSEC
  0
SECTION
  2
ENTITIES
  0
INSERT
  5
86
330
1F
100
AcDbEntity
  8
1
100
AcDbBlockReference
  2
1
 10
0.0
 20
0.0
 30
0.0
  0
ENDSEC
  0
SECTION
  2
OBJECTS
  0
DICTIONARY
  5
C
330
0
100
AcDbDictionary
281
     1
  3
ACAD_GROUP
350
D
  3
ACAD_LAYOUT
350
1A
  3
ACAD_MATERIAL
350
3B
  3
ACAD_MLEADERSTYLE
350
4A3
  3
ACAD_MLINESTYLE
350
17
  3
ACAD_PLOTSETTINGS
350
19
  3
ACAD_PLOTSTYLENAME
350
E
  3
ACAD_TABLESTYLE
350
4A2
  3
ACAD_VISUALSTYLE
350
2A
  0
DICTIONARY
  5
D
102
{ACAD_REACTORS
330
C
102
}
330
C
100
AcDbDictionary
281
     1
  0
DICTIONARY
  5
1A
102
{ACAD_REACTORS
330
C
102
}
330
C
100
AcDbDictionary
281
     1
  3
Layout1
350
1E
  3
Layout2
350
26
  3
Model
350
22
  0
DICTIONARY
  5
3B
102
{ACAD_REACTORS
330
C
102
}
330
C
100
AcDbDictionary
281
     1
  3
ByBlock
350
3D
  3
ByLayer
350
3C
  3
Global
350
3E
  0
DICTIONARY
  5
4A3
102
{ACAD_REACTORS
330
C
102
}
330
C
100
AcDbDictionary
281
     1
  0
DICTIONARY
  5
17
102
{ACAD_REACTORS
330
C
102
}
330
C
100
AcDbDictionary
281
     1
  3
Standard
350
18
  0
DICTIONARY
  5
19
102
{ACAD_REACTORS
330
C
102
}
330
C
100
AcDbDictionary
281
     1
  0
ACDBDICTIONARYWDFLT
  5
E
102
{ACAD_REACTORS
330
C
102
}
330
C
100
AcDbDictionary
281
     1
  3
Normal
350
F
100
AcDbDictionaryWithDefault
340
F
  0
DICTIONARY
  5
4A2
102
{ACAD_REACTORS
330
C
102
}
330
C
100
AcDbDictionary
281
     1
  0
DICTIONARY
  5
2A
102
{ACAD_REACTORS
330
C
102
}
330
C
100
AcDbDictionary
281
     1
  3
2dWireframe
350
2F
  3
3D Hidden
350
31
  3
3dWireframe
350
30
  3
Basic
350
32
  3
Brighten
350
36
  3
ColorChange
350
3A
  3
Conceptual
350
34
  3
Dim
350
35
  3
Facepattern
350
39
  3
Flat
350
2B
  3
FlatWithEdges
350
2C
  3
Gouraud
350
2D
  3
GouraudWithEdges
350
2E
  3
Linepattern
350
38
  3
Realistic
350
33
  3
Thicken
350
37
  0
LAYOUT
  5
1E
102
{ACAD_REACTORS
330
1A
102
}
330
1A
100
AcDbPlotSettings
  1

  2
none_device
  4

  6

 40
0.0
 41
0.0
 42
0.0
 43
0.0
 44
0.0
 45
0.0
 46
0.0
 47
0.0
 48
0.0
 49
0.0
140
0.0
141
0.0
142
1.0
143
1.0
 70
   688
 72
     0
 73
     0
 74
     5
  7

 75
    16
 76
     0
 77
     2
 78
   300
147
1.0
148
0.0
149
0.0
100
AcDbLayout
  1
Layout1
 70
     1
 71
     1
 10
0.0
 20
0.0
 11
12.0
 21
9.0
 12
0.0
 22
0.0
 32
0.0
 14
1.00000000000000E+20
 24
1.00000000000000E+20
 34
1.00000000000000E+20
 15
-1.00000000000000E+20
 25
-1.00000000000000E+20
 35
-1.00000000000000E+20
146
0.0
 13
0.0
 23
0.0
 33
0.0
 16
1.0
 26
0.0
 36
0.0
 17
0.0
 27
1.0
 37
0.0
 76
     0
330
1B
  0
LAYOUT
  5
26
102
{ACAD_REACTORS
330
1A
102
}
330
1A
100
AcDbPlotSettings
  1

  2
none_device
  4

  6

 40
0.0
 41
0.0
 42
0.0
 43
0.0
 44
0.0
 45
0.0
 46
0.0
 47
0.0
 48
0.0
 49
0.0
140
0.0
141
0.0
142
1.0
143
1.0
 70
   688
 72
     0
 73
     0
 74
     5
  7

 75
    16
 76
     0
 77
     2
 78
   300
147
1.0
148
0.0
149
0.0
100
AcDbLayout
  1
Layout2
 70
     1
 71
     2
 10
0.0
 20
0.0
 11
0.0
 21
0.0
 12
0.0
 22
0.0
 32
0.0
 14
0.0
 24
0.0
 34
0.0
 15
0.0
 25
0.0
 35
0.0
146
0.0
 13
0.0
 23
0.0
 33
0.0
 16
1.0
 26
0.0
 36
0.0
 17
0.0
 27
1.0
 37
0.0
 76
     0
330
23
  0
LAYOUT
  5
22
102
{ACAD_REACTORS
330
1A
102
}
330
1A
100
AcDbPlotSettings
  1

  2
none_device
  4

  6

 40
0.0
 41
0.0
 42
0.0
 43
0.0
 44
0.0
 45
0.0
 46
0.0
 47
0.0
 48
0.0
 49
0.0
140
0.0
141
0.0
142
1.0
143
1.0
 70
  1712
 72
     0
 73
     0
 74
     0
  7

 75
     0
 76
     0
 77
     2
 78
   300
147
1.0
148
0.0
149
0.0
100
AcDbLayout
  1
Model
 70
     1
 71
     0
 10
0.0
 20
0.0
 11
12.0
 21
9.0
 12
0.0
 22
0.0
 32
0.0
 14
-248.0749997376517
 24
9.70269041848786
 34
0.0
 15
48.92500026234637
 25
219.702690418488
 35
0.0
146
0.0
 13
0.0
 23
0.0
 33
0.0
 16
1.0
 26
0.0
 36
0.0
 17
0.0
 27
1.0
 37
0.0
 76
     0
330
1F
331
29
  0
MATERIAL
  5
3D
102
{ACAD_REACTORS
330
3B
102
}
102
{ACAD_XDICTIONARY
360
49E
102
}
330
3B
100
AcDbMaterial
  1
ByBlock
  0
MATERIAL
  5
3C
102
{ACAD_REACTORS
330
3B
102
}
102
{ACAD_XDICTIONARY
360
49C
102
}
330
3B
100
AcDbMaterial
  1
ByLayer
  0
MATERIAL
  5
3E
102
{ACAD_REACTORS
330
3B
102
}
102
{ACAD_XDICTIONARY
360
4A0
102
}
330
3B
100
AcDbMaterial
  1
Global
  0
MLINESTYLE
  5
18
102
{ACAD_REACTORS
330
17
102
}
330
17
100
AcDbMlineStyle
  2
Standard
 70
     0
  3

 62
   256
 51
90.0
 52
90.0
 71
     2
 49
0.5
 62
   256
  6
BYLAYER
 49
-0.5
 62
   256
  6
BYLAYER
  0
ACDBPLACEHOLDER
  5
F
102
{ACAD_REACTORS
330
E
102
}
330
E
  0
VISUALSTYLE
  5
2F
102
{ACAD_REACTORS
330
2A
102
}
102
{ACAD_XDICTIONARY
360
484
102
}
330
2A
100
AcDbVisualStyle
  2
2dWireframe
 70
     4
 71
     0
 72
     2
 73
     0
 90
        0
 40
-0.6
 41
-30.0
 62
     5
 63
     7
421
 16777215
 74
     1
 91
        4
 64
     7
 65
   257
 75
     1
175
     1
 42
1.0
 92
        0
 66
   257
 43
1.0
 76
     1
 77
     6
 78
     2
 67
     7
 79
     5
170
     0
171
     0
290
     0
174
     0
 93
        1
 44
0.0
173
     0
291
     0
 45
0.0
1001
ACAD
1000
AcDbSavedByObjectVersion
1070
     0
  0
VISUALSTYLE
  5
31
102
{ACAD_REACTORS
330
2A
102
}
102
{ACAD_XDICTIONARY
360
488
102
}
330
2A
100
AcDbVisualStyle
  2
3D Hidden
 70
     6
 71
     1
 72
     2
 73
     2
 90
        0
 40
-0.6
 41
-30.0
 62
     5
 63
     7
421
 16777215
 74
     2
 91
        2
 64
     7
 65
   257
 75
     2
175
     1
 42
40.0
 92
        0
 66
   257
 43
1.0
 76
     1
 77
     6
 78
     2
 67
     7
 79
     3
170
     0
171
     0
290
     0
174
     0
 93
        1
 44
0.0
173
     0
291
     0
 45
0.0
1001
ACAD
1000
AcDbSavedByObjectVersion
1070
     0
  0
VISUALSTYLE
  5
30
102
{ACAD_REACTORS
330
2A
102
}
102
{ACAD_XDICTIONARY
360
486
102
}
330
2A
100
AcDbVisualStyle
  2
3dWireframe
 70
     5
 71
     0
 72
     2
 73
     0
 90
        0
 40
-0.6
 41
-30.0
 62
     5
 63
     7
421
 16777215
 74
     1
 91
        4
 64
     7
 65
   257
 75
     1
175
     1
 42
1.0
 92
        0
 66
   257
 43
1.0
 76
     1
 77
     6
 78
     2
 67
     7
 79
     5
170
     0
171
     0
290
     0
174
     0
 93
        1
 44
0.0
173
     0
291
     0
 45
0.0
1001
ACAD
1000
AcDbSavedByObjectVersion
1070
     0
  0
VISUALSTYLE
  5
32
102
{ACAD_REACTORS
330
2A
102
}
102
{ACAD_XDICTIONARY
360
48A
102
}
330
2A
100
AcDbVisualStyle
  2
Basic
 70
     7
 71
     1
 72
     0
 73
     1
 90
        0
 40
-0.6
 41
-30.0
 62
     5
 63
     7
421
 16777215
 74
     0
 91
        4
 64
     7
 65
   257
 75
     1
175
     1
 42
1.0
 92
        8
 66
     7
 43
1.0
 76
     1
 77
     6
 78
     2
 67
     7
 79
     5
170
     0
171
     0
290
     0
174
     0
 93
        1
 44
0.0
173
     0
291
     1
 45
0.0
1001
ACAD
1000
AcDbSavedByObjectVersion
1070
     0
  0
VISUALSTYLE
  5
36
102
{ACAD_REACTORS
330
2A
102
}
102
{ACAD_XDICTIONARY
360
492
102
}
330
2A
100
AcDbVisualStyle
  2
Brighten
 70
    12
 71
     2
 72
     2
 73
     0
 90
        0
 40
-0.6
 41
-30.0
 62
     5
 63
     7
421
 16777215
 74
     1
 91
        4
 64
     7
 65
   257
 75
     1
175
     1
 42
1.0
 92
        8
 66
     7
 43
1.0
 76
     1
 77
     6
 78
     2
 67
     7
 79
     5
170
     0
171
     0
290
     0
174
     0
 93
        1
 44
50.0
173
     0
291
     1
 45
0.0
1001
ACAD
1000
AcDbSavedByObjectVersion
1070
     0
  0
VISUALSTYLE
  5
3A
102
{ACAD_REACTORS
330
2A
102
}
102
{ACAD_XDICTIONARY
360
49A
102
}
330
2A
100
AcDbVisualStyle
  2
ColorChange
 70
    16
 71
     2
 72
     2
 73
     3
 90
        0
 40
-0.6
 41
-30.0
 62
     5
 63
     8
421
  8421504
 74
     1
 91
        4
 64
     7
 65
   257
 75
     1
175
     1
 42
1.0
 92
        8
 66
     8
424
  8421504
 43
1.0
 76
     1
 77
     6
 78
     2
 67
     7
 79
     5
170
     0
171
     0
290
     0
174
     0
 93
        1
 44
0.0
173
     0
291
     1
 45
0.0
1001
ACAD
1000
AcDbSavedByObjectVersion
1070
     0
  0
VISUALSTYLE
  5
34
102
{ACAD_REACTORS
330
2A
102
}
102
{ACAD_XDICTIONARY
360
48E
102
}
330
2A
100
AcDbVisualStyle
  2
Conceptual
 70
     9
 71
     3
 72
     2
 73
     0
 90
        0
 40
-0.6
 41
-30.0
 62
     5
 63
     7
421
 16777215
 74
     2
 91
        2
 64
     7
 65
   257
 75
     1
175
     1
 42
40.0
 92
        8
 66
     7
 43
1.0
 76
     1
 77
     6
 78
     2
 67
     7
 79
     3
170
     0
171
     0
290
     0
174
     0
 93
        1
 44
0.0
173
     0
291
     0
 45
0.0
1001
ACAD
1000
AcDbSavedByObjectVersion
1070
     0
  0
VISUALSTYLE
  5
35
102
{ACAD_REACTORS
330
2A
102
}
102
{ACAD_XDICTIONARY
360
490
102
}
330
2A
100
AcDbVisualStyle
  2
Dim
 70
    11
 71
     2
 72
     2
 73
     0
 90
        0
 40
-0.6
 41
-30.0
 62
     5
 63
     7
421
 16777215
 74
     1
 91
        4
 64
     7
 65
   257
 75
     1
175
     1
 42
1.0
 92
        8
 66
     7
 43
1.0
 76
     1
 77
     6
 78
     2
 67
     7
 79
     5
170
     0
171
     0
290
     0
174
     0
 93
        1
 44
-50.0
173
     0
291
     1
 45
0.0
1001
ACAD
1000
AcDbSavedByObjectVersion
1070
     0
  0
VISUALSTYLE
  5
39
102
{ACAD_REACTORS
330
2A
102
}
102
{ACAD_XDICTIONARY
360
498
102
}
330
2A
100
AcDbVisualStyle
  2
Facepattern
 70
    15
 71
     2
 72
     2
 73
     0
 90
        0
 40
-0.6
 41
-30.0
 62
     5
 63
     7
421
 16777215
 74
     1
 91
        4
 64
     7
 65
   257
 75
     1
175
     1
 42
1.0
 92
        8
 66
     7
 43
1.0
 76
     1
 77
     6
 78
     2
 67
     7
 79
     5
170
     0
171
     0
290
     0
174
     0
 93
        1
 44
0.0
173
     0
291
     1
 45
0.0
1001
ACAD
1000
AcDbSavedByObjectVersion
1070
     0
  0
VISUALSTYLE
  5
2B
102
{ACAD_REACTORS
330
2A
102
}
102
{ACAD_XDICTIONARY
360
47C
102
}
330
2A
100
AcDbVisualStyle
  2
Flat
 70
     0
 71
     2
 72
     1
 73
     1
 90
        2
 40
-0.6
 41
30.0
 62
     5
 63
     7
421
 16777215
 74
     0
 91
        4
 64
     7
 65
   257
 75
     1
175
     1
 42
1.0
 92
        8
 66
     7
 43
1.0
 76
     1
 77
     6
 78
     2
 67
     7
 79
     5
170
     0
171
     0
290
     0
174
     0
 93
       13
 44
0.0
173
     0
291
     1
 45
0.0
1001
ACAD
1000
AcDbSavedByObjectVersion
1070
     0
  0
VISUALSTYLE
  5
2C
102
{ACAD_REACTORS
330
2A
102
}
102
{ACAD_XDICTIONARY
360
47E
102
}
330
2A
100
AcDbVisualStyle
  2
FlatWithEdges
 70
     1
 71
     2
 72
     1
 73
     1
 90
        2
 40
-0.6
 41
30.0
 62
     5
 63
     7
421
 16777215
 74
     1
 91
        4
 64
     7
 65
   257
 75
     1
175
     1
 42
1.0
 92
        0
 66
   257
 43
1.0
 76
     1
 77
     6
 78
     2
 67
     7
 79
     5
170
     0
171
     0
290
     0
174
     0
 93
       13
 44
0.0
173
     0
291
     1
 45
0.0
1001
ACAD
1000
AcDbSavedByObjectVersion
1070
     0
  0
VISUALSTYLE
  5
2D
102
{ACAD_REACTORS
330
2A
102
}
102
{ACAD_XDICTIONARY
360
480
102
}
330
2A
100
AcDbVisualStyle
  2
Gouraud
 70
     2
 71
     2
 72
     2
 73
     1
 90
        2
 40
-0.6
 41
30.0
 62
     5
 63
     7
421
 16777215
 74
     0
 91
        4
 64
     7
 65
   257
 75
     1
175
     1
 42
1.0
 92
        0
 66
     7
 43
1.0
 76
     1
 77
     6
 78
     2
 67
     7
 79
     5
170
     0
171
     0
290
     0
174
     0
 93
       13
 44
0.0
173
     0
291
     1
 45
0.0
1001
ACAD
1000
AcDbSavedByObjectVersion
1070
     0
  0
VISUALSTYLE
  5
2E
102
{ACAD_REACTORS
330
2A
102
}
102
{ACAD_XDICTIONARY
360
482
102
}
330
2A
100
AcDbVisualStyle
  2
GouraudWithEdges
 70
     3
 71
     2
 72
     2
 73
     1
 90
        2
 40
-0.6
 41
30.0
 62
     5
 63
     7
421
 16777215
 74
     1
 91
        4
 64
     7
 65
   257
 75
     1
175
     1
 42
1.0
 92
        0
 66
   257
 43
1.0
 76
     1
 77
     6
 78
     2
 67
     7
 79
     5
170
     0
171
     0
290
     0
174
     0
 93
       13
 44
0.0
173
     0
291
     1
 45
0.0
1001
ACAD
1000
AcDbSavedByObjectVersion
1070
     0
  0
VISUALSTYLE
  5
38
102
{ACAD_REACTORS
330
2A
102
}
102
{ACAD_XDICTIONARY
360
496
102
}
330
2A
100
AcDbVisualStyle
  2
Linepattern
 70
    14
 71
     2
 72
     2
 73
     0
 90
        0
 40
-0.6
 41
-30.0
 62
     5
 63
     7
421
 16777215
 74
     1
 91
        4
 64
     7
 65
   257
 75
     7
175
     7
 42
1.0
 92
        8
 66
     7
 43
1.0
 76
     1
 77
     6
 78
     2
 67
     7
 79
     5
170
     0
171
     0
290
     0
174
     0
 93
        1
 44
0.0
173
     0
291
     1
 45
0.0
1001
ACAD
1000
AcDbSavedByObjectVersion
1070
     0
  0
VISUALSTYLE
  5
33
102
{ACAD_REACTORS
330
2A
102
}
102
{ACAD_XDICTIONARY
360
48C
102
}
330
2A
100
AcDbVisualStyle
  2
Realistic
 70
     8
 71
     2
 72
     2
 73
     0
 90
        0
 40
-0.6
 41
-30.0
 62
     5
 63
     7
421
 16777215
 74
     1
 91
        0
 64
     7
 65
   257
 75
     1
175
     1
 42
1.0
 92
        8
 66
     8
424
  7895160
 43
1.0
 76
     1
 77
     6
 78
     2
 67
     7
 79
     5
170
     0
171
     0
290
     0
174
     0
 93
       13
 44
0.0
173
     0
291
     0
 45
0.0
1001
ACAD
1000
AcDbSavedByObjectVersion
1070
     0
  0
VISUALSTYLE
  5
37
102
{ACAD_REACTORS
330
2A
102
}
102
{ACAD_XDICTIONARY
360
494
102
}
330
2A
100
AcDbVisualStyle
  2
Thicken
 70
    13
 71
     2
 72
     2
 73
     0
 90
        0
 40
-0.6
 41
-30.0
 62
     5
 63
     7
421
 16777215
 74
     1
 91
        4
 64
     7
 65
   257
 75
     1
175
     1
 42
1.0
 92
       12
 66
     7
 43
1.0
 76
     1
 77
     6
 78
     2
 67
     7
 79
     5
170
     0
171
     0
290
     0
174
     0
 93
        1
 44
0.0
173
     0
291
     1
 45
0.0
1001
ACAD
1000
AcDbSavedByObjectVersion
1070
     0
  0
DICTIONARY
  5
49E
330
3D
100
AcDbDictionary
280
     1
281
     1
  3
ACAD_XREC_ROUNDTRIP
360
49F
  0
DICTIONARY
  5
49C
330
3C
100
AcDbDictionary
280
     1
281
     1
  3
ACAD_XREC_ROUNDTRIP
360
49D
  0
DICTIONARY
  5
4A0
330
3E
100
AcDbDictionary
280
     1
281
     1
  3
ACAD_XREC_ROUNDTRIP
360
4A1
  0
DICTIONARY
  5
484
330
2F
100
AcDbDictionary
280
     1
281
     1
  3
ACAD_XREC_ROUNDTRIP
360
485
  0
DICTIONARY
  5
488
330
31
100
AcDbDictionary
280
     1
281
     1
  3
ACAD_XREC_ROUNDTRIP
360
489
  0
DICTIONARY
  5
486
330
30
100
AcDbDictionary
280
     1
281
     1
  3
ACAD_XREC_ROUNDTRIP
360
487
  0
DICTIONARY
  5
48A
330
32
100
AcDbDictionary
280
     1
281
     1
  3
ACAD_XREC_ROUNDTRIP
360
48B
  0
DICTIONARY
  5
492
330
36
100
AcDbDictionary
280
     1
281
     1
  3
ACAD_XREC_ROUNDTRIP
360
493
  0
DICTIONARY
  5
49A
330
3A
100
AcDbDictionary
280
     1
281
     1
  3
ACAD_XREC_ROUNDTRIP
360
49B
  0
DICTIONARY
  5
48E
330
34
100
AcDbDictionary
280
     1
281
     1
  3
ACAD_XREC_ROUNDTRIP
360
48F
  0
DICTIONARY
  5
490
330
35
100
AcDbDictionary
280
     1
281
     1
  3
ACAD_XREC_ROUNDTRIP
360
491
  0
DICTIONARY
  5
498
330
39
100
AcDbDictionary
280
     1
281
     1
  3
ACAD_XREC_ROUNDTRIP
360
499
  0
DICTIONARY
  5
47C
330
2B
100
AcDbDictionary
280
     1
281
     1
  3
ACAD_XREC_ROUNDTRIP
360
47D
  0
DICTIONARY
  5
47E
330
2C
100
AcDbDictionary
280
     1
281
     1
  3
ACAD_XREC_ROUNDTRIP
360
47F
  0
DICTIONARY
  5
480
330
2D
100
AcDbDictionary
280
     1
281
     1
  3
ACAD_XREC_ROUNDTRIP
360
481
  0
DICTIONARY
  5
482
330
2E
100
AcDbDictionary
280
     1
281
     1
  3
ACAD_XREC_ROUNDTRIP
360
483
  0
DICTIONARY
  5
496
330
38
100
AcDbDictionary
280
     1
281
     1
  3
ACAD_XREC_ROUNDTRIP
360
497
  0
DICTIONARY
  5
48C
330
33
100
AcDbDictionary
280
     1
281
     1
  3
ACAD_XREC_ROUNDTRIP
360
48D
  0
DICTIONARY
  5
494
330
37
100
AcDbDictionary
280
     1
281
     1
  3
ACAD_XREC_ROUNDTRIP
360
495
  0
XRECORD
  5
49F
102
{ACAD_REACTORS
330
49E
102
}
330
49E
100
AcDbXrecord
280
     1
102
MATERIAL
148
0.0
149
0.0
149
0.0
 93
        0
 94
      127
282
     0
 72
     1
 77
     1
171
     1
175
     1
179
     1
273
     0
  0
XRECORD
  5
49D
102
{ACAD_REACTORS
330
49C
102
}
330
49C
100
AcDbXrecord
280
     1
102
MATERIAL
148
0.0
149
0.0
149
0.0
 93
        0
 94
      127
282
     0
 72
     1
 77
     1
171
     1
175
     1
179
     1
273
     0
  0
XRECORD
  5
4A1
102
{ACAD_REACTORS
330
4A0
102
}
330
4A0
100
AcDbXrecord
280
     1
102
MATERIAL
148
0.0
149
0.0
149
0.0
 93
        0
 94
      127
282
     0
 72
     1
 77
     1
171
     1
175
     1
179
     1
273
     0
  0
XRECORD
  5
485
102
{ACAD_REACTORS
330
484
102
}
330
484
100
AcDbXrecord
280
     1
102
RTVSPropertyOp0
 70
     1
102
RTVSPropertyOp1
 70
     1
102
RTVSPropertyOp2
 70
     1
102
RTVSPropertyOp3
 70
     1
102
RTVSPropertyOp4
 70
     1
102
RTVSPropertyOp5
 70
     1
102
RTVSPropertyOp6
 70
     1
102
RTVSPropertyOp7
 70
     1
102
RTVSPropertyOp8
 70
     1
102
RTVSPropertyOp9
 70
     1
102
RTVSPropertyOp10
 70
     1
102
RTVSPropertyOp11
 70
     1
102
RTVSPropertyOp12
 70
     1
102
RTVSPropertyOp13
 70
     1
102
RTVSPropertyOp14
 70
     1
102
RTVSPropertyOp15
 70
     1
102
RTVSPropertyOp16
 70
     1
102
RTVSPropertyOp17
 70
     1
102
RTVSPropertyOp18
 70
     1
102
RTVSPropertyOp19
 70
     1
102
RTVSPropertyOp20
 70
     1
102
RTVSPropertyOp21
 70
     1
102
RTVSPropertyOp22
 70
     1
102
RTVSPropertyOp23
 70
     1
102
RTVSPropertyOp24
 70
     1
102
RTVSPropertyOp25
 70
     1
102
RTVSPropertyOp26
 70
     1
102
RTVSPropertyOp27
 70
     1
102
RTVSPropertyOp28
 70
     1
102
RTVSPropertyOp29
 70
     1
102
RTVSPropertyOp30
 70
     1
102
RTVSPropertyOp31
 70
     1
102
RTVSPropertyOp32
 70
     1
  0
XRECORD
  5
489
102
{ACAD_REACTORS
330
488
102
}
330
488
100
AcDbXrecord
280
     1
102
RTVSPropertyOp0
 70
     1
102
RTVSPropertyOp1
 70
     1
102
RTVSPropertyOp2
 70
     1
102
RTVSPropertyOp3
 70
     1
102
RTVSPropertyOp4
 70
     1
102
RTVSPropertyOp5
 70
     1
102
RTVSPropertyOp6
 70
     1
102
RTVSPropertyOp7
 70
     1
102
RTVSPropertyOp8
 70
     1
102
RTVSPropertyOp9
 70
     1
102
RTVSPropertyOp10
 70
     1
102
RTVSPropertyOp11
 70
     1
102
RTVSPropertyOp12
 70
     1
102
RTVSPropertyOp13
 70
     1
102
RTVSPropertyOp14
 70
     1
102
RTVSPropertyOp15
 70
     1
102
RTVSPropertyOp16
 70
     1
102
RTVSPropertyOp17
 70
     1
102
RTVSPropertyOp18
 70
     1
102
RTVSPropertyOp19
 70
     1
102
RTVSPropertyOp20
 70
     1
102
RTVSPropertyOp21
 70
     1
102
RTVSPropertyOp22
 70
     1
102
RTVSPropertyOp23
 70
     1
102
RTVSPropertyOp24
 70
     1
102
RTVSPropertyOp25
 70
     1
102
RTVSPropertyOp26
 70
     1
102
RTVSPropertyOp27
 70
     1
102
RTVSPropertyOp28
 70
     1
102
RTVSPropertyOp29
 70
     1
102
RTVSPropertyOp30
 70
     1
102
RTVSPropertyOp31
 70
     1
102
RTVSPropertyOp32
 70
     1
  0
XRECORD
  5
487
102
{ACAD_REACTORS
330
486
102
}
330
486
100
AcDbXrecord
280
     1
102
RTVSPropertyOp0
 70
     1
102
RTVSPropertyOp1
 70
     1
102
RTVSPropertyOp2
 70
     1
102
RTVSPropertyOp3
 70
     1
102
RTVSPropertyOp4
 70
     1
102
RTVSPropertyOp5
 70
     1
102
RTVSPropertyOp6
 70
     1
102
RTVSPropertyOp7
 70
     1
102
RTVSPropertyOp8
 70
     1
102
RTVSPropertyOp9
 70
     1
102
RTVSPropertyOp10
 70
     1
102
RTVSPropertyOp11
 70
     1
102
RTVSPropertyOp12
 70
     1
102
RTVSPropertyOp13
 70
     1
102
RTVSPropertyOp14
 70
     1
102
RTVSPropertyOp15
 70
     1
102
RTVSPropertyOp16
 70
     1
102
RTVSPropertyOp17
 70
     1
102
RTVSPropertyOp18
 70
     1
102
RTVSPropertyOp19
 70
     1
102
RTVSPropertyOp20
 70
     1
102
RTVSPropertyOp21
 70
     1
102
RTVSPropertyOp22
 70
     1
102
RTVSPropertyOp23
 70
     1
102
RTVSPropertyOp24
 70
     1
102
RTVSPropertyOp25
 70
     1
102
RTVSPropertyOp26
 70
     1
102
RTVSPropertyOp27
 70
     1
102
RTVSPropertyOp28
 70
     1
102
RTVSPropertyOp29
 70
     1
102
RTVSPropertyOp30
 70
     1
102
RTVSPropertyOp31
 70
     1
102
RTVSPropertyOp32
 70
     1
  0
XRECORD
  5
48B
102
{ACAD_REACTORS
330
48A
102
}
330
48A
100
AcDbXrecord
280
     1
102
RTVSPropertyOp0
 70
     1
102
RTVSPropertyOp1
 70
     1
102
RTVSPropertyOp2
 70
     1
102
RTVSPropertyOp3
 70
     1
102
RTVSPropertyOp4
 70
     1
102
RTVSPropertyOp5
 70
     1
102
RTVSPropertyOp6
 70
     1
102
RTVSPropertyOp7
 70
     1
102
RTVSPropertyOp8
 70
     1
102
RTVSPropertyOp9
 70
     1
102
RTVSPropertyOp10
 70
     1
102
RTVSPropertyOp11
 70
     1
102
RTVSPropertyOp12
 70
     1
102
RTVSPropertyOp13
 70
     1
102
RTVSPropertyOp14
 70
     1
102
RTVSPropertyOp15
 70
     1
102
RTVSPropertyOp16
 70
     1
102
RTVSPropertyOp17
 70
     1
102
RTVSPropertyOp18
 70
     1
102
RTVSPropertyOp19
 70
     1
102
RTVSPropertyOp20
 70
     1
102
RTVSPropertyOp21
 70
     1
102
RTVSPropertyOp22
 70
     1
102
RTVSPropertyOp23
 70
     1
102
RTVSPropertyOp24
 70
     1
102
RTVSPropertyOp25
 70
     1
102
RTVSPropertyOp26
 70
     1
102
RTVSPropertyOp27
 70
     1
102
RTVSPropertyOp28
 70
     1
102
RTVSPropertyOp29
 70
     1
102
RTVSPropertyOp30
 70
     1
102
RTVSPropertyOp31
 70
     1
102
RTVSPropertyOp32
 70
     1
  0
XRECORD
  5
493
102
{ACAD_REACTORS
330
492
102
}
330
492
100
AcDbXrecord
280
     1
102
RTVSPropertyOp0
 70
     1
102
RTVSPropertyOp1
 70
     1
102
RTVSPropertyOp2
 70
     1
102
RTVSPropertyOp3
 70
     1
102
RTVSPropertyOp4
 70
     1
102
RTVSPropertyOp5
 70
     1
102
RTVSPropertyOp6
 70
     1
102
RTVSPropertyOp7
 70
     1
102
RTVSPropertyOp8
 70
     1
102
RTVSPropertyOp9
 70
     1
102
RTVSPropertyOp10
 70
     1
102
RTVSPropertyOp11
 70
     1
102
RTVSPropertyOp12
 70
     1
102
RTVSPropertyOp13
 70
     1
102
RTVSPropertyOp14
 70
     1
102
RTVSPropertyOp15
 70
     1
102
RTVSPropertyOp16
 70
     1
102
RTVSPropertyOp17
 70
     1
102
RTVSPropertyOp18
 70
     1
102
RTVSPropertyOp19
 70
     1
102
RTVSPropertyOp20
 70
     1
102
RTVSPropertyOp21
 70
     1
102
RTVSPropertyOp22
 70
     1
102
RTVSPropertyOp23
 70
     1
102
RTVSPropertyOp24
 70
     1
102
RTVSPropertyOp25
 70
     1
102
RTVSPropertyOp26
 70
     1
102
RTVSPropertyOp27
 70
     1
102
RTVSPropertyOp28
 70
     1
102
RTVSPropertyOp29
 70
     1
102
RTVSPropertyOp30
 70
     1
102
RTVSPropertyOp31
 70
     1
102
RTVSPropertyOp32
 70
     1
  0
XRECORD
  5
49B
102
{ACAD_REACTORS
330
49A
102
}
330
49A
100
AcDbXrecord
280
     1
102
RTVSPropertyOp0
 70
     1
102
RTVSPropertyOp1
 70
     1
102
RTVSPropertyOp2
 70
     1
102
RTVSPropertyOp3
 70
     1
102
RTVSPropertyOp4
 70
     1
102
RTVSPropertyOp5
 70
     1
102
RTVSPropertyOp6
 70
     1
102
RTVSPropertyOp7
 70
     1
102
RTVSPropertyOp8
 70
     1
102
RTVSPropertyOp9
 70
     1
102
RTVSPropertyOp10
 70
     1
102
RTVSPropertyOp11
 70
     1
102
RTVSPropertyOp12
 70
     1
102
RTVSPropertyOp13
 70
     1
102
RTVSPropertyOp14
 70
     1
102
RTVSPropertyOp15
 70
     1
102
RTVSPropertyOp16
 70
     1
102
RTVSPropertyOp17
 70
     1
102
RTVSPropertyOp18
 70
     1
102
RTVSPropertyOp19
 70
     1
102
RTVSPropertyOp20
 70
     1
102
RTVSPropertyOp21
 70
     1
102
RTVSPropertyOp22
 70
     1
102
RTVSPropertyOp23
 70
     1
102
RTVSPropertyOp24
 70
     1
102
RTVSPropertyOp25
 70
     1
102
RTVSPropertyOp26
 70
     1
102
RTVSPropertyOp27
 70
     1
102
RTVSPropertyOp28
 70
     1
102
RTVSPropertyOp29
 70
     1
102
RTVSPropertyOp30
 70
     1
102
RTVSPropertyOp31
 70
     1
102
RTVSPropertyOp32
 70
     1
  0
XRECORD
  5
48F
102
{ACAD_REACTORS
330
48E
102
}
330
48E
100
AcDbXrecord
280
     1
102
RTVSPropertyOp0
 70
     1
102
RTVSPropertyOp1
 70
     1
102
RTVSPropertyOp2
 70
     1
102
RTVSPropertyOp3
 70
     1
102
RTVSPropertyOp4
 70
     1
102
RTVSPropertyOp5
 70
     1
102
RTVSPropertyOp6
 70
     1
102
RTVSPropertyOp7
 70
     1
102
RTVSPropertyOp8
 70
     1
102
RTVSPropertyOp9
 70
     1
102
RTVSPropertyOp10
 70
     1
102
RTVSPropertyOp11
 70
     1
102
RTVSPropertyOp12
 70
     1
102
RTVSPropertyOp13
 70
     1
102
RTVSPropertyOp14
 70
     1
102
RTVSPropertyOp15
 70
     1
102
RTVSPropertyOp16
 70
     1
102
RTVSPropertyOp17
 70
     1
102
RTVSPropertyOp18
 70
     1
102
RTVSPropertyOp19
 70
     1
102
RTVSPropertyOp20
 70
     1
102
RTVSPropertyOp21
 70
     1
102
RTVSPropertyOp22
 70
     1
102
RTVSPropertyOp23
 70
     1
102
RTVSPropertyOp24
 70
     1
102
RTVSPropertyOp25
 70
     1
102
RTVSPropertyOp26
 70
     1
102
RTVSPropertyOp27
 70
     1
102
RTVSPropertyOp28
 70
     1
102
RTVSPropertyOp29
 70
     1
102
RTVSPropertyOp30
 70
     1
102
RTVSPropertyOp31
 70
     1
102
RTVSPropertyOp32
 70
     1
  0
XRECORD
  5
491
102
{ACAD_REACTORS
330
490
102
}
330
490
100
AcDbXrecord
280
     1
102
RTVSPropertyOp0
 70
     1
102
RTVSPropertyOp1
 70
     1
102
RTVSPropertyOp2
 70
     1
102
RTVSPropertyOp3
 70
     1
102
RTVSPropertyOp4
 70
     1
102
RTVSPropertyOp5
 70
     1
102
RTVSPropertyOp6
 70
     1
102
RTVSPropertyOp7
 70
     1
102
RTVSPropertyOp8
 70
     1
102
RTVSPropertyOp9
 70
     1
102
RTVSPropertyOp10
 70
     1
102
RTVSPropertyOp11
 70
     1
102
RTVSPropertyOp12
 70
     1
102
RTVSPropertyOp13
 70
     1
102
RTVSPropertyOp14
 70
     1
102
RTVSPropertyOp15
 70
     1
102
RTVSPropertyOp16
 70
     1
102
RTVSPropertyOp17
 70
     1
102
RTVSPropertyOp18
 70
     1
102
RTVSPropertyOp19
 70
     1
102
RTVSPropertyOp20
 70
     1
102
RTVSPropertyOp21
 70
     1
102
RTVSPropertyOp22
 70
     1
102
RTVSPropertyOp23
 70
     1
102
RTVSPropertyOp24
 70
     1
102
RTVSPropertyOp25
 70
     1
102
RTVSPropertyOp26
 70
     1
102
RTVSPropertyOp27
 70
     1
102
RTVSPropertyOp28
 70
     1
102
RTVSPropertyOp29
 70
     1
102
RTVSPropertyOp30
 70
     1
102
RTVSPropertyOp31
 70
     1
102
RTVSPropertyOp32
 70
     1
  0
XRECORD
  5
499
102
{ACAD_REACTORS
330
498
102
}
330
498
100
AcDbXrecord
280
     1
102
RTVSPropertyOp0
 70
     1
102
RTVSPropertyOp1
 70
     1
102
RTVSPropertyOp2
 70
     1
102
RTVSPropertyOp3
 70
     1
102
RTVSPropertyOp4
 70
     1
102
RTVSPropertyOp5
 70
     1
102
RTVSPropertyOp6
 70
     1
102
RTVSPropertyOp7
 70
     1
102
RTVSPropertyOp8
 70
     1
102
RTVSPropertyOp9
 70
     1
102
RTVSPropertyOp10
 70
     1
102
RTVSPropertyOp11
 70
     1
102
RTVSPropertyOp12
 70
     1
102
RTVSPropertyOp13
 70
     1
102
RTVSPropertyOp14
 70
     1
102
RTVSPropertyOp15
 70
     1
102
RTVSPropertyOp16
 70
     1
102
RTVSPropertyOp17
 70
     1
102
RTVSPropertyOp18
 70
     1
102
RTVSPropertyOp19
 70
     1
102
RTVSPropertyOp20
 70
     1
102
RTVSPropertyOp21
 70
     1
102
RTVSPropertyOp22
 70
     1
102
RTVSPropertyOp23
 70
     1
102
RTVSPropertyOp24
 70
     1
102
RTVSPropertyOp25
 70
     1
102
RTVSPropertyOp26
 70
     1
102
RTVSPropertyOp27
 70
     1
102
RTVSPropertyOp28
 70
     1
102
RTVSPropertyOp29
 70
     1
102
RTVSPropertyOp30
 70
     1
102
RTVSPropertyOp31
 70
     1
102
RTVSPropertyOp32
 70
     1
  0
XRECORD
  5
47D
102
{ACAD_REACTORS
330
47C
102
}
330
47C
100
AcDbXrecord
280
     1
102
RTVSPropertyOp0
 70
     1
102
RTVSPropertyOp1
 70
     1
102
RTVSPropertyOp2
 70
     1
102
RTVSPropertyOp3
 70
     1
102
RTVSPropertyOp4
 70
     1
102
RTVSPropertyOp5
 70
     1
102
RTVSPropertyOp6
 70
     1
102
RTVSPropertyOp7
 70
     1
102
RTVSPropertyOp8
 70
     1
102
RTVSPropertyOp9
 70
     1
102
RTVSPropertyOp10
 70
     1
102
RTVSPropertyOp11
 70
     1
102
RTVSPropertyOp12
 70
     1
102
RTVSPropertyOp13
 70
     1
102
RTVSPropertyOp14
 70
     1
102
RTVSPropertyOp15
 70
     1
102
RTVSPropertyOp16
 70
     1
102
RTVSPropertyOp17
 70
     1
102
RTVSPropertyOp18
 70
     1
102
RTVSPropertyOp19
 70
     1
102
RTVSPropertyOp20
 70
     1
102
RTVSPropertyOp21
 70
     1
102
RTVSPropertyOp22
 70
     1
102
RTVSPropertyOp23
 70
     1
102
RTVSPropertyOp24
 70
     1
102
RTVSPropertyOp25
 70
     1
102
RTVSPropertyOp26
 70
     1
102
RTVSPropertyOp27
 70
     1
102
RTVSPropertyOp28
 70
     1
102
RTVSPropertyOp29
 70
     1
102
RTVSPropertyOp30
 70
     1
102
RTVSPropertyOp31
 70
     1
102
RTVSPropertyOp32
 70
     1
  0
XRECORD
  5
47F
102
{ACAD_REACTORS
330
47E
102
}
330
47E
100
AcDbXrecord
280
     1
102
RTVSPropertyOp0
 70
     1
102
RTVSPropertyOp1
 70
     1
102
RTVSPropertyOp2
 70
     1
102
RTVSPropertyOp3
 70
     1
102
RTVSPropertyOp4
 70
     1
102
RTVSPropertyOp5
 70
     1
102
RTVSPropertyOp6
 70
     1
102
RTVSPropertyOp7
 70
     1
102
RTVSPropertyOp8
 70
     1
102
RTVSPropertyOp9
 70
     1
102
RTVSPropertyOp10
 70
     1
102
RTVSPropertyOp11
 70
     1
102
RTVSPropertyOp12
 70
     1
102
RTVSPropertyOp13
 70
     1
102
RTVSPropertyOp14
 70
     1
102
RTVSPropertyOp15
 70
     1
102
RTVSPropertyOp16
 70
     1
102
RTVSPropertyOp17
 70
     1
102
RTVSPropertyOp18
 70
     1
102
RTVSPropertyOp19
 70
     1
102
RTVSPropertyOp20
 70
     1
102
RTVSPropertyOp21
 70
     1
102
RTVSPropertyOp22
 70
     1
102
RTVSPropertyOp23
 70
     1
102
RTVSPropertyOp24
 70
     1
102
RTVSPropertyOp25
 70
     1
102
RTVSPropertyOp26
 70
     1
102
RTVSPropertyOp27
 70
     1
102
RTVSPropertyOp28
 70
     1
102
RTVSPropertyOp29
 70
     1
102
RTVSPropertyOp30
 70
     1
102
RTVSPropertyOp31
 70
     1
102
RTVSPropertyOp32
 70
     1
  0
XRECORD
  5
481
102
{ACAD_REACTORS
330
480
102
}
330
480
100
AcDbXrecord
280
     1
102
RTVSPropertyOp0
 70
     1
102
RTVSPropertyOp1
 70
     1
102
RTVSPropertyOp2
 70
     1
102
RTVSPropertyOp3
 70
     1
102
RTVSPropertyOp4
 70
     1
102
RTVSPropertyOp5
 70
     1
102
RTVSPropertyOp6
 70
     1
102
RTVSPropertyOp7
 70
     1
102
RTVSPropertyOp8
 70
     1
102
RTVSPropertyOp9
 70
     1
102
RTVSPropertyOp10
 70
     1
102
RTVSPropertyOp11
 70
     1
102
RTVSPropertyOp12
 70
     1
102
RTVSPropertyOp13
 70
     1
102
RTVSPropertyOp14
 70
     1
102
RTVSPropertyOp15
 70
     1
102
RTVSPropertyOp16
 70
     1
102
RTVSPropertyOp17
 70
     1
102
RTVSPropertyOp18
 70
     1
102
RTVSPropertyOp19
 70
     1
102
RTVSPropertyOp20
 70
     1
102
RTVSPropertyOp21
 70
     1
102
RTVSPropertyOp22
 70
     1
102
RTVSPropertyOp23
 70
     1
102
RTVSPropertyOp24
 70
     1
102
RTVSPropertyOp25
 70
     1
102
RTVSPropertyOp26
 70
     1
102
RTVSPropertyOp27
 70
     1
102
RTVSPropertyOp28
 70
     1
102
RTVSPropertyOp29
 70
     1
102
RTVSPropertyOp30
 70
     1
102
RTVSPropertyOp31
 70
     1
102
RTVSPropertyOp32
 70
     1
  0
XRECORD
  5
483
102
{ACAD_REACTORS
330
482
102
}
330
482
100
AcDbXrecord
280
     1
102
RTVSPropertyOp0
 70
     1
102
RTVSPropertyOp1
 70
     1
102
RTVSPropertyOp2
 70
     1
102
RTVSPropertyOp3
 70
     1
102
RTVSPropertyOp4
 70
     1
102
RTVSPropertyOp5
 70
     1
102
RTVSPropertyOp6
 70
     1
102
RTVSPropertyOp7
 70
     1
102
RTVSPropertyOp8
 70
     1
102
RTVSPropertyOp9
 70
     1
102
RTVSPropertyOp10
 70
     1
102
RTVSPropertyOp11
 70
     1
102
RTVSPropertyOp12
 70
     1
102
RTVSPropertyOp13
 70
     1
102
RTVSPropertyOp14
 70
     1
102
RTVSPropertyOp15
 70
     1
102
RTVSPropertyOp16
 70
     1
102
RTVSPropertyOp17
 70
     1
102
RTVSPropertyOp18
 70
     1
102
RTVSPropertyOp19
 70
     1
102
RTVSPropertyOp20
 70
     1
102
RTVSPropertyOp21
 70
     1
102
RTVSPropertyOp22
 70
     1
102
RTVSPropertyOp23
 70
     1
102
RTVSPropertyOp24
 70
     1
102
RTVSPropertyOp25
 70
     1
102
RTVSPropertyOp26
 70
     1
102
RTVSPropertyOp27
 70
     1
102
RTVSPropertyOp28
 70
     1
102
RTVSPropertyOp29
 70
     1
102
RTVSPropertyOp30
 70
     1
102
RTVSPropertyOp31
 70
     1
102
RTVSPropertyOp32
 70
     1
  0
XRECORD
  5
497
102
{ACAD_REACTORS
330
496
102
}
330
496
100
AcDbXrecord
280
     1
102
RTVSPropertyOp0
 70
     1
102
RTVSPropertyOp1
 70
     1
102
RTVSPropertyOp2
 70
     1
102
RTVSPropertyOp3
 70
     1
102
RTVSPropertyOp4
 70
     1
102
RTVSPropertyOp5
 70
     1
102
RTVSPropertyOp6
 70
     1
102
RTVSPropertyOp7
 70
     1
102
RTVSPropertyOp8
 70
     1
102
RTVSPropertyOp9
 70
     1
102
RTVSPropertyOp10
 70
     1
102
RTVSPropertyOp11
 70
     1
102
RTVSPropertyOp12
 70
     1
102
RTVSPropertyOp13
 70
     1
102
RTVSPropertyOp14
 70
     1
102
RTVSPropertyOp15
 70
     1
102
RTVSPropertyOp16
 70
     1
102
RTVSPropertyOp17
 70
     1
102
RTVSPropertyOp18
 70
     1
102
RTVSPropertyOp19
 70
     1
102
RTVSPropertyOp20
 70
     1
102
RTVSPropertyOp21
 70
     1
102
RTVSPropertyOp22
 70
     1
102
RTVSPropertyOp23
 70
     1
102
RTVSPropertyOp24
 70
     1
102
RTVSPropertyOp25
 70
     1
102
RTVSPropertyOp26
 70
     1
102
RTVSPropertyOp27
 70
     1
102
RTVSPropertyOp28
 70
     1
102
RTVSPropertyOp29
 70
     1
102
RTVSPropertyOp30
 70
     1
102
RTVSPropertyOp31
 70
     1
102
RTVSPropertyOp32
 70
     1
  0
XRECORD
  5
48D
102
{ACAD_REACTORS
330
48C
102
}
330
48C
100
AcDbXrecord
280
     1
102
RTVSPropertyOp0
 70
     1
102
RTVSPropertyOp1
 70
     1
102
RTVSPropertyOp2
 70
     1
102
RTVSPropertyOp3
 70
     1
102
RTVSPropertyOp4
 70
     1
102
RTVSPropertyOp5
 70
     1
102
RTVSPropertyOp6
 70
     1
102
RTVSPropertyOp7
 70
     1
102
RTVSPropertyOp8
 70
     1
102
RTVSPropertyOp9
 70
     1
102
RTVSPropertyOp10
 70
     1
102
RTVSPropertyOp11
 70
     1
102
RTVSPropertyOp12
 70
     1
102
RTVSPropertyOp13
 70
     1
102
RTVSPropertyOp14
 70
     1
102
RTVSPropertyOp15
 70
     1
102
RTVSPropertyOp16
 70
     1
102
RTVSPropertyOp17
 70
     1
102
RTVSPropertyOp18
 70
     1
102
RTVSPropertyOp19
 70
     1
102
RTVSPropertyOp20
 70
     1
102
RTVSPropertyOp21
 70
     1
102
RTVSPropertyOp22
 70
     1
102
RTVSPropertyOp23
 70
     1
102
RTVSPropertyOp24
 70
     1
102
RTVSPropertyOp25
 70
     1
102
RTVSPropertyOp26
 70
     1
102
RTVSPropertyOp27
 70
     1
102
RTVSPropertyOp28
 70
     1
102
RTVSPropertyOp29
 70
     1
102
RTVSPropertyOp30
 70
     1
102
RTVSPropertyOp31
 70
     1
102
RTVSPropertyOp32
 70
     1
  0
XRECORD
  5
495
102
{ACAD_REACTORS
330
494
102
}
330
494
100
AcDbXrecord
280
     1
102
RTVSPropertyOp0
 70
     1
102
RTVSPropertyOp1
 70
     1
102
RTVSPropertyOp2
 70
     1
102
RTVSPropertyOp3
 70
     1
102
RTVSPropertyOp4
 70
     1
102
RTVSPropertyOp5
 70
     1
102
RTVSPropertyOp6
 70
     1
102
RTVSPropertyOp7
 70
     1
102
RTVSPropertyOp8
 70
     1
102
RTVSPropertyOp9
 70
     1
102
RTVSPropertyOp10
 70
     1
102
RTVSPropertyOp11
 70
     1
102
RTVSPropertyOp12
 70
     1
102
RTVSPropertyOp13
 70
     1
102
RTVSPropertyOp14
 70
     1
102
RTVSPropertyOp15
 70
     1
102
RTVSPropertyOp16
 70
     1
102
RTVSPropertyOp17
 70
     1
102
RTVSPropertyOp18
 70
     1
102
RTVSPropertyOp19
 70
     1
102
RTVSPropertyOp20
 70
     1
102
RTVSPropertyOp21
 70
     1
102
RTVSPropertyOp22
 70
     1
102
RTVSPropertyOp23
 70
     1
102
RTVSPropertyOp24
 70
     1
102
RTVSPropertyOp25
 70
     1
102
RTVSPropertyOp26
 70
     1
102
RTVSPropertyOp27
 70
     1
102
RTVSPropertyOp28
 70
     1
102
RTVSPropertyOp29
 70
     1
102
RTVSPropertyOp30
 70
     1
102
RTVSPropertyOp31
 70
     1
102
RTVSPropertyOp32
 70
     1
  0
ENDSEC
  0
EOF
