  0
SECTION
  2
HEADER
  9
$ACADVER
  1
AC1018
  9
$ACADMAINTVER
 70
     0
  9
$DWGCODEPAGE
  3
ANSI_1252
  9
$INSBASE
 10
0.0
 20
0.0
 30
0.0
  9
$EXTMIN
 10
-437.7187491068137
 20
-251.0499979992684
 30
0.0
  9
$EXTMAX
 10
-140.7187491068156
 20
-41.04999799926827
 30
0.0
  9
$LIMMIN
 10
0.0
 20
0.0
  9
$LIMMAX
 10
12.0
 20
9.0
  9
$ORTHOMODE
 70
     0
  9
$REGENMODE
 70
     1
  9
$FILLMODE
 70
     1
  9
$QTEXTMODE
 70
     0
  9
$MIRRTEXT
 70
     1
  9
$LTSCALE
 40
1.0
  9
$ATTMODE
 70
     1
  9
$TEXTSIZE
 40
0.2
  9
$TRACEWID
 40
0.05
  9
$TEXTSTYLE
  7
Standard
  9
$CLAYER
  8
0
  9
$CELTYPE
  6
ByLayer
  9
$CECOLOR
 62
   256
  9
$CELTSCALE
 40
1.0
  9
$DISPSILH
 70
     0
  9
$DIMSCALE
 40
1.0
  9
$DIMASZ
 40
0.18
  9
$DIMEXO
 40
0.0625
  9
$DIMDLI
 40
0.38
  9
$DIMRND
 40
0.0
  9
$DIMDLE
 40
0.0
  9
$DIMEXE
 40
0.18
  9
$DIMTP
 40
0.0
  9
$DIMTM
 40
0.0
  9
$DIMTXT
 40
0.18
  9
$DIMCEN
 40
0.09
  9
$DIMTSZ
 40
0.0
  9
$DIMTOL
 70
     0
  9
$DIMLIM
 70
     0
  9
$DIMTIH
 70
     1
  9
$DIMTOH
 70
     1
  9
$DIMSE1
 70
     0
  9
$DIMSE2
 70
     0
  9
$DIMTAD
 70
     0
  9
$DIMZIN
 70
     0
  9
$DIMBLK
  1

  9
$DIMASO
 70
     1
  9
$DIMSHO
 70
     1
  9
$DIMPOST
  1

  9
$DIMAPOST
  1

  9
$DIMALT
 70
     0
  9
$DIMALTD
 70
     2
  9
$DIMALTF
 40
25.4
  9
$DIMLFAC
 40
1.0
  9
$DIMTOFL
 70
     0
  9
$DIMTVP
 40
0.0
  9
$DIMTIX
 70
     0
  9
$DIMSOXD
 70
     0
  9
$DIMSAH
 70
     0
  9
$DIMBLK1
  1

  9
$DIMBLK2
  1

  9
$DIMSTYLE
  2
Standard
  9
$DIMCLRD
 70
     0
  9
$DIMCLRE
 70
     0
  9
$DIMCLRT
 70
     0
  9
$DIMTFAC
 40
1.0
  9
$DIMGAP
 40
0.09
  9
$DIMJUST
 70
     0
  9
$DIMSD1
 70
     0
  9
$DIMSD2
 70
     0
  9
$DIMTOLJ
 70
     1
  9
$DIMTZIN
 70
     0
  9
$DIMALTZ
 70
     0
  9
$DIMALTTZ
 70
     0
  9
$DIMUPT
 70
     0
  9
$DIMDEC
 70
     4
  9
$DIMTDEC
 70
     4
  9
$DIMALTU
 70
     2
  9
$DIMALTTD
 70
     2
  9
$DIMTXSTY
  7
Standard
  9
$DIMAUNIT
 70
     0
  9
$DIMADEC
 70
     0
  9
$DIMALTRND
 40
0.0
  9
$DIMAZIN
 70
     0
  9
$DIMDSEP
 70
    46
  9
$DIMATFIT
 70
     3
  9
$DIMFRAC
 70
     0
  9
$DIMLDRBLK
  1

  9
$DIMLUNIT
 70
     2
  9
$DIMLWD
 70
    -2
  9
$DIMLWE
 70
    -2
  9
$DIMTMOVE
 70
     0
  9
$LUNITS
 70
     2
  9
$LUPREC
 70
     4
  9
$SKETCHINC
 40
0.1
  9
$FILLETRAD
 40
0.5
  9
$AUNITS
 70
     0
  9
$AUPREC
 70
     0
  9
$MENU
  1
.
  9
$ELEVATION
 40
0.0
  9
$PELEVATION
 40
0.0
  9
$THICKNESS
 40
0.0
  9
$LIMCHECK
 70
     0
  9
$CHAMFERA
 40
0.5
  9
$CHAMFERB
 40
0.5
  9
$CHAMFERC
 40
1.0
  9
$CHAMFERD
 40
0.0
  9
$SKPOLY
 70
     0
  9
$TDCREATE
 40
2458195.36815647
  9
$TDUCREATE
 40
2458195.326489803
  9
$TDUPDATE
 40
2458195.368157014
  9
$TDUUPDATE
 40
2458195.326490347
  9
$TDINDWG
 40
0.0000000116
  9
$TDUSRTIMER
 40
0.0000000116
  9
$USRTIMER
 70
     1
  9
$ANGBASE
 50
0.0
  9
$ANGDIR
 70
     0
  9
$PDMODE
 70
     0
  9
$PDSIZE
 40
0.0
  9
$PLINEWID
 40
0.0
  9
$SPLFRAME
 70
     0
  9
$SPLINETYPE
 70
     6
  9
$SPLINESEGS
 70
     8
  9
$HANDSEED
  5
493
  9
$SURFTAB1
 70
     6
  9
$SURFTAB2
 70
     6
  9
$SURFTYPE
 70
     6
  9
$SURFU
 70
     6
  9
$SURFV
 70
     6
  9
$UCSBASE
  2

  9
$UCSNAME
  2

  9
$UCSORG
 10
0.0
 20
0.0
 30
0.0
  9
$UCSXDIR
 10
1.0
 20
0.0
 30
0.0
  9
$UCSYDIR
 10
0.0
 20
1.0
 30
0.0
  9
$UCSORTHOREF
  2

  9
$UCSORTHOVIEW
 70
     0
  9
$UCSORGTOP
 10
0.0
 20
0.0
 30
0.0
  9
$UCSORGBOTTOM
 10
0.0
 20
0.0
 30
0.0
  9
$UCSORGLEFT
 10
0.0
 20
0.0
 30
0.0
  9
$UCSORGRIGHT
 10
0.0
 20
0.0
 30
0.0
  9
$UCSORGFRONT
 10
0.0
 20
0.0
 30
0.0
  9
$UCSORGBACK
 10
0.0
 20
0.0
 30
0.0
  9
$PUCSBASE
  2

  9
$PUCSNAME
  2

  9
$PUCSORG
 10
0.0
 20
0.0
 30
0.0
  9
$PUCSXDIR
 10
1.0
 20
0.0
 30
0.0
  9
$PUCSYDIR
 10
0.0
 20
1.0
 30
0.0
  9
$PUCSORTHOREF
  2

  9
$PUCSORTHOVIEW
 70
     0
  9
$PUCSORGTOP
 10
0.0
 20
0.0
 30
0.0
  9
$PUCSORGBOTTOM
 10
0.0
 20
0.0
 30
0.0
  9
$PUCSORGLEFT
 10
0.0
 20
0.0
 30
0.0
  9
$PUCSORGRIGHT
 10
0.0
 20
0.0
 30
0.0
  9
$PUCSORGFRONT
 10
0.0
 20
0.0
 30
0.0
  9
$PUCSORGBACK
 10
0.0
 20
0.0
 30
0.0
  9
$USERI1
 70
     0
  9
$USERI2
 70
     0
  9
$USERI3
 70
     0
  9
$USERI4
 70
     0
  9
$USERI5
 70
     0
  9
$USERR1
 40
18.1
  9
$USERR2
 40
0.0
  9
$USERR3
 40
0.0
  9
$USERR4
 40
0.0
  9
$USERR5
 40
0.0
  9
$WORLDVIEW
 70
     1
  9
$SHADEDGE
 70
     3
  9
$SHADEDIF
 70
    70
  9
$TILEMODE
 70
     1
  9
$MAXACTVP
 70
    64
  9
$PINSBASE
 10
0.0
 20
0.0
 30
0.0
  9
$PLIMCHECK
 70
     0
  9
$PEXTMIN
 10
1.00000000000000E+20
 20
1.00000000000000E+20
 30
1.00000000000000E+20
  9
$PEXTMAX
 10
-1.00000000000000E+20
 20
-1.00000000000000E+20
 30
-1.00000000000000E+20
  9
$PLIMMIN
 10
0.0
 20
0.0
  9
$PLIMMAX
 10
12.0
 20
9.0
  9
$UNITMODE
 70
     0
  9
$VISRETAIN
 70
     1
  9
$PLINEGEN
 70
     0
  9
$PSLTSCALE
 70
     1
  9
$TREEDEPTH
 70
  3020
  9
$CMLSTYLE
  2
Standard
  9
$CMLJUST
 70
     0
  9
$CMLSCALE
 40
1.0
  9
$PROXYGRAPHICS
 70
     1
  9
$MEASUREMENT
 70
     1
  9
$CELWEIGHT
370
    -1
  9
$ENDCAPS
280
     0
  9
$JOINSTYLE
280
     0
  9
$LWDISPLAY
290
     0
  9
$INSUNITS
 70
     4
  9
$HYPERLINKBASE
  1

  9
$STYLESHEET
  1

  9
$XEDIT
290
     1
  9
$CEPSNTYPE
380
     0
  9
$PSTYLEMODE
290
     1
  9
$FINGERPRINTGUID
  2
{D8D21CA3-9A96-4922-9E8B-23D69511BBC8}
  9
$VERSIONGUID
  2
{FAEB1C32-E019-11D5-929B-00C0DF256EC4}
  9
$EXTNAMES
290
     1
  9
$PSVPSCALE
 40
0.0
  9
$OLESTARTUP
290
     0
  9
$SORTENTS
280
   127
  9
$INDEXCTL
280
     0
  9
$HIDETEXT
280
     1
  9
$XCLIPFRAME
290
     0
  9
$HALOGAP
280
     0
  9
$OBSCOLOR
 70
   257
  9
$OBSLTYPE
280
     0
  9
$INTERSECTIONDISPLAY
280
     0
  9
$INTERSECTIONCOLOR
 70
   257
  9
$DIMASSOC
280
     2
  9
$PROJECTNAME
  1

  0
ENDSEC
  0
SECTION
  2
CLASSES
  0
CLASS
  1
ACDBDICTIONARYWDFLT
  2
AcDbDictionaryWithDefault
  3
ObjectDBX Classes
 90
        0
 91
        4
280
     0
281
     0
  0
CLASS
  1
VISUALSTYLE
  2
AcDbVisualStyle
  3
ObjectDBX Classes
 90
     4095
 91
        4
280
     0
281
     0
  0
CLASS
  1
MATERIAL
  2
AcDbMaterial
  3
ObjectDBX Classes
 90
     1153
 91
        4
280
     0
281
     0
  0
ENDSEC
  0
SECTION
  2
TABLES
  0
TABLE
  2
VPORT
  5
8
330
0
100
AcDbSymbolTable
 70
     1
  0
VPORT
  5
29
330
8
100
AcDbSymbolTableRecord
100
AcDbViewportTableRecord
  2
*Active
 70
     0
 10
0.0
 20
0.0
 11
1.0
 21
1.0
 12
-289.2187491068146
 22
-146.0499979992683
 13
0.0
 23
0.0
 14
0.5
 24
0.5
 15
0.5
 25
0.5
 16
0.0
 26
0.0
 36
1.0
 17
0.0
 27
0.0
 37
0.0
 40
231.0000000000002
 41
1.60267857142857
 42
50.0
 43
0.0
 44
0.0
 50
0.0
 51
0.0
 71
     0
 72
   100
 73
     1
 74
     3
 75
     0
 76
     0
 77
     0
 78
     0
281
     0
 65
     1
110
0.0
120
0.0
130
0.0
111
1.0
121
0.0
131
0.0
112
0.0
122
1.0
132
0.0
 79
     0
146
0.0
  0
ENDTAB
  0
TABLE
  2
LTYPE
  5
5
330
0
100
AcDbSymbolTable
 70
     8
  0
LTYPE
  5
14
330
5
100
AcDbSymbolTableRecord
100
AcDbLinetypeTableRecord
  2
ByBlock
 70
     0
  3

 72
    65
 73
     0
 40
0.0
  0
LTYPE
  5
15
330
5
100
AcDbSymbolTableRecord
100
AcDbLinetypeTableRecord
  2
ByLayer
 70
     0
  3

 72
    65
 73
     0
 40
0.0
  0
LTYPE
  5
16
330
5
100
AcDbSymbolTableRecord
100
AcDbLinetypeTableRecord
  2
Continuous
 70
     0
  3
Solid line
 72
    65
 73
     0
 40
0.0
  0
LTYPE
  5
3F
330
5
100
AcDbSymbolTableRecord
100
AcDbLinetypeTableRecord
  2
DASHED
 70
     0
  3
Dashed
 72
    65
 73
     2
 40
15.0
 49
7.0
 74
     0
 49
-8.0
 74
     0
  0
LTYPE
  5
40
330
5
100
AcDbSymbolTableRecord
100
AcDbLinetypeTableRecord
  2
DOTTED
 70
     0
  3
Dotted
 72
    65
 73
     2
 40
1.0
 49
0.0
 74
     0
 49
-1.0
 74
     0
  0
LTYPE
  5
41
330
5
100
AcDbSymbolTableRecord
100
AcDbLinetypeTableRecord
  2
DOT_CENTER
 70
     0
  3
Dot_Center
 72
    65
 73
     4
 40
14.0
 49
12.0
 74
     0
 49
-1.0
 74
     0
 49
0.0
 74
     0
 49
-1.0
 74
     0
  0
LTYPE
  5
42
330
5
100
AcDbSymbolTableRecord
100
AcDbLinetypeTableRecord
  2
LONG_DASHED
 70
     0
  3
Long_Dashed
 72
    65
 73
     2
 40
15.0
 49
10.0
 74
     0
 49
-5.0
 74
     0
  0
LTYPE
  5
43
330
5
100
AcDbSymbolTableRecord
100
AcDbLinetypeTableRecord
  2
DASH_CENTER
 70
     0
  3
Dash_Center
 72
    65
 73
     4
 40
14.0
 49
11.0
 74
     0
 49
-1.0
 74
     0
 49
1.0
 74
     0
 49
-1.0
 74
     0
  0
LTYPE
  5
44
330
5
100
AcDbSymbolTableRecord
100
AcDbLinetypeTableRecord
  2
PHANTOM
 70
     0
  3
Phantom
 72
    65
 73
     6
 40
13.0
 49
10.0
 74
     0
 49
-1.0
 74
     0
 49
0.0
 74
     0
 49
-1.0
 74
     0
 49
0.0
 74
     0
 49
-1.0
 74
     0
  0
LTYPE
  5
45
330
5
100
AcDbSymbolTableRecord
100
AcDbLinetypeTableRecord
  2
CENTER_DASH_DASH
 70
     0
  3
Center_Dash_Dash
 72
    65
 73
     6
 40
14.0
 49
9.0
 74
     0
 49
-1.0
 74
     0
 49
1.0
 74
     0
 49
-1.0
 74
     0
 49
1.0
 74
     0
 49
-1.0
 74
     0
  0
ENDTAB
  0
TABLE
  2
LAYER
  5
2
330
0
100
AcDbSymbolTable
 70
     2
  0
LAYER
  5
10
330
2
100
AcDbSymbolTableRecord
100
AcDbLayerTableRecord
  2
0
 70
     0
 62
     7
  6
Continuous
370
    -3
390
F
  0
LAYER
  5
46
330
2
100
AcDbSymbolTableRecord
100
AcDbLayerTableRecord
  2
1
 70
     0
 62
     7
  6
Continuous
370
    -3
390
F
  0
ENDTAB
  0
TABLE
  2
STYLE
  5
3
330
0
100
AcDbSymbolTable
 70
     5
  0
STYLE
  5
11
330
3
100
AcDbSymbolTableRecord
100
AcDbTextStyleTableRecord
  2
Standard
 70
     0
 40
0.0
 41
1.0
 50
0.0
 71
     0
 42
0.2
  3
txt
  4

  0
STYLE
  5
123
330
3
100
AcDbSymbolTableRecord
100
AcDbTextStyleTableRecord
  2
CONVERTER_11
 70
     0
 40
0.0
 41
0.9
 50
0.0
 71
     0
 42
0.2
  3
txt.shx
  4

  0
STYLE
  5
42E
330
3
100
AcDbSymbolTableRecord
100
AcDbTextStyleTableRecord
  2
CONVERTER_12
 70
     0
 40
0.0
 41
0.81
 50
0.0
 71
     0
 42
0.2
  3
txt.shx
  4

  0
STYLE
  5
444
330
3
100
AcDbSymbolTableRecord
100
AcDbTextStyleTableRecord
  2
CONVERTER_13
 70
     0
 40
0.0
 41
0.72
 50
0.0
 71
     0
 42
0.2
  3
txt.shx
  4

  0
STYLE
  5
447
330
3
100
AcDbSymbolTableRecord
100
AcDbTextStyleTableRecord
  2
CONVERTER_14
 70
     0
 40
0.0
 41
0.855
 50
0.0
 71
     0
 42
0.2
  3
txt.shx
  4

  0
ENDTAB
  0
TABLE
  2
VIEW
  5
6
330
0
100
AcDbSymbolTable
 70
     0
  0
ENDTAB
  0
TABLE
  2
UCS
  5
7
330
0
100
AcDbSymbolTable
 70
     0
  0
ENDTAB
  0
TABLE
  2
APPID
  5
9
330
0
100
AcDbSymbolTable
 70
     1
  0
APPID
  5
12
330
9
100
AcDbSymbolTableRecord
100
AcDbRegAppTableRecord
  2
ACAD
 70
     0
  0
ENDTAB
  0
TABLE
  2
DIMSTYLE
  5
A
330
0
100
AcDbSymbolTable
 70
     7
100
AcDbDimStyleTable
  0
DIMSTYLE
105
27
330
A
100
AcDbSymbolTableRecord
100
AcDbDimStyleTableRecord
  2
Standard
 70
     0
178
     0
340
11
  0
DIMSTYLE
105
189
102
{ACAD_REACTORS
330
18A
102
}
330
A
100
AcDbSymbolTableRecord
100
AcDbDimStyleTableRecord
  2
ME10_DIM_10
 70
     0
 41
3.5
 42
0.5
 44
1.5
 73
     0
 74
     0
 77
     1
 78
     8
140
3.5
147
2.0
172
     1
173
     1
174
     1
175
     1
176
     2
177
     2
271
     2
178
     3
271
     2
340
123
  0
DIMSTYLE
105
304
102
{ACAD_REACTORS
330
305
102
}
330
A
100
AcDbSymbolTableRecord
100
AcDbDimStyleTableRecord
  2
ME10_DIM_11
 70
     0
 41
3.5
 42
0.5
 44
1.5
 73
     0
 74
     0
 77
     1
 78
     8
140
3.5
147
2.0
172
     1
173
     1
174
     1
175
     1
176
     2
177
     2
271
     2
178
     3
271
     2
340
123
  0
DIMSTYLE
105
30F
102
{ACAD_REACTORS
330
310
102
}
330
A
100
AcDbSymbolTableRecord
100
AcDbDimStyleTableRecord
  2
ME10_DIM_12
 70
     0
 41
3.5
 42
0.0
 44
1.5
 73
     0
 74
     0
 77
     1
 78
     8
140
3.5
147
1.5
172
     1
173
     1
174
     1
175
     1
176
     2
177
     2
271
     2
178
     3
271
     2
340
123
  0
DIMSTYLE
105
31A
102
{ACAD_REACTORS
330
31B
102
}
330
A
100
AcDbSymbolTableRecord
100
AcDbDimStyleTableRecord
  2
ME10_DIM_13
 70
     0
 41
3.5
 42
0.0
 44
1.5
 73
     0
 74
     0
 77
     1
 78
     8
140
3.5
147
1.5
172
     1
173
     1
174
     1
175
     1
176
     2
177
     2
271
     2
178
     3
271
     2
340
123
  0
DIMSTYLE
105
325
102
{ACAD_REACTORS
330
326
102
}
330
A
100
AcDbSymbolTableRecord
100
AcDbDimStyleTableRecord
  2
ME10_DIM_14
 70
     0
 41
3.5
 42
0.0
 44
1.5
 73
     0
 74
     0
 77
     1
 78
     8
140
3.5
147
1.5
172
     1
173
     1
174
     1
175
     1
176
     2
177
     2
271
     2
178
     3
271
     2
340
123
  0
DIMSTYLE
105
330
102
{ACAD_REACTORS
330
331
102
}
330
A
100
AcDbSymbolTableRecord
100
AcDbDimStyleTableRecord
  2
ME10_DIM_15
 70
     0
 41
3.5
 42
0.0
 44
1.5
 73
     0
 74
     0
 77
     1
 78
     8
140
3.5
147
1.5
172
     1
173
     1
174
     1
175
     1
176
     2
177
     2
271
     2
178
     3
271
     2
340
123
  0
ENDTAB
  0
TABLE
  2
BLOCK_RECORD
  5
1
330
0
100
AcDbSymbolTable
 70
    23
  0
BLOCK_RECORD
  5
1F
330
1
100
AcDbSymbolTableRecord
100
AcDbBlockTableRecord
  2
*Model_Space
340
22
  0
BLOCK_RECORD
  5
1B
330
1
100
AcDbSymbolTableRecord
100
AcDbBlockTableRecord
  2
*Paper_Space
340
1E
  0
BLOCK_RECORD
  5
23
330
1
100
AcDbSymbolTableRecord
100
AcDbBlockTableRecord
  2
*Paper_Space0
340
26
  0
BLOCK_RECORD
  5
47
330
1
100
AcDbSymbolTableRecord
100
AcDbBlockTableRecord
  2
USLKG_35-IB-select__1
340
0
102
{BLKREFS
331
4B
102
}
  0
BLOCK_RECORD
  5
4A
330
1
100
AcDbSymbolTableRecord
100
AcDbBlockTableRecord
  2
Allg1
340
0
102
{BLKREFS
331
7D
102
}
  0
BLOCK_RECORD
  5
4E
330
1
100
AcDbSymbolTableRecord
100
AcDbBlockTableRecord
  2
USLKG_35-IB-select__2
340
0
102
{BLKREFS
331
52
102
}
  0
BLOCK_RECORD
  5
51
330
1
100
AcDbSymbolTableRecord
100
AcDbBlockTableRecord
  2
Drfsicht1
340
0
102
{BLKREFS
331
7E
102
}
  0
BLOCK_RECORD
  5
55
330
1
100
AcDbSymbolTableRecord
100
AcDbBlockTableRecord
  2
USLKG_35-IB-select__3
340
0
102
{BLKREFS
331
59
102
}
  0
BLOCK_RECORD
  5
58
330
1
100
AcDbSymbolTableRecord
100
AcDbBlockTableRecord
  2
Rckans1
340
0
102
{BLKREFS
331
7F
102
}
  0
BLOCK_RECORD
  5
5C
330
1
100
AcDbSymbolTableRecord
100
AcDbBlockTableRecord
  2
USLKG_35-IB-select__4
340
0
102
{BLKREFS
331
60
102
}
  0
BLOCK_RECORD
  5
5F
330
1
100
AcDbSymbolTableRecord
100
AcDbBlockTableRecord
  2
SA_Links1
340
0
102
{BLKREFS
331
80
102
}
  0
BLOCK_RECORD
  5
63
330
1
100
AcDbSymbolTableRecord
100
AcDbBlockTableRecord
  2
USLKG_35-IB-select__5
340
0
102
{BLKREFS
331
67
102
}
  0
BLOCK_RECORD
  5
66
330
1
100
AcDbSymbolTableRecord
100
AcDbBlockTableRecord
  2
SA_Rechts1
340
0
102
{BLKREFS
331
81
102
}
  0
BLOCK_RECORD
  5
6A
330
1
100
AcDbSymbolTableRecord
100
AcDbBlockTableRecord
  2
USLKG_35-IB-select__6
340
0
102
{BLKREFS
331
6E
102
}
  0
BLOCK_RECORD
  5
6D
330
1
100
AcDbSymbolTableRecord
100
AcDbBlockTableRecord
  2
Vordans1
340
0
102
{BLKREFS
331
82
102
}
  0
BLOCK_RECORD
  5
71
330
1
100
AcDbSymbolTableRecord
100
AcDbBlockTableRecord
  2
_rahmen
340
0
102
{BLKREFS
331
78
102
}
  0
BLOCK_RECORD
  5
74
330
1
100
AcDbSymbolTableRecord
100
AcDbBlockTableRecord
  2
_punkt
340
0
102
{BLKREFS
331
79
102
}
  0
BLOCK_RECORD
  5
77
330
1
100
AcDbSymbolTableRecord
100
AcDbBlockTableRecord
  2
A4I_CS
340
0
102
{BLKREFS
331
83
102
}
  0
BLOCK_RECORD
  5
7C
330
1
100
AcDbSymbolTableRecord
100
AcDbBlockTableRecord
  2
1
340
0
102
{BLKREFS
331
86
102
}
  0
BLOCK_RECORD
  5
180
330
1
100
AcDbSymbolTableRecord
100
AcDbBlockTableRecord
  2
*D17
340
0
  0
BLOCK_RECORD
  5
2FB
330
1
100
AcDbSymbolTableRecord
100
AcDbBlockTableRecord
  2
*D18
340
0
  0
BLOCK_RECORD
  5
306
330
1
100
AcDbSymbolTableRecord
100
AcDbBlockTableRecord
  2
*D19
340
0
  0
BLOCK_RECORD
  5
311
330
1
100
AcDbSymbolTableRecord
100
AcDbBlockTableRecord
  2
*D20
340
0
  0
BLOCK_RECORD
  5
31C
330
1
100
AcDbSymbolTableRecord
100
AcDbBlockTableRecord
  2
*D21
340
0
  0
BLOCK_RECORD
  5
327
330
1
100
AcDbSymbolTableRecord
100
AcDbBlockTableRecord
  2
*D22
340
0
  0
ENDTAB
  0
ENDSEC
  0
SECTION
  2
BLOCKS
  0
BLOCK
  5
20
330
1F
100
AcDbEntity
  8
0
100
AcDbBlockBegin
  2
*Model_Space
 70
     0
 10
0.0
 20
0.0
 30
0.0
  3
*Model_Space
  1

  0
ENDBLK
  5
21
330
1F
100
AcDbEntity
  8
0
100
AcDbBlockEnd
  0
BLOCK
  5
1C
330
1B
100
AcDbEntity
 67
     1
  8
0
100
AcDbBlockBegin
  2
*Paper_Space
 70
     0
 10
0.0
 20
0.0
 30
0.0
  3
*Paper_Space
  1

  0
ENDBLK
  5
1D
330
1B
100
AcDbEntity
 67
     1
  8
0
100
AcDbBlockEnd
  0
BLOCK
  5
24
330
23
100
AcDbEntity
  8
0
100
AcDbBlockBegin
  2
*Paper_Space0
 70
     0
 10
0.0
 20
0.0
 30
0.0
  3
*Paper_Space0
  1

  0
ENDBLK
  5
25
330
23
100
AcDbEntity
  8
0
100
AcDbBlockEnd
  0
BLOCK
  5
48
330
47
100
AcDbEntity
  8
0
100
AcDbBlockBegin
  2
USLKG_35-IB-select__1
 70
     0
 10
-223.4006351550997
 20
-215.8997666000899
 30
0.0
  3
USLKG_35-IB-select__1
  1

  0
LINE
  5
87
330
47
100
AcDbEntity
  8
0
  6
Continuous
 62
     7
100
AcDbLine
 10
-191.2459638052935
 20
-215.8997666000899
 30
0.0
 11
-190.3959638052935
 21
-215.1636450068731
 31
0.0
  0
LINE
  5
88
330
47
100
AcDbEntity
  8
0
  6
Continuous
 62
     7
100
AcDbLine
 10
-190.9675028362108
 20
-214.9409208732779
 30
0.0
 11
-191.2459638052935
 21
-215.8997666000899
 31
0.0
  0
LINE
  5
89
330
47
100
AcDbEntity
  8
0
  6
Continuous
 62
     7
100
AcDbLine
 10
-182.9134665810155
 20
-215.7070751464659
 30
0.0
 11
-185.0921852889053
 21
-215.0781332302216
 31
0.0
  0
LINE
  5
8A
330
47
100
AcDbEntity
  8
0
  6
Continuous
 62
     7
100
AcDbLine
 10
-182.9134665810155
 20
-215.7070751464659
 30
0.0
 11
-182.0634665810155
 21
-214.9709535532492
 31
0.0
  0
LINE
  5
8B
330
47
100
AcDbEntity
  8
0
  6
Continuous
 62
     7
100
AcDbLine
 10
-191.2459638052935
 20
-215.8997666000899
 30
0.0
 11
-202.4265372409247
 21
-212.6722130587119
 31
0.0
  0
LINE
  5
8C
330
47
100
AcDbEntity
  8
0
  6
Continuous
 62
     7
100
AcDbLine
 10
-214.7992268440673
 20
-202.6630697207605
 30
0.0
 11
-214.6264873365977
 21
-202.0201149983016
 31
0.0
  0
LINE
  5
8D
330
47
100
AcDbEntity
  8
0
  6
Continuous
 62
     7
100
AcDbLine
 10
-215.7121025232466
 20
-203.5253782361249
 30
0.0
 11
-215.6855234118056
 21
-203.3823133332007
 31
0.0
  0
LINE
  5
8E
330
47
100
AcDbEntity
  8
0
  6
Continuous
 62
     7
100
AcDbLine
 10
-215.0590344652026
 20
-203.7139027456803
 30
0.0
 11
-215.7121025232466
 21
-203.5253782361249
 31
0.0
  0
LINE
  5
8F
330
47
100
AcDbEntity
  8
0
  6
Continuous
 62
     7
100
AcDbLine
 10
-215.6492268440673
 20
-203.3991913139773
 30
0.0
 11
-216.3420471670948
 21
-203.0770283982444
 31
0.0
  0
LINE
  5
90
330
47
100
AcDbEntity
  8
0
  6
Continuous
 62
     7
100
AcDbLine
 10
-215.231773034349
 20
-201.8453840680349
 30
0.0
 11
-215.6492268440673
 21
-203.3991913139773
 31
0.0
  0
LINE
  5
91
330
47
100
AcDbEntity
  8
0
  6
Continuous
 62
     7
100
AcDbLine
 10
-215.6492268440673
 20
-203.3991913139773
 30
0.0
 11
-214.7992268440673
 21
-202.6630697207605
 31
0.0
  0
LINE
  5
92
330
47
100
AcDbEntity
  8
0
  6
Continuous
 62
     7
100
AcDbLine
 10
-187.0275681961533
 20
-165.1271207798068
 30
0.0
 11
-216.4724319248241
 21
-156.6271207798068
 31
0.0
  0
LINE
  5
93
330
47
100
AcDbEntity
  8
0
  6
Continuous
 62
     7
100
AcDbLine
 10
-206.2741811129049
 20
-204.4312181216032
 30
0.0
 11
-205.2760241274346
 21
-207.4617750023813
 31
0.0
  0
LINE
  5
94
330
47
100
AcDbEntity
  8
0
  6
Continuous
 62
     2
100
AcDbLine
 10
-201.1176915141127
 20
-156.7295255156152
 30
0.0
 11
-203.5425626447091
 21
-156.0295255156152
 31
0.0
  0
LINE
  5
95
330
47
100
AcDbEntity
  8
0
  6
Continuous
 62
     2
100
AcDbLine
 10
-201.1176915141127
 20
-156.7295255156152
 30
0.0
 11
-201.1176915141127
 21
-158.5295255156152
 31
0.0
  0
LINE
  5
96
330
47
100
AcDbEntity
  8
0
  6
Continuous
 62
     7
100
AcDbLine
 10
-208.9724319248242
 20
-150.1319302514236
 30
0.0
 11
-179.5275681961533
 21
-158.6319302514235
 31
0.0
  0
LINE
  5
97
330
47
100
AcDbEntity
  8
0
  6
Continuous
 62
     2
100
AcDbLine
 10
-192.4574374762683
 20
-159.2295255156152
 30
0.0
 11
-194.8823086068647
 21
-158.5295255156152
 31
0.0
  0
LINE
  5
98
330
47
100
AcDbEntity
  8
0
  6
Continuous
 62
     7
100
AcDbLine
 10
-190.9675028362108
 20
-213.4686776868444
 30
0.0
 11
-191.968206991727
 21
-213.1797992800611
 31
0.0
  0
LINE
  5
99
330
47
100
AcDbEntity
  8
0
  6
Continuous
 62
     2
100
AcDbLine
 10
-176.3493649658777
 20
-175.8795255156153
 30
0.0
 11
-178.6541418298736
 21
-171.2222031156402
 31
0.0
  0
LINE
  5
9A
330
47
100
AcDbEntity
  8
0
  6
Continuous
 62
     7
100
AcDbLine
 10
-174.9041418298735
 20
-167.9746078514486
 30
0.0
 11
-172.5993649658778
 21
-172.6319302514235
 31
0.0
  0
LINE
  5
9B
330
47
100
AcDbEntity
  8
0
  6
Continuous
 62
     2
100
AcDbLine
 10
-176.3493649658778
 20
-208.7396414316491
 30
0.0
 11
-176.3493649658778
 21
-199.732977232291
 31
0.0
  0
LINE
  5
9C
330
47
100
AcDbEntity
  8
0
  6
Continuous
 62
     7
100
AcDbLine
 10
-176.8573434927701
 20
-195.8335597129365
 30
0.0
 11
-178.212362700936
 21
-194.0873801524746
 31
0.0
  0
LINE
  5
9D
330
47
100
AcDbEntity
  8
0
  6
Continuous
 62
     7
100
AcDbLine
 10
-173.0993649658778
 20
-196.9183946699915
 30
0.0
 11
-176.8573434927701
 21
-195.8335597129365
 31
0.0
  0
LINE
  5
9E
330
47
100
AcDbEntity
  8
0
  6
Continuous
 62
     7
100
AcDbLine
 10
-173.0993649658777
 20
-173.0649429533159
 30
0.0
 11
-172.5993649658778
 21
-172.6319302514235
 31
0.0
  0
LINE
  5
9F
330
47
100
AcDbEntity
  8
0
  6
Continuous
 62
     7
100
AcDbLine
 10
-176.3493649658777
 20
-175.8795255156153
 30
0.0
 11
-173.0993649658777
 21
-173.0649429533159
 31
0.0
  0
LINE
  5
A0
330
47
100
AcDbEntity
  8
0
  6
Continuous
 62
     7
100
AcDbLine
 10
-178.212362700936
 20
-194.0873801524746
 30
0.0
 11
-178.212362700936
 21
-181.421648176782
 31
0.0
  0
LINE
  5
A1
330
47
100
AcDbEntity
  8
0
  6
Continuous
 62
     7
100
AcDbLine
 10
-179.5993649658778
 20
-193.3938790200037
 30
0.0
 11
-178.212362700936
 21
-194.0873801524746
 31
0.0
  0
LINE
  5
A2
330
47
100
AcDbEntity
  8
0
  6
Continuous
 62
     7
100
AcDbLine
 10
-173.0993649658778
 20
-196.9183946699915
 30
0.0
 11
-176.3493649658778
 21
-199.732977232291
 31
0.0
  0
LINE
  5
A3
330
47
100
AcDbEntity
  8
0
  6
Continuous
 62
     7
100
AcDbLine
 10
-179.5993649658778
 20
-198.2082199663702
 30
0.0
 11
-176.8573434927701
 21
-195.8335597129365
 31
0.0
  0
LINE
  5
A4
330
47
100
AcDbEntity
  8
0
  6
Continuous
 62
     7
100
AcDbLine
 10
-173.0993649658778
 20
-196.9183946699915
 30
0.0
 11
-173.0993649658777
 21
-173.0649429533159
 31
0.0
  0
LINE
  5
A5
330
47
100
AcDbEntity
  8
0
  6
Continuous
 62
     7
100
AcDbLine
 10
-172.5993649658778
 20
-172.6319302514235
 30
0.0
 11
-172.5993649658778
 21
-205.4920461674575
 31
0.0
  0
LINE
  5
A6
330
47
100
AcDbEntity
  8
0
  6
Continuous
 62
     7
100
AcDbLine
 10
-176.7134665810155
 20
-209.0549626799173
 30
0.0
 11
-176.7134665810155
 21
-210.3377176430024
 31
0.0
  0
LINE
  5
A7
330
47
100
AcDbEntity
  8
0
  6
Continuous
 62
     7
100
AcDbLine
 10
-190.7229333736616
 20
-210.1617797346042
 30
0.0
 11
-190.9675028362108
 21
-212.0830370407893
 31
0.0
  0
LINE
  5
A8
330
47
100
AcDbEntity
  8
0
  6
Continuous
 62
     7
100
AcDbLine
 10
-176.3493649658778
 20
-208.7396414316491
 30
0.0
 11
-172.5993649658778
 21
-205.4920461674575
 31
0.0
  0
LINE
  5
A9
330
47
100
AcDbEntity
  8
0
  6
Continuous
 62
     7
100
AcDbLine
 10
-178.212362700936
 20
-181.421648176782
 30
0.0
 11
-173.0993649658777
 21
-173.0649429533159
 31
0.0
  0
LINE
  5
AA
330
47
100
AcDbEntity
  8
0
  6
Continuous
 62
     7
100
AcDbLine
 10
-178.6541418298736
 20
-171.2222031156402
 30
0.0
 11
-174.9041418298735
 21
-167.9746078514486
 31
0.0
  0
LINE
  5
AB
330
47
100
AcDbEntity
  8
0
  6
Continuous
 62
     7
100
AcDbLine
 10
-190.1175028362108
 20
-211.3469154475725
 30
0.0
 11
-189.993445862454
 21
-210.3723646400873
 31
0.0
  0
LINE
  5
AC
330
47
100
AcDbEntity
  8
0
  6
Continuous
 62
     7
100
AcDbLine
 10
-188.8890418671282
 20
-210.6911786120851
 30
0.0
 11
-190.7229333736616
 21
-210.1617797346042
 31
0.0
  0
LINE
  5
AD
330
47
100
AcDbEntity
  8
0
  6
Continuous
 62
     7
100
AcDbLine
 10
-188.4560291652359
 20
-211.2491913139773
 30
0.0
 11
-188.8890418671282
 21
-210.6911786120851
 31
0.0
  0
LINE
  5
AE
330
47
100
AcDbEntity
  8
0
  6
Continuous
 62
     7
100
AcDbLine
 10
-188.0230164633437
 20
-210.9411786120851
 30
0.0
 11
-188.4560291652359
 21
-211.2491913139773
 31
0.0
  0
LINE
  5
AF
330
47
100
AcDbEntity
  8
0
  6
Continuous
 62
     7
100
AcDbLine
 10
-187.5900037614515
 20
-211.4991913139773
 30
0.0
 11
-188.0230164633437
 21
-210.9411786120851
 31
0.0
  0
LINE
  5
B0
330
47
100
AcDbEntity
  8
0
  6
Continuous
 62
     7
100
AcDbLine
 10
-187.1569910595593
 20
-211.1911786120851
 30
0.0
 11
-187.5900037614515
 21
-211.4991913139773
 31
0.0
  0
LINE
  5
B1
330
47
100
AcDbEntity
  8
0
  6
Continuous
 62
     7
100
AcDbLine
 10
-186.723978357667
 20
-211.7491913139773
 30
0.0
 11
-187.1569910595593
 21
-211.1911786120851
 31
0.0
  0
LINE
  5
B2
330
47
100
AcDbEntity
  8
0
  6
Continuous
 62
     7
100
AcDbLine
 10
-186.2909656557748
 20
-211.4411786120851
 30
0.0
 11
-186.723978357667
 21
-211.7491913139773
 31
0.0
  0
LINE
  5
B3
330
47
100
AcDbEntity
  8
0
  6
Continuous
 62
     7
100
AcDbLine
 10
-185.8579529538826
 20
-211.9991913139773
 30
0.0
 11
-186.2909656557748
 21
-211.4411786120851
 31
0.0
  0
LINE
  5
B4
330
47
100
AcDbEntity
  8
0
  6
Continuous
 62
     7
100
AcDbLine
 10
-183.2775681961533
 20
-161.8795255156152
 30
0.0
 11
-179.5275681961533
 21
-158.6319302514235
 31
0.0
  0
LINE
  5
B5
330
47
100
AcDbEntity
  8
0
  6
Continuous
 62
     7
100
AcDbLine
 10
-223.4006351550997
 20
-199.4872366958407
 30
0.0
 11
-223.4006351550997
 21
-166.6271207798068
 31
0.0
  0
LINE
  5
B6
330
47
100
AcDbEntity
  8
0
  6
Continuous
 62
     7
100
AcDbLine
 10
-223.4006351550997
 20
-166.6271207798068
 30
0.0
 11
-221.0958582911038
 21
-163.3004619226819
 31
0.0
  0
LINE
  5
B7
330
47
100
AcDbEntity
  8
0
  6
Continuous
 62
     7
100
AcDbLine
 10
-221.0958582911038
 20
-163.3004619226819
 30
0.0
 11
-219.1165486605697
 21
-164.0895415026177
 31
0.0
  0
LINE
  5
B8
330
47
100
AcDbEntity
  8
0
  6
Continuous
 62
     7
100
AcDbLine
 10
-219.2865335399619
 20
-205.2070751464659
 30
0.0
 11
-219.2865335399619
 21
-200.6748755333273
 31
0.0
  0
LINE
  5
B9
330
47
100
AcDbEntity
  8
0
  6
Continuous
 62
     7
100
AcDbLine
 10
-216.0437132169344
 20
-206.1431967396827
 30
0.0
 11
-219.2865335399619
 21
-205.2070751464659
 31
0.0
  0
LINE
  5
BA
330
47
100
AcDbEntity
  8
0
  6
Continuous
 62
     7
100
AcDbLine
 10
-219.3451354021273
 20
-164.4194780445465
 30
0.0
 11
-216.1351354021273
 21
-161.6395364983985
 31
0.0
  0
LINE
  5
BB
330
47
100
AcDbEntity
  8
0
  6
Continuous
 62
     7
100
AcDbLine
 10
-219.1165486605697
 20
-164.0895415026177
 30
0.0
 11
-219.3451354021273
 21
-164.4194780445465
 31
0.0
  0
LINE
  5
BC
330
47
100
AcDbEntity
  8
0
  6
Continuous
 62
     7
100
AcDbLine
 10
-219.1165486605697
 20
-164.0895415026177
 30
0.0
 11
-215.9065486605694
 21
-161.3095999564694
 31
0.0
  0
LINE
  5
BD
330
47
100
AcDbEntity
  8
0
  6
Continuous
 62
     7
100
AcDbLine
 10
-219.3451354021273
 20
-164.4194780445465
 30
0.0
 11
-218.5426354021272
 21
-165.1144634310836
 31
0.0
  0
LINE
  5
BE
330
47
100
AcDbEntity
  8
0
  6
Continuous
 62
     7
100
AcDbLine
 10
-216.8349168042166
 20
-160.7962895864752
 30
0.0
 11
-218.0131071736823
 21
-158.8508939539618
 31
0.0
  0
LINE
  5
BF
330
47
100
AcDbEntity
  8
0
  6
Continuous
 62
     7
100
AcDbLine
 10
-218.0131071736823
 20
-158.8508939539618
 30
0.0
 11
-216.4724319248241
 21
-156.6271207798068
 31
0.0
  0
LINE
  5
C0
330
47
100
AcDbEntity
  8
0
  6
Continuous
 62
     7
100
AcDbLine
 10
-216.5621025232466
 20
-204.2614998293416
 30
0.0
 11
-215.9090344652026
 21
-204.450024338897
 31
0.0
  0
LINE
  5
C1
330
47
100
AcDbEntity
  8
0
  6
Continuous
 62
     7
100
AcDbLine
 10
-216.5621025232466
 20
-204.2614998293416
 30
0.0
 11
-215.7121025232466
 21
-203.5253782361249
 31
0.0
  0
LINE
  5
C2
330
47
100
AcDbEntity
  8
0
  6
Continuous
 62
     7
100
AcDbLine
 10
-215.9090344652026
 20
-204.450024338897
 30
0.0
 11
-215.6492268440673
 21
-204.7848319600324
 31
0.0
  0
LINE
  5
C3
330
47
100
AcDbEntity
  8
0
  6
Continuous
 62
     7
100
AcDbLine
 10
-215.6492268440673
 20
-204.7848319600324
 30
0.0
 11
-214.7992268440673
 21
-204.0487103668156
 31
0.0
  0
LINE
  5
C4
330
47
100
AcDbEntity
  8
0
  6
Continuous
 62
     7
100
AcDbLine
 10
-215.9090344652026
 20
-204.450024338897
 30
0.0
 11
-215.0590344652026
 21
-203.7139027456803
 31
0.0
  0
LINE
  5
C5
330
47
100
AcDbEntity
  8
0
  6
Continuous
 62
     7
100
AcDbLine
 10
-215.6492268440673
 20
-204.7848319600324
 30
0.0
 11
-216.0437132169344
 21
-206.1431967396827
 31
0.0
  0
LINE
  5
C6
330
47
100
AcDbEntity
  8
0
  6
Continuous
 62
     7
100
AcDbLine
 10
-216.0437132169344
 20
-206.1431967396827
 30
0.0
 11
-215.1937132169344
 21
-205.4070751464659
 31
0.0
  0
LINE
  5
C7
330
47
100
AcDbEntity
  8
0
  6
Continuous
 62
     7
100
AcDbLine
 10
-216.3420471670948
 20
-203.0770283982444
 30
0.0
 11
-216.5621025232466
 21
-204.2614998293416
 31
0.0
  0
LINE
  5
C8
330
47
100
AcDbEntity
  8
0
  6
Continuous
 62
     7
100
AcDbLine
 10
-216.606330062659
 20
-160.4663530445465
 30
0.0
 11
-216.8349168042166
 21
-160.7962895864752
 31
0.0
  0
LINE
  5
C9
330
47
100
AcDbEntity
  8
0
  6
Continuous
 62
     7
100
AcDbLine
 10
-216.8349168042166
 20
-160.7962895864752
 30
0.0
 11
-216.5301344821398
 21
-160.5323403529322
 31
0.0
  0
LINE
  5
CA
330
47
100
AcDbEntity
  8
0
  6
Continuous
 62
     2
100
AcDbLine
 10
-217.2658351676233
 20
-160.0847690004417
 30
0.0
 11
-217.3458582911038
 21
-160.0528666584903
 31
0.0
  0
LINE
  5
CB
330
47
100
AcDbEntity
  8
0
  6
Continuous
 62
     7
100
AcDbLine
 10
-215.803830062659
 20
-161.1613384310835
 30
0.0
 11
-216.606330062659
 21
-160.4663530445465
 31
0.0
  0
LINE
  5
CC
330
47
100
AcDbEntity
  8
0
  6
Continuous
 62
     7
100
AcDbLine
 10
-212.7224319248242
 20
-153.3795255156152
 30
0.0
 11
-216.4724319248241
 21
-156.6271207798068
 31
0.0
  0
LINE
  5
CD
330
47
100
AcDbEntity
  8
0
  6
Continuous
 62
     7
100
AcDbLine
 10
-217.3458582911038
 20
-160.0528666584903
 30
0.0
 11
-217.3060403483095
 21
-160.0183833085039
 31
0.0
  0
LINE
  5
CE
330
47
100
AcDbEntity
  8
0
  6
Continuous
 62
     7
100
AcDbLine
 10
-214.7992268440673
 20
-204.0487103668156
 30
0.0
 11
-215.0590344652026
 21
-203.7139027456803
 31
0.0
  0
LINE
  5
CF
330
47
100
AcDbEntity
  8
0
  6
Continuous
 62
     7
100
AcDbLine
 10
-215.1937132169344
 20
-205.4070751464659
 30
0.0
 11
-214.7992268440673
 21
-204.0487103668156
 31
0.0
  0
LINE
  5
D0
330
47
100
AcDbEntity
  8
0
  6
Continuous
 62
     2
100
AcDbLine
 10
-209.7779455519572
 20
-156.0295255156152
 30
0.0
 11
-209.7779455519572
 21
-154.2295255156152
 31
0.0
  0
LINE
  5
D1
330
47
100
AcDbEntity
  8
0
  6
Continuous
 62
     7
100
AcDbLine
 10
-205.7765372409247
 20
-205.9027811524635
 30
0.0
 11
-205.7765372409247
 21
-204.5748755333274
 31
0.0
  0
LINE
  5
D2
330
47
100
AcDbEntity
  8
0
  6
Continuous
 62
     7
100
AcDbLine
 10
-202.4265372409247
 20
-212.6722130587119
 30
0.0
 11
-205.7765372409247
 21
-205.9027811524635
 31
0.0
  0
LINE
  5
D3
330
47
100
AcDbEntity
  8
0
  6
Continuous
 62
     7
100
AcDbLine
 10
-205.2760241274346
 20
-207.4617750023813
 30
0.0
 11
-204.959870574258
 21
-207.5530406718972
 31
0.0
  0
LINE
  5
D4
330
47
100
AcDbEntity
  8
0
  6
Continuous
 62
     2
100
AcDbLine
 10
-209.7779455519572
 20
-154.2295255156152
 30
0.0
 11
-212.7224319248242
 21
-153.3795255156152
 31
0.0
  0
LINE
  5
D5
330
47
100
AcDbEntity
  8
0
  6
Continuous
 62
     7
100
AcDbLine
 10
-212.7224319248242
 20
-153.3795255156152
 30
0.0
 11
-208.9724319248242
 21
-150.1319302514236
 31
0.0
  0
LINE
  5
D6
330
47
100
AcDbEntity
  8
0
  6
Continuous
 62
     7
100
AcDbLine
 10
-218.5426354021272
 20
-165.1144634310836
 30
0.0
 11
-215.803830062659
 21
-161.1613384310835
 31
0.0
  0
LINE
  5
D7
330
47
100
AcDbEntity
  8
0
  6
Continuous
 62
     7
100
AcDbLine
 10
-221.0958582911038
 20
-163.3004619226819
 30
0.0
 11
-217.3458582911038
 21
-160.0528666584903
 31
0.0
  0
LINE
  5
D8
330
47
100
AcDbEntity
  8
0
  6
Continuous
 62
     7
100
AcDbLine
 10
-180.0993649658778
 20
-211.9872366958407
 30
0.0
 11
-176.3493649658778
 21
-208.7396414316491
 31
0.0
  0
LINE
  5
D9
330
47
100
AcDbEntity
  8
0
  6
Continuous
 62
     7
100
AcDbLine
 10
-176.7134665810155
 20
-210.3377176430024
 30
0.0
 11
-177.1438513387449
 21
-210.7104417765976
 31
0.0
  0
LINE
  5
DA
330
47
100
AcDbEntity
  8
0
  6
Continuous
 62
     2
100
AcDbLine
 10
-176.3493649658778
 20
-199.732977232291
 30
0.0
 11
-179.5993649658778
 21
-198.7947830448578
 31
0.0
  0
LINE
  5
DB
330
47
100
AcDbEntity
  8
0
  6
Continuous
 62
     7
100
AcDbLine
 10
-176.3493649658778
 20
-199.732977232291
 30
0.0
 11
-179.5993649658778
 21
-202.5475597945904
 31
0.0
  0
LINE
  5
DC
330
47
100
AcDbEntity
  8
0
  6
Continuous
 62
     7
100
AcDbLine
 10
-179.5993649658777
 20
-178.6941080779148
 30
0.0
 11
-176.3493649658777
 21
-175.8795255156153
 31
0.0
  0
LINE
  5
DD
330
47
100
AcDbEntity
  8
0
  6
Continuous
 62
     7
100
AcDbLine
 10
-176.8834514604078
 20
-167.6209324833859
 30
0.0
 11
-174.9041418298735
 21
-167.9746078514486
 31
0.0
  0
LINE
  5
DE
330
47
100
AcDbEntity
  8
0
  6
Continuous
 62
     2
100
AcDbLine
 10
-178.6541418298736
 20
-171.2222031156402
 30
0.0
 11
-180.6334514604078
 21
-170.8685277475776
 31
0.0
  0
LINE
  5
DF
330
47
100
AcDbEntity
  8
0
  6
Continuous
 62
     7
100
AcDbLine
 10
-191.5737206188599
 20
-214.7659208732779
 30
0.0
 11
-190.9675028362108
 21
-214.9409208732779
 31
0.0
  0
LINE
  5
E0
330
47
100
AcDbEntity
  8
0
  6
Continuous
 62
     7
100
AcDbLine
 10
-191.5737206188599
 20
-214.7659208732779
 30
0.0
 11
-190.7237206188599
 21
-214.0297992800611
 31
0.0
  0
LINE
  5
E1
330
47
100
AcDbEntity
  8
0
  6
Continuous
 62
     2
100
AcDbLine
 10
-179.5993649658778
 20
-181.1913393249668
 30
0.0
 11
-176.3493649658777
 21
-175.8795255156153
 31
0.0
  0
LINE
  5
E2
330
47
100
AcDbEntity
  8
0
  6
Continuous
 62
     2
100
AcDbLine
 10
-192.4574374762683
 20
-161.0295255156152
 30
0.0
 11
-192.4574374762683
 21
-159.2295255156152
 31
0.0
  0
LINE
  5
E3
330
47
100
AcDbEntity
  8
0
  6
Continuous
 62
     2
100
AcDbLine
 10
-183.2775681961533
 20
-161.8795255156152
 30
0.0
 11
-186.2220545690203
 21
-161.0295255156152
 31
0.0
  0
LINE
  5
E4
330
47
100
AcDbEntity
  8
0
  6
Continuous
 62
     7
100
AcDbLine
 10
-179.5275681961533
 20
-158.6319302514235
 30
0.0
 11
-177.9868929472952
 21
-161.7452126952404
 31
0.0
  0
LINE
  5
E5
330
47
100
AcDbEntity
  8
0
  6
Continuous
 62
     7
100
AcDbLine
 10
-182.3384665810155
 20
-215.2091105392899
 30
0.0
 11
-181.4438513387448
 21
-215.4673637147629
 31
0.0
  0
LINE
  5
E6
330
47
100
AcDbEntity
  8
0
  6
Continuous
 62
     7
100
AcDbLine
 10
-180.5938513387449
 20
-214.7312421215462
 30
0.0
 11
-181.4438513387448
 21
-215.4673637147629
 31
0.0
  0
LINE
  5
E7
330
47
100
AcDbEntity
  8
0
  6
Continuous
 62
     7
100
AcDbLine
 10
-181.4438513387448
 20
-215.4673637147629
 30
0.0
 11
-181.4438513387448
 21
-211.5991169111925
 31
0.0
  0
LINE
  5
E8
330
47
100
AcDbEntity
  8
0
  6
Continuous
 62
     7
100
AcDbLine
 10
-182.0634665810155
 20
-214.9709535532492
 30
0.0
 11
-182.0634665810155
 21
-211.420249397733
 31
0.0
  0
LINE
  5
E9
330
47
100
AcDbEntity
  8
0
  6
Continuous
 62
     7
100
AcDbLine
 10
-177.9868929472952
 20
-161.7452126952404
 30
0.0
 11
-179.1650833167608
 21
-163.0103798007863
 31
0.0
  0
LINE
  5
EA
330
47
100
AcDbEntity
  8
0
  6
Continuous
 62
     7
100
AcDbLine
 10
-190.9675028362108
 20
-212.0830370407893
 30
0.0
 11
-190.1175028362108
 21
-211.3469154475725
 31
0.0
  0
LINE
  5
EB
330
47
100
AcDbEntity
  8
0
  6
Continuous
 62
     7
100
AcDbLine
 10
-190.1175028362108
 20
-212.7325560936276
 30
0.0
 11
-190.1175028362108
 21
-211.3469154475725
 31
0.0
  0
LINE
  5
EC
330
47
100
AcDbEntity
  8
0
  6
Continuous
 62
     7
100
AcDbLine
 10
-190.3959638052935
 20
-215.1636450068731
 30
0.0
 11
-190.1175028362108
 21
-214.2047992800611
 31
0.0
  0
LINE
  5
ED
330
47
100
AcDbEntity
  8
0
  6
Continuous
 62
     7
100
AcDbLine
 10
-182.9134665810155
 20
-211.1748755333274
 30
0.0
 11
-182.9134665810155
 21
-215.7070751464659
 31
0.0
  0
LINE
  5
EE
330
47
100
AcDbEntity
  8
0
  6
Continuous
 62
     7
100
AcDbLine
 10
-190.9675028362108
 20
-213.4686776868444
 30
0.0
 11
-190.1175028362108
 21
-212.7325560936276
 31
0.0
  0
LINE
  5
EF
330
47
100
AcDbEntity
  8
0
  6
Continuous
 62
     7
100
AcDbLine
 10
-190.7237206188599
 20
-214.0297992800611
 30
0.0
 11
-190.8817485461605
 21
-213.3944122931773
 31
0.0
  0
LINE
  5
F0
330
47
100
AcDbEntity
  8
0
  6
Continuous
 62
     7
100
AcDbLine
 10
-190.9675028362108
 20
-214.9409208732779
 30
0.0
 11
-190.1175028362108
 21
-214.2047992800611
 31
0.0
  0
LINE
  5
F1
330
47
100
AcDbEntity
  8
0
  6
Continuous
 62
     7
100
AcDbLine
 10
-190.1175028362108
 20
-214.2047992800611
 30
0.0
 11
-190.7237206188599
 21
-214.0297992800611
 31
0.0
  0
LINE
  5
F2
330
47
100
AcDbEntity
  8
0
  6
Continuous
 62
     7
100
AcDbLine
 10
-190.9675028362108
 20
-212.0830370407893
 30
0.0
 11
-190.9675028362108
 21
-213.4686776868444
 31
0.0
  0
LINE
  5
F3
330
47
100
AcDbEntity
  8
0
  6
Continuous
 62
     7
100
AcDbLine
 10
-185.0921852889053
 20
-215.0781332302216
 30
0.0
 11
-185.8579529538826
 21
-211.9991913139773
 31
0.0
  0
LINE
  5
F4
330
47
100
AcDbEntity
  8
0
  6
Continuous
 62
     2
100
AcDbLine
 10
-181.7368929472952
 20
-164.9928079594321
 30
0.0
 11
-183.2775681961533
 21
-161.8795255156152
 31
0.0
  0
LINE
  5
F5
330
47
100
AcDbEntity
  8
0
  6
Continuous
 62
     7
100
AcDbLine
 10
-181.7368929472952
 20
-164.9928079594321
 30
0.0
 11
-177.9868929472952
 21
-161.7452126952404
 31
0.0
  0
LINE
  5
F6
330
47
100
AcDbEntity
  8
0
  6
Continuous
 62
     7
100
AcDbLine
 10
-187.0275681961533
 20
-165.1271207798068
 30
0.0
 11
-183.2775681961533
 21
-161.8795255156152
 31
0.0
  0
LINE
  5
F7
330
47
100
AcDbEntity
  8
0
  6
Continuous
 62
     7
100
AcDbLine
 10
-186.6650833167608
 20
-169.5055703291696
 30
0.0
 11
-182.9150833167608
 21
-166.2579750649779
 31
0.0
  0
LINE
  5
F8
330
47
100
AcDbEntity
  8
0
  6
Continuous
 62
     7
100
AcDbLine
 10
-187.0275681961533
 20
-165.1271207798068
 30
0.0
 11
-185.4868929472952
 21
-168.2404032236237
 31
0.0
  0
LINE
  5
F9
330
47
100
AcDbEntity
  8
0
  6
Continuous
 62
     2
100
AcDbLine
 10
-181.2754514604073
 20
-171.4245160568067
 30
0.0
 11
-183.557083316761
 21
-166.8139633742077
 31
0.0
  0
LINE
  5
FA
330
47
100
AcDbEntity
  8
0
  6
Continuous
 62
     7
100
AcDbLine
 10
-185.4868929472952
 20
-168.2404032236237
 30
0.0
 11
-181.7368929472952
 21
-164.9928079594321
 31
0.0
  0
LINE
  5
FB
330
47
100
AcDbEntity
  8
0
  6
Continuous
 62
     2
100
AcDbLine
 10
-182.9150833167608
 20
-166.2579750649779
 30
0.0
 11
-181.7368929472952
 21
-164.9928079594321
 31
0.0
  0
LINE
  5
FC
330
47
100
AcDbEntity
  8
0
  6
Continuous
 62
     7
100
AcDbLine
 10
-182.9150833167608
 20
-166.2579750649779
 30
0.0
 11
-179.1650833167608
 21
-163.0103798007863
 31
0.0
  0
LINE
  5
FD
330
47
100
AcDbEntity
  8
0
  6
Continuous
 62
     7
100
AcDbLine
 10
-179.807083316761
 20
-163.566368110016
 30
0.0
 11
-177.5254514604073
 21
-168.1769207926151
 31
0.0
  0
LINE
  5
FE
330
47
100
AcDbEntity
  8
0
  6
Continuous
 62
     7
100
AcDbLine
 10
-186.8936700583185
 20
-169.0436591704694
 30
0.0
 11
-187.6961700583188
 21
-169.2753209659818
 31
0.0
  0
LINE
  5
FF
330
47
100
AcDbEntity
  8
0
  6
Continuous
 62
     7
100
AcDbLine
 10
-184.1548647188503
 20
-174.5780341704694
 30
0.0
 11
-184.3834514604078
 21
-174.1161230117692
 31
0.0
  0
LINE
  5
100
330
47
100
AcDbEntity
  8
0
  6
Continuous
 62
     7
100
AcDbLine
 10
-184.3834514604078
 20
-174.1161230117692
 30
0.0
 11
-182.4041418298735
 21
-174.4697983798319
 31
0.0
  0
LINE
  5
101
330
47
100
AcDbEntity
  8
0
  6
Continuous
 62
     7
100
AcDbLine
 10
-184.3834514604078
 20
-174.1161230117692
 30
0.0
 11
-180.6334514604078
 21
-170.8685277475776
 31
0.0
  0
LINE
  5
102
330
47
100
AcDbEntity
  8
0
  6
Continuous
 62
     7
100
AcDbLine
 10
-182.4041418298735
 20
-174.4697983798319
 30
0.0
 11
-178.6541418298736
 21
-171.2222031156402
 31
0.0
  0
LINE
  5
103
330
47
100
AcDbEntity
  8
0
  6
Continuous
 62
     7
100
AcDbLine
 10
-177.1438513387449
 20
-209.4276868135125
 30
0.0
 11
-177.1438513387449
 21
-211.7434544784898
 31
0.0
  0
LINE
  5
104
330
47
100
AcDbEntity
  8
0
  6
Continuous
 62
     7
100
AcDbLine
 10
-177.9938513387449
 20
-210.1638084067293
 30
0.0
 11
-177.9938513387449
 21
-212.4795760717066
 31
0.0
  0
LINE
  5
105
330
47
100
AcDbEntity
  8
0
  6
Continuous
 62
     7
100
AcDbLine
 10
-177.9938513387449
 20
-212.4795760717066
 30
0.0
 11
-177.1438513387449
 21
-211.7434544784898
 31
0.0
  0
LINE
  5
106
330
47
100
AcDbEntity
  8
0
  6
Continuous
 62
     7
100
AcDbLine
 10
-182.4041418298735
 20
-174.4697983798319
 30
0.0
 11
-180.0993649658778
 21
-179.1271207798068
 31
0.0
  0
LINE
  5
107
330
47
100
AcDbEntity
  8
0
  6
Continuous
 62
     7
100
AcDbLine
 10
-178.212362700936
 20
-181.421648176782
 30
0.0
 11
-179.5993649658778
 21
-183.2984814873874
 31
0.0
  0
LINE
  5
108
330
47
100
AcDbEntity
  8
0
  6
Continuous
 62
     7
100
AcDbLine
 10
-186.6650833167608
 20
-169.5055703291696
 30
0.0
 11
-186.8936700583185
 21
-169.0436591704694
 31
0.0
  0
LINE
  5
109
330
47
100
AcDbEntity
  8
0
  6
Continuous
 62
     7
100
AcDbLine
 10
-185.4868929472952
 20
-168.2404032236237
 30
0.0
 11
-186.6650833167608
 21
-169.5055703291696
 31
0.0
  0
LINE
  5
10A
330
47
100
AcDbEntity
  8
0
  6
Continuous
 62
     7
100
AcDbLine
 10
-180.6334514604078
 20
-170.8685277475776
 30
0.0
 11
-176.8834514604078
 21
-167.6209324833859
 31
0.0
  0
LINE
  5
10B
330
47
100
AcDbEntity
  8
0
  6
Continuous
 62
     7
100
AcDbLine
 10
-180.0993649658778
 20
-179.1271207798068
 30
0.0
 11
-180.0993649658778
 21
-211.9872366958407
 31
0.0
  0
LINE
  5
10C
330
47
100
AcDbEntity
  8
0
  6
Continuous
 62
     7
100
AcDbLine
 10
-179.5993649658777
 20
-178.6941080779148
 30
0.0
 11
-179.5993649658778
 21
-202.5475597945904
 31
0.0
  0
LINE
  5
10D
330
47
100
AcDbEntity
  8
0
  6
Continuous
 62
     7
100
AcDbLine
 10
-180.0993649658778
 20
-179.1271207798068
 30
0.0
 11
-179.5993649658777
 21
-178.6941080779148
 31
0.0
  0
LINE
  5
10E
330
47
100
AcDbEntity
  8
0
  6
Continuous
 62
     7
100
AcDbLine
 10
-184.9573647188503
 20
-174.8096959659818
 30
0.0
 11
-184.1548647188503
 21
-174.5780341704694
 31
0.0
  0
LINE
  5
10F
330
47
100
AcDbEntity
  8
0
  6
Continuous
 62
     7
100
AcDbLine
 10
-184.9573647188503
 20
-174.8096959659818
 30
0.0
 11
-184.31536471885
 21
-174.2537076567525
 31
0.0
  0
LINE
  5
110
330
47
100
AcDbEntity
  8
0
  6
Continuous
 62
     7
100
AcDbLine
 10
-186.1080717318073
 20
-211.7625504342663
 30
0.0
 11
-185.7235626421508
 21
-212.5395379267329
 31
0.0
  0
LINE
  5
111
330
47
100
AcDbEntity
  8
0
  6
Continuous
 62
     7
100
AcDbLine
 10
-180.5938513387449
 20
-211.8444907755981
 30
0.0
 11
-180.5938513387449
 21
-214.7312421215462
 31
0.0
  0
LINE
  5
112
330
47
100
AcDbEntity
  8
0
  6
Continuous
 62
     7
100
AcDbLine
 10
-177.9938513387449
 20
-212.4795760717066
 30
0.0
 11
-179.9993649658778
 21
-211.9006341554623
 31
0.0
  0
LINE
  5
113
330
47
100
AcDbEntity
  8
0
  6
Continuous
 62
     7
100
AcDbLine
 10
-191.968206991727
 20
-213.1797992800611
 30
0.0
 11
-191.5737206188599
 21
-214.7659208732779
 31
0.0
  0
LINE
  5
114
330
47
100
AcDbEntity
  8
0
  6
Continuous
 62
     7
100
AcDbLine
 10
-187.6961700583188
 20
-169.2753209659818
 30
0.0
 11
-184.9573647188503
 21
-174.8096959659818
 31
0.0
  0
LINE
  5
115
330
47
100
AcDbEntity
  8
0
  6
Continuous
 62
     7
100
AcDbLine
 10
-180.0993649658778
 20
-211.9872366958407
 30
0.0
 11
-223.4006351550997
 21
-199.4872366958407
 31
0.0
  0
SPLINE
  5
116
330
47
100
AcDbEntity
  8
0
  6
Continuous
 62
     7
100
AcDbSpline
210
0.0
220
0.0
230
1.0
 70
     8
 71
     3
 72
    19
 73
    15
 74
    13
 42
0.000000001
 43
0.0000000001
 44
0.00000001
 40
0.0
 40
0.0
 40
0.0
 40
0.0
 40
0.561000340674932
 40
1.204489318960827
 40
1.917090285273535
 40
2.677566643934221
 40
3.460149762754758
 40
4.237159256948583
 40
4.981387232665505
 40
5.668537984183341
 40
6.280056123951746
 40
6.806949518942865
 40
7.255518035565956
 40
7.654345516187218
 40
7.654345516187218
 40
7.654345516187218
 40
7.654345516187218
 10
-201.1176915141127
 20
-156.7295255156152
 30
0.0
 10
-200.9668740525002
 20
-156.6179416219374
 30
0.0
 10
-200.6430631520233
 20
-156.3783667191773
 30
0.0
 10
-200.0466717804814
 20
-156.1341787350941
 30
0.0
 10
-199.3653730858763
 20
-155.9482479909063
 30
0.0
 10
-198.6188641233224
 20
-155.8422882204762
 30
0.0
 10
-197.8445589179821
 20
-155.8171497335578
 30
0.0
 10
-197.0772693594286
 20
-155.8751993037971
 30
0.0
 10
-196.3523362813184
 20
-156.0133852885885
 30
0.0
 10
-195.7034015761541
 20
-156.2254198576337
 30
0.0
 10
-195.1565829900757
 20
-156.5021403967833
 30
0.0
 10
-194.742551463826
 20
-156.8334602203274
 30
0.0
 10
-194.4572867838822
 20
-157.2121249890606
 30
0.0
 10
-194.4183334624917
 20
-157.4959452991594
 30
0.0
 10
-194.4000000604887
 20
-157.6295255156152
 30
0.0
 11
-201.1176915141127
 21
-156.7295255156152
 31
0.0
 11
-200.6541982360912
 21
-156.4134632504528
 31
0.0
 11
-200.0648752313525
 21
-156.155051835895
 31
0.0
 11
-199.3776602940329
 21
-155.9665425055329
 31
0.0
 11
-198.6251335000896
 21
-155.8568715601932
 31
0.0
 11
-197.84297027999
 21
-155.8312388772831
 31
0.0
 11
-197.0682514981197
 21
-155.8908590282949
 31
0.0
 11
-196.3377052012193
 21
-156.0329061584088
 31
0.0
 11
-195.6859646656172
 21
-156.2506455180011
 31
0.0
 11
-195.1439282903735
 21
-156.5337550412081
 31
0.0
 11
-194.7372920271567
 21
-156.8688126444819
 31
0.0
 11
-194.4853347485763
 21
-157.2399342453016
 31
0.0
 11
-194.4000000604887
 21
-157.6295255156152
 31
0.0
  0
SPLINE
  5
117
330
47
100
AcDbEntity
  8
0
  6
Continuous
 62
     7
100
AcDbSpline
210
0.0
220
0.0
230
1.0
 70
     8
 71
     3
 72
    11
 73
     7
 74
     5
 42
0.000000001
 43
0.0000000001
 44
0.00000001
 40
0.0
 40
0.0
 40
0.0
 40
0.0
 40
0.2369571870286523
 40
0.4854871938170898
 40
0.7549704008926127
 40
1.051569638803579
 40
1.051569638803579
 40
1.051569638803579
 40
1.051569638803579
 10
-194.4000000604887
 20
-157.6295255156152
 30
0.0
 10
-194.4061593167487
 20
-157.7087349229574
 30
0.0
 10
-194.4187786576268
 20
-157.8710222664241
 30
0.0
 10
-194.5188302462809
 20
-158.1058901398864
 30
0.0
 10
-194.6719688449716
 20
-158.3321771963516
 30
0.0
 10
-194.8099915315954
 20
-158.4616750450427
 30
0.0
 10
-194.8823086068647
 20
-158.5295255156152
 30
0.0
 11
-194.4000000604887
 21
-157.6295255156152
 31
0.0
 11
-194.4307985744009
 21
-157.8644726606333
 31
0.0
 11
-194.5226670858481
 21
-158.0953997967997
 31
0.0
 11
-194.6740337572934
 21
-158.3183556910049
 31
0.0
 11
-194.8823086068647
 21
-158.5295255156152
 31
0.0
  0
SPLINE
  5
118
330
47
100
AcDbEntity
  8
0
  6
Continuous
 62
     7
100
AcDbSpline
210
0.0
220
0.0
230
1.0
 70
     8
 71
     3
 72
    19
 73
    15
 74
    13
 42
0.000000001
 43
0.0000000001
 44
0.00000001
 40
0.0
 40
0.0
 40
0.0
 40
0.0
 40
0.5610003406749949
 40
1.204489318960879
 40
1.917090285273544
 40
2.67756664393421
 40
3.460149762754747
 40
4.237159256948628
 40
4.981387232665634
 40
5.668537984183389
 40
6.280056123951795
 40
6.806949518942892
 40
7.255518035565983
 40
7.65434551618719
 40
7.65434551618719
 40
7.65434551618719
 40
7.65434551618719
 10
-194.8823086068647
 20
-158.5295255156152
 30
0.0
 10
-195.0331260684773
 20
-158.641109409293
 30
0.0
 10
-195.3569369689541
 20
-158.8806843120531
 30
0.0
 10
-195.9533283404961
 20
-159.1248722961364
 30
0.0
 10
-196.6346270351011
 20
-159.3108030403239
 30
0.0
 10
-197.3811359976551
 20
-159.4167628107543
 30
0.0
 10
-198.1554412029953
 20
-159.4419012976726
 30
0.0
 10
-198.9227307615488
 20
-159.3838517274333
 30
0.0
 10
-199.6476638396591
 20
-159.245665742642
 30
0.0
 10
-200.2965985448233
 20
-159.0336311735966
 30
0.0
 10
-200.8434171309018
 20
-158.7569106344471
 30
0.0
 10
-201.2574486571515
 20
-158.4255908109029
 30
0.0
 10
-201.5427133370952
 20
-158.0469260421697
 30
0.0
 10
-201.5816666584857
 20
-157.763105732071
 30
0.0
 10
-201.6000000604887
 20
-157.6295255156152
 30
0.0
 11
-194.8823086068647
 21
-158.5295255156152
 31
0.0
 11
-195.3458018848863
 21
-158.8455877807776
 31
0.0
 11
-195.9351248896249
 21
-159.1039991953354
 31
0.0
 11
-196.6223398269445
 21
-159.2925085256975
 31
0.0
 11
-197.3748666208878
 21
-159.4021794710372
 31
0.0
 11
-198.1570298409874
 21
-159.4278121539473
 31
0.0
 11
-198.9317486228578
 21
-159.3681920029355
 31
0.0
 11
-199.6622949197583
 21
-159.2261448728216
 31
0.0
 11
-200.3140354553603
 21
-159.0084055132293
 31
0.0
 11
-200.8560718306039
 21
-158.7252959900223
 31
0.0
 11
-201.2627080938207
 21
-158.3902383867484
 31
0.0
 11
-201.5146653724011
 21
-158.0191167859288
 31
0.0
 11
-201.6000000604887
 21
-157.6295255156152
 31
0.0
  0
SPLINE
  5
119
330
47
100
AcDbEntity
  8
0
  6
Continuous
 62
     7
100
AcDbSpline
210
0.0
220
0.0
230
1.0
 70
     8
 71
     3
 72
    11
 73
     7
 74
     5
 42
0.000000001
 43
0.0000000001
 44
0.00000001
 40
0.0
 40
0.0
 40
0.0
 40
0.0
 40
0.236957187028645
 40
0.4854871938170719
 40
0.7549704008926108
 40
1.051569638803617
 40
1.051569638803617
 40
1.051569638803617
 40
1.051569638803617
 10
-201.6000000604887
 20
-157.6295255156152
 30
0.0
 10
-201.5938408042287
 20
-157.550316108273
 30
0.0
 10
-201.5812214633506
 20
-157.3880287648063
 30
0.0
 10
-201.4811698746967
 20
-157.153160891344
 30
0.0
 10
-201.328031276006
 20
-156.9268738348788
 30
0.0
 10
-201.190008589382
 20
-156.7973759861877
 30
0.0
 10
-201.1176915141127
 20
-156.7295255156152
 30
0.0
 11
-201.6000000604887
 21
-157.6295255156152
 31
0.0
 11
-201.5692015465766
 21
-157.3945783705971
 31
0.0
 11
-201.4773330351294
 21
-157.1636512344307
 31
0.0
 11
-201.325966363684
 21
-156.9406953402255
 31
0.0
 11
-201.1176915141127
 21
-156.7295255156152
 31
0.0
  0
SPLINE
  5
11A
330
47
100
AcDbEntity
  8
0
  6
Continuous
 62
     7
100
AcDbSpline
210
0.0
220
0.0
230
1.0
 70
     8
 71
     3
 72
    19
 73
    15
 74
    13
 42
0.000000001
 43
0.0000000001
 44
0.00000001
 40
0.0
 40
0.0
 40
0.0
 40
0.0
 40
0.3988274806212812
 40
0.8473959972443565
 40
1.374289392235453
 40
1.985807532003859
 40
2.672958283521658
 40
3.417186259238587
 40
4.194195753432381
 40
4.976778872253002
 40
5.737255230913695
 40
6.449856197226322
 40
7.093345175512194
 40
7.65434551618715
 40
7.65434551618715
 40
7.65434551618715
 40
7.65434551618715
 10
-185.7397460226443
 20
-160.1295255156152
 30
0.0
 10
-185.7580794246473
 20
-159.9959452991594
 30
0.0
 10
-185.7970327460379
 20
-159.7121249890607
 30
0.0
 10
-186.0822974259816
 20
-159.3334602203274
 30
0.0
 10
-186.4963289522312
 20
-159.0021403967833
 30
0.0
 10
-187.0431475383098
 20
-158.7254198576337
 30
0.0
 10
-187.6920822434741
 20
-158.5133852885885
 30
0.0
 10
-188.4170153215841
 20
-158.375199303797
 30
0.0
 10
-189.1843048801378
 20
-158.3171497335579
 30
0.0
 10
-189.958610085478
 20
-158.3422882204761
 30
0.0
 10
-190.7051190480319
 20
-158.4482479909064
 30
0.0
 10
-191.386417742637
 20
-158.6341787350941
 30
0.0
 10
-191.9828091141789
 20
-158.8783667191773
 30
0.0
 10
-192.3066200146557
 20
-159.1179416219374
 30
0.0
 10
-192.4574374762683
 20
-159.2295255156152
 30
0.0
 11
-185.7397460226443
 21
-160.1295255156152
 31
0.0
 11
-185.825080710732
 21
-159.7399342453016
 31
0.0
 11
-186.0770379893124
 21
-159.3688126444819
 31
0.0
 11
-186.4836742525291
 21
-159.0337550412081
 31
0.0
 11
-187.0257106277728
 21
-158.7506455180011
 31
0.0
 11
-187.6774511633749
 21
-158.5329061584088
 31
0.0
 11
-188.4079974602753
 21
-158.3908590282949
 31
0.0
 11
-189.1827162421456
 21
-158.3312388772831
 31
0.0
 11
-189.9648794622453
 21
-158.3568715601932
 31
0.0
 11
-190.7174062561886
 21
-158.4665425055329
 31
0.0
 11
-191.4046211935081
 21
-158.6550518358951
 31
0.0
 11
-191.9939441982468
 21
-158.9134632504528
 31
0.0
 11
-192.4574374762683
 21
-159.2295255156152
 31
0.0
  0
SPLINE
  5
11B
330
47
100
AcDbEntity
  8
0
  6
Continuous
 62
     7
100
AcDbSpline
210
0.0
220
0.0
230
1.0
 70
     8
 71
     3
 72
    11
 73
     7
 74
     5
 42
0.000000001
 43
0.0000000001
 44
0.00000001
 40
0.0
 40
0.0
 40
0.0
 40
0.0
 40
0.2965992379110066
 40
0.5660824449865454
 40
0.8146124517749459
 40
1.051569638803619
 40
1.051569638803619
 40
1.051569638803619
 40
1.051569638803619
 10
-192.4574374762683
 20
-159.2295255156152
 30
0.0
 10
-192.5297545515376
 20
-159.2973759861877
 30
0.0
 10
-192.6677772381614
 20
-159.4268738348787
 30
0.0
 10
-192.8209158368524
 20
-159.6531608913441
 30
0.0
 10
-192.9209674255062
 20
-159.8880287648062
 30
0.0
 10
-192.9335867663843
 20
-160.050316108273
 30
0.0
 10
-192.9397460226443
 20
-160.1295255156152
 30
0.0
 11
-192.4574374762683
 21
-159.2295255156152
 31
0.0
 11
-192.6657123258396
 21
-159.4406953402255
 31
0.0
 11
-192.817078997285
 21
-159.6636512344307
 31
0.0
 11
-192.9089475087322
 21
-159.8945783705971
 31
0.0
 11
-192.9397460226443
 21
-160.1295255156152
 31
0.0
  0
SPLINE
  5
11C
330
47
100
AcDbEntity
  8
0
  6
Continuous
 62
     7
100
AcDbSpline
210
0.0
220
0.0
230
1.0
 70
     8
 71
     3
 72
    19
 73
    15
 74
    13
 42
0.000000001
 43
0.0000000001
 44
0.00000001
 40
0.0
 40
0.0
 40
0.0
 40
0.0
 40
0.3988274806212908
 40
0.8473959972443743
 40
1.374289392235471
 40
1.985807532003851
 40
2.672958283521632
 40
3.417186259238611
 40
4.194195753432436
 40
4.976778872253001
 40
5.737255230913666
 40
6.449856197226332
 40
7.093345175512241
 40
7.654345516187236
 40
7.654345516187236
 40
7.654345516187236
 40
7.654345516187236
 10
-192.9397460226443
 20
-160.1295255156152
 30
0.0
 10
-192.9214126206413
 20
-160.263105732071
 30
0.0
 10
-192.8824592992509
 20
-160.5469260421698
 30
0.0
 10
-192.597194619307
 20
-160.9255908109029
 30
0.0
 10
-192.1831630930574
 20
-161.2569106344471
 30
0.0
 10
-191.6363445069789
 20
-161.5336311735967
 30
0.0
 10
-190.9874098018147
 20
-161.745665742642
 30
0.0
 10
-190.2624767237044
 20
-161.8838517274333
 30
0.0
 10
-189.4951871651509
 20
-161.9419012976726
 30
0.0
 10
-188.7208819598106
 20
-161.9167628107542
 30
0.0
 10
-187.9743729972568
 20
-161.810803040324
 30
0.0
 10
-187.2930743026517
 20
-161.6248722961364
 30
0.0
 10
-186.6966829311097
 20
-161.3806843120532
 30
0.0
 10
-186.3728720306329
 20
-161.141109409293
 30
0.0
 10
-186.2220545690203
 20
-161.0295255156152
 30
0.0
 11
-192.9397460226443
 21
-160.1295255156152
 31
0.0
 11
-192.8544113345567
 21
-160.5191167859289
 31
0.0
 11
-192.6024540559762
 21
-160.8902383867485
 31
0.0
 11
-192.1958177927595
 21
-161.2252959900223
 31
0.0
 11
-191.6537814175159
 21
-161.5084055132293
 31
0.0
 11
-191.0020408819138
 21
-161.7261448728216
 31
0.0
 11
-190.2714945850134
 21
-161.8681920029355
 31
0.0
 11
-189.496775803143
 21
-161.9278121539473
 31
0.0
 11
-188.7146125830434
 21
-161.9021794710372
 31
0.0
 11
-187.9620857891001
 21
-161.7925085256975
 31
0.0
 11
-187.2748708517805
 21
-161.6039991953354
 31
0.0
 11
-186.6855478470418
 21
-161.3455877807776
 31
0.0
 11
-186.2220545690203
 21
-161.0295255156152
 31
0.0
  0
SPLINE
  5
11D
330
47
100
AcDbEntity
  8
0
  6
Continuous
 62
     7
100
AcDbSpline
210
0.0
220
0.0
230
1.0
 70
     8
 71
     3
 72
    11
 73
     7
 74
     5
 42
0.000000001
 43
0.0000000001
 44
0.00000001
 40
0.0
 40
0.0
 40
0.0
 40
0.0
 40
0.2965992379109866
 40
0.5660824449864935
 40
0.814612451774931
 40
1.051569638803583
 40
1.051569638803583
 40
1.051569638803583
 40
1.051569638803583
 10
-203.5425626447091
 20
-156.0295255156152
 30
0.0
 10
-203.4702455694397
 20
-155.9616750450427
 30
0.0
 10
-203.332222882816
 20
-155.8321771963517
 30
0.0
 10
-203.1790842841252
 20
-155.6058901398863
 30
0.0
 10
-203.0790326954712
 20
-155.3710222664241
 30
0.0
 10
-203.0664133545932
 20
-155.2087349229573
 30
0.0
 10
-203.0602540983331
 20
-155.1295255156152
 30
0.0
 11
-203.5425626447091
 21
-156.0295255156152
 31
0.0
 11
-203.3342877951378
 21
-155.8183556910049
 31
0.0
 11
-203.1829211236925
 21
-155.5953997967997
 31
0.0
 11
-203.0910526122453
 21
-155.3644726606333
 31
0.0
 11
-203.0602540983331
 21
-155.1295255156152
 31
0.0
  0
SPLINE
  5
11E
330
47
100
AcDbEntity
  8
0
  6
Continuous
 62
     7
100
AcDbSpline
210
0.0
220
0.0
230
1.0
 70
     8
 71
     3
 72
    19
 73
    15
 74
    13
 42
0.000000001
 43
0.0000000001
 44
0.00000001
 40
0.0
 40
0.0
 40
0.0
 40
0.0
 40
0.3988274806212352
 40
0.8473959972443029
 40
1.374289392235444
 40
1.985807532003875
 40
2.67295828352163
 40
3.41718625923858
 40
4.194195753432403
 40
4.976778872252968
 40
5.73725523091363
 40
6.449856197226284
 40
7.093345175512219
 40
7.654345516187159
 40
7.654345516187159
 40
7.654345516187159
 40
7.654345516187159
 10
-210.2602540983331
 20
-155.1295255156152
 30
0.0
 10
-210.2419206963301
 20
-155.263105732071
 30
0.0
 10
-210.2029673749396
 20
-155.5469260421698
 30
0.0
 10
-209.9177026949958
 20
-155.9255908109029
 30
0.0
 10
-209.5036711687462
 20
-156.2569106344471
 30
0.0
 10
-208.9568525826677
 20
-156.5336311735967
 30
0.0
 10
-208.3079178775034
 20
-156.745665742642
 30
0.0
 10
-207.5829847993932
 20
-156.8838517274333
 30
0.0
 10
-206.8156952408397
 20
-156.9419012976726
 30
0.0
 10
-206.0413900354994
 20
-156.9167628107542
 30
0.0
 10
-205.2948810729456
 20
-156.810803040324
 30
0.0
 10
-204.6135823783404
 20
-156.6248722961363
 30
0.0
 10
-204.0171910067986
 20
-156.3806843120531
 30
0.0
 10
-203.6933801063217
 20
-156.141109409293
 30
0.0
 10
-203.5425626447091
 20
-156.0295255156152
 30
0.0
 11
-210.2602540983331
 21
-155.1295255156152
 31
0.0
 11
-210.1749194102455
 21
-155.5191167859288
 31
0.0
 11
-209.9229621316651
 21
-155.8902383867484
 31
0.0
 11
-209.5163258684483
 21
-156.2252959900223
 31
0.0
 11
-208.9742894932046
 21
-156.5084055132293
 31
0.0
 11
-208.3225489576026
 21
-156.7261448728216
 31
0.0
 11
-207.5920026607022
 21
-156.8681920029355
 31
0.0
 11
-206.8172838788318
 21
-156.9278121539473
 31
0.0
 11
-206.0351206587322
 21
-156.9021794710372
 31
0.0
 11
-205.2825938647889
 21
-156.7925085256975
 31
0.0
 11
-204.5953789274694
 21
-156.6039991953353
 31
0.0
 11
-204.0060559227306
 21
-156.3455877807775
 31
0.0
 11
-203.5425626447091
 21
-156.0295255156152
 31
0.0
  0
SPLINE
  5
11F
330
47
100
AcDbEntity
  8
0
  6
Continuous
 62
     7
100
AcDbSpline
210
0.0
220
0.0
230
1.0
 70
     8
 71
     3
 72
    11
 73
     7
 74
     5
 42
0.000000001
 43
0.0000000001
 44
0.00000001
 40
0.0
 40
0.0
 40
0.0
 40
0.0
 40
0.2965992379109268
 40
0.5660824449864497
 40
0.8146124517748397
 40
1.05156963880352
 40
1.05156963880352
 40
1.05156963880352
 40
1.05156963880352
 10
-209.7779455519572
 20
-154.2295255156152
 30
0.0
 10
-209.8502626272265
 20
-154.2973759861877
 30
0.0
 10
-209.9882853138503
 20
-154.4268738348788
 30
0.0
 10
-210.141423912541
 20
-154.653160891344
 30
0.0
 10
-210.241475501195
 20
-154.8880287648063
 30
0.0
 10
-210.254094842073
 20
-155.050316108273
 30
0.0
 10
-210.2602540983331
 20
-155.1295255156152
 30
0.0
 11
-209.7779455519572
 21
-154.2295255156152
 31
0.0
 11
-209.9862204015284
 21
-154.4406953402255
 31
0.0
 11
-210.1375870729738
 21
-154.6636512344307
 31
0.0
 11
-210.2294555844209
 21
-154.8945783705971
 31
0.0
 11
-210.2602540983331
 21
-155.1295255156152
 31
0.0
  0
SPLINE
  5
120
330
47
100
AcDbEntity
  8
0
  6
Continuous
 62
     7
100
AcDbSpline
210
0.0
220
0.0
230
1.0
 70
     8
 71
     3
 72
    19
 73
    15
 74
    13
 42
0.000000001
 43
0.0000000001
 44
0.00000001
 40
0.0
 40
0.0
 40
0.0
 40
0.0
 40
0.398827480621269
 40
0.8473959972443603
 40
1.374289392235457
 40
1.985807532003837
 40
2.672958283521609
 40
3.417186259238593
 40
4.194195753432416
 40
4.97677887225298
 40
5.737255230913637
 40
6.449856197226318
 40
7.093345175512265
 40
7.65434551618729
 40
7.65434551618729
 40
7.65434551618729
 40
7.65434551618729
 10
-203.0602540983331
 20
-155.1295255156152
 30
0.0
 10
-203.0785875003361
 20
-154.9959452991594
 30
0.0
 10
-203.1175408217267
 20
-154.7121249890607
 30
0.0
 10
-203.4028055016703
 20
-154.3334602203274
 30
0.0
 10
-203.8168370279201
 20
-154.0021403967834
 30
0.0
 10
-204.3636556139985
 20
-153.7254198576337
 30
0.0
 10
-205.0125903191628
 20
-153.5133852885885
 30
0.0
 10
-205.7375233972729
 20
-153.375199303797
 30
0.0
 10
-206.5048129558265
 20
-153.3171497335579
 30
0.0
 10
-207.2791181611668
 20
-153.3422882204761
 30
0.0
 10
-208.0256271237207
 20
-153.4482479909063
 30
0.0
 10
-208.7069258183257
 20
-153.634178735094
 30
0.0
 10
-209.3033171898677
 20
-153.8783667191773
 30
0.0
 10
-209.6271280903446
 20
-154.1179416219374
 30
0.0
 10
-209.7779455519572
 20
-154.2295255156152
 30
0.0
 11
-203.0602540983331
 21
-155.1295255156152
 31
0.0
 11
-203.1455887864207
 21
-154.7399342453016
 31
0.0
 11
-203.3975460650012
 21
-154.3688126444819
 31
0.0
 11
-203.8041823282179
 21
-154.0337550412081
 31
0.0
 11
-204.3462187034615
 21
-153.7506455180011
 31
0.0
 11
-204.9979592390636
 21
-153.5329061584088
 31
0.0
 11
-205.728505535964
 21
-153.3908590282949
 31
0.0
 11
-206.5032243178344
 21
-153.3312388772831
 31
0.0
 11
-207.285387537934
 21
-153.3568715601932
 31
0.0
 11
-208.0379143318773
 21
-153.4665425055329
 31
0.0
 11
-208.7251292691969
 21
-153.655051835895
 31
0.0
 11
-209.3144522739356
 21
-153.9134632504528
 31
0.0
 11
-209.7779455519572
 21
-154.2295255156152
 31
0.0
  0
SPLINE
  5
121
330
47
100
AcDbEntity
  8
0
  6
Continuous
 62
     7
100
AcDbSpline
210
0.0
220
0.0
230
1.0
 70
     8
 71
     3
 72
    11
 73
     7
 74
     5
 42
0.000000001
 43
0.0000000001
 44
0.00000001
 40
0.0
 40
0.0
 40
0.0
 40
0.0
 40
0.2965992379109268
 40
0.5660824449864656
 40
0.8146124517749136
 40
1.051569638803562
 40
1.051569638803562
 40
1.051569638803562
 40
1.051569638803562
 10
-186.2220545690203
 20
-161.0295255156152
 30
0.0
 10
-186.1497374937509
 20
-160.9616750450427
 30
0.0
 10
-186.0117148071272
 20
-160.8321771963516
 30
0.0
 10
-185.8585762084364
 20
-160.6058901398863
 30
0.0
 10
-185.7585246197825
 20
-160.3710222664242
 30
0.0
 10
-185.7459052789043
 20
-160.2087349229573
 30
0.0
 10
-185.7397460226443
 20
-160.1295255156152
 30
0.0
 11
-186.2220545690203
 21
-161.0295255156152
 31
0.0
 11
-186.0137797194491
 21
-160.8183556910049
 31
0.0
 11
-185.8624130480037
 21
-160.5953997967997
 31
0.0
 11
-185.7705445365565
 21
-160.3644726606333
 31
0.0
 11
-185.7397460226443
 21
-160.1295255156152
 31
0.0
  0
SPLINE
  5
122
330
47
100
AcDbEntity
  8
0
  6
Continuous
 62
     7
100
AcDbSpline
210
0.0
220
0.0
230
1.0
 70
     8
 71
     3
 72
     9
 73
     5
 74
     3
 42
0.000000001
 43
0.0000000001
 44
0.00000001
 40
0.0
 40
0.0
 40
0.0
 40
0.0
 40
0.0659050155696351
 40
0.1355792916946622
 40
0.1355792916946622
 40
0.1355792916946622
 40
0.1355792916946622
 10
-186.1427022127583
 20
-211.6322420244698
 30
0.0
 10
-186.1404658945783
 20
-211.6542426391913
 30
0.0
 10
-186.1358653385724
 20
-211.6995021308068
 30
0.0
 10
-186.1175064070203
 20
-211.7411483970963
 30
0.0
 10
-186.1080717318073
 20
-211.7625504342663
 30
0.0
 11
-186.1427022127583
 21
-211.6322420244698
 31
0.0
 11
-186.1327422459885
 21
-211.6973900887348
 31
0.0
 11
-186.1080717318073
 21
-211.7625504342663
 31
0.0
  0
ENDBLK
  5
49
330
47
100
AcDbEntity
  8
0
100
AcDbBlockEnd
  0
BLOCK
  5
4C
330
4A
100
AcDbEntity
  8
0
100
AcDbBlockBegin
  2
Allg1
 70
     0
 10
-198.0000000246236
 20
-183.99999952556
 30
0.0
  3
Allg1
  1

  0
INSERT
  5
4B
330
4A
100
AcDbEntity
  8
0
100
AcDbBlockReference
  2
USLKG_35-IB-select__1
 10
-223.4006351550997
 20
-215.8997666000899
 30
0.0
  0
MTEXT
  5
124
330
4A
100
AcDbEntity
  8
1
 62
     6
100
AcDbMText
 10
-198.000000024623
 20
-224.8680714001655
 30
0.0
 40
5.0
 41
0.0
 71
     2
 72
     1
  1
 
  7
CONVERTER_11
 73
     1
 44
1.32052821128451
  0
ENDBLK
  5
4D
330
4A
100
AcDbEntity
  8
0
100
AcDbBlockEnd
  0
BLOCK
  5
4F
330
4E
100
AcDbEntity
  8
0
100
AcDbBlockBegin
  2
USLKG_35-IB-select__2
 70
     0
 10
-342.9999999999998
 20
-204.5000001209777
 30
0.0
  3
USLKG_35-IB-select__2
  1

  0
LINE
  5
125
330
4E
100
AcDbEntity
  8
0
  6
Continuous
 62
     7
100
AcDbLine
 10
-292.9999999999998
 20
-204.5000001209777
 30
0.0
 11
-292.9999999999998
 21
-197.0000001209777
 31
0.0
  0
LINE
  5
126
330
4E
100
AcDbEntity
  8
0
  6
Continuous
 62
     7
100
AcDbLine
 10
-295.6613270856997
 20
-204.5000001209777
 30
0.0
 11
-292.9999999999998
 21
-204.5000001209777
 31
0.0
  0
LINE
  5
127
330
4E
100
AcDbEntity
  8
0
  6
Continuous
 62
     7
100
AcDbLine
 10
-295.6613270856997
 20
-204.5000001209777
 30
0.0
 11
-295.6613270856998
 21
-197.0000001209777
 31
0.0
  0
LINE
  5
128
330
4E
100
AcDbEntity
  8
0
  6
Continuous
 62
     7
100
AcDbLine
 10
-297.9468369816969
 20
-204.5000001209777
 30
0.0
 11
-295.6613270856997
 21
-204.5000001209777
 31
0.0
  0
LINE
  5
129
330
4E
100
AcDbEntity
  8
0
  6
Continuous
 62
     7
100
AcDbLine
 10
-297.9468369816969
 20
-204.5000001209777
 30
0.0
 11
-297.9468369816969
 21
-197.0000001209777
 31
0.0
  0
LINE
  5
12A
330
4E
100
AcDbEntity
  8
0
  6
Continuous
 62
     7
100
AcDbLine
 10
-298.6095349302034
 20
-204.5000001209777
 30
0.0
 11
-297.9468369816969
 21
-204.5000001209777
 31
0.0
  0
LINE
  5
12B
330
4E
100
AcDbEntity
  8
0
  6
Continuous
 62
     7
100
AcDbLine
 10
-299.2209814606757
 20
-204.5000001209777
 30
0.0
 11
-298.6095349302034
 21
-204.5000001209777
 31
0.0
  0
LINE
  5
12C
330
4E
100
AcDbEntity
  8
0
  6
Continuous
 62
     2
100
AcDbLine
 10
-295.6613270856998
 20
-197.0000001209777
 30
0.0
 11
-297.9468369816969
 21
-197.0000001209777
 31
0.0
  0
LINE
  5
12D
330
4E
100
AcDbEntity
  8
0
  6
Continuous
 62
     2
100
AcDbLine
 10
-297.9468369816969
 20
-197.0000001209777
 30
0.0
 11
-298.6095349302025
 21
-197.0000001209777
 31
0.0
  0
LINE
  5
12E
330
4E
100
AcDbEntity
  8
0
  6
Continuous
 62
     7
100
AcDbLine
 10
-305.9479088433997
 20
-198.1847755026423
 30
0.0
 11
-307.9999999999997
 21
-199.369550884307
 31
0.0
  0
LINE
  5
12F
330
4E
100
AcDbEntity
  8
0
  6
Continuous
 62
     2
100
AcDbLine
 10
-300.9999999999998
 20
-197.0000001209777
 30
0.0
 11
-304.3999999999998
 21
-197.0000001209777
 31
0.0
  0
LINE
  5
130
330
4E
100
AcDbEntity
  8
0
  6
Continuous
 62
     2
100
AcDbLine
 10
-292.9999999999998
 20
-197.0000001209777
 30
0.0
 11
-295.6613270856998
 21
-197.0000001209777
 31
0.0
  0
LINE
  5
131
330
4E
100
AcDbEntity
  8
0
  6
Continuous
 62
     7
100
AcDbLine
 10
-298.6095349302034
 20
-204.5000001209777
 30
0.0
 11
-298.6095349302025
 21
-197.0000001209777
 31
0.0
  0
LINE
  5
132
330
4E
100
AcDbEntity
  8
0
  6
Continuous
 62
     7
100
AcDbLine
 10
-315.0657558516856
 20
-194.9142841100874
 30
0.0
 11
-320.0857160108901
 21
-199.9342442692918
 31
0.0
  0
LINE
  5
133
330
4E
100
AcDbEntity
  8
0
  6
Continuous
 62
     7
100
AcDbLine
 10
-320.934244148314
 20
-199.085716131868
 30
0.0
 11
-315.9142839891095
 21
-194.0657559726635
 31
0.0
  0
LINE
  5
134
330
4E
100
AcDbEntity
  8
0
  6
Continuous
 62
     7
100
AcDbLine
 10
-338.0531630183027
 20
-197.0000001209777
 30
0.0
 11
-338.0531630183027
 21
-189.5000001209777
 31
0.0
  0
LINE
  5
135
330
4E
100
AcDbEntity
  8
0
  6
Continuous
 62
     7
100
AcDbLine
 10
-337.3904650697962
 20
-197.0000001209777
 30
0.0
 11
-337.3904650697962
 21
-189.5000001209777
 31
0.0
  0
LINE
  5
136
330
4E
100
AcDbEntity
  8
0
  6
Continuous
 62
     7
100
AcDbLine
 10
-336.7790185393238
 20
-197.0000001209777
 30
0.0
 11
-336.7790185393238
 21
-189.5000001209777
 31
0.0
  0
LINE
  5
137
330
4E
100
AcDbEntity
  8
0
  6
Continuous
 62
     7
100
AcDbLine
 10
-334.9999999999998
 20
-197.0000001209777
 30
0.0
 11
-334.9999999999998
 21
-189.5000001209777
 31
0.0
  0
LINE
  5
138
330
4E
100
AcDbEntity
  8
0
  6
Continuous
 62
     7
100
AcDbLine
 10
-340.3386729142997
 20
-197.0000001209777
 30
0.0
 11
-340.3386729142997
 21
-189.5000001209777
 31
0.0
  0
LINE
  5
139
330
4E
100
AcDbEntity
  8
0
  6
Continuous
 62
     7
100
AcDbLine
 10
-334.9999999999998
 20
-189.5000001209777
 30
0.0
 11
-300.9999999999998
 21
-189.5000001209777
 31
0.0
  0
LINE
  5
13A
330
4E
100
AcDbEntity
  8
0
  6
Continuous
 62
     7
100
AcDbLine
 10
-299.2209814606757
 20
-189.5000001209777
 30
0.0
 11
-298.6095349302025
 21
-189.5000001209777
 31
0.0
  0
LINE
  5
13B
330
4E
100
AcDbEntity
  8
0
  6
Continuous
 62
     7
100
AcDbLine
 10
-300.9999999999998
 20
-189.5000001209777
 30
0.0
 11
-299.2209814606757
 21
-189.5000001209777
 31
0.0
  0
LINE
  5
13C
330
4E
100
AcDbEntity
  8
0
  6
Continuous
 62
     7
100
AcDbLine
 10
-295.6613270856998
 20
-189.5000001209777
 30
0.0
 11
-292.9999999999998
 21
-189.5000001209777
 31
0.0
  0
LINE
  5
13D
330
4E
100
AcDbEntity
  8
0
  6
Continuous
 62
     7
100
AcDbLine
 10
-298.6095349302025
 20
-189.5000001209777
 30
0.0
 11
-297.9468369816968
 21
-189.5000001209777
 31
0.0
  0
LINE
  5
13E
330
4E
100
AcDbEntity
  8
0
  6
Continuous
 62
     7
100
AcDbLine
 10
-297.9468369816968
 20
-189.5000001209777
 30
0.0
 11
-295.6613270856998
 21
-189.5000001209777
 31
0.0
  0
LINE
  5
13F
330
4E
100
AcDbEntity
  8
0
  6
Continuous
 62
     7
100
AcDbLine
 10
-292.9999999999998
 20
-197.0000001209777
 30
0.0
 11
-292.9999999999998
 21
-189.5000001209777
 31
0.0
  0
LINE
  5
140
330
4E
100
AcDbEntity
  8
0
  6
Continuous
 62
     7
100
AcDbLine
 10
-340.3386729142997
 20
-189.5000001209777
 30
0.0
 11
-338.0531630183027
 21
-189.5000001209777
 31
0.0
  0
LINE
  5
141
330
4E
100
AcDbEntity
  8
0
  6
Continuous
 62
     7
100
AcDbLine
 10
-338.0531630183027
 20
-189.5000001209777
 30
0.0
 11
-337.3904650697962
 21
-189.5000001209777
 31
0.0
  0
LINE
  5
142
330
4E
100
AcDbEntity
  8
0
  6
Continuous
 62
     7
100
AcDbLine
 10
-337.3904650697962
 20
-189.5000001209777
 30
0.0
 11
-336.7790185393238
 21
-189.5000001209777
 31
0.0
  0
LINE
  5
143
330
4E
100
AcDbEntity
  8
0
  6
Continuous
 62
     7
100
AcDbLine
 10
-336.7790185393238
 20
-189.5000001209777
 30
0.0
 11
-334.9999999999998
 21
-189.5000001209777
 31
0.0
  0
LINE
  5
144
330
4E
100
AcDbEntity
  8
0
  6
Continuous
 62
     7
100
AcDbLine
 10
-342.9999999999998
 20
-197.0000001209777
 30
0.0
 11
-342.9999999999998
 21
-189.5000001209777
 31
0.0
  0
LINE
  5
145
330
4E
100
AcDbEntity
  8
0
  6
Continuous
 62
     7
100
AcDbLine
 10
-342.9999999999998
 20
-189.5000001209777
 30
0.0
 11
-340.3386729142997
 21
-189.5000001209777
 31
0.0
  0
LINE
  5
146
330
4E
100
AcDbEntity
  8
0
  6
Continuous
 62
     7
100
AcDbLine
 10
-336.7790185393238
 20
-204.5000001209777
 30
0.0
 11
-336.7790185393238
 21
-197.0000001209777
 31
0.0
  0
LINE
  5
147
330
4E
100
AcDbEntity
  8
0
  6
Continuous
 62
     7
100
AcDbLine
 10
-337.3904650697962
 20
-204.5000001209777
 30
0.0
 11
-336.7790185393238
 21
-204.5000001209777
 31
0.0
  0
LINE
  5
148
330
4E
100
AcDbEntity
  8
0
  6
Continuous
 62
     7
100
AcDbLine
 10
-338.0531630183027
 20
-204.5000001209777
 30
0.0
 11
-337.3904650697962
 21
-204.5000001209777
 31
0.0
  0
LINE
  5
149
330
4E
100
AcDbEntity
  8
0
  6
Continuous
 62
     7
100
AcDbLine
 10
-336.7790185393238
 20
-204.5000001209777
 30
0.0
 11
-334.9999999999998
 21
-204.5000001209777
 31
0.0
  0
LINE
  5
14A
330
4E
100
AcDbEntity
  8
0
  6
Continuous
 62
     7
100
AcDbLine
 10
-337.3904650697962
 20
-204.5000001209777
 30
0.0
 11
-337.3904650697962
 21
-197.0000001209777
 31
0.0
  0
LINE
  5
14B
330
4E
100
AcDbEntity
  8
0
  6
Continuous
 62
     7
100
AcDbLine
 10
-340.3386729142997
 20
-204.5000001209777
 30
0.0
 11
-340.3386729142997
 21
-197.0000001209777
 31
0.0
  0
LINE
  5
14C
330
4E
100
AcDbEntity
  8
0
  6
Continuous
 62
     7
100
AcDbLine
 10
-340.3386729142997
 20
-204.5000001209777
 30
0.0
 11
-338.0531630183027
 21
-204.5000001209777
 31
0.0
  0
LINE
  5
14D
330
4E
100
AcDbEntity
  8
0
  6
Continuous
 62
     7
100
AcDbLine
 10
-342.9999999999998
 20
-204.5000001209777
 30
0.0
 11
-340.3386729142997
 21
-204.5000001209777
 31
0.0
  0
LINE
  5
14E
330
4E
100
AcDbEntity
  8
0
  6
Continuous
 62
     7
100
AcDbLine
 10
-342.9999999999998
 20
-204.5000001209777
 30
0.0
 11
-342.9999999999998
 21
-197.0000001209777
 31
0.0
  0
LINE
  5
14F
330
4E
100
AcDbEntity
  8
0
  6
Continuous
 62
     2
100
AcDbLine
 10
-334.9999999999998
 20
-197.0000001209777
 30
0.0
 11
-336.7790185393238
 21
-197.0000001209777
 31
0.0
  0
LINE
  5
150
330
4E
100
AcDbEntity
  8
0
  6
Continuous
 62
     7
100
AcDbLine
 10
-327.9999999999998
 20
-199.369550884307
 30
0.0
 11
-330.0520911565998
 21
-198.1847755026424
 31
0.0
  0
LINE
  5
151
330
4E
100
AcDbEntity
  8
0
  6
Continuous
 62
     7
100
AcDbLine
 10
-325.9479088433998
 20
-198.1847755026424
 30
0.0
 11
-327.9999999999998
 21
-199.369550884307
 31
0.0
  0
LINE
  5
152
330
4E
100
AcDbEntity
  8
0
  6
Continuous
 62
     2
100
AcDbLine
 10
-338.0531630183027
 20
-197.0000001209777
 30
0.0
 11
-340.3386729142997
 21
-197.0000001209777
 31
0.0
  0
LINE
  5
153
330
4E
100
AcDbEntity
  8
0
  6
Continuous
 62
     2
100
AcDbLine
 10
-337.3904650697962
 20
-197.0000001209777
 30
0.0
 11
-338.0531630183027
 21
-197.0000001209777
 31
0.0
  0
LINE
  5
154
330
4E
100
AcDbEntity
  8
0
  6
Continuous
 62
     2
100
AcDbLine
 10
-340.3386729142997
 20
-197.0000001209777
 30
0.0
 11
-342.9999999999998
 21
-197.0000001209777
 31
0.0
  0
LINE
  5
155
330
4E
100
AcDbEntity
  8
0
  6
Continuous
 62
     7
100
AcDbLine
 10
-307.9999999999997
 20
-199.369550884307
 30
0.0
 11
-310.0520911565998
 21
-198.1847755026423
 31
0.0
  0
LINE
  5
156
330
4E
100
AcDbEntity
  8
0
  6
Continuous
 62
     7
100
AcDbLine
 10
-338.0531630183027
 20
-204.5000001209777
 30
0.0
 11
-338.0531630183027
 21
-197.0000001209777
 31
0.0
  0
LINE
  5
157
330
4E
100
AcDbEntity
  8
0
  6
Continuous
 62
     7
100
AcDbLine
 10
-310.0520911565998
 20
-198.1847755026423
 30
0.0
 11
-310.0520911565998
 21
-195.815224739313
 31
0.0
  0
LINE
  5
158
330
4E
100
AcDbEntity
  8
0
  6
Continuous
 62
     7
100
AcDbLine
 10
-330.0520911565998
 20
-195.815224739313
 30
0.0
 11
-327.9999999999998
 21
-194.6304493576484
 31
0.0
  0
LINE
  5
159
330
4E
100
AcDbEntity
  8
0
  6
Continuous
 62
     7
100
AcDbLine
 10
-327.9999999999998
 20
-194.6304493576484
 30
0.0
 11
-325.9479088433998
 21
-195.815224739313
 31
0.0
  0
LINE
  5
15A
330
4E
100
AcDbEntity
  8
0
  6
Continuous
 62
     2
100
AcDbLine
 10
-321.5999999999998
 20
-197.0000001209777
 30
0.0
 11
-324.3999999999998
 21
-197.0000001209777
 31
0.0
  0
LINE
  5
15B
330
4E
100
AcDbEntity
  8
0
  6
Continuous
 62
     2
100
AcDbLine
 10
-336.7790185393238
 20
-197.0000001209777
 30
0.0
 11
-337.3904650697962
 21
-197.0000001209777
 31
0.0
  0
LINE
  5
15C
330
4E
100
AcDbEntity
  8
0
  6
Continuous
 62
     7
100
AcDbLine
 10
-310.0520911565998
 20
-195.815224739313
 30
0.0
 11
-307.9999999999997
 21
-194.6304493576484
 31
0.0
  0
LINE
  5
15D
330
4E
100
AcDbEntity
  8
0
  6
Continuous
 62
     2
100
AcDbLine
 10
-311.5999999999997
 20
-197.0000001209777
 30
0.0
 11
-314.3999999999998
 21
-197.0000001209777
 31
0.0
  0
LINE
  5
15E
330
4E
100
AcDbEntity
  8
0
  6
Continuous
 62
     2
100
AcDbLine
 10
-331.5999999999997
 20
-197.0000001209777
 30
0.0
 11
-334.9999999999998
 21
-197.0000001209777
 31
0.0
  0
LINE
  5
15F
330
4E
100
AcDbEntity
  8
0
  6
Continuous
 62
     7
100
AcDbLine
 10
-300.9999999999998
 20
-204.5000001209777
 30
0.0
 11
-334.9999999999998
 21
-204.5000001209777
 31
0.0
  0
LINE
  5
160
330
4E
100
AcDbEntity
  8
0
  6
Continuous
 62
     7
100
AcDbLine
 10
-300.9999999999998
 20
-204.5000001209777
 30
0.0
 11
-300.9999999999998
 21
-197.0000001209777
 31
0.0
  0
LINE
  5
161
330
4E
100
AcDbEntity
  8
0
  6
Continuous
 62
     7
100
AcDbLine
 10
-330.0520911565998
 20
-198.1847755026424
 30
0.0
 11
-330.0520911565998
 21
-195.815224739313
 31
0.0
  0
LINE
  5
162
330
4E
100
AcDbEntity
  8
0
  6
Continuous
 62
     7
100
AcDbLine
 10
-325.9479088433998
 20
-195.815224739313
 30
0.0
 11
-325.9479088433998
 21
-198.1847755026424
 31
0.0
  0
LINE
  5
163
330
4E
100
AcDbEntity
  8
0
  6
Continuous
 62
     7
100
AcDbLine
 10
-334.9999999999998
 20
-197.0000001209777
 30
0.0
 11
-334.9999999999998
 21
-204.5000001209777
 31
0.0
  0
LINE
  5
164
330
4E
100
AcDbEntity
  8
0
  6
Continuous
 62
     7
100
AcDbLine
 10
-300.9999999999998
 20
-204.5000001209777
 30
0.0
 11
-299.2209814606757
 21
-204.5000001209777
 31
0.0
  0
LINE
  5
165
330
4E
100
AcDbEntity
  8
0
  6
Continuous
 62
     7
100
AcDbLine
 10
-300.9999999999998
 20
-197.0000001209777
 30
0.0
 11
-300.9999999999998
 21
-189.5000001209777
 31
0.0
  0
LINE
  5
166
330
4E
100
AcDbEntity
  8
0
  6
Continuous
 62
     7
100
AcDbLine
 10
-305.9479088433997
 20
-195.815224739313
 30
0.0
 11
-305.9479088433997
 21
-198.1847755026423
 31
0.0
  0
LINE
  5
167
330
4E
100
AcDbEntity
  8
0
  6
Continuous
 62
     7
100
AcDbLine
 10
-299.2209814606758
 20
-197.0000001209777
 30
0.0
 11
-299.2209814606757
 21
-189.5000001209777
 31
0.0
  0
LINE
  5
168
330
4E
100
AcDbEntity
  8
0
  6
Continuous
 62
     7
100
AcDbLine
 10
-299.2209814606757
 20
-204.5000001209777
 30
0.0
 11
-299.2209814606758
 21
-197.0000001209777
 31
0.0
  0
LINE
  5
169
330
4E
100
AcDbEntity
  8
0
  6
Continuous
 62
     7
100
AcDbLine
 10
-298.6095349302025
 20
-197.0000001209777
 30
0.0
 11
-298.6095349302025
 21
-189.5000001209777
 31
0.0
  0
LINE
  5
16A
330
4E
100
AcDbEntity
  8
0
  6
Continuous
 62
     7
100
AcDbLine
 10
-297.9468369816969
 20
-197.0000001209777
 30
0.0
 11
-297.9468369816968
 21
-189.5000001209777
 31
0.0
  0
LINE
  5
16B
330
4E
100
AcDbEntity
  8
0
  6
Continuous
 62
     2
100
AcDbLine
 10
-299.2209814606758
 20
-197.0000001209777
 30
0.0
 11
-300.9999999999998
 21
-197.0000001209777
 31
0.0
  0
LINE
  5
16C
330
4E
100
AcDbEntity
  8
0
  6
Continuous
 62
     2
100
AcDbLine
 10
-298.6095349302025
 20
-197.0000001209777
 30
0.0
 11
-299.2209814606758
 21
-197.0000001209777
 31
0.0
  0
LINE
  5
16D
330
4E
100
AcDbEntity
  8
0
  6
Continuous
 62
     7
100
AcDbLine
 10
-307.9999999999997
 20
-194.6304493576484
 30
0.0
 11
-305.9479088433997
 21
-195.815224739313
 31
0.0
  0
LINE
  5
16E
330
4E
100
AcDbEntity
  8
0
  6
Continuous
 62
     7
100
AcDbLine
 10
-295.6613270856998
 20
-197.0000001209777
 30
0.0
 11
-295.6613270856998
 21
-189.5000001209777
 31
0.0
  0
LINE
  5
16F
330
4E
100
AcDbEntity
  8
1
  6
DOT_CENTER
 62
     2
100
AcDbLine
 10
-304.0399999999998
 20
-197.0000001209777
 30
0.0
 11
-311.9599999999998
 21
-197.0000001209777
 31
0.0
  0
LINE
  5
170
330
4E
100
AcDbEntity
  8
1
  6
DOT_CENTER
 62
     2
100
AcDbLine
 10
-307.9999999999998
 20
-193.0400001209777
 30
0.0
 11
-307.9999999999998
 21
-200.9600001209776
 31
0.0
  0
LINE
  5
171
330
4E
100
AcDbEntity
  8
1
  6
DOT_CENTER
 62
     2
100
AcDbLine
 10
-314.0399999999997
 20
-197.0000001209777
 30
0.0
 11
-321.9599999999998
 21
-197.0000001209777
 31
0.0
  0
LINE
  5
172
330
4E
100
AcDbEntity
  8
1
  6
DOT_CENTER
 62
     2
100
AcDbLine
 10
-317.9999999999998
 20
-193.0400001209777
 30
0.0
 11
-317.9999999999998
 21
-200.9600001209777
 31
0.0
  0
LINE
  5
173
330
4E
100
AcDbEntity
  8
1
  6
DOT_CENTER
 62
     2
100
AcDbLine
 10
-324.0399999999997
 20
-197.0000001209777
 30
0.0
 11
-331.9599999999998
 21
-197.0000001209777
 31
0.0
  0
LINE
  5
174
330
4E
100
AcDbEntity
  8
1
  6
DOT_CENTER
 62
     2
100
AcDbLine
 10
-327.9999999999998
 20
-193.0400001209777
 30
0.0
 11
-327.9999999999998
 21
-200.9600001209777
 31
0.0
  0
ARC
  5
175
330
4E
100
AcDbEntity
  8
0
  6
Continuous
 62
     7
100
AcDbCircle
 10
-327.9999999999998
 20
-197.0000001209777
 30
0.0
 40
3.599999999999909
100
AcDbArc
 50
180.0
 51
0.0
  0
ARC
  5
176
330
4E
100
AcDbEntity
  8
0
  6
Continuous
 62
     7
100
AcDbCircle
 10
-307.9999999999998
 20
-197.0000001209777
 30
0.0
 40
3.599999999999966
100
AcDbArc
 50
0.0
 51
180.0
  0
ARC
  5
177
330
4E
100
AcDbEntity
  8
0
  6
Continuous
 62
     7
100
AcDbCircle
 10
-317.9999999999998
 20
-197.0000001209777
 30
0.0
 40
3.600000000000009
100
AcDbArc
 50
54.59406822686091
 51
180.0
  0
ARC
  5
178
330
4E
100
AcDbEntity
  8
0
  6
Continuous
 62
     7
100
AcDbCircle
 10
-317.9999999999998
 20
-197.0000001209777
 30
0.0
 40
3.600000000000009
100
AcDbArc
 50
35.40593177313909
 51
54.59406822686091
  0
ARC
  5
179
330
4E
100
AcDbEntity
  8
0
  6
Continuous
 62
     7
100
AcDbCircle
 10
-317.9999999999998
 20
-197.0000001209777
 30
0.0
 40
3.599999999999966
100
AcDbArc
 50
0.0
 51
35.40593177313909
  0
ARC
  5
17A
330
4E
100
AcDbEntity
  8
0
  6
Continuous
 62
     7
100
AcDbCircle
 10
-327.9999999999998
 20
-197.0000001209777
 30
0.0
 40
3.599999999999966
100
AcDbArc
 50
0.0
 51
180.0
  0
ARC
  5
17B
330
4E
100
AcDbEntity
  8
0
  6
Continuous
 62
     7
100
AcDbCircle
 10
-317.9999999999998
 20
-197.0000001209777
 30
0.0
 40
3.600000000000023
100
AcDbArc
 50
180.0
 51
215.4059317731389
  0
ARC
  5
17C
330
4E
100
AcDbEntity
  8
0
  6
Continuous
 62
     7
100
AcDbCircle
 10
-317.9999999999998
 20
-197.0000001209777
 30
0.0
 40
3.600000000000072
100
AcDbArc
 50
215.4059317731389
 51
234.5940682268597
  0
ARC
  5
17D
330
4E
100
AcDbEntity
  8
0
  6
Continuous
 62
     7
100
AcDbCircle
 10
-317.9999999999998
 20
-197.0000001209777
 30
0.0
 40
3.599999999999995
100
AcDbArc
 50
234.5940682268597
 51
0.0
  0
ARC
  5
17E
330
4E
100
AcDbEntity
  8
0
  6
Continuous
 62
     7
100
AcDbCircle
 10
-307.9999999999998
 20
-197.0000001209777
 30
0.0
 40
3.599999999999909
100
AcDbArc
 50
180.0
 51
0.0
  0
ENDBLK
  5
50
330
4E
100
AcDbEntity
  8
0
100
AcDbBlockEnd
  0
BLOCK
  5
53
330
51
100
AcDbEntity
  8
0
100
AcDbBlockBegin
  2
Drfsicht1
 70
     0
 10
-318.0
 20
-197.000000049247
 30
0.0
  3
Drfsicht1
  1

  0
INSERT
  5
52
330
51
100
AcDbEntity
  8
0
100
AcDbBlockReference
  2
USLKG_35-IB-select__2
 10
-342.9999999999998
 20
-204.5000001209777
 30
0.0
  0
MTEXT
  5
17F
330
51
100
AcDbEntity
  8
1
 62
     6
100
AcDbMText
 10
-317.9999999999998
 20
-209.5000001209777
 30
0.0
 40
5.0
 41
0.0
 71
     2
 72
     1
  1
 
  7
CONVERTER_11
 73
     1
 44
1.32052821128451
  0
DIMENSION
  5
18A
330
51
100
AcDbEntity
  8
1
100
AcDbDimension
  2
*D17
 10
-349.385797575012
 20
-204.5000001209777
 30
0.0
 11
-353.135797575012
 21
-197.345962762377
 31
0.0
 70
    32
  1
<>
 71
     5
 42
-1.0
 53
90.0
  3
ME10_DIM_10
100
AcDbAlignedDimension
 13
-342.9999999999998
 23
-189.5000001209777
 33
0.0
 14
-342.9999999999998
 24
-204.5000001209777
 34
0.0
 50
90.0
100
AcDbRotatedDimension
  0
ENDBLK
  5
54
330
51
100
AcDbEntity
  8
0
100
AcDbBlockEnd
  0
BLOCK
  5
56
330
55
100
AcDbEntity
  8
0
100
AcDbBlockBegin
  2
USLKG_35-IB-select__3
 70
     0
 10
-224.8749961853031
 20
-143.499995877559
 30
0.0
  3
USLKG_35-IB-select__3
  1

  0
LINE
  5
18B
330
55
100
AcDbEntity
  8
0
  6
Continuous
 62
     7
100
AcDbLine
 10
-221.4749961853031
 20
-134.399995877559
 30
0.0
 11
-221.4749961853031
 21
-140.999995877559
 31
0.0
  0
LINE
  5
18C
330
55
100
AcDbEntity
  8
0
  6
Continuous
 62
     7
100
AcDbLine
 10
-221.4749961853031
 20
-140.999995877559
 30
0.0
 11
-217.6614642734808
 21
-140.999995877559
 31
0.0
  0
LINE
  5
18D
330
55
100
AcDbEntity
  8
0
  6
Continuous
 62
     7
100
AcDbLine
 10
-220.8749961853031
 20
-134.399995877559
 30
0.0
 11
-194.2749961853031
 21
-134.399995877559
 31
0.0
  0
LINE
  5
18E
330
55
100
AcDbEntity
  8
0
  6
Continuous
 62
     7
100
AcDbLine
 10
-211.2534571543858
 20
-143.499995877559
 30
0.0
 11
-198.3432429888736
 21
-143.499995877559
 31
0.0
  0
LINE
  5
18F
330
55
100
AcDbEntity
  8
0
  6
Continuous
 62
     7
100
AcDbLine
 10
-210.8749961853031
 20
-142.299995877559
 30
0.0
 11
-211.5749961853031
 21
-142.299995877559
 31
0.0
  0
LINE
  5
190
330
55
100
AcDbEntity
  8
0
  6
Continuous
 62
     7
100
AcDbLine
 10
-211.5749961853031
 20
-140.599995877559
 30
0.0
 11
-210.4194825581702
 21
-140.599995877559
 31
0.0
  0
LINE
  5
191
330
55
100
AcDbEntity
  8
0
  6
Continuous
 62
     7
100
AcDbLine
 10
-220.8749961853031
 20
-140.499995877559
 30
0.0
 11
-218.3592285203258
 21
-140.499995877559
 31
0.0
  0
LINE
  5
192
330
55
100
AcDbEntity
  8
0
  6
Continuous
 62
     7
100
AcDbLine
 10
-210.4194825581702
 20
-140.599995877559
 30
0.0
 11
-210.8749961853031
 21
-142.299995877559
 31
0.0
  0
LINE
  5
193
330
55
100
AcDbEntity
  8
0
  6
Continuous
 62
     7
100
AcDbLine
 10
-217.6614642734808
 20
-140.999995877559
 30
0.0
 11
-216.0892183863144
 21
-138.2767861189957
 31
0.0
  0
LINE
  5
194
330
55
100
AcDbEntity
  8
0
  6
Continuous
 62
     7
100
AcDbLine
 10
-216.2969315541497
 20
-137.8313437930921
 30
0.0
 11
-217.5833847186002
 21
-137.6045073907816
 31
0.0
  0
LINE
  5
195
330
55
100
AcDbEntity
  8
0
  6
Continuous
 62
     7
100
AcDbLine
 10
-182.8749961853031
 20
-82.59999587755908
 30
0.0
 11
-216.8749961853031
 21
-82.59999587755908
 31
0.0
  0
LINE
  5
196
330
55
100
AcDbEntity
  8
0
  6
Continuous
 62
     7
100
AcDbLine
 10
-216.4749961853031
 20
-137.199995877559
 30
0.0
 11
-215.9749961853031
 21
-136.699995877559
 31
0.0
  0
LINE
  5
197
330
55
100
AcDbEntity
  8
0
  6
Continuous
 62
     7
100
AcDbLine
 10
-179.5578839334573
 20
-92.55540283216513
 30
0.0
 11
-180.4845311155067
 21
-93.09040283216515
 31
0.0
  0
LINE
  5
198
330
55
100
AcDbEntity
  8
0
  6
Continuous
 62
     7
100
AcDbLine
 10
-179.8218331670002
 20
-92.09822934904979
 30
0.0
 11
-179.5578839334573
 21
-92.55540283216513
 31
0.0
  0
LINE
  5
199
330
55
100
AcDbEntity
  8
0
  6
Continuous
 62
     7
100
AcDbLine
 10
-174.8749961853031
 20
-134.399995877559
 30
0.0
 11
-174.8749961853031
 21
-96.45640233811002
 31
0.0
  0
LINE
  5
19A
330
55
100
AcDbEntity
  8
0
  6
Continuous
 62
     7
100
AcDbLine
 10
-178.8749961853031
 20
-134.399995877559
 30
0.0
 11
-174.8749961853031
 21
-134.399995877559
 31
0.0
  0
LINE
  5
19B
330
55
100
AcDbEntity
  8
0
  6
Continuous
 62
     7
100
AcDbLine
 10
-194.4749961853031
 20
-134.599995877559
 30
0.0
 11
-194.2749961853031
 21
-134.399995877559
 31
0.0
  0
LINE
  5
19C
330
55
100
AcDbEntity
  8
0
  6
Continuous
 62
     7
100
AcDbLine
 10
-194.4749961853031
 20
-136.799995877559
 30
0.0
 11
-194.4749961853031
 21
-134.599995877559
 31
0.0
  0
LINE
  5
19D
330
55
100
AcDbEntity
  8
0
  6
Continuous
 62
     7
100
AcDbLine
 10
-214.4749961853031
 20
-137.199995877559
 30
0.0
 11
-213.9749961853031
 21
-136.699995877559
 31
0.0
  0
LINE
  5
19E
330
55
100
AcDbEntity
  8
0
  6
Continuous
 62
     7
100
AcDbLine
 10
-174.8749961853031
 20
-96.45640233811002
 30
0.0
 11
-177.5363232710032
 21
-91.84684861011851
 31
0.0
  0
LINE
  5
19F
330
55
100
AcDbEntity
  8
0
  6
Continuous
 62
     7
100
AcDbLine
 10
-183.773114593264
 20
-134.399995877559
 30
0.0
 11
-178.8749961853031
 21
-134.399995877559
 31
0.0
  0
LINE
  5
1A0
330
55
100
AcDbEntity
  8
0
  6
Continuous
 62
     7
100
AcDbLine
 10
-214.9749961853031
 20
-136.699995877559
 30
0.0
 11
-214.4749961853031
 21
-137.199995877559
 31
0.0
  0
LINE
  5
1A1
330
55
100
AcDbEntity
  8
0
  6
Continuous
 62
     7
100
AcDbLine
 10
-177.5363232710032
 20
-91.84684861011851
 30
0.0
 11
-179.8218331670002
 21
-92.09822934904979
 31
0.0
  0
LINE
  5
1A2
330
55
100
AcDbEntity
  8
0
  6
Continuous
 62
     7
100
AcDbLine
 10
-215.4749961853031
 20
-137.199995877559
 30
0.0
 11
-214.9749961853031
 21
-136.699995877559
 31
0.0
  0
LINE
  5
1A3
330
55
100
AcDbEntity
  8
0
  6
Continuous
 62
     7
100
AcDbLine
 10
-180.4845311155067
 20
-93.09040283216515
 30
0.0
 11
-183.6470311155068
 21
-87.61279215322861
 31
0.0
  0
LINE
  5
1A4
330
55
100
AcDbEntity
  8
0
  6
Continuous
 62
     7
100
AcDbLine
 10
-190.6749961853031
 20
-134.399995877559
 30
0.0
 11
-190.2749961853031
 21
-134.399995877559
 31
0.0
  0
LINE
  5
1A5
330
55
100
AcDbEntity
  8
0
  6
Continuous
 62
     7
100
AcDbLine
 10
-191.2749961853031
 20
-134.399995877559
 30
0.0
 11
-190.6749961853031
 21
-134.399995877559
 31
0.0
  0
LINE
  5
1A6
330
55
100
AcDbEntity
  8
0
  6
Continuous
 62
     7
100
AcDbLine
 10
-191.6749961853031
 20
-134.399995877559
 30
0.0
 11
-191.2749961853031
 21
-134.399995877559
 31
0.0
  0
LINE
  5
1A7
330
55
100
AcDbEntity
  8
0
  6
Continuous
 62
     7
100
AcDbLine
 10
-190.2749961853031
 20
-134.399995877559
 30
0.0
 11
-183.773114593264
 21
-134.399995877559
 31
0.0
  0
LINE
  5
1A8
330
55
100
AcDbEntity
  8
0
  6
Continuous
 62
     7
100
AcDbLine
 10
-192.4749961853031
 20
-134.599995877559
 30
0.0
 11
-192.2749961853031
 21
-134.399995877559
 31
0.0
  0
LINE
  5
1A9
330
55
100
AcDbEntity
  8
0
  6
Continuous
 62
     7
100
AcDbLine
 10
-192.6749961853031
 20
-134.399995877559
 30
0.0
 11
-192.4749961853031
 21
-134.599995877559
 31
0.0
  0
LINE
  5
1AA
330
55
100
AcDbEntity
  8
0
  6
Continuous
 62
     7
100
AcDbLine
 10
-191.4749961853031
 20
-134.599995877559
 30
0.0
 11
-191.2749961853031
 21
-134.399995877559
 31
0.0
  0
LINE
  5
1AB
330
55
100
AcDbEntity
  8
0
  6
Continuous
 62
     7
100
AcDbLine
 10
-193.6749961853031
 20
-134.399995877559
 30
0.0
 11
-193.2749961853031
 21
-134.399995877559
 31
0.0
  0
LINE
  5
1AC
330
55
100
AcDbEntity
  8
0
  6
Continuous
 62
     7
100
AcDbLine
 10
-194.2749961853031
 20
-134.399995877559
 30
0.0
 11
-193.6749961853031
 21
-134.399995877559
 31
0.0
  0
LINE
  5
1AD
330
55
100
AcDbEntity
  8
0
  6
Continuous
 62
     7
100
AcDbLine
 10
-192.6749961853031
 20
-134.399995877559
 30
0.0
 11
-192.2749961853031
 21
-134.399995877559
 31
0.0
  0
LINE
  5
1AE
330
55
100
AcDbEntity
  8
0
  6
Continuous
 62
     7
100
AcDbLine
 10
-192.2749961853031
 20
-134.399995877559
 30
0.0
 11
-191.6749961853031
 21
-134.399995877559
 31
0.0
  0
LINE
  5
1AF
330
55
100
AcDbEntity
  8
0
  6
Continuous
 62
     7
100
AcDbLine
 10
-193.2749961853031
 20
-134.399995877559
 30
0.0
 11
-192.6749961853031
 21
-134.399995877559
 31
0.0
  0
LINE
  5
1B0
330
55
100
AcDbEntity
  8
0
  6
Continuous
 62
     7
100
AcDbLine
 10
-191.6749961853031
 20
-134.399995877559
 30
0.0
 11
-191.4749961853031
 21
-134.599995877559
 31
0.0
  0
LINE
  5
1B1
330
55
100
AcDbEntity
  8
0
  6
Continuous
 62
     7
100
AcDbLine
 10
-215.9749961853031
 20
-136.699995877559
 30
0.0
 11
-215.4749961853031
 21
-137.199995877559
 31
0.0
  0
LINE
  5
1B2
330
55
100
AcDbEntity
  8
0
  6
Continuous
 62
     7
100
AcDbLine
 10
-183.6470311155068
 20
-87.61279215322861
 30
0.0
 11
-182.7203839334572
 21
-87.0777921532285
 31
0.0
  0
LINE
  5
1B3
330
55
100
AcDbEntity
  8
0
  6
Continuous
 62
     7
100
AcDbLine
 10
-182.7203839334572
 20
-87.0777921532285
 30
0.0
 11
-182.4564346999144
 21
-87.53496563634376
 31
0.0
  0
LINE
  5
1B4
330
55
100
AcDbEntity
  8
0
  6
Continuous
 62
     7
100
AcDbLine
 10
-182.4564346999144
 20
-87.53496563634376
 30
0.0
 11
-181.0959776459791
 21
-85.68134637527517
 31
0.0
  0
LINE
  5
1B5
330
55
100
AcDbEntity
  8
0
  6
Continuous
 62
     7
100
AcDbLine
 10
-181.0959776459791
 20
-85.68134637527517
 30
0.0
 11
-182.8749961853031
 21
-82.59999587755908
 31
0.0
  0
LINE
  5
1B6
330
55
100
AcDbEntity
  8
0
  6
Continuous
 62
     7
100
AcDbLine
 10
-217.2935576706919
 20
-87.53496563634377
 30
0.0
 11
-217.0296084371489
 21
-87.07779215322853
 31
0.0
  0
LINE
  5
1B7
330
55
100
AcDbEntity
  8
0
  6
Continuous
 62
     7
100
AcDbLine
 10
-217.4749961853031
 20
-137.199995877559
 30
0.0
 11
-216.9749961853031
 21
-136.699995877559
 31
0.0
  0
LINE
  5
1B8
330
55
100
AcDbEntity
  8
0
  6
Continuous
 62
     7
100
AcDbLine
 10
-218.3592285203258
 20
-140.499995877559
 30
0.0
 11
-217.4749961853031
 21
-137.199995877559
 31
0.0
  0
LINE
  5
1B9
330
55
100
AcDbEntity
  8
0
  6
Continuous
 62
     7
100
AcDbLine
 10
-216.8749961853031
 20
-82.59999587755908
 30
0.0
 11
-218.6540147246271
 21
-85.68134637527506
 31
0.0
  0
LINE
  5
1BA
330
55
100
AcDbEntity
  8
0
  6
Continuous
 62
     7
100
AcDbLine
 10
-218.6540147246271
 20
-85.68134637527506
 30
0.0
 11
-217.2935576706919
 21
-87.53496563634377
 31
0.0
  0
LINE
  5
1BB
330
55
100
AcDbEntity
  8
0
  6
Continuous
 62
     7
100
AcDbLine
 10
-224.8749961853031
 20
-96.45640233811005
 30
0.0
 11
-224.8749961853031
 21
-134.399995877559
 31
0.0
  0
LINE
  5
1BC
330
55
100
AcDbEntity
  8
0
  6
Continuous
 62
     7
100
AcDbLine
 10
-221.4749961853031
 20
-134.399995877559
 30
0.0
 11
-220.8749961853031
 21
-134.399995877559
 31
0.0
  0
LINE
  5
1BD
330
55
100
AcDbEntity
  8
0
  6
Continuous
 62
     7
100
AcDbLine
 10
-224.8749961853031
 20
-134.399995877559
 30
0.0
 11
-221.4749961853031
 21
-134.399995877559
 31
0.0
  0
LINE
  5
1BE
330
55
100
AcDbEntity
  8
0
  6
Continuous
 62
     7
100
AcDbLine
 10
-220.8749961853031
 20
-134.399995877559
 30
0.0
 11
-220.8749961853031
 21
-140.499995877559
 31
0.0
  0
LINE
  5
1BF
330
55
100
AcDbEntity
  8
0
  6
Continuous
 62
     7
100
AcDbLine
 10
-219.2654612551004
 20
-93.09040283216466
 30
0.0
 11
-220.1921084371488
 21
-92.55540283216514
 31
0.0
  0
LINE
  5
1C0
330
55
100
AcDbEntity
  8
0
  6
Continuous
 62
     7
100
AcDbLine
 10
-220.1921084371488
 20
-92.55540283216514
 30
0.0
 11
-219.928159203606
 21
-92.0982293490498
 31
0.0
  0
LINE
  5
1C1
330
55
100
AcDbEntity
  8
0
  6
Continuous
 62
     7
100
AcDbLine
 10
-219.928159203606
 20
-92.0982293490498
 30
0.0
 11
-222.2136690996031
 21
-91.84684861011851
 31
0.0
  0
LINE
  5
1C2
330
55
100
AcDbEntity
  8
0
  6
Continuous
 62
     7
100
AcDbLine
 10
-222.2136690996031
 20
-91.84684861011851
 30
0.0
 11
-224.8749961853031
 21
-96.45640233811005
 31
0.0
  0
LINE
  5
1C3
330
55
100
AcDbEntity
  8
0
  6
Continuous
 62
     7
100
AcDbLine
 10
-216.9749961853031
 20
-136.699995877559
 30
0.0
 11
-216.4749961853031
 21
-137.199995877559
 31
0.0
  0
LINE
  5
1C4
330
55
100
AcDbEntity
  8
0
  6
Continuous
 62
     7
100
AcDbLine
 10
-217.0296084371489
 20
-87.07779215322853
 30
0.0
 11
-216.1029612550993
 21
-87.61279215322874
 31
0.0
  0
LINE
  5
1C5
330
55
100
AcDbEntity
  8
0
  6
Continuous
 62
     7
100
AcDbLine
 10
-216.1029612550993
 20
-87.61279215322874
 30
0.0
 11
-219.2654612551004
 21
-93.09040283216466
 31
0.0
  0
LINE
  5
1C6
330
55
100
AcDbEntity
  8
0
  6
Continuous
 62
     7
100
AcDbLine
 10
-190.2749961853031
 20
-134.399995877559
 30
0.0
 11
-190.4749961853031
 21
-134.599995877559
 31
0.0
  0
LINE
  5
1C7
330
55
100
AcDbEntity
  8
0
  6
Continuous
 62
     7
100
AcDbLine
 10
-190.4749961853031
 20
-134.599995877559
 30
0.0
 11
-190.6749961853031
 21
-134.399995877559
 31
0.0
  0
LINE
  5
1C8
330
55
100
AcDbEntity
  8
0
  6
Continuous
 62
     7
100
AcDbLine
 10
-193.2791850919033
 20
-135.2091112257517
 30
0.0
 11
-194.4749961853031
 21
-135.4199649853486
 31
0.0
  0
LINE
  5
1C9
330
55
100
AcDbEntity
  8
0
  6
Continuous
 62
     7
100
AcDbLine
 10
-193.4749961853031
 20
-134.599995877559
 30
0.0
 11
-193.6749961853031
 21
-134.399995877559
 31
0.0
  0
LINE
  5
1CA
330
55
100
AcDbEntity
  8
0
  6
Continuous
 62
     7
100
AcDbLine
 10
-193.2749961853031
 20
-134.399995877559
 30
0.0
 11
-193.4749961853031
 21
-134.599995877559
 31
0.0
  0
LINE
  5
1CB
330
55
100
AcDbEntity
  8
0
  6
Continuous
 62
     7
100
AcDbLine
 10
-182.7749961853031
 20
-138.499995877559
 30
0.0
 11
-182.0208981470815
 21
-138.499995877559
 31
0.0
  0
LINE
  5
1CC
330
55
100
AcDbEntity
  8
0
  6
Continuous
 62
     7
100
AcDbLine
 10
-182.2749961853031
 20
-137.0589342929923
 30
0.0
 11
-183.0749961853031
 21
-137.1999958775591
 31
0.0
  0
LINE
  5
1CD
330
55
100
AcDbEntity
  8
0
  6
Continuous
 62
     7
100
AcDbLine
 10
-183.0749961853031
 20
-138.799995877559
 30
0.0
 11
-182.7749961853031
 21
-138.499995877559
 31
0.0
  0
LINE
  5
1CE
330
55
100
AcDbEntity
  8
0
  6
Continuous
 62
     7
100
AcDbLine
 10
-182.6194825581702
 20
-140.499995877559
 30
0.0
 11
-183.0749961853031
 21
-138.799995877559
 31
0.0
  0
LINE
  5
1CF
330
55
100
AcDbEntity
  8
0
  6
Continuous
 62
     7
100
AcDbLine
 10
-183.0749961853031
 20
-137.1999958775591
 30
0.0
 11
-183.773114593264
 21
-134.399995877559
 31
0.0
  0
LINE
  5
1D0
330
55
100
AcDbEntity
  8
0
  6
Continuous
 62
     7
100
AcDbLine
 10
-178.8749961853031
 20
-140.499995877559
 30
0.0
 11
-182.6194825581702
 21
-140.499995877559
 31
0.0
  0
LINE
  5
1D1
330
55
100
AcDbEntity
  8
0
  6
Continuous
 62
     7
100
AcDbLine
 10
-196.149311965953
 20
-139.699995877559
 30
0.0
 11
-193.9559734354558
 21
-139.699995877559
 31
0.0
  0
LINE
  5
1D2
330
55
100
AcDbEntity
  8
0
  6
Continuous
 62
     7
100
AcDbLine
 10
-193.9559734354558
 20
-139.699995877559
 30
0.0
 11
-192.6111806128316
 21
-136.0052079635544
 31
0.0
  0
LINE
  5
1D3
330
55
100
AcDbEntity
  8
0
  6
Continuous
 62
     7
100
AcDbLine
 10
-182.0208981470815
 20
-138.499995877559
 30
0.0
 11
-182.2749961853031
 21
-137.0589342929923
 31
0.0
  0
LINE
  5
1D4
330
55
100
AcDbEntity
  8
0
  6
Continuous
 62
     7
100
AcDbLine
 10
-178.8749961853031
 20
-134.399995877559
 30
0.0
 11
-178.8749961853031
 21
-140.499995877559
 31
0.0
  0
LINE
  5
1D5
330
55
100
AcDbEntity
  8
0
  6
Continuous
 62
     7
100
AcDbLine
 10
-211.5749961853031
 20
-142.299995877559
 30
0.0
 11
-211.2534571543858
 21
-143.499995877559
 31
0.0
  0
LINE
  5
1D6
330
55
100
AcDbEntity
  8
0
  6
Continuous
 62
     7
100
AcDbLine
 10
-211.5749961853031
 20
-138.999995877559
 30
0.0
 11
-211.5749961853031
 21
-140.599995877559
 31
0.0
  0
LINE
  5
1D7
330
55
100
AcDbEntity
  8
0
  6
Continuous
 62
     7
100
AcDbLine
 10
-213.9749961853031
 20
-136.699995877559
 30
0.0
 11
-211.8574006753798
 21
-136.699995877559
 31
0.0
  0
LINE
  5
1D8
330
55
100
AcDbEntity
  8
0
  6
Continuous
 62
     7
100
AcDbLine
 10
-211.8574006753798
 20
-136.699995877559
 30
0.0
 11
-211.5749961853031
 21
-138.999995877559
 31
0.0
  0
LINE
  5
1D9
330
55
100
AcDbEntity
  8
0
  6
Continuous
 62
     7
100
AcDbLine
 10
-198.3432429888736
 20
-143.499995877559
 30
0.0
 11
-194.4749961853031
 21
-136.799995877559
 31
0.0
  0
ARC
  5
1DA
330
55
100
AcDbEntity
  8
0
  6
Continuous
 62
     7
100
AcDbCircle
 10
-216.3490260074498
 20
-138.1267861189957
 30
0.0
 40
0.3000000000000428
100
AcDbArc
 50
330.0000000000097
 51
79.99999999999473
  0
ARC
  5
1DB
330
55
100
AcDbEntity
  8
0
  6
Continuous
 62
     7
100
AcDbCircle
 10
-193.1749961853031
 20
-135.799995877559
 30
0.0
 40
0.5999999999999498
100
AcDbArc
 50
340.0
 51
100.0000000000043
  0
ENDBLK
  5
57
330
55
100
AcDbEntity
  8
0
100
AcDbBlockEnd
  0
BLOCK
  5
5A
330
58
100
AcDbEntity
  8
0
100
AcDbBlockBegin
  2
Rckans1
 70
     0
 10
-199.8749961853029
 20
-113.0499964500239
 30
0.0
  3
Rckans1
  1

  0
INSERT
  5
59
330
58
100
AcDbEntity
  8
0
100
AcDbBlockReference
  2
USLKG_35-IB-select__3
 10
-224.8749961853031
 20
-143.499995877559
 30
0.0
  0
MTEXT
  5
1DC
330
58
100
AcDbEntity
  8
1
 62
     6
100
AcDbMText
 10
-199.8749961853031
 20
-148.499995877559
 30
0.0
 40
5.0
 41
0.0
 71
     2
 72
     1
  1
 
  7
CONVERTER_11
 73
     1
 44
1.32052821128451
  0
ENDBLK
  5
5B
330
58
100
AcDbEntity
  8
0
100
AcDbBlockEnd
  0
BLOCK
  5
5D
330
5C
100
AcDbEntity
  8
0
100
AcDbBlockBegin
  2
USLKG_35-IB-select__4
 70
     0
 10
-267.4374979716707
 20
-143.499995877559
 30
0.0
  3
USLKG_35-IB-select__4
  1

  0
LINE
  5
1DD
330
5C
100
AcDbEntity
  8
0
  6
Continuous
 62
     7
100
AcDbLine
 10
-252.4374979716707
 20
-87.53496563634378
 30
0.0
 11
-252.4374979716707
 21
-85.68134637527518
 31
0.0
  0
LINE
  5
1DE
330
5C
100
AcDbEntity
  8
0
  6
Continuous
 62
     7
100
AcDbLine
 10
-259.9374979716707
 20
-110.0571026587456
 30
0.0
 11
-254.833516734267
 21
-110.0571026587456
 31
0.0
  0
LINE
  5
1DF
330
5C
100
AcDbEntity
  8
0
  6
Continuous
 62
     7
100
AcDbLine
 10
-254.7299633436738
 20
-121.1428890963725
 30
0.0
 11
-254.833516734267
 21
-121.1428890963725
 31
0.0
  0
LINE
  5
1E0
330
5C
100
AcDbEntity
  8
0
  6
Continuous
 62
     7
100
AcDbLine
 10
-253.7374979716707
 20
-134.399995877559
 30
0.0
 11
-255.4374979716707
 21
-134.399995877559
 31
0.0
  0
LINE
  5
1E1
330
5C
100
AcDbEntity
  8
0
  6
Continuous
 62
     7
100
AcDbLine
 10
-257.3374979716707
 20
-134.399995877559
 30
0.0
 11
-259.9374979716707
 21
-134.399995877559
 31
0.0
  0
LINE
  5
1E2
330
5C
100
AcDbEntity
  8
0
  6
Continuous
 62
     2
100
AcDbLine
 10
-259.9374979716707
 20
-123.9999958775591
 30
0.0
 11
-259.9374979716707
 21
-134.399995877559
 31
0.0
  0
LINE
  5
1E3
330
5C
100
AcDbEntity
  8
0
  6
Continuous
 62
     7
100
AcDbLine
 10
-253.4374979716707
 20
-123.9999958775591
 30
0.0
 11
-259.9374979716707
 21
-123.9999958775591
 31
0.0
  0
LINE
  5
1E4
330
5C
100
AcDbEntity
  8
0
  6
Continuous
 62
     7
100
AcDbLine
 10
-254.833516734267
 20
-121.1428890963725
 30
0.0
 11
-259.9374979716707
 21
-121.1428890963725
 31
0.0
  0
LINE
  5
1E5
330
5C
100
AcDbEntity
  8
0
  6
Continuous
 62
     7
100
AcDbLine
 10
-259.9374979716707
 20
-96.45640233811001
 30
0.0
 11
-253.4374979716707
 21
-96.45640233811001
 31
0.0
  0
LINE
  5
1E6
330
5C
100
AcDbEntity
  8
0
  6
Continuous
 62
     7
100
AcDbLine
 10
-252.4374979716707
 20
-91.84684861011854
 30
0.0
 11
-259.9374979716707
 21
-91.84684861011851
 31
0.0
  0
LINE
  5
1E7
330
5C
100
AcDbEntity
  8
0
  6
Continuous
 62
     7
100
AcDbLine
 10
-252.4374979716707
 20
-87.61279215322855
 30
0.0
 11
-259.9374979716707
 21
-87.61279215322861
 31
0.0
  0
LINE
  5
1E8
330
5C
100
AcDbEntity
  8
0
  6
Continuous
 62
     7
100
AcDbLine
 10
-252.4374979716707
 20
-87.53496563634378
 30
0.0
 11
-259.9374979716707
 21
-87.53496563634377
 31
0.0
  0
LINE
  5
1E9
330
5C
100
AcDbEntity
  8
0
  6
Continuous
 62
     7
100
AcDbLine
 10
-252.4374979716707
 20
-85.68134637527518
 30
0.0
 11
-259.9374979716707
 21
-85.68134637527515
 31
0.0
  0
LINE
  5
1EA
330
5C
100
AcDbEntity
  8
0
  6
Continuous
 62
     7
100
AcDbLine
 10
-252.4374979716707
 20
-87.61279215322855
 30
0.0
 11
-252.4374979716707
 21
-87.53496563634378
 31
0.0
  0
LINE
  5
1EB
330
5C
100
AcDbEntity
  8
0
  6
Continuous
 62
     7
100
AcDbLine
 10
-252.4374979716707
 20
-96.45640233811002
 30
0.0
 11
-252.4374979716707
 21
-91.84684861011854
 31
0.0
  0
LINE
  5
1EC
330
5C
100
AcDbEntity
  8
0
  6
Continuous
 62
     7
100
AcDbLine
 10
-253.4374979716707
 20
-107.810226937076
 30
0.0
 11
-253.4374979716707
 21
-96.45640233811001
 31
0.0
  0
LINE
  5
1ED
330
5C
100
AcDbEntity
  8
0
  6
Continuous
 62
     7
100
AcDbLine
 10
-253.4374979716707
 20
-123.9999958775591
 30
0.0
 11
-253.4374979716707
 21
-122.4353544683756
 31
0.0
  0
LINE
  5
1EE
330
5C
100
AcDbEntity
  8
0
  6
Continuous
 62
     7
100
AcDbLine
 10
-253.4374979716707
 20
-122.4353544683756
 30
0.0
 11
-253.4374979716707
 21
-107.810226937076
 31
0.0
  0
LINE
  5
1EF
330
5C
100
AcDbEntity
  8
0
  6
Continuous
 62
     7
100
AcDbLine
 10
-252.4374979716707
 20
-96.45640233811002
 30
0.0
 11
-253.4374979716707
 21
-96.45640233811001
 31
0.0
  0
LINE
  5
1F0
330
5C
100
AcDbEntity
  8
0
  6
Continuous
 62
     7
100
AcDbLine
 10
-253.7374979716707
 20
-143.499995877559
 30
0.0
 11
-253.7374979716707
 21
-140.499995877559
 31
0.0
  0
LINE
  5
1F1
330
5C
100
AcDbEntity
  8
0
  6
Continuous
 62
     7
100
AcDbLine
 10
-252.4374979716707
 20
-134.399995877559
 30
0.0
 11
-252.4374979716707
 21
-96.45640233811002
 31
0.0
  0
LINE
  5
1F2
330
5C
100
AcDbEntity
  8
0
  6
Continuous
 62
     7
100
AcDbLine
 10
-252.4374979716707
 20
-91.84684861011854
 30
0.0
 11
-252.4374979716707
 21
-87.61279215322855
 31
0.0
  0
LINE
  5
1F3
330
5C
100
AcDbEntity
  8
0
  6
Continuous
 62
     7
100
AcDbLine
 10
-252.4374979716707
 20
-85.68134637527518
 30
0.0
 11
-252.4374979716707
 21
-82.59999587755905
 31
0.0
  0
LINE
  5
1F4
330
5C
100
AcDbEntity
  8
0
  6
Continuous
 62
     7
100
AcDbLine
 10
-266.1374979716708
 20
-143.499995877559
 30
0.0
 11
-264.4374979716707
 21
-143.499995877559
 31
0.0
  0
LINE
  5
1F5
330
5C
100
AcDbEntity
  8
0
  6
Continuous
 62
     7
100
AcDbLine
 10
-266.1374979716708
 20
-143.499995877559
 30
0.0
 11
-266.1374979716708
 21
-140.499995877559
 31
0.0
  0
LINE
  5
1F6
330
5C
100
AcDbEntity
  8
0
  6
Continuous
 62
     7
100
AcDbLine
 10
-266.4374979716707
 20
-122.4353544683756
 30
0.0
 11
-266.4374979716707
 21
-123.9999958775591
 31
0.0
  0
LINE
  5
1F7
330
5C
100
AcDbEntity
  8
0
  6
Continuous
 62
     7
100
AcDbLine
 10
-267.4374979716707
 20
-85.68134637527517
 30
0.0
 11
-267.4374979716707
 21
-82.59999587755908
 31
0.0
  0
LINE
  5
1F8
330
5C
100
AcDbEntity
  8
0
  6
Continuous
 62
     7
100
AcDbLine
 10
-265.0414792090743
 20
-121.1428890963725
 30
0.0
 11
-265.1450325996676
 21
-121.1428890963725
 31
0.0
  0
LINE
  5
1F9
330
5C
100
AcDbEntity
  8
0
  6
Continuous
 62
     7
100
AcDbLine
 10
-262.5374979716708
 20
-140.999995877559
 30
0.0
 11
-264.2374979716707
 21
-140.999995877559
 31
0.0
  0
LINE
  5
1FA
330
5C
100
AcDbEntity
  8
0
  6
Continuous
 62
     7
100
AcDbLine
 10
-264.2374979716707
 20
-140.999995877559
 30
0.0
 11
-264.2374979716707
 21
-139.699995877559
 31
0.0
  0
LINE
  5
1FB
330
5C
100
AcDbEntity
  8
0
  6
Continuous
 62
     7
100
AcDbLine
 10
-262.5374979716708
 20
-140.999995877559
 30
0.0
 11
-262.5374979716708
 21
-139.699995877559
 31
0.0
  0
LINE
  5
1FC
330
5C
100
AcDbEntity
  8
0
  6
Continuous
 62
     7
100
AcDbLine
 10
-264.4374979716707
 20
-140.499995877559
 30
0.0
 11
-264.4374979716707
 21
-143.499995877559
 31
0.0
  0
LINE
  5
1FD
330
5C
100
AcDbEntity
  8
0
  6
Continuous
 62
     7
100
AcDbLine
 10
-259.9374979716707
 20
-123.9999958775591
 30
0.0
 11
-266.4374979716707
 21
-123.9999958775591
 31
0.0
  0
LINE
  5
1FE
330
5C
100
AcDbEntity
  8
0
  6
Continuous
 62
     7
100
AcDbLine
 10
-259.9374979716707
 20
-121.1428890963725
 30
0.0
 11
-265.0414792090743
 21
-121.1428890963725
 31
0.0
  0
LINE
  5
1FF
330
5C
100
AcDbEntity
  8
0
  6
Continuous
 62
     7
100
AcDbLine
 10
-257.3374979716707
 20
-140.999995877559
 30
0.0
 11
-255.6374979716707
 21
-140.999995877559
 31
0.0
  0
LINE
  5
200
330
5C
100
AcDbEntity
  8
0
  6
Continuous
 62
     7
100
AcDbLine
 10
-257.3374979716707
 20
-139.699995877559
 30
0.0
 11
-255.6374979716707
 21
-139.699995877559
 31
0.0
  0
LINE
  5
201
330
5C
100
AcDbEntity
  8
0
  6
Continuous
 62
     7
100
AcDbLine
 10
-257.3374979716707
 20
-136.0052079635544
 30
0.0
 11
-257.3374979716707
 21
-139.699995877559
 31
0.0
  0
LINE
  5
202
330
5C
100
AcDbEntity
  8
0
  6
Continuous
 62
     7
100
AcDbLine
 10
-257.3374979716707
 20
-140.999995877559
 30
0.0
 11
-257.3374979716707
 21
-139.699995877559
 31
0.0
  0
LINE
  5
203
330
5C
100
AcDbEntity
  8
0
  6
Continuous
 62
     7
100
AcDbLine
 10
-257.3374979716707
 20
-136.0052079635544
 30
0.0
 11
-257.3374979716707
 21
-135.199995877559
 31
0.0
  0
LINE
  5
204
330
5C
100
AcDbEntity
  8
0
  6
Continuous
 62
     7
100
AcDbLine
 10
-257.3374979716707
 20
-135.199995877559
 30
0.0
 11
-257.3374979716707
 21
-134.399995877559
 31
0.0
  0
LINE
  5
205
330
5C
100
AcDbEntity
  8
0
  6
Continuous
 62
     2
100
AcDbLine
 10
-259.9374979716707
 20
-121.1428890963725
 30
0.0
 11
-259.9374979716707
 21
-123.9999958775591
 31
0.0
  0
LINE
  5
206
330
5C
100
AcDbEntity
  8
0
  6
Continuous
 62
     2
100
AcDbLine
 10
-257.3374979716707
 20
-136.0052079635544
 30
0.0
 11
-255.6374979716707
 21
-136.0052079635544
 31
0.0
  0
LINE
  5
207
330
5C
100
AcDbEntity
  8
0
  6
Continuous
 62
     7
100
AcDbLine
 10
-257.3374979716707
 20
-135.199995877559
 30
0.0
 11
-255.6374979716707
 21
-135.199995877559
 31
0.0
  0
LINE
  5
208
330
5C
100
AcDbEntity
  8
0
  6
Continuous
 62
     7
100
AcDbLine
 10
-255.4374979716707
 20
-140.499995877559
 30
0.0
 11
-255.4374979716707
 21
-143.499995877559
 31
0.0
  0
LINE
  5
209
330
5C
100
AcDbEntity
  8
0
  6
Continuous
 62
     2
100
AcDbLine
 10
-259.9374979716707
 20
-91.84684861011851
 30
0.0
 11
-259.9374979716707
 21
-96.45640233811001
 31
0.0
  0
LINE
  5
20A
330
5C
100
AcDbEntity
  8
0
  6
Continuous
 62
     2
100
AcDbLine
 10
-259.9374979716707
 20
-82.59999587755908
 30
0.0
 11
-259.9374979716707
 21
-85.68134637527515
 31
0.0
  0
LINE
  5
20B
330
5C
100
AcDbEntity
  8
0
  6
Continuous
 62
     7
100
AcDbLine
 10
-252.4374979716707
 20
-82.59999587755905
 30
0.0
 11
-259.9374979716707
 21
-82.59999587755908
 31
0.0
  0
LINE
  5
20C
330
5C
100
AcDbEntity
  8
0
  6
Continuous
 62
     7
100
AcDbLine
 10
-255.6374979716707
 20
-135.199995877559
 30
0.0
 11
-255.6374979716707
 21
-136.0052079635544
 31
0.0
  0
LINE
  5
20D
330
5C
100
AcDbEntity
  8
0
  6
Continuous
 62
     7
100
AcDbLine
 10
-255.6374979716707
 20
-136.0052079635544
 30
0.0
 11
-255.6374979716707
 21
-139.699995877559
 31
0.0
  0
LINE
  5
20E
330
5C
100
AcDbEntity
  8
0
  6
Continuous
 62
     7
100
AcDbLine
 10
-255.6374979716707
 20
-134.399995877559
 30
0.0
 11
-255.6374979716707
 21
-135.199995877559
 31
0.0
  0
LINE
  5
20F
330
5C
100
AcDbEntity
  8
0
  6
Continuous
 62
     7
100
AcDbLine
 10
-255.6374979716707
 20
-139.699995877559
 30
0.0
 11
-255.6374979716707
 21
-140.999995877559
 31
0.0
  0
LINE
  5
210
330
5C
100
AcDbEntity
  8
0
  6
Continuous
 62
     7
100
AcDbLine
 10
-254.833516734267
 20
-110.0571026587456
 30
0.0
 11
-254.6058718520215
 21
-110.0571026587456
 31
0.0
  0
LINE
  5
211
330
5C
100
AcDbEntity
  8
0
  6
Continuous
 62
     7
100
AcDbLine
 10
-253.7374979716707
 20
-140.499995877559
 30
0.0
 11
-253.7374979716707
 21
-134.399995877559
 31
0.0
  0
LINE
  5
212
330
5C
100
AcDbEntity
  8
0
  6
Continuous
 62
     7
100
AcDbLine
 10
-255.4374979716707
 20
-134.399995877559
 30
0.0
 11
-255.4374979716707
 21
-140.499995877559
 31
0.0
  0
LINE
  5
213
330
5C
100
AcDbEntity
  8
0
  6
Continuous
 62
     7
100
AcDbLine
 10
-253.7374979716707
 20
-143.499995877559
 30
0.0
 11
-255.4374979716707
 21
-143.499995877559
 31
0.0
  0
LINE
  5
214
330
5C
100
AcDbEntity
  8
0
  6
Continuous
 62
     7
100
AcDbLine
 10
-253.7374979716707
 20
-140.499995877559
 30
0.0
 11
-255.4374979716707
 21
-140.499995877559
 31
0.0
  0
LINE
  5
215
330
5C
100
AcDbEntity
  8
0
  6
Continuous
 62
     7
100
AcDbLine
 10
-253.4374979716707
 20
-122.4353544683756
 30
0.0
 11
-254.7299633436738
 21
-121.1428890963725
 31
0.0
  0
LINE
  5
216
330
5C
100
AcDbEntity
  8
0
  6
Continuous
 62
     7
100
AcDbLine
 10
-254.833516734267
 20
-110.0571026587456
 30
0.0
 11
-254.833516734267
 21
-121.1428890963725
 31
0.0
  0
LINE
  5
217
330
5C
100
AcDbEntity
  8
0
  6
Continuous
 62
     7
100
AcDbLine
 10
-254.6058718520215
 20
-110.0571026587456
 30
0.0
 11
-253.4374979716707
 21
-107.810226937076
 31
0.0
  0
LINE
  5
218
330
5C
100
AcDbEntity
  8
0
  6
Continuous
 62
     7
100
AcDbLine
 10
-259.9374979716707
 20
-85.68134637527515
 30
0.0
 11
-267.4374979716707
 21
-85.68134637527517
 31
0.0
  0
LINE
  5
219
330
5C
100
AcDbEntity
  8
0
  6
Continuous
 62
     2
100
AcDbLine
 10
-259.9374979716707
 20
-85.68134637527515
 30
0.0
 11
-259.9374979716707
 21
-87.53496563634377
 31
0.0
  0
LINE
  5
21A
330
5C
100
AcDbEntity
  8
0
  6
Continuous
 62
     7
100
AcDbLine
 10
-267.4374979716707
 20
-87.53496563634378
 30
0.0
 11
-267.4374979716707
 21
-85.68134637527517
 31
0.0
  0
LINE
  5
21B
330
5C
100
AcDbEntity
  8
0
  6
Continuous
 62
     7
100
AcDbLine
 10
-259.9374979716707
 20
-82.59999587755908
 30
0.0
 11
-267.4374979716707
 21
-82.59999587755908
 31
0.0
  0
LINE
  5
21C
330
5C
100
AcDbEntity
  8
0
  6
Continuous
 62
     7
100
AcDbLine
 10
-259.9374979716707
 20
-87.61279215322861
 30
0.0
 11
-267.4374979716707
 21
-87.61279215322861
 31
0.0
  0
LINE
  5
21D
330
5C
100
AcDbEntity
  8
0
  6
Continuous
 62
     2
100
AcDbLine
 10
-259.9374979716707
 20
-87.53496563634377
 30
0.0
 11
-259.9374979716707
 21
-87.61279215322861
 31
0.0
  0
LINE
  5
21E
330
5C
100
AcDbEntity
  8
0
  6
Continuous
 62
     2
100
AcDbLine
 10
-259.9374979716707
 20
-87.61279215322861
 30
0.0
 11
-259.9374979716707
 21
-91.84684861011851
 31
0.0
  0
LINE
  5
21F
330
5C
100
AcDbEntity
  8
0
  6
Continuous
 62
     7
100
AcDbLine
 10
-267.4374979716707
 20
-87.61279215322861
 30
0.0
 11
-267.4374979716707
 21
-87.53496563634378
 31
0.0
  0
LINE
  5
220
330
5C
100
AcDbEntity
  8
0
  6
Continuous
 62
     7
100
AcDbLine
 10
-267.4374979716707
 20
-91.84684861011854
 30
0.0
 11
-267.4374979716707
 21
-87.61279215322861
 31
0.0
  0
LINE
  5
221
330
5C
100
AcDbEntity
  8
0
  6
Continuous
 62
     7
100
AcDbLine
 10
-259.9374979716707
 20
-87.53496563634377
 30
0.0
 11
-267.4374979716707
 21
-87.53496563634378
 31
0.0
  0
LINE
  5
222
330
5C
100
AcDbEntity
  8
0
  6
Continuous
 62
     7
100
AcDbLine
 10
-267.4374979716707
 20
-96.45640233811002
 30
0.0
 11
-267.4374979716707
 21
-91.84684861011854
 31
0.0
  0
LINE
  5
223
330
5C
100
AcDbEntity
  8
0
  6
Continuous
 62
     7
100
AcDbLine
 10
-264.2374979716707
 20
-139.699995877559
 30
0.0
 11
-264.2374979716707
 21
-136.0052079635544
 31
0.0
  0
LINE
  5
224
330
5C
100
AcDbEntity
  8
0
  6
Continuous
 62
     7
100
AcDbLine
 10
-264.2374979716707
 20
-136.0052079635544
 30
0.0
 11
-264.2374979716707
 21
-135.199995877559
 31
0.0
  0
LINE
  5
225
330
5C
100
AcDbEntity
  8
0
  6
Continuous
 62
     7
100
AcDbLine
 10
-264.4374979716707
 20
-134.399995877559
 30
0.0
 11
-264.4374979716707
 21
-140.499995877559
 31
0.0
  0
LINE
  5
226
330
5C
100
AcDbEntity
  8
0
  6
Continuous
 62
     7
100
AcDbLine
 10
-262.5374979716708
 20
-139.699995877559
 30
0.0
 11
-262.5374979716708
 21
-136.0052079635544
 31
0.0
  0
LINE
  5
227
330
5C
100
AcDbEntity
  8
0
  6
Continuous
 62
     2
100
AcDbLine
 10
-262.5374979716708
 20
-136.0052079635544
 30
0.0
 11
-264.2374979716707
 21
-136.0052079635544
 31
0.0
  0
LINE
  5
228
330
5C
100
AcDbEntity
  8
0
  6
Continuous
 62
     7
100
AcDbLine
 10
-262.5374979716708
 20
-136.0052079635544
 30
0.0
 11
-262.5374979716708
 21
-135.199995877559
 31
0.0
  0
LINE
  5
229
330
5C
100
AcDbEntity
  8
0
  6
Continuous
 62
     7
100
AcDbLine
 10
-264.2374979716707
 20
-135.199995877559
 30
0.0
 11
-264.2374979716707
 21
-134.399995877559
 31
0.0
  0
LINE
  5
22A
330
5C
100
AcDbEntity
  8
0
  6
Continuous
 62
     7
100
AcDbLine
 10
-262.5374979716708
 20
-135.199995877559
 30
0.0
 11
-262.5374979716708
 21
-134.399995877559
 31
0.0
  0
LINE
  5
22B
330
5C
100
AcDbEntity
  8
0
  6
Continuous
 62
     7
100
AcDbLine
 10
-264.2374979716707
 20
-135.199995877559
 30
0.0
 11
-262.5374979716708
 21
-135.199995877559
 31
0.0
  0
LINE
  5
22C
330
5C
100
AcDbEntity
  8
0
  6
Continuous
 62
     7
100
AcDbLine
 10
-262.5374979716708
 20
-139.699995877559
 30
0.0
 11
-264.2374979716707
 21
-139.699995877559
 31
0.0
  0
LINE
  5
22D
330
5C
100
AcDbEntity
  8
0
  6
Continuous
 62
     7
100
AcDbLine
 10
-266.4374979716707
 20
-96.45640233811002
 30
0.0
 11
-266.4374979716707
 21
-107.8102269370759
 31
0.0
  0
LINE
  5
22E
330
5C
100
AcDbEntity
  8
0
  6
Continuous
 62
     2
100
AcDbLine
 10
-259.9374979716707
 20
-96.45640233811001
 30
0.0
 11
-259.9374979716707
 21
-110.0571026587456
 31
0.0
  0
LINE
  5
22F
330
5C
100
AcDbEntity
  8
0
  6
Continuous
 62
     7
100
AcDbLine
 10
-266.4374979716707
 20
-96.45640233811002
 30
0.0
 11
-259.9374979716707
 21
-96.45640233811001
 31
0.0
  0
LINE
  5
230
330
5C
100
AcDbEntity
  8
0
  6
Continuous
 62
     7
100
AcDbLine
 10
-265.0414792090743
 20
-110.0571026587456
 30
0.0
 11
-259.9374979716707
 21
-110.0571026587456
 31
0.0
  0
LINE
  5
231
330
5C
100
AcDbEntity
  8
0
  6
Continuous
 62
     7
100
AcDbLine
 10
-259.9374979716707
 20
-91.84684861011851
 30
0.0
 11
-267.4374979716707
 21
-91.84684861011854
 31
0.0
  0
LINE
  5
232
330
5C
100
AcDbEntity
  8
0
  6
Continuous
 62
     7
100
AcDbLine
 10
-265.26912409132
 20
-110.0571026587456
 30
0.0
 11
-265.0414792090743
 21
-110.0571026587456
 31
0.0
  0
LINE
  5
233
330
5C
100
AcDbEntity
  8
0
  6
Continuous
 62
     7
100
AcDbLine
 10
-266.1374979716708
 20
-134.399995877559
 30
0.0
 11
-267.4374979716707
 21
-134.399995877559
 31
0.0
  0
LINE
  5
234
330
5C
100
AcDbEntity
  8
0
  6
Continuous
 62
     7
100
AcDbLine
 10
-266.4374979716707
 20
-96.45640233811002
 30
0.0
 11
-267.4374979716707
 21
-96.45640233811002
 31
0.0
  0
LINE
  5
235
330
5C
100
AcDbEntity
  8
0
  6
Continuous
 62
     7
100
AcDbLine
 10
-266.1374979716708
 20
-140.499995877559
 30
0.0
 11
-264.4374979716707
 21
-140.499995877559
 31
0.0
  0
LINE
  5
236
330
5C
100
AcDbEntity
  8
0
  6
Continuous
 62
     7
100
AcDbLine
 10
-266.1374979716708
 20
-140.499995877559
 30
0.0
 11
-266.1374979716708
 21
-134.399995877559
 31
0.0
  0
LINE
  5
237
330
5C
100
AcDbEntity
  8
0
  6
Continuous
 62
     7
100
AcDbLine
 10
-265.0414792090743
 20
-121.1428890963725
 30
0.0
 11
-265.0414792090743
 21
-110.0571026587456
 31
0.0
  0
LINE
  5
238
330
5C
100
AcDbEntity
  8
0
  6
Continuous
 62
     7
100
AcDbLine
 10
-266.4374979716707
 20
-107.8102269370759
 30
0.0
 11
-266.4374979716707
 21
-122.4353544683756
 31
0.0
  0
LINE
  5
239
330
5C
100
AcDbEntity
  8
0
  6
Continuous
 62
     7
100
AcDbLine
 10
-267.4374979716707
 20
-134.399995877559
 30
0.0
 11
-267.4374979716707
 21
-96.45640233811002
 31
0.0
  0
LINE
  5
23A
330
5C
100
AcDbEntity
  8
0
  6
Continuous
 62
     7
100
AcDbLine
 10
-265.1450325996676
 20
-121.1428890963725
 30
0.0
 11
-266.4374979716707
 21
-122.4353544683756
 31
0.0
  0
LINE
  5
23B
330
5C
100
AcDbEntity
  8
0
  6
Continuous
 62
     7
100
AcDbLine
 10
-252.4374979716707
 20
-134.399995877559
 30
0.0
 11
-253.7374979716707
 21
-134.399995877559
 31
0.0
  0
LINE
  5
23C
330
5C
100
AcDbEntity
  8
0
  6
Continuous
 62
     7
100
AcDbLine
 10
-264.4374979716707
 20
-134.399995877559
 30
0.0
 11
-266.1374979716708
 21
-134.399995877559
 31
0.0
  0
LINE
  5
23D
330
5C
100
AcDbEntity
  8
0
  6
Continuous
 62
     7
100
AcDbLine
 10
-264.2374979716707
 20
-134.399995877559
 30
0.0
 11
-264.4374979716707
 21
-134.399995877559
 31
0.0
  0
LINE
  5
23E
330
5C
100
AcDbEntity
  8
0
  6
Continuous
 62
     7
100
AcDbLine
 10
-255.4374979716707
 20
-134.399995877559
 30
0.0
 11
-255.6374979716707
 21
-134.399995877559
 31
0.0
  0
LINE
  5
23F
330
5C
100
AcDbEntity
  8
0
  6
Continuous
 62
     7
100
AcDbLine
 10
-262.5374979716708
 20
-134.399995877559
 30
0.0
 11
-264.2374979716707
 21
-134.399995877559
 31
0.0
  0
LINE
  5
240
330
5C
100
AcDbEntity
  8
0
  6
Continuous
 62
     7
100
AcDbLine
 10
-255.6374979716707
 20
-134.399995877559
 30
0.0
 11
-257.3374979716707
 21
-134.399995877559
 31
0.0
  0
LINE
  5
241
330
5C
100
AcDbEntity
  8
0
  6
Continuous
 62
     7
100
AcDbLine
 10
-259.9374979716707
 20
-134.399995877559
 30
0.0
 11
-262.5374979716708
 21
-134.399995877559
 31
0.0
  0
LINE
  5
242
330
5C
100
AcDbEntity
  8
0
  6
Continuous
 62
     7
100
AcDbLine
 10
-266.4374979716707
 20
-107.8102269370759
 30
0.0
 11
-265.26912409132
 21
-110.0571026587456
 31
0.0
  0
ENDBLK
  5
5E
330
5C
100
AcDbEntity
  8
0
100
AcDbBlockEnd
  0
BLOCK
  5
61
330
5F
100
AcDbEntity
  8
0
100
AcDbBlockBegin
  2
SA_Links1
 70
     0
 10
-259.9374980434013
 20
-113.0499964500239
 30
0.0
  3
SA_Links1
  1

  0
INSERT
  5
60
330
5F
100
AcDbEntity
  8
0
100
AcDbBlockReference
  2
USLKG_35-IB-select__4
 10
-267.4374979716707
 20
-143.499995877559
 30
0.0
  0
MTEXT
  5
243
330
5F
100
AcDbEntity
  8
1
 62
     6
100
AcDbMText
 10
-259.9374979716706
 20
-148.4999958775589
 30
0.0
 40
5.0
 41
0.0
 71
     2
 72
     1
  1
 
  7
CONVERTER_11
 73
     1
 44
1.32052821128451
  0
ENDBLK
  5
62
330
5F
100
AcDbEntity
  8
0
100
AcDbBlockEnd
  0
BLOCK
  5
64
330
63
100
AcDbEntity
  8
0
100
AcDbBlockBegin
  2
USLKG_35-IB-select__5
 70
     0
 10
-402.5625020283261
 20
-143.499995877559
 30
0.0
  3
USLKG_35-IB-select__5
  1

  0
LINE
  5
244
330
63
100
AcDbEntity
  8
0
  6
Continuous
 62
     7
100
AcDbLine
 10
-392.4625020283261
 20
-134.399995877559
 30
0.0
 11
-392.4625020283261
 21
-140.999995877559
 31
0.0
  0
LINE
  5
245
330
63
100
AcDbEntity
  8
0
  6
Continuous
 62
     7
100
AcDbLine
 10
-390.7625020283261
 20
-134.399995877559
 30
0.0
 11
-390.7625020283261
 21
-140.999995877559
 31
0.0
  0
LINE
  5
246
330
63
100
AcDbEntity
  8
0
  6
Continuous
 62
     7
100
AcDbLine
 10
-401.2625020283261
 20
-143.499995877559
 30
0.0
 11
-399.5625020283261
 21
-143.499995877559
 31
0.0
  0
LINE
  5
247
330
63
100
AcDbEntity
  8
0
  6
Continuous
 62
     7
100
AcDbLine
 10
-401.2625020283261
 20
-142.299995877559
 30
0.0
 11
-401.2625020283261
 21
-143.499995877559
 31
0.0
  0
LINE
  5
248
330
63
100
AcDbEntity
  8
0
  6
Continuous
 62
     7
100
AcDbLine
 10
-395.0625020283261
 20
-123.9999958775591
 30
0.0
 11
-401.5625020283261
 21
-123.9999958775591
 31
0.0
  0
LINE
  5
249
330
63
100
AcDbEntity
  8
0
  6
Continuous
 62
     7
100
AcDbLine
 10
-390.5625020283261
 20
-134.399995877559
 30
0.0
 11
-388.8625020283261
 21
-134.399995877559
 31
0.0
  0
LINE
  5
24A
330
63
100
AcDbEntity
  8
0
  6
Continuous
 62
     7
100
AcDbLine
 10
-388.8625020283261
 20
-134.399995877559
 30
0.0
 11
-387.5625020283261
 21
-134.399995877559
 31
0.0
  0
LINE
  5
24B
330
63
100
AcDbEntity
  8
0
  6
Continuous
 62
     7
100
AcDbLine
 10
-388.8625020283261
 20
-140.599995877559
 30
0.0
 11
-390.5625020283261
 21
-140.599995877559
 31
0.0
  0
LINE
  5
24C
330
63
100
AcDbEntity
  8
0
  6
Continuous
 62
     7
100
AcDbLine
 10
-390.5625020283261
 20
-140.599995877559
 30
0.0
 11
-390.5625020283261
 21
-140.499995877559
 31
0.0
  0
LINE
  5
24D
330
63
100
AcDbEntity
  8
0
  6
Continuous
 62
     7
100
AcDbLine
 10
-388.8625020283261
 20
-140.499995877559
 30
0.0
 11
-388.8625020283261
 21
-140.599995877559
 31
0.0
  0
LINE
  5
24E
330
63
100
AcDbEntity
  8
0
  6
Continuous
 62
     7
100
AcDbLine
 10
-401.2625020283261
 20
-140.599995877559
 30
0.0
 11
-399.5625020283261
 21
-140.599995877559
 31
0.0
  0
LINE
  5
24F
330
63
100
AcDbEntity
  8
0
  6
Continuous
 62
     7
100
AcDbLine
 10
-395.0625020283261
 20
-82.59999587755908
 30
0.0
 11
-387.5625020283261
 21
-82.59999587755908
 31
0.0
  0
LINE
  5
250
330
63
100
AcDbEntity
  8
0
  6
Continuous
 62
     7
100
AcDbLine
 10
-387.5625020283261
 20
-82.59999587755908
 30
0.0
 11
-387.5625020283261
 21
-85.68134637527506
 31
0.0
  0
LINE
  5
251
330
63
100
AcDbEntity
  8
0
  6
Continuous
 62
     7
100
AcDbLine
 10
-395.0625020283261
 20
-85.68134637527506
 30
0.0
 11
-387.5625020283261
 21
-85.68134637527506
 31
0.0
  0
LINE
  5
252
330
63
100
AcDbEntity
  8
0
  6
Continuous
 62
     7
100
AcDbLine
 10
-387.5625020283261
 20
-85.68134637527506
 30
0.0
 11
-387.5625020283261
 21
-87.53496563634377
 31
0.0
  0
LINE
  5
253
330
63
100
AcDbEntity
  8
0
  6
Continuous
 62
     7
100
AcDbLine
 10
-387.5625020283261
 20
-87.53496563634377
 30
0.0
 11
-387.5625020283261
 21
-87.61279215322874
 31
0.0
  0
LINE
  5
254
330
63
100
AcDbEntity
  8
0
  6
Continuous
 62
     7
100
AcDbLine
 10
-387.5625020283261
 20
-87.61279215322874
 30
0.0
 11
-387.5625020283261
 21
-91.84684861011851
 31
0.0
  0
LINE
  5
255
330
63
100
AcDbEntity
  8
0
  6
Continuous
 62
     2
100
AcDbLine
 10
-395.0625020283261
 20
-96.4564023381102
 30
0.0
 11
-395.0625020283261
 21
-91.8468486101185
 31
0.0
  0
LINE
  5
256
330
63
100
AcDbEntity
  8
0
  6
Continuous
 62
     7
100
AcDbLine
 10
-387.5625020283261
 20
-91.84684861011851
 30
0.0
 11
-387.5625020283261
 21
-96.45640233811005
 31
0.0
  0
LINE
  5
257
330
63
100
AcDbEntity
  8
0
  6
Continuous
 62
     7
100
AcDbLine
 10
-390.5625020283261
 20
-140.499995877559
 30
0.0
 11
-390.5625020283261
 21
-134.399995877559
 31
0.0
  0
LINE
  5
258
330
63
100
AcDbEntity
  8
0
  6
Continuous
 62
     7
100
AcDbLine
 10
-389.9585207909224
 20
-121.0393357057792
 30
0.0
 11
-389.9585207909224
 21
-121.1428890963725
 31
0.0
  0
LINE
  5
259
330
63
100
AcDbEntity
  8
0
  6
Continuous
 62
     7
100
AcDbLine
 10
-389.9585207909224
 20
-121.0393357057792
 30
0.0
 11
-389.9585207909224
 21
-110.0571026587456
 31
0.0
  0
LINE
  5
25A
330
63
100
AcDbEntity
  8
0
  6
Continuous
 62
     7
100
AcDbLine
 10
-389.8549674003291
 20
-121.1428890963725
 30
0.0
 11
-389.9585207909224
 21
-121.0393357057792
 31
0.0
  0
LINE
  5
25B
330
63
100
AcDbEntity
  8
0
  6
Continuous
 62
     7
100
AcDbLine
 10
-389.9585207909224
 20
-121.1428890963725
 30
0.0
 11
-389.8549674003291
 21
-121.1428890963725
 31
0.0
  0
LINE
  5
25C
330
63
100
AcDbEntity
  8
0
  6
Continuous
 62
     7
100
AcDbLine
 10
-387.5625020283261
 20
-96.45640233811005
 30
0.0
 11
-387.5625020283261
 21
-134.399995877559
 31
0.0
  0
LINE
  5
25D
330
63
100
AcDbEntity
  8
0
  6
Continuous
 62
     7
100
AcDbLine
 10
-388.5625020283261
 20
-96.45640233811021
 30
0.0
 11
-387.5625020283261
 21
-96.45640233811005
 31
0.0
  0
LINE
  5
25E
330
63
100
AcDbEntity
  8
0
  6
Continuous
 62
     7
100
AcDbLine
 10
-395.0625020283261
 20
-96.4564023381102
 30
0.0
 11
-388.5625020283261
 21
-96.45640233811021
 31
0.0
  0
LINE
  5
25F
330
63
100
AcDbEntity
  8
0
  6
Continuous
 62
     7
100
AcDbLine
 10
-388.5625020283261
 20
-107.810226937076
 30
0.0
 11
-388.5625020283261
 21
-96.45640233811021
 31
0.0
  0
LINE
  5
260
330
63
100
AcDbEntity
  8
0
  6
Continuous
 62
     7
100
AcDbLine
 10
-389.7308759086769
 20
-110.0571026587456
 30
0.0
 11
-389.9585207909224
 21
-110.0571026587456
 31
0.0
  0
LINE
  5
261
330
63
100
AcDbEntity
  8
0
  6
Continuous
 62
     7
100
AcDbLine
 10
-389.9585207909224
 20
-110.0571026587456
 30
0.0
 11
-395.0625020283261
 21
-110.0571026587456
 31
0.0
  0
LINE
  5
262
330
63
100
AcDbEntity
  8
0
  6
Continuous
 62
     2
100
AcDbLine
 10
-395.0625020283261
 20
-110.0571026587456
 30
0.0
 11
-395.0625020283261
 21
-96.4564023381102
 31
0.0
  0
LINE
  5
263
330
63
100
AcDbEntity
  8
0
  6
Continuous
 62
     2
100
AcDbLine
 10
-395.0625020283261
 20
-134.399995877559
 30
0.0
 11
-395.0625020283261
 21
-123.9999958775591
 31
0.0
  0
LINE
  5
264
330
63
100
AcDbEntity
  8
0
  6
Continuous
 62
     2
100
AcDbLine
 10
-395.0625020283261
 20
-123.9999958775591
 30
0.0
 11
-395.0625020283261
 21
-121.1428890963725
 31
0.0
  0
LINE
  5
265
330
63
100
AcDbEntity
  8
0
  6
Continuous
 62
     7
100
AcDbLine
 10
-388.8625020283261
 20
-134.399995877559
 30
0.0
 11
-388.8625020283261
 21
-140.499995877559
 31
0.0
  0
LINE
  5
266
330
63
100
AcDbEntity
  8
0
  6
Continuous
 62
     7
100
AcDbLine
 10
-388.5625020283261
 20
-123.9999958775591
 30
0.0
 11
-388.5625020283261
 21
-122.4353544683755
 31
0.0
  0
LINE
  5
267
330
63
100
AcDbEntity
  8
0
  6
Continuous
 62
     7
100
AcDbLine
 10
-388.5625020283261
 20
-122.4353544683755
 30
0.0
 11
-388.5625020283261
 21
-107.810226937076
 31
0.0
  0
LINE
  5
268
330
63
100
AcDbEntity
  8
0
  6
Continuous
 62
     7
100
AcDbLine
 10
-388.5625020283261
 20
-123.9999958775591
 30
0.0
 11
-395.0625020283261
 21
-123.9999958775591
 31
0.0
  0
LINE
  5
269
330
63
100
AcDbEntity
  8
0
  6
Continuous
 62
     7
100
AcDbLine
 10
-395.0625020283261
 20
-121.1428890963725
 30
0.0
 11
-389.9585207909224
 21
-121.1428890963725
 31
0.0
  0
LINE
  5
26A
330
63
100
AcDbEntity
  8
0
  6
Continuous
 62
     7
100
AcDbLine
 10
-395.0625020283261
 20
-134.399995877559
 30
0.0
 11
-392.4625020283261
 21
-134.399995877559
 31
0.0
  0
LINE
  5
26B
330
63
100
AcDbEntity
  8
0
  6
Continuous
 62
     7
100
AcDbLine
 10
-390.7625020283261
 20
-134.399995877559
 30
0.0
 11
-390.5625020283261
 21
-134.399995877559
 31
0.0
  0
LINE
  5
26C
330
63
100
AcDbEntity
  8
0
  6
Continuous
 62
     7
100
AcDbLine
 10
-392.4625020283261
 20
-134.399995877559
 30
0.0
 11
-390.7625020283261
 21
-134.399995877559
 31
0.0
  0
LINE
  5
26D
330
63
100
AcDbEntity
  8
0
  6
Continuous
 62
     7
100
AcDbLine
 10
-399.5625020283261
 20
-140.599995877559
 30
0.0
 11
-399.5625020283261
 21
-140.499995877559
 31
0.0
  0
LINE
  5
26E
330
63
100
AcDbEntity
  8
0
  6
Continuous
 62
     7
100
AcDbLine
 10
-389.8549674003291
 20
-121.1428890963725
 30
0.0
 11
-388.5625020283261
 21
-122.4353544683755
 31
0.0
  0
LINE
  5
26F
330
63
100
AcDbEntity
  8
0
  6
Continuous
 62
     7
100
AcDbLine
 10
-395.0625020283261
 20
-91.8468486101185
 30
0.0
 11
-387.5625020283261
 21
-91.84684861011851
 31
0.0
  0
LINE
  5
270
330
63
100
AcDbEntity
  8
0
  6
Continuous
 62
     7
100
AcDbLine
 10
-395.0625020283261
 20
-87.61279215322872
 30
0.0
 11
-387.5625020283261
 21
-87.61279215322874
 31
0.0
  0
LINE
  5
271
330
63
100
AcDbEntity
  8
0
  6
Continuous
 62
     7
100
AcDbLine
 10
-395.0625020283261
 20
-87.53496563634376
 30
0.0
 11
-387.5625020283261
 21
-87.53496563634377
 31
0.0
  0
LINE
  5
272
330
63
100
AcDbEntity
  8
0
  6
Continuous
 62
     7
100
AcDbLine
 10
-388.5625020283261
 20
-107.810226937076
 30
0.0
 11
-389.7308759086769
 21
-110.0571026587456
 31
0.0
  0
LINE
  5
273
330
63
100
AcDbEntity
  8
0
  6
Continuous
 62
     7
100
AcDbLine
 10
-399.3625020283261
 20
-140.999995877559
 30
0.0
 11
-399.3625020283261
 21
-134.399995877559
 31
0.0
  0
LINE
  5
274
330
63
100
AcDbEntity
  8
0
  6
Continuous
 62
     7
100
AcDbLine
 10
-397.6625020283261
 20
-134.399995877559
 30
0.0
 11
-397.6625020283261
 21
-140.999995877559
 31
0.0
  0
LINE
  5
275
330
63
100
AcDbEntity
  8
0
  6
Continuous
 62
     7
100
AcDbLine
 10
-402.5625020283261
 20
-91.84684861011853
 30
0.0
 11
-402.5625020283261
 21
-96.45640233811001
 31
0.0
  0
LINE
  5
276
330
63
100
AcDbEntity
  8
0
  6
Continuous
 62
     7
100
AcDbLine
 10
-402.5625020283261
 20
-96.45640233811001
 30
0.0
 11
-402.5625020283261
 21
-134.399995877559
 31
0.0
  0
LINE
  5
277
330
63
100
AcDbEntity
  8
0
  6
Continuous
 62
     7
100
AcDbLine
 10
-401.5625020283261
 20
-122.4353544683755
 30
0.0
 11
-401.5625020283261
 21
-123.9999958775591
 31
0.0
  0
LINE
  5
278
330
63
100
AcDbEntity
  8
0
  6
Continuous
 62
     7
100
AcDbLine
 10
-401.5625020283261
 20
-107.810226937076
 30
0.0
 11
-401.5625020283261
 21
-122.4353544683755
 31
0.0
  0
LINE
  5
279
330
63
100
AcDbEntity
  8
0
  6
Continuous
 62
     7
100
AcDbLine
 10
-401.5625020283261
 20
-96.45640233811021
 30
0.0
 11
-401.5625020283261
 21
-107.810226937076
 31
0.0
  0
LINE
  5
27A
330
63
100
AcDbEntity
  8
0
  6
Continuous
 62
     7
100
AcDbLine
 10
-402.5625020283261
 20
-91.84684861011853
 30
0.0
 11
-395.0625020283261
 21
-91.8468486101185
 31
0.0
  0
LINE
  5
27B
330
63
100
AcDbEntity
  8
0
  6
Continuous
 62
     7
100
AcDbLine
 10
-402.5625020283261
 20
-96.45640233811001
 30
0.0
 11
-401.5625020283261
 21
-96.45640233811021
 31
0.0
  0
LINE
  5
27C
330
63
100
AcDbEntity
  8
0
  6
Continuous
 62
     7
100
AcDbLine
 10
-402.5625020283261
 20
-134.399995877559
 30
0.0
 11
-401.2625020283261
 21
-134.399995877559
 31
0.0
  0
LINE
  5
27D
330
63
100
AcDbEntity
  8
0
  6
Continuous
 62
     7
100
AcDbLine
 10
-401.2625020283261
 20
-140.599995877559
 30
0.0
 11
-401.2625020283261
 21
-142.299995877559
 31
0.0
  0
LINE
  5
27E
330
63
100
AcDbEntity
  8
0
  6
Continuous
 62
     7
100
AcDbLine
 10
-401.2625020283261
 20
-142.299995877559
 30
0.0
 11
-399.5625020283261
 21
-142.299995877559
 31
0.0
  0
LINE
  5
27F
330
63
100
AcDbEntity
  8
0
  6
Continuous
 62
     7
100
AcDbLine
 10
-401.5625020283261
 20
-122.4353544683755
 30
0.0
 11
-400.2700366563231
 21
-121.1428890963725
 31
0.0
  0
LINE
  5
280
330
63
100
AcDbEntity
  8
0
  6
Continuous
 62
     7
100
AcDbLine
 10
-388.8625020283261
 20
-143.499995877559
 30
0.0
 11
-390.5625020283261
 21
-143.499995877559
 31
0.0
  0
LINE
  5
281
330
63
100
AcDbEntity
  8
0
  6
Continuous
 62
     7
100
AcDbLine
 10
-390.5625020283261
 20
-143.499995877559
 30
0.0
 11
-390.5625020283261
 21
-142.299995877559
 31
0.0
  0
LINE
  5
282
330
63
100
AcDbEntity
  8
0
  6
Continuous
 62
     7
100
AcDbLine
 10
-388.8625020283261
 20
-142.299995877559
 30
0.0
 11
-388.8625020283261
 21
-143.499995877559
 31
0.0
  0
LINE
  5
283
330
63
100
AcDbEntity
  8
0
  6
Continuous
 62
     7
100
AcDbLine
 10
-399.5625020283261
 20
-143.499995877559
 30
0.0
 11
-399.5625020283261
 21
-142.299995877559
 31
0.0
  0
LINE
  5
284
330
63
100
AcDbEntity
  8
0
  6
Continuous
 62
     7
100
AcDbLine
 10
-388.8625020283261
 20
-142.299995877559
 30
0.0
 11
-390.5625020283261
 21
-142.299995877559
 31
0.0
  0
LINE
  5
285
330
63
100
AcDbEntity
  8
0
  6
Continuous
 62
     7
100
AcDbLine
 10
-402.5625020283261
 20
-87.61279215322872
 30
0.0
 11
-395.0625020283261
 21
-87.61279215322872
 31
0.0
  0
LINE
  5
286
330
63
100
AcDbEntity
  8
0
  6
Continuous
 62
     7
100
AcDbLine
 10
-402.5625020283261
 20
-82.59999587755905
 30
0.0
 11
-402.5625020283261
 21
-85.68134637527506
 31
0.0
  0
LINE
  5
287
330
63
100
AcDbEntity
  8
0
  6
Continuous
 62
     7
100
AcDbLine
 10
-402.5625020283261
 20
-82.59999587755905
 30
0.0
 11
-395.0625020283261
 21
-82.59999587755908
 31
0.0
  0
LINE
  5
288
330
63
100
AcDbEntity
  8
0
  6
Continuous
 62
     7
100
AcDbLine
 10
-402.5625020283261
 20
-85.68134637527506
 30
0.0
 11
-402.5625020283261
 21
-87.53496563634378
 31
0.0
  0
LINE
  5
289
330
63
100
AcDbEntity
  8
0
  6
Continuous
 62
     7
100
AcDbLine
 10
-402.5625020283261
 20
-87.53496563634378
 30
0.0
 11
-402.5625020283261
 21
-87.61279215322872
 31
0.0
  0
LINE
  5
28A
330
63
100
AcDbEntity
  8
0
  6
Continuous
 62
     7
100
AcDbLine
 10
-402.5625020283261
 20
-87.61279215322872
 30
0.0
 11
-402.5625020283261
 21
-91.84684861011853
 31
0.0
  0
LINE
  5
28B
330
63
100
AcDbEntity
  8
0
  6
Continuous
 62
     7
100
AcDbLine
 10
-402.5625020283261
 20
-87.53496563634378
 30
0.0
 11
-395.0625020283261
 21
-87.53496563634376
 31
0.0
  0
LINE
  5
28C
330
63
100
AcDbEntity
  8
0
  6
Continuous
 62
     7
100
AcDbLine
 10
-402.5625020283261
 20
-85.68134637527506
 30
0.0
 11
-395.0625020283261
 21
-85.68134637527506
 31
0.0
  0
LINE
  5
28D
330
63
100
AcDbEntity
  8
0
  6
Continuous
 62
     7
100
AcDbLine
 10
-401.5625020283261
 20
-96.45640233811021
 30
0.0
 11
-395.0625020283261
 21
-96.4564023381102
 31
0.0
  0
LINE
  5
28E
330
63
100
AcDbEntity
  8
0
  6
Continuous
 62
     2
100
AcDbLine
 10
-395.0625020283261
 20
-85.68134637527506
 30
0.0
 11
-395.0625020283261
 21
-82.59999587755908
 31
0.0
  0
LINE
  5
28F
330
63
100
AcDbEntity
  8
0
  6
Continuous
 62
     2
100
AcDbLine
 10
-395.0625020283261
 20
-87.61279215322872
 30
0.0
 11
-395.0625020283261
 21
-87.53496563634376
 31
0.0
  0
LINE
  5
290
330
63
100
AcDbEntity
  8
0
  6
Continuous
 62
     2
100
AcDbLine
 10
-395.0625020283261
 20
-87.53496563634376
 30
0.0
 11
-395.0625020283261
 21
-85.68134637527506
 31
0.0
  0
LINE
  5
291
330
63
100
AcDbEntity
  8
0
  6
Continuous
 62
     2
100
AcDbLine
 10
-395.0625020283261
 20
-91.8468486101185
 30
0.0
 11
-395.0625020283261
 21
-87.61279215322872
 31
0.0
  0
LINE
  5
292
330
63
100
AcDbEntity
  8
0
  6
Continuous
 62
     7
100
AcDbLine
 10
-399.5625020283261
 20
-140.499995877559
 30
0.0
 11
-399.5625020283261
 21
-134.399995877559
 31
0.0
  0
LINE
  5
293
330
63
100
AcDbEntity
  8
0
  6
Continuous
 62
     7
100
AcDbLine
 10
-401.2625020283261
 20
-140.499995877559
 30
0.0
 11
-399.5625020283261
 21
-140.499995877559
 31
0.0
  0
LINE
  5
294
330
63
100
AcDbEntity
  8
0
  6
Continuous
 62
     7
100
AcDbLine
 10
-401.2625020283261
 20
-134.399995877559
 30
0.0
 11
-399.5625020283261
 21
-134.399995877559
 31
0.0
  0
LINE
  5
295
330
63
100
AcDbEntity
  8
0
  6
Continuous
 62
     7
100
AcDbLine
 10
-399.3625020283261
 20
-134.399995877559
 30
0.0
 11
-397.6625020283261
 21
-134.399995877559
 31
0.0
  0
LINE
  5
296
330
63
100
AcDbEntity
  8
0
  6
Continuous
 62
     7
100
AcDbLine
 10
-399.5625020283261
 20
-134.399995877559
 30
0.0
 11
-399.3625020283261
 21
-134.399995877559
 31
0.0
  0
LINE
  5
297
330
63
100
AcDbEntity
  8
0
  6
Continuous
 62
     7
100
AcDbLine
 10
-397.6625020283261
 20
-134.399995877559
 30
0.0
 11
-395.0625020283261
 21
-134.399995877559
 31
0.0
  0
LINE
  5
298
330
63
100
AcDbEntity
  8
0
  6
Continuous
 62
     7
100
AcDbLine
 10
-400.2700366563231
 20
-121.1428890963725
 30
0.0
 11
-400.1664832657298
 21
-121.1428890963725
 31
0.0
  0
LINE
  5
299
330
63
100
AcDbEntity
  8
0
  6
Continuous
 62
     7
100
AcDbLine
 10
-400.1664832657298
 20
-110.0571026587456
 30
0.0
 11
-400.3941281479754
 21
-110.0571026587456
 31
0.0
  0
LINE
  5
29A
330
63
100
AcDbEntity
  8
0
  6
Continuous
 62
     7
100
AcDbLine
 10
-395.0625020283261
 20
-110.0571026587456
 30
0.0
 11
-400.1664832657298
 21
-110.0571026587456
 31
0.0
  0
LINE
  5
29B
330
63
100
AcDbEntity
  8
0
  6
Continuous
 62
     7
100
AcDbLine
 10
-400.1664832657298
 20
-121.1428890963725
 30
0.0
 11
-395.0625020283261
 21
-121.1428890963725
 31
0.0
  0
LINE
  5
29C
330
63
100
AcDbEntity
  8
0
  6
Continuous
 62
     7
100
AcDbLine
 10
-401.2625020283261
 20
-134.399995877559
 30
0.0
 11
-401.2625020283261
 21
-140.499995877559
 31
0.0
  0
LINE
  5
29D
330
63
100
AcDbEntity
  8
0
  6
Continuous
 62
     7
100
AcDbLine
 10
-401.2625020283261
 20
-140.499995877559
 30
0.0
 11
-401.2625020283261
 21
-140.599995877559
 31
0.0
  0
LINE
  5
29E
330
63
100
AcDbEntity
  8
0
  6
Continuous
 62
     7
100
AcDbLine
 10
-400.1664832657298
 20
-110.0571026587456
 30
0.0
 11
-400.1664832657298
 21
-121.1428890963725
 31
0.0
  0
LINE
  5
29F
330
63
100
AcDbEntity
  8
0
  6
Continuous
 62
     7
100
AcDbLine
 10
-392.4625020283261
 20
-140.999995877559
 30
0.0
 11
-390.7625020283261
 21
-140.999995877559
 31
0.0
  0
LINE
  5
2A0
330
63
100
AcDbEntity
  8
0
  6
Continuous
 62
     7
100
AcDbLine
 10
-390.5625020283261
 20
-142.299995877559
 30
0.0
 11
-390.5625020283261
 21
-140.599995877559
 31
0.0
  0
LINE
  5
2A1
330
63
100
AcDbEntity
  8
0
  6
Continuous
 62
     7
100
AcDbLine
 10
-388.8625020283261
 20
-140.599995877559
 30
0.0
 11
-388.8625020283261
 21
-142.299995877559
 31
0.0
  0
LINE
  5
2A2
330
63
100
AcDbEntity
  8
0
  6
Continuous
 62
     7
100
AcDbLine
 10
-399.5625020283261
 20
-142.299995877559
 30
0.0
 11
-399.5625020283261
 21
-140.599995877559
 31
0.0
  0
LINE
  5
2A3
330
63
100
AcDbEntity
  8
0
  6
Continuous
 62
     7
100
AcDbLine
 10
-397.6625020283261
 20
-140.999995877559
 30
0.0
 11
-399.3625020283261
 21
-140.999995877559
 31
0.0
  0
LINE
  5
2A4
330
63
100
AcDbEntity
  8
0
  6
Continuous
 62
     7
100
AcDbLine
 10
-388.8625020283261
 20
-140.499995877559
 30
0.0
 11
-390.5625020283261
 21
-140.499995877559
 31
0.0
  0
LINE
  5
2A5
330
63
100
AcDbEntity
  8
0
  6
Continuous
 62
     7
100
AcDbLine
 10
-400.3941281479754
 20
-110.0571026587456
 30
0.0
 11
-401.5625020283261
 21
-107.810226937076
 31
0.0
  0
ENDBLK
  5
65
330
63
100
AcDbEntity
  8
0
100
AcDbBlockEnd
  0
BLOCK
  5
68
330
66
100
AcDbEntity
  8
0
100
AcDbBlockBegin
  2
SA_Rechts1
 70
     0
 10
-395.0625019565955
 20
-113.0499964500239
 30
0.0
  3
SA_Rechts1
  1

  0
INSERT
  5
67
330
66
100
AcDbEntity
  8
0
100
AcDbBlockReference
  2
USLKG_35-IB-select__5
 10
-402.5625020283261
 20
-143.499995877559
 30
0.0
  0
MTEXT
  5
2A6
330
66
100
AcDbEntity
  8
1
 62
     6
100
AcDbMText
 10
-395.0625020283262
 20
-148.499995877559
 30
0.0
 40
5.0
 41
0.0
 71
     2
 72
     1
  1
 
  7
CONVERTER_11
 73
     1
 44
1.32052821128451
  0
ENDBLK
  5
69
330
66
100
AcDbEntity
  8
0
100
AcDbBlockEnd
  0
BLOCK
  5
6B
330
6A
100
AcDbEntity
  8
0
100
AcDbBlockBegin
  2
USLKG_35-IB-select__6
 70
     0
 10
-342.9999999999998
 20
-143.499995877559
 30
0.0
  3
USLKG_35-IB-select__6
  1

  0
LINE
  5
2A7
330
6A
100
AcDbEntity
  8
0
  6
Continuous
 62
     7
100
AcDbLine
 10
-306.6215390309171
 20
-143.499995877559
 30
0.0
 11
-319.5317531964292
 21
-143.499995877559
 31
0.0
  0
LINE
  5
2A8
330
6A
100
AcDbEntity
  8
0
  6
Continuous
 62
     7
100
AcDbLine
 10
-319.5317531964292
 20
-143.499995877559
 30
0.0
 11
-323.3999999999998
 21
-136.799995877559
 31
0.0
  0
LINE
  5
2A9
330
6A
100
AcDbEntity
  8
0
  6
Continuous
 62
     7
100
AcDbLine
 10
-300.2135319118221
 20
-140.999995877559
 30
0.0
 11
-296.3999999999998
 21
-140.999995877559
 31
0.0
  0
LINE
  5
2AA
330
6A
100
AcDbEntity
  8
0
  6
Continuous
 62
     7
100
AcDbLine
 10
-296.3999999999998
 20
-140.999995877559
 30
0.0
 11
-296.3999999999998
 21
-134.399995877559
 31
0.0
  0
LINE
  5
2AB
330
6A
100
AcDbEntity
  8
0
  6
Continuous
 62
     7
100
AcDbLine
 10
-296.9999999999998
 20
-134.399995877559
 30
0.0
 11
-323.5999999999997
 21
-134.399995877559
 31
0.0
  0
LINE
  5
2AC
330
6A
100
AcDbEntity
  8
0
  6
Continuous
 62
     7
100
AcDbLine
 10
-296.9999999999998
 20
-134.399995877559
 30
0.0
 11
-296.9999999999998
 21
-140.499995877559
 31
0.0
  0
LINE
  5
2AD
330
6A
100
AcDbEntity
  8
0
  6
Continuous
 62
     7
100
AcDbLine
 10
-300.3999999999998
 20
-137.1999958775591
 30
0.0
 11
-300.8999999999998
 21
-136.6999958775591
 31
0.0
  0
LINE
  5
2AE
330
6A
100
AcDbEntity
  8
0
  6
Continuous
 62
     7
100
AcDbLine
 10
-300.8999999999998
 20
-136.6999958775591
 30
0.0
 11
-301.3999999999998
 21
-137.1999958775591
 31
0.0
  0
LINE
  5
2AF
330
6A
100
AcDbEntity
  8
0
  6
Continuous
 62
     7
100
AcDbLine
 10
-303.8999999999998
 20
-136.6999958775591
 30
0.0
 11
-306.0175955099231
 21
-136.6999958775591
 31
0.0
  0
LINE
  5
2B0
330
6A
100
AcDbEntity
  8
0
  6
Continuous
 62
     7
100
AcDbLine
 10
-301.8999999999998
 20
-136.6999958775591
 30
0.0
 11
-302.3999999999998
 21
-137.1999958775591
 31
0.0
  0
LINE
  5
2B1
330
6A
100
AcDbEntity
  8
0
  6
Continuous
 62
     7
100
AcDbLine
 10
-301.3999999999998
 20
-137.1999958775591
 30
0.0
 11
-301.8999999999998
 21
-136.6999958775591
 31
0.0
  0
LINE
  5
2B2
330
6A
100
AcDbEntity
  8
0
  6
Continuous
 62
     7
100
AcDbLine
 10
-302.3999999999998
 20
-137.1999958775591
 30
0.0
 11
-302.8999999999998
 21
-136.6999958775591
 31
0.0
  0
LINE
  5
2B3
330
6A
100
AcDbEntity
  8
0
  6
Continuous
 62
     7
100
AcDbLine
 10
-303.3999999999998
 20
-137.1999958775591
 30
0.0
 11
-303.8999999999998
 21
-136.6999958775591
 31
0.0
  0
LINE
  5
2B4
330
6A
100
AcDbEntity
  8
0
  6
Continuous
 62
     7
100
AcDbLine
 10
-302.8999999999998
 20
-136.6999958775591
 30
0.0
 11
-303.3999999999998
 21
-137.1999958775591
 31
0.0
  0
LINE
  5
2B5
330
6A
100
AcDbEntity
  8
0
  6
Continuous
 62
     7
100
AcDbLine
 10
-301.7857777989884
 20
-138.2767861189957
 30
0.0
 11
-300.2135319118221
 21
-140.999995877559
 31
0.0
  0
LINE
  5
2B6
330
6A
100
AcDbEntity
  8
0
  6
Continuous
 62
     7
100
AcDbLine
 10
-336.7790185393238
 20
-85.68134637527521
 30
0.0
 11
-334.9999999999997
 21
-82.59999587755908
 31
0.0
  0
LINE
  5
2B7
330
6A
100
AcDbEntity
  8
0
  6
Continuous
 62
     7
100
AcDbLine
 10
-300.9999999999998
 20
-82.59999587755907
 30
0.0
 11
-334.9999999999997
 21
-82.59999587755908
 31
0.0
  0
LINE
  5
2B8
330
6A
100
AcDbEntity
  8
0
  6
Continuous
 62
     7
100
AcDbLine
 10
-342.9999999999998
 20
-134.399995877559
 30
0.0
 11
-342.9999999999998
 21
-96.45640233811004
 31
0.0
  0
LINE
  5
2B9
330
6A
100
AcDbEntity
  8
0
  6
Continuous
 62
     7
100
AcDbLine
 10
-340.3386729142997
 20
-91.84684861011854
 30
0.0
 11
-338.0531630183027
 21
-92.0982293490498
 31
0.0
  0
LINE
  5
2BA
330
6A
100
AcDbEntity
  8
0
  6
Continuous
 62
     7
100
AcDbLine
 10
-338.3171122518456
 20
-92.55540283216516
 30
0.0
 11
-337.3904650697962
 21
-93.09040283216518
 31
0.0
  0
LINE
  5
2BB
330
6A
100
AcDbEntity
  8
0
  6
Continuous
 62
     7
100
AcDbLine
 10
-338.0531630183027
 20
-92.0982293490498
 30
0.0
 11
-338.3171122518456
 21
-92.55540283216516
 31
0.0
  0
LINE
  5
2BC
330
6A
100
AcDbEntity
  8
0
  6
Continuous
 62
     7
100
AcDbLine
 10
-338.9999999999998
 20
-134.399995877559
 30
0.0
 11
-342.9999999999998
 21
-134.399995877559
 31
0.0
  0
LINE
  5
2BD
330
6A
100
AcDbEntity
  8
0
  6
Continuous
 62
     7
100
AcDbLine
 10
-334.1018815920388
 20
-134.399995877559
 30
0.0
 11
-338.9999999999998
 21
-134.399995877559
 31
0.0
  0
LINE
  5
2BE
330
6A
100
AcDbEntity
  8
0
  6
Continuous
 62
     7
100
AcDbLine
 10
-327.5999999999997
 20
-134.399995877559
 30
0.0
 11
-334.1018815920388
 21
-134.399995877559
 31
0.0
  0
LINE
  5
2BF
330
6A
100
AcDbEntity
  8
0
  6
Continuous
 62
     7
100
AcDbLine
 10
-335.1546122518456
 20
-87.07779215322854
 30
0.0
 11
-335.4185614853885
 21
-87.5349656363438
 31
0.0
  0
LINE
  5
2C0
330
6A
100
AcDbEntity
  8
0
  6
Continuous
 62
     7
100
AcDbLine
 10
-327.1999999999998
 20
-134.399995877559
 30
0.0
 11
-327.5999999999997
 21
-134.399995877559
 31
0.0
  0
LINE
  5
2C1
330
6A
100
AcDbEntity
  8
0
  6
Continuous
 62
     7
100
AcDbLine
 10
-326.5999999999997
 20
-134.399995877559
 30
0.0
 11
-327.1999999999998
 21
-134.399995877559
 31
0.0
  0
LINE
  5
2C2
330
6A
100
AcDbEntity
  8
0
  6
Continuous
 62
     7
100
AcDbLine
 10
-324.1999999999998
 20
-134.399995877559
 30
0.0
 11
-324.5999999999997
 21
-134.399995877559
 31
0.0
  0
LINE
  5
2C3
330
6A
100
AcDbEntity
  8
0
  6
Continuous
 62
     7
100
AcDbLine
 10
-325.5999999999997
 20
-134.399995877559
 30
0.0
 11
-326.1999999999998
 21
-134.399995877559
 31
0.0
  0
LINE
  5
2C4
330
6A
100
AcDbEntity
  8
0
  6
Continuous
 62
     7
100
AcDbLine
 10
-326.1999999999998
 20
-134.399995877559
 30
0.0
 11
-326.5999999999997
 21
-134.399995877559
 31
0.0
  0
LINE
  5
2C5
330
6A
100
AcDbEntity
  8
0
  6
Continuous
 62
     7
100
AcDbLine
 10
-325.1999999999997
 20
-134.399995877559
 30
0.0
 11
-325.5999999999997
 21
-134.399995877559
 31
0.0
  0
LINE
  5
2C6
330
6A
100
AcDbEntity
  8
0
  6
Continuous
 62
     7
100
AcDbLine
 10
-326.3999999999998
 20
-134.599995877559
 30
0.0
 11
-326.1999999999998
 21
-134.399995877559
 31
0.0
  0
LINE
  5
2C7
330
6A
100
AcDbEntity
  8
0
  6
Continuous
 62
     7
100
AcDbLine
 10
-323.3999999999998
 20
-134.599995877559
 30
0.0
 11
-323.5999999999997
 21
-134.399995877559
 31
0.0
  0
LINE
  5
2C8
330
6A
100
AcDbEntity
  8
0
  6
Continuous
 62
     7
100
AcDbLine
 10
-326.5999999999997
 20
-134.399995877559
 30
0.0
 11
-326.3999999999998
 21
-134.599995877559
 31
0.0
  0
LINE
  5
2C9
330
6A
100
AcDbEntity
  8
0
  6
Continuous
 62
     7
100
AcDbLine
 10
-334.2279650697962
 20
-87.61279215322857
 30
0.0
 11
-335.1546122518456
 21
-87.07779215322854
 31
0.0
  0
LINE
  5
2CA
330
6A
100
AcDbEntity
  8
0
  6
Continuous
 62
     7
100
AcDbLine
 10
-335.4185614853885
 20
-87.5349656363438
 30
0.0
 11
-336.7790185393238
 21
-85.68134637527521
 31
0.0
  0
LINE
  5
2CB
330
6A
100
AcDbEntity
  8
0
  6
Continuous
 62
     7
100
AcDbLine
 10
-342.9999999999998
 20
-96.45640233811004
 30
0.0
 11
-340.3386729142997
 21
-91.84684861011854
 31
0.0
  0
LINE
  5
2CC
330
6A
100
AcDbEntity
  8
0
  6
Continuous
 62
     7
100
AcDbLine
 10
-337.3904650697962
 20
-93.09040283216518
 30
0.0
 11
-334.2279650697962
 21
-87.61279215322857
 31
0.0
  0
LINE
  5
2CD
330
6A
100
AcDbEntity
  8
0
  6
Continuous
 62
     7
100
AcDbLine
 10
-298.6095349302034
 20
-93.0904028321652
 30
0.0
 11
-297.6828877481541
 21
-92.55540283216516
 31
0.0
  0
LINE
  5
2CE
330
6A
100
AcDbEntity
  8
0
  6
Continuous
 62
     7
100
AcDbLine
 10
-297.6828877481541
 20
-92.55540283216516
 30
0.0
 11
-297.9468369816968
 21
-92.09822934904982
 31
0.0
  0
LINE
  5
2CF
330
6A
100
AcDbEntity
  8
0
  6
Continuous
 62
     7
100
AcDbLine
 10
-297.9468369816968
 20
-92.09822934904982
 30
0.0
 11
-295.6613270856997
 21
-91.84684861011854
 31
0.0
  0
LINE
  5
2D0
330
6A
100
AcDbEntity
  8
0
  6
Continuous
 62
     7
100
AcDbLine
 10
-292.9999999999997
 20
-96.45640233811022
 30
0.0
 11
-292.9999999999998
 21
-134.399995877559
 31
0.0
  0
LINE
  5
2D1
330
6A
100
AcDbEntity
  8
0
  6
Continuous
 62
     7
100
AcDbLine
 10
-296.3999999999998
 20
-134.399995877559
 30
0.0
 11
-296.9999999999998
 21
-134.399995877559
 31
0.0
  0
LINE
  5
2D2
330
6A
100
AcDbEntity
  8
0
  6
Continuous
 62
     7
100
AcDbLine
 10
-292.9999999999998
 20
-134.399995877559
 30
0.0
 11
-296.3999999999998
 21
-134.399995877559
 31
0.0
  0
LINE
  5
2D3
330
6A
100
AcDbEntity
  8
0
  6
Continuous
 62
     7
100
AcDbLine
 10
-306.0175955099231
 20
-136.6999958775591
 30
0.0
 11
-306.2999999999997
 21
-138.999995877559
 31
0.0
  0
LINE
  5
2D4
330
6A
100
AcDbEntity
  8
0
  6
Continuous
 62
     7
100
AcDbLine
 10
-295.6613270856997
 20
-91.84684861011854
 30
0.0
 11
-292.9999999999997
 21
-96.45640233811022
 31
0.0
  0
LINE
  5
2D5
330
6A
100
AcDbEntity
  8
0
  6
Continuous
 62
     7
100
AcDbLine
 10
-323.5999999999997
 20
-134.399995877559
 30
0.0
 11
-324.1999999999998
 21
-134.399995877559
 31
0.0
  0
LINE
  5
2D6
330
6A
100
AcDbEntity
  8
0
  6
Continuous
 62
     7
100
AcDbLine
 10
-323.3999999999998
 20
-136.799995877559
 30
0.0
 11
-323.3999999999998
 21
-134.599995877559
 31
0.0
  0
LINE
  5
2D7
330
6A
100
AcDbEntity
  8
0
  6
Continuous
 62
     7
100
AcDbLine
 10
-306.9999999999997
 20
-142.299995877559
 30
0.0
 11
-306.2999999999997
 21
-142.299995877559
 31
0.0
  0
LINE
  5
2D8
330
6A
100
AcDbEntity
  8
0
  6
Continuous
 62
     7
100
AcDbLine
 10
-306.2999999999997
 20
-142.299995877559
 30
0.0
 11
-306.6215390309171
 21
-143.499995877559
 31
0.0
  0
LINE
  5
2D9
330
6A
100
AcDbEntity
  8
0
  6
Continuous
 62
     7
100
AcDbLine
 10
-300.845387748154
 20
-87.07779215322853
 30
0.0
 11
-301.7720349302036
 21
-87.61279215322874
 31
0.0
  0
LINE
  5
2DA
330
6A
100
AcDbEntity
  8
0
  6
Continuous
 62
     7
100
AcDbLine
 10
-300.581438514611
 20
-87.5349656363438
 30
0.0
 11
-300.845387748154
 21
-87.07779215322853
 31
0.0
  0
LINE
  5
2DB
330
6A
100
AcDbEntity
  8
0
  6
Continuous
 62
     7
100
AcDbLine
 10
-338.9999999999998
 20
-140.499995877559
 30
0.0
 11
-338.9999999999998
 21
-134.399995877559
 31
0.0
  0
LINE
  5
2DC
330
6A
100
AcDbEntity
  8
0
  6
Continuous
 62
     7
100
AcDbLine
 10
-327.1999999999998
 20
-134.399995877559
 30
0.0
 11
-327.3999999999998
 21
-134.599995877559
 31
0.0
  0
LINE
  5
2DD
330
6A
100
AcDbEntity
  8
0
  6
Continuous
 62
     7
100
AcDbLine
 10
-327.3999999999998
 20
-134.599995877559
 30
0.0
 11
-327.5999999999997
 21
-134.399995877559
 31
0.0
  0
LINE
  5
2DE
330
6A
100
AcDbEntity
  8
0
  6
Continuous
 62
     7
100
AcDbLine
 10
-324.1999999999998
 20
-134.399995877559
 30
0.0
 11
-324.3999999999998
 21
-134.599995877559
 31
0.0
  0
LINE
  5
2DF
330
6A
100
AcDbEntity
  8
0
  6
Continuous
 62
     7
100
AcDbLine
 10
-323.3999999999998
 20
-135.4199649853487
 30
0.0
 11
-324.5958110933996
 21
-135.2091112257517
 31
0.0
  0
LINE
  5
2E0
330
6A
100
AcDbEntity
  8
0
  6
Continuous
 62
     7
100
AcDbLine
 10
-325.5999999999997
 20
-134.399995877559
 30
0.0
 11
-325.3999999999998
 21
-134.599995877559
 31
0.0
  0
LINE
  5
2E1
330
6A
100
AcDbEntity
  8
0
  6
Continuous
 62
     7
100
AcDbLine
 10
-324.3999999999998
 20
-134.599995877559
 30
0.0
 11
-324.5999999999997
 21
-134.399995877559
 31
0.0
  0
LINE
  5
2E2
330
6A
100
AcDbEntity
  8
0
  6
Continuous
 62
     7
100
AcDbLine
 10
-324.5999999999997
 20
-134.399995877559
 30
0.0
 11
-325.1999999999997
 21
-134.399995877559
 31
0.0
  0
LINE
  5
2E3
330
6A
100
AcDbEntity
  8
0
  6
Continuous
 62
     7
100
AcDbLine
 10
-325.3999999999998
 20
-134.599995877559
 30
0.0
 11
-325.1999999999997
 21
-134.399995877559
 31
0.0
  0
LINE
  5
2E4
330
6A
100
AcDbEntity
  8
0
  6
Continuous
 62
     7
100
AcDbLine
 10
-307.4555136271326
 20
-140.599995877559
 30
0.0
 11
-306.9999999999997
 21
-142.299995877559
 31
0.0
  0
LINE
  5
2E5
330
6A
100
AcDbEntity
  8
0
  6
Continuous
 62
     7
100
AcDbLine
 10
-325.2638155724713
 20
-136.0052079635544
 30
0.0
 11
-323.9190227498471
 21
-139.6999958775591
 31
0.0
  0
LINE
  5
2E6
330
6A
100
AcDbEntity
  8
0
  6
Continuous
 62
     7
100
AcDbLine
 10
-299.2209814606757
 20
-85.68134637527507
 30
0.0
 11
-300.581438514611
 21
-87.5349656363438
 31
0.0
  0
LINE
  5
2E7
330
6A
100
AcDbEntity
  8
0
  6
Continuous
 62
     7
100
AcDbLine
 10
-306.2999999999997
 20
-138.999995877559
 30
0.0
 11
-306.2999999999997
 21
-140.599995877559
 31
0.0
  0
LINE
  5
2E8
330
6A
100
AcDbEntity
  8
0
  6
Continuous
 62
     7
100
AcDbLine
 10
-299.515767664977
 20
-140.499995877559
 30
0.0
 11
-300.3999999999998
 21
-137.1999958775591
 31
0.0
  0
LINE
  5
2E9
330
6A
100
AcDbEntity
  8
0
  6
Continuous
 62
     7
100
AcDbLine
 10
-301.7720349302036
 20
-87.61279215322874
 30
0.0
 11
-298.6095349302034
 21
-93.0904028321652
 31
0.0
  0
LINE
  5
2EA
330
6A
100
AcDbEntity
  8
0
  6
Continuous
 62
     7
100
AcDbLine
 10
-300.9999999999998
 20
-82.59999587755907
 30
0.0
 11
-299.2209814606757
 21
-85.68134637527507
 31
0.0
  0
LINE
  5
2EB
330
6A
100
AcDbEntity
  8
0
  6
Continuous
 62
     7
100
AcDbLine
 10
-335.5999999999997
 20
-137.0589342929922
 30
0.0
 11
-335.8540980382214
 21
-138.499995877559
 31
0.0
  0
LINE
  5
2EC
330
6A
100
AcDbEntity
  8
0
  6
Continuous
 62
     7
100
AcDbLine
 10
-300.2916114667027
 20
-137.6045073907816
 30
0.0
 11
-301.5780646311532
 21
-137.831343793092
 31
0.0
  0
LINE
  5
2ED
330
6A
100
AcDbEntity
  8
0
  6
Continuous
 62
     7
100
AcDbLine
 10
-334.7999999999997
 20
-137.1999958775591
 30
0.0
 11
-335.5999999999997
 21
-137.0589342929922
 31
0.0
  0
LINE
  5
2EE
330
6A
100
AcDbEntity
  8
0
  6
Continuous
 62
     7
100
AcDbLine
 10
-335.8540980382214
 20
-138.499995877559
 30
0.0
 11
-335.0999999999997
 21
-138.499995877559
 31
0.0
  0
LINE
  5
2EF
330
6A
100
AcDbEntity
  8
0
  6
Continuous
 62
     7
100
AcDbLine
 10
-323.9190227498471
 20
-139.6999958775591
 30
0.0
 11
-321.7256842193498
 21
-139.6999958775591
 31
0.0
  0
LINE
  5
2F0
330
6A
100
AcDbEntity
  8
0
  6
Continuous
 62
     7
100
AcDbLine
 10
-306.2999999999997
 20
-140.599995877559
 30
0.0
 11
-307.4555136271326
 21
-140.599995877559
 31
0.0
  0
LINE
  5
2F1
330
6A
100
AcDbEntity
  8
0
  6
Continuous
 62
     7
100
AcDbLine
 10
-296.9999999999998
 20
-140.499995877559
 30
0.0
 11
-299.515767664977
 21
-140.499995877559
 31
0.0
  0
LINE
  5
2F2
330
6A
100
AcDbEntity
  8
0
  6
Continuous
 62
     7
100
AcDbLine
 10
-335.2555136271326
 20
-140.499995877559
 30
0.0
 11
-338.9999999999998
 21
-140.499995877559
 31
0.0
  0
LINE
  5
2F3
330
6A
100
AcDbEntity
  8
0
  6
Continuous
 62
     7
100
AcDbLine
 10
-335.0999999999997
 20
-138.499995877559
 30
0.0
 11
-334.7999999999997
 21
-138.799995877559
 31
0.0
  0
LINE
  5
2F4
330
6A
100
AcDbEntity
  8
0
  6
Continuous
 62
     7
100
AcDbLine
 10
-334.7999999999997
 20
-138.799995877559
 30
0.0
 11
-335.2555136271326
 21
-140.499995877559
 31
0.0
  0
LINE
  5
2F5
330
6A
100
AcDbEntity
  8
0
  6
Continuous
 62
     7
100
AcDbLine
 10
-334.1018815920388
 20
-134.399995877559
 30
0.0
 11
-334.7999999999997
 21
-137.1999958775591
 31
0.0
  0
ARC
  5
2F6
330
6A
100
AcDbEntity
  8
0
  6
Continuous
 62
     7
100
AcDbCircle
 10
-324.6999999999998
 20
-135.799995877559
 30
0.0
 40
0.5999999999999833
100
AcDbArc
 50
79.99999999999567
 51
200.000000000001
  0
ARC
  5
2F7
330
6A
100
AcDbEntity
  8
0
  6
Continuous
 62
     7
100
AcDbCircle
 10
-301.5259701778531
 20
-138.1267861189957
 30
0.0
 40
0.3000000000000526
100
AcDbArc
 50
100.0000000000078
 51
209.9999999999957
  0
ENDBLK
  5
6C
330
6A
100
AcDbEntity
  8
0
100
AcDbBlockEnd
  0
BLOCK
  5
6F
330
6D
100
AcDbEntity
  8
0
100
AcDbBlockBegin
  2
Vordans1
 70
     0
 10
-318.0
 20
-113.0499964500239
 30
0.0
  3
Vordans1
  1

  0
INSERT
  5
6E
330
6D
100
AcDbEntity
  8
0
100
AcDbBlockReference
  2
USLKG_35-IB-select__6
 10
-342.9999999999998
 20
-143.499995877559
 30
0.0
  0
LINE
  5
2F8
330
6D
100
AcDbEntity
  8
1
  6
DOT_CENTER
 62
     2
100
AcDbLine
 10
-300.4999999999998
 20
-132.898308190824
 30
0.0
 11
-300.4999999999998
 21
-135.898308190824
 31
0.0
  0
LINE
  5
2F9
330
6D
100
AcDbEntity
  8
1
  6
DOT_CENTER
 62
     2
100
AcDbLine
 10
-317.9999999999998
 20
-132.898308190824
 30
0.0
 11
-317.9999999999998
 21
-135.898308190824
 31
0.0
  0
MTEXT
  5
2FA
330
6D
100
AcDbEntity
  8
1
 62
     6
100
AcDbMText
 10
-317.9999999999997
 20
-148.4999958775589
 30
0.0
 40
5.0
 41
0.0
 71
     2
 72
     1
  1
 
  7
CONVERTER_11
 73
     1
 44
1.32052821128451
  0
DIMENSION
  5
305
330
6D
100
AcDbEntity
  8
1
100
AcDbDimension
  2
*D18
 10
-342.9999999999998
 20
-169.220849602469
 30
0.0
 11
-317.762883741047
 21
-165.470849602469
 31
0.0
 70
    32
  1
<>
 71
     5
 42
-1.0
 53
0.00013888888889
  3
ME10_DIM_11
100
AcDbAlignedDimension
 13
-292.9999999999998
 23
-134.399995877559
 33
0.0
 14
-342.9999999999998
 24
-134.399995877559
 34
0.0
100
AcDbRotatedDimension
  0
DIMENSION
  5
310
330
6D
100
AcDbEntity
  8
1
100
AcDbDimension
  2
*D19
 10
-349.385797575012
 20
-82.59999587755904
 30
0.0
 11
-352.810797575012
 21
-108.354323666207
 31
0.0
 70
    32
  1
<>
 71
     5
 42
-1.0
 53
90.0
  3
ME10_DIM_12
100
AcDbAlignedDimension
 13
-301.3999999999998
 23
-137.1999958775591
 33
0.0
 14
-334.9999999999997
 24
-82.59999587755908
 34
0.0
 50
90.0
100
AcDbRotatedDimension
  0
DIMENSION
  5
31B
330
6D
100
AcDbEntity
  8
1
100
AcDbDimension
  2
*D20
 10
-357.385797575012
 20
-82.59999587755912
 30
0.0
 11
-360.810797575012
 21
-113.0499958775591
 31
0.0
 70
    32
  1
<>
 71
     5
 42
-1.0
 53
90.0
  3
ME10_DIM_13
100
AcDbAlignedDimension
 13
-319.5317531964292
 23
-143.499995877559
 33
0.0
 14
-334.9999999999997
 24
-82.59999587755908
 34
0.0
 50
90.0
100
AcDbRotatedDimension
  0
DIMENSION
  5
326
330
6D
100
AcDbEntity
  8
1
100
AcDbDimension
  2
*D21
 10
-317.9999999999998
 20
-152.9394317109002
 30
0.0
 11
-308.2331022553898
 21
-149.5144317109002
 31
0.0
 70
    32
  1
<>
 71
     5
 42
-1.0
 53
0.00013888888889
  3
ME10_DIM_14
100
AcDbAlignedDimension
 13
-300.4999999999998
 23
-135.898308190824
 33
0.0
 14
-317.9999999999998
 24
-135.898308190824
 34
0.0
100
AcDbRotatedDimension
  0
DIMENSION
  5
331
330
6D
100
AcDbEntity
  8
1
100
AcDbDimension
  2
*D22
 10
-317.9999999999998
 20
-160.9394317109002
 30
0.0
 11
-305.4999999999998
 21
-157.6894317109002
 31
0.0
 70
    32
  1
<>
 71
     5
 42
-1.0
 53
0.00013888888889
  3
ME10_DIM_15
100
AcDbAlignedDimension
 13
-292.9999999999998
 23
-134.399995877559
 33
0.0
 14
-317.9999999999998
 24
-135.898308190824
 34
0.0
100
AcDbRotatedDimension
  0
ENDBLK
  5
70
330
6D
100
AcDbEntity
  8
0
100
AcDbBlockEnd
  0
BLOCK
  5
72
330
71
100
AcDbEntity
  8
0
100
AcDbBlockBegin
  2
_rahmen
 70
     0
 10
-145.7187491068146
 20
-251.0499979992684
 30
0.0
  3
_rahmen
  1

  0
LINE
  5
332
330
71
100
AcDbEntity
  8
1
  6
Continuous
 62
     6
100
AcDbLine
 10
-275.2635536335646
 20
-220.5499979992683
 30
0.0
 11
-145.7187491068129
 21
-220.5499979992683
 31
0.0
  0
LINE
  5
333
330
71
100
AcDbEntity
  8
1
  6
Continuous
 62
     7
100
AcDbLine
 10
-257.0635536335646
 20
-241.7999979992683
 30
0.0
 11
-238.8635536335647
 21
-241.7999979992683
 31
0.0
  0
LINE
  5
334
330
71
100
AcDbEntity
  8
1
  6
Continuous
 62
     6
100
AcDbLine
 10
-257.0635536335646
 20
-246.0499979992683
 30
0.0
 11
-275.2635536335646
 21
-246.0499979992684
 31
0.0
  0
LINE
  5
335
330
71
100
AcDbEntity
  8
1
  6
Continuous
 62
     7
100
AcDbLine
 10
-257.0635536335646
 20
-241.7999979992683
 30
0.0
 11
-257.0635536335646
 21
-246.0499979992683
 31
0.0
  0
LINE
  5
336
330
71
100
AcDbEntity
  8
1
  6
Continuous
 62
     7
100
AcDbLine
 10
-238.8635536335647
 20
-241.7999979992683
 30
0.0
 11
-238.8635536335647
 21
-246.0499979992684
 31
0.0
  0
LINE
  5
337
330
71
100
AcDbEntity
  8
1
  6
Continuous
 62
     7
100
AcDbLine
 10
-275.2635536335646
 20
-241.7999979992684
 30
0.0
 11
-275.2635536335646
 21
-246.0499979992684
 31
0.0
  0
LINE
  5
338
330
71
100
AcDbEntity
  8
1
  6
Continuous
 62
     7
100
AcDbLine
 10
-275.2635536335646
 20
-241.7999979992684
 30
0.0
 11
-257.0635536335646
 21
-241.7999979992683
 31
0.0
  0
LINE
  5
339
330
71
100
AcDbEntity
  8
1
  6
Continuous
 62
     2
100
AcDbLine
 10
-266.026898747002
 20
-222.4249979992684
 30
0.0
 11
-266.026898747002
 21
-227.4249979992684
 31
0.0
  0
LINE
  5
33A
330
71
100
AcDbEntity
  8
1
  6
Continuous
 62
     2
100
AcDbLine
 10
-266.026898747002
 20
-227.4249979992684
 30
0.0
 11
-271.026898747002
 21
-226.1749979992684
 31
0.0
  0
LINE
  5
33B
330
71
100
AcDbEntity
  8
1
  6
Continuous
 62
     2
100
AcDbLine
 10
-271.026898747002
 20
-226.1749979992684
 30
0.0
 11
-271.026898747002
 21
-223.6749979992684
 31
0.0
  0
LINE
  5
33C
330
71
100
AcDbEntity
  8
1
  6
Continuous
 62
     2
100
AcDbLine
 10
-271.026898747002
 20
-223.6749979992684
 30
0.0
 11
-266.026898747002
 21
-222.4249979992684
 31
0.0
  0
LINE
  5
33D
330
71
100
AcDbEntity
  8
1
  6
Continuous
 62
     6
100
AcDbLine
 10
-397.7187491068128
 20
-246.0499979992683
 30
0.0
 11
-432.7187491068127
 21
-246.0499979992683
 31
0.0
  0
LINE
  5
33E
330
71
100
AcDbEntity
  8
1
  6
Continuous
 62
     6
100
AcDbLine
 10
-145.7187491068129
 20
-229.0499979992683
 30
0.0
 11
-145.7187491068133
 21
-237.5499979992683
 31
0.0
  0
LINE
  5
33F
330
71
100
AcDbEntity
  8
1
  6
Continuous
 62
     6
100
AcDbLine
 10
-238.8635536335647
 20
-246.0499979992684
 30
0.0
 11
-239.2187491068146
 21
-246.0499979992683
 31
0.0
  0
LINE
  5
340
330
71
100
AcDbEntity
  8
1
  6
Continuous
 62
     6
100
AcDbLine
 10
-391.5187491068148
 20
-246.0499979992684
 30
0.0
 11
-397.7187491068128
 21
-246.0499979992683
 31
0.0
  0
LINE
  5
341
330
71
100
AcDbEntity
  8
1
  6
Continuous
 62
     7
100
AcDbLine
 10
-238.8635536335647
 20
-229.0499979992683
 30
0.0
 11
-238.8635536335647
 21
-241.7999979992683
 31
0.0
  0
LINE
  5
342
330
71
100
AcDbEntity
  8
1
  6
Continuous
 62
     7
100
AcDbLine
 10
-275.2635536335646
 20
-229.0499979992683
 30
0.0
 11
-275.2635536335646
 21
-241.7999979992684
 31
0.0
  0
LINE
  5
343
330
71
100
AcDbEntity
  8
1
  6
Continuous
 62
     6
100
AcDbLine
 10
-289.2187491068146
 20
-246.0499979992683
 30
0.0
 11
-339.2187491068148
 21
-246.0499979992683
 31
0.0
  0
LINE
  5
344
330
71
100
AcDbEntity
  8
1
  6
Continuous
 62
     6
100
AcDbLine
 10
-391.5187491068148
 20
-246.0499979992684
 30
0.0
 11
-389.2187491068146
 21
-246.0499979992683
 31
0.0
  0
LINE
  5
345
330
71
100
AcDbEntity
  8
1
  6
Continuous
 62
     6
100
AcDbLine
 10
-238.8635536335647
 20
-246.0499979992684
 30
0.0
 11
-189.2187491068146
 21
-246.0499979992683
 31
0.0
  0
LINE
  5
346
330
71
100
AcDbEntity
  8
1
  6
Continuous
 62
     6
100
AcDbLine
 10
-145.7187491068146
 20
-246.0499979992683
 30
0.0
 11
-145.7187491068133
 21
-237.5499979992683
 31
0.0
  0
LINE
  5
347
330
71
100
AcDbEntity
  8
1
  6
Continuous
 62
     2
100
AcDbLine
 10
-437.7187491068137
 20
-246.0499979992683
 30
0.0
 11
-437.7187491068137
 21
-251.0499979992684
 31
0.0
  0
LINE
  5
348
330
71
100
AcDbEntity
  8
1
  6
Continuous
 62
     2
100
AcDbLine
 10
-432.7187491068127
 20
-246.0499979992683
 30
0.0
 11
-437.7187491068137
 21
-246.0499979992683
 31
0.0
  0
LINE
  5
349
330
71
100
AcDbEntity
  8
1
  6
Continuous
 62
     2
100
AcDbLine
 10
-432.7187491068127
 20
-251.0499979992684
 30
0.0
 11
-389.2187491068146
 21
-251.0499979992684
 31
0.0
  0
LINE
  5
34A
330
71
100
AcDbEntity
  8
1
  6
Continuous
 62
     2
100
AcDbLine
 10
-432.7187491068127
 20
-246.0499979992683
 30
0.0
 11
-432.7187491068127
 21
-251.0499979992684
 31
0.0
  0
LINE
  5
34B
330
71
100
AcDbEntity
  8
1
  6
Continuous
 62
     2
100
AcDbLine
 10
-189.2187491068146
 20
-251.0499979992684
 30
0.0
 11
-239.2187491068146
 21
-251.0499979992684
 31
0.0
  0
LINE
  5
34C
330
71
100
AcDbEntity
  8
1
  6
Continuous
 62
     2
100
AcDbLine
 10
-189.2187491068146
 20
-251.0499979992684
 30
0.0
 11
-189.2187491068146
 21
-246.0499979992683
 31
0.0
  0
LINE
  5
34D
330
71
100
AcDbEntity
  8
1
  6
Continuous
 62
     2
100
AcDbLine
 10
-239.2187491068146
 20
-251.0499979992684
 30
0.0
 11
-239.2187491068146
 21
-246.0499979992683
 31
0.0
  0
LINE
  5
34E
330
71
100
AcDbEntity
  8
1
  6
Continuous
 62
     2
100
AcDbLine
 10
-289.2187491068146
 20
-251.0499979992684
 30
0.0
 11
-239.2187491068146
 21
-251.0499979992684
 31
0.0
  0
LINE
  5
34F
330
71
100
AcDbEntity
  8
1
  6
Continuous
 62
     2
100
AcDbLine
 10
-289.2187491068146
 20
-251.0499979992684
 30
0.0
 11
-289.2187491068146
 21
-246.0499979992683
 31
0.0
  0
LINE
  5
350
330
71
100
AcDbEntity
  8
1
  6
Continuous
 62
     2
100
AcDbLine
 10
-339.2187491068148
 20
-251.0499979992684
 30
0.0
 11
-289.2187491068146
 21
-251.0499979992684
 31
0.0
  0
LINE
  5
351
330
71
100
AcDbEntity
  8
1
  6
Continuous
 62
     2
100
AcDbLine
 10
-339.2187491068148
 20
-251.0499979992684
 30
0.0
 11
-339.2187491068148
 21
-246.0499979992683
 31
0.0
  0
LINE
  5
352
330
71
100
AcDbEntity
  8
1
  6
Continuous
 62
     2
100
AcDbLine
 10
-389.2187491068146
 20
-251.0499979992684
 30
0.0
 11
-339.2187491068148
 21
-251.0499979992684
 31
0.0
  0
LINE
  5
353
330
71
100
AcDbEntity
  8
1
  6
Continuous
 62
     2
100
AcDbLine
 10
-389.2187491068146
 20
-251.0499979992684
 30
0.0
 11
-389.2187491068146
 21
-246.0499979992683
 31
0.0
  0
LINE
  5
354
330
71
100
AcDbEntity
  8
1
  6
Continuous
 62
     6
100
AcDbLine
 10
-432.7187491068129
 20
-196.0499979992682
 30
0.0
 11
-432.7187491068127
 21
-246.0499979992683
 31
0.0
  0
LINE
  5
355
330
71
100
AcDbEntity
  8
1
  6
Continuous
 62
     2
100
AcDbLine
 10
-437.7187491068137
 20
-196.0499979992682
 30
0.0
 11
-437.7187491068137
 21
-246.0499979992683
 31
0.0
  0
LINE
  5
356
330
71
100
AcDbEntity
  8
1
  6
Continuous
 62
     2
100
AcDbLine
 10
-437.7187491068137
 20
-196.0499979992682
 30
0.0
 11
-432.7187491068129
 21
-196.0499979992682
 31
0.0
  0
LINE
  5
357
330
71
100
AcDbEntity
  8
1
  6
Continuous
 62
     6
100
AcDbLine
 10
-432.7187491068131
 20
-146.0499979992684
 30
0.0
 11
-432.7187491068129
 21
-196.0499979992682
 31
0.0
  0
LINE
  5
358
330
71
100
AcDbEntity
  8
1
  6
Continuous
 62
     2
100
AcDbLine
 10
-437.7187491068137
 20
-146.0499979992684
 30
0.0
 11
-437.7187491068137
 21
-196.0499979992682
 31
0.0
  0
LINE
  5
359
330
71
100
AcDbEntity
  8
1
  6
Continuous
 62
     2
100
AcDbLine
 10
-437.7187491068137
 20
-146.0499979992684
 30
0.0
 11
-432.7187491068131
 21
-146.0499979992684
 31
0.0
  0
LINE
  5
35A
330
71
100
AcDbEntity
  8
1
  6
Continuous
 62
     6
100
AcDbLine
 10
-432.7187491068136
 20
-96.04999799926827
 30
0.0
 11
-432.7187491068131
 21
-146.0499979992684
 31
0.0
  0
LINE
  5
35B
330
71
100
AcDbEntity
  8
1
  6
Continuous
 62
     2
100
AcDbLine
 10
-437.7187491068137
 20
-96.04999799926827
 30
0.0
 11
-437.7187491068137
 21
-146.0499979992684
 31
0.0
  0
LINE
  5
35C
330
71
100
AcDbEntity
  8
1
  6
Continuous
 62
     2
100
AcDbLine
 10
-437.7187491068137
 20
-96.04999799926827
 30
0.0
 11
-432.7187491068136
 21
-96.04999799926827
 31
0.0
  0
LINE
  5
35D
330
71
100
AcDbEntity
  8
1
  6
Continuous
 62
     6
100
AcDbLine
 10
-432.7187491068137
 20
-61.04999799926827
 30
0.0
 11
-432.7187491068136
 21
-96.04999799926827
 31
0.0
  0
LINE
  5
35E
330
71
100
AcDbEntity
  8
1
  6
Continuous
 62
     2
100
AcDbLine
 10
-437.7187491068137
 20
-41.04999799926827
 30
0.0
 11
-437.7187491068137
 21
-96.04999799926827
 31
0.0
  0
LINE
  5
35F
330
71
100
AcDbEntity
  8
1
  6
Continuous
 62
     2
100
AcDbLine
 10
-437.7187491068137
 20
-251.0499979992684
 30
0.0
 11
-432.7187491068127
 21
-251.0499979992684
 31
0.0
  0
LINE
  5
360
330
71
100
AcDbEntity
  8
1
  6
Continuous
 62
     2
100
AcDbLine
 10
-289.2187491068146
 20
-41.04999799926827
 30
0.0
 11
-289.2187491068146
 21
-50.25868984396959
 31
0.0
  0
LINE
  5
361
330
71
100
AcDbEntity
  8
1
  6
Continuous
 62
     2
100
AcDbLine
 10
-289.2187491068146
 20
-41.04999799926827
 30
0.0
 11
-437.7187491068137
 21
-41.04999799926827
 31
0.0
  0
LINE
  5
362
330
71
100
AcDbEntity
  8
1
  6
Continuous
 62
     2
100
AcDbLine
 10
-140.7187491068156
 20
-246.0499979992683
 30
0.0
 11
-140.7187491068156
 21
-196.0499979992682
 31
0.0
  0
LINE
  5
363
330
71
100
AcDbEntity
  8
1
  6
Continuous
 62
     2
100
AcDbLine
 10
-140.7187491068156
 20
-96.04999799926827
 30
0.0
 11
-140.7187491068156
 21
-41.04999799926827
 31
0.0
  0
LINE
  5
364
330
71
100
AcDbEntity
  8
1
  6
Continuous
 62
     6
100
AcDbLine
 10
-145.7187491068154
 20
-96.04999799926827
 30
0.0
 11
-145.7187491068156
 21
-61.04999799926827
 31
0.0
  0
LINE
  5
365
330
71
100
AcDbEntity
  8
1
  6
Continuous
 62
     2
100
AcDbLine
 10
-145.7187491068154
 20
-96.04999799926827
 30
0.0
 11
-140.7187491068156
 21
-96.04999799926827
 31
0.0
  0
LINE
  5
366
330
71
100
AcDbEntity
  8
1
  6
Continuous
 62
     2
100
AcDbLine
 10
-140.7187491068156
 20
-146.0499979992684
 30
0.0
 11
-140.7187491068156
 21
-96.04999799926827
 31
0.0
  0
LINE
  5
367
330
71
100
AcDbEntity
  8
1
  6
Continuous
 62
     6
100
AcDbLine
 10
-145.7187491068142
 20
-146.0499979992684
 30
0.0
 11
-145.7187491068154
 21
-96.04999799926827
 31
0.0
  0
LINE
  5
368
330
71
100
AcDbEntity
  8
1
  6
Continuous
 62
     2
100
AcDbLine
 10
-145.7187491068142
 20
-146.0499979992684
 30
0.0
 11
-140.7187491068156
 21
-146.0499979992684
 31
0.0
  0
LINE
  5
369
330
71
100
AcDbEntity
  8
1
  6
Continuous
 62
     2
100
AcDbLine
 10
-140.7187491068156
 20
-196.0499979992682
 30
0.0
 11
-140.7187491068156
 21
-146.0499979992684
 31
0.0
  0
LINE
  5
36A
330
71
100
AcDbEntity
  8
1
  6
Continuous
 62
     6
100
AcDbLine
 10
-145.7187491068137
 20
-196.0499979992682
 30
0.0
 11
-145.7187491068142
 21
-146.0499979992684
 31
0.0
  0
LINE
  5
36B
330
71
100
AcDbEntity
  8
1
  6
Continuous
 62
     2
100
AcDbLine
 10
-145.7187491068137
 20
-196.0499979992682
 30
0.0
 11
-140.7187491068156
 21
-196.0499979992682
 31
0.0
  0
LINE
  5
36C
330
71
100
AcDbEntity
  8
1
  6
Continuous
 62
     6
100
AcDbLine
 10
-145.7187491068156
 20
-61.04999799926827
 30
0.0
 11
-432.7187491068137
 21
-61.04999799926827
 31
0.0
  0
LINE
  5
36D
330
71
100
AcDbEntity
  8
1
  6
Continuous
 62
     2
100
AcDbLine
 10
-140.7187491068156
 20
-41.04999799926827
 30
0.0
 11
-289.2187491068146
 21
-41.04999799926827
 31
0.0
  0
LINE
  5
36E
330
71
100
AcDbEntity
  8
1
  6
Continuous
 62
     6
100
AcDbLine
 10
-145.7187491068129
 20
-229.0499979992683
 30
0.0
 11
-145.7187491068137
 21
-196.0499979992682
 31
0.0
  0
LINE
  5
36F
330
71
100
AcDbEntity
  8
1
  6
Continuous
 62
     2
100
AcDbLine
 10
-145.7187491068146
 20
-251.0499979992684
 30
0.0
 11
-189.2187491068146
 21
-251.0499979992684
 31
0.0
  0
LINE
  5
370
330
71
100
AcDbEntity
  8
1
  6
Continuous
 62
     2
100
AcDbLine
 10
-140.7187491068156
 20
-251.0499979992684
 30
0.0
 11
-145.7187491068146
 21
-251.0499979992684
 31
0.0
  0
LINE
  5
371
330
71
100
AcDbEntity
  8
1
  6
Continuous
 62
     2
100
AcDbLine
 10
-140.7187491068156
 20
-251.0499979992684
 30
0.0
 11
-140.7187491068156
 21
-246.0499979992683
 31
0.0
  0
LINE
  5
372
330
71
100
AcDbEntity
  8
1
  6
Continuous
 62
     6
100
AcDbLine
 10
-275.2635536335646
 20
-229.0499979992683
 30
0.0
 11
-238.8635536335647
 21
-229.0499979992683
 31
0.0
  0
LINE
  5
373
330
71
100
AcDbEntity
  8
1
  6
Continuous
 62
     2
100
AcDbLine
 10
-145.7187491068146
 20
-246.0499979992683
 30
0.0
 11
-145.7187491068146
 21
-251.0499979992684
 31
0.0
  0
LINE
  5
374
330
71
100
AcDbEntity
  8
1
  6
Continuous
 62
     2
100
AcDbLine
 10
-145.7187491068146
 20
-246.0499979992683
 30
0.0
 11
-140.7187491068156
 21
-246.0499979992683
 31
0.0
  0
LINE
  5
375
330
71
100
AcDbEntity
  8
1
  6
Continuous
 62
     6
100
AcDbLine
 10
-239.2187491068146
 20
-246.0499979992683
 30
0.0
 11
-257.0635536335646
 21
-246.0499979992683
 31
0.0
  0
LINE
  5
376
330
71
100
AcDbEntity
  8
1
  6
Continuous
 62
     6
100
AcDbLine
 10
-189.2187491068146
 20
-246.0499979992683
 30
0.0
 11
-145.7187491068146
 21
-246.0499979992683
 31
0.0
  0
LINE
  5
377
330
71
100
AcDbEntity
  8
1
  6
Continuous
 62
     6
100
AcDbLine
 10
-339.2187491068148
 20
-246.0499979992683
 30
0.0
 11
-344.2635536335646
 21
-246.0499979992683
 31
0.0
  0
LINE
  5
378
330
71
100
AcDbEntity
  8
1
  6
Continuous
 62
     6
100
AcDbLine
 10
-289.2187491068146
 20
-246.0499979992683
 30
0.0
 11
-275.2635536335646
 21
-246.0499979992684
 31
0.0
  0
LINE
  5
379
102
{ACAD_REACTORS
330
463
330
464
102
}
330
71
100
AcDbEntity
  8
0
  6
Continuous
 62
     2
100
AcDbLine
 10
-267.7489276914178
 20
-233.9774832430562
 30
0.0
 11
-267.7489276914178
 21
-233.3719479545494
 31
0.0
  0
LINE
  5
37A
102
{ACAD_REACTORS
330
463
330
464
102
}
330
71
100
AcDbEntity
  8
0
  6
Continuous
 62
     2
100
AcDbLine
 10
-267.7489276914178
 20
-236.7776178496875
 30
0.0
 11
-267.7489276914178
 21
-236.1957664429924
 31
0.0
  0
LINE
  5
37B
102
{ACAD_REACTORS
330
465
330
466
102
}
330
71
100
AcDbEntity
  8
0
  6
Continuous
 62
     2
100
AcDbLine
 10
-245.1194412559386
 20
-236.4879537815645
 30
0.0
 11
-245.1194412559386
 21
-238.756497999252
 31
0.0
  0
LINE
  5
37C
102
{ACAD_REACTORS
330
465
330
466
102
}
330
71
100
AcDbEntity
  8
0
  6
Continuous
 62
     2
100
AcDbLine
 10
-246.5004950349262
 20
-235.7026884754414
 30
0.0
 11
-243.1155495162975
 21
-235.7026884754409
 31
0.0
  0
LINE
  5
37D
102
{ACAD_REACTORS
330
465
330
466
102
}
330
71
100
AcDbEntity
  8
0
  6
Continuous
 62
     2
100
AcDbLine
 10
-243.1155495162975
 20
-236.4879537815645
 30
0.0
 11
-243.1155495162975
 21
-235.7026884754409
 31
0.0
  0
LINE
  5
37E
102
{ACAD_REACTORS
330
465
330
466
102
}
330
71
100
AcDbEntity
  8
0
  6
Continuous
 62
     2
100
AcDbLine
 10
-243.9266485537709
 20
-236.4879537815645
 30
0.0
 11
-243.1155495162975
 21
-236.4879537815645
 31
0.0
  0
LINE
  5
37F
102
{ACAD_REACTORS
330
465
330
466
102
}
330
71
100
AcDbEntity
  8
0
  6
Continuous
 62
     2
100
AcDbLine
 10
-243.9266485537709
 20
-238.756497999252
 30
0.0
 11
-243.9266485537709
 21
-236.4879537815645
 31
0.0
  0
LINE
  5
380
102
{ACAD_REACTORS
330
465
330
466
102
}
330
71
100
AcDbEntity
  8
0
  6
Continuous
 62
     2
100
AcDbLine
 10
-245.1194412559386
 20
-238.756497999252
 30
0.0
 11
-243.9266485537709
 21
-238.756497999252
 31
0.0
  0
LINE
  5
381
102
{ACAD_REACTORS
330
45B
330
45C
102
}
330
71
100
AcDbEntity
  8
0
  6
Continuous
 62
     2
100
AcDbLine
 10
-245.8160321940031
 20
-232.3434979992665
 30
0.0
 11
-247.2187564117524
 21
-232.3434979992665
 31
0.0
  0
LINE
  5
382
102
{ACAD_REACTORS
330
45B
330
45C
102
}
330
71
100
AcDbEntity
  8
0
  6
Continuous
 62
     2
100
AcDbLine
 10
-245.8160321940031
 20
-232.3434979992665
 30
0.0
 11
-245.2148646721113
 21
-233.023321320822
 31
0.0
  0
LINE
  5
383
102
{ACAD_REACTORS
330
45B
330
45C
102
}
330
71
100
AcDbEntity
  8
0
  6
Continuous
 62
     2
100
AcDbLine
 10
-245.2148646721113
 20
-233.023321320822
 30
0.0
 11
-244.6136971502185
 21
-232.3434979992665
 31
0.0
  0
LINE
  5
384
102
{ACAD_REACTORS
330
45B
330
45C
102
}
330
71
100
AcDbEntity
  8
0
  6
Continuous
 62
     2
100
AcDbLine
 10
-244.5135025632378
 20
-233.8164485293027
 30
0.0
 11
-243.2109729324713
 21
-232.3434979992665
 31
0.0
  0
LINE
  5
385
102
{ACAD_REACTORS
330
45B
330
45C
102
}
330
71
100
AcDbEntity
  8
0
  6
Continuous
 62
     2
100
AcDbLine
 10
-244.5135025632378
 20
-233.8164485293027
 30
0.0
 11
-243.1155495162975
 21
-235.3973075230777
 31
0.0
  0
LINE
  5
386
102
{ACAD_REACTORS
330
45B
330
45C
102
}
330
71
100
AcDbEntity
  8
0
  6
Continuous
 62
     2
100
AcDbLine
 10
-244.5182737340458
 20
-235.3973075230777
 30
0.0
 11
-243.1155495162975
 21
-235.3973075230777
 31
0.0
  0
LINE
  5
387
102
{ACAD_REACTORS
330
45B
330
45C
102
}
330
71
100
AcDbEntity
  8
0
  6
Continuous
 62
     2
100
AcDbLine
 10
-245.2148646721113
 20
-234.609575737784
 30
0.0
 11
-244.5182737340458
 21
-235.3973075230777
 31
0.0
  0
LINE
  5
388
102
{ACAD_REACTORS
330
459
330
45A
102
}
330
71
100
AcDbEntity
  8
0
  6
Continuous
 62
     2
100
AcDbLine
 10
-248.673963508395
 20
-232.3434979992665
 30
0.0
 11
-247.4334590981421
 21
-232.3434979992665
 31
0.0
  0
LINE
  5
389
102
{ACAD_REACTORS
330
459
330
45A
102
}
330
71
100
AcDbEntity
  8
0
  6
Continuous
 62
     2
100
AcDbLine
 10
-247.4334590981421
 20
-232.3434979992665
 30
0.0
 11
-247.4334590981421
 21
-235.3973075230777
 31
0.0
  0
LINE
  5
38A
102
{ACAD_REACTORS
330
459
330
45A
102
}
330
71
100
AcDbEntity
  8
0
  6
Continuous
 62
     2
100
AcDbLine
 10
-248.673963508395
 20
-235.3973075230777
 30
0.0
 11
-248.673963508395
 21
-232.3434979992665
 31
0.0
  0
LINE
  5
38B
102
{ACAD_REACTORS
330
457
330
458
102
}
330
71
100
AcDbEntity
  8
0
  6
Continuous
 62
     2
100
AcDbLine
 10
-250.1422735909326
 20
-237.5349741897275
 30
0.0
 11
-249.8421083537402
 21
-236.7671592237408
 31
0.0
  0
LINE
  5
38C
102
{ACAD_REACTORS
330
457
330
458
102
}
330
71
100
AcDbEntity
  8
0
  6
Continuous
 62
     2
100
AcDbLine
 10
-250.6198091955534
 20
-238.756497999252
 30
0.0
 11
-250.4083291420776
 21
-238.2155374550341
 31
0.0
  0
LINE
  5
38D
102
{ACAD_REACTORS
330
457
330
458
102
}
330
71
100
AcDbEntity
  8
0
  6
Continuous
 62
     2
100
AcDbLine
 10
-250.4623605588671
 20
-235.7026884754409
 30
0.0
 11
-251.8603136058064
 21
-238.756497999252
 31
0.0
  0
LINE
  5
38E
102
{ACAD_REACTORS
330
457
330
458
102
}
330
71
100
AcDbEntity
  8
0
  6
Continuous
 62
     2
100
AcDbLine
 10
-247.8239031016741
 20
-238.756497999252
 30
0.0
 11
-249.064407511928
 21
-238.756497999252
 31
0.0
  0
LINE
  5
38F
102
{ACAD_REACTORS
330
457
330
458
102
}
330
71
100
AcDbEntity
  8
0
  6
Continuous
 62
     2
100
AcDbLine
 10
-250.4083291420776
 20
-238.2155374550341
 30
0.0
 11
-249.2758875654038
 21
-238.2155374550341
 31
0.0
  0
LINE
  5
390
102
{ACAD_REACTORS
330
455
330
456
102
}
330
71
100
AcDbEntity
  8
0
  6
Continuous
 62
     2
100
AcDbLine
 10
-254.0178257449886
 20
-236.4879537815645
 30
0.0
 11
-253.206726707514
 21
-236.4879537815645
 31
0.0
  0
LINE
  5
391
102
{ACAD_REACTORS
330
455
330
456
102
}
330
71
100
AcDbEntity
  8
0
  6
Continuous
 62
     2
100
AcDbLine
 10
-251.202834967875
 20
-235.7026884754409
 30
0.0
 11
-254.0178257449886
 21
-235.7026884754409
 31
0.0
  0
LINE
  5
392
102
{ACAD_REACTORS
330
455
330
456
102
}
330
71
100
AcDbEntity
  8
0
  6
Continuous
 62
     2
100
AcDbLine
 10
-251.202834967875
 20
-236.4879537815645
 30
0.0
 11
-251.202834967875
 21
-235.7026884754409
 31
0.0
  0
LINE
  5
393
102
{ACAD_REACTORS
330
455
330
456
102
}
330
71
100
AcDbEntity
  8
0
  6
Continuous
 62
     2
100
AcDbLine
 10
-252.0139340053475
 20
-236.4879537815645
 30
0.0
 11
-251.202834967875
 21
-236.4879537815645
 31
0.0
  0
LINE
  5
394
102
{ACAD_REACTORS
330
455
330
456
102
}
330
71
100
AcDbEntity
  8
0
  6
Continuous
 62
     2
100
AcDbLine
 10
-252.0139340053475
 20
-238.756497999252
 30
0.0
 11
-252.0139340053475
 21
-236.4879537815645
 31
0.0
  0
LINE
  5
395
102
{ACAD_REACTORS
330
453
330
454
102
}
330
71
100
AcDbEntity
  8
0
  6
Continuous
 62
     2
100
AcDbLine
 10
-251.3458191612495
 20
-235.3973075230777
 30
0.0
 11
-251.3458191612495
 21
-234.088532012873
 31
0.0
  0
LINE
  5
396
102
{ACAD_REACTORS
330
453
330
454
102
}
330
71
100
AcDbEntity
  8
0
  6
Continuous
 62
     2
100
AcDbLine
 10
-252.538611863416
 20
-232.3434979992665
 30
0.0
 11
-252.538611863416
 21
-235.3973075230777
 31
0.0
  0
LINE
  5
397
102
{ACAD_REACTORS
330
453
330
454
102
}
330
71
100
AcDbEntity
  8
0
  6
Continuous
 62
     2
100
AcDbLine
 10
-251.3458191612495
 20
-232.3434979992665
 30
0.0
 11
-252.538611863416
 21
-232.3434979992665
 31
0.0
  0
LINE
  5
398
102
{ACAD_REACTORS
330
453
330
454
102
}
330
71
100
AcDbEntity
  8
0
  6
Continuous
 62
     2
100
AcDbLine
 10
-250.1053147509955
 20
-232.3434979992665
 30
0.0
 11
-250.1053147509955
 21
-233.6522735094717
 31
0.0
  0
LINE
  5
399
102
{ACAD_REACTORS
330
451
330
452
102
}
330
71
100
AcDbEntity
  8
0
  6
Continuous
 62
     2
100
AcDbLine
 10
-257.7870506838357
 20
-235.7026884754409
 30
0.0
 11
-257.7870506838357
 21
-238.756497999252
 31
0.0
  0
LINE
  5
39A
102
{ACAD_REACTORS
330
451
330
452
102
}
330
71
100
AcDbEntity
  8
0
  6
Continuous
 62
     2
100
AcDbLine
 10
-256.5942579816681
 20
-235.7026884754409
 30
0.0
 11
-257.7870506838357
 21
-235.7026884754409
 31
0.0
  0
LINE
  5
39B
102
{ACAD_REACTORS
330
451
330
452
102
}
330
71
100
AcDbEntity
  8
0
  6
Continuous
 62
     2
100
AcDbLine
 10
-255.3537535714152
 20
-238.756497999252
 30
0.0
 11
-254.1609608692488
 21
-238.756497999252
 31
0.0
  0
LINE
  5
39C
102
{ACAD_REACTORS
330
451
330
452
102
}
330
71
100
AcDbEntity
  8
0
  6
Continuous
 62
     2
100
AcDbLine
 10
-257.7870506838357
 20
-238.756497999252
 30
0.0
 11
-256.5942579816681
 21
-238.756497999252
 31
0.0
  0
LINE
  5
39D
102
{ACAD_REACTORS
330
461
330
462
102
}
330
71
100
AcDbEntity
  8
0
  6
Continuous
 62
     2
100
AcDbLine
 10
-254.1130982302766
 20
-233.5213959584512
 30
0.0
 11
-254.1130982302766
 21
-233.0415116047095
 31
0.0
  0
LINE
  5
39E
102
{ACAD_REACTORS
330
461
330
462
102
}
330
71
100
AcDbEntity
  8
0
  6
Continuous
 62
     2
100
AcDbLine
 10
-252.7771704038489
 20
-233.5213959584512
 30
0.0
 11
-254.1130982302766
 21
-233.5213959584512
 31
0.0
  0
LINE
  5
39F
102
{ACAD_REACTORS
330
461
330
462
102
}
330
71
100
AcDbEntity
  8
0
  6
Continuous
 62
     2
100
AcDbLine
 10
-252.7771704038489
 20
-234.2194095638935
 30
0.0
 11
-252.7771704038489
 21
-233.5213959584512
 31
0.0
  0
LINE
  5
3A0
102
{ACAD_REACTORS
330
461
330
462
102
}
330
71
100
AcDbEntity
  8
0
  6
Continuous
 62
     2
100
AcDbLine
 10
-254.1130982302766
 20
-234.2194095638935
 30
0.0
 11
-252.7771704038489
 21
-234.2194095638935
 31
0.0
  0
LINE
  5
3A1
102
{ACAD_REACTORS
330
44F
330
450
102
}
330
71
100
AcDbEntity
  8
0
  6
Continuous
 62
     2
100
AcDbLine
 10
-257.5960529206035
 20
-232.3434979992665
 30
0.0
 11
-257.5960529206035
 21
-235.3973075230777
 31
0.0
  0
LINE
  5
3A2
102
{ACAD_REACTORS
330
44F
330
450
102
}
330
71
100
AcDbEntity
  8
0
  6
Continuous
 62
     2
100
AcDbLine
 10
-257.5960529206035
 20
-235.3973075230777
 30
0.0
 11
-258.7888456227699
 21
-235.3973075230777
 31
0.0
  0
LINE
  5
3A3
102
{ACAD_REACTORS
330
44F
330
450
102
}
330
71
100
AcDbEntity
  8
0
  6
Continuous
 62
     2
100
AcDbLine
 10
-258.7888456227699
 20
-235.3973075230777
 30
0.0
 11
-258.7888456227699
 21
-234.2630354142339
 31
0.0
  0
LINE
  5
3A4
102
{ACAD_REACTORS
330
44F
330
450
102
}
330
71
100
AcDbEntity
  8
0
  6
Continuous
 62
     2
100
AcDbLine
 10
-259.8385032006774
 20
-235.3973075230777
 30
0.0
 11
-261.031295902844
 21
-235.3973075230777
 31
0.0
  0
LINE
  5
3A5
102
{ACAD_REACTORS
330
44F
330
450
102
}
330
71
100
AcDbEntity
  8
0
  6
Continuous
 62
     2
100
AcDbLine
 10
-261.031295902844
 20
-232.3434979992665
 30
0.0
 11
-259.8385032006774
 21
-232.3434979992665
 31
0.0
  0
LINE
  5
3A6
102
{ACAD_REACTORS
330
44F
330
450
102
}
330
71
100
AcDbEntity
  8
0
  6
Continuous
 62
     2
100
AcDbLine
 10
-259.8385032006774
 20
-232.3434979992665
 30
0.0
 11
-259.8385032006774
 21
-233.4123313326011
 31
0.0
  0
LINE
  5
3A7
102
{ACAD_REACTORS
330
44F
330
450
102
}
330
71
100
AcDbEntity
  8
0
  6
Continuous
 62
     2
100
AcDbLine
 10
-259.8385032006774
 20
-233.4123313326011
 30
0.0
 11
-258.7888456227699
 21
-233.4123313326011
 31
0.0
  0
LINE
  5
3A8
102
{ACAD_REACTORS
330
45D
330
45E
102
}
330
71
100
AcDbEntity
  8
0
  6
Continuous
 62
     2
100
AcDbLine
 10
-262.9874759343976
 20
-233.0066038447066
 30
0.0
 11
-262.6701808728557
 21
-233.0066038447066
 31
0.0
  0
LINE
  5
3A9
102
{ACAD_REACTORS
330
45D
330
45E
102
}
330
71
100
AcDbEntity
  8
0
  6
Continuous
 62
     2
100
AcDbLine
 10
-262.9874759343976
 20
-233.7123314940488
 30
0.0
 11
-262.6701808728557
 21
-233.7123314940488
 31
0.0
  0
LINE
  5
3AA
102
{ACAD_REACTORS
330
45D
330
45E
102
}
330
71
100
AcDbEntity
  8
0
  6
Continuous
 62
     2
100
AcDbLine
 10
-264.2279803446517
 20
-232.3434979992665
 30
0.0
 11
-264.2279803446517
 21
-235.3973075230777
 31
0.0
  0
LINE
  5
3AB
102
{ACAD_REACTORS
330
45D
330
45E
102
}
330
71
100
AcDbEntity
  8
0
  6
Continuous
 62
     2
100
AcDbLine
 10
-264.2279803446517
 20
-232.3434979992665
 30
0.0
 11
-262.2287083466173
 21
-232.3434979992665
 31
0.0
  0
LINE
  5
3AC
102
{ACAD_REACTORS
330
45D
330
45E
102
}
330
71
100
AcDbEntity
  8
0
  6
Continuous
 62
     2
100
AcDbLine
 10
-262.9874759343976
 20
-234.4542292819339
 30
0.0
 11
-262.2287083466173
 21
-234.4542292819339
 31
0.0
  0
LINE
  5
3AD
102
{ACAD_REACTORS
330
463
330
464
102
}
330
71
100
AcDbEntity
  8
0
  6
Continuous
 62
     2
100
AcDbLine
 10
-270.3244763779484
 20
-233.3717704779013
 30
0.0
 11
-270.3244763779484
 21
-237.7282255206184
 31
0.0
  0
LINE
  5
3AE
102
{ACAD_REACTORS
330
463
330
464
102
}
330
71
100
AcDbEntity
  8
0
  6
Continuous
 62
     2
100
AcDbLine
 10
-270.0087594548727
 20
-233.0560535548251
 30
0.0
 11
-268.5329261938631
 21
-233.0560535548251
 31
0.0
  0
LINE
  5
3AF
102
{ACAD_REACTORS
330
463
330
464
102
}
330
71
100
AcDbEntity
  8
0
  6
Continuous
 62
     2
100
AcDbLine
 10
-268.2172092707865
 20
-233.9757950969618
 30
0.0
 11
-268.2172092707865
 21
-233.3717704779013
 31
0.0
  0
LINE
  5
3B0
102
{ACAD_REACTORS
330
463
330
464
102
}
330
71
100
AcDbEntity
  8
0
  6
Continuous
 62
     2
100
AcDbLine
 10
-268.2172092707865
 20
-237.7282255206184
 30
0.0
 11
-268.2172092707865
 21
-236.1974545890868
 31
0.0
  0
LINE
  5
3B1
102
{ACAD_REACTORS
330
463
330
464
102
}
330
71
100
AcDbEntity
  8
0
  6
Continuous
 62
     2
100
AcDbLine
 10
-265.1293420409024
 20
-238.756497999252
 30
0.0
 11
-270.6026541316192
 21
-238.756497999252
 31
0.0
  0
LINE
  5
3B2
102
{ACAD_REACTORS
330
463
330
464
102
}
330
71
100
AcDbEntity
  8
0
  6
Continuous
 62
     2
100
AcDbLine
 10
-264.7050974255185
 20
-232.7677426146685
 30
0.0
 11
-264.7050974255185
 21
-238.3322533838687
 31
0.0
  0
LINE
  5
3B3
102
{ACAD_REACTORS
330
463
330
464
102
}
330
71
100
AcDbEntity
  8
0
  6
Continuous
 62
     2
100
AcDbLine
 10
-270.6026541316192
 20
-232.3434979992847
 30
0.0
 11
-265.1293420409024
 21
-232.3434979992847
 31
0.0
  0
LINE
  5
3B4
102
{ACAD_REACTORS
330
463
330
464
102
}
330
71
100
AcDbEntity
  8
0
  6
Continuous
 62
     2
100
AcDbLine
 10
-271.026898747002
 20
-232.7677426146685
 30
0.0
 11
-271.026898747002
 21
-238.3322533838687
 31
0.0
  0
LINE
  5
3B5
102
{ACAD_REACTORS
330
463
330
464
102
}
330
71
100
AcDbEntity
  8
0
  6
Continuous
 62
     2
100
AcDbLine
 10
-268.5329261938631
 20
-238.0439424436951
 30
0.0
 11
-270.0087594548727
 21
-238.0439424436951
 31
0.0
  0
LINE
  5
3B6
102
{ACAD_REACTORS
330
45D
330
45E
102
}
330
71
100
AcDbEntity
  8
0
  6
Continuous
 62
     2
100
AcDbLine
 10
-262.9874759343976
 20
-235.3973075230777
 30
0.0
 11
-262.9874759343976
 21
-234.4542292819339
 31
0.0
  0
LINE
  5
3B7
102
{ACAD_REACTORS
330
45D
330
45E
102
}
330
71
100
AcDbEntity
  8
0
  6
Continuous
 62
     2
100
AcDbLine
 10
-264.2279803446517
 20
-235.3973075230777
 30
0.0
 11
-262.9874759343976
 21
-235.3973075230777
 31
0.0
  0
LINE
  5
3B8
102
{ACAD_REACTORS
330
45D
330
45E
102
}
330
71
100
AcDbEntity
  8
0
  6
Continuous
 62
     2
100
AcDbLine
 10
-262.9874759343976
 20
-233.7123314940488
 30
0.0
 11
-262.9874759343976
 21
-233.0066038447066
 31
0.0
  0
LINE
  5
3B9
102
{ACAD_REACTORS
330
44F
330
450
102
}
330
71
100
AcDbEntity
  8
0
  6
Continuous
 62
     2
100
AcDbLine
 10
-261.031295902844
 20
-232.3434979992665
 30
0.0
 11
-261.031295902844
 21
-235.3973075230777
 31
0.0
  0
LINE
  5
3BA
102
{ACAD_REACTORS
330
44F
330
450
102
}
330
71
100
AcDbEntity
  8
0
  6
Continuous
 62
     2
100
AcDbLine
 10
-259.8385032006774
 20
-234.2630354142339
 30
0.0
 11
-259.8385032006774
 21
-235.3973075230777
 31
0.0
  0
LINE
  5
3BB
102
{ACAD_REACTORS
330
44F
330
450
102
}
330
71
100
AcDbEntity
  8
0
  6
Continuous
 62
     2
100
AcDbLine
 10
-258.7888456227699
 20
-234.2630354142339
 30
0.0
 11
-259.8385032006774
 21
-234.2630354142339
 31
0.0
  0
LINE
  5
3BC
102
{ACAD_REACTORS
330
44F
330
450
102
}
330
71
100
AcDbEntity
  8
0
  6
Continuous
 62
     2
100
AcDbLine
 10
-258.7888456227699
 20
-232.3434979992665
 30
0.0
 11
-257.5960529206035
 21
-232.3434979992665
 31
0.0
  0
LINE
  5
3BD
102
{ACAD_REACTORS
330
44F
330
450
102
}
330
71
100
AcDbEntity
  8
0
  6
Continuous
 62
     2
100
AcDbLine
 10
-258.7888456227699
 20
-233.4123313326011
 30
0.0
 11
-258.7888456227699
 21
-232.3434979992665
 31
0.0
  0
LINE
  5
3BE
102
{ACAD_REACTORS
330
461
330
462
102
}
330
71
100
AcDbEntity
  8
0
  6
Continuous
 62
     2
100
AcDbLine
 10
-252.7771704038489
 20
-233.0415116047095
 30
0.0
 11
-252.7771704038489
 21
-232.3434979992665
 31
0.0
  0
LINE
  5
3BF
102
{ACAD_REACTORS
330
461
330
462
102
}
330
71
100
AcDbEntity
  8
0
  6
Continuous
 62
     2
100
AcDbLine
 10
-255.9274901276299
 20
-232.3434979992665
 30
0.0
 11
-252.7771704038489
 21
-232.3434979992665
 31
0.0
  0
LINE
  5
3C0
102
{ACAD_REACTORS
330
461
330
462
102
}
330
71
100
AcDbEntity
  8
0
  6
Continuous
 62
     2
100
AcDbLine
 10
-255.9274901276299
 20
-235.3973075230777
 30
0.0
 11
-252.7771704038489
 21
-235.3973075230777
 31
0.0
  0
LINE
  5
3C1
102
{ACAD_REACTORS
330
461
330
462
102
}
330
71
100
AcDbEntity
  8
0
  6
Continuous
 62
     2
100
AcDbLine
 10
-252.7771704038489
 20
-235.3973075230777
 30
0.0
 11
-252.7771704038489
 21
-234.6992939176352
 31
0.0
  0
LINE
  5
3C2
102
{ACAD_REACTORS
330
461
330
462
102
}
330
71
100
AcDbEntity
  8
0
  6
Continuous
 62
     2
100
AcDbLine
 10
-252.7771704038489
 20
-234.6992939176352
 30
0.0
 11
-254.1130982302766
 21
-234.6992939176352
 31
0.0
  0
LINE
  5
3C3
102
{ACAD_REACTORS
330
461
330
462
102
}
330
71
100
AcDbEntity
  8
0
  6
Continuous
 62
     2
100
AcDbLine
 10
-254.1130982302766
 20
-234.6992939176352
 30
0.0
 11
-254.1130982302766
 21
-234.2194095638935
 31
0.0
  0
LINE
  5
3C4
102
{ACAD_REACTORS
330
461
330
462
102
}
330
71
100
AcDbEntity
  8
0
  6
Continuous
 62
     2
100
AcDbLine
 10
-254.1130982302766
 20
-233.0415116047095
 30
0.0
 11
-252.7771704038489
 21
-233.0415116047095
 31
0.0
  0
LINE
  5
3C5
102
{ACAD_REACTORS
330
451
330
452
102
}
330
71
100
AcDbEntity
  8
0
  6
Continuous
 62
     2
100
AcDbLine
 10
-256.5942579816681
 20
-238.756497999252
 30
0.0
 11
-256.5942579816681
 21
-237.4477224890474
 31
0.0
  0
LINE
  5
3C6
102
{ACAD_REACTORS
330
451
330
452
102
}
330
71
100
AcDbEntity
  8
0
  6
Continuous
 62
     2
100
AcDbLine
 10
-256.5942579816681
 20
-237.4477224890474
 30
0.0
 11
-255.3537535714152
 21
-238.756497999252
 31
0.0
  0
LINE
  5
3C7
102
{ACAD_REACTORS
330
451
330
452
102
}
330
71
100
AcDbEntity
  8
0
  6
Continuous
 62
     2
100
AcDbLine
 10
-254.1609608692488
 20
-238.756497999252
 30
0.0
 11
-254.1609608692488
 21
-235.7026884754409
 31
0.0
  0
LINE
  5
3C8
102
{ACAD_REACTORS
330
451
330
452
102
}
330
71
100
AcDbEntity
  8
0
  6
Continuous
 62
     2
100
AcDbLine
 10
-254.1609608692488
 20
-235.7026884754409
 30
0.0
 11
-255.3537535714152
 21
-235.7026884754409
 31
0.0
  0
LINE
  5
3C9
102
{ACAD_REACTORS
330
451
330
452
102
}
330
71
100
AcDbEntity
  8
0
  6
Continuous
 62
     2
100
AcDbLine
 10
-255.3537535714152
 20
-235.7026884754409
 30
0.0
 11
-255.3537535714152
 21
-237.011463985646
 31
0.0
  0
LINE
  5
3CA
102
{ACAD_REACTORS
330
451
330
452
102
}
330
71
100
AcDbEntity
  8
0
  6
Continuous
 62
     2
100
AcDbLine
 10
-255.3537535714152
 20
-237.011463985646
 30
0.0
 11
-256.5942579816681
 21
-235.7026884754409
 31
0.0
  0
LINE
  5
3CB
102
{ACAD_REACTORS
330
453
330
454
102
}
330
71
100
AcDbEntity
  8
0
  6
Continuous
 62
     2
100
AcDbLine
 10
-251.3458191612495
 20
-234.088532012873
 30
0.0
 11
-250.1053147509955
 21
-235.3973075230777
 31
0.0
  0
LINE
  5
3CC
102
{ACAD_REACTORS
330
453
330
454
102
}
330
71
100
AcDbEntity
  8
0
  6
Continuous
 62
     2
100
AcDbLine
 10
-250.1053147509955
 20
-235.3973075230777
 30
0.0
 11
-248.9125220488289
 21
-235.3973075230777
 31
0.0
  0
LINE
  5
3CD
102
{ACAD_REACTORS
330
453
330
454
102
}
330
71
100
AcDbEntity
  8
0
  6
Continuous
 62
     2
100
AcDbLine
 10
-248.9125220488289
 20
-235.3973075230777
 30
0.0
 11
-248.9125220488289
 21
-232.3434979992665
 31
0.0
  0
LINE
  5
3CE
102
{ACAD_REACTORS
330
453
330
454
102
}
330
71
100
AcDbEntity
  8
0
  6
Continuous
 62
     2
100
AcDbLine
 10
-248.9125220488289
 20
-232.3434979992665
 30
0.0
 11
-250.1053147509955
 21
-232.3434979992665
 31
0.0
  0
LINE
  5
3CF
102
{ACAD_REACTORS
330
453
330
454
102
}
330
71
100
AcDbEntity
  8
0
  6
Continuous
 62
     2
100
AcDbLine
 10
-250.1053147509955
 20
-233.6522735094717
 30
0.0
 11
-251.3458191612495
 21
-232.3434979992665
 31
0.0
  0
LINE
  5
3D0
102
{ACAD_REACTORS
330
453
330
454
102
}
330
71
100
AcDbEntity
  8
0
  6
Continuous
 62
     2
100
AcDbLine
 10
-252.538611863416
 20
-235.3973075230777
 30
0.0
 11
-251.3458191612495
 21
-235.3973075230777
 31
0.0
  0
LINE
  5
3D1
102
{ACAD_REACTORS
330
455
330
456
102
}
330
71
100
AcDbEntity
  8
0
  6
Continuous
 62
     2
100
AcDbLine
 10
-254.0178257449886
 20
-235.7026884754409
 30
0.0
 11
-254.0178257449886
 21
-236.4879537815645
 31
0.0
  0
LINE
  5
3D2
102
{ACAD_REACTORS
330
455
330
456
102
}
330
71
100
AcDbEntity
  8
0
  6
Continuous
 62
     2
100
AcDbLine
 10
-253.206726707514
 20
-236.4879537815645
 30
0.0
 11
-253.206726707514
 21
-238.756497999252
 31
0.0
  0
LINE
  5
3D3
102
{ACAD_REACTORS
330
455
330
456
102
}
330
71
100
AcDbEntity
  8
0
  6
Continuous
 62
     2
100
AcDbLine
 10
-253.206726707514
 20
-238.756497999252
 30
0.0
 11
-252.0139340053475
 21
-238.756497999252
 31
0.0
  0
LINE
  5
3D4
102
{ACAD_REACTORS
330
457
330
458
102
}
330
71
100
AcDbEntity
  8
0
  6
Continuous
 62
     2
100
AcDbLine
 10
-249.064407511928
 20
-238.756497999252
 30
0.0
 11
-249.2758875654038
 21
-238.2155374550341
 31
0.0
  0
LINE
  5
3D5
102
{ACAD_REACTORS
330
457
330
458
102
}
330
71
100
AcDbEntity
  8
0
  6
Continuous
 62
     2
100
AcDbLine
 10
-249.2218561486144
 20
-235.7026884754409
 30
0.0
 11
-247.8239031016741
 21
-238.756497999252
 31
0.0
  0
LINE
  5
3D6
102
{ACAD_REACTORS
330
457
330
458
102
}
330
71
100
AcDbEntity
  8
0
  6
Continuous
 62
     2
100
AcDbLine
 10
-250.4623605588671
 20
-235.7026884754409
 30
0.0
 11
-249.2218561486144
 21
-235.7026884754409
 31
0.0
  0
LINE
  5
3D7
102
{ACAD_REACTORS
330
457
330
458
102
}
330
71
100
AcDbEntity
  8
0
  6
Continuous
 62
     2
100
AcDbLine
 10
-251.8603136058064
 20
-238.756497999252
 30
0.0
 11
-250.6198091955534
 21
-238.756497999252
 31
0.0
  0
LINE
  5
3D8
102
{ACAD_REACTORS
330
457
330
458
102
}
330
71
100
AcDbEntity
  8
0
  6
Continuous
 62
     2
100
AcDbLine
 10
-250.1422735909326
 20
-237.5349741897275
 30
0.0
 11
-249.5419431165501
 21
-237.5349741897275
 31
0.0
  0
LINE
  5
3D9
102
{ACAD_REACTORS
330
457
330
458
102
}
330
71
100
AcDbEntity
  8
0
  6
Continuous
 62
     2
100
AcDbLine
 10
-249.5419431165501
 20
-237.5349741897275
 30
0.0
 11
-249.8421083537402
 21
-236.7671592237408
 31
0.0
  0
LINE
  5
3DA
102
{ACAD_REACTORS
330
459
330
45A
102
}
330
71
100
AcDbEntity
  8
0
  6
Continuous
 62
     2
100
AcDbLine
 10
-247.4334590981421
 20
-235.3973075230777
 30
0.0
 11
-248.673963508395
 21
-235.3973075230777
 31
0.0
  0
LINE
  5
3DB
102
{ACAD_REACTORS
330
45B
330
45C
102
}
330
71
100
AcDbEntity
  8
0
  6
Continuous
 62
     2
100
AcDbLine
 10
-245.911455610177
 20
-235.3973075230777
 30
0.0
 11
-247.3141798279252
 21
-235.3973075230777
 31
0.0
  0
LINE
  5
3DC
102
{ACAD_REACTORS
330
45B
330
45C
102
}
330
71
100
AcDbEntity
  8
0
  6
Continuous
 62
     2
100
AcDbLine
 10
-245.911455610177
 20
-235.3973075230777
 30
0.0
 11
-245.2148646721113
 21
-234.609575737784
 31
0.0
  0
LINE
  5
3DD
102
{ACAD_REACTORS
330
45B
330
45C
102
}
330
71
100
AcDbEntity
  8
0
  6
Continuous
 62
     2
100
AcDbLine
 10
-244.6136971502185
 20
-232.3434979992665
 30
0.0
 11
-243.2109729324713
 21
-232.3434979992665
 31
0.0
  0
LINE
  5
3DE
102
{ACAD_REACTORS
330
45B
330
45C
102
}
330
71
100
AcDbEntity
  8
0
  6
Continuous
 62
     2
100
AcDbLine
 10
-247.2187564117524
 20
-232.3434979992665
 30
0.0
 11
-245.9162267809849
 21
-233.8164485293027
 31
0.0
  0
LINE
  5
3DF
102
{ACAD_REACTORS
330
45B
330
45C
102
}
330
71
100
AcDbEntity
  8
0
  6
Continuous
 62
     2
100
AcDbLine
 10
-247.3141798279252
 20
-235.3973075230777
 30
0.0
 11
-245.9162267809849
 21
-233.8164485293027
 31
0.0
  0
LINE
  5
3E0
102
{ACAD_REACTORS
330
465
330
466
102
}
330
71
100
AcDbEntity
  8
0
  6
Continuous
 62
     2
100
AcDbLine
 10
-245.4534232125453
 20
-237.7094775910884
 30
0.0
 11
-245.4534232125453
 21
-238.5819945978917
 31
0.0
  0
LINE
  5
3E1
102
{ACAD_REACTORS
330
465
330
466
102
}
330
71
100
AcDbEntity
  8
0
  6
Continuous
 62
     2
100
AcDbLine
 10
-246.2230805555067
 20
-236.4879537815645
 30
0.0
 11
-245.1194412559386
 21
-236.4879537815645
 31
0.0
  0
LINE
  5
3E2
102
{ACAD_REACTORS
330
467
330
468
102
}
330
71
100
AcDbEntity
  8
0
  6
Continuous
 62
     2
100
AcDbLine
 10
-261.5561246917972
 20
-237.7094775910879
 30
0.0
 11
-261.5561246917972
 21
-238.5819945978911
 31
0.0
  0
LINE
  5
3E3
102
{ACAD_REACTORS
330
467
330
468
102
}
330
71
100
AcDbEntity
  8
0
  6
Continuous
 62
     2
100
AcDbLine
 10
-261.5561246917972
 20
-236.749708883605
 30
0.0
 11
-261.5561246917972
 21
-235.8771918768017
 31
0.0
  0
LINE
  5
3E4
330
71
100
AcDbEntity
  8
1
  6
Continuous
 62
     7
100
AcDbLine
 10
-145.7187491068133
 20
-237.5499979992683
 30
0.0
 11
-238.8635536335647
 21
-237.5499979992683
 31
0.0
  0
LINE
  5
3E5
330
71
100
AcDbEntity
  8
1
  6
Continuous
 62
     6
100
AcDbLine
 10
-344.2635536335646
 20
-246.0499979992683
 30
0.0
 11
-389.2187491068146
 21
-246.0499979992683
 31
0.0
  0
LINE
  5
3E6
330
71
100
AcDbEntity
  8
1
  6
Continuous
 62
     7
100
AcDbLine
 10
-154.6371573884921
 20
-220.5499979992683
 30
0.0
 11
-154.6371573884921
 21
-229.0499979992683
 31
0.0
  0
LINE
  5
3E7
330
71
100
AcDbEntity
  8
1
  6
Continuous
 62
     7
100
AcDbLine
 10
-181.1371573884917
 20
-220.5499979992683
 30
0.0
 11
-181.1371573884917
 21
-229.0499979992683
 31
0.0
  0
LINE
  5
3E8
330
71
100
AcDbEntity
  8
1
  6
Continuous
 62
     7
100
AcDbLine
 10
-238.8635536335647
 20
-229.0499979992683
 30
0.0
 11
-238.8635536335647
 21
-220.5499979992683
 31
0.0
  0
LINE
  5
3E9
330
71
100
AcDbEntity
  8
1
  6
Continuous
 62
     7
100
AcDbLine
 10
-275.2635536335646
 20
-229.0499979992683
 30
0.0
 11
-275.2635536335646
 21
-220.5499979992683
 31
0.0
  0
LINE
  5
3EA
330
71
100
AcDbEntity
  8
1
  6
Continuous
 62
     6
100
AcDbLine
 10
-238.8635536335647
 20
-229.0499979992683
 30
0.0
 11
-145.7187491068129
 21
-229.0499979992683
 31
0.0
  0
LINE
  5
3EB
330
71
100
AcDbEntity
  8
1
  6
Continuous
 62
     7
100
AcDbLine
 10
-210.9635536335646
 20
-237.5499979992684
 30
0.0
 11
-210.9635536335646
 21
-229.0499979992683
 31
0.0
  0
LINE
  5
3EC
330
71
100
AcDbEntity
  8
1
  6
PHANTOM
 62
     2
100
AcDbLine
 10
-259.776898747002
 20
-224.9249979992684
 30
0.0
 11
-265.276898747002
 21
-224.9249979992684
 31
0.0
  0
LINE
  5
3ED
330
71
100
AcDbEntity
  8
1
  6
PHANTOM
 62
     2
100
AcDbLine
 10
-262.526898747002
 20
-222.1749979992684
 30
0.0
 11
-262.526898747002
 21
-227.6749979992684
 31
0.0
  0
LINE
  5
3EE
330
71
100
AcDbEntity
  8
1
  6
DOT_CENTER
 62
     2
100
AcDbLine
 10
-271.276898747002
 20
-224.9249979992684
 30
0.0
 11
-265.776898747002
 21
-224.9249979992684
 31
0.0
  0
ARC
  5
3EF
102
{ACAD_REACTORS
330
467
330
468
102
}
330
71
100
AcDbEntity
  8
0
  6
Continuous
 62
     2
100
AcDbCircle
 10
-262.892052608915
 20
-240.5422741826026
 30
0.0
 40
4.852596863498061
100
AcDbArc
 50
74.0200087416477
 51
84.84185523037539
  0
ARC
  5
3F0
102
{ACAD_REACTORS
330
467
330
468
102
}
330
71
100
AcDbEntity
  8
0
  6
Continuous
 62
     2
100
AcDbCircle
 10
-262.3160120001613
 20
-237.3865138267183
 30
0.0
 40
0.9059297849853408
100
AcDbArc
 50
71.55192388185006
 51
113.372277888129
  0
ARC
  5
3F1
102
{ACAD_REACTORS
330
467
330
468
102
}
330
71
100
AcDbEntity
  8
0
  6
Continuous
 62
     2
100
AcDbCircle
 10
-262.4724520328633
 20
-237.4346646666852
 30
0.0
 40
0.5115800601947784
100
AcDbArc
 50
208.5214732576971
 51
246.6277221118245
  0
ARC
  5
3F2
102
{ACAD_REACTORS
330
467
330
468
102
}
330
71
100
AcDbEntity
  8
0
  6
Continuous
 62
     2
100
AcDbCircle
 10
-262.3160120001613
 20
-237.0726726479752
 30
0.0
 40
0.9059297849849192
100
AcDbArc
 50
246.627722111871
 51
288.4480761181619
  0
ARC
  5
3F3
102
{ACAD_REACTORS
330
467
330
468
102
}
330
71
100
AcDbEntity
  8
0
  6
Continuous
 62
     2
100
AcDbCircle
 10
-262.7341797338221
 20
-235.819126871938
 30
0.0
 40
2.227384008972746
100
AcDbArc
 50
288.4480761181335
 51
301.9309089499593
  0
ARC
  5
3F4
102
{ACAD_REACTORS
330
463
330
464
102
}
330
71
100
AcDbEntity
  8
0
  6
Continuous
 62
     2
100
AcDbCircle
 10
-267.9592534664289
 20
-235.086624843024
 30
0.0
 40
0.911848150144459
100
AcDbArc
 50
295.3740086781764
 51
64.62599132180748
  0
ARC
  5
3F5
102
{ACAD_REACTORS
330
463
330
464
102
}
330
71
100
AcDbEntity
  8
0
  6
Continuous
 62
     2
100
AcDbCircle
 10
-267.433210768341
 20
-233.3719479545494
 30
0.0
 40
0.3157169230760711
100
AcDbArc
 50
90.18896704255108
 51
180.0
  0
ARC
  5
3F6
102
{ACAD_REACTORS
330
465
330
466
102
}
330
71
100
AcDbEntity
  8
0
  6
Continuous
 62
     2
100
AcDbCircle
 10
-246.2230805555067
 20
-237.4424767883906
 30
0.0
 40
0.9545230068260935
100
AcDbArc
 50
90.0
 51
109.337143219432
  0
ARC
  5
3F7
102
{ACAD_REACTORS
330
465
330
466
102
}
330
71
100
AcDbEntity
  8
0
  6
Continuous
 62
     2
100
AcDbCircle
 10
-245.992393295529
 20
-237.2295932373467
 30
0.0
 40
0.9410597353348924
100
AcDbArc
 50
151.4785267423624
 51
208.5214732576695
  0
ARC
  5
3F8
102
{ACAD_REACTORS
330
465
330
466
102
}
330
71
100
AcDbEntity
  8
0
  6
Continuous
 62
     2
100
AcDbCircle
 10
-246.2133105209073
 20
-237.0726726479752
 30
0.0
 40
0.9059297849852801
100
AcDbArc
 50
246.6277221118183
 51
288.4480761180817
  0
ARC
  5
3F9
102
{ACAD_REACTORS
330
465
330
466
102
}
330
71
100
AcDbEntity
  8
0
  6
Continuous
 62
     2
100
AcDbCircle
 10
-246.6314782545692
 20
-235.8191268719386
 30
0.0
 40
2.227384008972746
100
AcDbArc
 50
288.4480761181335
 51
301.9309089499397
  0
ARC
  5
3FA
102
{ACAD_REACTORS
330
465
330
466
102
}
330
71
100
AcDbEntity
  8
0
  6
Continuous
 62
     2
100
AcDbCircle
 10
-246.789351129662
 20
-233.9169122920903
 30
0.0
 40
4.852596863498825
100
AcDbArc
 50
275.1581447696364
 51
285.9799912583387
  0
ARC
  5
3FB
102
{ACAD_REACTORS
330
465
330
466
102
}
330
71
100
AcDbEntity
  8
0
  6
Continuous
 62
     2
100
AcDbCircle
 10
-246.5004950349262
 20
-237.1168028753119
 30
0.0
 40
1.639695123940448
100
AcDbArc
 50
195.0618917771012
 51
275.1581447696762
  0
ARC
  5
3FC
102
{ACAD_REACTORS
330
45D
330
45E
102
}
330
71
100
AcDbEntity
  8
0
  6
Continuous
 62
     2
100
AcDbCircle
 10
-262.2287083466173
 20
-233.3988636406002
 30
0.0
 40
1.05536564133368
100
AcDbArc
 50
270.0
 51
90.0
  0
ARC
  5
3FD
102
{ACAD_REACTORS
330
463
330
464
102
}
330
71
100
AcDbEntity
  8
0
  6
Continuous
 62
     2
100
AcDbCircle
 10
-270.0087594548727
 20
-237.7282255206184
 30
0.0
 40
0.3157169230756836
100
AcDbArc
 50
180.0
 51
270.0
  0
ARC
  5
3FE
102
{ACAD_REACTORS
330
463
330
464
102
}
330
71
100
AcDbEntity
  8
0
  6
Continuous
 62
     2
100
AcDbCircle
 10
-268.5329261938631
 20
-233.3717704779013
 30
0.0
 40
0.315716923076593
100
AcDbArc
 50
0.0
 51
90.0
  0
ARC
  5
3FF
102
{ACAD_REACTORS
330
463
330
464
102
}
330
71
100
AcDbEntity
  8
0
  6
Continuous
 62
     2
100
AcDbCircle
 10
-268.5329261938631
 20
-233.9757950969618
 30
0.0
 40
0.315716923076146
100
AcDbArc
 50
295.1944106485375
 51
0.0
  0
ARC
  5
400
102
{ACAD_REACTORS
330
463
330
464
102
}
330
71
100
AcDbEntity
  8
0
  6
Continuous
 62
     2
100
AcDbCircle
 10
-268.5329261938631
 20
-237.7282255206184
 30
0.0
 40
0.3157169230767067
100
AcDbArc
 50
270.0
 51
0.0
  0
ARC
  5
401
102
{ACAD_REACTORS
330
463
330
464
102
}
330
71
100
AcDbEntity
  8
0
  6
Continuous
 62
     2
100
AcDbCircle
 10
-270.6026541316192
 20
-232.7677426146685
 30
0.0
 40
0.4242446153837989
100
AcDbArc
 50
90.0
 51
180.0
  0
ARC
  5
402
102
{ACAD_REACTORS
330
463
330
464
102
}
330
71
100
AcDbEntity
  8
0
  6
Continuous
 62
     2
100
AcDbCircle
 10
-265.1293420409024
 20
-232.7677426146685
 30
0.0
 40
0.4242446153838841
100
AcDbArc
 50
0.0
 51
90.0
  0
ARC
  5
403
102
{ACAD_REACTORS
330
463
330
464
102
}
330
71
100
AcDbEntity
  8
0
  6
Continuous
 62
     2
100
AcDbCircle
 10
-265.1293420409024
 20
-238.3322533838687
 30
0.0
 40
0.4242446153832873
100
AcDbArc
 50
270.0
 51
0.0
  0
ARC
  5
404
102
{ACAD_REACTORS
330
461
330
462
102
}
330
71
100
AcDbEntity
  8
0
  6
Continuous
 62
     2
100
AcDbCircle
 10
-255.9109581538109
 20
-233.8704027611724
 30
0.0
 40
0.7717997786796373
100
AcDbArc
 50
321.8795802028437
 51
38.12041979715956
  0
ARC
  5
405
102
{ACAD_REACTORS
330
461
330
462
102
}
330
71
100
AcDbEntity
  8
0
  6
Continuous
 62
     2
100
AcDbCircle
 10
-255.7112181174647
 20
-234.0271339392928
 30
0.0
 40
0.5179085730134148
100
AcDbArc
 50
218.120419797153
 51
321.8795802028566
  0
ARC
  5
406
102
{ACAD_REACTORS
330
45F
330
460
102
}
330
71
100
AcDbEntity
  8
0
  6
Continuous
 62
     2
100
AcDbCircle
 10
-259.3912257064249
 20
-237.2295932373467
 30
0.0
 40
1.458034083652016
100
AcDbArc
 50
297.5481481757021
 51
62.45185182429795
  0
ARC
  5
407
102
{ACAD_REACTORS
330
45F
330
460
102
}
330
71
100
AcDbEntity
  8
0
  6
Continuous
 62
     2
100
AcDbCircle
 10
-259.9531054900915
 20
-237.2295932373467
 30
0.0
 40
1.45803408365149
100
AcDbArc
 50
117.5481481756624
 51
242.4518518243375
  0
ARC
  5
408
102
{ACAD_REACTORS
330
45F
330
460
102
}
330
71
100
AcDbEntity
  8
0
  6
Continuous
 62
     2
100
AcDbCircle
 10
-259.6721655982582
 20
-237.7681682476495
 30
0.0
 40
2.065479772208568
100
AcDbArc
 50
62.45185182430637
 51
117.5481481756671
  0
ARC
  5
409
102
{ACAD_REACTORS
330
45F
330
460
102
}
330
71
100
AcDbEntity
  8
0
  6
Continuous
 62
     2
100
AcDbCircle
 10
-259.6721655982582
 20
-236.6910182270434
 30
0.0
 40
2.065479772208522
100
AcDbArc
 50
242.4518518243395
 51
297.5481481756871
  0
ARC
  5
40A
102
{ACAD_REACTORS
330
461
330
462
102
}
330
71
100
AcDbEntity
  8
0
  6
Continuous
 62
     2
100
AcDbCircle
 10
-255.5114780811184
 20
-233.8704027611724
 30
0.0
 40
0.77179977867965
100
AcDbArc
 50
141.8795802028391
 51
218.1204197971575
  0
ARC
  5
40B
102
{ACAD_REACTORS
330
461
330
462
102
}
330
71
100
AcDbEntity
  8
0
  6
Continuous
 62
     2
100
AcDbCircle
 10
-255.7112181174647
 20
-233.7136715830519
 30
0.0
 40
0.5179085730135266
100
AcDbArc
 50
38.12041979714334
 51
141.879580202847
  0
ARC
  5
40C
102
{ACAD_REACTORS
330
463
330
464
102
}
330
71
100
AcDbEntity
  8
0
  6
Continuous
 62
     2
100
AcDbCircle
 10
-270.6026541316192
 20
-238.3322533838687
 30
0.0
 40
0.4242446153828041
100
AcDbArc
 50
180.0
 51
270.0
  0
ARC
  5
40D
102
{ACAD_REACTORS
330
463
330
464
102
}
330
71
100
AcDbEntity
  8
0
  6
Continuous
 62
     2
100
AcDbCircle
 10
-268.5329261938631
 20
-236.1974545890868
 30
0.0
 40
0.315716923076593
100
AcDbArc
 50
0.0
 51
64.80558935146027
  0
ARC
  5
40E
102
{ACAD_REACTORS
330
463
330
464
102
}
330
71
100
AcDbEntity
  8
0
  6
Continuous
 62
     2
100
AcDbCircle
 10
-268.0103417462881
 20
-235.086624843024
 30
0.0
 40
0.911897523557601
100
AcDbArc
 50
115.1944106485306
 51
244.8055893514861
  0
ARC
  5
40F
102
{ACAD_REACTORS
330
463
330
464
102
}
330
71
100
AcDbEntity
  8
0
  6
Continuous
 62
     2
100
AcDbCircle
 10
-270.0087594548727
 20
-233.3717704779013
 30
0.0
 40
0.3157169230761951
100
AcDbArc
 50
90.0
 51
180.0
  0
ARC
  5
410
102
{ACAD_REACTORS
330
45D
330
45E
102
}
330
71
100
AcDbEntity
  8
0
  6
Continuous
 62
     2
100
AcDbCircle
 10
-262.6701808728557
 20
-233.3594676693777
 30
0.0
 40
0.3528638246711182
100
AcDbArc
 50
270.0
 51
90.0
  0
ARC
  5
411
102
{ACAD_REACTORS
330
461
330
462
102
}
330
71
100
AcDbEntity
  8
0
  6
Continuous
 62
     2
100
AcDbCircle
 10
-255.9274901276299
 20
-233.8704027611724
 30
0.0
 40
1.526904761905882
100
AcDbArc
 50
90.0
 51
270.0
  0
ARC
  5
412
102
{ACAD_REACTORS
330
465
330
466
102
}
330
71
100
AcDbEntity
  8
0
  6
Continuous
 62
     2
100
AcDbCircle
 10
-246.5004950349262
 20
-237.3423835993816
 30
0.0
 40
1.639695123940214
100
AcDbArc
 50
90.0
 51
164.9381082228959
  0
ARC
  5
413
102
{ACAD_REACTORS
330
465
330
466
102
}
330
71
100
AcDbEntity
  8
0
  6
Continuous
 62
     2
100
AcDbCircle
 10
-246.9196228783878
 20
-237.2295932373467
 30
0.0
 40
1.205656168392995
100
AcDbArc
 50
164.9381082229041
 51
195.0618917770959
  0
ARC
  5
414
102
{ACAD_REACTORS
330
465
330
466
102
}
330
71
100
AcDbEntity
  8
0
  6
Continuous
 62
     2
100
AcDbCircle
 10
-246.3697505536104
 20
-237.4346646666852
 30
0.0
 40
0.5115800601960215
100
AcDbArc
 50
208.5214732576866
 51
246.6277221118449
  0
ARC
  5
415
102
{ACAD_REACTORS
330
465
330
466
102
}
330
71
100
AcDbEntity
  8
0
  6
Continuous
 62
     2
100
AcDbCircle
 10
-246.3697505536104
 20
-237.0245218080077
 30
0.0
 40
0.5115800601944143
100
AcDbArc
 50
109.3371432194853
 51
151.4785267424225
  0
ARC
  5
416
102
{ACAD_REACTORS
330
463
330
464
102
}
330
71
100
AcDbEntity
  8
0
  6
Continuous
 62
     2
100
AcDbCircle
 10
-267.433210768341
 20
-236.7776178496875
 30
0.0
 40
0.3157169230768204
100
AcDbArc
 50
180.0
 51
269.811032957449
  0
ARC
  5
417
102
{ACAD_REACTORS
330
463
330
464
102
}
330
71
100
AcDbEntity
  8
0
  6
Continuous
 62
     2
100
AcDbCircle
 10
-267.427594633031
 20
-235.0747829021185
 30
0.0
 40
2.018561131933266
100
AcDbArc
 50
269.8110329575858
 51
90.18896704241416
  0
ARC
  5
418
102
{ACAD_REACTORS
330
463
330
464
102
}
330
71
100
AcDbEntity
  8
0
  6
Continuous
 62
     2
100
AcDbCircle
 10
-267.433210768341
 20
-233.9774832430562
 30
0.0
 40
0.3157169230768204
100
AcDbArc
 50
180.0
 51
244.6259913216412
  0
ARC
  5
419
102
{ACAD_REACTORS
330
463
330
464
102
}
330
71
100
AcDbEntity
  8
0
  6
Continuous
 62
     2
100
AcDbCircle
 10
-267.433210768341
 20
-236.1957664429924
 30
0.0
 40
0.315716923076545
100
AcDbArc
 50
115.3740086783565
 51
180.0
  0
ARC
  5
41A
102
{ACAD_REACTORS
330
467
330
468
102
}
330
71
100
AcDbEntity
  8
0
  6
Continuous
 62
     2
100
AcDbCircle
 10
-262.6031965141791
 20
-237.3423835993816
 30
0.0
 40
1.639695123940507
100
AcDbArc
 50
84.84185523036236
 51
164.9381082228874
  0
ARC
  5
41B
102
{ACAD_REACTORS
330
467
330
468
102
}
330
71
100
AcDbEntity
  8
0
  6
Continuous
 62
     2
100
AcDbCircle
 10
-263.0223243576419
 20
-237.2295932373467
 30
0.0
 40
1.205656168390964
100
AcDbArc
 50
164.9381082228781
 51
195.0618917770945
  0
ARC
  5
41C
102
{ACAD_REACTORS
330
467
330
468
102
}
330
71
100
AcDbEntity
  8
0
  6
Continuous
 62
     2
100
AcDbCircle
 10
-262.6031965141791
 20
-237.1168028753119
 30
0.0
 40
1.639695123939387
100
AcDbArc
 50
195.0618917770896
 51
275.1581447696395
  0
ARC
  5
41D
102
{ACAD_REACTORS
330
467
330
468
102
}
330
71
100
AcDbEntity
  8
0
  6
Continuous
 62
     2
100
AcDbCircle
 10
-262.892052608915
 20
-233.9169122920903
 30
0.0
 40
4.852596863498135
100
AcDbArc
 50
275.1581447696246
 51
285.9799912583526
  0
ARC
  5
41E
102
{ACAD_REACTORS
330
467
330
468
102
}
330
71
100
AcDbEntity
  8
0
  6
Continuous
 62
     2
100
AcDbCircle
 10
-262.095094774783
 20
-237.2295932373467
 30
0.0
 40
0.9410597353332545
100
AcDbArc
 50
151.4785267422669
 51
208.5214732577057
  0
ARC
  5
41F
102
{ACAD_REACTORS
330
467
330
468
102
}
330
71
100
AcDbEntity
  8
0
  6
Continuous
 62
     2
100
AcDbCircle
 10
-262.4724520328633
 20
-237.0245218080077
 30
0.0
 40
0.5115800601948891
100
AcDbArc
 50
113.3722778882021
 51
151.4785267423029
  0
ARC
  5
420
102
{ACAD_REACTORS
330
467
330
468
102
}
330
71
100
AcDbEntity
  8
0
  6
Continuous
 62
     2
100
AcDbCircle
 10
-262.7341797338221
 20
-238.6400596027549
 30
0.0
 40
2.227384008973478
100
AcDbArc
 50
58.06909105004071
 51
71.55192388186653
  0
ARC
  5
421
102
{ACAD_REACTORS
330
45F
330
460
102
}
330
71
100
AcDbEntity
  8
0
  6
Continuous
 62
     2
100
AcDbCircle
 10
-259.6721655982582
 20
-237.0728620592262
 30
0.0
 40
0.5179085730132775
100
AcDbArc
 50
38.12041979714898
 51
141.8795802028627
  0
ARC
  5
422
102
{ACAD_REACTORS
330
45F
330
460
102
}
330
71
100
AcDbEntity
  8
0
  6
Continuous
 62
     2
100
AcDbCircle
 10
-259.4724255619121
 20
-237.2295932373467
 30
0.0
 40
0.771799778679508
100
AcDbArc
 50
141.8795802028389
 51
218.1204197971677
  0
ARC
  5
423
102
{ACAD_REACTORS
330
45F
330
460
102
}
330
71
100
AcDbEntity
  8
0
  6
Continuous
 62
     2
100
AcDbCircle
 10
-259.6721655982582
 20
-237.3863244154667
 30
0.0
 40
0.5179085730137977
100
AcDbArc
 50
218.1204197971917
 51
321.8795802027966
  0
ARC
  5
424
102
{ACAD_REACTORS
330
45F
330
460
102
}
330
71
100
AcDbEntity
  8
0
  6
Continuous
 62
     2
100
AcDbCircle
 10
-259.8719056346046
 20
-237.2295932373467
 30
0.0
 40
0.7717997786797123
100
AcDbArc
 50
321.8795802028401
 51
38.12041979715329
  0
CIRCLE
  5
425
330
71
100
AcDbEntity
  8
1
  6
Continuous
 62
     2
100
AcDbCircle
 10
-262.526898747002
 20
-224.9249979992684
 30
0.0
 40
2.5
  0
CIRCLE
  5
426
330
71
100
AcDbEntity
  8
1
  6
Continuous
 62
     2
100
AcDbCircle
 10
-262.526898747002
 20
-224.9249979992684
 30
0.0
 40
1.249999999999886
  0
CIRCLE
  5
427
102
{ACAD_REACTORS
330
463
330
464
102
}
330
71
100
AcDbEntity
  8
0
  6
Continuous
 62
     2
100
AcDbCircle
 10
-267.9830684811017
 20
-235.086624843024
 30
0.0
 40
0.4709789327785074
  0
MTEXT
  5
428
330
71
100
AcDbEntity
  8
1
 62
     3
100
AcDbMText
 10
-432.7136813207428
 20
-59.25868984396948
 30
0.0
 40
1.8
 41
0.0
 71
     7
 72
     1
  3
Weitergabe sowie Vervielf\U+00e4ltigung dieses Dokuments, Verwertung und \PMitteilung seines Inhalts sind verboten, soweit nicht ausdr\U+00fccklich gestattet. \PZuwiderhandlungen verpflichten zu Schadenersatz. Alle Rechte f\U+00fcr den Fall\Pder Pat
  1
ent-, Gebrauchsmuster- oder Designeintragung vorbehalten.
  7
CONVERTER_11
 73
     1
 44
0.99639855942377
  0
MTEXT
  5
429
330
71
100
AcDbEntity
  8
1
 62
     3
100
AcDbMText
 10
-249.8605714819547
 20
-59.25868984396948
 30
0.0
 40
1.8
 41
0.0
 71
     7
 72
     1
  3
Transfer or duplication of this document as well as the utilisation or\Pcommunication of its content are not permitted unless express consent\Pis granted. Violations give rise to claims for damages. All rights reserved\Pin case of patent, utility mo
  1
del or design patent registrations.
  7
CONVERTER_11
 73
     1
 44
0.99639855942377
  0
TEXT
  5
42A
330
71
100
AcDbEntity
  8
1
 62
     2
100
AcDbText
 10
-256.0635536335648
 20
-244.8090152142599
 30
0.0
 40
1.8
  1
of
 41
0.9
  7
CONVERTER_11
100
AcDbText
  0
TEXT
  5
42B
330
71
100
AcDbEntity
  8
1
 62
     2
100
AcDbText
 10
-274.2635536335646
 20
-244.8090152142599
 30
0.0
 40
1.8
  1
page
 41
0.9
  7
CONVERTER_11
100
AcDbText
  0
TEXT
  5
42C
330
71
100
AcDbEntity
  8
1
 62
     2
100
AcDbText
 10
-265.6172886632226
 20
-244.8492466530703
 30
0.0
 40
1.8
  1
1
 41
0.9
  7
CONVERTER_11
100
AcDbText
  0
TEXT
  5
42D
330
71
100
AcDbEntity
  8
1
 62
     2
100
AcDbText
 10
-250.8282448237511
 20
-244.7999979992684
 30
0.0
 40
1.8
  1
1
 41
0.9
  7
CONVERTER_11
100
AcDbText
  0
MTEXT
  5
42F
330
71
100
AcDbEntity
  8
1
 62
     7
100
AcDbMText
 10
-192.2911513701891
 20
-242.799997999268
 30
0.0
 40
3.0
 41
0.0
 71
     5
 72
     1
  1
USLKG 35-IB
  7
CONVERTER_12
 73
     1
 44
1.20048019207683
  0
MTEXT
  5
430
330
71
100
AcDbEntity
  8
1
 62
     2
100
AcDbMText
 10
-237.8635536335647
 20
-238.5499979992683
 30
0.0
 40
1.8
 41
0.0
 71
     1
 72
     1
  1
description
  7
CONVERTER_11
 73
     1
 44
1.20048019207683
  0
MTEXT
  5
431
330
71
100
AcDbEntity
  8
1
 62
     3
100
AcDbMText
 10
-249.0635536335647
 20
-224.9249979992683
 30
0.0
 40
2.5
 41
0.0
 71
     5
 72
     1
  1
DIN A4
  7
CONVERTER_11
 73
     1
 44
1.20048019207683
  0
MTEXT
  5
432
330
71
100
AcDbEntity
  8
1
 62
     7
100
AcDbMText
 10
-435.2187491068137
 20
-223.5499979992683
 30
0.0
 40
3.5
 41
0.0
 71
     5
 72
     1
  1
D
  7
CONVERTER_11
 73
     1
 44
1.20048019207683
  0
MTEXT
  5
433
330
71
100
AcDbEntity
  8
1
 62
     7
100
AcDbMText
 10
-435.2187491068137
 20
-171.0499979992683
 30
0.0
 40
3.5
 41
0.0
 71
     5
 72
     1
  1
C
  7
CONVERTER_11
 73
     1
 44
1.20048019207683
  0
MTEXT
  5
434
330
71
100
AcDbEntity
  8
1
 62
     7
100
AcDbMText
 10
-435.2187491068137
 20
-121.0499979992683
 30
0.0
 40
3.5
 41
0.0
 71
     5
 72
     1
  1
B
  7
CONVERTER_11
 73
     1
 44
1.20048019207683
  0
MTEXT
  5
435
330
71
100
AcDbEntity
  8
1
 62
     7
100
AcDbMText
 10
-435.2187491068137
 20
-68.54999799926827
 30
0.0
 40
3.5
 41
0.0
 71
     5
 72
     1
  1
A
  7
CONVERTER_11
 73
     1
 44
1.20048019207683
  0
MTEXT
  5
436
330
71
100
AcDbEntity
  8
1
 62
     7
100
AcDbMText
 10
-164.9687491068154
 20
-248.5499979992684
 30
0.0
 40
3.5
 41
0.0
 71
     5
 72
     1
  1
6
  7
CONVERTER_11
 73
     1
 44
1.20048019207683
  0
MTEXT
  5
437
330
71
100
AcDbEntity
  8
1
 62
     7
100
AcDbMText
 10
-214.2187491068146
 20
-248.5499979992684
 30
0.0
 40
3.5
 41
0.0
 71
     5
 72
     1
  1
5
  7
CONVERTER_11
 73
     1
 44
1.20048019207683
  0
MTEXT
  5
438
330
71
100
AcDbEntity
  8
1
 62
     7
100
AcDbMText
 10
-264.2187491068147
 20
-248.5499979992684
 30
0.0
 40
3.5
 41
0.0
 71
     5
 72
     1
  1
4
  7
CONVERTER_11
 73
     1
 44
1.20048019207683
  0
MTEXT
  5
439
330
71
100
AcDbEntity
  8
1
 62
     7
100
AcDbMText
 10
-314.2187491068146
 20
-248.5499979992684
 30
0.0
 40
3.5
 41
0.0
 71
     5
 72
     1
  1
3
  7
CONVERTER_11
 73
     1
 44
1.20048019207683
  0
MTEXT
  5
43A
330
71
100
AcDbEntity
  8
1
 62
     7
100
AcDbMText
 10
-364.2187491068146
 20
-248.5499979992684
 30
0.0
 40
3.5
 41
0.0
 71
     5
 72
     1
  1
2
  7
CONVERTER_11
 73
     1
 44
1.20048019207683
  0
MTEXT
  5
43B
330
71
100
AcDbEntity
  8
1
 62
     7
100
AcDbMText
 10
-413.4687491068142
 20
-248.5499979992684
 30
0.0
 40
3.5
 41
0.0
 71
     5
 72
     1
  1
1
  7
CONVERTER_11
 73
     1
 44
1.20048019207683
  0
MTEXT
  5
43C
330
71
100
AcDbEntity
  8
1
 62
     7
100
AcDbMText
 10
-143.2187491068156
 20
-223.5499979992683
 30
0.0
 40
3.5
 41
0.0
 71
     5
 72
     1
  1
D
  7
CONVERTER_11
 73
     1
 44
1.20048019207683
  0
MTEXT
  5
43D
330
71
100
AcDbEntity
  8
1
 62
     7
100
AcDbMText
 10
-143.2187491068156
 20
-121.0499979992664
 30
0.0
 40
3.5
 41
0.0
 71
     5
 72
     1
  1
B
  7
CONVERTER_11
 73
     1
 44
1.20048019207683
  0
MTEXT
  5
43E
330
71
100
AcDbEntity
  8
1
 62
     7
100
AcDbMText
 10
-143.2187491068156
 20
-68.54999799926827
 30
0.0
 40
3.5
 41
0.0
 71
     5
 72
     1
  1
A
  7
CONVERTER_11
 73
     1
 44
1.20048019207683
  0
MTEXT
  5
43F
330
71
100
AcDbEntity
  8
1
 62
     7
100
AcDbMText
 10
-143.2187491068156
 20
-171.0499979992664
 30
0.0
 40
3.5
 41
0.0
 71
     5
 72
     1
  1
C
  7
CONVERTER_11
 73
     1
 44
1.20048019207683
  0
MTEXT
  5
440
330
71
100
AcDbEntity
  8
1
 62
     2
100
AcDbMText
 10
-309.7015683586121
 20
-233.2999979992684
 30
0.0
 40
2.0
 41
0.0
 71
     5
 72
     1
  1
General Information\P- Simplified representation\P- Document excluded from change process\P- Linear dimensions [mm]
  7
CONVERTER_11
 73
     1
 44
1.20048019207683
  0
TEXT
  5
441
330
71
100
AcDbEntity
  8
1
 62
     7
100
AcDbText
 10
-237.3635536335649
 20
-236.2499979992684
 30
0.0
 40
2.5
  1
0444035
 41
0.81
  7
CONVERTER_12
100
AcDbText
  0
MTEXT
  5
442
330
71
100
AcDbEntity
  8
1
 62
     2
100
AcDbMText
 10
-237.7635536335646
 20
-230.0499979992683
 30
0.0
 40
1.8
 41
0.0
 71
     1
 72
     1
  1
ident.-No.
  7
CONVERTER_11
 73
     1
 44
1.20048019207683
  0
MTEXT
  5
443
330
71
100
AcDbEntity
  8
1
 62
     2
100
AcDbMText
 10
-153.5371573884919
 20
-221.5499979992683
 30
0.0
 40
1.8
 41
0.0
 71
     1
 72
     1
  1
scale
  7
CONVERTER_11
 73
     1
 44
1.20048019207683
  0
MTEXT
  5
445
330
71
100
AcDbEntity
  8
1
 62
     3
100
AcDbMText
 10
-150.1779532476523
 20
-227.7499979992682
 30
0.0
 40
2.5
 41
0.0
 71
     8
 72
     1
  1
1:1
  7
CONVERTER_13
 73
     1
 44
1.32052821128451
  0
TEXT
  5
446
330
71
100
AcDbEntity
  8
1
 62
     7
100
AcDbText
 10
-237.7635536335646
 20
-227.7499979992684
 30
0.0
 40
2.5
  1
00448000
 41
0.81
  7
CONVERTER_12
100
AcDbText
  0
MTEXT
  5
448
330
71
100
AcDbEntity
  8
1
 62
     2
100
AcDbMText
 10
-237.7635536335646
 20
-221.5499979992683
 30
0.0
 40
1.8
 41
0.0
 71
     1
 72
     1
  1
document-No. / RI
  7
CONVERTER_14
 73
     1
 44
1.32052821128451
  0
TEXT
  5
449
330
71
100
AcDbEntity
  8
1
 62
     3
100
AcDbText
 10
-209.9635536335646
 20
-236.2499979992684
 30
0.0
 40
2.5
  1
TECDOC 2D_Productdrawing
 41
0.81
  7
CONVERTER_12
100
AcDbText
  0
MTEXT
  5
44A
330
71
100
AcDbEntity
  8
1
 62
     2
100
AcDbMText
 10
-209.9635536335646
 20
-230.0499979992684
 30
0.0
 40
1.8
 41
0.0
 71
     1
 72
     1
  1
document-type
  7
CONVERTER_11
 73
     1
 44
1.20048019207683
  0
MTEXT
  5
44B
330
71
100
AcDbEntity
  8
1
 62
     2
100
AcDbMText
 10
-180.1371573884917
 20
-221.5499979992684
 30
0.0
 40
1.8
 41
0.0
 71
     1
 72
     1
  1
date
  7
CONVERTER_11
 73
     1
 44
1.32052821128451
  0
TEXT
  5
44C
330
71
100
AcDbEntity
  8
1
 62
     3
100
AcDbText
 10
-180.1371573884917
 20
-227.7499979992684
 30
0.0
 40
2.5
  1
17.03.2018
 41
0.81
  7
CONVERTER_12
100
AcDbText
  0
TEXT
  5
44D
330
71
100
AcDbEntity
  8
1
 62
     7
100
AcDbText
 10
-217.7336414145088
 20
-227.7499979992684
 30
0.0
 40
2.5
  1
01
 41
0.81
  7
CONVERTER_12
100
AcDbText
  0
TEXT
  5
44E
330
71
100
AcDbEntity
  8
1
 62
     7
100
AcDbText
 10
-219.8900059115508
 20
-227.7499979992684
 30
0.0
 40
2.5
  1
/
 41
0.9
  7
CONVERTER_11
100
AcDbText
  0
HATCH
  5
44F
330
71
100
AcDbEntity
  8
1
  6
Continuous
 62
     2
100
AcDbHatch
 10
0.0
 20
0.0
 30
0.0
210
0.0
220
0.0
230
1.0
  2
_USER
 70
     0
 71
     1
 91
        1
 92
        1
 93
       12
 72
     1
 10
-257.5960529206035
 20
-235.3973075230777
 11
-258.7888456227699
 21
-235.3973075230777
 72
     1
 10
-258.7888456227699
 20
-235.3973075230777
 11
-258.7888456227699
 21
-234.2630354142339
 72
     1
 10
-258.7888456227699
 20
-234.2630354142339
 11
-259.8385032006774
 21
-234.2630354142339
 72
     1
 10
-259.8385032006774
 20
-234.2630354142339
 11
-259.8385032006774
 21
-235.3973075230777
 72
     1
 10
-259.8385032006774
 20
-235.3973075230777
 11
-261.031295902844
 21
-235.3973075230777
 72
     1
 10
-261.031295902844
 20
-235.3973075230777
 11
-261.031295902844
 21
-232.3434979992665
 72
     1
 10
-261.031295902844
 20
-232.3434979992665
 11
-259.8385032006774
 21
-232.3434979992665
 72
     1
 10
-259.8385032006774
 20
-232.3434979992665
 11
-259.8385032006774
 21
-233.4123313326011
 72
     1
 10
-259.8385032006774
 20
-233.4123313326011
 11
-258.7888456227699
 21
-233.4123313326011
 72
     1
 10
-258.7888456227699
 20
-233.4123313326011
 11
-258.7888456227699
 21
-232.3434979992665
 72
     1
 10
-258.7888456227699
 20
-232.3434979992665
 11
-257.5960529206035
 21
-232.3434979992665
 72
     1
 10
-257.5960529206035
 20
-232.3434979992665
 11
-257.5960529206035
 21
-235.3973075230777
 97
       12
330
3BC
330
3BD
330
3A7
330
3A6
330
3A5
330
3B9
330
3A4
330
3BA
330
3BB
330
3A3
330
3A2
330
3A1
 75
     1
 76
     0
 52
45.0
 41
0.1
 77
     0
 78
     1
 53
45.0
 43
0.0
 44
0.0
 45
-0.0707106781186548
 46
0.0707106781186548
 79
     0
 98
        1
 10
0.0
 20
0.0
  0
HATCH
  5
450
330
71
100
AcDbEntity
  8
1
  6
Continuous
 62
     2
100
AcDbHatch
 10
0.0
 20
0.0
 30
0.0
210
0.0
220
0.0
230
1.0
  2
_USER
 70
     0
 71
     1
 91
        1
 92
        1
 93
       12
 72
     1
 10
-257.5960529206035
 20
-235.3973075230777
 11
-258.7888456227699
 21
-235.3973075230777
 72
     1
 10
-258.7888456227699
 20
-235.3973075230777
 11
-258.7888456227699
 21
-234.2630354142339
 72
     1
 10
-258.7888456227699
 20
-234.2630354142339
 11
-259.8385032006774
 21
-234.2630354142339
 72
     1
 10
-259.8385032006774
 20
-234.2630354142339
 11
-259.8385032006774
 21
-235.3973075230777
 72
     1
 10
-259.8385032006774
 20
-235.3973075230777
 11
-261.031295902844
 21
-235.3973075230777
 72
     1
 10
-261.031295902844
 20
-235.3973075230777
 11
-261.031295902844
 21
-232.3434979992665
 72
     1
 10
-261.031295902844
 20
-232.3434979992665
 11
-259.8385032006774
 21
-232.3434979992665
 72
     1
 10
-259.8385032006774
 20
-232.3434979992665
 11
-259.8385032006774
 21
-233.4123313326011
 72
     1
 10
-259.8385032006774
 20
-233.4123313326011
 11
-258.7888456227699
 21
-233.4123313326011
 72
     1
 10
-258.7888456227699
 20
-233.4123313326011
 11
-258.7888456227699
 21
-232.3434979992665
 72
     1
 10
-258.7888456227699
 20
-232.3434979992665
 11
-257.5960529206035
 21
-232.3434979992665
 72
     1
 10
-257.5960529206035
 20
-232.3434979992665
 11
-257.5960529206035
 21
-235.3973075230777
 97
       12
330
3BC
330
3BD
330
3A7
330
3A6
330
3A5
330
3B9
330
3A4
330
3BA
330
3BB
330
3A3
330
3A2
330
3A1
 75
     1
 76
     0
 52
45.0
 41
0.1
 77
     0
 78
     1
 53
45.0
 43
0.0
 44
0.0
 45
-0.0707106781186548
 46
0.0707106781186548
 79
     0
 98
        1
 10
0.0
 20
0.0
  0
HATCH
  5
451
330
71
100
AcDbEntity
  8
1
  6
Continuous
 62
     2
100
AcDbHatch
 10
0.0
 20
0.0
 30
0.0
210
0.0
220
0.0
230
1.0
  2
_USER
 70
     0
 71
     1
 91
        1
 92
        1
 93
       10
 72
     1
 10
-255.3537535714152
 20
-237.011463985646
 11
-256.5942579816681
 21
-235.7026884754409
 72
     1
 10
-256.5942579816681
 20
-235.7026884754409
 11
-257.7870506838357
 21
-235.7026884754409
 72
     1
 10
-257.7870506838357
 20
-235.7026884754409
 11
-257.7870506838357
 21
-238.756497999252
 72
     1
 10
-257.7870506838357
 20
-238.756497999252
 11
-256.5942579816681
 21
-238.756497999252
 72
     1
 10
-256.5942579816681
 20
-238.756497999252
 11
-256.5942579816681
 21
-237.4477224890474
 72
     1
 10
-256.5942579816681
 20
-237.4477224890474
 11
-255.3537535714152
 21
-238.756497999252
 72
     1
 10
-255.3537535714152
 20
-238.756497999252
 11
-254.1609608692488
 21
-238.756497999252
 72
     1
 10
-254.1609608692488
 20
-238.756497999252
 11
-254.1609608692488
 21
-235.7026884754409
 72
     1
 10
-254.1609608692488
 20
-235.7026884754409
 11
-255.3537535714152
 21
-235.7026884754409
 72
     1
 10
-255.3537535714152
 20
-235.7026884754409
 11
-255.3537535714152
 21
-237.011463985646
 97
       10
330
3CA
330
39A
330
399
330
39C
330
3C5
330
3C6
330
39B
330
3C7
330
3C8
330
3C9
 75
     1
 76
     0
 52
45.0
 41
0.1
 77
     0
 78
     1
 53
45.0
 43
0.0
 44
0.0
 45
-0.0707106781186548
 46
0.0707106781186548
 79
     0
 98
        1
 10
0.0
 20
0.0
  0
HATCH
  5
452
330
71
100
AcDbEntity
  8
1
  6
Continuous
 62
     2
100
AcDbHatch
 10
0.0
 20
0.0
 30
0.0
210
0.0
220
0.0
230
1.0
  2
_USER
 70
     0
 71
     1
 91
        1
 92
        1
 93
       10
 72
     1
 10
-255.3537535714152
 20
-237.011463985646
 11
-256.5942579816681
 21
-235.7026884754409
 72
     1
 10
-256.5942579816681
 20
-235.7026884754409
 11
-257.7870506838357
 21
-235.7026884754409
 72
     1
 10
-257.7870506838357
 20
-235.7026884754409
 11
-257.7870506838357
 21
-238.756497999252
 72
     1
 10
-257.7870506838357
 20
-238.756497999252
 11
-256.5942579816681
 21
-238.756497999252
 72
     1
 10
-256.5942579816681
 20
-238.756497999252
 11
-256.5942579816681
 21
-237.4477224890474
 72
     1
 10
-256.5942579816681
 20
-237.4477224890474
 11
-255.3537535714152
 21
-238.756497999252
 72
     1
 10
-255.3537535714152
 20
-238.756497999252
 11
-254.1609608692488
 21
-238.756497999252
 72
     1
 10
-254.1609608692488
 20
-238.756497999252
 11
-254.1609608692488
 21
-235.7026884754409
 72
     1
 10
-254.1609608692488
 20
-235.7026884754409
 11
-255.3537535714152
 21
-235.7026884754409
 72
     1
 10
-255.3537535714152
 20
-235.7026884754409
 11
-255.3537535714152
 21
-237.011463985646
 97
       10
330
3CA
330
39A
330
399
330
39C
330
3C5
330
3C6
330
39B
330
3C7
330
3C8
330
3C9
 75
     1
 76
     0
 52
45.0
 41
0.1
 77
     0
 78
     1
 53
45.0
 43
0.0
 44
0.0
 45
-0.0707106781186548
 46
0.0707106781186548
 79
     0
 98
        1
 10
0.0
 20
0.0
  0
HATCH
  5
453
330
71
100
AcDbEntity
  8
1
  6
Continuous
 62
     2
100
AcDbHatch
 10
0.0
 20
0.0
 30
0.0
210
0.0
220
0.0
230
1.0
  2
_USER
 70
     0
 71
     1
 91
        1
 92
        1
 93
       10
 72
     1
 10
-250.1053147509955
 20
-233.6522735094717
 11
-251.3458191612495
 21
-232.3434979992665
 72
     1
 10
-251.3458191612495
 20
-232.3434979992665
 11
-252.538611863416
 21
-232.3434979992665
 72
     1
 10
-252.538611863416
 20
-232.3434979992665
 11
-252.538611863416
 21
-235.3973075230777
 72
     1
 10
-252.538611863416
 20
-235.3973075230777
 11
-251.3458191612495
 21
-235.3973075230777
 72
     1
 10
-251.3458191612495
 20
-235.3973075230777
 11
-251.3458191612495
 21
-234.088532012873
 72
     1
 10
-251.3458191612495
 20
-234.088532012873
 11
-250.1053147509955
 21
-235.3973075230777
 72
     1
 10
-250.1053147509955
 20
-235.3973075230777
 11
-248.9125220488289
 21
-235.3973075230777
 72
     1
 10
-248.9125220488289
 20
-235.3973075230777
 11
-248.9125220488289
 21
-232.3434979992665
 72
     1
 10
-248.9125220488289
 20
-232.3434979992665
 11
-250.1053147509955
 21
-232.3434979992665
 72
     1
 10
-250.1053147509955
 20
-232.3434979992665
 11
-250.1053147509955
 21
-233.6522735094717
 97
       10
330
3CF
330
397
330
396
330
3D0
330
395
330
3CB
330
3CC
330
3CD
330
3CE
330
398
 75
     1
 76
     0
 52
45.0
 41
0.1
 77
     0
 78
     1
 53
45.0
 43
0.0
 44
0.0
 45
-0.0707106781186548
 46
0.0707106781186548
 79
     0
 98
        1
 10
0.0
 20
0.0
  0
HATCH
  5
454
330
71
100
AcDbEntity
  8
1
  6
Continuous
 62
     2
100
AcDbHatch
 10
0.0
 20
0.0
 30
0.0
210
0.0
220
0.0
230
1.0
  2
_USER
 70
     0
 71
     1
 91
        1
 92
        1
 93
       10
 72
     1
 10
-250.1053147509955
 20
-233.6522735094717
 11
-251.3458191612495
 21
-232.3434979992665
 72
     1
 10
-251.3458191612495
 20
-232.3434979992665
 11
-252.538611863416
 21
-232.3434979992665
 72
     1
 10
-252.538611863416
 20
-232.3434979992665
 11
-252.538611863416
 21
-235.3973075230777
 72
     1
 10
-252.538611863416
 20
-235.3973075230777
 11
-251.3458191612495
 21
-235.3973075230777
 72
     1
 10
-251.3458191612495
 20
-235.3973075230777
 11
-251.3458191612495
 21
-234.088532012873
 72
     1
 10
-251.3458191612495
 20
-234.088532012873
 11
-250.1053147509955
 21
-235.3973075230777
 72
     1
 10
-250.1053147509955
 20
-235.3973075230777
 11
-248.9125220488289
 21
-235.3973075230777
 72
     1
 10
-248.9125220488289
 20
-235.3973075230777
 11
-248.9125220488289
 21
-232.3434979992665
 72
     1
 10
-248.9125220488289
 20
-232.3434979992665
 11
-250.1053147509955
 21
-232.3434979992665
 72
     1
 10
-250.1053147509955
 20
-232.3434979992665
 11
-250.1053147509955
 21
-233.6522735094717
 97
       10
330
3CF
330
397
330
396
330
3D0
330
395
330
3CB
330
3CC
330
3CD
330
3CE
330
398
 75
     1
 76
     0
 52
45.0
 41
0.1
 77
     0
 78
     1
 53
45.0
 43
0.0
 44
0.0
 45
-0.0707106781186548
 46
0.0707106781186548
 79
     0
 98
        1
 10
0.0
 20
0.0
  0
HATCH
  5
455
330
71
100
AcDbEntity
  8
1
  6
Continuous
 62
     2
100
AcDbHatch
 10
0.0
 20
0.0
 30
0.0
210
0.0
220
0.0
230
1.0
  2
_USER
 70
     0
 71
     1
 91
        1
 92
        1
 93
        8
 72
     1
 10
-251.202834967875
 20
-235.7026884754409
 11
-254.0178257449886
 21
-235.7026884754409
 72
     1
 10
-254.0178257449886
 20
-235.7026884754409
 11
-254.0178257449886
 21
-236.4879537815645
 72
     1
 10
-254.0178257449886
 20
-236.4879537815645
 11
-253.206726707514
 21
-236.4879537815645
 72
     1
 10
-253.206726707514
 20
-236.4879537815645
 11
-253.206726707514
 21
-238.756497999252
 72
     1
 10
-253.206726707514
 20
-238.756497999252
 11
-252.0139340053475
 21
-238.756497999252
 72
     1
 10
-252.0139340053475
 20
-238.756497999252
 11
-252.0139340053475
 21
-236.4879537815645
 72
     1
 10
-252.0139340053475
 20
-236.4879537815645
 11
-251.202834967875
 21
-236.4879537815645
 72
     1
 10
-251.202834967875
 20
-236.4879537815645
 11
-251.202834967875
 21
-235.7026884754409
 97
        8
330
391
330
3D1
330
390
330
3D2
330
3D3
330
394
330
393
330
392
 75
     1
 76
     0
 52
45.0
 41
0.1
 77
     0
 78
     1
 53
45.0
 43
0.0
 44
0.0
 45
-0.0707106781186548
 46
0.0707106781186548
 79
     0
 98
        1
 10
0.0
 20
0.0
  0
HATCH
  5
456
330
71
100
AcDbEntity
  8
1
  6
Continuous
 62
     2
100
AcDbHatch
 10
0.0
 20
0.0
 30
0.0
210
0.0
220
0.0
230
1.0
  2
_USER
 70
     0
 71
     1
 91
        1
 92
        1
 93
        8
 72
     1
 10
-251.202834967875
 20
-235.7026884754409
 11
-254.0178257449886
 21
-235.7026884754409
 72
     1
 10
-254.0178257449886
 20
-235.7026884754409
 11
-254.0178257449886
 21
-236.4879537815645
 72
     1
 10
-254.0178257449886
 20
-236.4879537815645
 11
-253.206726707514
 21
-236.4879537815645
 72
     1
 10
-253.206726707514
 20
-236.4879537815645
 11
-253.206726707514
 21
-238.756497999252
 72
     1
 10
-253.206726707514
 20
-238.756497999252
 11
-252.0139340053475
 21
-238.756497999252
 72
     1
 10
-252.0139340053475
 20
-238.756497999252
 11
-252.0139340053475
 21
-236.4879537815645
 72
     1
 10
-252.0139340053475
 20
-236.4879537815645
 11
-251.202834967875
 21
-236.4879537815645
 72
     1
 10
-251.202834967875
 20
-236.4879537815645
 11
-251.202834967875
 21
-235.7026884754409
 97
        8
330
391
330
3D1
330
390
330
3D2
330
3D3
330
394
330
393
330
392
 75
     1
 76
     0
 52
45.0
 41
0.1
 77
     0
 78
     1
 53
45.0
 43
0.0
 44
0.0
 45
-0.0707106781186548
 46
0.0707106781186548
 79
     0
 98
        1
 10
0.0
 20
0.0
  0
HATCH
  5
457
330
71
100
AcDbEntity
  8
1
  6
Continuous
 62
     2
100
AcDbHatch
 10
0.0
 20
0.0
 30
0.0
210
0.0
220
0.0
230
1.0
  2
_USER
 70
     0
 71
     1
 91
        2
 92
        1
 93
        8
 72
     1
 10
-249.064407511928
 20
-238.756497999252
 11
-249.2758875654038
 21
-238.2155374550341
 72
     1
 10
-249.2758875654038
 20
-238.2155374550341
 11
-250.4083291420776
 21
-238.2155374550341
 72
     1
 10
-250.4083291420776
 20
-238.2155374550341
 11
-250.6198091955534
 21
-238.756497999252
 72
     1
 10
-250.6198091955534
 20
-238.756497999252
 11
-251.8603136058064
 21
-238.756497999252
 72
     1
 10
-251.8603136058064
 20
-238.756497999252
 11
-250.4623605588671
 21
-235.7026884754409
 72
     1
 10
-250.4623605588671
 20
-235.7026884754409
 11
-249.2218561486144
 21
-235.7026884754409
 72
     1
 10
-249.2218561486144
 20
-235.7026884754409
 11
-247.8239031016741
 21
-238.756497999252
 72
     1
 10
-247.8239031016741
 20
-238.756497999252
 11
-249.064407511928
 21
-238.756497999252
 97
        8
330
3D5
330
3D6
330
38D
330
3D7
330
38C
330
38F
330
3D4
330
38E
 92
       16
 93
        3
 72
     1
 10
-250.1422735909326
 20
-237.5349741897275
 11
-249.8421083537402
 21
-236.7671592237408
 72
     1
 10
-249.8421083537402
 20
-236.7671592237408
 11
-249.5419431165501
 21
-237.5349741897275
 72
     1
 10
-249.5419431165501
 20
-237.5349741897275
 11
-250.1422735909326
 21
-237.5349741897275
 97
        3
330
38B
330
3D9
330
3D8
 75
     1
 76
     0
 52
45.0
 41
0.1
 77
     0
 78
     1
 53
45.0
 43
0.0
 44
0.0
 45
-0.0707106781186548
 46
0.0707106781186548
 79
     0
 98
        1
 10
0.0
 20
0.0
  0
HATCH
  5
458
330
71
100
AcDbEntity
  8
1
  6
Continuous
 62
     2
100
AcDbHatch
 10
0.0
 20
0.0
 30
0.0
210
0.0
220
0.0
230
1.0
  2
_USER
 70
     0
 71
     1
 91
        2
 92
        1
 93
        8
 72
     1
 10
-249.064407511928
 20
-238.756497999252
 11
-249.2758875654038
 21
-238.2155374550341
 72
     1
 10
-249.2758875654038
 20
-238.2155374550341
 11
-250.4083291420776
 21
-238.2155374550341
 72
     1
 10
-250.4083291420776
 20
-238.2155374550341
 11
-250.6198091955534
 21
-238.756497999252
 72
     1
 10
-250.6198091955534
 20
-238.756497999252
 11
-251.8603136058064
 21
-238.756497999252
 72
     1
 10
-251.8603136058064
 20
-238.756497999252
 11
-250.4623605588671
 21
-235.7026884754409
 72
     1
 10
-250.4623605588671
 20
-235.7026884754409
 11
-249.2218561486144
 21
-235.7026884754409
 72
     1
 10
-249.2218561486144
 20
-235.7026884754409
 11
-247.8239031016741
 21
-238.756497999252
 72
     1
 10
-247.8239031016741
 20
-238.756497999252
 11
-249.064407511928
 21
-238.756497999252
 97
        8
330
3D5
330
3D6
330
38D
330
3D7
330
38C
330
38F
330
3D4
330
38E
 92
       16
 93
        3
 72
     1
 10
-250.1422735909326
 20
-237.5349741897275
 11
-249.8421083537402
 21
-236.7671592237408
 72
     1
 10
-249.8421083537402
 20
-236.7671592237408
 11
-249.5419431165501
 21
-237.5349741897275
 72
     1
 10
-249.5419431165501
 20
-237.5349741897275
 11
-250.1422735909326
 21
-237.5349741897275
 97
        3
330
38B
330
3D9
330
3D8
 75
     1
 76
     0
 52
45.0
 41
0.1
 77
     0
 78
     1
 53
45.0
 43
0.0
 44
0.0
 45
-0.0707106781186548
 46
0.0707106781186548
 79
     0
 98
        1
 10
0.0
 20
0.0
  0
HATCH
  5
459
330
71
100
AcDbEntity
  8
1
  6
Continuous
 62
     2
100
AcDbHatch
 10
0.0
 20
0.0
 30
0.0
210
0.0
220
0.0
230
1.0
  2
_USER
 70
     0
 71
     1
 91
        1
 92
        1
 93
        4
 72
     1
 10
-247.4334590981421
 20
-235.3973075230777
 11
-248.673963508395
 21
-235.3973075230777
 72
     1
 10
-248.673963508395
 20
-235.3973075230777
 11
-248.673963508395
 21
-232.3434979992665
 72
     1
 10
-248.673963508395
 20
-232.3434979992665
 11
-247.4334590981421
 21
-232.3434979992665
 72
     1
 10
-247.4334590981421
 20
-232.3434979992665
 11
-247.4334590981421
 21
-235.3973075230777
 97
        4
330
388
330
38A
330
3DA
330
389
 75
     1
 76
     0
 52
45.0
 41
0.1
 77
     0
 78
     1
 53
45.0
 43
0.0
 44
0.0
 45
-0.0707106781186548
 46
0.0707106781186548
 79
     0
 98
        1
 10
0.0
 20
0.0
  0
HATCH
  5
45A
330
71
100
AcDbEntity
  8
1
  6
Continuous
 62
     2
100
AcDbHatch
 10
0.0
 20
0.0
 30
0.0
210
0.0
220
0.0
230
1.0
  2
_USER
 70
     0
 71
     1
 91
        1
 92
        1
 93
        4
 72
     1
 10
-247.4334590981421
 20
-235.3973075230777
 11
-248.673963508395
 21
-235.3973075230777
 72
     1
 10
-248.673963508395
 20
-235.3973075230777
 11
-248.673963508395
 21
-232.3434979992665
 72
     1
 10
-248.673963508395
 20
-232.3434979992665
 11
-247.4334590981421
 21
-232.3434979992665
 72
     1
 10
-247.4334590981421
 20
-232.3434979992665
 11
-247.4334590981421
 21
-235.3973075230777
 97
        4
330
388
330
38A
330
3DA
330
389
 75
     1
 76
     0
 52
45.0
 41
0.1
 77
     0
 78
     1
 53
45.0
 43
0.0
 44
0.0
 45
-0.0707106781186548
 46
0.0707106781186548
 79
     0
 98
        1
 10
0.0
 20
0.0
  0
HATCH
  5
45B
330
71
100
AcDbEntity
  8
1
  6
Continuous
 62
     2
100
AcDbHatch
 10
0.0
 20
0.0
 30
0.0
210
0.0
220
0.0
230
1.0
  2
_USER
 70
     0
 71
     1
 91
        1
 92
        1
 93
       12
 72
     1
 10
-243.2109729324713
 20
-232.3434979992665
 11
-244.5135025632378
 21
-233.8164485293027
 72
     1
 10
-244.5135025632378
 20
-233.8164485293027
 11
-243.1155495162975
 21
-235.3973075230777
 72
     1
 10
-243.1155495162975
 20
-235.3973075230777
 11
-244.5182737340458
 21
-235.3973075230777
 72
     1
 10
-244.5182737340458
 20
-235.3973075230777
 11
-245.2148646721113
 21
-234.609575737784
 72
     1
 10
-245.2148646721113
 20
-234.609575737784
 11
-245.911455610177
 21
-235.3973075230777
 72
     1
 10
-245.911455610177
 20
-235.3973075230777
 11
-247.3141798279252
 21
-235.3973075230777
 72
     1
 10
-247.3141798279252
 20
-235.3973075230777
 11
-245.9162267809849
 21
-233.8164485293027
 72
     1
 10
-245.9162267809849
 20
-233.8164485293027
 11
-247.2187564117524
 21
-232.3434979992665
 72
     1
 10
-247.2187564117524
 20
-232.3434979992665
 11
-245.8160321940031
 21
-232.3434979992665
 72
     1
 10
-245.8160321940031
 20
-232.3434979992665
 11
-245.2148646721113
 21
-233.023321320822
 72
     1
 10
-245.2148646721113
 20
-233.023321320822
 11
-244.6136971502185
 21
-232.3434979992665
 72
     1
 10
-244.6136971502185
 20
-232.3434979992665
 11
-243.2109729324713
 21
-232.3434979992665
 97
       12
330
383
330
382
330
381
330
3DE
330
3DF
330
3DB
330
3DC
330
387
330
386
330
385
330
384
330
3DD
 75
     1
 76
     0
 52
45.0
 41
0.1
 77
     0
 78
     1
 53
45.0
 43
0.0
 44
0.0
 45
-0.0707106781186548
 46
0.0707106781186548
 79
     0
 98
        1
 10
0.0
 20
0.0
  0
HATCH
  5
45C
330
71
100
AcDbEntity
  8
1
  6
Continuous
 62
     2
100
AcDbHatch
 10
0.0
 20
0.0
 30
0.0
210
0.0
220
0.0
230
1.0
  2
_USER
 70
     0
 71
     1
 91
        1
 92
        1
 93
       12
 72
     1
 10
-243.2109729324713
 20
-232.3434979992665
 11
-244.5135025632378
 21
-233.8164485293027
 72
     1
 10
-244.5135025632378
 20
-233.8164485293027
 11
-243.1155495162975
 21
-235.3973075230777
 72
     1
 10
-243.1155495162975
 20
-235.3973075230777
 11
-244.5182737340458
 21
-235.3973075230777
 72
     1
 10
-244.5182737340458
 20
-235.3973075230777
 11
-245.2148646721113
 21
-234.609575737784
 72
     1
 10
-245.2148646721113
 20
-234.609575737784
 11
-245.911455610177
 21
-235.3973075230777
 72
     1
 10
-245.911455610177
 20
-235.3973075230777
 11
-247.3141798279252
 21
-235.3973075230777
 72
     1
 10
-247.3141798279252
 20
-235.3973075230777
 11
-245.9162267809849
 21
-233.8164485293027
 72
     1
 10
-245.9162267809849
 20
-233.8164485293027
 11
-247.2187564117524
 21
-232.3434979992665
 72
     1
 10
-247.2187564117524
 20
-232.3434979992665
 11
-245.8160321940031
 21
-232.3434979992665
 72
     1
 10
-245.8160321940031
 20
-232.3434979992665
 11
-245.2148646721113
 21
-233.023321320822
 72
     1
 10
-245.2148646721113
 20
-233.023321320822
 11
-244.6136971502185
 21
-232.3434979992665
 72
     1
 10
-244.6136971502185
 20
-232.3434979992665
 11
-243.2109729324713
 21
-232.3434979992665
 97
       12
330
383
330
382
330
381
330
3DE
330
3DF
330
3DB
330
3DC
330
387
330
386
330
385
330
384
330
3DD
 75
     1
 76
     0
 52
45.0
 41
0.1
 77
     0
 78
     1
 53
45.0
 43
0.0
 44
0.0
 45
-0.0707106781186548
 46
0.0707106781186548
 79
     0
 98
        1
 10
0.0
 20
0.0
  0
HATCH
  5
45D
330
71
100
AcDbEntity
  8
1
  6
Continuous
 62
     2
100
AcDbHatch
 10
0.0
 20
0.0
 30
0.0
210
0.0
220
0.0
230
1.0
  2
_USER
 70
     0
 71
     1
 91
        2
 92
        1
 93
        6
 72
     1
 10
-262.2287083466173
 20
-234.4542292819339
 11
-262.9874759343976
 21
-234.4542292819339
 72
     1
 10
-262.9874759343976
 20
-234.4542292819339
 11
-262.9874759343976
 21
-235.3973075230777
 72
     1
 10
-262.9874759343976
 20
-235.3973075230777
 11
-264.2279803446517
 21
-235.3973075230777
 72
     1
 10
-264.2279803446517
 20
-235.3973075230777
 11
-264.2279803446517
 21
-232.3434979992665
 72
     1
 10
-264.2279803446517
 20
-232.3434979992665
 11
-262.2287083466173
 21
-232.3434979992665
 72
     2
 10
-262.2287083466173
 20
-233.3988636406002
 40
1.05536564133368
 50
270.0
 51
450.0
 73
     0
 97
        6
330
3AB
330
3AA
330
3B7
330
3B6
330
3AC
330
3FC
 92
       16
 93
        4
 72
     2
 10
-262.6701808728557
 20
-233.3594676693777
 40
0.3528638246711182
 50
270.0
 51
450.0
 73
     1
 72
     1
 10
-262.6701808728557
 20
-233.0066038447066
 11
-262.9874759343976
 21
-233.0066038447066
 72
     1
 10
-262.9874759343976
 20
-233.0066038447066
 11
-262.9874759343976
 21
-233.7123314940488
 72
     1
 10
-262.9874759343976
 20
-233.7123314940488
 11
-262.6701808728557
 21
-233.7123314940488
 97
        4
330
410
330
3A8
330
3B8
330
3A9
 75
     1
 76
     0
 52
45.0
 41
0.1
 77
     0
 78
     1
 53
45.0
 43
0.0
 44
0.0
 45
-0.0707106781186548
 46
0.0707106781186548
 79
     0
 98
        1
 10
0.0
 20
0.0
  0
HATCH
  5
45E
330
71
100
AcDbEntity
  8
1
  6
Continuous
 62
     2
100
AcDbHatch
 10
0.0
 20
0.0
 30
0.0
210
0.0
220
0.0
230
1.0
  2
_USER
 70
     0
 71
     1
 91
        2
 92
        1
 93
        6
 72
     1
 10
-262.2287083466173
 20
-234.4542292819339
 11
-262.9874759343976
 21
-234.4542292819339
 72
     1
 10
-262.9874759343976
 20
-234.4542292819339
 11
-262.9874759343976
 21
-235.3973075230777
 72
     1
 10
-262.9874759343976
 20
-235.3973075230777
 11
-264.2279803446517
 21
-235.3973075230777
 72
     1
 10
-264.2279803446517
 20
-235.3973075230777
 11
-264.2279803446517
 21
-232.3434979992665
 72
     1
 10
-264.2279803446517
 20
-232.3434979992665
 11
-262.2287083466173
 21
-232.3434979992665
 72
     2
 10
-262.2287083466173
 20
-233.3988636406002
 40
1.05536564133368
 50
270.0
 51
450.0
 73
     0
 97
        6
330
3AB
330
3AA
330
3B7
330
3B6
330
3AC
330
3FC
 92
       16
 93
        4
 72
     2
 10
-262.6701808728557
 20
-233.3594676693777
 40
0.3528638246711182
 50
270.0
 51
450.0
 73
     1
 72
     1
 10
-262.6701808728557
 20
-233.0066038447066
 11
-262.9874759343976
 21
-233.0066038447066
 72
     1
 10
-262.9874759343976
 20
-233.0066038447066
 11
-262.9874759343976
 21
-233.7123314940488
 72
     1
 10
-262.9874759343976
 20
-233.7123314940488
 11
-262.6701808728557
 21
-233.7123314940488
 97
        4
330
410
330
3A8
330
3B8
330
3A9
 75
     1
 76
     0
 52
45.0
 41
0.1
 77
     0
 78
     1
 53
45.0
 43
0.0
 44
0.0
 45
-0.0707106781186548
 46
0.0707106781186548
 79
     0
 98
        1
 10
0.0
 20
0.0
  0
HATCH
  5
45F
330
71
100
AcDbEntity
  8
1
  6
Continuous
 62
     2
100
AcDbHatch
 10
0.0
 20
0.0
 30
0.0
210
0.0
220
0.0
230
1.0
  2
_USER
 70
     0
 71
     1
 91
        2
 92
        1
 93
        4
 72
     2
 10
-259.6721655982582
 20
-237.7681682476495
 40
2.065479772208568
 50
62.45185182430637
 51
117.5481481756671
 73
     1
 72
     2
 10
-259.9531054900915
 20
-237.2295932373467
 40
1.45803408365149
 50
117.5481481756624
 51
242.4518518243375
 73
     1
 72
     2
 10
-259.6721655982582
 20
-236.6910182270434
 40
2.065479772208522
 50
242.4518518243395
 51
297.5481481756871
 73
     1
 72
     2
 10
-259.3912257064249
 20
-237.2295932373467
 40
1.458034083652016
 50
297.5481481757021
 51
422.4518518242979
 73
     1
 97
        4
330
408
330
407
330
409
330
406
 92
       16
 93
        4
 72
     2
 10
-259.8719056346046
 20
-237.2295932373467
 40
0.7717997786797123
 50
321.8795802028401
 51
398.1204197971533
 73
     1
 72
     2
 10
-259.6721655982582
 20
-237.0728620592262
 40
0.5179085730132775
 50
38.12041979714898
 51
141.8795802028627
 73
     1
 72
     2
 10
-259.4724255619121
 20
-237.2295932373467
 40
0.771799778679508
 50
141.8795802028389
 51
218.1204197971677
 73
     1
 72
     2
 10
-259.6721655982582
 20
-237.3863244154667
 40
0.5179085730137977
 50
218.1204197971917
 51
321.8795802027966
 73
     1
 97
        4
330
424
330
421
330
422
330
423
 75
     1
 76
     0
 52
45.0
 41
0.1
 77
     0
 78
     1
 53
45.0
 43
0.0
 44
0.0
 45
-0.0707106781186548
 46
0.0707106781186548
 79
     0
 98
        1
 10
0.0
 20
0.0
  0
HATCH
  5
460
330
71
100
AcDbEntity
  8
1
  6
Continuous
 62
     2
100
AcDbHatch
 10
0.0
 20
0.0
 30
0.0
210
0.0
220
0.0
230
1.0
  2
_USER
 70
     0
 71
     1
 91
        2
 92
        1
 93
        4
 72
     2
 10
-259.6721655982582
 20
-237.7681682476495
 40
2.065479772208568
 50
62.45185182430637
 51
117.5481481756671
 73
     1
 72
     2
 10
-259.9531054900915
 20
-237.2295932373467
 40
1.45803408365149
 50
117.5481481756624
 51
242.4518518243375
 73
     1
 72
     2
 10
-259.6721655982582
 20
-236.6910182270434
 40
2.065479772208522
 50
242.4518518243395
 51
297.5481481756871
 73
     1
 72
     2
 10
-259.3912257064249
 20
-237.2295932373467
 40
1.458034083652016
 50
297.5481481757021
 51
422.4518518242979
 73
     1
 97
        4
330
408
330
407
330
409
330
406
 92
       16
 93
        4
 72
     2
 10
-259.8719056346046
 20
-237.2295932373467
 40
0.7717997786797123
 50
321.8795802028401
 51
398.1204197971533
 73
     1
 72
     2
 10
-259.6721655982582
 20
-237.0728620592262
 40
0.5179085730132775
 50
38.12041979714898
 51
141.8795802028627
 73
     1
 72
     2
 10
-259.4724255619121
 20
-237.2295932373467
 40
0.771799778679508
 50
141.8795802028389
 51
218.1204197971677
 73
     1
 72
     2
 10
-259.6721655982582
 20
-237.3863244154667
 40
0.5179085730137977
 50
218.1204197971917
 51
321.8795802027966
 73
     1
 97
        4
330
424
330
421
330
422
330
423
 75
     1
 76
     0
 52
45.0
 41
0.1
 77
     0
 78
     1
 53
45.0
 43
0.0
 44
0.0
 45
-0.0707106781186548
 46
0.0707106781186548
 79
     0
 98
        1
 10
0.0
 20
0.0
  0
HATCH
  5
461
330
71
100
AcDbEntity
  8
1
  6
Continuous
 62
     2
100
AcDbHatch
 10
0.0
 20
0.0
 30
0.0
210
0.0
220
0.0
230
1.0
  2
_USER
 70
     0
 71
     1
 91
        2
 92
        1
 93
       12
 72
     1
 10
-252.7771704038489
 20
-233.0415116047095
 11
-254.1130982302766
 21
-233.0415116047095
 72
     1
 10
-254.1130982302766
 20
-233.0415116047095
 11
-254.1130982302766
 21
-233.5213959584512
 72
     1
 10
-254.1130982302766
 20
-233.5213959584512
 11
-252.7771704038489
 21
-233.5213959584512
 72
     1
 10
-252.7771704038489
 20
-233.5213959584512
 11
-252.7771704038489
 21
-234.2194095638935
 72
     1
 10
-252.7771704038489
 20
-234.2194095638935
 11
-254.1130982302766
 21
-234.2194095638935
 72
     1
 10
-254.1130982302766
 20
-234.2194095638935
 11
-254.1130982302766
 21
-234.6992939176352
 72
     1
 10
-254.1130982302766
 20
-234.6992939176352
 11
-252.7771704038489
 21
-234.6992939176352
 72
     1
 10
-252.7771704038489
 20
-234.6992939176352
 11
-252.7771704038489
 21
-235.3973075230777
 72
     1
 10
-252.7771704038489
 20
-235.3973075230777
 11
-255.9274901276299
 21
-235.3973075230777
 72
     2
 10
-255.9274901276299
 20
-233.8704027611724
 40
1.526904761905882
 50
90.0
 51
270.0
 73
     0
 72
     1
 10
-255.9274901276299
 20
-232.3434979992665
 11
-252.7771704038489
 21
-232.3434979992665
 72
     1
 10
-252.7771704038489
 20
-232.3434979992665
 11
-252.7771704038489
 21
-233.0415116047095
 97
       12
330
3BF
330
411
330
3C0
330
3C1
330
3C2
330
3C3
330
3A0
330
39F
330
39E
330
39D
330
3C4
330
3BE
 92
       16
 93
        4
 72
     2
 10
-255.7112181174647
 20
-233.7136715830519
 40
0.5179085730135266
 50
38.12041979714334
 51
141.879580202847
 73
     1
 72
     2
 10
-255.5114780811184
 20
-233.8704027611724
 40
0.77179977867965
 50
141.8795802028391
 51
218.1204197971575
 73
     1
 72
     2
 10
-255.7112181174647
 20
-234.0271339392928
 40
0.5179085730134148
 50
218.120419797153
 51
321.8795802028566
 73
     1
 72
     2
 10
-255.9109581538109
 20
-233.8704027611724
 40
0.7717997786796373
 50
321.8795802028437
 51
398.1204197971596
 73
     1
 97
        4
330
40B
330
40A
330
405
330
404
 75
     1
 76
     0
 52
45.0
 41
0.1
 77
     0
 78
     1
 53
45.0
 43
0.0
 44
0.0
 45
-0.0707106781186548
 46
0.0707106781186548
 79
     0
 98
        1
 10
0.0
 20
0.0
  0
HATCH
  5
462
330
71
100
AcDbEntity
  8
1
  6
Continuous
 62
     2
100
AcDbHatch
 10
0.0
 20
0.0
 30
0.0
210
0.0
220
0.0
230
1.0
  2
_USER
 70
     0
 71
     1
 91
        2
 92
        1
 93
       12
 72
     1
 10
-252.7771704038489
 20
-233.0415116047095
 11
-254.1130982302766
 21
-233.0415116047095
 72
     1
 10
-254.1130982302766
 20
-233.0415116047095
 11
-254.1130982302766
 21
-233.5213959584512
 72
     1
 10
-254.1130982302766
 20
-233.5213959584512
 11
-252.7771704038489
 21
-233.5213959584512
 72
     1
 10
-252.7771704038489
 20
-233.5213959584512
 11
-252.7771704038489
 21
-234.2194095638935
 72
     1
 10
-252.7771704038489
 20
-234.2194095638935
 11
-254.1130982302766
 21
-234.2194095638935
 72
     1
 10
-254.1130982302766
 20
-234.2194095638935
 11
-254.1130982302766
 21
-234.6992939176352
 72
     1
 10
-254.1130982302766
 20
-234.6992939176352
 11
-252.7771704038489
 21
-234.6992939176352
 72
     1
 10
-252.7771704038489
 20
-234.6992939176352
 11
-252.7771704038489
 21
-235.3973075230777
 72
     1
 10
-252.7771704038489
 20
-235.3973075230777
 11
-255.9274901276299
 21
-235.3973075230777
 72
     2
 10
-255.9274901276299
 20
-233.8704027611724
 40
1.526904761905882
 50
90.0
 51
270.0
 73
     0
 72
     1
 10
-255.9274901276299
 20
-232.3434979992665
 11
-252.7771704038489
 21
-232.3434979992665
 72
     1
 10
-252.7771704038489
 20
-232.3434979992665
 11
-252.7771704038489
 21
-233.0415116047095
 97
       12
330
3BF
330
411
330
3C0
330
3C1
330
3C2
330
3C3
330
3A0
330
39F
330
39E
330
39D
330
3C4
330
3BE
 92
       16
 93
        4
 72
     2
 10
-255.7112181174647
 20
-233.7136715830519
 40
0.5179085730135266
 50
38.12041979714334
 51
141.879580202847
 73
     1
 72
     2
 10
-255.5114780811184
 20
-233.8704027611724
 40
0.77179977867965
 50
141.8795802028391
 51
218.1204197971575
 73
     1
 72
     2
 10
-255.7112181174647
 20
-234.0271339392928
 40
0.5179085730134148
 50
218.120419797153
 51
321.8795802028566
 73
     1
 72
     2
 10
-255.9109581538109
 20
-233.8704027611724
 40
0.7717997786796373
 50
321.8795802028437
 51
398.1204197971596
 73
     1
 97
        4
330
40B
330
40A
330
405
330
404
 75
     1
 76
     0
 52
45.0
 41
0.1
 77
     0
 78
     1
 53
45.0
 43
0.0
 44
0.0
 45
-0.0707106781186548
 46
0.0707106781186548
 79
     0
 98
        1
 10
0.0
 20
0.0
  0
HATCH
  5
463
330
71
100
AcDbEntity
  8
1
  6
Continuous
 62
     2
100
AcDbHatch
 10
0.0
 20
0.0
 30
0.0
210
0.0
220
0.0
230
1.0
  2
_USER
 70
     0
 71
     1
 91
        4
 92
        1
 93
        8
 72
     1
 10
-264.7050974255185
 20
-232.7677426146685
 11
-264.7050974255185
 21
-238.3322533838687
 72
     2
 10
-265.1293420409024
 20
-238.3322533838687
 40
0.4242446153832873
 50
0.0
 51
90.0
 73
     0
 72
     1
 10
-265.1293420409024
 20
-238.756497999252
 11
-270.6026541316192
 21
-238.756497999252
 72
     2
 10
-270.6026541316192
 20
-238.3322533838687
 40
0.4242446153828041
 50
90.0
 51
180.0
 73
     0
 72
     1
 10
-271.026898747002
 20
-238.3322533838687
 11
-271.026898747002
 21
-232.7677426146685
 72
     2
 10
-270.6026541316192
 20
-232.7677426146685
 40
0.4242446153837989
 50
180.0
 51
270.0
 73
     0
 72
     1
 10
-270.6026541316192
 20
-232.3434979992847
 11
-265.1293420409024
 21
-232.3434979992847
 72
     2
 10
-265.1293420409024
 20
-232.7677426146685
 40
0.4242446153838841
 50
270.0
 51
360.0
 73
     0
 97
        8
330
3B3
330
401
330
3B4
330
40C
330
3B1
330
403
330
3B2
330
402
 92
       16
 93
        1
 72
     2
 10
-267.9830684811017
 20
-235.086624843024
 40
0.4709789327785074
 50
0.0
 51
360.0
 73
     1
 97
        1
330
427
 92
       16
 93
        8
 72
     2
 10
-267.433210768341
 20
-236.1957664429924
 40
0.315716923076545
 50
115.3740086783565
 51
180.0
 73
     1
 72
     1
 10
-267.7489276914178
 20
-236.1957664429924
 11
-267.7489276914178
 21
-236.7776178496875
 72
     2
 10
-267.433210768341
 20
-236.7776178496875
 40
0.3157169230768204
 50
180.0
 51
269.811032957449
 73
     1
 72
     2
 10
-267.427594633031
 20
-235.0747829021185
 40
2.018561131933266
 50
269.8110329575858
 51
450.1889670424142
 73
     1
 72
     2
 10
-267.433210768341
 20
-233.3719479545494
 40
0.3157169230760711
 50
90.18896704255108
 51
180.0
 73
     1
 72
     1
 10
-267.7489276914178
 20
-233.3719479545494
 11
-267.7489276914178
 21
-233.9774832430562
 72
     2
 10
-267.433210768341
 20
-233.9774832430562
 40
0.3157169230768204
 50
180.0
 51
244.6259913216412
 73
     1
 72
     2
 10
-267.9592534664289
 20
-235.086624843024
 40
0.911848150144459
 50
295.3740086781925
 51
424.6259913218236
 73
     0
 97
        8
330
419
330
37A
330
416
330
417
330
3F5
330
379
330
418
330
3F4
 92
       16
 93
       12
 72
     2
 10
-270.0087594548727
 20
-237.7282255206184
 40
0.3157169230756836
 50
180.0
 51
270.0
 73
     1
 72
     1
 10
-270.0087594548727
 20
-238.0439424436951
 11
-268.5329261938631
 21
-238.0439424436951
 72
     2
 10
-268.5329261938631
 20
-237.7282255206184
 40
0.3157169230767067
 50
270.0
 51
360.0
 73
     1
 72
     1
 10
-268.2172092707865
 20
-237.7282255206184
 11
-268.2172092707865
 21
-236.1974545890868
 72
     2
 10
-268.5329261938631
 20
-236.1974545890868
 40
0.315716923076593
 50
0.0
 51
64.80558935146027
 73
     1
 72
     2
 10
-268.0103417462881
 20
-235.086624843024
 40
0.911897523557601
 50
115.1944106485139
 51
244.8055893514694
 73
     0
 72
     2
 10
-268.5329261938631
 20
-233.9757950969618
 40
0.315716923076146
 50
295.1944106485375
 51
360.0
 73
     1
 72
     1
 10
-268.2172092707865
 20
-233.9757950969618
 11
-268.2172092707865
 21
-233.3717704779013
 72
     2
 10
-268.5329261938631
 20
-233.3717704779013
 40
0.315716923076593
 50
0.0
 51
90.0
 73
     1
 72
     1
 10
-268.5329261938631
 20
-233.0560535548251
 11
-270.0087594548727
 21
-233.0560535548251
 72
     2
 10
-270.0087594548727
 20
-233.3717704779013
 40
0.3157169230761951
 50
90.0
 51
180.0
 73
     1
 72
     1
 10
-270.3244763779484
 20
-233.3717704779013
 11
-270.3244763779484
 21
-237.7282255206184
 97
       12
330
3FD
330
3B5
330
400
330
3B0
330
40D
330
40E
330
3FF
330
3AF
330
3FE
330
3AE
330
40F
330
3AD
 75
     1
 76
     0
 52
45.0
 41
0.1
 77
     0
 78
     1
 53
45.0
 43
0.0
 44
0.0
 45
-0.0707106781186548
 46
0.0707106781186548
 79
     0
 98
        1
 10
0.0
 20
0.0
  0
HATCH
  5
464
330
71
100
AcDbEntity
  8
1
  6
Continuous
 62
     2
100
AcDbHatch
 10
0.0
 20
0.0
 30
0.0
210
0.0
220
0.0
230
1.0
  2
_USER
 70
     0
 71
     1
 91
        4
 92
        1
 93
        8
 72
     1
 10
-264.7050974255185
 20
-232.7677426146685
 11
-264.7050974255185
 21
-238.3322533838687
 72
     2
 10
-265.1293420409024
 20
-238.3322533838687
 40
0.4242446153832873
 50
0.0
 51
90.0
 73
     0
 72
     1
 10
-265.1293420409024
 20
-238.756497999252
 11
-270.6026541316192
 21
-238.756497999252
 72
     2
 10
-270.6026541316192
 20
-238.3322533838687
 40
0.4242446153828041
 50
90.0
 51
180.0
 73
     0
 72
     1
 10
-271.026898747002
 20
-238.3322533838687
 11
-271.026898747002
 21
-232.7677426146685
 72
     2
 10
-270.6026541316192
 20
-232.7677426146685
 40
0.4242446153837989
 50
180.0
 51
270.0
 73
     0
 72
     1
 10
-270.6026541316192
 20
-232.3434979992847
 11
-265.1293420409024
 21
-232.3434979992847
 72
     2
 10
-265.1293420409024
 20
-232.7677426146685
 40
0.4242446153838841
 50
270.0
 51
360.0
 73
     0
 97
        8
330
3B3
330
401
330
3B4
330
40C
330
3B1
330
403
330
3B2
330
402
 92
       16
 93
        1
 72
     2
 10
-267.9830684811017
 20
-235.086624843024
 40
0.4709789327785074
 50
0.0
 51
360.0
 73
     1
 97
        1
330
427
 92
       16
 93
        8
 72
     2
 10
-267.433210768341
 20
-236.1957664429924
 40
0.315716923076545
 50
115.3740086783565
 51
180.0
 73
     1
 72
     1
 10
-267.7489276914178
 20
-236.1957664429924
 11
-267.7489276914178
 21
-236.7776178496875
 72
     2
 10
-267.433210768341
 20
-236.7776178496875
 40
0.3157169230768204
 50
180.0
 51
269.811032957449
 73
     1
 72
     2
 10
-267.427594633031
 20
-235.0747829021185
 40
2.018561131933266
 50
269.8110329575858
 51
450.1889670424142
 73
     1
 72
     2
 10
-267.433210768341
 20
-233.3719479545494
 40
0.3157169230760711
 50
90.18896704255108
 51
180.0
 73
     1
 72
     1
 10
-267.7489276914178
 20
-233.3719479545494
 11
-267.7489276914178
 21
-233.9774832430562
 72
     2
 10
-267.433210768341
 20
-233.9774832430562
 40
0.3157169230768204
 50
180.0
 51
244.6259913216412
 73
     1
 72
     2
 10
-267.9592534664289
 20
-235.086624843024
 40
0.911848150144459
 50
295.3740086781925
 51
424.6259913218236
 73
     0
 97
        8
330
419
330
37A
330
416
330
417
330
3F5
330
379
330
418
330
3F4
 92
       16
 93
       12
 72
     2
 10
-270.0087594548727
 20
-237.7282255206184
 40
0.3157169230756836
 50
180.0
 51
270.0
 73
     1
 72
     1
 10
-270.0087594548727
 20
-238.0439424436951
 11
-268.5329261938631
 21
-238.0439424436951
 72
     2
 10
-268.5329261938631
 20
-237.7282255206184
 40
0.3157169230767067
 50
270.0
 51
360.0
 73
     1
 72
     1
 10
-268.2172092707865
 20
-237.7282255206184
 11
-268.2172092707865
 21
-236.1974545890868
 72
     2
 10
-268.5329261938631
 20
-236.1974545890868
 40
0.315716923076593
 50
0.0
 51
64.80558935146027
 73
     1
 72
     2
 10
-268.0103417462881
 20
-235.086624843024
 40
0.911897523557601
 50
115.1944106485139
 51
244.8055893514694
 73
     0
 72
     2
 10
-268.5329261938631
 20
-233.9757950969618
 40
0.315716923076146
 50
295.1944106485375
 51
360.0
 73
     1
 72
     1
 10
-268.2172092707865
 20
-233.9757950969618
 11
-268.2172092707865
 21
-233.3717704779013
 72
     2
 10
-268.5329261938631
 20
-233.3717704779013
 40
0.315716923076593
 50
0.0
 51
90.0
 73
     1
 72
     1
 10
-268.5329261938631
 20
-233.0560535548251
 11
-270.0087594548727
 21
-233.0560535548251
 72
     2
 10
-270.0087594548727
 20
-233.3717704779013
 40
0.3157169230761951
 50
90.0
 51
180.0
 73
     1
 72
     1
 10
-270.3244763779484
 20
-233.3717704779013
 11
-270.3244763779484
 21
-237.7282255206184
 97
       12
330
3FD
330
3B5
330
400
330
3B0
330
40D
330
40E
330
3FF
330
3AF
330
3FE
330
3AE
330
40F
330
3AD
 75
     1
 76
     0
 52
45.0
 41
0.1
 77
     0
 78
     1
 53
45.0
 43
0.0
 44
0.0
 45
-0.0707106781186548
 46
0.0707106781186548
 79
     0
 98
        1
 10
0.0
 20
0.0
  0
HATCH
  5
465
330
71
100
AcDbEntity
  8
1
  6
Continuous
 62
     2
100
AcDbHatch
 10
0.0
 20
0.0
 30
0.0
210
0.0
220
0.0
230
1.0
  2
_USER
 70
     0
 71
     1
 91
        1
 92
        1
 93
       18
 72
     1
 10
-243.1155495162975
 20
-236.4879537815645
 11
-243.9266485537709
 21
-236.4879537815645
 72
     1
 10
-243.9266485537709
 20
-236.4879537815645
 11
-243.9266485537709
 21
-238.756497999252
 72
     1
 10
-243.9266485537709
 20
-238.756497999252
 11
-245.1194412559386
 21
-238.756497999252
 72
     1
 10
-245.1194412559386
 20
-238.756497999252
 11
-245.1194412559386
 21
-236.4879537815645
 72
     1
 10
-245.1194412559386
 20
-236.4879537815645
 11
-246.2230805555067
 21
-236.4879537815645
 72
     2
 10
-246.2230805555067
 20
-237.4424767883906
 40
0.9545230068260935
 50
90.0
 51
109.337143219432
 73
     1
 72
     2
 10
-246.3697505536104
 20
-237.0245218080077
 40
0.5115800601944143
 50
109.3371432194853
 51
151.4785267424225
 73
     1
 72
     2
 10
-245.992393295529
 20
-237.2295932373467
 40
0.9410597353348924
 50
151.4785267423624
 51
208.5214732576695
 73
     1
 72
     2
 10
-246.3697505536104
 20
-237.4346646666852
 40
0.5115800601960215
 50
208.5214732576866
 51
246.6277221118449
 73
     1
 72
     2
 10
-246.2133105209073
 20
-237.0726726479752
 40
0.9059297849852801
 50
246.6277221118183
 51
288.4480761180817
 73
     1
 72
     2
 10
-246.6314782545692
 20
-235.8191268719386
 40
2.227384008972746
 50
288.4480761181335
 51
301.9309089499397
 73
     1
 72
     1
 10
-245.4534232125453
 20
-237.7094775910884
 11
-245.4534232125453
 21
-238.5819945978917
 72
     2
 10
-246.789351129662
 20
-233.9169122920903
 40
4.852596863498825
 50
74.02000874166129
 51
84.84185523036365
 73
     0
 72
     2
 10
-246.5004950349262
 20
-237.1168028753119
 40
1.639695123940448
 50
84.8418552303238
 51
164.9381082228988
 73
     0
 72
     2
 10
-246.9196228783878
 20
-237.2295932373467
 40
1.205656168392995
 50
164.9381082229041
 51
195.0618917770959
 73
     0
 72
     2
 10
-246.5004950349262
 20
-237.3423835993816
 40
1.639695123940214
 50
195.0618917771041
 51
270.0
 73
     0
 72
     1
 10
-246.5004950349262
 20
-235.7026884754414
 11
-243.1155495162975
 21
-235.7026884754409
 72
     1
 10
-243.1155495162975
 20
-235.7026884754409
 11
-243.1155495162975
 21
-236.4879537815645
 97
       18
330
37C
330
412
330
413
330
3FB
330
3FA
330
3E0
330
3F9
330
3F8
330
414
330
3F7
330
415
330
3F6
330
3E1
330
37B
330
380
330
37F
330
37E
330
37D
 75
     1
 76
     0
 52
45.0
 41
0.1
 77
     0
 78
     1
 53
45.0
 43
0.0
 44
0.0
 45
-0.0707106781186548
 46
0.0707106781186548
 79
     0
 98
        1
 10
0.0
 20
0.0
  0
HATCH
  5
466
330
71
100
AcDbEntity
  8
1
  6
Continuous
 62
     2
100
AcDbHatch
 10
0.0
 20
0.0
 30
0.0
210
0.0
220
0.0
230
1.0
  2
_USER
 70
     0
 71
     1
 91
        1
 92
        1
 93
       18
 72
     1
 10
-243.1155495162975
 20
-236.4879537815645
 11
-243.9266485537709
 21
-236.4879537815645
 72
     1
 10
-243.9266485537709
 20
-236.4879537815645
 11
-243.9266485537709
 21
-238.756497999252
 72
     1
 10
-243.9266485537709
 20
-238.756497999252
 11
-245.1194412559386
 21
-238.756497999252
 72
     1
 10
-245.1194412559386
 20
-238.756497999252
 11
-245.1194412559386
 21
-236.4879537815645
 72
     1
 10
-245.1194412559386
 20
-236.4879537815645
 11
-246.2230805555067
 21
-236.4879537815645
 72
     2
 10
-246.2230805555067
 20
-237.4424767883906
 40
0.9545230068260935
 50
90.0
 51
109.337143219432
 73
     1
 72
     2
 10
-246.3697505536104
 20
-237.0245218080077
 40
0.5115800601944143
 50
109.3371432194853
 51
151.4785267424225
 73
     1
 72
     2
 10
-245.992393295529
 20
-237.2295932373467
 40
0.9410597353348924
 50
151.4785267423624
 51
208.5214732576695
 73
     1
 72
     2
 10
-246.3697505536104
 20
-237.4346646666852
 40
0.5115800601960215
 50
208.5214732576866
 51
246.6277221118449
 73
     1
 72
     2
 10
-246.2133105209073
 20
-237.0726726479752
 40
0.9059297849852801
 50
246.6277221118183
 51
288.4480761180817
 73
     1
 72
     2
 10
-246.6314782545692
 20
-235.8191268719386
 40
2.227384008972746
 50
288.4480761181335
 51
301.9309089499397
 73
     1
 72
     1
 10
-245.4534232125453
 20
-237.7094775910884
 11
-245.4534232125453
 21
-238.5819945978917
 72
     2
 10
-246.789351129662
 20
-233.9169122920903
 40
4.852596863498825
 50
74.02000874166129
 51
84.84185523036365
 73
     0
 72
     2
 10
-246.5004950349262
 20
-237.1168028753119
 40
1.639695123940448
 50
84.8418552303238
 51
164.9381082228988
 73
     0
 72
     2
 10
-246.9196228783878
 20
-237.2295932373467
 40
1.205656168392995
 50
164.9381082229041
 51
195.0618917770959
 73
     0
 72
     2
 10
-246.5004950349262
 20
-237.3423835993816
 40
1.639695123940214
 50
195.0618917771041
 51
270.0
 73
     0
 72
     1
 10
-246.5004950349262
 20
-235.7026884754414
 11
-243.1155495162975
 21
-235.7026884754409
 72
     1
 10
-243.1155495162975
 20
-235.7026884754409
 11
-243.1155495162975
 21
-236.4879537815645
 97
       18
330
37C
330
412
330
413
330
3FB
330
3FA
330
3E0
330
3F9
330
3F8
330
414
330
3F7
330
415
330
3F6
330
3E1
330
37B
330
380
330
37F
330
37E
330
37D
 75
     1
 76
     0
 52
45.0
 41
0.1
 77
     0
 78
     1
 53
45.0
 43
0.0
 44
0.0
 45
-0.0707106781186548
 46
0.0707106781186548
 79
     0
 98
        1
 10
0.0
 20
0.0
  0
HATCH
  5
467
330
71
100
AcDbEntity
  8
1
  6
Continuous
 62
     2
100
AcDbHatch
 10
0.0
 20
0.0
 30
0.0
210
0.0
220
0.0
230
1.0
  2
_USER
 70
     0
 71
     1
 91
        1
 92
        1
 93
       14
 72
     2
 10
-262.6031965141791
 20
-237.3423835993816
 40
1.639695123940507
 50
84.84185523036236
 51
164.9381082228874
 73
     1
 72
     2
 10
-263.0223243576419
 20
-237.2295932373467
 40
1.205656168390964
 50
164.9381082228781
 51
195.0618917770945
 73
     1
 72
     2
 10
-262.6031965141791
 20
-237.1168028753119
 40
1.639695123939387
 50
195.0618917770896
 51
275.1581447696395
 73
     1
 72
     2
 10
-262.892052608915
 20
-233.9169122920903
 40
4.852596863498135
 50
275.1581447696246
 51
285.9799912583526
 73
     1
 72
     1
 10
-261.5561246917972
 20
-238.5819945978911
 11
-261.5561246917972
 21
-237.7094775910879
 72
     2
 10
-262.7341797338221
 20
-235.819126871938
 40
2.227384008972746
 50
58.0690910500407
 51
71.55192388186651
 73
     0
 72
     2
 10
-262.3160120001613
 20
-237.0726726479752
 40
0.9059297849849192
 50
71.55192388183812
 51
113.372277888129
 73
     0
 72
     2
 10
-262.4724520328633
 20
-237.4346646666852
 40
0.5115800601947784
 50
113.3722778881755
 51
151.4785267423029
 73
     0
 72
     2
 10
-262.095094774783
 20
-237.2295932373467
 40
0.9410597353332545
 50
151.4785267422943
 51
208.5214732577331
 73
     0
 72
     2
 10
-262.4724520328633
 20
-237.0245218080077
 40
0.5115800601948891
 50
208.5214732576971
 51
246.627722111798
 73
     0
 72
     2
 10
-262.3160120001613
 20
-237.3865138267183
 40
0.9059297849853408
 50
246.627722111871
 51
288.4480761181499
 73
     0
 72
     2
 10
-262.7341797338221
 20
-238.6400596027549
 40
2.227384008973478
 50
288.4480761181335
 51
301.9309089499593
 73
     0
 72
     1
 10
-261.5561246917972
 20
-236.749708883605
 11
-261.5561246917972
 21
-235.8771918768017
 72
     2
 10
-262.892052608915
 20
-240.5422741826026
 40
4.852596863498061
 50
74.0200087416477
 51
84.84185523037539
 73
     1
 97
       14
330
41A
330
41B
330
41C
330
41D
330
3E2
330
3F3
330
3F2
330
3F1
330
41E
330
41F
330
3F0
330
420
330
3E3
330
3EF
 75
     1
 76
     0
 52
45.0
 41
0.1
 77
     0
 78
     1
 53
45.0
 43
0.0
 44
0.0
 45
-0.0707106781186548
 46
0.0707106781186548
 79
     0
 98
        1
 10
0.0
 20
0.0
  0
HATCH
  5
468
330
71
100
AcDbEntity
  8
1
  6
Continuous
 62
     2
100
AcDbHatch
 10
0.0
 20
0.0
 30
0.0
210
0.0
220
0.0
230
1.0
  2
_USER
 70
     0
 71
     1
 91
        1
 92
        1
 93
       14
 72
     2
 10
-262.6031965141791
 20
-237.3423835993816
 40
1.639695123940507
 50
84.84185523036236
 51
164.9381082228874
 73
     1
 72
     2
 10
-263.0223243576419
 20
-237.2295932373467
 40
1.205656168390964
 50
164.9381082228781
 51
195.0618917770945
 73
     1
 72
     2
 10
-262.6031965141791
 20
-237.1168028753119
 40
1.639695123939387
 50
195.0618917770896
 51
275.1581447696395
 73
     1
 72
     2
 10
-262.892052608915
 20
-233.9169122920903
 40
4.852596863498135
 50
275.1581447696246
 51
285.9799912583526
 73
     1
 72
     1
 10
-261.5561246917972
 20
-238.5819945978911
 11
-261.5561246917972
 21
-237.7094775910879
 72
     2
 10
-262.7341797338221
 20
-235.819126871938
 40
2.227384008972746
 50
58.0690910500407
 51
71.55192388186651
 73
     0
 72
     2
 10
-262.3160120001613
 20
-237.0726726479752
 40
0.9059297849849192
 50
71.55192388183812
 51
113.372277888129
 73
     0
 72
     2
 10
-262.4724520328633
 20
-237.4346646666852
 40
0.5115800601947784
 50
113.3722778881755
 51
151.4785267423029
 73
     0
 72
     2
 10
-262.095094774783
 20
-237.2295932373467
 40
0.9410597353332545
 50
151.4785267422943
 51
208.5214732577331
 73
     0
 72
     2
 10
-262.4724520328633
 20
-237.0245218080077
 40
0.5115800601948891
 50
208.5214732576971
 51
246.627722111798
 73
     0
 72
     2
 10
-262.3160120001613
 20
-237.3865138267183
 40
0.9059297849853408
 50
246.627722111871
 51
288.4480761181499
 73
     0
 72
     2
 10
-262.7341797338221
 20
-238.6400596027549
 40
2.227384008973478
 50
288.4480761181335
 51
301.9309089499593
 73
     0
 72
     1
 10
-261.5561246917972
 20
-236.749708883605
 11
-261.5561246917972
 21
-235.8771918768017
 72
     2
 10
-262.892052608915
 20
-240.5422741826026
 40
4.852596863498061
 50
74.0200087416477
 51
84.84185523037539
 73
     1
 97
       14
330
41A
330
41B
330
41C
330
41D
330
3E2
330
3F3
330
3F2
330
3F1
330
41E
330
41F
330
3F0
330
420
330
3E3
330
3EF
 75
     1
 76
     0
 52
45.0
 41
0.1
 77
     0
 78
     1
 53
45.0
 43
0.0
 44
0.0
 45
-0.0707106781186548
 46
0.0707106781186548
 79
     0
 98
        1
 10
0.0
 20
0.0
  0
ENDBLK
  5
73
330
71
100
AcDbEntity
  8
0
100
AcDbBlockEnd
  0
BLOCK
  5
75
330
74
100
AcDbEntity
  8
0
100
AcDbBlockBegin
  2
_punkt
 70
     0
 10
-145.7187491068146
 20
-246.0499979992683
 30
0.0
  3
_punkt
  1

  0
LINE
  5
469
330
74
100
AcDbEntity
  8
1
  6
Continuous
 62
     2
100
AcDbLine
 10
-145.7187491068146
 20
-246.0499979992683
 30
0.0
 11
-140.7187491068156
 21
-246.0499979992683
 31
0.0
  0
LINE
  5
46A
330
74
100
AcDbEntity
  8
1
  6
Continuous
 62
     2
100
AcDbLine
 10
-145.7187491068146
 20
-246.0499979992683
 30
0.0
 11
-145.7187491068146
 21
-251.0499979992684
 31
0.0
  0
ENDBLK
  5
76
330
74
100
AcDbEntity
  8
0
100
AcDbBlockEnd
  0
BLOCK
  5
7A
330
77
100
AcDbEntity
  8
0
100
AcDbBlockBegin
  2
A4I_CS
 70
     0
 10
-145.7187491068146
 20
-251.0499979992684
 30
0.0
  3
A4I_CS
  1

  0
INSERT
  5
78
330
77
100
AcDbEntity
  8
1
100
AcDbBlockReference
  2
_rahmen
 10
-145.7187491068146
 20
-251.0499979992684
 30
0.0
  0
INSERT
  5
79
330
77
100
AcDbEntity
  8
1
100
AcDbBlockReference
  2
_punkt
 10
-145.7187491068146
 20
-246.0499979992683
 30
0.0
  0
ENDBLK
  5
7B
330
77
100
AcDbEntity
  8
0
100
AcDbBlockEnd
  0
BLOCK
  5
84
330
7C
100
AcDbEntity
  8
0
100
AcDbBlockBegin
  2
1
 70
     0
 10
100190.0
 20
101900.0
 30
0.0
  3
1
  1

  0
INSERT
  5
7D
330
7C
100
AcDbEntity
  8
0
100
AcDbBlockReference
  2
Allg1
 10
-198.0000000246236
 20
-183.99999952556
 30
0.0
  0
INSERT
  5
7E
330
7C
100
AcDbEntity
  8
0
100
AcDbBlockReference
  2
Drfsicht1
 10
-318.0
 20
-197.000000049247
 30
0.0
  0
INSERT
  5
7F
330
7C
100
AcDbEntity
  8
0
100
AcDbBlockReference
  2
Rckans1
 10
-199.8749961853029
 20
-113.0499964500239
 30
0.0
  0
INSERT
  5
80
330
7C
100
AcDbEntity
  8
0
100
AcDbBlockReference
  2
SA_Links1
 10
-259.9374980434013
 20
-113.0499964500239
 30
0.0
  0
INSERT
  5
81
330
7C
100
AcDbEntity
  8
0
100
AcDbBlockReference
  2
SA_Rechts1
 10
-395.0625019565955
 20
-113.0499964500239
 30
0.0
  0
INSERT
  5
82
330
7C
100
AcDbEntity
  8
0
100
AcDbBlockReference
  2
Vordans1
 10
-318.0
 20
-113.0499964500239
 30
0.0
  0
INSERT
  5
83
330
7C
100
AcDbEntity
  8
0
100
AcDbBlockReference
  2
A4I_CS
 10
-145.7187491068146
 20
-251.0499979992684
 30
0.0
  0
ENDBLK
  5
85
330
7C
100
AcDbEntity
  8
0
100
AcDbBlockEnd
  0
BLOCK
  5
187
330
180
100
AcDbEntity
  8
0
100
AcDbBlockBegin
  2
*D17
 70
     1
 10
0.0
 20
0.0
 30
0.0
  3
*D17
  1

  0
LINE
  5
181
330
180
100
AcDbEntity
  8
1
  6
Continuous
 62
     2
100
AcDbLine
 10
-349.385797575012
 20
-204.5000001209777
 30
0.0
 11
-349.385797575012
 21
-189.5000001209777
 31
0.0
  0
LINE
  5
182
330
180
100
AcDbEntity
  8
1
  6
Continuous
 62
     2
100
AcDbLine
 10
-343.4999999999998
 20
-204.5000001209777
 30
0.0
 11
-350.885797575012
 21
-204.5000001209777
 31
0.0
  0
LINE
  5
183
330
180
100
AcDbEntity
  8
1
  6
Continuous
 62
     2
100
AcDbLine
 10
-343.4999999999998
 20
-189.5000001209777
 30
0.0
 11
-350.885797575012
 21
-189.5000001209777
 31
0.0
  0
SOLID
  5
184
330
180
100
AcDbEntity
  8
1
 62
     2
100
AcDbTrace
 10
-349.8465813165679
 20
-201.0000001209777
 30
0.0
 11
-348.9250138334561
 21
-201.0000001209777
 31
0.0
 12
-349.385797575012
 22
-204.5000001209777
 32
0.0
 13
-349.385797575012
 23
-204.5000001209777
 33
0.0
  0
SOLID
  5
185
330
180
100
AcDbEntity
  8
1
 62
     2
100
AcDbTrace
 10
-348.9250138334561
 20
-193.0000001209777
 30
0.0
 11
-349.8465813165679
 21
-193.0000001209777
 31
0.0
 12
-349.385797575012
 22
-189.5000001209777
 32
0.0
 13
-349.385797575012
 23
-189.5000001209777
 33
0.0
  0
MTEXT
  5
186
330
180
100
AcDbEntity
  8
1
 62
     3
100
AcDbMText
 10
-351.385797575012
 20
-199.445962762377
 30
0.0
 40
3.5
 41
0.0
 71
     7
 72
     1
  1
15
  7
CONVERTER_11
 11
0.0
 21
1.0
 31
0.0
 73
     1
 44
0.60024009603842
  0
ENDBLK
  5
188
330
180
100
AcDbEntity
  8
0
100
AcDbBlockEnd
  0
BLOCK
  5
302
330
2FB
100
AcDbEntity
  8
0
100
AcDbBlockBegin
  2
*D18
 70
     1
 10
0.0
 20
0.0
 30
0.0
  3
*D18
  1

  0
LINE
  5
2FC
330
2FB
100
AcDbEntity
  8
1
  6
Continuous
 62
     2
100
AcDbLine
 10
-342.9999999999998
 20
-169.220849602469
 30
0.0
 11
-292.9999999999998
 21
-169.220849602469
 31
0.0
  0
LINE
  5
2FD
330
2FB
100
AcDbEntity
  8
1
  6
Continuous
 62
     2
100
AcDbLine
 10
-342.9999999999998
 20
-134.899995877559
 30
0.0
 11
-342.9999999999998
 21
-170.720849602469
 31
0.0
  0
LINE
  5
2FE
330
2FB
100
AcDbEntity
  8
1
  6
Continuous
 62
     2
100
AcDbLine
 10
-292.9999999999998
 20
-134.899995877559
 30
0.0
 11
-292.9999999999998
 21
-170.720849602469
 31
0.0
  0
SOLID
  5
2FF
330
2FB
100
AcDbEntity
  8
1
 62
     2
100
AcDbTrace
 10
-339.4999999999998
 20
-168.7600658609131
 30
0.0
 11
-339.4999999999998
 21
-169.6816333440249
 31
0.0
 12
-342.9999999999998
 22
-169.220849602469
 32
0.0
 13
-342.9999999999998
 23
-169.220849602469
 33
0.0
  0
SOLID
  5
300
330
2FB
100
AcDbEntity
  8
1
 62
     2
100
AcDbTrace
 10
-296.4999999999998
 20
-169.6816333440249
 30
0.0
 11
-296.4999999999998
 21
-168.7600658609131
 31
0.0
 12
-292.9999999999998
 22
-169.220849602469
 32
0.0
 13
-292.9999999999998
 23
-169.220849602469
 33
0.0
  0
MTEXT
  5
301
330
2FB
100
AcDbEntity
  8
1
 62
     3
100
AcDbMText
 10
-320.387883741047
 20
-167.220849602469
 30
0.0
 40
3.5
 41
0.0
 71
     7
 72
     1
  1
50
  7
CONVERTER_11
 11
0.9999999999970619
 21
2.424068405545306E-6
 31
0.0
 73
     1
 44
0.60024009603842
  0
ENDBLK
  5
303
330
2FB
100
AcDbEntity
  8
0
100
AcDbBlockEnd
  0
BLOCK
  5
30D
330
306
100
AcDbEntity
  8
0
100
AcDbBlockBegin
  2
*D19
 70
     1
 10
0.0
 20
0.0
 30
0.0
  3
*D19
  1

  0
LINE
  5
307
330
306
100
AcDbEntity
  8
1
  6
Continuous
 62
     2
100
AcDbLine
 10
-349.385797575012
 20
-82.59999587755904
 30
0.0
 11
-349.385797575012
 21
-137.199995877559
 31
0.0
  0
LINE
  5
308
330
306
100
AcDbEntity
  8
1
  6
Continuous
 62
     2
100
AcDbLine
 10
-334.9999999999997
 20
-82.59999587755904
 30
0.0
 11
-350.885797575012
 21
-82.59999587755904
 31
0.0
  0
LINE
  5
309
330
306
100
AcDbEntity
  8
1
  6
Continuous
 62
     2
100
AcDbLine
 10
-301.3999999999997
 20
-137.199995877559
 30
0.0
 11
-350.885797575012
 21
-137.199995877559
 31
0.0
  0
SOLID
  5
30A
330
306
100
AcDbEntity
  8
1
 62
     2
100
AcDbTrace
 10
-348.9250138334561
 20
-86.09999587755904
 30
0.0
 11
-349.8465813165678
 21
-86.09999587755904
 31
0.0
 12
-349.385797575012
 22
-82.59999587755904
 32
0.0
 13
-349.385797575012
 23
-82.59999587755904
 33
0.0
  0
SOLID
  5
30B
330
306
100
AcDbEntity
  8
1
 62
     2
100
AcDbTrace
 10
-349.8465813165678
 20
-133.699995877559
 30
0.0
 11
-348.9250138334561
 21
-133.699995877559
 31
0.0
 12
-349.385797575012
 22
-137.199995877559
 32
0.0
 13
-349.385797575012
 23
-137.199995877559
 33
0.0
  0
MTEXT
  5
30C
330
306
100
AcDbEntity
  8
1
 62
     3
100
AcDbMText
 10
-351.235797575012
 20
-113.166823666207
 30
0.0
 40
3.5
 41
0.0
 71
     7
 72
     1
  1
54,6
  7
CONVERTER_11
 11
0.0
 21
1.0
 31
0.0
 73
     1
 44
0.60024009603842
  0
ENDBLK
  5
30E
330
306
100
AcDbEntity
  8
0
100
AcDbBlockEnd
  0
BLOCK
  5
318
330
311
100
AcDbEntity
  8
0
100
AcDbBlockBegin
  2
*D20
 70
     1
 10
0.0
 20
0.0
 30
0.0
  3
*D20
  1

  0
LINE
  5
312
330
311
100
AcDbEntity
  8
1
  6
Continuous
 62
     2
100
AcDbLine
 10
-357.385797575012
 20
-82.59999587755912
 30
0.0
 11
-357.385797575012
 21
-143.4999958775591
 31
0.0
  0
LINE
  5
313
330
311
100
AcDbEntity
  8
1
  6
Continuous
 62
     2
100
AcDbLine
 10
-334.9999999999997
 20
-82.59999587755912
 30
0.0
 11
-358.885797575012
 21
-82.59999587755912
 31
0.0
  0
LINE
  5
314
330
311
100
AcDbEntity
  8
1
  6
Continuous
 62
     2
100
AcDbLine
 10
-319.5317531964292
 20
-143.4999958775591
 30
0.0
 11
-358.885797575012
 21
-143.4999958775591
 31
0.0
  0
SOLID
  5
315
330
311
100
AcDbEntity
  8
1
 62
     2
100
AcDbTrace
 10
-356.9250138334561
 20
-86.09999587755912
 30
0.0
 11
-357.8465813165678
 21
-86.09999587755912
 31
0.0
 12
-357.385797575012
 22
-82.59999587755912
 32
0.0
 13
-357.385797575012
 23
-82.59999587755912
 33
0.0
  0
SOLID
  5
316
330
311
100
AcDbEntity
  8
1
 62
     2
100
AcDbTrace
 10
-357.8465813165678
 20
-139.9999958775591
 30
0.0
 11
-356.9250138334561
 21
-139.9999958775591
 31
0.0
 12
-357.385797575012
 22
-143.4999958775591
 32
0.0
 13
-357.385797575012
 23
-143.4999958775591
 33
0.0
  0
MTEXT
  5
317
330
311
100
AcDbEntity
  8
1
 62
     3
100
AcDbMText
 10
-359.235797575012
 20
-117.8624958775591
 30
0.0
 40
3.5
 41
0.0
 71
     7
 72
     1
  1
60,9
  7
CONVERTER_11
 11
0.0
 21
1.0
 31
0.0
 73
     1
 44
0.60024009603842
  0
ENDBLK
  5
319
330
311
100
AcDbEntity
  8
0
100
AcDbBlockEnd
  0
BLOCK
  5
323
330
31C
100
AcDbEntity
  8
0
100
AcDbBlockBegin
  2
*D21
 70
     1
 10
0.0
 20
0.0
 30
0.0
  3
*D21
  1

  0
LINE
  5
31D
330
31C
100
AcDbEntity
  8
1
  6
Continuous
 62
     2
100
AcDbLine
 10
-317.9999999999998
 20
-152.9394317109002
 30
0.0
 11
-300.4999999999998
 21
-152.9394317109002
 31
0.0
  0
LINE
  5
31E
330
31C
100
AcDbEntity
  8
1
  6
Continuous
 62
     2
100
AcDbLine
 10
-317.9999999999998
 20
-135.898308190824
 30
0.0
 11
-317.9999999999998
 21
-154.4394317109002
 31
0.0
  0
LINE
  5
31F
330
31C
100
AcDbEntity
  8
1
  6
Continuous
 62
     2
100
AcDbLine
 10
-300.4999999999998
 20
-135.898308190824
 30
0.0
 11
-300.4999999999998
 21
-154.4394317109002
 31
0.0
  0
SOLID
  5
320
330
31C
100
AcDbEntity
  8
1
 62
     2
100
AcDbTrace
 10
-314.4999999999998
 20
-152.4786479693443
 30
0.0
 11
-314.4999999999998
 21
-153.4002154524561
 31
0.0
 12
-317.9999999999998
 22
-152.9394317109002
 32
0.0
 13
-317.9999999999998
 23
-152.9394317109002
 33
0.0
  0
SOLID
  5
321
330
31C
100
AcDbEntity
  8
1
 62
     2
100
AcDbTrace
 10
-303.9999999999998
 20
-153.4002154524561
 30
0.0
 11
-303.9999999999998
 21
-152.4786479693443
 31
0.0
 12
-300.4999999999998
 22
-152.9394317109002
 32
0.0
 13
-300.4999999999998
 23
-152.9394317109002
 33
0.0
  0
MTEXT
  5
322
330
31C
100
AcDbEntity
  8
1
 62
     3
100
AcDbMText
 10
-312.5206022553898
 20
-151.0894317109002
 30
0.0
 40
3.5
 41
0.0
 71
     7
 72
     1
  1
17,5
  7
CONVERTER_11
 11
0.9999999999970619
 21
2.424068405545306E-6
 31
0.0
 73
     1
 44
0.60024009603842
  0
ENDBLK
  5
324
330
31C
100
AcDbEntity
  8
0
100
AcDbBlockEnd
  0
BLOCK
  5
32E
330
327
100
AcDbEntity
  8
0
100
AcDbBlockBegin
  2
*D22
 70
     1
 10
0.0
 20
0.0
 30
0.0
  3
*D22
  1

  0
LINE
  5
328
330
327
100
AcDbEntity
  8
1
  6
Continuous
 62
     2
100
AcDbLine
 10
-317.9999999999998
 20
-160.9394317109002
 30
0.0
 11
-292.9999999999998
 21
-160.9394317109002
 31
0.0
  0
LINE
  5
329
330
327
100
AcDbEntity
  8
1
  6
Continuous
 62
     2
100
AcDbLine
 10
-317.9999999999998
 20
-135.898308190824
 30
0.0
 11
-317.9999999999998
 21
-162.4394317109002
 31
0.0
  0
LINE
  5
32A
330
327
100
AcDbEntity
  8
1
  6
Continuous
 62
     2
100
AcDbLine
 10
-292.9999999999998
 20
-134.3999958775591
 30
0.0
 11
-292.9999999999998
 21
-162.4394317109002
 31
0.0
  0
SOLID
  5
32B
330
327
100
AcDbEntity
  8
1
 62
     2
100
AcDbTrace
 10
-314.4999999999998
 20
-160.4786479693443
 30
0.0
 11
-314.4999999999998
 21
-161.4002154524561
 31
0.0
 12
-317.9999999999998
 22
-160.9394317109002
 32
0.0
 13
-317.9999999999998
 23
-160.9394317109002
 33
0.0
  0
SOLID
  5
32C
330
327
100
AcDbEntity
  8
1
 62
     2
100
AcDbTrace
 10
-296.4999999999998
 20
-161.4002154524561
 30
0.0
 11
-296.4999999999998
 21
-160.4786479693443
 31
0.0
 12
-292.9999999999998
 22
-160.9394317109002
 32
0.0
 13
-292.9999999999998
 23
-160.9394317109002
 33
0.0
  0
MTEXT
  5
32D
330
327
100
AcDbEntity
  8
1
 62
     3
100
AcDbMText
 10
-308.1249999999998
 20
-159.4394317109002
 30
0.0
 40
3.5
 41
0.0
 71
     7
 72
     1
  1
25
  7
CONVERTER_11
 11
0.9999999999970619
 21
2.424068405545306E-6
 31
0.0
 73
     1
 44
0.60024009603842
  0
ENDBLK
  5
32F
330
327
100
AcDbEntity
  8
0
100
AcDbBlockEnd
  0
ENDSEC
  0
SECTION
  2
ENTITIES
  0
INSERT
  5
86
330
1F
100
AcDbEntity
  8
1
100
AcDbBlockReference
  2
1
 10
100190.0
 20
101900.0
 30
0.0
  0
ENDSEC
  0
SECTION
  2
OBJECTS
  0
DICTIONARY
  5
C
330
0
100
AcDbDictionary
281
     1
  3
ACAD_GROUP
350
D
  3
ACAD_LAYOUT
350
1A
  3
ACAD_MATERIAL
350
3B
  3
ACAD_MLEADERSTYLE
350
492
  3
ACAD_MLINESTYLE
350
17
  3
ACAD_PLOTSETTINGS
350
19
  3
ACAD_PLOTSTYLENAME
350
E
  3
ACAD_TABLESTYLE
350
491
  3
ACAD_VISUALSTYLE
350
2A
  0
DICTIONARY
  5
D
102
{ACAD_REACTORS
330
C
102
}
330
C
100
AcDbDictionary
281
     1
  0
DICTIONARY
  5
1A
102
{ACAD_REACTORS
330
C
102
}
330
C
100
AcDbDictionary
281
     1
  3
Layout1
350
1E
  3
Layout2
350
26
  3
Model
350
22
  0
DICTIONARY
  5
3B
102
{ACAD_REACTORS
330
C
102
}
330
C
100
AcDbDictionary
281
     1
  3
ByBlock
350
3D
  3
ByLayer
350
3C
  3
Global
350
3E
  0
DICTIONARY
  5
492
102
{ACAD_REACTORS
330
C
102
}
330
C
100
AcDbDictionary
281
     1
  0
DICTIONARY
  5
17
102
{ACAD_REACTORS
330
C
102
}
330
C
100
AcDbDictionary
281
     1
  3
Standard
350
18
  0
DICTIONARY
  5
19
102
{ACAD_REACTORS
330
C
102
}
330
C
100
AcDbDictionary
281
     1
  0
ACDBDICTIONARYWDFLT
  5
E
102
{ACAD_REACTORS
330
C
102
}
330
C
100
AcDbDictionary
281
     1
  3
Normal
350
F
100
AcDbDictionaryWithDefault
340
F
  0
DICTIONARY
  5
491
102
{ACAD_REACTORS
330
C
102
}
330
C
100
AcDbDictionary
281
     1
  0
DICTIONARY
  5
2A
102
{ACAD_REACTORS
330
C
102
}
330
C
100
AcDbDictionary
281
     1
  3
2dWireframe
350
2F
  3
3D Hidden
350
31
  3
3dWireframe
350
30
  3
Basic
350
32
  3
Brighten
350
36
  3
ColorChange
350
3A
  3
Conceptual
350
34
  3
Dim
350
35
  3
Facepattern
350
39
  3
Flat
350
2B
  3
FlatWithEdges
350
2C
  3
Gouraud
350
2D
  3
GouraudWithEdges
350
2E
  3
Linepattern
350
38
  3
Realistic
350
33
  3
Thicken
350
37
  0
LAYOUT
  5
1E
102
{ACAD_REACTORS
330
1A
102
}
330
1A
100
AcDbPlotSettings
  1

  2
none_device
  4

  6

 40
0.0
 41
0.0
 42
0.0
 43
0.0
 44
0.0
 45
0.0
 46
0.0
 47
0.0
 48
0.0
 49
0.0
140
0.0
141
0.0
142
1.0
143
1.0
 70
   688
 72
     0
 73
     0
 74
     5
  7

 75
    16
 76
     0
 77
     2
 78
   300
147
1.0
148
0.0
149
0.0
100
AcDbLayout
  1
Layout1
 70
     1
 71
     1
 10
0.0
 20
0.0
 11
12.0
 21
9.0
 12
0.0
 22
0.0
 32
0.0
 14
1.00000000000000E+20
 24
1.00000000000000E+20
 34
1.00000000000000E+20
 15
-1.00000000000000E+20
 25
-1.00000000000000E+20
 35
-1.00000000000000E+20
146
0.0
 13
0.0
 23
0.0
 33
0.0
 16
1.0
 26
0.0
 36
0.0
 17
0.0
 27
1.0
 37
0.0
 76
     0
330
1B
  0
LAYOUT
  5
26
102
{ACAD_REACTORS
330
1A
102
}
330
1A
100
AcDbPlotSettings
  1

  2
none_device
  4

  6

 40
0.0
 41
0.0
 42
0.0
 43
0.0
 44
0.0
 45
0.0
 46
0.0
 47
0.0
 48
0.0
 49
0.0
140
0.0
141
0.0
142
1.0
143
1.0
 70
   688
 72
     0
 73
     0
 74
     5
  7

 75
    16
 76
     0
 77
     2
 78
   300
147
1.0
148
0.0
149
0.0
100
AcDbLayout
  1
Layout2
 70
     1
 71
     2
 10
0.0
 20
0.0
 11
0.0
 21
0.0
 12
0.0
 22
0.0
 32
0.0
 14
0.0
 24
0.0
 34
0.0
 15
0.0
 25
0.0
 35
0.0
146
0.0
 13
0.0
 23
0.0
 33
0.0
 16
1.0
 26
0.0
 36
0.0
 17
0.0
 27
1.0
 37
0.0
 76
     0
330
23
  0
LAYOUT
  5
22
102
{ACAD_REACTORS
330
1A
102
}
330
1A
100
AcDbPlotSettings
  1

  2
none_device
  4

  6

 40
0.0
 41
0.0
 42
0.0
 43
0.0
 44
0.0
 45
0.0
 46
0.0
 47
0.0
 48
0.0
 49
0.0
140
0.0
141
0.0
142
1.0
143
1.0
 70
  1712
 72
     0
 73
     0
 74
     0
  7

 75
     0
 76
     0
 77
     2
 78
   300
147
1.0
148
0.0
149
0.0
100
AcDbLayout
  1
Model
 70
     1
 71
     0
 10
0.0
 20
0.0
 11
12.0
 21
9.0
 12
0.0
 22
0.0
 32
0.0
 14
-437.7187491068137
 24
-251.0499979992684
 34
0.0
 15
-140.7187491068156
 25
-41.04999799926827
 35
0.0
146
0.0
 13
0.0
 23
0.0
 33
0.0
 16
1.0
 26
0.0
 36
0.0
 17
0.0
 27
1.0
 37
0.0
 76
     0
330
1F
331
29
  0
MATERIAL
  5
3D
102
{ACAD_REACTORS
330
3B
102
}
102
{ACAD_XDICTIONARY
360
48D
102
}
330
3B
100
AcDbMaterial
  1
ByBlock
  0
MATERIAL
  5
3C
102
{ACAD_REACTORS
330
3B
102
}
102
{ACAD_XDICTIONARY
360
48B
102
}
330
3B
100
AcDbMaterial
  1
ByLayer
  0
MATERIAL
  5
3E
102
{ACAD_REACTORS
330
3B
102
}
102
{ACAD_XDICTIONARY
360
48F
102
}
330
3B
100
AcDbMaterial
  1
Global
  0
MLINESTYLE
  5
18
102
{ACAD_REACTORS
330
17
102
}
330
17
100
AcDbMlineStyle
  2
Standard
 70
     0
  3

 62
   256
 51
90.0
 52
90.0
 71
     2
 49
0.5
 62
   256
  6
BYLAYER
 49
-0.5
 62
   256
  6
BYLAYER
  0
ACDBPLACEHOLDER
  5
F
102
{ACAD_REACTORS
330
E
102
}
330
E
  0
VISUALSTYLE
  5
2F
102
{ACAD_REACTORS
330
2A
102
}
102
{ACAD_XDICTIONARY
360
473
102
}
330
2A
100
AcDbVisualStyle
  2
2dWireframe
 70
     4
 71
     0
 72
     2
 73
     0
 90
        0
 40
-0.6
 41
-30.0
 62
     5
 63
     7
421
 16777215
 74
     1
 91
        4
 64
     7
 65
   257
 75
     1
175
     1
 42
1.0
 92
        0
 66
   257
 43
1.0
 76
     1
 77
     6
 78
     2
 67
     7
 79
     5
170
     0
171
     0
290
     0
174
     0
 93
        1
 44
0.0
173
     0
291
     0
 45
0.0
1001
ACAD
1000
AcDbSavedByObjectVersion
1070
     0
  0
VISUALSTYLE
  5
31
102
{ACAD_REACTORS
330
2A
102
}
102
{ACAD_XDICTIONARY
360
477
102
}
330
2A
100
AcDbVisualStyle
  2
3D Hidden
 70
     6
 71
     1
 72
     2
 73
     2
 90
        0
 40
-0.6
 41
-30.0
 62
     5
 63
     7
421
 16777215
 74
     2
 91
        2
 64
     7
 65
   257
 75
     2
175
     1
 42
40.0
 92
        0
 66
   257
 43
1.0
 76
     1
 77
     6
 78
     2
 67
     7
 79
     3
170
     0
171
     0
290
     0
174
     0
 93
        1
 44
0.0
173
     0
291
     0
 45
0.0
1001
ACAD
1000
AcDbSavedByObjectVersion
1070
     0
  0
VISUALSTYLE
  5
30
102
{ACAD_REACTORS
330
2A
102
}
102
{ACAD_XDICTIONARY
360
475
102
}
330
2A
100
AcDbVisualStyle
  2
3dWireframe
 70
     5
 71
     0
 72
     2
 73
     0
 90
        0
 40
-0.6
 41
-30.0
 62
     5
 63
     7
421
 16777215
 74
     1
 91
        4
 64
     7
 65
   257
 75
     1
175
     1
 42
1.0
 92
        0
 66
   257
 43
1.0
 76
     1
 77
     6
 78
     2
 67
     7
 79
     5
170
     0
171
     0
290
     0
174
     0
 93
        1
 44
0.0
173
     0
291
     0
 45
0.0
1001
ACAD
1000
AcDbSavedByObjectVersion
1070
     0
  0
VISUALSTYLE
  5
32
102
{ACAD_REACTORS
330
2A
102
}
102
{ACAD_XDICTIONARY
360
479
102
}
330
2A
100
AcDbVisualStyle
  2
Basic
 70
     7
 71
     1
 72
     0
 73
     1
 90
        0
 40
-0.6
 41
-30.0
 62
     5
 63
     7
421
 16777215
 74
     0
 91
        4
 64
     7
 65
   257
 75
     1
175
     1
 42
1.0
 92
        8
 66
     7
 43
1.0
 76
     1
 77
     6
 78
     2
 67
     7
 79
     5
170
     0
171
     0
290
     0
174
     0
 93
        1
 44
0.0
173
     0
291
     1
 45
0.0
1001
ACAD
1000
AcDbSavedByObjectVersion
1070
     0
  0
VISUALSTYLE
  5
36
102
{ACAD_REACTORS
330
2A
102
}
102
{ACAD_XDICTIONARY
360
481
102
}
330
2A
100
AcDbVisualStyle
  2
Brighten
 70
    12
 71
     2
 72
     2
 73
     0
 90
        0
 40
-0.6
 41
-30.0
 62
     5
 63
     7
421
 16777215
 74
     1
 91
        4
 64
     7
 65
   257
 75
     1
175
     1
 42
1.0
 92
        8
 66
     7
 43
1.0
 76
     1
 77
     6
 78
     2
 67
     7
 79
     5
170
     0
171
     0
290
     0
174
     0
 93
        1
 44
50.0
173
     0
291
     1
 45
0.0
1001
ACAD
1000
AcDbSavedByObjectVersion
1070
     0
  0
VISUALSTYLE
  5
3A
102
{ACAD_REACTORS
330
2A
102
}
102
{ACAD_XDICTIONARY
360
489
102
}
330
2A
100
AcDbVisualStyle
  2
ColorChange
 70
    16
 71
     2
 72
     2
 73
     3
 90
        0
 40
-0.6
 41
-30.0
 62
     5
 63
     8
421
  8421504
 74
     1
 91
        4
 64
     7
 65
   257
 75
     1
175
     1
 42
1.0
 92
        8
 66
     8
424
  8421504
 43
1.0
 76
     1
 77
     6
 78
     2
 67
     7
 79
     5
170
     0
171
     0
290
     0
174
     0
 93
        1
 44
0.0
173
     0
291
     1
 45
0.0
1001
ACAD
1000
AcDbSavedByObjectVersion
1070
     0
  0
VISUALSTYLE
  5
34
102
{ACAD_REACTORS
330
2A
102
}
102
{ACAD_XDICTIONARY
360
47D
102
}
330
2A
100
AcDbVisualStyle
  2
Conceptual
 70
     9
 71
     3
 72
     2
 73
     0
 90
        0
 40
-0.6
 41
-30.0
 62
     5
 63
     7
421
 16777215
 74
     2
 91
        2
 64
     7
 65
   257
 75
     1
175
     1
 42
40.0
 92
        8
 66
     7
 43
1.0
 76
     1
 77
     6
 78
     2
 67
     7
 79
     3
170
     0
171
     0
290
     0
174
     0
 93
        1
 44
0.0
173
     0
291
     0
 45
0.0
1001
ACAD
1000
AcDbSavedByObjectVersion
1070
     0
  0
VISUALSTYLE
  5
35
102
{ACAD_REACTORS
330
2A
102
}
102
{ACAD_XDICTIONARY
360
47F
102
}
330
2A
100
AcDbVisualStyle
  2
Dim
 70
    11
 71
     2
 72
     2
 73
     0
 90
        0
 40
-0.6
 41
-30.0
 62
     5
 63
     7
421
 16777215
 74
     1
 91
        4
 64
     7
 65
   257
 75
     1
175
     1
 42
1.0
 92
        8
 66
     7
 43
1.0
 76
     1
 77
     6
 78
     2
 67
     7
 79
     5
170
     0
171
     0
290
     0
174
     0
 93
        1
 44
-50.0
173
     0
291
     1
 45
0.0
1001
ACAD
1000
AcDbSavedByObjectVersion
1070
     0
  0
VISUALSTYLE
  5
39
102
{ACAD_REACTORS
330
2A
102
}
102
{ACAD_XDICTIONARY
360
487
102
}
330
2A
100
AcDbVisualStyle
  2
Facepattern
 70
    15
 71
     2
 72
     2
 73
     0
 90
        0
 40
-0.6
 41
-30.0
 62
     5
 63
     7
421
 16777215
 74
     1
 91
        4
 64
     7
 65
   257
 75
     1
175
     1
 42
1.0
 92
        8
 66
     7
 43
1.0
 76
     1
 77
     6
 78
     2
 67
     7
 79
     5
170
     0
171
     0
290
     0
174
     0
 93
        1
 44
0.0
173
     0
291
     1
 45
0.0
1001
ACAD
1000
AcDbSavedByObjectVersion
1070
     0
  0
VISUALSTYLE
  5
2B
102
{ACAD_REACTORS
330
2A
102
}
102
{ACAD_XDICTIONARY
360
46B
102
}
330
2A
100
AcDbVisualStyle
  2
Flat
 70
     0
 71
     2
 72
     1
 73
     1
 90
        2
 40
-0.6
 41
30.0
 62
     5
 63
     7
421
 16777215
 74
     0
 91
        4
 64
     7
 65
   257
 75
     1
175
     1
 42
1.0
 92
        8
 66
     7
 43
1.0
 76
     1
 77
     6
 78
     2
 67
     7
 79
     5
170
     0
171
     0
290
     0
174
     0
 93
       13
 44
0.0
173
     0
291
     1
 45
0.0
1001
ACAD
1000
AcDbSavedByObjectVersion
1070
     0
  0
VISUALSTYLE
  5
2C
102
{ACAD_REACTORS
330
2A
102
}
102
{ACAD_XDICTIONARY
360
46D
102
}
330
2A
100
AcDbVisualStyle
  2
FlatWithEdges
 70
     1
 71
     2
 72
     1
 73
     1
 90
        2
 40
-0.6
 41
30.0
 62
     5
 63
     7
421
 16777215
 74
     1
 91
        4
 64
     7
 65
   257
 75
     1
175
     1
 42
1.0
 92
        0
 66
   257
 43
1.0
 76
     1
 77
     6
 78
     2
 67
     7
 79
     5
170
     0
171
     0
290
     0
174
     0
 93
       13
 44
0.0
173
     0
291
     1
 45
0.0
1001
ACAD
1000
AcDbSavedByObjectVersion
1070
     0
  0
VISUALSTYLE
  5
2D
102
{ACAD_REACTORS
330
2A
102
}
102
{ACAD_XDICTIONARY
360
46F
102
}
330
2A
100
AcDbVisualStyle
  2
Gouraud
 70
     2
 71
     2
 72
     2
 73
     1
 90
        2
 40
-0.6
 41
30.0
 62
     5
 63
     7
421
 16777215
 74
     0
 91
        4
 64
     7
 65
   257
 75
     1
175
     1
 42
1.0
 92
        0
 66
     7
 43
1.0
 76
     1
 77
     6
 78
     2
 67
     7
 79
     5
170
     0
171
     0
290
     0
174
     0
 93
       13
 44
0.0
173
     0
291
     1
 45
0.0
1001
ACAD
1000
AcDbSavedByObjectVersion
1070
     0
  0
VISUALSTYLE
  5
2E
102
{ACAD_REACTORS
330
2A
102
}
102
{ACAD_XDICTIONARY
360
471
102
}
330
2A
100
AcDbVisualStyle
  2
GouraudWithEdges
 70
     3
 71
     2
 72
     2
 73
     1
 90
        2
 40
-0.6
 41
30.0
 62
     5
 63
     7
421
 16777215
 74
     1
 91
        4
 64
     7
 65
   257
 75
     1
175
     1
 42
1.0
 92
        0
 66
   257
 43
1.0
 76
     1
 77
     6
 78
     2
 67
     7
 79
     5
170
     0
171
     0
290
     0
174
     0
 93
       13
 44
0.0
173
     0
291
     1
 45
0.0
1001
ACAD
1000
AcDbSavedByObjectVersion
1070
     0
  0
VISUALSTYLE
  5
38
102
{ACAD_REACTORS
330
2A
102
}
102
{ACAD_XDICTIONARY
360
485
102
}
330
2A
100
AcDbVisualStyle
  2
Linepattern
 70
    14
 71
     2
 72
     2
 73
     0
 90
        0
 40
-0.6
 41
-30.0
 62
     5
 63
     7
421
 16777215
 74
     1
 91
        4
 64
     7
 65
   257
 75
     7
175
     7
 42
1.0
 92
        8
 66
     7
 43
1.0
 76
     1
 77
     6
 78
     2
 67
     7
 79
     5
170
     0
171
     0
290
     0
174
     0
 93
        1
 44
0.0
173
     0
291
     1
 45
0.0
1001
ACAD
1000
AcDbSavedByObjectVersion
1070
     0
  0
VISUALSTYLE
  5
33
102
{ACAD_REACTORS
330
2A
102
}
102
{ACAD_XDICTIONARY
360
47B
102
}
330
2A
100
AcDbVisualStyle
  2
Realistic
 70
     8
 71
     2
 72
     2
 73
     0
 90
        0
 40
-0.6
 41
-30.0
 62
     5
 63
     7
421
 16777215
 74
     1
 91
        0
 64
     7
 65
   257
 75
     1
175
     1
 42
1.0
 92
        8
 66
     8
424
  7895160
 43
1.0
 76
     1
 77
     6
 78
     2
 67
     7
 79
     5
170
     0
171
     0
290
     0
174
     0
 93
       13
 44
0.0
173
     0
291
     0
 45
0.0
1001
ACAD
1000
AcDbSavedByObjectVersion
1070
     0
  0
VISUALSTYLE
  5
37
102
{ACAD_REACTORS
330
2A
102
}
102
{ACAD_XDICTIONARY
360
483
102
}
330
2A
100
AcDbVisualStyle
  2
Thicken
 70
    13
 71
     2
 72
     2
 73
     0
 90
        0
 40
-0.6
 41
-30.0
 62
     5
 63
     7
421
 16777215
 74
     1
 91
        4
 64
     7
 65
   257
 75
     1
175
     1
 42
1.0
 92
       12
 66
     7
 43
1.0
 76
     1
 77
     6
 78
     2
 67
     7
 79
     5
170
     0
171
     0
290
     0
174
     0
 93
        1
 44
0.0
173
     0
291
     1
 45
0.0
1001
ACAD
1000
AcDbSavedByObjectVersion
1070
     0
  0
DICTIONARY
  5
48D
330
3D
100
AcDbDictionary
280
     1
281
     1
  3
ACAD_XREC_ROUNDTRIP
360
48E
  0
DICTIONARY
  5
48B
330
3C
100
AcDbDictionary
280
     1
281
     1
  3
ACAD_XREC_ROUNDTRIP
360
48C
  0
DICTIONARY
  5
48F
330
3E
100
AcDbDictionary
280
     1
281
     1
  3
ACAD_XREC_ROUNDTRIP
360
490
  0
DICTIONARY
  5
473
330
2F
100
AcDbDictionary
280
     1
281
     1
  3
ACAD_XREC_ROUNDTRIP
360
474
  0
DICTIONARY
  5
477
330
31
100
AcDbDictionary
280
     1
281
     1
  3
ACAD_XREC_ROUNDTRIP
360
478
  0
DICTIONARY
  5
475
330
30
100
AcDbDictionary
280
     1
281
     1
  3
ACAD_XREC_ROUNDTRIP
360
476
  0
DICTIONARY
  5
479
330
32
100
AcDbDictionary
280
     1
281
     1
  3
ACAD_XREC_ROUNDTRIP
360
47A
  0
DICTIONARY
  5
481
330
36
100
AcDbDictionary
280
     1
281
     1
  3
ACAD_XREC_ROUNDTRIP
360
482
  0
DICTIONARY
  5
489
330
3A
100
AcDbDictionary
280
     1
281
     1
  3
ACAD_XREC_ROUNDTRIP
360
48A
  0
DICTIONARY
  5
47D
330
34
100
AcDbDictionary
280
     1
281
     1
  3
ACAD_XREC_ROUNDTRIP
360
47E
  0
DICTIONARY
  5
47F
330
35
100
AcDbDictionary
280
     1
281
     1
  3
ACAD_XREC_ROUNDTRIP
360
480
  0
DICTIONARY
  5
487
330
39
100
AcDbDictionary
280
     1
281
     1
  3
ACAD_XREC_ROUNDTRIP
360
488
  0
DICTIONARY
  5
46B
330
2B
100
AcDbDictionary
280
     1
281
     1
  3
ACAD_XREC_ROUNDTRIP
360
46C
  0
DICTIONARY
  5
46D
330
2C
100
AcDbDictionary
280
     1
281
     1
  3
ACAD_XREC_ROUNDTRIP
360
46E
  0
DICTIONARY
  5
46F
330
2D
100
AcDbDictionary
280
     1
281
     1
  3
ACAD_XREC_ROUNDTRIP
360
470
  0
DICTIONARY
  5
471
330
2E
100
AcDbDictionary
280
     1
281
     1
  3
ACAD_XREC_ROUNDTRIP
360
472
  0
DICTIONARY
  5
485
330
38
100
AcDbDictionary
280
     1
281
     1
  3
ACAD_XREC_ROUNDTRIP
360
486
  0
DICTIONARY
  5
47B
330
33
100
AcDbDictionary
280
     1
281
     1
  3
ACAD_XREC_ROUNDTRIP
360
47C
  0
DICTIONARY
  5
483
330
37
100
AcDbDictionary
280
     1
281
     1
  3
ACAD_XREC_ROUNDTRIP
360
484
  0
XRECORD
  5
48E
102
{ACAD_REACTORS
330
48D
102
}
330
48D
100
AcDbXrecord
280
     1
102
MATERIAL
148
0.0
149
0.0
149
0.0
 93
        0
 94
      127
282
     0
 72
     1
 77
     1
171
     1
175
     1
179
     1
273
     0
  0
XRECORD
  5
48C
102
{ACAD_REACTORS
330
48B
102
}
330
48B
100
AcDbXrecord
280
     1
102
MATERIAL
148
0.0
149
0.0
149
0.0
 93
        0
 94
      127
282
     0
 72
     1
 77
     1
171
     1
175
     1
179
     1
273
     0
  0
XRECORD
  5
490
102
{ACAD_REACTORS
330
48F
102
}
330
48F
100
AcDbXrecord
280
     1
102
MATERIAL
148
0.0
149
0.0
149
0.0
 93
        0
 94
      127
282
     0
 72
     1
 77
     1
171
     1
175
     1
179
     1
273
     0
  0
XRECORD
  5
474
102
{ACAD_REACTORS
330
473
102
}
330
473
100
AcDbXrecord
280
     1
102
RTVSPropertyOp0
 70
     1
102
RTVSPropertyOp1
 70
     1
102
RTVSPropertyOp2
 70
     1
102
RTVSPropertyOp3
 70
     1
102
RTVSPropertyOp4
 70
     1
102
RTVSPropertyOp5
 70
     1
102
RTVSPropertyOp6
 70
     1
102
RTVSPropertyOp7
 70
     1
102
RTVSPropertyOp8
 70
     1
102
RTVSPropertyOp9
 70
     1
102
RTVSPropertyOp10
 70
     1
102
RTVSPropertyOp11
 70
     1
102
RTVSPropertyOp12
 70
     1
102
RTVSPropertyOp13
 70
     1
102
RTVSPropertyOp14
 70
     1
102
RTVSPropertyOp15
 70
     1
102
RTVSPropertyOp16
 70
     1
102
RTVSPropertyOp17
 70
     1
102
RTVSPropertyOp18
 70
     1
102
RTVSPropertyOp19
 70
     1
102
RTVSPropertyOp20
 70
     1
102
RTVSPropertyOp21
 70
     1
102
RTVSPropertyOp22
 70
     1
102
RTVSPropertyOp23
 70
     1
102
RTVSPropertyOp24
 70
     1
102
RTVSPropertyOp25
 70
     1
102
RTVSPropertyOp26
 70
     1
102
RTVSPropertyOp27
 70
     1
102
RTVSPropertyOp28
 70
     1
102
RTVSPropertyOp29
 70
     1
102
RTVSPropertyOp30
 70
     1
102
RTVSPropertyOp31
 70
     1
102
RTVSPropertyOp32
 70
     1
  0
XRECORD
  5
478
102
{ACAD_REACTORS
330
477
102
}
330
477
100
AcDbXrecord
280
     1
102
RTVSPropertyOp0
 70
     1
102
RTVSPropertyOp1
 70
     1
102
RTVSPropertyOp2
 70
     1
102
RTVSPropertyOp3
 70
     1
102
RTVSPropertyOp4
 70
     1
102
RTVSPropertyOp5
 70
     1
102
RTVSPropertyOp6
 70
     1
102
RTVSPropertyOp7
 70
     1
102
RTVSPropertyOp8
 70
     1
102
RTVSPropertyOp9
 70
     1
102
RTVSPropertyOp10
 70
     1
102
RTVSPropertyOp11
 70
     1
102
RTVSPropertyOp12
 70
     1
102
RTVSPropertyOp13
 70
     1
102
RTVSPropertyOp14
 70
     1
102
RTVSPropertyOp15
 70
     1
102
RTVSPropertyOp16
 70
     1
102
RTVSPropertyOp17
 70
     1
102
RTVSPropertyOp18
 70
     1
102
RTVSPropertyOp19
 70
     1
102
RTVSPropertyOp20
 70
     1
102
RTVSPropertyOp21
 70
     1
102
RTVSPropertyOp22
 70
     1
102
RTVSPropertyOp23
 70
     1
102
RTVSPropertyOp24
 70
     1
102
RTVSPropertyOp25
 70
     1
102
RTVSPropertyOp26
 70
     1
102
RTVSPropertyOp27
 70
     1
102
RTVSPropertyOp28
 70
     1
102
RTVSPropertyOp29
 70
     1
102
RTVSPropertyOp30
 70
     1
102
RTVSPropertyOp31
 70
     1
102
RTVSPropertyOp32
 70
     1
  0
XRECORD
  5
476
102
{ACAD_REACTORS
330
475
102
}
330
475
100
AcDbXrecord
280
     1
102
RTVSPropertyOp0
 70
     1
102
RTVSPropertyOp1
 70
     1
102
RTVSPropertyOp2
 70
     1
102
RTVSPropertyOp3
 70
     1
102
RTVSPropertyOp4
 70
     1
102
RTVSPropertyOp5
 70
     1
102
RTVSPropertyOp6
 70
     1
102
RTVSPropertyOp7
 70
     1
102
RTVSPropertyOp8
 70
     1
102
RTVSPropertyOp9
 70
     1
102
RTVSPropertyOp10
 70
     1
102
RTVSPropertyOp11
 70
     1
102
RTVSPropertyOp12
 70
     1
102
RTVSPropertyOp13
 70
     1
102
RTVSPropertyOp14
 70
     1
102
RTVSPropertyOp15
 70
     1
102
RTVSPropertyOp16
 70
     1
102
RTVSPropertyOp17
 70
     1
102
RTVSPropertyOp18
 70
     1
102
RTVSPropertyOp19
 70
     1
102
RTVSPropertyOp20
 70
     1
102
RTVSPropertyOp21
 70
     1
102
RTVSPropertyOp22
 70
     1
102
RTVSPropertyOp23
 70
     1
102
RTVSPropertyOp24
 70
     1
102
RTVSPropertyOp25
 70
     1
102
RTVSPropertyOp26
 70
     1
102
RTVSPropertyOp27
 70
     1
102
RTVSPropertyOp28
 70
     1
102
RTVSPropertyOp29
 70
     1
102
RTVSPropertyOp30
 70
     1
102
RTVSPropertyOp31
 70
     1
102
RTVSPropertyOp32
 70
     1
  0
XRECORD
  5
47A
102
{ACAD_REACTORS
330
479
102
}
330
479
100
AcDbXrecord
280
     1
102
RTVSPropertyOp0
 70
     1
102
RTVSPropertyOp1
 70
     1
102
RTVSPropertyOp2
 70
     1
102
RTVSPropertyOp3
 70
     1
102
RTVSPropertyOp4
 70
     1
102
RTVSPropertyOp5
 70
     1
102
RTVSPropertyOp6
 70
     1
102
RTVSPropertyOp7
 70
     1
102
RTVSPropertyOp8
 70
     1
102
RTVSPropertyOp9
 70
     1
102
RTVSPropertyOp10
 70
     1
102
RTVSPropertyOp11
 70
     1
102
RTVSPropertyOp12
 70
     1
102
RTVSPropertyOp13
 70
     1
102
RTVSPropertyOp14
 70
     1
102
RTVSPropertyOp15
 70
     1
102
RTVSPropertyOp16
 70
     1
102
RTVSPropertyOp17
 70
     1
102
RTVSPropertyOp18
 70
     1
102
RTVSPropertyOp19
 70
     1
102
RTVSPropertyOp20
 70
     1
102
RTVSPropertyOp21
 70
     1
102
RTVSPropertyOp22
 70
     1
102
RTVSPropertyOp23
 70
     1
102
RTVSPropertyOp24
 70
     1
102
RTVSPropertyOp25
 70
     1
102
RTVSPropertyOp26
 70
     1
102
RTVSPropertyOp27
 70
     1
102
RTVSPropertyOp28
 70
     1
102
RTVSPropertyOp29
 70
     1
102
RTVSPropertyOp30
 70
     1
102
RTVSPropertyOp31
 70
     1
102
RTVSPropertyOp32
 70
     1
  0
XRECORD
  5
482
102
{ACAD_REACTORS
330
481
102
}
330
481
100
AcDbXrecord
280
     1
102
RTVSPropertyOp0
 70
     1
102
RTVSPropertyOp1
 70
     1
102
RTVSPropertyOp2
 70
     1
102
RTVSPropertyOp3
 70
     1
102
RTVSPropertyOp4
 70
     1
102
RTVSPropertyOp5
 70
     1
102
RTVSPropertyOp6
 70
     1
102
RTVSPropertyOp7
 70
     1
102
RTVSPropertyOp8
 70
     1
102
RTVSPropertyOp9
 70
     1
102
RTVSPropertyOp10
 70
     1
102
RTVSPropertyOp11
 70
     1
102
RTVSPropertyOp12
 70
     1
102
RTVSPropertyOp13
 70
     1
102
RTVSPropertyOp14
 70
     1
102
RTVSPropertyOp15
 70
     1
102
RTVSPropertyOp16
 70
     1
102
RTVSPropertyOp17
 70
     1
102
RTVSPropertyOp18
 70
     1
102
RTVSPropertyOp19
 70
     1
102
RTVSPropertyOp20
 70
     1
102
RTVSPropertyOp21
 70
     1
102
RTVSPropertyOp22
 70
     1
102
RTVSPropertyOp23
 70
     1
102
RTVSPropertyOp24
 70
     1
102
RTVSPropertyOp25
 70
     1
102
RTVSPropertyOp26
 70
     1
102
RTVSPropertyOp27
 70
     1
102
RTVSPropertyOp28
 70
     1
102
RTVSPropertyOp29
 70
     1
102
RTVSPropertyOp30
 70
     1
102
RTVSPropertyOp31
 70
     1
102
RTVSPropertyOp32
 70
     1
  0
XRECORD
  5
48A
102
{ACAD_REACTORS
330
489
102
}
330
489
100
AcDbXrecord
280
     1
102
RTVSPropertyOp0
 70
     1
102
RTVSPropertyOp1
 70
     1
102
RTVSPropertyOp2
 70
     1
102
RTVSPropertyOp3
 70
     1
102
RTVSPropertyOp4
 70
     1
102
RTVSPropertyOp5
 70
     1
102
RTVSPropertyOp6
 70
     1
102
RTVSPropertyOp7
 70
     1
102
RTVSPropertyOp8
 70
     1
102
RTVSPropertyOp9
 70
     1
102
RTVSPropertyOp10
 70
     1
102
RTVSPropertyOp11
 70
     1
102
RTVSPropertyOp12
 70
     1
102
RTVSPropertyOp13
 70
     1
102
RTVSPropertyOp14
 70
     1
102
RTVSPropertyOp15
 70
     1
102
RTVSPropertyOp16
 70
     1
102
RTVSPropertyOp17
 70
     1
102
RTVSPropertyOp18
 70
     1
102
RTVSPropertyOp19
 70
     1
102
RTVSPropertyOp20
 70
     1
102
RTVSPropertyOp21
 70
     1
102
RTVSPropertyOp22
 70
     1
102
RTVSPropertyOp23
 70
     1
102
RTVSPropertyOp24
 70
     1
102
RTVSPropertyOp25
 70
     1
102
RTVSPropertyOp26
 70
     1
102
RTVSPropertyOp27
 70
     1
102
RTVSPropertyOp28
 70
     1
102
RTVSPropertyOp29
 70
     1
102
RTVSPropertyOp30
 70
     1
102
RTVSPropertyOp31
 70
     1
102
RTVSPropertyOp32
 70
     1
  0
XRECORD
  5
47E
102
{ACAD_REACTORS
330
47D
102
}
330
47D
100
AcDbXrecord
280
     1
102
RTVSPropertyOp0
 70
     1
102
RTVSPropertyOp1
 70
     1
102
RTVSPropertyOp2
 70
     1
102
RTVSPropertyOp3
 70
     1
102
RTVSPropertyOp4
 70
     1
102
RTVSPropertyOp5
 70
     1
102
RTVSPropertyOp6
 70
     1
102
RTVSPropertyOp7
 70
     1
102
RTVSPropertyOp8
 70
     1
102
RTVSPropertyOp9
 70
     1
102
RTVSPropertyOp10
 70
     1
102
RTVSPropertyOp11
 70
     1
102
RTVSPropertyOp12
 70
     1
102
RTVSPropertyOp13
 70
     1
102
RTVSPropertyOp14
 70
     1
102
RTVSPropertyOp15
 70
     1
102
RTVSPropertyOp16
 70
     1
102
RTVSPropertyOp17
 70
     1
102
RTVSPropertyOp18
 70
     1
102
RTVSPropertyOp19
 70
     1
102
RTVSPropertyOp20
 70
     1
102
RTVSPropertyOp21
 70
     1
102
RTVSPropertyOp22
 70
     1
102
RTVSPropertyOp23
 70
     1
102
RTVSPropertyOp24
 70
     1
102
RTVSPropertyOp25
 70
     1
102
RTVSPropertyOp26
 70
     1
102
RTVSPropertyOp27
 70
     1
102
RTVSPropertyOp28
 70
     1
102
RTVSPropertyOp29
 70
     1
102
RTVSPropertyOp30
 70
     1
102
RTVSPropertyOp31
 70
     1
102
RTVSPropertyOp32
 70
     1
  0
XRECORD
  5
480
102
{ACAD_REACTORS
330
47F
102
}
330
47F
100
AcDbXrecord
280
     1
102
RTVSPropertyOp0
 70
     1
102
RTVSPropertyOp1
 70
     1
102
RTVSPropertyOp2
 70
     1
102
RTVSPropertyOp3
 70
     1
102
RTVSPropertyOp4
 70
     1
102
RTVSPropertyOp5
 70
     1
102
RTVSPropertyOp6
 70
     1
102
RTVSPropertyOp7
 70
     1
102
RTVSPropertyOp8
 70
     1
102
RTVSPropertyOp9
 70
     1
102
RTVSPropertyOp10
 70
     1
102
RTVSPropertyOp11
 70
     1
102
RTVSPropertyOp12
 70
     1
102
RTVSPropertyOp13
 70
     1
102
RTVSPropertyOp14
 70
     1
102
RTVSPropertyOp15
 70
     1
102
RTVSPropertyOp16
 70
     1
102
RTVSPropertyOp17
 70
     1
102
RTVSPropertyOp18
 70
     1
102
RTVSPropertyOp19
 70
     1
102
RTVSPropertyOp20
 70
     1
102
RTVSPropertyOp21
 70
     1
102
RTVSPropertyOp22
 70
     1
102
RTVSPropertyOp23
 70
     1
102
RTVSPropertyOp24
 70
     1
102
RTVSPropertyOp25
 70
     1
102
RTVSPropertyOp26
 70
     1
102
RTVSPropertyOp27
 70
     1
102
RTVSPropertyOp28
 70
     1
102
RTVSPropertyOp29
 70
     1
102
RTVSPropertyOp30
 70
     1
102
RTVSPropertyOp31
 70
     1
102
RTVSPropertyOp32
 70
     1
  0
XRECORD
  5
488
102
{ACAD_REACTORS
330
487
102
}
330
487
100
AcDbXrecord
280
     1
102
RTVSPropertyOp0
 70
     1
102
RTVSPropertyOp1
 70
     1
102
RTVSPropertyOp2
 70
     1
102
RTVSPropertyOp3
 70
     1
102
RTVSPropertyOp4
 70
     1
102
RTVSPropertyOp5
 70
     1
102
RTVSPropertyOp6
 70
     1
102
RTVSPropertyOp7
 70
     1
102
RTVSPropertyOp8
 70
     1
102
RTVSPropertyOp9
 70
     1
102
RTVSPropertyOp10
 70
     1
102
RTVSPropertyOp11
 70
     1
102
RTVSPropertyOp12
 70
     1
102
RTVSPropertyOp13
 70
     1
102
RTVSPropertyOp14
 70
     1
102
RTVSPropertyOp15
 70
     1
102
RTVSPropertyOp16
 70
     1
102
RTVSPropertyOp17
 70
     1
102
RTVSPropertyOp18
 70
     1
102
RTVSPropertyOp19
 70
     1
102
RTVSPropertyOp20
 70
     1
102
RTVSPropertyOp21
 70
     1
102
RTVSPropertyOp22
 70
     1
102
RTVSPropertyOp23
 70
     1
102
RTVSPropertyOp24
 70
     1
102
RTVSPropertyOp25
 70
     1
102
RTVSPropertyOp26
 70
     1
102
RTVSPropertyOp27
 70
     1
102
RTVSPropertyOp28
 70
     1
102
RTVSPropertyOp29
 70
     1
102
RTVSPropertyOp30
 70
     1
102
RTVSPropertyOp31
 70
     1
102
RTVSPropertyOp32
 70
     1
  0
XRECORD
  5
46C
102
{ACAD_REACTORS
330
46B
102
}
330
46B
100
AcDbXrecord
280
     1
102
RTVSPropertyOp0
 70
     1
102
RTVSPropertyOp1
 70
     1
102
RTVSPropertyOp2
 70
     1
102
RTVSPropertyOp3
 70
     1
102
RTVSPropertyOp4
 70
     1
102
RTVSPropertyOp5
 70
     1
102
RTVSPropertyOp6
 70
     1
102
RTVSPropertyOp7
 70
     1
102
RTVSPropertyOp8
 70
     1
102
RTVSPropertyOp9
 70
     1
102
RTVSPropertyOp10
 70
     1
102
RTVSPropertyOp11
 70
     1
102
RTVSPropertyOp12
 70
     1
102
RTVSPropertyOp13
 70
     1
102
RTVSPropertyOp14
 70
     1
102
RTVSPropertyOp15
 70
     1
102
RTVSPropertyOp16
 70
     1
102
RTVSPropertyOp17
 70
     1
102
RTVSPropertyOp18
 70
     1
102
RTVSPropertyOp19
 70
     1
102
RTVSPropertyOp20
 70
     1
102
RTVSPropertyOp21
 70
     1
102
RTVSPropertyOp22
 70
     1
102
RTVSPropertyOp23
 70
     1
102
RTVSPropertyOp24
 70
     1
102
RTVSPropertyOp25
 70
     1
102
RTVSPropertyOp26
 70
     1
102
RTVSPropertyOp27
 70
     1
102
RTVSPropertyOp28
 70
     1
102
RTVSPropertyOp29
 70
     1
102
RTVSPropertyOp30
 70
     1
102
RTVSPropertyOp31
 70
     1
102
RTVSPropertyOp32
 70
     1
  0
XRECORD
  5
46E
102
{ACAD_REACTORS
330
46D
102
}
330
46D
100
AcDbXrecord
280
     1
102
RTVSPropertyOp0
 70
     1
102
RTVSPropertyOp1
 70
     1
102
RTVSPropertyOp2
 70
     1
102
RTVSPropertyOp3
 70
     1
102
RTVSPropertyOp4
 70
     1
102
RTVSPropertyOp5
 70
     1
102
RTVSPropertyOp6
 70
     1
102
RTVSPropertyOp7
 70
     1
102
RTVSPropertyOp8
 70
     1
102
RTVSPropertyOp9
 70
     1
102
RTVSPropertyOp10
 70
     1
102
RTVSPropertyOp11
 70
     1
102
RTVSPropertyOp12
 70
     1
102
RTVSPropertyOp13
 70
     1
102
RTVSPropertyOp14
 70
     1
102
RTVSPropertyOp15
 70
     1
102
RTVSPropertyOp16
 70
     1
102
RTVSPropertyOp17
 70
     1
102
RTVSPropertyOp18
 70
     1
102
RTVSPropertyOp19
 70
     1
102
RTVSPropertyOp20
 70
     1
102
RTVSPropertyOp21
 70
     1
102
RTVSPropertyOp22
 70
     1
102
RTVSPropertyOp23
 70
     1
102
RTVSPropertyOp24
 70
     1
102
RTVSPropertyOp25
 70
     1
102
RTVSPropertyOp26
 70
     1
102
RTVSPropertyOp27
 70
     1
102
RTVSPropertyOp28
 70
     1
102
RTVSPropertyOp29
 70
     1
102
RTVSPropertyOp30
 70
     1
102
RTVSPropertyOp31
 70
     1
102
RTVSPropertyOp32
 70
     1
  0
XRECORD
  5
470
102
{ACAD_REACTORS
330
46F
102
}
330
46F
100
AcDbXrecord
280
     1
102
RTVSPropertyOp0
 70
     1
102
RTVSPropertyOp1
 70
     1
102
RTVSPropertyOp2
 70
     1
102
RTVSPropertyOp3
 70
     1
102
RTVSPropertyOp4
 70
     1
102
RTVSPropertyOp5
 70
     1
102
RTVSPropertyOp6
 70
     1
102
RTVSPropertyOp7
 70
     1
102
RTVSPropertyOp8
 70
     1
102
RTVSPropertyOp9
 70
     1
102
RTVSPropertyOp10
 70
     1
102
RTVSPropertyOp11
 70
     1
102
RTVSPropertyOp12
 70
     1
102
RTVSPropertyOp13
 70
     1
102
RTVSPropertyOp14
 70
     1
102
RTVSPropertyOp15
 70
     1
102
RTVSPropertyOp16
 70
     1
102
RTVSPropertyOp17
 70
     1
102
RTVSPropertyOp18
 70
     1
102
RTVSPropertyOp19
 70
     1
102
RTVSPropertyOp20
 70
     1
102
RTVSPropertyOp21
 70
     1
102
RTVSPropertyOp22
 70
     1
102
RTVSPropertyOp23
 70
     1
102
RTVSPropertyOp24
 70
     1
102
RTVSPropertyOp25
 70
     1
102
RTVSPropertyOp26
 70
     1
102
RTVSPropertyOp27
 70
     1
102
RTVSPropertyOp28
 70
     1
102
RTVSPropertyOp29
 70
     1
102
RTVSPropertyOp30
 70
     1
102
RTVSPropertyOp31
 70
     1
102
RTVSPropertyOp32
 70
     1
  0
XRECORD
  5
472
102
{ACAD_REACTORS
330
471
102
}
330
471
100
AcDbXrecord
280
     1
102
RTVSPropertyOp0
 70
     1
102
RTVSPropertyOp1
 70
     1
102
RTVSPropertyOp2
 70
     1
102
RTVSPropertyOp3
 70
     1
102
RTVSPropertyOp4
 70
     1
102
RTVSPropertyOp5
 70
     1
102
RTVSPropertyOp6
 70
     1
102
RTVSPropertyOp7
 70
     1
102
RTVSPropertyOp8
 70
     1
102
RTVSPropertyOp9
 70
     1
102
RTVSPropertyOp10
 70
     1
102
RTVSPropertyOp11
 70
     1
102
RTVSPropertyOp12
 70
     1
102
RTVSPropertyOp13
 70
     1
102
RTVSPropertyOp14
 70
     1
102
RTVSPropertyOp15
 70
     1
102
RTVSPropertyOp16
 70
     1
102
RTVSPropertyOp17
 70
     1
102
RTVSPropertyOp18
 70
     1
102
RTVSPropertyOp19
 70
     1
102
RTVSPropertyOp20
 70
     1
102
RTVSPropertyOp21
 70
     1
102
RTVSPropertyOp22
 70
     1
102
RTVSPropertyOp23
 70
     1
102
RTVSPropertyOp24
 70
     1
102
RTVSPropertyOp25
 70
     1
102
RTVSPropertyOp26
 70
     1
102
RTVSPropertyOp27
 70
     1
102
RTVSPropertyOp28
 70
     1
102
RTVSPropertyOp29
 70
     1
102
RTVSPropertyOp30
 70
     1
102
RTVSPropertyOp31
 70
     1
102
RTVSPropertyOp32
 70
     1
  0
XRECORD
  5
486
102
{ACAD_REACTORS
330
485
102
}
330
485
100
AcDbXrecord
280
     1
102
RTVSPropertyOp0
 70
     1
102
RTVSPropertyOp1
 70
     1
102
RTVSPropertyOp2
 70
     1
102
RTVSPropertyOp3
 70
     1
102
RTVSPropertyOp4
 70
     1
102
RTVSPropertyOp5
 70
     1
102
RTVSPropertyOp6
 70
     1
102
RTVSPropertyOp7
 70
     1
102
RTVSPropertyOp8
 70
     1
102
RTVSPropertyOp9
 70
     1
102
RTVSPropertyOp10
 70
     1
102
RTVSPropertyOp11
 70
     1
102
RTVSPropertyOp12
 70
     1
102
RTVSPropertyOp13
 70
     1
102
RTVSPropertyOp14
 70
     1
102
RTVSPropertyOp15
 70
     1
102
RTVSPropertyOp16
 70
     1
102
RTVSPropertyOp17
 70
     1
102
RTVSPropertyOp18
 70
     1
102
RTVSPropertyOp19
 70
     1
102
RTVSPropertyOp20
 70
     1
102
RTVSPropertyOp21
 70
     1
102
RTVSPropertyOp22
 70
     1
102
RTVSPropertyOp23
 70
     1
102
RTVSPropertyOp24
 70
     1
102
RTVSPropertyOp25
 70
     1
102
RTVSPropertyOp26
 70
     1
102
RTVSPropertyOp27
 70
     1
102
RTVSPropertyOp28
 70
     1
102
RTVSPropertyOp29
 70
     1
102
RTVSPropertyOp30
 70
     1
102
RTVSPropertyOp31
 70
     1
102
RTVSPropertyOp32
 70
     1
  0
XRECORD
  5
47C
102
{ACAD_REACTORS
330
47B
102
}
330
47B
100
AcDbXrecord
280
     1
102
RTVSPropertyOp0
 70
     1
102
RTVSPropertyOp1
 70
     1
102
RTVSPropertyOp2
 70
     1
102
RTVSPropertyOp3
 70
     1
102
RTVSPropertyOp4
 70
     1
102
RTVSPropertyOp5
 70
     1
102
RTVSPropertyOp6
 70
     1
102
RTVSPropertyOp7
 70
     1
102
RTVSPropertyOp8
 70
     1
102
RTVSPropertyOp9
 70
     1
102
RTVSPropertyOp10
 70
     1
102
RTVSPropertyOp11
 70
     1
102
RTVSPropertyOp12
 70
     1
102
RTVSPropertyOp13
 70
     1
102
RTVSPropertyOp14
 70
     1
102
RTVSPropertyOp15
 70
     1
102
RTVSPropertyOp16
 70
     1
102
RTVSPropertyOp17
 70
     1
102
RTVSPropertyOp18
 70
     1
102
RTVSPropertyOp19
 70
     1
102
RTVSPropertyOp20
 70
     1
102
RTVSPropertyOp21
 70
     1
102
RTVSPropertyOp22
 70
     1
102
RTVSPropertyOp23
 70
     1
102
RTVSPropertyOp24
 70
     1
102
RTVSPropertyOp25
 70
     1
102
RTVSPropertyOp26
 70
     1
102
RTVSPropertyOp27
 70
     1
102
RTVSPropertyOp28
 70
     1
102
RTVSPropertyOp29
 70
     1
102
RTVSPropertyOp30
 70
     1
102
RTVSPropertyOp31
 70
     1
102
RTVSPropertyOp32
 70
     1
  0
XRECORD
  5
484
102
{ACAD_REACTORS
330
483
102
}
330
483
100
AcDbXrecord
280
     1
102
RTVSPropertyOp0
 70
     1
102
RTVSPropertyOp1
 70
     1
102
RTVSPropertyOp2
 70
     1
102
RTVSPropertyOp3
 70
     1
102
RTVSPropertyOp4
 70
     1
102
RTVSPropertyOp5
 70
     1
102
RTVSPropertyOp6
 70
     1
102
RTVSPropertyOp7
 70
     1
102
RTVSPropertyOp8
 70
     1
102
RTVSPropertyOp9
 70
     1
102
RTVSPropertyOp10
 70
     1
102
RTVSPropertyOp11
 70
     1
102
RTVSPropertyOp12
 70
     1
102
RTVSPropertyOp13
 70
     1
102
RTVSPropertyOp14
 70
     1
102
RTVSPropertyOp15
 70
     1
102
RTVSPropertyOp16
 70
     1
102
RTVSPropertyOp17
 70
     1
102
RTVSPropertyOp18
 70
     1
102
RTVSPropertyOp19
 70
     1
102
RTVSPropertyOp20
 70
     1
102
RTVSPropertyOp21
 70
     1
102
RTVSPropertyOp22
 70
     1
102
RTVSPropertyOp23
 70
     1
102
RTVSPropertyOp24
 70
     1
102
RTVSPropertyOp25
 70
     1
102
RTVSPropertyOp26
 70
     1
102
RTVSPropertyOp27
 70
     1
102
RTVSPropertyOp28
 70
     1
102
RTVSPropertyOp29
 70
     1
102
RTVSPropertyOp30
 70
     1
102
RTVSPropertyOp31
 70
     1
102
RTVSPropertyOp32
 70
     1
  0
ENDSEC
  0
EOF
