  0
SECTION
  2
HEADER
  9
$ACADVER
  1
AC1018
  9
$ACADMAINTVER
 70
     0
  9
$DWGCODEPAGE
  3
ANSI_1252
  9
$INSBASE
 10
0.0
 20
0.0
 30
0.0
  9
$EXTMIN
 10
-415.499999999989
 20
-267.0000000000051
 30
0.0
  9
$EXTMAX
 10
-118.4999999999909
 20
-57.000000000005
 30
0.0
  9
$LIMMIN
 10
0.0
 20
0.0
  9
$LIMMAX
 10
12.0
 20
9.0
  9
$ORTHOMODE
 70
     0
  9
$REGENMODE
 70
     1
  9
$FILLMODE
 70
     1
  9
$QTEXTMODE
 70
     0
  9
$MIRRTEXT
 70
     1
  9
$LTSCALE
 40
1.0
  9
$ATTMODE
 70
     1
  9
$TEXTSIZE
 40
0.2
  9
$TRACEWID
 40
0.05
  9
$TEXTSTYLE
  7
Standard
  9
$CLAYER
  8
0
  9
$CELTYPE
  6
ByLayer
  9
$CECOLOR
 62
   256
  9
$CELTSCALE
 40
1.0
  9
$DISPSILH
 70
     0
  9
$DIMSCALE
 40
1.0
  9
$DIMASZ
 40
0.18
  9
$DIMEXO
 40
0.0625
  9
$DIMDLI
 40
0.38
  9
$DIMRND
 40
0.0
  9
$DIMDLE
 40
0.0
  9
$DIMEXE
 40
0.18
  9
$DIMTP
 40
0.0
  9
$DIMTM
 40
0.0
  9
$DIMTXT
 40
0.18
  9
$DIMCEN
 40
0.09
  9
$DIMTSZ
 40
0.0
  9
$DIMTOL
 70
     0
  9
$DIMLIM
 70
     0
  9
$DIMTIH
 70
     1
  9
$DIMTOH
 70
     1
  9
$DIMSE1
 70
     0
  9
$DIMSE2
 70
     0
  9
$DIMTAD
 70
     0
  9
$DIMZIN
 70
     0
  9
$DIMBLK
  1

  9
$DIMASO
 70
     1
  9
$DIMSHO
 70
     1
  9
$DIMPOST
  1

  9
$DIMAPOST
  1

  9
$DIMALT
 70
     0
  9
$DIMALTD
 70
     2
  9
$DIMALTF
 40
25.4
  9
$DIMLFAC
 40
1.0
  9
$DIMTOFL
 70
     0
  9
$DIMTVP
 40
0.0
  9
$DIMTIX
 70
     0
  9
$DIMSOXD
 70
     0
  9
$DIMSAH
 70
     0
  9
$DIMBLK1
  1

  9
$DIMBLK2
  1

  9
$DIMSTYLE
  2
Standard
  9
$DIMCLRD
 70
     0
  9
$DIMCLRE
 70
     0
  9
$DIMCLRT
 70
     0
  9
$DIMTFAC
 40
1.0
  9
$DIMGAP
 40
0.09
  9
$DIMJUST
 70
     0
  9
$DIMSD1
 70
     0
  9
$DIMSD2
 70
     0
  9
$DIMTOLJ
 70
     1
  9
$DIMTZIN
 70
     0
  9
$DIMALTZ
 70
     0
  9
$DIMALTTZ
 70
     0
  9
$DIMUPT
 70
     0
  9
$DIMDEC
 70
     4
  9
$DIMTDEC
 70
     4
  9
$DIMALTU
 70
     2
  9
$DIMALTTD
 70
     2
  9
$DIMTXSTY
  7
Standard
  9
$DIMAUNIT
 70
     0
  9
$DIMADEC
 70
     0
  9
$DIMALTRND
 40
0.0
  9
$DIMAZIN
 70
     0
  9
$DIMDSEP
 70
    46
  9
$DIMATFIT
 70
     3
  9
$DIMFRAC
 70
     0
  9
$DIMLDRBLK
  1

  9
$DIMLUNIT
 70
     2
  9
$DIMLWD
 70
    -2
  9
$DIMLWE
 70
    -2
  9
$DIMTMOVE
 70
     0
  9
$LUNITS
 70
     2
  9
$LUPREC
 70
     4
  9
$SKETCHINC
 40
0.1
  9
$FILLETRAD
 40
0.5
  9
$AUNITS
 70
     0
  9
$AUPREC
 70
     0
  9
$MENU
  1
.
  9
$ELEVATION
 40
0.0
  9
$PELEVATION
 40
0.0
  9
$THICKNESS
 40
0.0
  9
$LIMCHECK
 70
     0
  9
$CHAMFERA
 40
0.5
  9
$CHAMFERB
 40
0.5
  9
$CHAMFERC
 40
1.0
  9
$CHAMFERD
 40
0.0
  9
$SKPOLY
 70
     0
  9
$TDCREATE
 40
2458184.489234849
  9
$TDUCREATE
 40
2458184.447568183
  9
$TDUPDATE
 40
2458184.489235579
  9
$TDUUPDATE
 40
2458184.447568912
  9
$TDINDWG
 40
0.0000000116
  9
$TDUSRTIMER
 40
0.0000000116
  9
$USRTIMER
 70
     1
  9
$ANGBASE
 50
0.0
  9
$ANGDIR
 70
     0
  9
$PDMODE
 70
     0
  9
$PDSIZE
 40
0.0
  9
$PLINEWID
 40
0.0
  9
$SPLFRAME
 70
     0
  9
$SPLINETYPE
 70
     6
  9
$SPLINESEGS
 70
     8
  9
$HANDSEED
  5
511
  9
$SURFTAB1
 70
     6
  9
$SURFTAB2
 70
     6
  9
$SURFTYPE
 70
     6
  9
$SURFU
 70
     6
  9
$SURFV
 70
     6
  9
$UCSBASE
  2

  9
$UCSNAME
  2

  9
$UCSORG
 10
0.0
 20
0.0
 30
0.0
  9
$UCSXDIR
 10
1.0
 20
0.0
 30
0.0
  9
$UCSYDIR
 10
0.0
 20
1.0
 30
0.0
  9
$UCSORTHOREF
  2

  9
$UCSORTHOVIEW
 70
     0
  9
$UCSORGTOP
 10
0.0
 20
0.0
 30
0.0
  9
$UCSORGBOTTOM
 10
0.0
 20
0.0
 30
0.0
  9
$UCSORGLEFT
 10
0.0
 20
0.0
 30
0.0
  9
$UCSORGRIGHT
 10
0.0
 20
0.0
 30
0.0
  9
$UCSORGFRONT
 10
0.0
 20
0.0
 30
0.0
  9
$UCSORGBACK
 10
0.0
 20
0.0
 30
0.0
  9
$PUCSBASE
  2

  9
$PUCSNAME
  2

  9
$PUCSORG
 10
0.0
 20
0.0
 30
0.0
  9
$PUCSXDIR
 10
1.0
 20
0.0
 30
0.0
  9
$PUCSYDIR
 10
0.0
 20
1.0
 30
0.0
  9
$PUCSORTHOREF
  2

  9
$PUCSORTHOVIEW
 70
     0
  9
$PUCSORGTOP
 10
0.0
 20
0.0
 30
0.0
  9
$PUCSORGBOTTOM
 10
0.0
 20
0.0
 30
0.0
  9
$PUCSORGLEFT
 10
0.0
 20
0.0
 30
0.0
  9
$PUCSORGRIGHT
 10
0.0
 20
0.0
 30
0.0
  9
$PUCSORGFRONT
 10
0.0
 20
0.0
 30
0.0
  9
$PUCSORGBACK
 10
0.0
 20
0.0
 30
0.0
  9
$USERI1
 70
     0
  9
$USERI2
 70
     0
  9
$USERI3
 70
     0
  9
$USERI4
 70
     0
  9
$USERI5
 70
     0
  9
$USERR1
 40
18.1
  9
$USERR2
 40
0.0
  9
$USERR3
 40
0.0
  9
$USERR4
 40
0.0
  9
$USERR5
 40
0.0
  9
$WORLDVIEW
 70
     1
  9
$SHADEDGE
 70
     3
  9
$SHADEDIF
 70
    70
  9
$TILEMODE
 70
     1
  9
$MAXACTVP
 70
    64
  9
$PINSBASE
 10
0.0
 20
0.0
 30
0.0
  9
$PLIMCHECK
 70
     0
  9
$PEXTMIN
 10
1.00000000000000E+20
 20
1.00000000000000E+20
 30
1.00000000000000E+20
  9
$PEXTMAX
 10
-1.00000000000000E+20
 20
-1.00000000000000E+20
 30
-1.00000000000000E+20
  9
$PLIMMIN
 10
0.0
 20
0.0
  9
$PLIMMAX
 10
12.0
 20
9.0
  9
$UNITMODE
 70
     0
  9
$VISRETAIN
 70
     1
  9
$PLINEGEN
 70
     0
  9
$PSLTSCALE
 70
     1
  9
$TREEDEPTH
 70
  3020
  9
$CMLSTYLE
  2
Standard
  9
$CMLJUST
 70
     0
  9
$CMLSCALE
 40
1.0
  9
$PROXYGRAPHICS
 70
     1
  9
$MEASUREMENT
 70
     1
  9
$CELWEIGHT
370
    -1
  9
$ENDCAPS
280
     0
  9
$JOINSTYLE
280
     0
  9
$LWDISPLAY
290
     0
  9
$INSUNITS
 70
     4
  9
$HYPERLINKBASE
  1

  9
$STYLESHEET
  1

  9
$XEDIT
290
     1
  9
$CEPSNTYPE
380
     0
  9
$PSTYLEMODE
290
     1
  9
$FINGERPRINTGUID
  2
{AE81965B-DF37-4300-9343-FFB526EDF7BE}
  9
$VERSIONGUID
  2
{FAEB1C32-E019-11D5-929B-00C0DF256EC4}
  9
$EXTNAMES
290
     1
  9
$PSVPSCALE
 40
0.0
  9
$OLESTARTUP
290
     0
  9
$SORTENTS
280
   127
  9
$INDEXCTL
280
     0
  9
$HIDETEXT
280
     1
  9
$XCLIPFRAME
290
     0
  9
$HALOGAP
280
     0
  9
$OBSCOLOR
 70
   257
  9
$OBSLTYPE
280
     0
  9
$INTERSECTIONDISPLAY
280
     0
  9
$INTERSECTIONCOLOR
 70
   257
  9
$DIMASSOC
280
     2
  9
$PROJECTNAME
  1

  0
ENDSEC
  0
SECTION
  2
CLASSES
  0
CLASS
  1
ACDBDICTIONARYWDFLT
  2
AcDbDictionaryWithDefault
  3
ObjectDBX Classes
 90
        0
 91
        4
280
     0
281
     0
  0
CLASS
  1
VISUALSTYLE
  2
AcDbVisualStyle
  3
ObjectDBX Classes
 90
     4095
 91
        4
280
     0
281
     0
  0
CLASS
  1
MATERIAL
  2
AcDbMaterial
  3
ObjectDBX Classes
 90
     1153
 91
        4
280
     0
281
     0
  0
ENDSEC
  0
SECTION
  2
TABLES
  0
TABLE
  2
VPORT
  5
8
330
0
100
AcDbSymbolTable
 70
     1
  0
VPORT
  5
29
330
8
100
AcDbSymbolTableRecord
100
AcDbViewportTableRecord
  2
*Active
 70
     0
 10
0.0
 20
0.0
 11
1.0
 21
1.0
 12
-266.9999999999899
 22
-162.0000000000051
 13
0.0
 23
0.0
 14
0.5
 24
0.5
 15
0.5
 25
0.5
 16
0.0
 26
0.0
 36
1.0
 17
0.0
 27
0.0
 37
0.0
 40
231.0000000000001
 41
1.60267857142857
 42
50.0
 43
0.0
 44
0.0
 50
0.0
 51
0.0
 71
     0
 72
   100
 73
     1
 74
     3
 75
     0
 76
     0
 77
     0
 78
     0
281
     0
 65
     1
110
0.0
120
0.0
130
0.0
111
1.0
121
0.0
131
0.0
112
0.0
122
1.0
132
0.0
 79
     0
146
0.0
  0
ENDTAB
  0
TABLE
  2
LTYPE
  5
5
330
0
100
AcDbSymbolTable
 70
     8
  0
LTYPE
  5
14
330
5
100
AcDbSymbolTableRecord
100
AcDbLinetypeTableRecord
  2
ByBlock
 70
     0
  3

 72
    65
 73
     0
 40
0.0
  0
LTYPE
  5
15
330
5
100
AcDbSymbolTableRecord
100
AcDbLinetypeTableRecord
  2
ByLayer
 70
     0
  3

 72
    65
 73
     0
 40
0.0
  0
LTYPE
  5
16
330
5
100
AcDbSymbolTableRecord
100
AcDbLinetypeTableRecord
  2
Continuous
 70
     0
  3
Solid line
 72
    65
 73
     0
 40
0.0
  0
LTYPE
  5
3F
330
5
100
AcDbSymbolTableRecord
100
AcDbLinetypeTableRecord
  2
DASHED
 70
     0
  3
Dashed
 72
    65
 73
     2
 40
15.0
 49
7.0
 74
     0
 49
-8.0
 74
     0
  0
LTYPE
  5
40
330
5
100
AcDbSymbolTableRecord
100
AcDbLinetypeTableRecord
  2
DOTTED
 70
     0
  3
Dotted
 72
    65
 73
     2
 40
1.0
 49
0.0
 74
     0
 49
-1.0
 74
     0
  0
LTYPE
  5
41
330
5
100
AcDbSymbolTableRecord
100
AcDbLinetypeTableRecord
  2
DOT_CENTER
 70
     0
  3
Dot_Center
 72
    65
 73
     4
 40
14.0
 49
12.0
 74
     0
 49
-1.0
 74
     0
 49
0.0
 74
     0
 49
-1.0
 74
     0
  0
LTYPE
  5
42
330
5
100
AcDbSymbolTableRecord
100
AcDbLinetypeTableRecord
  2
LONG_DASHED
 70
     0
  3
Long_Dashed
 72
    65
 73
     2
 40
15.0
 49
10.0
 74
     0
 49
-5.0
 74
     0
  0
LTYPE
  5
43
330
5
100
AcDbSymbolTableRecord
100
AcDbLinetypeTableRecord
  2
DASH_CENTER
 70
     0
  3
Dash_Center
 72
    65
 73
     4
 40
14.0
 49
11.0
 74
     0
 49
-1.0
 74
     0
 49
1.0
 74
     0
 49
-1.0
 74
     0
  0
LTYPE
  5
44
330
5
100
AcDbSymbolTableRecord
100
AcDbLinetypeTableRecord
  2
PHANTOM
 70
     0
  3
Phantom
 72
    65
 73
     6
 40
13.0
 49
10.0
 74
     0
 49
-1.0
 74
     0
 49
0.0
 74
     0
 49
-1.0
 74
     0
 49
0.0
 74
     0
 49
-1.0
 74
     0
  0
LTYPE
  5
45
330
5
100
AcDbSymbolTableRecord
100
AcDbLinetypeTableRecord
  2
CENTER_DASH_DASH
 70
     0
  3
Center_Dash_Dash
 72
    65
 73
     6
 40
14.0
 49
9.0
 74
     0
 49
-1.0
 74
     0
 49
1.0
 74
     0
 49
-1.0
 74
     0
 49
1.0
 74
     0
 49
-1.0
 74
     0
  0
ENDTAB
  0
TABLE
  2
LAYER
  5
2
330
0
100
AcDbSymbolTable
 70
     2
  0
LAYER
  5
10
330
2
100
AcDbSymbolTableRecord
100
AcDbLayerTableRecord
  2
0
 70
     0
 62
     7
  6
Continuous
370
    -3
390
F
  0
LAYER
  5
46
330
2
100
AcDbSymbolTableRecord
100
AcDbLayerTableRecord
  2
1
 70
     0
 62
     7
  6
Continuous
370
    -3
390
F
  0
ENDTAB
  0
TABLE
  2
STYLE
  5
3
330
0
100
AcDbSymbolTable
 70
     5
  0
STYLE
  5
11
330
3
100
AcDbSymbolTableRecord
100
AcDbTextStyleTableRecord
  2
Standard
 70
     0
 40
0.0
 41
1.0
 50
0.0
 71
     0
 42
0.2
  3
txt
  4

  0
STYLE
  5
166
330
3
100
AcDbSymbolTableRecord
100
AcDbTextStyleTableRecord
  2
CONVERTER_11
 70
     0
 40
0.0
 41
0.9
 50
0.0
 71
     0
 42
0.2
  3
txt.shx
  4

  0
STYLE
  5
4AC
330
3
100
AcDbSymbolTableRecord
100
AcDbTextStyleTableRecord
  2
CONVERTER_12
 70
     0
 40
0.0
 41
0.81
 50
0.0
 71
     0
 42
0.2
  3
txt.shx
  4

  0
STYLE
  5
4C2
330
3
100
AcDbSymbolTableRecord
100
AcDbTextStyleTableRecord
  2
CONVERTER_13
 70
     0
 40
0.0
 41
0.72
 50
0.0
 71
     0
 42
0.2
  3
txt.shx
  4

  0
STYLE
  5
4C5
330
3
100
AcDbSymbolTableRecord
100
AcDbTextStyleTableRecord
  2
CONVERTER_14
 70
     0
 40
0.0
 41
0.855
 50
0.0
 71
     0
 42
0.2
  3
txt.shx
  4

  0
ENDTAB
  0
TABLE
  2
VIEW
  5
6
330
0
100
AcDbSymbolTable
 70
     0
  0
ENDTAB
  0
TABLE
  2
UCS
  5
7
330
0
100
AcDbSymbolTable
 70
     0
  0
ENDTAB
  0
TABLE
  2
APPID
  5
9
330
0
100
AcDbSymbolTable
 70
     1
  0
APPID
  5
12
330
9
100
AcDbSymbolTableRecord
100
AcDbRegAppTableRecord
  2
ACAD
 70
     0
  0
ENDTAB
  0
TABLE
  2
DIMSTYLE
  5
A
330
0
100
AcDbSymbolTable
 70
     7
100
AcDbDimStyleTable
  0
DIMSTYLE
105
27
330
A
100
AcDbSymbolTableRecord
100
AcDbDimStyleTableRecord
  2
Standard
 70
     0
178
     0
340
11
  0
DIMSTYLE
105
1D4
102
{ACAD_REACTORS
330
1D5
102
}
330
A
100
AcDbSymbolTableRecord
100
AcDbDimStyleTableRecord
  2
ME10_DIM_10
 70
     0
 41
3.5
 42
0.5
 44
1.5
 73
     0
 74
     0
 77
     1
 78
     8
140
3.5
147
2.0
172
     1
173
     1
174
     1
175
     1
176
     2
177
     2
271
     2
178
     3
271
     2
340
166
  0
DIMSTYLE
105
382
102
{ACAD_REACTORS
330
383
102
}
330
A
100
AcDbSymbolTableRecord
100
AcDbDimStyleTableRecord
  2
ME10_DIM_11
 70
     0
 41
3.5
 42
0.5
 44
1.5
 73
     0
 74
     0
 77
     1
 78
     8
140
3.5
147
2.0
172
     1
173
     1
174
     1
175
     1
176
     2
177
     2
178
     3
340
166
  0
DIMSTYLE
105
38D
102
{ACAD_REACTORS
330
38E
102
}
330
A
100
AcDbSymbolTableRecord
100
AcDbDimStyleTableRecord
  2
ME10_DIM_12
 70
     0
 41
3.5
 42
0.0
 44
1.5
 73
     0
 74
     0
 77
     1
 78
     8
140
3.5
147
1.5
172
     1
173
     1
174
     1
175
     1
176
     2
177
     2
271
     2
178
     3
271
     2
340
166
  0
DIMSTYLE
105
398
102
{ACAD_REACTORS
330
399
102
}
330
A
100
AcDbSymbolTableRecord
100
AcDbDimStyleTableRecord
  2
ME10_DIM_13
 70
     0
 41
3.5
 42
0.0
 44
1.5
 73
     0
 74
     0
 77
     1
 78
     8
140
3.5
147
1.5
172
     1
173
     1
174
     1
175
     1
176
     2
177
     2
271
     2
178
     3
271
     2
340
166
  0
DIMSTYLE
105
3A3
102
{ACAD_REACTORS
330
3A4
102
}
330
A
100
AcDbSymbolTableRecord
100
AcDbDimStyleTableRecord
  2
ME10_DIM_14
 70
     0
 41
3.5
 42
0.0
 44
1.5
 73
     0
 74
     0
 77
     1
 78
     8
140
3.5
147
1.5
172
     1
173
     1
174
     1
175
     1
176
     2
177
     2
271
     2
178
     3
271
     2
340
166
  0
DIMSTYLE
105
3AE
102
{ACAD_REACTORS
330
3AF
102
}
330
A
100
AcDbSymbolTableRecord
100
AcDbDimStyleTableRecord
  2
ME10_DIM_15
 70
     0
 41
3.5
 42
0.0
 44
1.5
 73
     0
 74
     0
 77
     1
 78
     8
140
3.5
147
1.5
172
     1
173
     1
174
     1
175
     1
176
     2
177
     2
271
     2
178
     3
271
     2
340
166
  0
ENDTAB
  0
TABLE
  2
BLOCK_RECORD
  5
1
330
0
100
AcDbSymbolTable
 70
    23
  0
BLOCK_RECORD
  5
1F
330
1
100
AcDbSymbolTableRecord
100
AcDbBlockTableRecord
  2
*Model_Space
340
22
  0
BLOCK_RECORD
  5
1B
330
1
100
AcDbSymbolTableRecord
100
AcDbBlockTableRecord
  2
*Paper_Space
340
1E
  0
BLOCK_RECORD
  5
23
330
1
100
AcDbSymbolTableRecord
100
AcDbBlockTableRecord
  2
*Paper_Space0
340
26
  0
BLOCK_RECORD
  5
47
330
1
100
AcDbSymbolTableRecord
100
AcDbBlockTableRecord
  2
USLKG_10-1-select__1
340
0
102
{BLKREFS
331
4B
102
}
  0
BLOCK_RECORD
  5
4A
330
1
100
AcDbSymbolTableRecord
100
AcDbBlockTableRecord
  2
Allg1
340
0
102
{BLKREFS
331
7D
102
}
  0
BLOCK_RECORD
  5
4E
330
1
100
AcDbSymbolTableRecord
100
AcDbBlockTableRecord
  2
USLKG_10-1-select__2
340
0
102
{BLKREFS
331
52
102
}
  0
BLOCK_RECORD
  5
51
330
1
100
AcDbSymbolTableRecord
100
AcDbBlockTableRecord
  2
Drfsicht1
340
0
102
{BLKREFS
331
7E
102
}
  0
BLOCK_RECORD
  5
55
330
1
100
AcDbSymbolTableRecord
100
AcDbBlockTableRecord
  2
USLKG_10-1-select__3
340
0
102
{BLKREFS
331
59
102
}
  0
BLOCK_RECORD
  5
58
330
1
100
AcDbSymbolTableRecord
100
AcDbBlockTableRecord
  2
Rckans1
340
0
102
{BLKREFS
331
7F
102
}
  0
BLOCK_RECORD
  5
5C
330
1
100
AcDbSymbolTableRecord
100
AcDbBlockTableRecord
  2
USLKG_10-1-select__4
340
0
102
{BLKREFS
331
60
102
}
  0
BLOCK_RECORD
  5
5F
330
1
100
AcDbSymbolTableRecord
100
AcDbBlockTableRecord
  2
SA_Links1
340
0
102
{BLKREFS
331
80
102
}
  0
BLOCK_RECORD
  5
63
330
1
100
AcDbSymbolTableRecord
100
AcDbBlockTableRecord
  2
USLKG_10-1-select__5
340
0
102
{BLKREFS
331
67
102
}
  0
BLOCK_RECORD
  5
66
330
1
100
AcDbSymbolTableRecord
100
AcDbBlockTableRecord
  2
SA_Rechts1
340
0
102
{BLKREFS
331
81
102
}
  0
BLOCK_RECORD
  5
6A
330
1
100
AcDbSymbolTableRecord
100
AcDbBlockTableRecord
  2
USLKG_10-1-select__6
340
0
102
{BLKREFS
331
6E
102
}
  0
BLOCK_RECORD
  5
6D
330
1
100
AcDbSymbolTableRecord
100
AcDbBlockTableRecord
  2
Vordans1
340
0
102
{BLKREFS
331
82
102
}
  0
BLOCK_RECORD
  5
71
330
1
100
AcDbSymbolTableRecord
100
AcDbBlockTableRecord
  2
_rahmen
340
0
102
{BLKREFS
331
78
102
}
  0
BLOCK_RECORD
  5
74
330
1
100
AcDbSymbolTableRecord
100
AcDbBlockTableRecord
  2
_punkt
340
0
102
{BLKREFS
331
79
102
}
  0
BLOCK_RECORD
  5
77
330
1
100
AcDbSymbolTableRecord
100
AcDbBlockTableRecord
  2
A4I_CS
340
0
102
{BLKREFS
331
83
102
}
  0
BLOCK_RECORD
  5
7C
330
1
100
AcDbSymbolTableRecord
100
AcDbBlockTableRecord
  2
1
340
0
102
{BLKREFS
331
86
102
}
  0
BLOCK_RECORD
  5
1C9
330
1
100
AcDbSymbolTableRecord
100
AcDbBlockTableRecord
  2
*D17
340
0
  0
BLOCK_RECORD
  5
379
330
1
100
AcDbSymbolTableRecord
100
AcDbBlockTableRecord
  2
*D18
340
0
  0
BLOCK_RECORD
  5
384
330
1
100
AcDbSymbolTableRecord
100
AcDbBlockTableRecord
  2
*D19
340
0
  0
BLOCK_RECORD
  5
38F
330
1
100
AcDbSymbolTableRecord
100
AcDbBlockTableRecord
  2
*D20
340
0
  0
BLOCK_RECORD
  5
39A
330
1
100
AcDbSymbolTableRecord
100
AcDbBlockTableRecord
  2
*D21
340
0
  0
BLOCK_RECORD
  5
3A5
330
1
100
AcDbSymbolTableRecord
100
AcDbBlockTableRecord
  2
*D22
340
0
  0
ENDTAB
  0
ENDSEC
  0
SECTION
  2
BLOCKS
  0
BLOCK
  5
20
330
1F
100
AcDbEntity
  8
0
100
AcDbBlockBegin
  2
*Model_Space
 70
     0
 10
0.0
 20
0.0
 30
0.0
  3
*Model_Space
  1

  0
ENDBLK
  5
21
330
1F
100
AcDbEntity
  8
0
100
AcDbBlockEnd
  0
BLOCK
  5
1C
330
1B
100
AcDbEntity
 67
     1
  8
0
100
AcDbBlockBegin
  2
*Paper_Space
 70
     0
 10
0.0
 20
0.0
 30
0.0
  3
*Paper_Space
  1

  0
ENDBLK
  5
1D
330
1B
100
AcDbEntity
 67
     1
  8
0
100
AcDbBlockEnd
  0
BLOCK
  5
24
330
23
100
AcDbEntity
  8
0
100
AcDbBlockBegin
  2
*Paper_Space0
 70
     0
 10
0.0
 20
0.0
 30
0.0
  3
*Paper_Space0
  1

  0
ENDBLK
  5
25
330
23
100
AcDbEntity
  8
0
100
AcDbBlockEnd
  0
BLOCK
  5
48
330
47
100
AcDbEntity
  8
0
100
AcDbBlockBegin
  2
USLKG_10-1-select__1
 70
     0
 10
-197.7405504884629
 20
-220.6999480135769
 30
0.0
  3
USLKG_10-1-select__1
  1

  0
LINE
  5
87
330
47
100
AcDbEntity
  8
0
  6
Continuous
 62
     7
100
AcDbLine
 10
-190.0158133832968
 20
-173.8681504372471
 30
0.0
 11
-187.9783133832968
 21
-172.1036236770363
 31
0.0
  0
LINE
  5
88
330
47
100
AcDbEntity
  8
0
  6
Continuous
 62
     7
100
AcDbLine
 10
-186.6074434476197
 20
-171.1284898045528
 30
0.0
 11
-187.9783133832968
 21
-172.1036236770363
 31
0.0
  0
LINE
  5
89
330
47
100
AcDbEntity
  8
0
  6
Continuous
 62
     2
100
AcDbLine
 10
-185.8736621555094
 20
-173.6930165647635
 30
0.0
 11
-188.6449434476197
 21
-172.8930165647635
 31
0.0
  0
LINE
  5
8A
330
47
100
AcDbEntity
  8
0
  6
Continuous
 62
     7
100
AcDbLine
 10
-196.4131934742129
 20
-178.7339683163116
 30
0.0
 11
-194.3756934742129
 21
-176.9694415561007
 31
0.0
  0
LINE
  5
8B
330
47
100
AcDbEntity
  8
0
  6
Continuous
 62
     2
100
AcDbLine
 10
-188.6449434476197
 20
-172.8930165647635
 30
0.0
 11
-190.0158133832968
 21
-173.8681504372471
 31
0.0
  0
LINE
  5
8C
330
47
100
AcDbEntity
  8
0
  6
Continuous
 62
     7
100
AcDbLine
 10
-197.7405504884629
 20
-179.6781503658175
 30
0.0
 11
-196.4131934742129
 21
-178.7339683163116
 31
0.0
  0
LINE
  5
8D
330
47
100
AcDbEntity
  8
0
  6
Continuous
 62
     7
100
AcDbLine
 10
-197.7405504884629
 20
-179.6781503658175
 30
0.0
 11
-195.7030504884629
 21
-177.9136236056067
 31
0.0
  0
LINE
  5
8E
330
47
100
AcDbEntity
  8
0
  6
Continuous
 62
     7
100
AcDbLine
 10
-197.7405504884629
 20
-200.1596511653195
 30
0.0
 11
-194.9259679261635
 21
-199.9329206807782
 31
0.0
  0
LINE
  5
8F
330
47
100
AcDbEntity
  8
0
  6
Continuous
 62
     7
100
AcDbLine
 10
-196.7446212741108
 20
-181.7410024435756
 30
0.0
 11
-197.7405504884629
 21
-181.1866440148714
 31
0.0
  0
LINE
  5
90
330
47
100
AcDbEntity
  8
0
  6
Continuous
 62
     7
100
AcDbLine
 10
-197.7405504884629
 20
-181.1866440148714
 30
0.0
 11
-197.7405504884629
 21
-179.6781503658175
 31
0.0
  0
LINE
  5
91
330
47
100
AcDbEntity
  8
0
  6
Continuous
 62
     2
100
AcDbLine
 10
-195.7030504884629
 20
-198.3951244051087
 30
0.0
 11
-194.9259679261635
 21
-198.3325260261381
 31
0.0
  0
LINE
  5
92
330
47
100
AcDbEntity
  8
0
  6
Continuous
 62
     7
100
AcDbLine
 10
-195.7030504884629
 20
-198.3951244051087
 30
0.0
 11
-194.9259679261635
 21
-197.7221511653195
 31
0.0
  0
LINE
  5
93
330
47
100
AcDbEntity
  8
0
  6
Continuous
 62
     7
100
AcDbLine
 10
-194.879200522795
 20
-180.2270126652479
 30
0.0
 11
-194.5532652223047
 21
-179.9951667814958
 31
0.0
  0
LINE
  5
94
330
47
100
AcDbEntity
  8
0
  6
Continuous
 62
     7
100
AcDbLine
 10
-194.879200522795
 20
-180.2270126652479
 30
0.0
 11
-194.2282446515677
 21
-181.0658833102171
 31
0.0
  0
LINE
  5
95
330
47
100
AcDbEntity
  8
0
  6
Continuous
 62
     2
100
AcDbLine
 10
-194.3756934742129
 20
-176.9694415561007
 30
0.0
 11
-195.7030504884629
 21
-177.9136236056067
 31
0.0
  0
LINE
  5
96
330
47
100
AcDbEntity
  8
0
  6
Continuous
 62
     7
100
AcDbLine
 10
-191.0028830048406
 20
-177.4696916285212
 30
0.0
 11
-190.3519271336133
 21
-178.3085622734904
 31
0.0
  0
LINE
  5
97
330
47
100
AcDbEntity
  8
0
  6
Continuous
 62
     7
100
AcDbLine
 10
-191.3290299565688
 20
-177.7016880650616
 30
0.0
 11
-191.0028830048406
 21
-177.4696916285212
 31
0.0
  0
LINE
  5
98
330
47
100
AcDbEntity
  8
0
  6
Continuous
 62
     7
100
AcDbLine
 10
-192.5157652223047
 20
-178.230640021285
 30
0.0
 11
-191.4630178424857
 21
-177.3189340465944
 31
0.0
  0
LINE
  5
99
330
47
100
AcDbEntity
  8
0
  6
Continuous
 62
     7
100
AcDbLine
 10
-192.1712249070523
 20
-208.2539075744242
 30
0.0
 11
-192.1712249070523
 21
-210.5921761646422
 31
0.0
  0
LINE
  5
9A
330
47
100
AcDbEntity
  8
0
  6
Continuous
 62
     7
100
AcDbLine
 10
-192.1712249070523
 20
-205.9242989153008
 30
0.0
 11
-192.1712249070523
 21
-206.6950618476122
 31
0.0
  0
LINE
  5
9B
330
47
100
AcDbEntity
  8
0
  6
Continuous
 62
     7
100
AcDbLine
 10
-184.8582142511327
 20
-212.5589226097925
 30
0.0
 11
-184.8582142511327
 21
-208.9298800733624
 31
0.0
  0
LINE
  5
9C
330
47
100
AcDbEntity
  8
0
  6
Continuous
 62
     7
100
AcDbLine
 10
-184.8582142511327
 20
-208.9298800733624
 30
0.0
 11
-184.0835572790954
 21
-208.2590074563594
 31
0.0
  0
LINE
  5
9D
330
47
100
AcDbEntity
  8
0
  6
Continuous
 62
     7
100
AcDbLine
 10
-192.1907446515676
 20
-179.3013565500062
 30
0.0
 11
-190.6302342098289
 21
-177.9499148645895
 31
0.0
  0
LINE
  5
9E
330
47
100
AcDbEntity
  8
0
  6
Continuous
 62
     7
100
AcDbLine
 10
-194.5532652223047
 20
-179.9951667814958
 30
0.0
 11
-196.4131934742129
 21
-178.7339683163116
 31
0.0
  0
LINE
  5
9F
330
47
100
AcDbEntity
  8
0
  6
Continuous
 62
     7
100
AcDbLine
 10
-196.7446212741108
 20
-181.7410024435756
 30
0.0
 11
-194.9259679261635
 21
-185.4160024435756
 31
0.0
  0
LINE
  5
A0
330
47
100
AcDbEntity
  8
0
  6
Continuous
 62
     7
100
AcDbLine
 10
-188.6449434476197
 20
-172.8930165647635
 30
0.0
 11
-190.6824434476197
 21
-174.6575433249743
 31
0.0
  0
LINE
  5
A1
330
47
100
AcDbEntity
  8
0
  6
Continuous
 62
     7
100
AcDbLine
 10
-188.6449434476197
 20
-172.8930165647635
 30
0.0
 11
-186.6074434476197
 21
-171.1284898045528
 31
0.0
  0
LINE
  5
A2
330
47
100
AcDbEntity
  8
0
  6
Continuous
 62
     7
100
AcDbLine
 10
-158.8969708276242
 20
-213.177046343274
 30
0.0
 11
-156.8594708276242
 21
-211.4125195830632
 31
0.0
  0
LINE
  5
A3
330
47
100
AcDbEntity
  8
0
  6
Continuous
 62
     7
100
AcDbLine
 10
-156.8594708276242
 20
-207.2555976448979
 30
0.0
 11
-156.8594708276242
 21
-211.4125195830632
 31
0.0
  0
LINE
  5
A4
330
47
100
AcDbEntity
  8
0
  6
Continuous
 62
     7
100
AcDbLine
 10
-164.2655916629227
 20
-215.8476894688319
 30
0.0
 11
-163.8325789610305
 21
-215.5396767669397
 31
0.0
  0
LINE
  5
A5
330
47
100
AcDbEntity
  8
0
  6
Continuous
 62
     7
100
AcDbLine
 10
-164.4200147218199
 20
-215.7587620683913
 30
0.0
 11
-164.3689293139836
 21
-215.7145208074423
 31
0.0
  0
LINE
  5
A6
330
47
100
AcDbEntity
  8
0
  6
Continuous
 62
     7
100
AcDbLine
 10
-164.6986043648149
 20
-215.2896767669396
 30
0.0
 11
-164.2655916629227
 21
-215.8476894688319
 31
0.0
  0
LINE
  5
A7
330
47
100
AcDbEntity
  8
0
  6
Continuous
 62
     7
100
AcDbLine
 10
-164.6986043648149
 20
-215.2896767669396
 30
0.0
 11
-165.1316170667072
 21
-215.5976894688319
 31
0.0
  0
LINE
  5
A8
330
47
100
AcDbEntity
  8
0
  6
Continuous
 62
     7
100
AcDbLine
 10
-165.5646297685994
 20
-215.0396767669396
 30
0.0
 11
-165.1316170667072
 21
-215.5976894688319
 31
0.0
  0
LINE
  5
A9
330
47
100
AcDbEntity
  8
0
  6
Continuous
 62
     7
100
AcDbLine
 10
-165.5646297685994
 20
-215.0396767669396
 30
0.0
 11
-167.1234754954113
 21
-214.5896767669397
 31
0.0
  0
LINE
  5
AA
330
47
100
AcDbEntity
  8
0
  6
Continuous
 62
     7
100
AcDbLine
 10
-163.1272714355017
 20
-215.9039993900581
 30
0.0
 11
-163.0343740757648
 21
-215.9144362369254
 31
0.0
  0
LINE
  5
AB
330
47
100
AcDbEntity
  8
0
  6
Continuous
 62
     7
100
AcDbLine
 10
-164.4200147218199
 20
-215.7587620683913
 30
0.0
 11
-164.3264406071617
 21
-215.7692749474247
 31
0.0
  0
LINE
  5
AC
330
47
100
AcDbEntity
  8
0
  6
Continuous
 62
     7
100
AcDbLine
 10
-164.1786903644954
 20
-215.7858744144245
 30
0.0
 11
-163.590229147264
 21
-215.8519869458141
 31
0.0
  0
LINE
  5
AD
330
47
100
AcDbEntity
  8
0
  6
Continuous
 62
     7
100
AcDbLine
 10
-156.8594708276242
 20
-207.2555976448979
 30
0.0
 11
-158.8969708276242
 21
-209.0201244051087
 31
0.0
  0
LINE
  5
AE
330
47
100
AcDbEntity
  8
0
  6
Continuous
 62
     7
100
AcDbLine
 10
-159.6740533899236
 20
-205.4038671603566
 30
0.0
 11
-156.8594708276242
 21
-207.2555976448979
 31
0.0
  0
LINE
  5
AF
330
47
100
AcDbEntity
  8
0
  6
Continuous
 62
     7
100
AcDbLine
 10
-156.8594708276242
 20
-188.2825904944498
 30
0.0
 11
-156.8594708276242
 21
-186.7740968453959
 31
0.0
  0
LINE
  5
B0
330
47
100
AcDbEntity
  8
0
  6
Continuous
 62
     7
100
AcDbLine
 10
-158.8969708276242
 20
-188.5386236056067
 30
0.0
 11
-156.8594708276242
 21
-186.7740968453959
 31
0.0
  0
LINE
  5
B1
330
47
100
AcDbEntity
  8
0
  6
Continuous
 62
     7
100
AcDbLine
 10
-158.8969708276242
 20
-190.0471172546606
 30
0.0
 11
-156.8594708276242
 21
-188.2825904944498
 31
0.0
  0
LINE
  5
B2
330
47
100
AcDbEntity
  8
0
  6
Continuous
 62
     7
100
AcDbLine
 10
-156.8594708276242
 20
-186.7740968453959
 30
0.0
 11
-158.1868278418741
 21
-185.063564866402
 31
0.0
  0
LINE
  5
B3
330
47
100
AcDbEntity
  8
0
  6
Continuous
 62
     7
100
AcDbLine
 10
-158.1868278418741
 20
-185.063564866402
 30
0.0
 11
-160.0467560937823
 21
-185.2509332546738
 31
0.0
  0
LINE
  5
B4
330
47
100
AcDbEntity
  8
0
  6
Continuous
 62
     7
100
AcDbLine
 10
-162.0842560937823
 20
-187.0154600148846
 30
0.0
 11
-160.0467560937823
 21
-185.2509332546738
 31
0.0
  0
LINE
  5
B5
330
47
100
AcDbEntity
  8
0
  6
Continuous
 62
     7
100
AcDbLine
 10
-163.7490533899236
 20
-194.4160024435756
 30
0.0
 11
-161.9304000419763
 21
-191.7910024435756
 31
0.0
  0
LINE
  5
B6
330
47
100
AcDbEntity
  8
0
  6
Continuous
 62
     7
100
AcDbLine
 10
-163.4740533899236
 20
-194.1778454575349
 30
0.0
 11
-161.711553389924
 21
-192.6514756833653
 31
0.0
  0
LINE
  5
B7
330
47
100
AcDbEntity
  8
0
  6
Continuous
 62
     2
100
AcDbLine
 10
-163.4740533899237
 20
-195.0134932229821
 30
0.0
 11
-161.711553389924
 21
-192.6514756833653
 31
0.0
  0
LINE
  5
B8
330
47
100
AcDbEntity
  8
0
  6
Continuous
 62
     7
100
AcDbLine
 10
-163.4740533899236
 20
-195.69052505611
 30
0.0
 11
-162.1358791386566
 21
-194.0557843628649
 31
0.0
  0
LINE
  5
B9
330
47
100
AcDbEntity
  8
0
  6
Continuous
 62
     7
100
AcDbLine
 10
-161.7115533899237
 20
-207.1683939205674
 30
0.0
 11
-163.4740533899237
 21
-208.6947636947375
 31
0.0
  0
LINE
  5
BA
330
47
100
AcDbEntity
  8
0
  6
Continuous
 62
     2
100
AcDbLine
 10
-161.7115533899237
 20
-207.1683939205674
 30
0.0
 11
-163.4740533899236
 21
-205.2887706625107
 31
0.0
  0
LINE
  5
BB
330
47
100
AcDbEntity
  8
0
  6
Continuous
 62
     7
100
AcDbLine
 10
-162.1358791386567
 20
-203.3098774578097
 30
0.0
 11
-163.4740533899236
 21
-202.5292758112373
 31
0.0
  0
LINE
  5
BC
330
47
100
AcDbEntity
  8
0
  6
Continuous
 62
     7
100
AcDbLine
 10
-163.7958207932921
 20
-189.2000114923238
 30
0.0
 11
-164.1217560937823
 21
-188.7799867750954
 31
0.0
  0
LINE
  5
BD
330
47
100
AcDbEntity
  8
0
  6
Continuous
 62
     7
100
AcDbLine
 10
-164.1217560937823
 20
-188.7799867750954
 30
0.0
 11
-162.2618278418742
 21
-188.5926183868236
 31
0.0
  0
LINE
  5
BE
330
47
100
AcDbEntity
  8
0
  6
Continuous
 62
     7
100
AcDbLine
 10
-164.1217560937823
 20
-188.7799867750954
 30
0.0
 11
-162.0842560937823
 21
-187.0154600148846
 31
0.0
  0
LINE
  5
BF
330
47
100
AcDbEntity
  8
0
  6
Continuous
 62
     7
100
AcDbLine
 10
-163.7490533899237
 20
-208.9329206807782
 30
0.0
 11
-163.7490533899236
 21
-194.4160024435756
 31
0.0
  0
LINE
  5
C0
330
47
100
AcDbEntity
  8
0
  6
Continuous
 62
     7
100
AcDbLine
 10
-163.7490533899237
 20
-208.9329206807782
 30
0.0
 11
-160.9344708276242
 21
-210.7846511653195
 31
0.0
  0
LINE
  5
C1
330
47
100
AcDbEntity
  8
0
  6
Continuous
 62
     7
100
AcDbLine
 10
-159.9490533899237
 20
-205.6420241463973
 30
0.0
 11
-159.6740533899236
 21
-205.4038671603566
 31
0.0
  0
LINE
  5
C2
330
47
100
AcDbEntity
  8
0
  6
Continuous
 62
     7
100
AcDbLine
 10
-159.9490533899236
 20
-191.1251059091947
 30
0.0
 11
-159.9490533899237
 21
-205.6420241463973
 31
0.0
  0
LINE
  5
C3
330
47
100
AcDbEntity
  8
0
  6
Continuous
 62
     7
100
AcDbLine
 10
-159.6740533899236
 20
-205.4038671603566
 30
0.0
 11
-159.6740533899236
 21
-190.886948923154
 31
0.0
  0
LINE
  5
C4
330
47
100
AcDbEntity
  8
0
  6
Continuous
 62
     7
100
AcDbLine
 10
-158.8969708276242
 20
-209.0201244051087
 30
0.0
 11
-160.9344708276242
 21
-210.7846511653195
 31
0.0
  0
LINE
  5
C5
330
47
100
AcDbEntity
  8
0
  6
Continuous
 62
     7
100
AcDbLine
 10
-159.9490533899237
 20
-205.6420241463973
 30
0.0
 11
-162.1358791386567
 21
-203.3098774578097
 31
0.0
  0
LINE
  5
C6
330
47
100
AcDbEntity
  8
0
  6
Continuous
 62
     7
100
AcDbLine
 10
-162.1358791386567
 20
-203.3098774578097
 30
0.0
 11
-162.1358791386566
 21
-194.0557843628649
 31
0.0
  0
LINE
  5
C7
330
47
100
AcDbEntity
  8
0
  6
Continuous
 62
     7
100
AcDbLine
 10
-160.9344708276242
 20
-214.9415731034848
 30
0.0
 11
-158.8969708276242
 21
-213.177046343274
 31
0.0
  0
LINE
  5
C8
330
47
100
AcDbEntity
  8
0
  6
Continuous
 62
     2
100
AcDbLine
 10
-158.8969708276242
 20
-209.0201244051087
 30
0.0
 11
-158.8969708276242
 21
-213.177046343274
 31
0.0
  0
LINE
  5
C9
330
47
100
AcDbEntity
  8
0
  6
Continuous
 62
     2
100
AcDbLine
 10
-158.8969708276242
 20
-190.0471172546606
 30
0.0
 11
-158.8969708276242
 21
-188.5386236056067
 31
0.0
  0
LINE
  5
CA
330
47
100
AcDbEntity
  8
0
  6
Continuous
 62
     7
100
AcDbLine
 10
-160.9344708276242
 20
-214.9415731034848
 30
0.0
 11
-160.9344708276242
 21
-210.7846511653195
 31
0.0
  0
LINE
  5
CB
330
47
100
AcDbEntity
  8
0
  6
Continuous
 62
     7
100
AcDbLine
 10
-160.9344708276242
 20
-191.8116440148714
 30
0.0
 11
-160.9344708276242
 21
-190.3031503658175
 31
0.0
  0
LINE
  5
CC
330
47
100
AcDbEntity
  8
0
  6
Continuous
 62
     7
100
AcDbLine
 10
-159.9490533899237
 20
-205.6420241463973
 30
0.0
 11
-161.7115533899237
 21
-207.1683939205674
 31
0.0
  0
LINE
  5
CD
330
47
100
AcDbEntity
  8
0
  6
Continuous
 62
     2
100
AcDbLine
 10
-161.7115533899237
 20
-207.1683939205674
 30
0.0
 11
-158.8969708276242
 21
-209.0201244051087
 31
0.0
  0
LINE
  5
CE
330
47
100
AcDbEntity
  8
0
  6
Continuous
 62
     2
100
AcDbLine
 10
-160.2243278418741
 20
-186.8280916266128
 30
0.0
 11
-162.0842560937823
 21
-187.0154600148846
 31
0.0
  0
LINE
  5
CF
330
47
100
AcDbEntity
  8
0
  6
Continuous
 62
     7
100
AcDbLine
 10
-162.2618278418742
 20
-188.5926183868236
 30
0.0
 11
-160.2243278418741
 21
-186.8280916266128
 31
0.0
  0
LINE
  5
D0
330
47
100
AcDbEntity
  8
0
  6
Continuous
 62
     2
100
AcDbLine
 10
-158.8969708276242
 20
-188.5386236056067
 30
0.0
 11
-160.2243278418741
 21
-186.8280916266128
 31
0.0
  0
LINE
  5
D1
330
47
100
AcDbEntity
  8
0
  6
Continuous
 62
     7
100
AcDbLine
 10
-159.6740533899236
 20
-190.886948923154
 30
0.0
 11
-159.3850461137368
 21
-190.4698028513935
 31
0.0
  0
LINE
  5
D2
330
47
100
AcDbEntity
  8
0
  6
Continuous
 62
     7
100
AcDbLine
 10
-159.9490533899236
 20
-191.1251059091947
 30
0.0
 11
-159.6740533899236
 21
-190.886948923154
 31
0.0
  0
LINE
  5
D3
330
47
100
AcDbEntity
  8
0
  6
Continuous
 62
     7
100
AcDbLine
 10
-161.9304000419763
 20
-191.7910024435756
 30
0.0
 11
-160.9344708276242
 21
-191.8116440148714
 31
0.0
  0
LINE
  5
D4
330
47
100
AcDbEntity
  8
0
  6
Continuous
 62
     7
100
AcDbLine
 10
-160.9344708276242
 20
-190.3031503658175
 30
0.0
 11
-162.2618278418742
 21
-188.5926183868236
 31
0.0
  0
LINE
  5
D5
330
47
100
AcDbEntity
  8
0
  6
Continuous
 62
     7
100
AcDbLine
 10
-160.9344708276242
 20
-190.3031503658175
 30
0.0
 11
-158.8969708276242
 21
-188.5386236056067
 31
0.0
  0
LINE
  5
D6
330
47
100
AcDbEntity
  8
0
  6
Continuous
 62
     7
100
AcDbLine
 10
-160.9344708276242
 20
-191.8116440148714
 30
0.0
 11
-158.8969708276242
 21
-190.0471172546606
 31
0.0
  0
LINE
  5
D7
330
47
100
AcDbEntity
  8
0
  6
Continuous
 62
     2
100
AcDbLine
 10
-161.711553389924
 20
-192.6514756833653
 30
0.0
 11
-161.1269372486078
 21
-191.8076549669616
 31
0.0
  0
LINE
  5
D8
330
47
100
AcDbEntity
  8
0
  6
Continuous
 62
     7
100
AcDbLine
 10
-161.711553389924
 20
-192.6514756833653
 30
0.0
 11
-159.9490533899236
 21
-191.1251059091947
 31
0.0
  0
LINE
  5
D9
330
47
100
AcDbEntity
  8
0
  6
Continuous
 62
     7
100
AcDbLine
 10
-159.6568750010055
 20
-213.835142661864
 30
0.0
 11
-159.6568750010055
 21
-220.6999480135769
 31
0.0
  0
LINE
  5
DA
330
47
100
AcDbEntity
  8
0
  6
Continuous
 62
     7
100
AcDbLine
 10
-158.4068750010055
 20
-219.6174162588464
 30
0.0
 11
-158.4068750010054
 21
-212.7526109071334
 31
0.0
  0
LINE
  5
DB
330
47
100
AcDbEntity
  8
0
  6
Continuous
 62
     7
100
AcDbLine
 10
-162.1358791386566
 20
-194.0557843628649
 30
0.0
 11
-159.9490533899236
 21
-191.1251059091947
 31
0.0
  0
LINE
  5
DC
330
47
100
AcDbEntity
  8
0
  6
Continuous
 62
     7
100
AcDbLine
 10
-160.2243278418741
 20
-186.8280916266128
 30
0.0
 11
-158.1868278418741
 21
-185.063564866402
 31
0.0
  0
LINE
  5
DD
330
47
100
AcDbEntity
  8
0
  6
Continuous
 62
     7
100
AcDbLine
 10
-160.6509754362223
 20
-185.7742025546847
 30
0.0
 11
-163.8752107019583
 21
-181.6192107396471
 31
0.0
  0
LINE
  5
DE
330
47
100
AcDbEntity
  8
0
  6
Continuous
 62
     7
100
AcDbLine
 10
-162.5467079327903
 20
-179.4450958034234
 30
0.0
 11
-163.9175778684674
 21
-177.6784898045528
 31
0.0
  0
LINE
  5
DF
330
47
100
AcDbEntity
  8
0
  6
Continuous
 62
     7
100
AcDbLine
 10
-194.5532652223047
 20
-179.9951667814958
 30
0.0
 11
-192.5157652223047
 21
-178.230640021285
 31
0.0
  0
LINE
  5
E0
330
47
100
AcDbEntity
  8
0
  6
Continuous
 62
     7
100
AcDbLine
 10
-194.9259679261635
 20
-185.4160024435756
 30
0.0
 11
-194.9259679261635
 21
-199.9329206807782
 31
0.0
  0
LINE
  5
E1
330
47
100
AcDbEntity
  8
0
  6
Continuous
 62
     7
100
AcDbLine
 10
-195.7030504884629
 20
-177.9136236056067
 30
0.0
 11
-193.6655504884629
 21
-176.149096845396
 31
0.0
  0
LINE
  5
E2
330
47
100
AcDbEntity
  8
0
  6
Continuous
 62
     7
100
AcDbLine
 10
-192.6712249070523
 20
-207.1280745495045
 30
0.0
 11
-192.6712249070523
 21
-205.7799613480034
 31
0.0
  0
LINE
  5
E3
330
47
100
AcDbEntity
  8
0
  6
Continuous
 62
     7
100
AcDbLine
 10
-192.1712249070523
 20
-206.6950618476122
 30
0.0
 11
-192.6712249070523
 21
-207.1280745495045
 31
0.0
  0
LINE
  5
E4
330
47
100
AcDbEntity
  8
0
  6
Continuous
 62
     2
100
AcDbLine
 10
-192.5157652223047
 20
-178.230640021285
 30
0.0
 11
-194.3756934742129
 21
-176.9694415561007
 31
0.0
  0
LINE
  5
E5
330
47
100
AcDbEntity
  8
0
  6
Continuous
 62
     7
100
AcDbLine
 10
-192.3381934742129
 20
-175.20491479589
 30
0.0
 11
-193.6655504884629
 21
-176.149096845396
 31
0.0
  0
LINE
  5
E6
330
47
100
AcDbEntity
  8
0
  6
Continuous
 62
     2
100
AcDbLine
 10
-192.1907446515676
 20
-179.3013565500062
 30
0.0
 11
-192.8182994210806
 21
-178.4926423229386
 31
0.0
  0
LINE
  5
E7
330
47
100
AcDbEntity
  8
0
  6
Continuous
 62
     7
100
AcDbLine
 10
-194.3756934742129
 20
-176.9694415561007
 30
0.0
 11
-192.3381934742129
 21
-175.20491479589
 31
0.0
  0
LINE
  5
E8
330
47
100
AcDbEntity
  8
0
  6
Continuous
 62
     7
100
AcDbLine
 10
-194.2282446515677
 20
-181.0658833102171
 30
0.0
 11
-192.1907446515676
 21
-179.3013565500062
 31
0.0
  0
LINE
  5
E9
330
47
100
AcDbEntity
  8
0
  6
Continuous
 62
     7
100
AcDbLine
 10
-193.2970579319721
 20
-207.2072197379372
 30
0.0
 11
-193.2970579319721
 21
-207.6690999532889
 31
0.0
  0
LINE
  5
EA
330
47
100
AcDbEntity
  8
0
  6
Continuous
 62
     7
100
AcDbLine
 10
-193.7970579319721
 20
-208.1021126551811
 30
0.0
 11
-193.7970579319721
 21
-207.0628821706398
 31
0.0
  0
LINE
  5
EB
330
47
100
AcDbEntity
  8
0
  6
Continuous
 62
     7
100
AcDbLine
 10
-193.2970579319721
 20
-207.6690999532889
 30
0.0
 11
-193.7970579319721
 21
-208.1021126551811
 31
0.0
  0
LINE
  5
EC
330
47
100
AcDbEntity
  8
0
  6
Continuous
 62
     7
100
AcDbLine
 10
-192.9310325281876
 20
-207.3128821706398
 30
0.0
 11
-192.6712249070523
 21
-207.1280745495045
 31
0.0
  0
LINE
  5
ED
330
47
100
AcDbEntity
  8
0
  6
Continuous
 62
     7
100
AcDbLine
 10
-193.2970579319721
 20
-207.6690999532889
 30
0.0
 11
-192.4310325281876
 21
-207.9190999532889
 31
0.0
  0
LINE
  5
EE
330
47
100
AcDbEntity
  8
0
  6
Continuous
 62
     7
100
AcDbLine
 10
-192.6712249070523
 20
-208.6869202763164
 30
0.0
 11
-192.9310325281876
 21
-208.3521126551811
 31
0.0
  0
LINE
  5
EF
330
47
100
AcDbEntity
  8
0
  6
Continuous
 62
     7
100
AcDbLine
 10
-192.4310325281876
 20
-207.9190999532889
 30
0.0
 11
-192.9310325281876
 21
-208.3521126551811
 31
0.0
  0
LINE
  5
F0
330
47
100
AcDbEntity
  8
0
  6
Continuous
 62
     7
100
AcDbLine
 10
-192.9310325281876
 20
-208.3521126551811
 30
0.0
 11
-193.7970579319721
 21
-208.1021126551811
 31
0.0
  0
LINE
  5
F1
330
47
100
AcDbEntity
  8
0
  6
Continuous
 62
     7
100
AcDbLine
 10
-192.1712249070523
 20
-208.2539075744242
 30
0.0
 11
-192.6712249070523
 21
-208.6869202763164
 31
0.0
  0
LINE
  5
F2
330
47
100
AcDbEntity
  8
0
  6
Continuous
 62
     7
100
AcDbLine
 10
-193.7970579319721
 20
-207.0628821706398
 30
0.0
 11
-192.9310325281876
 21
-207.3128821706398
 31
0.0
  0
LINE
  5
F3
330
47
100
AcDbEntity
  8
0
  6
Continuous
 62
     7
100
AcDbLine
 10
-192.4310325281876
 20
-207.9190999532889
 30
0.0
 11
-192.1712249070523
 21
-208.2539075744242
 31
0.0
  0
LINE
  5
F4
330
47
100
AcDbEntity
  8
0
  6
Continuous
 62
     7
100
AcDbLine
 10
-191.9013894230527
 20
-175.5011071884429
 30
0.0
 11
-192.3381934742129
 21
-175.20491479589
 31
0.0
  0
LINE
  5
F5
330
47
100
AcDbEntity
  8
0
  6
Continuous
 62
     2
100
AcDbLine
 10
-190.5095283070872
 20
-178.1054655600516
 30
0.0
 11
-192.1907446515676
 21
-179.3013565500062
 31
0.0
  0
LINE
  5
F6
330
47
100
AcDbEntity
  8
0
  6
Continuous
 62
     7
100
AcDbLine
 10
-191.3290299565688
 20
-177.7016880650616
 30
0.0
 11
-192.0533133832969
 21
-175.6326771974578
 31
0.0
  0
LINE
  5
F7
330
47
100
AcDbEntity
  8
0
  6
Continuous
 62
     7
100
AcDbLine
 10
-192.0533133832969
 20
-175.6326771974578
 30
0.0
 11
-190.6824434476197
 21
-174.6575433249743
 31
0.0
  0
LINE
  5
F8
330
47
100
AcDbEntity
  8
0
  6
Continuous
 62
     2
100
AcDbLine
 10
-185.8736621555095
 20
-175.0680165647636
 30
0.0
 11
-185.8736621555094
 21
-173.6930165647635
 31
0.0
  0
LINE
  5
F9
330
47
100
AcDbEntity
  8
0
  6
Continuous
 62
     7
100
AcDbLine
 10
-183.963717428462
 20
-208.2936022413708
 30
0.0
 11
-184.8582142511327
 21
-208.9298800733624
 31
0.0
  0
LINE
  5
FA
330
47
100
AcDbEntity
  8
0
  6
Continuous
 62
     7
100
AcDbLine
 10
-181.2499355534531
 20
-173.5843957909677
 30
0.0
 11
-183.2342490367515
 21
-173.0115738290982
 31
0.0
  0
LINE
  5
FB
330
47
100
AcDbEntity
  8
0
  6
Continuous
 62
     7
100
AcDbLine
 10
-192.0533133832969
 20
-175.6326771974578
 30
0.0
 11
-190.0158133832968
 21
-173.8681504372471
 31
0.0
  0
LINE
  5
FC
330
47
100
AcDbEntity
  8
0
  6
Continuous
 62
     7
100
AcDbLine
 10
-194.2282446515677
 20
-181.0658833102171
 30
0.0
 11
-190.3519271336133
 21
-178.3085622734904
 31
0.0
  0
LINE
  5
FD
330
47
100
AcDbEntity
  8
0
  6
Continuous
 62
     7
100
AcDbLine
 10
-190.6824434476197
 20
-174.6575433249743
 30
0.0
 11
-167.9925778684674
 21
-181.2075433249743
 31
0.0
  0
LINE
  5
FE
330
47
100
AcDbEntity
  8
0
  6
Continuous
 62
     7
100
AcDbLine
 10
-196.3951341433254
 20
-209.9501888665344
 30
0.0
 11
-192.6712249070523
 21
-211.0251888665344
 31
0.0
  0
LINE
  5
FF
330
47
100
AcDbEntity
  8
0
  6
Continuous
 62
     7
100
AcDbLine
 10
-163.3995662591383
 20
-216.0976894688319
 30
0.0
 11
-162.966553557246
 21
-215.7896767669397
 31
0.0
  0
LINE
  5
100
330
47
100
AcDbEntity
  8
0
  6
Continuous
 62
     7
100
AcDbLine
 10
-182.2986844334905
 20
-208.774255865299
 30
0.0
 11
-173.3321527248648
 21
-218.7152266142083
 31
0.0
  0
LINE
  5
101
330
47
100
AcDbEntity
  8
0
  6
Continuous
 62
     2
100
AcDbLine
 10
-169.6545644086569
 20
-216.312752978293
 30
0.0
 11
-170.1545644086569
 21
-216.7457656801852
 31
0.0
  0
LINE
  5
102
330
47
100
AcDbEntity
  8
0
  6
Continuous
 62
     7
100
AcDbLine
 10
-168.1545644086569
 20
-215.0137148726163
 30
0.0
 11
-168.1545644086569
 21
-217.6117914069129
 31
0.0
  0
LINE
  5
103
330
47
100
AcDbEntity
  8
0
  6
Continuous
 62
     7
100
AcDbLine
 10
-168.1545644086569
 20
-217.6117914069129
 30
0.0
 11
-169.6545644086569
 21
-217.1787787050207
 31
0.0
  0
LINE
  5
104
330
47
100
AcDbEntity
  8
0
  6
Continuous
 62
     7
100
AcDbLine
 10
-173.3321527248648
 20
-218.7152266142083
 30
0.0
 11
-172.6562304584964
 21
-218.9103485654279
 31
0.0
  0
LINE
  5
105
330
47
100
AcDbEntity
  8
0
  6
Continuous
 62
     7
100
AcDbLine
 10
-172.6562304584964
 20
-218.9103485654279
 30
0.0
 11
-172.4062304584964
 21
-218.6938422144817
 31
0.0
  0
LINE
  5
106
330
47
100
AcDbEntity
  8
0
  6
Continuous
 62
     7
100
AcDbLine
 10
-172.6562304584964
 20
-211.5577925643547
 30
0.0
 11
-172.6562304584964
 21
-218.9103485654279
 31
0.0
  0
LINE
  5
107
330
47
100
AcDbEntity
  8
0
  6
Continuous
 62
     7
100
AcDbLine
 10
-172.4062304584964
 20
-218.6938422144817
 30
0.0
 11
-172.4062304584964
 21
-211.6299613480034
 31
0.0
  0
LINE
  5
108
330
47
100
AcDbEntity
  8
0
  6
Continuous
 62
     7
100
AcDbLine
 10
-170.1545644086569
 20
-219.3438422144817
 30
0.0
 11
-169.6545644086569
 21
-218.9108295125895
 31
0.0
  0
LINE
  5
109
330
47
100
AcDbEntity
  8
0
  6
Continuous
 62
     7
100
AcDbLine
 10
-163.6774521375995
 20
-219.5393073675218
 30
0.0
 11
-159.6568750010055
 21
-220.6999480135769
 31
0.0
  0
LINE
  5
10A
330
47
100
AcDbEntity
  8
0
  6
Continuous
 62
     7
100
AcDbLine
 10
-159.6568750010055
 20
-220.6999480135769
 30
0.0
 11
-158.4068750010055
 21
-219.6174162588464
 31
0.0
  0
LINE
  5
10B
330
47
100
AcDbEntity
  8
0
  6
Continuous
 62
     7
100
AcDbLine
 10
-170.1545644086569
 20
-219.3438422144817
 30
0.0
 11
-172.4062304584964
 21
-218.6938422144817
 31
0.0
  0
LINE
  5
10C
330
47
100
AcDbEntity
  8
0
  6
Continuous
 62
     2
100
AcDbLine
 10
-179.6815805184507
 20
-176.8555165647636
 30
0.0
 11
-179.6815805184507
 21
-175.4805165647635
 31
0.0
  0
LINE
  5
10D
330
47
100
AcDbEntity
  8
0
  6
Continuous
 62
     2
100
AcDbLine
 10
-179.6815805184507
 20
-175.4805165647635
 30
0.0
 11
-181.110522434695
 21
-175.0680165647635
 31
0.0
  0
LINE
  5
10E
330
47
100
AcDbEntity
  8
0
  6
Continuous
 62
     7
100
AcDbLine
 10
-170.850085762634
 20
-176.5865738290982
 30
0.0
 11
-170.850085762634
 21
-179.3244593004288
 31
0.0
  0
LINE
  5
10F
330
47
100
AcDbEntity
  8
0
  6
Continuous
 62
     7
100
AcDbLine
 10
-168.8657722793356
 20
-177.1593957909677
 30
0.0
 11
-168.8657722793356
 21
-178.7516373385593
 31
0.0
  0
LINE
  5
110
330
47
100
AcDbEntity
  8
0
  6
Continuous
 62
     7
100
AcDbLine
 10
-168.8657722793356
 20
-177.1593957909677
 30
0.0
 11
-170.850085762634
 21
-176.5865738290982
 31
0.0
  0
LINE
  5
111
330
47
100
AcDbEntity
  8
0
  6
Continuous
 62
     7
100
AcDbLine
 10
-181.2499355534531
 20
-173.5843957909677
 30
0.0
 11
-181.249935553453
 21
-175.1766373385594
 31
0.0
  0
LINE
  5
112
330
47
100
AcDbEntity
  8
0
  6
Continuous
 62
     7
100
AcDbLine
 10
-183.2342490367515
 20
-173.0115738290982
 30
0.0
 11
-183.2342490367515
 21
-175.7494593004288
 31
0.0
  0
LINE
  5
113
330
47
100
AcDbEntity
  8
0
  6
Continuous
 62
     7
100
AcDbLine
 10
-173.350085762634
 20
-178.7516373385593
 30
0.0
 11
-171.3657722793356
 21
-179.3244593004288
 31
0.0
  0
LINE
  5
114
330
47
100
AcDbEntity
  8
0
  6
Continuous
 62
     7
100
AcDbLine
 10
-175.0578539163943
 20
-175.3718957909677
 30
0.0
 11
-175.0578539163943
 21
-176.9641373385594
 31
0.0
  0
LINE
  5
115
330
47
100
AcDbEntity
  8
0
  6
Continuous
 62
     7
100
AcDbLine
 10
-177.0421673996928
 20
-174.7990738290982
 30
0.0
 11
-177.0421673996927
 21
-177.5369593004288
 31
0.0
  0
LINE
  5
116
330
47
100
AcDbEntity
  8
0
  6
Continuous
 62
     7
100
AcDbLine
 10
-185.7342490367515
 20
-175.1766373385594
 30
0.0
 11
-183.7499355534531
 21
-175.7494593004288
 31
0.0
  0
LINE
  5
117
330
47
100
AcDbEntity
  8
0
  6
Continuous
 62
     7
100
AcDbLine
 10
-179.5421673996928
 20
-176.9641373385593
 30
0.0
 11
-177.5578539163943
 21
-177.5369593004288
 31
0.0
  0
LINE
  5
118
330
47
100
AcDbEntity
  8
0
  6
Continuous
 62
     2
100
AcDbLine
 10
-173.489498881392
 20
-178.6430165647635
 30
0.0
 11
-173.489498881392
 21
-177.2680165647635
 31
0.0
  0
LINE
  5
119
330
47
100
AcDbEntity
  8
0
  6
Continuous
 62
     2
100
AcDbLine
 10
-173.489498881392
 20
-177.2680165647635
 30
0.0
 11
-174.9184407976363
 21
-176.8555165647635
 31
0.0
  0
LINE
  5
11A
330
47
100
AcDbEntity
  8
0
  6
Continuous
 62
     7
100
AcDbLine
 10
-175.0578539163943
 20
-175.3718957909677
 30
0.0
 11
-177.0421673996928
 21
-174.7990738290982
 31
0.0
  0
LINE
  5
11B
330
47
100
AcDbEntity
  8
0
  6
Continuous
 62
     7
100
AcDbLine
 10
-162.466553557246
 20
-214.4992989153008
 30
0.0
 11
-162.466553557246
 21
-215.3566640650474
 31
0.0
  0
LINE
  5
11C
330
47
100
AcDbEntity
  8
0
  6
Continuous
 62
     7
100
AcDbLine
 10
-162.966553557246
 20
-214.3549613480034
 30
0.0
 11
-162.966553557246
 21
-215.7896767669397
 31
0.0
  0
LINE
  5
11D
330
47
100
AcDbEntity
  8
0
  6
Continuous
 62
     7
100
AcDbLine
 10
-163.0343740757648
 20
-215.8379191881467
 30
0.0
 11
-163.0343740757648
 21
-215.9144362369254
 31
0.0
  0
LINE
  5
11E
330
47
100
AcDbEntity
  8
0
  6
Continuous
 62
     7
100
AcDbLine
 10
-162.966553557246
 20
-215.7896767669397
 30
0.0
 11
-162.466553557246
 21
-215.3566640650474
 31
0.0
  0
LINE
  5
11F
330
47
100
AcDbEntity
  8
0
  6
Continuous
 62
     7
100
AcDbLine
 10
-184.8582142511327
 20
-212.5589226097925
 30
0.0
 11
-176.7821730199529
 21
-214.8902748991966
 31
0.0
  0
LINE
  5
120
330
47
100
AcDbEntity
  8
0
  6
Continuous
 62
     7
100
AcDbLine
 10
-163.9175778684674
 20
-177.6784898045528
 30
0.0
 11
-186.6074434476197
 21
-171.1284898045528
 31
0.0
  0
LINE
  5
121
330
47
100
AcDbEntity
  8
0
  6
Continuous
 62
     2
100
AcDbLine
 10
-165.9550778684674
 20
-179.4430165647635
 30
0.0
 11
-168.7263591605776
 21
-178.6430165647635
 31
0.0
  0
LINE
  5
122
330
47
100
AcDbEntity
  8
0
  6
Continuous
 62
     7
100
AcDbLine
 10
-167.9925778684674
 20
-181.2075433249743
 30
0.0
 11
-165.9550778684674
 21
-179.4430165647635
 31
0.0
  0
LINE
  5
123
330
47
100
AcDbEntity
  8
0
  6
Continuous
 62
     7
100
AcDbLine
 10
-163.2709913595183
 20
-181.0959414396361
 30
0.0
 11
-162.5467079327903
 21
-179.4450958034234
 31
0.0
  0
LINE
  5
124
330
47
100
AcDbEntity
  8
0
  6
Continuous
 62
     7
100
AcDbLine
 10
-164.5842079327902
 20
-181.2096225636342
 30
0.0
 11
-162.5467079327903
 21
-179.4450958034234
 31
0.0
  0
LINE
  5
125
330
47
100
AcDbEntity
  8
0
  6
Continuous
 62
     7
100
AcDbLine
 10
-165.3084913595183
 20
-182.8604681998469
 30
0.0
 11
-163.2709913595183
 21
-181.0959414396361
 31
0.0
  0
LINE
  5
126
330
47
100
AcDbEntity
  8
0
  6
Continuous
 62
     2
100
AcDbLine
 10
-164.5842079327902
 20
-181.2096225636342
 30
0.0
 11
-165.9550778684674
 21
-179.4430165647635
 31
0.0
  0
LINE
  5
127
330
47
100
AcDbEntity
  8
0
  6
Continuous
 62
     7
100
AcDbLine
 10
-167.3459913595183
 20
-184.6249949600577
 30
0.0
 11
-165.3084913595183
 21
-182.8604681998469
 31
0.0
  0
LINE
  5
128
330
47
100
AcDbEntity
  8
0
  6
Continuous
 62
     7
100
AcDbLine
 10
-166.6217079327903
 20
-182.974149323845
 30
0.0
 11
-167.9925778684674
 21
-181.2075433249743
 31
0.0
  0
LINE
  5
129
330
47
100
AcDbEntity
  8
0
  6
Continuous
 62
     2
100
AcDbLine
 10
-165.3084913595183
 20
-182.8604681998469
 30
0.0
 11
-164.5842079327902
 21
-181.2096225636342
 31
0.0
  0
LINE
  5
12A
330
47
100
AcDbEntity
  8
0
  6
Continuous
 62
     7
100
AcDbLine
 10
-169.6545644086569
 20
-216.312752978293
 30
0.0
 11
-169.6545644086569
 21
-218.9108295125895
 31
0.0
  0
LINE
  5
12B
330
47
100
AcDbEntity
  8
0
  6
Continuous
 62
     7
100
AcDbLine
 10
-170.1545644086569
 20
-216.7457656801852
 30
0.0
 11
-170.1545644086569
 21
-219.3438422144817
 31
0.0
  0
LINE
  5
12C
330
47
100
AcDbEntity
  8
0
  6
Continuous
 62
     7
100
AcDbLine
 10
-164.4200147218199
 20
-216.5536667214668
 30
0.0
 11
-164.4200147218199
 21
-215.7587620683913
 31
0.0
  0
LINE
  5
12D
330
47
100
AcDbEntity
  8
0
  6
Continuous
 62
     7
100
AcDbLine
 10
-163.6774521375995
 20
-219.5393073675218
 30
0.0
 11
-164.4200147218199
 21
-216.5536667214668
 31
0.0
  0
LINE
  5
12E
330
47
100
AcDbEntity
  8
0
  6
Continuous
 62
     7
100
AcDbLine
 10
-163.3995662591383
 20
-216.0976894688319
 30
0.0
 11
-163.8325789610305
 21
-215.5396767669397
 31
0.0
  0
LINE
  5
12F
330
47
100
AcDbEntity
  8
0
  6
Continuous
 62
     7
100
AcDbLine
 10
-167.6545644086569
 20
-217.1787787050207
 30
0.0
 11
-168.1545644086569
 21
-217.6117914069129
 31
0.0
  0
LINE
  5
130
330
47
100
AcDbEntity
  8
0
  6
Continuous
 62
     7
100
AcDbLine
 10
-163.7490533899237
 20
-208.9329206807782
 30
0.0
 11
-163.4740533899237
 21
-208.6947636947375
 31
0.0
  0
LINE
  5
131
330
47
100
AcDbEntity
  8
0
  6
Continuous
 62
     7
100
AcDbLine
 10
-167.3459913595183
 20
-184.6249949600577
 30
0.0
 11
-167.6721383112465
 21
-184.2046974931417
 31
0.0
  0
LINE
  5
132
330
47
100
AcDbEntity
  8
0
  6
Continuous
 62
     2
100
AcDbLine
 10
-168.1545644086569
 20
-215.0137148726163
 30
0.0
 11
-167.6545644086569
 21
-214.5807021707241
 31
0.0
  0
LINE
  5
133
330
47
100
AcDbEntity
  8
0
  6
Continuous
 62
     7
100
AcDbLine
 10
-167.3459913595183
 20
-184.6249949600577
 30
0.0
 11
-166.6217079327903
 21
-182.974149323845
 31
0.0
  0
LINE
  5
134
330
47
100
AcDbEntity
  8
0
  6
Continuous
 62
     7
100
AcDbLine
 10
-167.6721383112465
 20
-184.2046974931417
 30
0.0
 11
-168.3230941824738
 21
-184.6677385906272
 31
0.0
  0
LINE
  5
135
330
47
100
AcDbEntity
  8
0
  6
Continuous
 62
     7
100
AcDbLine
 10
-163.7490533899236
 20
-194.4160024435756
 30
0.0
 11
-163.4740533899236
 21
-194.1778454575349
 31
0.0
  0
LINE
  5
136
330
47
100
AcDbEntity
  8
0
  6
Continuous
 62
     7
100
AcDbLine
 10
-163.4740533899237
 20
-208.6947636947375
 30
0.0
 11
-163.4740533899236
 21
-194.1778454575349
 31
0.0
  0
LINE
  5
137
330
47
100
AcDbEntity
  8
0
  6
Continuous
 62
     7
100
AcDbLine
 10
-163.7958207932921
 20
-189.2000114923238
 30
0.0
 11
-164.4467766645194
 21
-189.6630525898093
 31
0.0
  0
LINE
  5
138
330
47
100
AcDbEntity
  8
0
  6
Continuous
 62
     7
100
AcDbLine
 10
-164.4467766645194
 20
-189.6630525898093
 30
0.0
 11
-163.8425573220794
 21
-189.1397832897983
 31
0.0
  0
LINE
  5
139
330
47
100
AcDbEntity
  8
0
  6
Continuous
 62
     7
100
AcDbLine
 10
-167.6545644086569
 20
-214.5807021707241
 30
0.0
 11
-167.6545644086569
 21
-217.1787787050207
 31
0.0
  0
LINE
  5
13A
330
47
100
AcDbEntity
  8
0
  6
Continuous
 62
     7
100
AcDbLine
 10
-168.3230941824738
 20
-184.6677385906272
 30
0.0
 11
-164.4467766645194
 21
-189.6630525898093
 31
0.0
  0
LINE
  5
13B
330
47
100
AcDbEntity
  8
0
  6
Continuous
 62
     7
100
AcDbLine
 10
-166.6217079327903
 20
-182.974149323845
 30
0.0
 11
-164.5842079327902
 21
-181.2096225636342
 31
0.0
  0
LINE
  5
13C
330
47
100
AcDbEntity
  8
0
  6
Continuous
 62
     2
100
AcDbLine
 10
-162.6884754362223
 20
-187.5387293148955
 30
0.0
 11
-165.9127107019583
 21
-183.3837374998579
 31
0.0
  0
LINE
  5
13D
330
47
100
AcDbEntity
  8
0
  6
Continuous
 62
     7
100
AcDbLine
 10
-165.9550778684674
 20
-179.4430165647635
 30
0.0
 11
-163.9175778684674
 21
-177.6784898045528
 31
0.0
  0
LINE
  5
13E
330
47
100
AcDbEntity
  8
0
  6
Continuous
 62
     7
100
AcDbLine
 10
-197.7405504884629
 20
-200.1596511653195
 30
0.0
 11
-195.7030504884629
 21
-198.3951244051087
 31
0.0
  0
LINE
  5
13F
330
47
100
AcDbEntity
  8
0
  6
Continuous
 62
     7
100
AcDbLine
 10
-197.7405504884629
 20
-204.3165731034848
 30
0.0
 11
-197.7405504884629
 21
-200.1596511653195
 31
0.0
  0
LINE
  5
140
330
47
100
AcDbEntity
  8
0
  6
Continuous
 62
     7
100
AcDbLine
 10
-190.9310325281876
 20
-206.6200618476122
 30
0.0
 11
-191.7970579319721
 21
-206.3700618476122
 31
0.0
  0
LINE
  5
141
330
47
100
AcDbEntity
  8
0
  6
Continuous
 62
     7
100
AcDbLine
 10
-190.6385322485106
 20
-206.3667491747978
 30
0.0
 11
-190.9310325281876
 21
-206.6200618476122
 31
0.0
  0
LINE
  5
142
330
47
100
AcDbEntity
  8
0
  6
Continuous
 62
     7
100
AcDbLine
 10
-192.1712249070523
 20
-210.5921761646422
 30
0.0
 11
-192.6712249070523
 21
-211.0251888665344
 31
0.0
  0
LINE
  5
143
330
47
100
AcDbEntity
  8
0
  6
Continuous
 62
     7
100
AcDbLine
 10
-192.1712249070523
 20
-208.8601253570733
 30
0.0
 11
-190.6712249070523
 21
-209.2931380589656
 31
0.0
  0
LINE
  5
144
330
47
100
AcDbEntity
  8
0
  6
Continuous
 62
     7
100
AcDbLine
 10
-191.7970579319721
 20
-206.3700618476122
 30
0.0
 11
-191.7970579319721
 21
-206.0323116171931
 31
0.0
  0
LINE
  5
145
330
47
100
AcDbEntity
  8
0
  6
Continuous
 62
     7
100
AcDbLine
 10
-191.504557652295
 20
-206.1167491747978
 30
0.0
 11
-191.7970579319721
 21
-206.3700618476122
 31
0.0
  0
LINE
  5
146
330
47
100
AcDbEntity
  8
0
  6
Continuous
 62
     7
100
AcDbLine
 10
-190.1914324894172
 20
-206.4958157579314
 30
0.0
 11
-190.1712249070523
 21
-206.5218567668553
 31
0.0
  0
LINE
  5
147
330
47
100
AcDbEntity
  8
0
  6
Continuous
 62
     7
100
AcDbLine
 10
-190.6712249070523
 20
-206.9548694687476
 30
0.0
 11
-190.9310325281876
 21
-206.6200618476122
 31
0.0
  0
LINE
  5
148
330
47
100
AcDbEntity
  8
0
  6
Continuous
 62
     7
100
AcDbLine
 10
-190.1712249070523
 20
-206.5218567668553
 30
0.0
 11
-190.6712249070523
 21
-206.9548694687476
 31
0.0
  0
LINE
  5
149
330
47
100
AcDbEntity
  8
0
  6
Continuous
 62
     7
100
AcDbLine
 10
-190.6712249070523
 20
-206.9548694687476
 30
0.0
 11
-190.6712249070523
 21
-209.2931380589656
 31
0.0
  0
LINE
  5
14A
330
47
100
AcDbEntity
  8
0
  6
Continuous
 62
     7
100
AcDbLine
 10
-190.1712249070523
 20
-208.8601253570733
 30
0.0
 11
-190.6712249070523
 21
-209.2931380589656
 31
0.0
  0
LINE
  5
14B
330
47
100
AcDbEntity
  8
0
  6
Continuous
 62
     7
100
AcDbLine
 10
-190.1712249070523
 20
-206.5218567668553
 30
0.0
 11
-190.1712249070523
 21
-208.8601253570733
 31
0.0
  0
LINE
  5
14C
330
47
100
AcDbEntity
  8
0
  6
Continuous
 62
     7
100
AcDbLine
 10
-196.3951341433254
 20
-204.7049613480034
 30
0.0
 11
-196.3951341433254
 21
-209.9501888665344
 31
0.0
  0
LINE
  5
14D
330
47
100
AcDbEntity
  8
0
  6
Continuous
 62
     7
100
AcDbLine
 10
-192.6712249070523
 20
-211.0251888665344
 30
0.0
 11
-192.6712249070523
 21
-208.6869202763164
 31
0.0
  0
LINE
  5
14E
330
47
100
AcDbEntity
  8
0
  6
Continuous
 62
     7
100
AcDbLine
 10
-160.9344708276242
 20
-214.9415731034848
 30
0.0
 11
-197.7405504884629
 21
-204.3165731034848
 31
0.0
  0
SPLINE
  5
14F
330
47
100
AcDbEntity
  8
0
  6
Continuous
 62
     7
100
AcDbSpline
210
0.0
220
0.0
230
1.0
 70
     8
 71
     3
 72
    13
 73
     9
 74
     7
 42
0.000000001
 43
0.0000000001
 44
0.00000001
 40
0.0
 40
0.0
 40
0.0
 40
0.0
 40
0.5222145098627281
 40
1.037295540200863
 40
1.531611808027542
 40
1.992940894062937
 40
2.411560280877781
 40
2.781660215887403
 40
2.781660215887403
 40
2.781660215887403
 40
2.781660215887403
 10
-183.2342490367515
 20
-173.0115738290982
 30
0.0
 10
-183.4084228975996
 20
-173.0081578897422
 30
0.0
 10
-183.7543913944989
 20
-173.0013726871811
 30
0.0
 10
-184.2634393947382
 20
-173.0528693943525
 30
0.0
 10
-184.7455575856605
 20
-173.1469858889444
 30
0.0
 10
-185.1822600785681
 20
-173.2869625727151
 30
0.0
 10
-185.5646800165463
 20
-173.4595080729981
 30
0.0
 10
-185.7749804450899
 20
-173.6184393762041
 30
0.0
 10
-185.8736621555094
 20
-173.6930165647635
 30
0.0
 11
-183.2342490367515
 21
-173.0115738290982
 31
0.0
 11
-183.7564634502245
 21
-173.0118851954774
 31
0.0
 11
-184.2691445013945
 21
-173.0615501257765
 31
0.0
 11
-184.7538045235316
 21
-173.1587778795009
 31
0.0
 11
-185.192966541961
 21
-173.3000621700326
 31
0.0
 11
-185.5707938826603
 21
-173.4803083780754
 31
0.0
 11
-185.8736621555094
 21
-173.6930165647635
 31
0.0
  0
SPLINE
  5
150
330
47
100
AcDbEntity
  8
0
  6
Continuous
 62
     7
100
AcDbSpline
210
0.0
220
0.0
230
1.0
 70
     8
 71
     3
 72
    11
 73
     7
 74
     5
 42
0.000000001
 43
0.0000000001
 44
0.00000001
 40
0.0
 40
0.0
 40
0.0
 40
0.0
 40
0.5262879529531165
 40
1.026763202960078
 40
1.507077892636956
 40
1.976280232637715
 40
1.976280232637715
 40
1.976280232637715
 40
1.976280232637715
 10
-170.1545644086569
 20
-216.7457656801852
 30
0.0
 10
-170.145870001345
 20
-216.5699231992095
 30
0.0
 10
-170.128907604386
 20
-216.2268627374665
 30
0.0
 10
-169.9808763675434
 20
-215.7425627972434
 30
0.0
 10
-169.7515960849022
 20
-215.310336707001
 30
0.0
 10
-169.5261614948569
 20
-215.0859129896199
 30
0.0
 10
-169.4147633428893
 20
-214.9750143691206
 30
0.0
 11
-170.1545644086569
 21
-216.7457656801852
 31
0.0
 11
-170.1064408283671
 21
-216.221682546532
 31
0.0
 11
-169.9635984849617
 21
-215.7420248114751
 31
0.0
 11
-169.7305727845961
 21
-215.3220233515238
 31
0.0
 11
-169.4147633428893
 21
-214.9750143691206
 31
0.0
  0
SPLINE
  5
151
330
47
100
AcDbEntity
  8
0
  6
Continuous
 62
     7
100
AcDbSpline
210
0.0
220
0.0
230
1.0
 70
     8
 71
     3
 72
    11
 73
     7
 74
     5
 42
0.000000001
 43
0.0000000001
 44
0.00000001
 40
0.0
 40
0.0
 40
0.0
 40
0.0
 40
0.2139371523813608
 40
0.4421302785407487
 40
0.6952745863400897
 40
0.9792870575976352
 40
0.9792870575976352
 40
0.9792870575976352
 40
0.9792870575976352
 10
-180.7420922951022
 20
-174.3805165647635
 30
0.0
 10
-180.748743226305
 20
-174.3089457235093
 30
0.0
 10
-180.762488296534
 20
-174.1610348295597
 30
0.0
 10
-180.8697401043787
 20
-173.950531654995
 30
0.0
 10
-181.0319214090435
 20
-173.7514514512578
 30
0.0
 10
-181.1745324151015
 20
-173.6421742426562
 30
0.0
 10
-181.2499355534531
 20
-173.5843957909677
 30
0.0
 11
-180.7420922951022
 21
-174.3805165647635
 31
0.0
 11
-180.7747955822254
 21
-174.1690937627897
 31
0.0
 11
-180.87212750149
 21
-173.962699475527
 31
0.0
 11
-181.0317732104986
 21
-173.7662426371619
 31
0.0
 11
-181.2499355534531
 21
-173.5843957909677
 31
0.0
  0
SPLINE
  5
152
330
47
100
AcDbEntity
  8
0
  6
Continuous
 62
     7
100
AcDbSpline
210
0.0
220
0.0
230
1.0
 70
     8
 71
     3
 72
    11
 73
     7
 74
     5
 42
0.000000001
 43
0.0000000001
 44
0.00000001
 40
0.0
 40
0.0
 40
0.0
 40
0.0
 40
0.5638687717378811
 40
1.146625495300328
 40
1.762258297290154
 40
2.417252465941813
 40
2.417252465941813
 40
2.417252465941813
 40
2.417252465941813
 10
-169.4147633428893
 20
-214.9750143691206
 30
0.0
 10
-169.2617690869079
 20
-214.8635398370838
 30
0.0
 10
-168.9506557078162
 20
-214.6368567152997
 30
0.0
 10
-168.3749950264528
 20
-214.4761044504454
 30
0.0
 10
-167.7517690862163
 20
-214.4447899859855
 30
0.0
 10
-167.3371876469155
 20
-214.5403939645604
 30
0.0
 10
-167.1234754954113
 20
-214.5896767669397
 30
0.0
 11
-169.4147633428893
 21
-214.9750143691206
 31
0.0
 11
-168.9404377621686
 21
-214.6701156360201
 31
0.0
 11
-168.3830129899645
 21
-214.5001655683413
 31
0.0
 11
-167.7679825834057
 21
-214.4729378489749
 31
0.0
 11
-167.1234754954113
 21
-214.5896767669397
 31
0.0
  0
SPLINE
  5
153
330
47
100
AcDbEntity
  8
0
  6
Continuous
 62
     7
100
AcDbSpline
210
0.0
220
0.0
230
1.0
 70
     8
 71
     3
 72
     9
 73
     5
 74
     3
 42
0.000000001
 43
0.0000000001
 44
0.00000001
 40
0.0
 40
0.0
 40
0.0
 40
0.0
 40
0.4306373060047897
 40
0.7986432292268923
 40
0.7986432292268923
 40
0.7986432292268923
 40
0.7986432292268923
 10
-179.6815805184507
 20
-175.4805165647635
 30
0.0
 10
-179.7879905398479
 20
-175.5834352931516
 30
0.0
 10
-179.9853344181682
 20
-175.7743043815786
 30
0.0
 10
-180.029609295201
 20
-176.0438246278941
 30
0.0
 10
-180.0500106580435
 20
-176.1680165647636
 30
0.0
 11
-179.6815805184507
 21
-175.4805165647635
 31
0.0
 11
-179.9563059721546
 21
-175.8121404726262
 31
0.0
 11
-180.0500106580435
 21
-176.1680165647636
 31
0.0
  0
SPLINE
  5
154
330
47
100
AcDbEntity
  8
0
  6
Continuous
 62
     7
100
AcDbSpline
210
0.0
220
0.0
230
1.0
 70
     8
 71
     3
 72
    11
 73
     7
 74
     5
 42
0.000000001
 43
0.0000000001
 44
0.00000001
 40
0.0
 40
0.0
 40
0.0
 40
0.0
 40
0.2139371523813327
 40
0.4421302785406964
 40
0.6952745863400331
 40
0.9792870575974295
 40
0.9792870575974295
 40
0.9792870575974295
 40
0.9792870575974295
 10
-180.0500106580435
 20
-176.1680165647636
 30
0.0
 10
-180.0433597268407
 20
-176.2395874060177
 30
0.0
 10
-180.0296146566116
 20
-176.3874982999673
 30
0.0
 10
-179.9223628487672
 20
-176.5980014745322
 30
0.0
 10
-179.7601815441021
 20
-176.7970816782691
 30
0.0
 10
-179.6175705380443
 20
-176.9063588868708
 30
0.0
 10
-179.5421673996928
 20
-176.9641373385593
 30
0.0
 11
-180.0500106580435
 21
-176.1680165647636
 31
0.0
 11
-180.0173073709203
 21
-176.3794393667374
 31
0.0
 11
-179.9199754516557
 21
-176.5858336540001
 31
0.0
 11
-179.7603297426471
 21
-176.7822904923651
 31
0.0
 11
-179.5421673996928
 21
-176.9641373385593
 31
0.0
  0
SPLINE
  5
155
330
47
100
AcDbEntity
  8
0
  6
Continuous
 62
     7
100
AcDbSpline
210
0.0
220
0.0
230
1.0
 70
     8
 71
     3
 72
    11
 73
     7
 74
     5
 42
0.000000001
 43
0.0000000001
 44
0.00000001
 40
0.0
 40
0.0
 40
0.0
 40
0.0
 40
0.2139371523813521
 40
0.4421302785407536
 40
0.6952745863401083
 40
0.9792870575976067
 40
0.9792870575976067
 40
0.9792870575976067
 40
0.9792870575976067
 10
-168.3579290209848
 20
-177.9555165647635
 30
0.0
 10
-168.3645799521875
 20
-177.8839457235094
 30
0.0
 10
-168.3783250224166
 20
-177.7360348295597
 30
0.0
 10
-168.4855768302612
 20
-177.525531654995
 30
0.0
 10
-168.6477581349262
 20
-177.3264514512578
 30
0.0
 10
-168.7903691409841
 20
-177.2171742426562
 30
0.0
 10
-168.8657722793356
 20
-177.1593957909677
 30
0.0
 11
-168.3579290209848
 21
-177.9555165647635
 31
0.0
 11
-168.390632308108
 21
-177.7440937627897
 31
0.0
 11
-168.4879642273725
 21
-177.537699475527
 31
0.0
 11
-168.6476099363812
 21
-177.3412426371619
 31
0.0
 11
-168.8657722793356
 21
-177.1593957909677
 31
0.0
  0
SPLINE
  5
156
330
47
100
AcDbEntity
  8
0
  6
Continuous
 62
     7
100
AcDbSpline
210
0.0
220
0.0
230
1.0
 70
     8
 71
     3
 72
    13
 73
     9
 74
     7
 42
0.000000001
 43
0.0000000001
 44
0.00000001
 40
0.0
 40
0.0
 40
0.0
 40
0.0
 40
0.5222145098628418
 40
1.037295540200945
 40
1.531611808027619
 40
1.992940894063023
 40
2.411560280877814
 40
2.781660215887506
 40
2.781660215887506
 40
2.781660215887506
 40
2.781660215887506
 10
-171.3657722793356
 20
-179.3244593004288
 30
0.0
 10
-171.1915984184875
 20
-179.3278752397848
 30
0.0
 10
-170.8456299215881
 20
-179.3346604423459
 30
0.0
 10
-170.3365819213488
 20
-179.2831637351746
 30
0.0
 10
-169.8544637304265
 20
-179.1890472405827
 30
0.0
 10
-169.4177612375189
 20
-179.0490705568119
 30
0.0
 10
-169.0353412995407
 20
-178.8765250565288
 30
0.0
 10
-168.8250408709972
 20
-178.7175937533229
 30
0.0
 10
-168.7263591605776
 20
-178.6430165647635
 30
0.0
 11
-171.3657722793356
 21
-179.3244593004288
 31
0.0
 11
-170.8435578658624
 21
-179.3241479340496
 31
0.0
 11
-170.3308768146925
 21
-179.2744830037506
 31
0.0
 11
-169.8462167925554
 21
-179.1772552500261
 31
0.0
 11
-169.407054774126
 21
-179.0359709594944
 31
0.0
 11
-169.0292274334268
 21
-178.8557247514516
 31
0.0
 11
-168.7263591605776
 21
-178.6430165647635
 31
0.0
  0
SPLINE
  5
157
330
47
100
AcDbEntity
  8
0
  6
Continuous
 62
     7
100
AcDbSpline
210
0.0
220
0.0
230
1.0
 70
     8
 71
     3
 72
     9
 73
     5
 74
     3
 42
0.000000001
 43
0.0000000001
 44
0.00000001
 40
0.0
 40
0.0
 40
0.0
 40
0.0
 40
0.4306373060047678
 40
0.798643229226788
 40
0.798643229226788
 40
0.798643229226788
 40
0.798643229226788
 10
-181.110522434695
 20
-175.0680165647635
 30
0.0
 10
-181.0041124132978
 20
-174.9650978363753
 30
0.0
 10
-180.8067685349776
 20
-174.7742287479485
 30
0.0
 10
-180.7624936579447
 20
-174.5047085016329
 30
0.0
 10
-180.7420922951022
 20
-174.3805165647635
 30
0.0
 11
-181.110522434695
 21
-175.0680165647635
 31
0.0
 11
-180.8357969809911
 21
-174.7363926569008
 31
0.0
 11
-180.7420922951022
 21
-174.3805165647635
 31
0.0
  0
SPLINE
  5
158
330
47
100
AcDbEntity
  8
0
  6
Continuous
 62
     7
100
AcDbSpline
210
0.0
220
0.0
230
1.0
 70
     8
 71
     3
 72
    13
 73
     9
 74
     7
 42
0.000000001
 43
0.0000000001
 44
0.00000001
 40
0.0
 40
0.0
 40
0.0
 40
0.0
 40
0.5222145098628418
 40
1.037295540200945
 40
1.531611808027652
 40
1.992940894063038
 40
2.411560280877868
 40
2.781660215887583
 40
2.781660215887583
 40
2.781660215887583
 40
2.781660215887583
 10
-183.7499355534531
 20
-175.7494593004288
 30
0.0
 10
-183.5757616926049
 20
-175.7528752397848
 30
0.0
 10
-183.2297931957056
 20
-175.7596604423458
 30
0.0
 10
-182.7207451954665
 20
-175.7081637351747
 30
0.0
 10
-182.2386270045439
 20
-175.6140472405827
 30
0.0
 10
-181.8019245116364
 20
-175.4740705568119
 30
0.0
 10
-181.4195045736582
 20
-175.3015250565289
 30
0.0
 10
-181.2092041451146
 20
-175.1425937533228
 30
0.0
 10
-181.110522434695
 20
-175.0680165647635
 30
0.0
 11
-183.7499355534531
 21
-175.7494593004288
 31
0.0
 11
-183.2277211399799
 21
-175.7491479340497
 31
0.0
 11
-182.71504008881
 21
-175.6994830037506
 31
0.0
 11
-182.2303800666729
 21
-175.6022552500261
 31
0.0
 11
-181.7912180482435
 21
-175.4609709594944
 31
0.0
 11
-181.4133907075443
 21
-175.2807247514515
 31
0.0
 11
-181.110522434695
 21
-175.0680165647635
 31
0.0
  0
SPLINE
  5
159
330
47
100
AcDbEntity
  8
0
  6
Continuous
 62
     7
100
AcDbSpline
210
0.0
220
0.0
230
1.0
 70
     8
 71
     3
 72
     9
 73
     5
 74
     3
 42
0.000000001
 43
0.0000000001
 44
0.00000001
 40
0.0
 40
0.0
 40
0.0
 40
0.0
 40
0.4306373060048478
 40
0.7986432292269303
 40
0.7986432292269303
 40
0.7986432292269303
 40
0.7986432292269303
 10
-185.8736621555094
 20
-173.6930165647635
 30
0.0
 10
-185.9800721769067
 20
-173.7959352931517
 30
0.0
 10
-186.1774160552269
 20
-173.9868043815786
 30
0.0
 10
-186.2216909322597
 20
-174.2563246278941
 30
0.0
 10
-186.2420922951023
 20
-174.3805165647636
 30
0.0
 11
-185.8736621555094
 21
-173.6930165647635
 31
0.0
 11
-186.1483876092134
 21
-174.0246404726262
 31
0.0
 11
-186.2420922951023
 21
-174.3805165647636
 31
0.0
  0
SPLINE
  5
15A
330
47
100
AcDbEntity
  8
0
  6
Continuous
 62
     7
100
AcDbSpline
210
0.0
220
0.0
230
1.0
 70
     8
 71
     3
 72
    13
 73
     9
 74
     7
 42
0.000000001
 43
0.0000000001
 44
0.00000001
 40
0.0
 40
0.0
 40
0.0
 40
0.0
 40
0.5222145098628418
 40
1.037295540200948
 40
1.531611808027605
 40
1.992940894062946
 40
2.411560280877752
 40
2.781660215887483
 40
2.781660215887483
 40
2.781660215887483
 40
2.781660215887483
 10
-170.850085762634
 20
-176.5865738290982
 30
0.0
 10
-171.0242596234821
 20
-176.5831578897422
 30
0.0
 10
-171.3702281203815
 20
-176.5763726871812
 30
0.0
 10
-171.8792761206208
 20
-176.6278693943524
 30
0.0
 10
-172.361394311543
 20
-176.7219858889443
 30
0.0
 10
-172.7980968044506
 20
-176.8619625727152
 30
0.0
 10
-173.1805167424288
 20
-177.0345080729981
 30
0.0
 10
-173.3908171709724
 20
-177.1934393762041
 30
0.0
 10
-173.489498881392
 20
-177.2680165647635
 30
0.0
 11
-170.850085762634
 21
-176.5865738290982
 31
0.0
 11
-171.3723001761072
 21
-176.5868851954774
 31
0.0
 11
-171.8849812272771
 21
-176.6365501257765
 31
0.0
 11
-172.3696412494141
 21
-176.733777879501
 31
0.0
 11
-172.8088032678435
 21
-176.8750621700327
 31
0.0
 11
-173.1866306085427
 21
-177.0553083780754
 31
0.0
 11
-173.489498881392
 21
-177.2680165647635
 31
0.0
  0
SPLINE
  5
15B
330
47
100
AcDbEntity
  8
0
  6
Continuous
 62
     7
100
AcDbSpline
210
0.0
220
0.0
230
1.0
 70
     8
 71
     3
 72
    11
 73
     7
 74
     5
 42
0.000000001
 43
0.0000000001
 44
0.00000001
 40
0.0
 40
0.0
 40
0.0
 40
0.0
 40
0.2139371523814126
 40
0.442130278540802
 40
0.6952745863401967
 40
0.9792870575976731
 40
0.9792870575976731
 40
0.9792870575976731
 40
0.9792870575976731
 10
-174.5500106580435
 20
-176.1680165647636
 30
0.0
 10
-174.5566615892463
 20
-176.0964457235095
 30
0.0
 10
-174.5704066594753
 20
-175.9485348295598
 30
0.0
 10
-174.6776584673198
 20
-175.738031654995
 30
0.0
 10
-174.8398397719849
 20
-175.5389514512579
 30
0.0
 10
-174.9824507780428
 20
-175.4296742426562
 30
0.0
 10
-175.0578539163943
 20
-175.3718957909677
 30
0.0
 11
-174.5500106580435
 21
-176.1680165647636
 31
0.0
 11
-174.5827139451667
 21
-175.9565937627898
 31
0.0
 11
-174.6800458644312
 21
-175.750199475527
 31
0.0
 11
-174.8396915734399
 21
-175.5537426371619
 31
0.0
 11
-175.0578539163943
 21
-175.3718957909677
 31
0.0
  0
SPLINE
  5
15C
330
47
100
AcDbEntity
  8
0
  6
Continuous
 62
     7
100
AcDbSpline
210
0.0
220
0.0
230
1.0
 70
     8
 71
     3
 72
    13
 73
     9
 74
     7
 42
0.000000001
 43
0.0000000001
 44
0.00000001
 40
0.0
 40
0.0
 40
0.0
 40
0.0
 40
0.5222145098627281
 40
1.037295540200834
 40
1.531611808027519
 40
1.992940894062815
 40
2.411560280877671
 40
2.781660215887337
 40
2.781660215887337
 40
2.781660215887337
 40
2.781660215887337
 10
-177.0421673996928
 20
-174.7990738290982
 30
0.0
 10
-177.2163412605409
 20
-174.7956578897422
 30
0.0
 10
-177.5623097574402
 20
-174.7888726871811
 30
0.0
 10
-178.0713577576794
 20
-174.8403693943525
 30
0.0
 10
-178.5534759486018
 20
-174.9344858889444
 30
0.0
 10
-178.9901784415094
 20
-175.0744625727152
 30
0.0
 10
-179.3725983794875
 20
-175.2470080729983
 30
0.0
 10
-179.5828988080311
 20
-175.4059393762041
 30
0.0
 10
-179.6815805184507
 20
-175.4805165647635
 30
0.0
 11
-177.0421673996928
 21
-174.7990738290982
 31
0.0
 11
-177.5643818131659
 21
-174.7993851954774
 31
0.0
 11
-178.0770628643357
 21
-174.8490501257765
 31
0.0
 11
-178.5617228864729
 21
-174.946277879501
 31
0.0
 11
-179.0008849049021
 21
-175.0875621700327
 31
0.0
 11
-179.3787122456014
 21
-175.2678083780755
 31
0.0
 11
-179.6815805184507
 21
-175.4805165647635
 31
0.0
  0
SPLINE
  5
15D
330
47
100
AcDbEntity
  8
0
  6
Continuous
 62
     7
100
AcDbSpline
210
0.0
220
0.0
230
1.0
 70
     8
 71
     3
 72
     9
 73
     5
 74
     3
 42
0.000000001
 43
0.0000000001
 44
0.00000001
 40
0.0
 40
0.0
 40
0.0
 40
0.0
 40
0.4306373060047097
 40
0.7986432292266548
 40
0.7986432292266548
 40
0.7986432292266548
 40
0.7986432292266548
 10
-174.9184407976363
 20
-176.8555165647635
 30
0.0
 10
-174.8120307762391
 20
-176.7525978363754
 30
0.0
 10
-174.6146868979189
 20
-176.5617287479484
 30
0.0
 10
-174.570412020886
 20
-176.2922085016331
 30
0.0
 10
-174.5500106580435
 20
-176.1680165647636
 30
0.0
 11
-174.9184407976363
 21
-176.8555165647635
 31
0.0
 11
-174.6437153439324
 21
-176.5238926569008
 31
0.0
 11
-174.5500106580435
 21
-176.1680165647636
 31
0.0
  0
SPLINE
  5
15E
330
47
100
AcDbEntity
  8
0
  6
Continuous
 62
     7
100
AcDbSpline
210
0.0
220
0.0
230
1.0
 70
     8
 71
     3
 72
    13
 73
     9
 74
     7
 42
0.000000001
 43
0.0000000001
 44
0.00000001
 40
0.0
 40
0.0
 40
0.0
 40
0.0
 40
0.5222145098627281
 40
1.037295540200891
 40
1.531611808027564
 40
1.992940894062888
 40
2.411560280877731
 40
2.781660215887502
 40
2.781660215887502
 40
2.781660215887502
 40
2.781660215887502
 10
-177.5578539163943
 20
-177.5369593004288
 30
0.0
 10
-177.3836800555462
 20
-177.5403752397848
 30
0.0
 10
-177.0377115586468
 20
-177.5471604423459
 30
0.0
 10
-176.5286635584077
 20
-177.4956637351746
 30
0.0
 10
-176.0465453674853
 20
-177.4015472405827
 30
0.0
 10
-175.6098428745777
 20
-177.2615705568119
 30
0.0
 10
-175.2274229365995
 20
-177.089025056529
 30
0.0
 10
-175.0171225080558
 20
-176.9300937533229
 30
0.0
 10
-174.9184407976363
 20
-176.8555165647635
 30
0.0
 11
-177.5578539163943
 21
-177.5369593004288
 31
0.0
 11
-177.0356395029212
 21
-177.5366479340497
 31
0.0
 11
-176.5229584517513
 21
-177.4869830037505
 31
0.0
 11
-176.0382984296142
 21
-177.3897552500261
 31
0.0
 11
-175.5991364111849
 21
-177.2484709594944
 31
0.0
 11
-175.2213090704856
 21
-177.0682247514516
 31
0.0
 11
-174.9184407976363
 21
-176.8555165647635
 31
0.0
  0
SPLINE
  5
15F
330
47
100
AcDbEntity
  8
0
  6
Continuous
 62
     7
100
AcDbSpline
210
0.0
220
0.0
230
1.0
 70
     8
 71
     3
 72
     9
 73
     5
 74
     3
 42
0.000000001
 43
0.0000000001
 44
0.00000001
 40
0.0
 40
0.0
 40
0.0
 40
0.0
 40
0.430637306004746
 40
0.7986432292267938
 40
0.7986432292267938
 40
0.7986432292267938
 40
0.7986432292267938
 10
-173.489498881392
 20
-177.2680165647635
 30
0.0
 10
-173.5959089027892
 20
-177.3709352931517
 30
0.0
 10
-173.7932527811095
 20
-177.5618043815786
 30
0.0
 10
-173.8375276581423
 20
-177.831324627894
 30
0.0
 10
-173.8579290209848
 20
-177.9555165647635
 30
0.0
 11
-173.489498881392
 21
-177.2680165647635
 31
0.0
 11
-173.7642243350959
 21
-177.5996404726262
 31
0.0
 11
-173.8579290209848
 21
-177.9555165647635
 31
0.0
  0
SPLINE
  5
160
330
47
100
AcDbEntity
  8
0
  6
Continuous
 62
     7
100
AcDbSpline
210
0.0
220
0.0
230
1.0
 70
     8
 71
     3
 72
    11
 73
     7
 74
     5
 42
0.000000001
 43
0.0000000001
 44
0.00000001
 40
0.0
 40
0.0
 40
0.0
 40
0.0
 40
0.2139371523813845
 40
0.442130278540786
 40
0.6952745863401008
 40
0.9792870575976027
 40
0.9792870575976027
 40
0.9792870575976027
 40
0.9792870575976027
 10
-173.8579290209848
 20
-177.9555165647635
 30
0.0
 10
-173.8512780897821
 20
-178.0270874060177
 30
0.0
 10
-173.837533019553
 20
-178.1749982999673
 30
0.0
 10
-173.7302812117084
 20
-178.3855014745321
 30
0.0
 10
-173.5680999070435
 20
-178.5845816782692
 30
0.0
 10
-173.4254889009855
 20
-178.6938588868708
 30
0.0
 10
-173.350085762634
 20
-178.7516373385593
 30
0.0
 11
-173.8579290209848
 21
-177.9555165647635
 31
0.0
 11
-173.8252257338616
 21
-178.1669393667373
 31
0.0
 11
-173.7278938145971
 21
-178.373333654
 31
0.0
 11
-173.5682481055884
 21
-178.5697904923651
 31
0.0
 11
-173.350085762634
 21
-178.7516373385593
 31
0.0
  0
SPLINE
  5
161
330
47
100
AcDbEntity
  8
0
  6
Continuous
 62
     7
100
AcDbSpline
210
0.0
220
0.0
230
1.0
 70
     8
 71
     3
 72
    11
 73
     7
 74
     5
 42
0.000000001
 43
0.0000000001
 44
0.00000001
 40
0.0
 40
0.0
 40
0.0
 40
0.0
 40
0.2139371523813046
 40
0.442130278540694
 40
0.6952745863400707
 40
0.979287057597569
 40
0.979287057597569
 40
0.979287057597569
 40
0.979287057597569
 10
-186.2420922951023
 20
-174.3805165647636
 30
0.0
 10
-186.2354413638996
 20
-174.4520874060177
 30
0.0
 10
-186.2216962936704
 20
-174.5999982999674
 30
0.0
 10
-186.1144444858259
 20
-174.8105014745321
 30
0.0
 10
-185.9522631811609
 20
-175.0095816782693
 30
0.0
 10
-185.8096521751029
 20
-175.1188588868708
 30
0.0
 10
-185.7342490367515
 20
-175.1766373385594
 30
0.0
 11
-186.2420922951023
 21
-174.3805165647636
 31
0.0
 11
-186.2093890079791
 21
-174.5919393667373
 31
0.0
 11
-186.1120570887146
 21
-174.7983336540001
 31
0.0
 11
-185.9524113797059
 21
-174.9947904923652
 31
0.0
 11
-185.7342490367515
 21
-175.1766373385594
 31
0.0
  0
SPLINE
  5
162
330
47
100
AcDbEntity
  8
0
  6
Continuous
 62
     7
100
AcDbSpline
210
0.0
220
0.0
230
1.0
 70
     8
 71
     3
 72
     9
 73
     5
 74
     3
 42
0.000000001
 43
0.0000000001
 44
0.00000001
 40
0.0
 40
0.0
 40
0.0
 40
0.0
 40
0.2699728960923637
 40
0.5473305167921616
 40
0.5473305167921616
 40
0.5473305167921616
 40
0.5473305167921616
 10
-168.1025325099176
 20
-214.4695220762671
 30
0.0
 10
-168.1176938089341
 20
-214.5583610855669
 30
0.0
 10
-168.148431102923
 20
-214.7384691713283
 30
0.0
 10
-168.1525016730772
 20
-214.921144736409
 30
0.0
 10
-168.1545644086569
 20
-215.0137148726163
 30
0.0
 11
-168.1025325099176
 21
-214.4695220762671
 31
0.0
 11
-168.1415283999651
 21
-214.7366637717176
 31
0.0
 11
-168.1545644086569
 21
-215.0137148726163
 31
0.0
  0
SPLINE
  5
163
330
47
100
AcDbEntity
  8
0
  6
Continuous
 62
     7
100
AcDbSpline
210
0.0
220
0.0
230
1.0
 70
     8
 71
     3
 72
     9
 73
     5
 74
     3
 42
0.000000001
 43
0.0000000001
 44
0.00000001
 40
0.0
 40
0.0
 40
0.0
 40
0.0
 40
0.4306373060047716
 40
0.7986432292267643
 40
0.7986432292267643
 40
0.7986432292267643
 40
0.7986432292267643
 10
-168.7263591605776
 20
-178.6430165647635
 30
0.0
 10
-168.6199491391804
 20
-178.5400978363753
 30
0.0
 10
-168.4226052608602
 20
-178.3492287479484
 30
0.0
 10
-168.3783303838273
 20
-178.079708501633
 30
0.0
 10
-168.3579290209848
 20
-177.9555165647635
 30
0.0
 11
-168.7263591605776
 21
-178.6430165647635
 31
0.0
 11
-168.4516337068737
 21
-178.3113926569008
 31
0.0
 11
-168.3579290209848
 21
-177.9555165647635
 31
0.0
  0
SPLINE
  5
164
330
47
100
AcDbEntity
  8
0
  6
Continuous
 62
     7
100
AcDbSpline
210
0.0
220
0.0
230
1.0
 70
     8
 71
     3
 72
    11
 73
     7
 74
     5
 42
0.000000001
 43
0.0000000001
 44
0.00000001
 40
0.0
 40
0.0
 40
0.0
 40
0.0
 40
0.4353241377838122
 40
0.8527124126603343
 40
1.254759928150017
 40
1.645747677050816
 40
1.645747677050816
 40
1.645747677050816
 40
1.645747677050816
 10
-169.6545644086569
 20
-216.312752978293
 30
0.0
 10
-169.6486267096232
 20
-216.167421481955
 30
0.0
 10
-169.6369959369929
 20
-215.8827463179716
 30
0.0
 10
-169.5362596757614
 20
-215.4745453443269
 30
0.0
 10
-169.380684194182
 20
-215.098863660555
 30
0.0
 10
-169.2238361134942
 20
-214.8850204817261
 30
0.0
 10
-169.1465057782423
 20
-214.7795900379018
 30
0.0
 11
-169.6545644086569
 21
-216.312752978293
 31
0.0
 11
-169.6219404187679
 21
-215.8786530121839
 31
0.0
 11
-169.5247708197512
 21
-215.4727330171205
 31
0.0
 11
-169.3651472102877
 21
-215.1037309716614
 31
0.0
 11
-169.1465057782423
 21
-214.7795900379018
 31
0.0
  0
SPLINE
  5
165
330
47
100
AcDbEntity
  8
0
  6
Continuous
 62
     7
100
AcDbSpline
210
0.0
220
0.0
230
1.0
 70
     8
 71
     3
 72
     9
 73
     5
 74
     3
 42
0.000000001
 43
0.0000000001
 44
0.00000001
 40
0.0
 40
0.0
 40
0.0
 40
0.0
 40
0.0485307760696187
 40
0.0972888979998288
 40
0.0972888979998288
 40
0.0972888979998288
 40
0.0972888979998288
 10
-167.6529885374165
 20
-214.4834292577983
 30
0.0
 10
-167.6534481530288
 20
-214.4996003204512
 30
0.0
 10
-167.6543695173603
 20
-214.5320182006522
 30
0.0
 10
-167.654499350441
 20
-214.5644489191219
 30
0.0
 10
-167.6545644086569
 20
-214.5807021707241
 30
0.0
 11
-167.6529885374165
 21
-214.4834292577983
 31
0.0
 11
-167.6541704152403
 21
-214.5319456405842
 31
0.0
 11
-167.6545644086569
 21
-214.5807021707241
 31
0.0
  0
ENDBLK
  5
49
330
47
100
AcDbEntity
  8
0
100
AcDbBlockEnd
  0
BLOCK
  5
4C
330
4A
100
AcDbEntity
  8
0
100
AcDbBlockBegin
  2
Allg1
 70
     0
 10
-177.300006308663
 20
-195.9999996222
 30
0.0
  3
Allg1
  1

  0
INSERT
  5
4B
330
4A
100
AcDbEntity
  8
0
100
AcDbBlockReference
  2
USLKG_10-1-select__1
 10
-197.7405504884629
 20
-220.6999480135769
 30
0.0
  0
MTEXT
  5
167
330
4A
100
AcDbEntity
  8
1
 62
     6
100
AcDbMText
 10
-177.300006308664
 20
-227.919834348997
 30
0.0
 40
5.0
 41
0.0
 71
     2
 72
     1
  1
 
  7
CONVERTER_11
 73
     1
 44
1.32052821128451
  0
ENDBLK
  5
4D
330
4A
100
AcDbEntity
  8
0
100
AcDbBlockEnd
  0
BLOCK
  5
4F
330
4E
100
AcDbEntity
  8
0
100
AcDbBlockBegin
  2
USLKG_10-1-select__2
 70
     0
 10
-310.2500065333518
 20
-214.0749999999951
 30
0.0
  3
USLKG_10-1-select__2
  1

  0
LINE
  5
168
330
4E
100
AcDbEntity
  8
0
  6
Continuous
 62
     7
100
AcDbLine
 10
-303.6829507861261
 20
-209.9999999999951
 30
0.0
 11
-303.6829507861261
 21
-205.9249999999951
 31
0.0
  0
LINE
  5
169
330
4E
100
AcDbEntity
  8
0
  6
Continuous
 62
     7
100
AcDbLine
 10
-306.1943450925363
 20
-205.9249999999951
 30
0.0
 11
-306.5696465205506
 21
-205.9249999999951
 31
0.0
  0
LINE
  5
16A
330
4E
100
AcDbEntity
  8
0
  6
Continuous
 62
     7
100
AcDbLine
 10
-306.5696465205507
 20
-209.9999999999951
 30
0.0
 11
-306.5696465205506
 21
-205.9249999999951
 31
0.0
  0
LINE
  5
16B
330
4E
100
AcDbEntity
  8
0
  6
Continuous
 62
     7
100
AcDbLine
 10
-302.1000065333518
 20
-209.9999999999951
 30
0.0
 11
-302.1000065333518
 21
-205.9249999999951
 31
0.0
  0
LINE
  5
16C
330
4E
100
AcDbEntity
  8
0
  6
Continuous
 62
     7
100
AcDbLine
 10
-293.8558419153734
 20
-208.483652841322
 30
0.0
 11
-297.6663536920249
 21
-212.2941646179735
 31
0.0
  0
LINE
  5
16D
330
4E
100
AcDbEntity
  8
0
  6
Continuous
 62
     7
100
AcDbLine
 10
-306.1943450925363
 20
-209.9999999999951
 30
0.0
 11
-306.1943450925363
 21
-205.9249999999951
 31
0.0
  0
LINE
  5
16E
330
4E
100
AcDbEntity
  8
0
  6
Continuous
 62
     7
100
AcDbLine
 10
-306.1943450925363
 20
-214.0749999999951
 30
0.0
 11
-306.1943450925363
 21
-209.9999999999951
 31
0.0
  0
LINE
  5
16F
330
4E
100
AcDbEntity
  8
0
  6
Continuous
 62
     2
100
AcDbLine
 10
-284.6000065333518
 20
-209.9999999999951
 30
0.0
 11
-286.2500065333518
 21
-209.9999999999951
 31
0.0
  0
LINE
  5
170
330
4E
100
AcDbEntity
  8
0
  6
Continuous
 62
     2
100
AcDbLine
 10
-274.3170622805775
 20
-209.9999999999951
 30
0.0
 11
-275.9000065333518
 21
-209.9999999999951
 31
0.0
  0
LINE
  5
171
330
4E
100
AcDbEntity
  8
0
  6
Continuous
 62
     2
100
AcDbLine
 10
-275.9000065333518
 20
-209.9999999999951
 30
0.0
 11
-279.1000065333518
 21
-209.9999999999951
 31
0.0
  0
LINE
  5
172
330
4E
100
AcDbEntity
  8
0
  6
Continuous
 62
     2
100
AcDbLine
 10
-291.7500065333518
 20
-209.9999999999951
 30
0.0
 11
-293.4000065333518
 21
-209.9999999999951
 31
0.0
  0
LINE
  5
173
330
4E
100
AcDbEntity
  8
0
  6
Continuous
 62
     2
100
AcDbLine
 10
-271.8056679741673
 20
-209.9999999999951
 30
0.0
 11
-274.3170622805775
 21
-209.9999999999951
 31
0.0
  0
LINE
  5
174
330
4E
100
AcDbEntity
  8
0
  6
Continuous
 62
     7
100
AcDbLine
 10
-284.1441711513302
 20
-211.5163471586683
 30
0.0
 11
-280.3336593746786
 21
-207.7058353820168
 31
0.0
  0
LINE
  5
175
330
4E
100
AcDbEntity
  8
0
  6
Continuous
 62
     7
100
AcDbLine
 10
-279.5558419153734
 20
-208.483652841322
 30
0.0
 11
-283.366353692025
 21
-212.2941646179735
 31
0.0
  0
LINE
  5
176
330
4E
100
AcDbEntity
  8
0
  6
Continuous
 62
     7
100
AcDbLine
 10
-298.4441711513301
 20
-211.5163471586683
 30
0.0
 11
-294.6336593746786
 21
-207.7058353820168
 31
0.0
  0
LINE
  5
177
330
4E
100
AcDbEntity
  8
0
  6
Continuous
 62
     7
100
AcDbLine
 10
-295.0043626096128
 20
-207.4999999999951
 30
0.0
 11
-297.2956504570907
 21
-207.4999999999951
 31
0.0
  0
LINE
  5
178
330
4E
100
AcDbEntity
  8
0
  6
Continuous
 62
     2
100
AcDbLine
 10
-298.9000065333518
 20
-209.9999999999951
 30
0.0
 11
-302.1000065333518
 21
-209.9999999999951
 31
0.0
  0
LINE
  5
179
330
4E
100
AcDbEntity
  8
0
  6
Continuous
 62
     7
100
AcDbLine
 10
-291.2941711513302
 20
-211.5163471586683
 30
0.0
 11
-287.4836593746786
 21
-207.7058353820168
 31
0.0
  0
LINE
  5
17A
330
4E
100
AcDbEntity
  8
0
  6
Continuous
 62
     7
100
AcDbLine
 10
-275.9000065333518
 20
-205.9249999999951
 30
0.0
 11
-302.1000065333518
 21
-205.9249999999951
 31
0.0
  0
LINE
  5
17B
330
4E
100
AcDbEntity
  8
0
  6
Continuous
 62
     7
100
AcDbLine
 10
-302.1000065333518
 20
-205.9249999999951
 30
0.0
 11
-303.6829507861261
 21
-205.9249999999951
 31
0.0
  0
LINE
  5
17C
330
4E
100
AcDbEntity
  8
0
  6
Continuous
 62
     7
100
AcDbLine
 10
-306.5696465205506
 20
-205.9249999999951
 30
0.0
 11
-308.7173066743758
 21
-205.9249999999951
 31
0.0
  0
LINE
  5
17D
330
4E
100
AcDbEntity
  8
0
  6
Continuous
 62
     7
100
AcDbLine
 10
-303.6829507861261
 20
-205.9249999999951
 30
0.0
 11
-306.1943450925363
 21
-205.9249999999951
 31
0.0
  0
LINE
  5
17E
330
4E
100
AcDbEntity
  8
0
  6
Continuous
 62
     7
100
AcDbLine
 10
-308.7173066743758
 20
-214.0749999999951
 30
0.0
 11
-306.5696465205507
 21
-214.0749999999951
 31
0.0
  0
LINE
  5
17F
330
4E
100
AcDbEntity
  8
0
  6
Continuous
 62
     7
100
AcDbLine
 10
-310.2500065333518
 20
-214.0749999999951
 30
0.0
 11
-308.7173066743758
 21
-214.0749999999951
 31
0.0
  0
LINE
  5
180
330
4E
100
AcDbEntity
  8
0
  6
Continuous
 62
     7
100
AcDbLine
 10
-308.7173066743758
 20
-205.9249999999951
 30
0.0
 11
-310.2500065333518
 21
-205.9249999999951
 31
0.0
  0
LINE
  5
181
330
4E
100
AcDbEntity
  8
0
  6
Continuous
 62
     2
100
AcDbLine
 10
-308.7173066743758
 20
-209.9999999999951
 30
0.0
 11
-310.2500065333518
 21
-209.9999999999951
 31
0.0
  0
LINE
  5
182
330
4E
100
AcDbEntity
  8
0
  6
Continuous
 62
     7
100
AcDbLine
 10
-308.7173066743758
 20
-209.9999999999951
 30
0.0
 11
-308.7173066743758
 21
-205.9249999999951
 31
0.0
  0
LINE
  5
183
330
4E
100
AcDbEntity
  8
0
  6
Continuous
 62
     7
100
AcDbLine
 10
-310.2500065333518
 20
-209.9999999999951
 30
0.0
 11
-310.2500065333518
 21
-205.9249999999951
 31
0.0
  0
LINE
  5
184
330
4E
100
AcDbEntity
  8
0
  6
Continuous
 62
     7
100
AcDbLine
 10
-310.2500065333518
 20
-214.0749999999951
 30
0.0
 11
-310.2500065333518
 21
-209.9999999999951
 31
0.0
  0
LINE
  5
185
330
4E
100
AcDbEntity
  8
0
  6
Continuous
 62
     7
100
AcDbLine
 10
-308.7173066743758
 20
-214.0749999999951
 30
0.0
 11
-308.7173066743758
 21
-209.9999999999951
 31
0.0
  0
LINE
  5
186
330
4E
100
AcDbEntity
  8
0
  6
Continuous
 62
     2
100
AcDbLine
 10
-269.2827063923276
 20
-209.9999999999951
 30
0.0
 11
-267.7500065333518
 21
-209.9999999999951
 31
0.0
  0
LINE
  5
187
330
4E
100
AcDbEntity
  8
0
  6
Continuous
 62
     7
100
AcDbLine
 10
-269.2827063923277
 20
-214.0749999999951
 30
0.0
 11
-267.7500065333518
 21
-214.0749999999951
 31
0.0
  0
LINE
  5
188
330
4E
100
AcDbEntity
  8
0
  6
Continuous
 62
     7
100
AcDbLine
 10
-271.4303665461528
 20
-214.0749999999951
 30
0.0
 11
-269.2827063923277
 21
-214.0749999999951
 31
0.0
  0
LINE
  5
189
330
4E
100
AcDbEntity
  8
0
  6
Continuous
 62
     7
100
AcDbLine
 10
-267.7500065333518
 20
-209.9999999999951
 30
0.0
 11
-267.7500065333518
 21
-214.0749999999951
 31
0.0
  0
LINE
  5
18A
330
4E
100
AcDbEntity
  8
0
  6
Continuous
 62
     7
100
AcDbLine
 10
-269.2827063923277
 20
-205.9249999999951
 30
0.0
 11
-267.7500065333518
 21
-205.9249999999951
 31
0.0
  0
LINE
  5
18B
330
4E
100
AcDbEntity
  8
0
  6
Continuous
 62
     7
100
AcDbLine
 10
-271.4303665461528
 20
-214.0749999999951
 30
0.0
 11
-271.4303665461528
 21
-209.9999999999951
 31
0.0
  0
LINE
  5
18C
330
4E
100
AcDbEntity
  8
0
  6
Continuous
 62
     7
100
AcDbLine
 10
-271.4303665461528
 20
-214.0749999999951
 30
0.0
 11
-271.8056679741673
 21
-214.0749999999951
 31
0.0
  0
LINE
  5
18D
330
4E
100
AcDbEntity
  8
0
  6
Continuous
 62
     7
100
AcDbLine
 10
-271.8056679741673
 20
-214.0749999999951
 30
0.0
 11
-271.8056679741673
 21
-209.9999999999951
 31
0.0
  0
LINE
  5
18E
330
4E
100
AcDbEntity
  8
0
  6
Continuous
 62
     7
100
AcDbLine
 10
-274.3170622805775
 20
-214.0749999999951
 30
0.0
 11
-271.8056679741673
 21
-214.0749999999951
 31
0.0
  0
LINE
  5
18F
330
4E
100
AcDbEntity
  8
0
  6
Continuous
 62
     7
100
AcDbLine
 10
-274.3170622805775
 20
-214.0749999999951
 30
0.0
 11
-274.3170622805775
 21
-209.9999999999951
 31
0.0
  0
LINE
  5
190
330
4E
100
AcDbEntity
  8
0
  6
Continuous
 62
     7
100
AcDbLine
 10
-274.3170622805775
 20
-214.0749999999951
 30
0.0
 11
-275.9000065333518
 21
-214.0749999999951
 31
0.0
  0
LINE
  5
191
330
4E
100
AcDbEntity
  8
0
  6
Continuous
 62
     7
100
AcDbLine
 10
-275.9000065333518
 20
-214.0749999999951
 30
0.0
 11
-275.9000065333518
 21
-209.9999999999951
 31
0.0
  0
LINE
  5
192
330
4E
100
AcDbEntity
  8
0
  6
Continuous
 62
     7
100
AcDbLine
 10
-269.2827063923277
 20
-214.0749999999951
 30
0.0
 11
-269.2827063923276
 21
-209.9999999999951
 31
0.0
  0
LINE
  5
193
330
4E
100
AcDbEntity
  8
0
  6
Continuous
 62
     7
100
AcDbLine
 10
-269.2827063923277
 20
-205.9249999999951
 30
0.0
 11
-271.4303665461528
 21
-205.9249999999951
 31
0.0
  0
LINE
  5
194
330
4E
100
AcDbEntity
  8
0
  6
Continuous
 62
     2
100
AcDbLine
 10
-271.4303665461528
 20
-209.9999999999951
 30
0.0
 11
-269.2827063923276
 21
-209.9999999999951
 31
0.0
  0
LINE
  5
195
330
4E
100
AcDbEntity
  8
0
  6
Continuous
 62
     7
100
AcDbLine
 10
-275.9000065333518
 20
-209.9999999999951
 30
0.0
 11
-275.9000065333518
 21
-205.9249999999951
 31
0.0
  0
LINE
  5
196
330
4E
100
AcDbEntity
  8
0
  6
Continuous
 62
     7
100
AcDbLine
 10
-274.3170622805775
 20
-205.9249999999951
 30
0.0
 11
-275.9000065333518
 21
-205.9249999999951
 31
0.0
  0
LINE
  5
197
330
4E
100
AcDbEntity
  8
0
  6
Continuous
 62
     7
100
AcDbLine
 10
-271.8056679741673
 20
-205.9249999999951
 30
0.0
 11
-274.3170622805775
 21
-205.9249999999951
 31
0.0
  0
LINE
  5
198
330
4E
100
AcDbEntity
  8
0
  6
Continuous
 62
     7
100
AcDbLine
 10
-271.4303665461528
 20
-205.9249999999951
 30
0.0
 11
-271.8056679741673
 21
-205.9249999999951
 31
0.0
  0
LINE
  5
199
330
4E
100
AcDbEntity
  8
0
  6
Continuous
 62
     2
100
AcDbLine
 10
-271.4303665461528
 20
-209.9999999999951
 30
0.0
 11
-271.8056679741673
 21
-209.9999999999951
 31
0.0
  0
LINE
  5
19A
330
4E
100
AcDbEntity
  8
0
  6
Continuous
 62
     7
100
AcDbLine
 10
-271.8056679741673
 20
-209.9999999999951
 30
0.0
 11
-271.8056679741673
 21
-205.9249999999951
 31
0.0
  0
LINE
  5
19B
330
4E
100
AcDbEntity
  8
0
  6
Continuous
 62
     7
100
AcDbLine
 10
-274.3170622805775
 20
-209.9999999999951
 30
0.0
 11
-274.3170622805775
 21
-205.9249999999951
 31
0.0
  0
LINE
  5
19C
330
4E
100
AcDbEntity
  8
0
  6
Continuous
 62
     7
100
AcDbLine
 10
-271.4303665461528
 20
-209.9999999999951
 30
0.0
 11
-271.4303665461528
 21
-205.9249999999951
 31
0.0
  0
LINE
  5
19D
330
4E
100
AcDbEntity
  8
0
  6
Continuous
 62
     7
100
AcDbLine
 10
-267.7500065333518
 20
-205.9249999999951
 30
0.0
 11
-267.7500065333518
 21
-209.9999999999951
 31
0.0
  0
LINE
  5
19E
330
4E
100
AcDbEntity
  8
0
  6
Continuous
 62
     7
100
AcDbLine
 10
-269.2827063923276
 20
-209.9999999999951
 30
0.0
 11
-269.2827063923277
 21
-205.9249999999951
 31
0.0
  0
LINE
  5
19F
330
4E
100
AcDbEntity
  8
0
  6
Continuous
 62
     7
100
AcDbLine
 10
-297.2956504570907
 20
-212.4999999999951
 30
0.0
 11
-295.0043626096128
 21
-212.4999999999951
 31
0.0
  0
LINE
  5
1A0
330
4E
100
AcDbEntity
  8
0
  6
Continuous
 62
     2
100
AcDbLine
 10
-306.1943450925363
 20
-209.9999999999951
 30
0.0
 11
-306.5696465205507
 21
-209.9999999999951
 31
0.0
  0
LINE
  5
1A1
330
4E
100
AcDbEntity
  8
0
  6
Continuous
 62
     7
100
AcDbLine
 10
-302.1000065333518
 20
-209.9999999999951
 30
0.0
 11
-302.1000065333518
 21
-214.0749999999951
 31
0.0
  0
LINE
  5
1A2
330
4E
100
AcDbEntity
  8
0
  6
Continuous
 62
     7
100
AcDbLine
 10
-303.6829507861261
 20
-214.0749999999951
 30
0.0
 11
-303.6829507861261
 21
-209.9999999999951
 31
0.0
  0
LINE
  5
1A3
330
4E
100
AcDbEntity
  8
0
  6
Continuous
 62
     7
100
AcDbLine
 10
-306.1943450925363
 20
-214.0749999999951
 30
0.0
 11
-303.6829507861261
 21
-214.0749999999951
 31
0.0
  0
LINE
  5
1A4
330
4E
100
AcDbEntity
  8
0
  6
Continuous
 62
     7
100
AcDbLine
 10
-302.1000065333518
 20
-214.0749999999951
 30
0.0
 11
-275.9000065333518
 21
-214.0749999999951
 31
0.0
  0
LINE
  5
1A5
330
4E
100
AcDbEntity
  8
0
  6
Continuous
 62
     7
100
AcDbLine
 10
-303.6829507861261
 20
-214.0749999999951
 30
0.0
 11
-302.1000065333518
 21
-214.0749999999951
 31
0.0
  0
LINE
  5
1A6
330
4E
100
AcDbEntity
  8
0
  6
Continuous
 62
     7
100
AcDbLine
 10
-306.5696465205507
 20
-214.0749999999951
 30
0.0
 11
-306.1943450925363
 21
-214.0749999999951
 31
0.0
  0
LINE
  5
1A7
330
4E
100
AcDbEntity
  8
0
  6
Continuous
 62
     2
100
AcDbLine
 10
-302.1000065333518
 20
-209.9999999999951
 30
0.0
 11
-303.6829507861261
 21
-209.9999999999951
 31
0.0
  0
LINE
  5
1A8
330
4E
100
AcDbEntity
  8
0
  6
Continuous
 62
     2
100
AcDbLine
 10
-303.6829507861261
 20
-209.9999999999951
 30
0.0
 11
-306.1943450925363
 21
-209.9999999999951
 31
0.0
  0
LINE
  5
1A9
330
4E
100
AcDbEntity
  8
0
  6
Continuous
 62
     2
100
AcDbLine
 10
-306.5696465205507
 20
-209.9999999999951
 30
0.0
 11
-308.7173066743758
 21
-209.9999999999951
 31
0.0
  0
LINE
  5
1AA
330
4E
100
AcDbEntity
  8
0
  6
Continuous
 62
     7
100
AcDbLine
 10
-306.5696465205507
 20
-214.0749999999951
 30
0.0
 11
-306.5696465205507
 21
-209.9999999999951
 31
0.0
  0
LINE
  5
1AB
330
4E
100
AcDbEntity
  8
0
  6
Continuous
 62
     7
100
AcDbLine
 10
-287.8543626096128
 20
-207.4999999999951
 30
0.0
 11
-290.1456504570907
 21
-207.4999999999951
 31
0.0
  0
LINE
  5
1AC
330
4E
100
AcDbEntity
  8
0
  6
Continuous
 62
     7
100
AcDbLine
 10
-280.7043626096128
 20
-207.4999999999951
 30
0.0
 11
-282.9956504570907
 21
-207.4999999999951
 31
0.0
  0
LINE
  5
1AD
330
4E
100
AcDbEntity
  8
0
  6
Continuous
 62
     7
100
AcDbLine
 10
-290.1456504570907
 20
-212.4999999999951
 30
0.0
 11
-287.8543626096128
 21
-212.4999999999951
 31
0.0
  0
LINE
  5
1AE
330
4E
100
AcDbEntity
  8
0
  6
Continuous
 62
     7
100
AcDbLine
 10
-282.9956504570907
 20
-212.4999999999951
 30
0.0
 11
-280.7043626096128
 21
-212.4999999999951
 31
0.0
  0
LINE
  5
1AF
330
4E
100
AcDbEntity
  8
0
  6
Continuous
 62
     7
100
AcDbLine
 10
-286.7058419153734
 20
-208.483652841322
 30
0.0
 11
-290.5163536920249
 21
-212.2941646179735
 31
0.0
  0
ARC
  5
1B0
330
4E
100
AcDbEntity
  8
0
  6
Continuous
 62
     7
100
AcDbCircle
 10
-296.1500065333518
 20
-209.9999999999951
 30
0.0
 40
2.749999999999964
100
AcDbArc
 50
114.6199773286555
 51
180.0
  0
ARC
  5
1B1
330
4E
100
AcDbEntity
  8
0
  6
Continuous
 62
     7
100
AcDbCircle
 10
-296.1500065333518
 20
-209.9999999999951
 30
0.0
 40
2.749999999999988
100
AcDbArc
 50
56.53695903281375
 51
65.38002267134239
  0
ARC
  5
1B2
330
4E
100
AcDbEntity
  8
0
  6
Continuous
 62
     7
100
AcDbCircle
 10
-296.1500065333518
 20
-209.9999999999951
 30
0.0
 40
2.750000000000021
100
AcDbArc
 50
33.46304096718297
 51
56.53695903281375
  0
ARC
  5
1B3
330
4E
100
AcDbEntity
  8
0
  6
Continuous
 62
     7
100
AcDbCircle
 10
-289.0000065333518
 20
-209.9999999999951
 30
0.0
 40
2.749999999999988
100
AcDbArc
 50
114.6199773286565
 51
180.0
  0
ARC
  5
1B4
330
4E
100
AcDbEntity
  8
0
  6
Continuous
 62
     7
100
AcDbCircle
 10
-289.0000065333518
 20
-209.9999999999951
 30
0.0
 40
2.749999999999957
100
AcDbArc
 50
56.53695903281475
 51
65.38002267134239
  0
ARC
  5
1B5
330
4E
100
AcDbEntity
  8
0
  6
Continuous
 62
     7
100
AcDbCircle
 10
-296.1500065333518
 20
-209.9999999999951
 30
0.0
 40
2.75
100
AcDbArc
 50
180.0
 51
213.4630409671857
  0
ARC
  5
1B6
330
4E
100
AcDbEntity
  8
0
  6
Continuous
 62
     7
100
AcDbCircle
 10
-296.1500065333518
 20
-209.9999999999951
 30
0.0
 40
2.749999999999997
100
AcDbArc
 50
236.5369590328167
 51
245.3800226713445
  0
ARC
  5
1B7
330
4E
100
AcDbEntity
  8
0
  6
Continuous
 62
     7
100
AcDbCircle
 10
-296.1500065333518
 20
-209.9999999999951
 30
0.0
 40
2.750000000000011
100
AcDbArc
 50
294.6199773286577
 51
0.0
  0
ARC
  5
1B8
330
4E
100
AcDbEntity
  8
0
  6
Continuous
 62
     7
100
AcDbCircle
 10
-296.1500065333518
 20
-209.9999999999951
 30
0.0
 40
2.75
100
AcDbArc
 50
0.0
 51
33.46304096718297
  0
ARC
  5
1B9
330
4E
100
AcDbEntity
  8
0
  6
Continuous
 62
     7
100
AcDbCircle
 10
-289.0000065333518
 20
-209.9999999999951
 30
0.0
 40
2.75
100
AcDbArc
 50
0.0
 51
33.46304096718362
  0
ARC
  5
1BA
330
4E
100
AcDbEntity
  8
0
  6
Continuous
 62
     7
100
AcDbCircle
 10
-281.8500065333518
 20
-209.9999999999951
 30
0.0
 40
2.75
100
AcDbArc
 50
0.0
 51
33.46304096718297
  0
ARC
  5
1BB
330
4E
100
AcDbEntity
  8
0
  6
Continuous
 62
     7
100
AcDbCircle
 10
-281.8500065333518
 20
-209.9999999999951
 30
0.0
 40
2.749999999999988
100
AcDbArc
 50
56.53695903281375
 51
65.38002267134239
  0
ARC
  5
1BC
330
4E
100
AcDbEntity
  8
0
  6
Continuous
 62
     7
100
AcDbCircle
 10
-281.8500065333518
 20
-209.9999999999951
 30
0.0
 40
2.750000000000021
100
AcDbArc
 50
33.46304096718297
 51
56.53695903281375
  0
ARC
  5
1BD
330
4E
100
AcDbEntity
  8
0
  6
Continuous
 62
     7
100
AcDbCircle
 10
-289.0000065333518
 20
-209.9999999999951
 30
0.0
 40
2.749999999999973
100
AcDbArc
 50
33.46304096718362
 51
56.53695903281475
  0
ARC
  5
1BE
330
4E
100
AcDbEntity
  8
0
  6
Continuous
 62
     7
100
AcDbCircle
 10
-281.8500065333518
 20
-209.9999999999951
 30
0.0
 40
2.749999999999964
100
AcDbArc
 50
114.6199773286555
 51
180.0
  0
ARC
  5
1BF
330
4E
100
AcDbEntity
  8
0
  6
Continuous
 62
     7
100
AcDbCircle
 10
-296.1500065333518
 20
-209.9999999999951
 30
0.0
 40
2.749999999999973
100
AcDbArc
 50
213.4630409671857
 51
236.5369590328167
  0
ARC
  5
1C0
330
4E
100
AcDbEntity
  8
0
  6
Continuous
 62
     7
100
AcDbCircle
 10
-289.0000065333518
 20
-209.9999999999951
 30
0.0
 40
2.749999999999997
100
AcDbArc
 50
236.5369590328167
 51
245.3800226713435
  0
ARC
  5
1C1
330
4E
100
AcDbEntity
  8
0
  6
Continuous
 62
     7
100
AcDbCircle
 10
-281.8500065333518
 20
-209.9999999999951
 30
0.0
 40
2.750000000000028
100
AcDbArc
 50
236.5369590328158
 51
245.3800226713445
  0
ARC
  5
1C2
330
4E
100
AcDbEntity
  8
0
  6
Continuous
 62
     7
100
AcDbCircle
 10
-281.8500065333518
 20
-209.9999999999951
 30
0.0
 40
2.75
100
AcDbArc
 50
180.0
 51
213.4630409671844
  0
ARC
  5
1C3
330
4E
100
AcDbEntity
  8
0
  6
Continuous
 62
     7
100
AcDbCircle
 10
-281.8500065333518
 20
-209.9999999999951
 30
0.0
 40
2.750000000000011
100
AcDbArc
 50
294.6199773286577
 51
0.0
  0
ARC
  5
1C4
330
4E
100
AcDbEntity
  8
0
  6
Continuous
 62
     7
100
AcDbCircle
 10
-289.0000065333518
 20
-209.9999999999951
 30
0.0
 40
2.750000000000068
100
AcDbArc
 50
213.4630409671844
 51
236.5369590328167
  0
ARC
  5
1C5
330
4E
100
AcDbEntity
  8
0
  6
Continuous
 62
     7
100
AcDbCircle
 10
-281.8500065333518
 20
-209.9999999999951
 30
0.0
 40
2.750000000000068
100
AcDbArc
 50
213.4630409671844
 51
236.5369590328158
  0
ARC
  5
1C6
330
4E
100
AcDbEntity
  8
0
  6
Continuous
 62
     7
100
AcDbCircle
 10
-289.0000065333518
 20
-209.9999999999951
 30
0.0
 40
2.750000000000011
100
AcDbArc
 50
294.6199773286577
 51
0.0
  0
ARC
  5
1C7
330
4E
100
AcDbEntity
  8
0
  6
Continuous
 62
     7
100
AcDbCircle
 10
-289.0000065333518
 20
-209.9999999999951
 30
0.0
 40
2.75
100
AcDbArc
 50
180.0
 51
213.4630409671844
  0
ENDBLK
  5
50
330
4E
100
AcDbEntity
  8
0
100
AcDbBlockEnd
  0
BLOCK
  5
53
330
51
100
AcDbEntity
  8
0
100
AcDbBlockBegin
  2
Drfsicht1
 70
     0
 10
-289.0000015111169
 20
-210.0
 30
0.0
  3
Drfsicht1
  1

  0
INSERT
  5
52
330
51
100
AcDbEntity
  8
0
100
AcDbBlockReference
  2
USLKG_10-1-select__2
 10
-310.2500065333518
 20
-214.0749999999951
 30
0.0
  0
MTEXT
  5
1C8
330
51
100
AcDbEntity
  8
1
 62
     6
100
AcDbMText
 10
-289.000001511117
 20
-219.0999999046326
 30
0.0
 40
5.0
 41
0.0
 71
     2
 72
     1
  1
 
  7
CONVERTER_11
 73
     1
 44
1.32052821128451
  0
DIMENSION
  5
1D5
330
51
100
AcDbEntity
  8
1
100
AcDbDimension
  2
*D17
 10
-315.6000067265591
 20
-214.0749999999952
 30
0.0
 11
-319.5250067265591
 21
-194.9576585754491
 31
0.0
 70
    32
  1
<>
 71
     5
 42
-1.0
 53
90.0
  3
ME10_DIM_10
100
AcDbAlignedDimension
 13
-302.1000065333518
 23
-205.9249999999951
 33
0.0
 14
-302.1000065333518
 24
-214.0749999999951
 34
0.0
 50
90.0
100
AcDbRotatedDimension
  0
ENDBLK
  5
54
330
51
100
AcDbEntity
  8
0
100
AcDbBlockEnd
  0
BLOCK
  5
56
330
55
100
AcDbEntity
  8
0
100
AcDbBlockBegin
  2
USLKG_10-1-select__3
 70
     0
 10
-198.5500006796152
 20
-147.899998878618
 30
0.0
  3
USLKG_10-1-select__3
  1

  0
LINE
  5
1D6
330
55
100
AcDbEntity
  8
0
  6
Continuous
 62
     7
100
AcDbLine
 10
-159.3000006796151
 20
-115.9373052016099
 30
0.0
 11
-159.3000006796151
 21
-132.6999985057152
 31
0.0
  0
LINE
  5
1D7
330
55
100
AcDbEntity
  8
0
  6
Continuous
 62
     7
100
AcDbLine
 10
-171.409542890057
 20
-139.4999985057153
 30
0.0
 11
-169.3000002606741
 21
-141.6095411350982
 31
0.0
  0
LINE
  5
1D8
330
55
100
AcDbEntity
  8
0
  6
Continuous
 62
     7
100
AcDbLine
 10
-169.3000002606741
 20
-141.6095411350982
 30
0.0
 11
-169.3000002606741
 21
-145.7999985057153
 31
0.0
  0
LINE
  5
1D9
330
55
100
AcDbEntity
  8
0
  6
Continuous
 62
     7
100
AcDbLine
 10
-161.0000004864079
 20
-143.099998878618
 30
0.0
 11
-161.0000004864079
 21
-145.799998878618
 31
0.0
  0
LINE
  5
1DA
330
55
100
AcDbEntity
  8
0
  6
Continuous
 62
     7
100
AcDbLine
 10
-156.7000004864079
 20
-145.799998878618
 30
0.0
 11
-156.7000004864079
 21
-138.6999985057152
 31
0.0
  0
LINE
  5
1DB
330
55
100
AcDbEntity
  8
0
  6
Continuous
 62
     7
100
AcDbLine
 10
-164.5816480453415
 20
-106.2056599465307
 30
0.0
 11
-160.1056621204307
 21
-110.6816458714416
 31
0.0
  0
LINE
  5
1DC
330
55
100
AcDbEntity
  8
0
  6
Continuous
 62
     7
100
AcDbLine
 10
-163.8299889503742
 20
-105.4540008515634
 30
0.0
 11
-164.5816480453415
 21
-106.2056599465307
 31
0.0
  0
LINE
  5
1DD
330
55
100
AcDbEntity
  8
0
  6
Continuous
 62
     7
100
AcDbLine
 10
-163.4533868896228
 20
-105.8306029123147
 30
0.0
 11
-163.8299889503742
 21
-105.4540008515634
 31
0.0
  0
LINE
  5
1DE
330
55
100
AcDbEntity
  8
0
  6
Continuous
 62
     7
100
AcDbLine
 10
-162.6170564268408
 20
-103.6829427584895
 30
0.0
 11
-163.4533868896228
 21
-105.8306029123147
 31
0.0
  0
LINE
  5
1DF
330
55
100
AcDbEntity
  8
0
  6
Continuous
 62
     7
100
AcDbLine
 10
-164.2000006796152
 20
-102.0999985057153
 30
0.0
 11
-162.6170564268408
 21
-103.6829427584895
 31
0.0
  0
LINE
  5
1E0
330
55
100
AcDbEntity
  8
0
  6
Continuous
 62
     7
100
AcDbLine
 10
-195.3000004864079
 20
-138.6999985057152
 30
0.0
 11
-184.4000004864079
 21
-138.6999985057152
 31
0.0
  0
LINE
  5
1E1
330
55
100
AcDbEntity
  8
0
  6
Continuous
 62
     7
100
AcDbLine
 10
-198.4000002606741
 20
-138.6999985057152
 30
0.0
 11
-195.3000004864079
 21
-138.6999985057152
 31
0.0
  0
LINE
  5
1E2
330
55
100
AcDbEntity
  8
0
  6
Continuous
 62
     7
100
AcDbLine
 10
-184.4000004864079
 20
-138.6999985057152
 30
0.0
 11
-172.4000003035687
 21
-138.6999985057152
 31
0.0
  0
LINE
  5
1E3
330
55
100
AcDbEntity
  8
0
  6
Continuous
 62
     7
100
AcDbLine
 10
-192.9000002606741
 20
-142.6821216748488
 30
0.0
 11
-192.9000002606741
 21
-143.5999985057153
 31
0.0
  0
LINE
  5
1E4
330
55
100
AcDbEntity
  8
0
  6
Continuous
 62
     7
100
AcDbLine
 10
-184.4000004864079
 20
-138.6999985057152
 30
0.0
 11
-184.4000004864079
 21
-147.899998878618
 31
0.0
  0
LINE
  5
1E5
330
55
100
AcDbEntity
  8
0
  6
Continuous
 62
     7
100
AcDbLine
 10
-157.5827005385911
 20
-108.7172986467393
 30
0.0
 11
-156.0500006796152
 21
-110.2499985057153
 31
0.0
  0
LINE
  5
1E6
330
55
100
AcDbEntity
  8
0
  6
Continuous
 62
     7
100
AcDbLine
 10
-160.1056621204307
 20
-110.6816458714416
 30
0.0
 11
-159.3540030254634
 21
-109.9299867764742
 31
0.0
  0
LINE
  5
1E7
330
55
100
AcDbEntity
  8
0
  6
Continuous
 62
     7
100
AcDbLine
 10
-159.3540030254634
 20
-109.9299867764742
 30
0.0
 11
-159.7303606924163
 21
-109.5536291095213
 31
0.0
  0
LINE
  5
1E8
330
55
100
AcDbEntity
  8
0
  6
Continuous
 62
     7
100
AcDbLine
 10
-159.7303606924163
 20
-109.5536291095213
 30
0.0
 11
-157.5827005385911
 21
-108.7172986467393
 31
0.0
  0
LINE
  5
1E9
330
55
100
AcDbEntity
  8
0
  6
Continuous
 62
     7
100
AcDbLine
 10
-161.0000004864079
 20
-138.6999985057152
 30
0.0
 11
-156.7000004864079
 21
-138.6999985057152
 31
0.0
  0
LINE
  5
1EA
330
55
100
AcDbEntity
  8
0
  6
Continuous
 62
     7
100
AcDbLine
 10
-156.0500006796152
 20
-110.2499985057153
 30
0.0
 11
-156.0500006796151
 21
-111.9918569344194
 31
0.0
  0
LINE
  5
1EB
330
55
100
AcDbEntity
  8
0
  6
Continuous
 62
     7
100
AcDbLine
 10
-172.4000003035687
 20
-138.6999985057152
 30
0.0
 11
-171.3500004864079
 21
-138.6999985057152
 31
0.0
  0
LINE
  5
1EC
330
55
100
AcDbEntity
  8
0
  6
Continuous
 62
     7
100
AcDbLine
 10
-170.3000004864079
 20
-138.6999985057152
 30
0.0
 11
-169.2500004864079
 21
-138.6999985057152
 31
0.0
  0
LINE
  5
1ED
330
55
100
AcDbEntity
  8
0
  6
Continuous
 62
     7
100
AcDbLine
 10
-171.3500004864079
 20
-138.6999985057152
 30
0.0
 11
-170.3000004864079
 21
-138.6999985057152
 31
0.0
  0
LINE
  5
1EE
330
55
100
AcDbEntity
  8
0
  6
Continuous
 62
     7
100
AcDbLine
 10
-171.6376540529992
 20
-138.9876524452093
 30
0.0
 11
-171.409542890057
 21
-139.4999985057153
 31
0.0
  0
LINE
  5
1EF
330
55
100
AcDbEntity
  8
0
  6
Continuous
 62
     7
100
AcDbLine
 10
-169.2500004864079
 20
-138.6999985057152
 30
0.0
 11
-168.2000001135052
 21
-138.6999985057152
 31
0.0
  0
LINE
  5
1F0
330
55
100
AcDbEntity
  8
0
  6
Continuous
 62
     7
100
AcDbLine
 10
-168.2000001135052
 20
-138.6999985057152
 30
0.0
 11
-161.0000004864079
 21
-138.6999985057152
 31
0.0
  0
LINE
  5
1F1
330
55
100
AcDbEntity
  8
0
  6
Continuous
 62
     7
100
AcDbLine
 10
-157.2000006796151
 20
-112.2999985057152
 30
0.0
 11
-159.3000006796151
 21
-115.9373052016099
 31
0.0
  0
LINE
  5
1F2
330
55
100
AcDbEntity
  8
0
  6
Continuous
 62
     7
100
AcDbLine
 10
-156.0500006796151
 20
-111.9918569344194
 30
0.0
 11
-157.2000006796151
 21
-112.2999985057152
 31
0.0
  0
LINE
  5
1F3
330
55
100
AcDbEntity
  8
0
  6
Continuous
 62
     7
100
AcDbLine
 10
-190.0183533138888
 20
-106.2056599465307
 30
0.0
 11
-190.7700124088561
 21
-105.4540008515634
 31
0.0
  0
LINE
  5
1F4
330
55
100
AcDbEntity
  8
0
  6
Continuous
 62
     7
100
AcDbLine
 10
-191.9829449323894
 20
-103.6829427584896
 30
0.0
 11
-190.4000006796151
 21
-102.0999985057153
 31
0.0
  0
LINE
  5
1F5
330
55
100
AcDbEntity
  8
0
  6
Continuous
 62
     7
100
AcDbLine
 10
-190.7700124088561
 20
-105.4540008515634
 30
0.0
 11
-191.1466144696074
 21
-105.8306029123147
 31
0.0
  0
LINE
  5
1F6
330
55
100
AcDbEntity
  8
0
  6
Continuous
 62
     7
100
AcDbLine
 10
-191.1466144696074
 20
-105.8306029123147
 30
0.0
 11
-191.9829449323894
 21
-103.6829427584896
 31
0.0
  0
LINE
  5
1F7
330
55
100
AcDbEntity
  8
0
  6
Continuous
 62
     7
100
AcDbLine
 10
-190.4000006796151
 20
-102.0999985057153
 30
0.0
 11
-164.2000006796152
 21
-102.0999985057153
 31
0.0
  0
LINE
  5
1F8
330
55
100
AcDbEntity
  8
0
  6
Continuous
 62
     7
100
AcDbLine
 10
-194.4943392387996
 20
-110.6816458714416
 30
0.0
 11
-190.0183533138888
 21
-106.2056599465307
 31
0.0
  0
LINE
  5
1F9
330
55
100
AcDbEntity
  8
0
  6
Continuous
 62
     7
100
AcDbLine
 10
-183.6195126815298
 20
-147.899998878618
 30
0.0
 11
-184.4000004864079
 21
-147.899998878618
 31
0.0
  0
LINE
  5
1FA
330
55
100
AcDbEntity
  8
0
  6
Continuous
 62
     7
100
AcDbLine
 10
-192.9000002606741
 20
-143.5999985057153
 30
0.0
 11
-193.7574376764537
 21
-146.7999985057153
 31
0.0
  0
LINE
  5
1FB
330
55
100
AcDbEntity
  8
0
  6
Continuous
 62
     7
100
AcDbLine
 10
-187.0000004864079
 20
-147.899998878618
 30
0.0
 11
-184.4000004864079
 21
-147.899998878618
 31
0.0
  0
LINE
  5
1FC
330
55
100
AcDbEntity
  8
0
  6
Continuous
 62
     7
100
AcDbLine
 10
-187.0000004864079
 20
-144.8999985057153
 30
0.0
 11
-187.0000004864079
 21
-147.899998878618
 31
0.0
  0
LINE
  5
1FD
330
55
100
AcDbEntity
  8
0
  6
Continuous
 62
     7
100
AcDbLine
 10
-181.0585366170144
 20
-145.7999985057153
 30
0.0
 11
-183.6195126815298
 21
-147.899998878618
 31
0.0
  0
LINE
  5
1FE
330
55
100
AcDbEntity
  8
0
  6
Continuous
 62
     7
100
AcDbLine
 10
-156.0500006796151
 20
-133.8999985057153
 30
0.0
 11
-159.3000006796151
 21
-132.6999985057152
 31
0.0
  0
LINE
  5
1FF
330
55
100
AcDbEntity
  8
0
  6
Continuous
 62
     7
100
AcDbLine
 10
-156.0500006796151
 20
-138.6999985057152
 30
0.0
 11
-156.0500006796151
 21
-133.8999985057153
 31
0.0
  0
LINE
  5
200
330
55
100
AcDbEntity
  8
0
  6
Continuous
 62
     7
100
AcDbLine
 10
-170.3000004864079
 20
-138.6999985057152
 30
0.0
 11
-170.8250004864079
 21
-139.2249988786179
 31
0.0
  0
LINE
  5
201
330
55
100
AcDbEntity
  8
0
  6
Continuous
 62
     7
100
AcDbLine
 10
-171.8750004864079
 20
-139.224998878618
 30
0.0
 11
-172.4000003035687
 21
-138.6999985057152
 31
0.0
  0
LINE
  5
202
330
55
100
AcDbEntity
  8
0
  6
Continuous
 62
     7
100
AcDbLine
 10
-171.3500004864079
 20
-138.6999985057152
 30
0.0
 11
-171.8750004864079
 21
-139.224998878618
 31
0.0
  0
LINE
  5
203
330
55
100
AcDbEntity
  8
0
  6
Continuous
 62
     7
100
AcDbLine
 10
-160.7000004864079
 20
-142.799998878618
 30
0.0
 11
-161.0000004864079
 21
-143.099998878618
 31
0.0
  0
LINE
  5
204
330
55
100
AcDbEntity
  8
0
  6
Continuous
 62
     7
100
AcDbLine
 10
-169.2500004864079
 20
-138.6999985057152
 30
0.0
 11
-169.7750004864079
 21
-139.224998878618
 31
0.0
  0
LINE
  5
205
330
55
100
AcDbEntity
  8
0
  6
Continuous
 62
     7
100
AcDbLine
 10
-168.7250004864079
 20
-139.224998878618
 30
0.0
 11
-169.2500004864079
 21
-138.6999985057152
 31
0.0
  0
LINE
  5
206
330
55
100
AcDbEntity
  8
0
  6
Continuous
 62
     7
100
AcDbLine
 10
-168.2000001135052
 20
-138.6999985057152
 30
0.0
 11
-168.7250004864079
 21
-139.224998878618
 31
0.0
  0
LINE
  5
207
330
55
100
AcDbEntity
  8
0
  6
Continuous
 62
     7
100
AcDbLine
 10
-161.0000004864079
 20
-141.299998878618
 30
0.0
 11
-160.7000004864079
 21
-141.599998878618
 31
0.0
  0
LINE
  5
208
330
55
100
AcDbEntity
  8
0
  6
Continuous
 62
     7
100
AcDbLine
 10
-161.0000004864079
 20
-138.6999985057152
 30
0.0
 11
-161.0000004864079
 21
-141.299998878618
 31
0.0
  0
LINE
  5
209
330
55
100
AcDbEntity
  8
0
  6
Continuous
 62
     7
100
AcDbLine
 10
-159.7000004864079
 20
-142.799998878618
 30
0.0
 11
-160.7000004864079
 21
-142.799998878618
 31
0.0
  0
LINE
  5
20A
330
55
100
AcDbEntity
  8
0
  6
Continuous
 62
     7
100
AcDbLine
 10
-159.7000004864079
 20
-141.599998878618
 30
0.0
 11
-159.7000004864079
 21
-142.799998878618
 31
0.0
  0
LINE
  5
20B
330
55
100
AcDbEntity
  8
0
  6
Continuous
 62
     7
100
AcDbLine
 10
-160.7000004864079
 20
-141.599998878618
 30
0.0
 11
-159.7000004864079
 21
-141.599998878618
 31
0.0
  0
LINE
  5
20C
330
55
100
AcDbEntity
  8
0
  6
Continuous
 62
     7
100
AcDbLine
 10
-156.7000004864079
 20
-138.6999985057152
 30
0.0
 11
-156.0500006796151
 21
-138.6999985057152
 31
0.0
  0
LINE
  5
20D
330
55
100
AcDbEntity
  8
0
  6
Continuous
 62
     7
100
AcDbLine
 10
-192.3000004864079
 20
-141.3999985057152
 30
0.0
 11
-190.5000004864079
 21
-141.3999985057153
 31
0.0
  0
LINE
  5
20E
330
55
100
AcDbEntity
  8
0
  6
Continuous
 62
     7
100
AcDbLine
 10
-192.8000004864079
 20
-141.8999985057152
 30
0.0
 11
-192.3000004864079
 21
-141.3999985057152
 31
0.0
  0
LINE
  5
20F
330
55
100
AcDbEntity
  8
0
  6
Continuous
 62
     7
100
AcDbLine
 10
-193.3000004864079
 20
-141.3999985057152
 30
0.0
 11
-192.8000004864079
 21
-141.8999985057152
 31
0.0
  0
LINE
  5
210
330
55
100
AcDbEntity
  8
0
  6
Continuous
 62
     7
100
AcDbLine
 10
-194.5000002606741
 20
-142.3999985057153
 30
0.0
 11
-192.9000002606741
 21
-142.6821216748488
 31
0.0
  0
LINE
  5
211
330
55
100
AcDbEntity
  8
0
  6
Continuous
 62
     7
100
AcDbLine
 10
-194.3000004864079
 20
-141.3999985057153
 30
0.0
 11
-193.8000004864079
 21
-141.8999985057153
 31
0.0
  0
LINE
  5
212
330
55
100
AcDbEntity
  8
0
  6
Continuous
 62
     7
100
AcDbLine
 10
-194.8000004864078
 20
-141.8999985057153
 30
0.0
 11
-194.3000004864079
 21
-141.3999985057153
 31
0.0
  0
LINE
  5
213
330
55
100
AcDbEntity
  8
0
  6
Continuous
 62
     7
100
AcDbLine
 10
-193.8000004864079
 20
-141.8999985057153
 30
0.0
 11
-193.3000004864079
 21
-141.3999985057152
 31
0.0
  0
LINE
  5
214
330
55
100
AcDbEntity
  8
0
  6
Continuous
 62
     7
100
AcDbLine
 10
-170.3000004864079
 20
-138.6999985057152
 30
0.0
 11
-169.7750004864079
 21
-139.224998878618
 31
0.0
  0
LINE
  5
215
330
55
100
AcDbEntity
  8
0
  6
Continuous
 62
     7
100
AcDbLine
 10
-170.8250004864079
 20
-139.2249988786179
 30
0.0
 11
-171.3500004864079
 21
-138.6999985057152
 31
0.0
  0
LINE
  5
216
330
55
100
AcDbEntity
  8
0
  6
Continuous
 62
     7
100
AcDbLine
 10
-161.0000004864079
 20
-145.799998878618
 30
0.0
 11
-156.7000004864079
 21
-145.799998878618
 31
0.0
  0
LINE
  5
217
330
55
100
AcDbEntity
  8
0
  6
Continuous
 62
     7
100
AcDbLine
 10
-193.7574376764537
 20
-146.7999985057153
 30
0.0
 11
-198.4000002606741
 21
-146.7999985057153
 31
0.0
  0
LINE
  5
218
330
55
100
AcDbEntity
  8
0
  6
Continuous
 62
     7
100
AcDbLine
 10
-169.3000002606741
 20
-145.7999985057153
 30
0.0
 11
-181.0585366170144
 21
-145.7999985057153
 31
0.0
  0
LINE
  5
219
330
55
100
AcDbEntity
  8
0
  6
Continuous
 62
     7
100
AcDbLine
 10
-195.3000006796152
 20
-132.6999985057152
 30
0.0
 11
-195.3000006796152
 21
-115.9373052016099
 31
0.0
  0
LINE
  5
21A
330
55
100
AcDbEntity
  8
0
  6
Continuous
 62
     7
100
AcDbLine
 10
-194.8696406668141
 20
-109.5536291095214
 30
0.0
 11
-195.245998333767
 21
-109.9299867764743
 31
0.0
  0
LINE
  5
21B
330
55
100
AcDbEntity
  8
0
  6
Continuous
 62
     7
100
AcDbLine
 10
-195.3000004864079
 20
-138.6999985057152
 30
0.0
 11
-195.3000004864079
 21
-141.3999985057152
 31
0.0
  0
LINE
  5
21C
330
55
100
AcDbEntity
  8
0
  6
Continuous
 62
     7
100
AcDbLine
 10
-194.5000002606741
 20
-141.5999982799815
 30
0.0
 11
-194.5000002606741
 21
-142.3999985057153
 31
0.0
  0
LINE
  5
21D
330
55
100
AcDbEntity
  8
0
  6
Continuous
 62
     7
100
AcDbLine
 10
-195.245998333767
 20
-109.9299867764743
 30
0.0
 11
-194.4943392387996
 21
-110.6816458714416
 31
0.0
  0
LINE
  5
21E
330
55
100
AcDbEntity
  8
0
  6
Continuous
 62
     7
100
AcDbLine
 10
-195.3000004864079
 20
-141.3999985057152
 30
0.0
 11
-194.8000004864078
 21
-141.8999985057153
 31
0.0
  0
LINE
  5
21F
330
55
100
AcDbEntity
  8
0
  6
Continuous
 62
     7
100
AcDbLine
 10
-197.0173008206393
 20
-108.7172986467393
 30
0.0
 11
-194.8696406668141
 21
-109.5536291095214
 31
0.0
  0
LINE
  5
220
330
55
100
AcDbEntity
  8
0
  6
Continuous
 62
     7
100
AcDbLine
 10
-195.3000006796152
 20
-115.9373052016099
 30
0.0
 11
-197.4000006796152
 21
-112.2999985057152
 31
0.0
  0
LINE
  5
221
330
55
100
AcDbEntity
  8
0
  6
Continuous
 62
     7
100
AcDbLine
 10
-198.5500006796152
 20
-111.9918569344194
 30
0.0
 11
-198.5500006796151
 21
-110.2499985057152
 31
0.0
  0
LINE
  5
222
330
55
100
AcDbEntity
  8
0
  6
Continuous
 62
     7
100
AcDbLine
 10
-198.5500006796151
 20
-138.6999985057152
 30
0.0
 11
-198.4000002606741
 21
-138.6999985057152
 31
0.0
  0
LINE
  5
223
330
55
100
AcDbEntity
  8
0
  6
Continuous
 62
     7
100
AcDbLine
 10
-198.4000002606741
 20
-146.7999985057153
 30
0.0
 11
-198.4000002606741
 21
-138.6999985057152
 31
0.0
  0
LINE
  5
224
330
55
100
AcDbEntity
  8
0
  6
Continuous
 62
     7
100
AcDbLine
 10
-198.5500006796151
 20
-110.2499985057152
 30
0.0
 11
-197.0173008206393
 21
-108.7172986467393
 31
0.0
  0
LINE
  5
225
330
55
100
AcDbEntity
  8
0
  6
Continuous
 62
     7
100
AcDbLine
 10
-198.5500006796151
 20
-133.8999985057153
 30
0.0
 11
-198.5500006796151
 21
-138.6999985057152
 31
0.0
  0
LINE
  5
226
330
55
100
AcDbEntity
  8
0
  6
Continuous
 62
     7
100
AcDbLine
 10
-197.4000006796152
 20
-112.2999985057152
 30
0.0
 11
-198.5500006796152
 21
-111.9918569344194
 31
0.0
  0
LINE
  5
227
330
55
100
AcDbEntity
  8
0
  6
Continuous
 62
     7
100
AcDbLine
 10
-195.3000006796152
 20
-132.6999985057152
 30
0.0
 11
-198.5500006796151
 21
-133.8999985057153
 31
0.0
  0
LINE
  5
228
330
55
100
AcDbEntity
  8
0
  6
Continuous
 62
     7
100
AcDbLine
 10
-172.4000003035687
 20
-138.6999985057152
 30
0.0
 11
-181.0585366170144
 21
-145.7999985057153
 31
0.0
  0
ARC
  5
229
330
55
100
AcDbEntity
  8
0
  6
Continuous
 62
     7
100
AcDbCircle
 10
-190.5000004864079
 20
-144.8999985057153
 30
0.0
 40
3.5
100
AcDbArc
 50
0.0
 51
90.0
  0
ENDBLK
  5
57
330
55
100
AcDbEntity
  8
0
100
AcDbBlockEnd
  0
BLOCK
  5
5A
330
58
100
AcDbEntity
  8
0
100
AcDbBlockBegin
  2
Rckans1
 70
     0
 10
-177.30000570185
 20
-124.9999985694685
 30
0.0
  3
Rckans1
  1

  0
INSERT
  5
59
330
58
100
AcDbEntity
  8
0
100
AcDbBlockReference
  2
USLKG_10-1-select__3
 10
-198.5500006796152
 20
-147.899998878618
 30
0.0
  0
MTEXT
  5
22A
330
58
100
AcDbEntity
  8
1
 62
     6
100
AcDbMText
 10
-177.30000570185
 20
-152.9000000953474
 30
0.0
 40
5.0
 41
0.0
 71
     2
 72
     1
  1
 
  7
CONVERTER_11
 73
     1
 44
1.32052821128451
  0
ENDBLK
  5
5B
330
58
100
AcDbEntity
  8
0
100
AcDbBlockEnd
  0
BLOCK
  5
5D
330
5C
100
AcDbEntity
  8
0
100
AcDbBlockBegin
  2
USLKG_10-1-select__4
 70
     0
 10
-233.7250036064945
 20
-147.899998878618
 30
0.0
  3
USLKG_10-1-select__4
  1

  0
LINE
  5
22B
330
5C
100
AcDbEntity
  8
0
  6
Continuous
 62
     7
100
AcDbLine
 10
-233.7250036064945
 20
-102.0999985057153
 30
0.0
 11
-233.7250036064945
 21
-103.6829427584895
 31
0.0
  0
LINE
  5
22C
330
5C
100
AcDbEntity
  8
0
  6
Continuous
 62
     7
100
AcDbLine
 10
-229.6500036064946
 20
-102.0999985057152
 30
0.0
 11
-233.7250036064945
 21
-102.0999985057153
 31
0.0
  0
LINE
  5
22D
330
5C
100
AcDbEntity
  8
0
  6
Continuous
 62
     7
100
AcDbLine
 10
-228.3900036064945
 20
-139.4999985057153
 30
0.0
 11
-230.8900036064945
 21
-139.4999985057153
 31
0.0
  0
LINE
  5
22E
330
5C
100
AcDbEntity
  8
0
  6
Continuous
 62
     7
100
AcDbLine
 10
-228.3900036064945
 20
-141.6095411350983
 30
0.0
 11
-230.8900036064945
 21
-141.6095411350983
 31
0.0
  0
LINE
  5
22F
330
5C
100
AcDbEntity
  8
0
  6
Continuous
 62
     7
100
AcDbLine
 10
-232.6400036064945
 20
-139.224998878618
 30
0.0
 11
-232.6400036064945
 21
-147.899998878618
 31
0.0
  0
LINE
  5
230
330
5C
100
AcDbEntity
  8
0
  6
Continuous
 62
     7
100
AcDbLine
 10
-229.6500036064946
 20
-102.0999985057152
 30
0.0
 11
-225.5750036064945
 21
-102.0999985057152
 31
0.0
  0
LINE
  5
231
330
5C
100
AcDbEntity
  8
0
  6
Continuous
 62
     7
100
AcDbLine
 10
-229.6500036064946
 20
-128.8499985057152
 30
0.0
 11
-227.5250036064945
 21
-128.8499985057153
 31
0.0
  0
LINE
  5
232
330
5C
100
AcDbEntity
  8
0
  6
Continuous
 62
     7
100
AcDbLine
 10
-227.5250036064946
 20
-123.9999985057153
 30
0.0
 11
-229.6500036064946
 21
-123.9999985057152
 31
0.0
  0
LINE
  5
233
330
5C
100
AcDbEntity
  8
0
  6
Continuous
 62
     7
100
AcDbLine
 10
-225.5750036064945
 20
-108.7172986467394
 30
0.0
 11
-229.6500036064946
 21
-108.7172986467393
 31
0.0
  0
LINE
  5
234
330
5C
100
AcDbEntity
  8
0
  6
Continuous
 62
     7
100
AcDbLine
 10
-225.5750036064945
 20
-105.8306029123148
 30
0.0
 11
-229.6500036064946
 21
-105.8306029123147
 31
0.0
  0
LINE
  5
235
330
5C
100
AcDbEntity
  8
0
  6
Continuous
 62
     7
100
AcDbLine
 10
-225.5750036064945
 20
-110.2499985057153
 30
0.0
 11
-229.6500036064946
 21
-110.2499985057153
 31
0.0
  0
LINE
  5
236
330
5C
100
AcDbEntity
  8
0
  6
Continuous
 62
     7
100
AcDbLine
 10
-225.5750036064945
 20
-111.9918569344195
 30
0.0
 11
-229.6500036064946
 21
-111.9918569344195
 31
0.0
  0
LINE
  5
237
330
5C
100
AcDbEntity
  8
0
  6
Continuous
 62
     7
100
AcDbLine
 10
-225.5750036064945
 20
-112.2999985057152
 30
0.0
 11
-229.6500036064946
 21
-112.2999985057152
 31
0.0
  0
LINE
  5
238
330
5C
100
AcDbEntity
  8
0
  6
Continuous
 62
     7
100
AcDbLine
 10
-229.6500036064946
 20
-115.9373052016098
 30
0.0
 11
-226.1250036064945
 21
-115.9373052016098
 31
0.0
  0
LINE
  5
239
330
5C
100
AcDbEntity
  8
0
  6
Continuous
 62
     7
100
AcDbLine
 10
-229.6500036064946
 20
-132.6999985057152
 30
0.0
 11
-226.1250036064945
 21
-132.6999985057153
 31
0.0
  0
LINE
  5
23A
330
5C
100
AcDbEntity
  8
0
  6
Continuous
 62
     7
100
AcDbLine
 10
-225.5750036064945
 20
-133.8999985057153
 30
0.0
 11
-229.6500036064946
 21
-133.8999985057153
 31
0.0
  0
LINE
  5
23B
330
5C
100
AcDbEntity
  8
0
  6
Continuous
 62
     2
100
AcDbLine
 10
-229.6500036064946
 20
-108.7172986467393
 30
0.0
 11
-229.6500036064946
 21
-110.2499985057153
 31
0.0
  0
LINE
  5
23C
330
5C
100
AcDbEntity
  8
0
  6
Continuous
 62
     2
100
AcDbLine
 10
-229.6500036064946
 20
-110.2499985057153
 30
0.0
 11
-229.6500036064946
 21
-111.9918569344195
 31
0.0
  0
LINE
  5
23D
330
5C
100
AcDbEntity
  8
0
  6
Continuous
 62
     7
100
AcDbLine
 10
-228.3900036064945
 20
-138.6999985057153
 30
0.0
 11
-228.3900036064945
 21
-139.4999985057153
 31
0.0
  0
LINE
  5
23E
330
5C
100
AcDbEntity
  8
0
  6
Continuous
 62
     7
100
AcDbLine
 10
-228.3900036064945
 20
-139.4999985057153
 30
0.0
 11
-228.3900036064945
 21
-141.6095411350983
 31
0.0
  0
LINE
  5
23F
330
5C
100
AcDbEntity
  8
0
  6
Continuous
 62
     7
100
AcDbLine
 10
-228.3900036064945
 20
-138.6999985057153
 30
0.0
 11
-229.6500036064946
 21
-138.6999985057153
 31
0.0
  0
LINE
  5
240
330
5C
100
AcDbEntity
  8
0
  6
Continuous
 62
     2
100
AcDbLine
 10
-229.6500036064946
 20
-106.2056599465307
 30
0.0
 11
-229.6500036064946
 21
-108.7172986467393
 31
0.0
  0
LINE
  5
241
330
5C
100
AcDbEntity
  8
0
  6
Continuous
 62
     7
100
AcDbLine
 10
-225.5750036064945
 20
-106.2056599465308
 30
0.0
 11
-229.6500036064946
 21
-106.2056599465307
 31
0.0
  0
LINE
  5
242
330
5C
100
AcDbEntity
  8
0
  6
Continuous
 62
     7
100
AcDbLine
 10
-225.5750036064945
 20
-103.6829427584895
 30
0.0
 11
-229.6500036064946
 21
-103.6829427584896
 31
0.0
  0
LINE
  5
243
330
5C
100
AcDbEntity
  8
0
  6
Continuous
 62
     7
100
AcDbLine
 10
-233.7250036064945
 20
-103.6829427584895
 30
0.0
 11
-233.7250036064945
 21
-105.8306029123147
 31
0.0
  0
LINE
  5
244
330
5C
100
AcDbEntity
  8
0
  6
Continuous
 62
     7
100
AcDbLine
 10
-233.7250036064945
 20
-105.8306029123147
 30
0.0
 11
-233.7250036064945
 21
-106.2056599465307
 31
0.0
  0
LINE
  5
245
330
5C
100
AcDbEntity
  8
0
  6
Continuous
 62
     7
100
AcDbLine
 10
-232.1400036064945
 20
-139.224998878618
 30
0.0
 11
-232.1400036064945
 21
-145.799998878618
 31
0.0
  0
LINE
  5
246
330
5C
100
AcDbEntity
  8
0
  6
Continuous
 62
     7
100
AcDbLine
 10
-233.7250036064945
 20
-106.2056599465307
 30
0.0
 11
-233.7250036064945
 21
-108.7172986467394
 31
0.0
  0
LINE
  5
247
330
5C
100
AcDbEntity
  8
0
  6
Continuous
 62
     7
100
AcDbLine
 10
-232.1400036064945
 20
-145.799998878618
 30
0.0
 11
-231.1400036064945
 21
-145.799998878618
 31
0.0
  0
LINE
  5
248
330
5C
100
AcDbEntity
  8
0
  6
Continuous
 62
     7
100
AcDbLine
 10
-231.1400036064945
 20
-145.799998878618
 30
0.0
 11
-231.1400036064945
 21
-138.6999985057153
 31
0.0
  0
LINE
  5
249
330
5C
100
AcDbEntity
  8
0
  6
Continuous
 62
     7
100
AcDbLine
 10
-230.8900036064945
 20
-145.7999985057153
 30
0.0
 11
-230.8900036064945
 21
-146.7999985057153
 31
0.0
  0
LINE
  5
24A
330
5C
100
AcDbEntity
  8
0
  6
Continuous
 62
     7
100
AcDbLine
 10
-230.8900036064945
 20
-141.6095411350983
 30
0.0
 11
-230.8900036064945
 21
-145.7999985057153
 31
0.0
  0
LINE
  5
24B
330
5C
100
AcDbEntity
  8
0
  6
Continuous
 62
     7
100
AcDbLine
 10
-225.5750036064945
 20
-105.8306029123148
 30
0.0
 11
-225.5750036064945
 21
-103.6829427584895
 31
0.0
  0
LINE
  5
24C
330
5C
100
AcDbEntity
  8
0
  6
Continuous
 62
     7
100
AcDbLine
 10
-225.5750036064945
 20
-103.6829427584895
 30
0.0
 11
-225.5750036064945
 21
-102.0999985057152
 31
0.0
  0
LINE
  5
24D
330
5C
100
AcDbEntity
  8
0
  6
Continuous
 62
     7
100
AcDbLine
 10
-225.5750036064945
 20
-105.8306029123148
 30
0.0
 11
-225.5750036064945
 21
-106.2056599465308
 31
0.0
  0
LINE
  5
24E
330
5C
100
AcDbEntity
  8
0
  6
Continuous
 62
     7
100
AcDbLine
 10
-227.1400036064945
 20
-138.6999985057153
 30
0.0
 11
-228.1400036064945
 21
-138.6999985057153
 31
0.0
  0
LINE
  5
24F
330
5C
100
AcDbEntity
  8
0
  6
Continuous
 62
     7
100
AcDbLine
 10
-227.5250036064945
 20
-128.8499985057153
 30
0.0
 11
-227.5250036064946
 21
-123.9999985057153
 31
0.0
  0
LINE
  5
250
330
5C
100
AcDbEntity
  8
0
  6
Continuous
 62
     7
100
AcDbLine
 10
-225.5750036064945
 20
-132.6999985057153
 30
0.0
 11
-226.1250036064945
 21
-132.6999985057153
 31
0.0
  0
LINE
  5
251
330
5C
100
AcDbEntity
  8
0
  6
Continuous
 62
     7
100
AcDbLine
 10
-226.1250036064945
 20
-130.736009385068
 30
0.0
 11
-226.1250036064945
 21
-132.6999985057153
 31
0.0
  0
LINE
  5
252
330
5C
100
AcDbEntity
  8
0
  6
Continuous
 62
     7
100
AcDbLine
 10
-225.5750036064945
 20
-133.8999985057153
 30
0.0
 11
-225.5750036064945
 21
-132.6999985057153
 31
0.0
  0
LINE
  5
253
330
5C
100
AcDbEntity
  8
0
  6
Continuous
 62
     7
100
AcDbLine
 10
-225.5750036064945
 20
-138.6999985057153
 30
0.0
 11
-225.5750036064945
 21
-133.8999985057153
 31
0.0
  0
LINE
  5
254
330
5C
100
AcDbEntity
  8
0
  6
Continuous
 62
     7
100
AcDbLine
 10
-225.5750036064945
 20
-112.2999985057152
 30
0.0
 11
-225.5750036064945
 21
-111.9918569344195
 31
0.0
  0
LINE
  5
255
330
5C
100
AcDbEntity
  8
0
  6
Continuous
 62
     7
100
AcDbLine
 10
-225.5750036064945
 20
-111.9918569344195
 30
0.0
 11
-225.5750036064945
 21
-110.2499985057153
 31
0.0
  0
LINE
  5
256
330
5C
100
AcDbEntity
  8
0
  6
Continuous
 62
     7
100
AcDbLine
 10
-225.5750036064945
 20
-112.2999985057152
 30
0.0
 11
-225.5750036064945
 21
-115.9373052016099
 31
0.0
  0
LINE
  5
257
330
5C
100
AcDbEntity
  8
0
  6
Continuous
 62
     7
100
AcDbLine
 10
-225.5750036064945
 20
-110.2499985057153
 30
0.0
 11
-225.5750036064945
 21
-108.7172986467394
 31
0.0
  0
LINE
  5
258
330
5C
100
AcDbEntity
  8
0
  6
Continuous
 62
     7
100
AcDbLine
 10
-225.5750036064945
 20
-108.7172986467394
 30
0.0
 11
-225.5750036064945
 21
-106.2056599465308
 31
0.0
  0
LINE
  5
259
330
5C
100
AcDbEntity
  8
0
  6
Continuous
 62
     7
100
AcDbLine
 10
-226.6400036064945
 20
-138.6999985057153
 30
0.0
 11
-227.1400036064945
 21
-138.6999985057153
 31
0.0
  0
LINE
  5
25A
330
5C
100
AcDbEntity
  8
0
  6
Continuous
 62
     7
100
AcDbLine
 10
-225.5750036064945
 20
-138.6999985057153
 30
0.0
 11
-226.6400036064945
 21
-138.6999985057153
 31
0.0
  0
LINE
  5
25B
330
5C
100
AcDbEntity
  8
0
  6
Continuous
 62
     7
100
AcDbLine
 10
-225.5750036064945
 20
-115.9373052016099
 30
0.0
 11
-226.1250036064945
 21
-115.9373052016098
 31
0.0
  0
LINE
  5
25C
330
5C
100
AcDbEntity
  8
0
  6
Continuous
 62
     7
100
AcDbLine
 10
-226.1250036064945
 20
-115.9373052016098
 30
0.0
 11
-226.1250036064945
 21
-120.0503031061237
 31
0.0
  0
LINE
  5
25D
330
5C
100
AcDbEntity
  8
0
  6
Continuous
 62
     7
100
AcDbLine
 10
-227.1400036064945
 20
-139.224998878618
 30
0.0
 11
-227.1400036064945
 21
-145.799998878618
 31
0.0
  0
LINE
  5
25E
330
5C
100
AcDbEntity
  8
0
  6
Continuous
 62
     7
100
AcDbLine
 10
-227.1400036064945
 20
-139.224998878618
 30
0.0
 11
-227.1400036064945
 21
-139.099998878618
 31
0.0
  0
LINE
  5
25F
330
5C
100
AcDbEntity
  8
0
  6
Continuous
 62
     7
100
AcDbLine
 10
-227.1400036064945
 20
-139.099998878618
 30
0.0
 11
-227.1400036064945
 21
-138.6999985057153
 31
0.0
  0
LINE
  5
260
330
5C
100
AcDbEntity
  8
0
  6
Continuous
 62
     7
100
AcDbLine
 10
-226.6400036064945
 20
-139.099998878618
 30
0.0
 11
-227.1400036064945
 21
-139.099998878618
 31
0.0
  0
LINE
  5
261
330
5C
100
AcDbEntity
  8
0
  6
Continuous
 62
     7
100
AcDbLine
 10
-226.6400036064945
 20
-139.099998878618
 30
0.0
 11
-226.6400036064945
 21
-139.224998878618
 31
0.0
  0
LINE
  5
262
330
5C
100
AcDbEntity
  8
0
  6
Continuous
 62
     7
100
AcDbLine
 10
-226.6400036064945
 20
-138.6999985057153
 30
0.0
 11
-226.6400036064945
 21
-139.099998878618
 31
0.0
  0
LINE
  5
263
330
5C
100
AcDbEntity
  8
0
  6
Continuous
 62
     7
100
AcDbLine
 10
-226.6400036064945
 20
-139.224998878618
 30
0.0
 11
-227.1400036064945
 21
-139.224998878618
 31
0.0
  0
LINE
  5
264
330
5C
100
AcDbEntity
  8
0
  6
Continuous
 62
     7
100
AcDbLine
 10
-227.6400036064945
 20
-145.799998878618
 30
0.0
 11
-227.6400036064945
 21
-147.899998878618
 31
0.0
  0
LINE
  5
265
330
5C
100
AcDbEntity
  8
0
  6
Continuous
 62
     7
100
AcDbLine
 10
-227.6400036064945
 20
-147.899998878618
 30
0.0
 11
-228.1400036064945
 21
-147.899998878618
 31
0.0
  0
LINE
  5
266
330
5C
100
AcDbEntity
  8
0
  6
Continuous
 62
     7
100
AcDbLine
 10
-226.6400036064945
 20
-139.224998878618
 30
0.0
 11
-226.6400036064945
 21
-147.899998878618
 31
0.0
  0
LINE
  5
267
330
5C
100
AcDbEntity
  8
0
  6
Continuous
 62
     7
100
AcDbLine
 10
-226.1250036064945
 20
-130.736009385068
 30
0.0
 11
-227.5250036064945
 21
-128.8499985057153
 31
0.0
  0
LINE
  5
268
330
5C
100
AcDbEntity
  8
0
  6
Continuous
 62
     7
100
AcDbLine
 10
-226.1250036064945
 20
-120.0503031061237
 30
0.0
 11
-226.1250036064945
 21
-130.736009385068
 31
0.0
  0
LINE
  5
269
330
5C
100
AcDbEntity
  8
0
  6
Continuous
 62
     7
100
AcDbLine
 10
-225.5750036064945
 20
-115.9373052016099
 30
0.0
 11
-225.5750036064945
 21
-132.6999985057153
 31
0.0
  0
LINE
  5
26A
330
5C
100
AcDbEntity
  8
0
  6
Continuous
 62
     7
100
AcDbLine
 10
-229.6500036064946
 20
-105.8306029123147
 30
0.0
 11
-233.7250036064945
 21
-105.8306029123147
 31
0.0
  0
LINE
  5
26B
330
5C
100
AcDbEntity
  8
0
  6
Continuous
 62
     7
100
AcDbLine
 10
-233.7250036064945
 20
-108.7172986467394
 30
0.0
 11
-233.7250036064945
 21
-110.2499985057153
 31
0.0
  0
LINE
  5
26C
330
5C
100
AcDbEntity
  8
0
  6
Continuous
 62
     7
100
AcDbLine
 10
-229.6500036064946
 20
-108.7172986467393
 30
0.0
 11
-233.7250036064945
 21
-108.7172986467394
 31
0.0
  0
LINE
  5
26D
330
5C
100
AcDbEntity
  8
0
  6
Continuous
 62
     7
100
AcDbLine
 10
-233.7250036064945
 20
-110.2499985057153
 30
0.0
 11
-233.7250036064945
 21
-111.9918569344195
 31
0.0
  0
LINE
  5
26E
330
5C
100
AcDbEntity
  8
0
  6
Continuous
 62
     7
100
AcDbLine
 10
-229.6500036064946
 20
-110.2499985057153
 30
0.0
 11
-233.7250036064945
 21
-110.2499985057153
 31
0.0
  0
LINE
  5
26F
330
5C
100
AcDbEntity
  8
0
  6
Continuous
 62
     7
100
AcDbLine
 10
-229.6500036064946
 20
-106.2056599465307
 30
0.0
 11
-233.7250036064945
 21
-106.2056599465307
 31
0.0
  0
LINE
  5
270
330
5C
100
AcDbEntity
  8
0
  6
Continuous
 62
     7
100
AcDbLine
 10
-229.6500036064946
 20
-103.6829427584896
 30
0.0
 11
-233.7250036064945
 21
-103.6829427584895
 31
0.0
  0
LINE
  5
271
330
5C
100
AcDbEntity
  8
0
  6
Continuous
 62
     2
100
AcDbLine
 10
-229.6500036064946
 20
-103.6829427584896
 30
0.0
 11
-229.6500036064946
 21
-105.8306029123147
 31
0.0
  0
LINE
  5
272
330
5C
100
AcDbEntity
  8
0
  6
Continuous
 62
     2
100
AcDbLine
 10
-229.6500036064946
 20
-102.0999985057152
 30
0.0
 11
-229.6500036064946
 21
-103.6829427584896
 31
0.0
  0
LINE
  5
273
330
5C
100
AcDbEntity
  8
0
  6
Continuous
 62
     2
100
AcDbLine
 10
-229.6500036064946
 20
-105.8306029123147
 30
0.0
 11
-229.6500036064946
 21
-106.2056599465307
 31
0.0
  0
LINE
  5
274
330
5C
100
AcDbEntity
  8
0
  6
Continuous
 62
     7
100
AcDbLine
 10
-228.1400036064945
 20
-145.799998878618
 30
0.0
 11
-228.1400036064945
 21
-138.6999985057153
 31
0.0
  0
LINE
  5
275
330
5C
100
AcDbEntity
  8
0
  6
Continuous
 62
     7
100
AcDbLine
 10
-228.1400036064945
 20
-138.6999985057153
 30
0.0
 11
-228.3900036064945
 21
-138.6999985057153
 31
0.0
  0
LINE
  5
276
330
5C
100
AcDbEntity
  8
0
  6
Continuous
 62
     7
100
AcDbLine
 10
-228.3900036064945
 20
-145.7999985057153
 30
0.0
 11
-228.3900036064945
 21
-141.6095411350983
 31
0.0
  0
LINE
  5
277
330
5C
100
AcDbEntity
  8
0
  6
Continuous
 62
     7
100
AcDbLine
 10
-230.8900036064945
 20
-139.4999985057153
 30
0.0
 11
-230.8900036064945
 21
-141.6095411350983
 31
0.0
  0
LINE
  5
278
330
5C
100
AcDbEntity
  8
0
  6
Continuous
 62
     7
100
AcDbLine
 10
-230.8900036064945
 20
-138.6999985057153
 30
0.0
 11
-230.8900036064945
 21
-139.4999985057153
 31
0.0
  0
LINE
  5
279
330
5C
100
AcDbEntity
  8
0
  6
Continuous
 62
     7
100
AcDbLine
 10
-233.1750036064945
 20
-132.6999985057153
 30
0.0
 11
-229.6500036064946
 21
-132.6999985057152
 31
0.0
  0
LINE
  5
27A
330
5C
100
AcDbEntity
  8
0
  6
Continuous
 62
     7
100
AcDbLine
 10
-229.6500036064946
 20
-112.2999985057152
 30
0.0
 11
-233.7250036064945
 21
-112.2999985057152
 31
0.0
  0
LINE
  5
27B
330
5C
100
AcDbEntity
  8
0
  6
Continuous
 62
     7
100
AcDbLine
 10
-232.6400036064945
 20
-139.224998878618
 30
0.0
 11
-232.1400036064945
 21
-139.224998878618
 31
0.0
  0
LINE
  5
27C
330
5C
100
AcDbEntity
  8
0
  6
Continuous
 62
     7
100
AcDbLine
 10
-232.6400036064945
 20
-138.6999985057153
 30
0.0
 11
-232.6400036064945
 21
-139.224998878618
 31
0.0
  0
LINE
  5
27D
330
5C
100
AcDbEntity
  8
0
  6
Continuous
 62
     7
100
AcDbLine
 10
-232.1400036064945
 20
-139.224998878618
 30
0.0
 11
-232.1400036064945
 21
-138.6999985057153
 31
0.0
  0
LINE
  5
27E
330
5C
100
AcDbEntity
  8
0
  6
Continuous
 62
     7
100
AcDbLine
 10
-229.6500036064946
 20
-133.8999985057153
 30
0.0
 11
-233.7250036064945
 21
-133.8999985057153
 31
0.0
  0
LINE
  5
27F
330
5C
100
AcDbEntity
  8
0
  6
Continuous
 62
     7
100
AcDbLine
 10
-229.6500036064946
 20
-138.6999985057153
 30
0.0
 11
-230.8900036064945
 21
-138.6999985057153
 31
0.0
  0
LINE
  5
280
330
5C
100
AcDbEntity
  8
0
  6
Continuous
 62
     7
100
AcDbLine
 10
-232.1400036064945
 20
-138.6999985057153
 30
0.0
 11
-232.6400036064945
 21
-138.6999985057153
 31
0.0
  0
LINE
  5
281
330
5C
100
AcDbEntity
  8
0
  6
Continuous
 62
     7
100
AcDbLine
 10
-231.1400036064945
 20
-138.6999985057153
 30
0.0
 11
-232.1400036064945
 21
-138.6999985057153
 31
0.0
  0
LINE
  5
282
330
5C
100
AcDbEntity
  8
0
  6
Continuous
 62
     7
100
AcDbLine
 10
-230.8900036064945
 20
-138.6999985057153
 30
0.0
 11
-231.1400036064945
 21
-138.6999985057153
 31
0.0
  0
LINE
  5
283
330
5C
100
AcDbEntity
  8
0
  6
Continuous
 62
     7
100
AcDbLine
 10
-232.6400036064945
 20
-138.6999985057153
 30
0.0
 11
-233.7250036064945
 21
-138.6999985057153
 31
0.0
  0
LINE
  5
284
330
5C
100
AcDbEntity
  8
0
  6
Continuous
 62
     7
100
AcDbLine
 10
-233.7250036064945
 20
-138.6999985057153
 30
0.0
 11
-233.7250036064945
 21
-133.8999985057153
 31
0.0
  0
LINE
  5
285
330
5C
100
AcDbEntity
  8
0
  6
Continuous
 62
     2
100
AcDbLine
 10
-229.6500036064946
 20
-133.8999985057153
 30
0.0
 11
-229.6500036064946
 21
-132.6999985057152
 31
0.0
  0
LINE
  5
286
330
5C
100
AcDbEntity
  8
0
  6
Continuous
 62
     2
100
AcDbLine
 10
-229.6500036064946
 20
-138.6999985057153
 30
0.0
 11
-229.6500036064946
 21
-133.8999985057153
 31
0.0
  0
LINE
  5
287
330
5C
100
AcDbEntity
  8
0
  6
Continuous
 62
     2
100
AcDbLine
 10
-229.6500036064946
 20
-128.8499985057152
 30
0.0
 11
-229.6500036064946
 21
-132.6999985057152
 31
0.0
  0
LINE
  5
288
330
5C
100
AcDbEntity
  8
0
  6
Continuous
 62
     2
100
AcDbLine
 10
-229.6500036064946
 20
-112.2999985057152
 30
0.0
 11
-229.6500036064946
 21
-115.9373052016098
 31
0.0
  0
LINE
  5
289
330
5C
100
AcDbEntity
  8
0
  6
Continuous
 62
     2
100
AcDbLine
 10
-229.6500036064946
 20
-111.9918569344195
 30
0.0
 11
-229.6500036064946
 21
-112.2999985057152
 31
0.0
  0
LINE
  5
28A
330
5C
100
AcDbEntity
  8
0
  6
Continuous
 62
     2
100
AcDbLine
 10
-229.6500036064946
 20
-115.9373052016098
 30
0.0
 11
-229.6500036064946
 21
-123.9999985057152
 31
0.0
  0
LINE
  5
28B
330
5C
100
AcDbEntity
  8
0
  6
Continuous
 62
     7
100
AcDbLine
 10
-229.6500036064946
 20
-111.9918569344195
 30
0.0
 11
-233.7250036064945
 21
-111.9918569344195
 31
0.0
  0
LINE
  5
28C
330
5C
100
AcDbEntity
  8
0
  6
Continuous
 62
     7
100
AcDbLine
 10
-233.1750036064945
 20
-115.9373052016099
 30
0.0
 11
-229.6500036064946
 21
-115.9373052016098
 31
0.0
  0
LINE
  5
28D
330
5C
100
AcDbEntity
  8
0
  6
Continuous
 62
     2
100
AcDbLine
 10
-229.6500036064946
 20
-128.8499985057152
 30
0.0
 11
-229.6500036064946
 21
-123.9999985057152
 31
0.0
  0
LINE
  5
28E
330
5C
100
AcDbEntity
  8
0
  6
Continuous
 62
     7
100
AcDbLine
 10
-231.7750036064945
 20
-128.8499985057152
 30
0.0
 11
-229.6500036064946
 21
-128.8499985057152
 31
0.0
  0
LINE
  5
28F
330
5C
100
AcDbEntity
  8
0
  6
Continuous
 62
     7
100
AcDbLine
 10
-229.6500036064946
 20
-123.9999985057152
 30
0.0
 11
-231.7750036064945
 21
-123.9999985057153
 31
0.0
  0
LINE
  5
290
330
5C
100
AcDbEntity
  8
0
  6
Continuous
 62
     7
100
AcDbLine
 10
-231.7750036064945
 20
-128.8499985057152
 30
0.0
 11
-231.7750036064945
 21
-123.9999985057153
 31
0.0
  0
LINE
  5
291
330
5C
100
AcDbEntity
  8
0
  6
Continuous
 62
     7
100
AcDbLine
 10
-231.7750036064945
 20
-128.8499985057152
 30
0.0
 11
-233.1750036064945
 21
-130.736009385068
 31
0.0
  0
LINE
  5
292
330
5C
100
AcDbEntity
  8
0
  6
Continuous
 62
     7
100
AcDbLine
 10
-233.7250036064945
 20
-133.8999985057153
 30
0.0
 11
-233.7250036064945
 21
-132.6999985057153
 31
0.0
  0
LINE
  5
293
330
5C
100
AcDbEntity
  8
0
  6
Continuous
 62
     7
100
AcDbLine
 10
-233.7250036064945
 20
-112.2999985057152
 30
0.0
 11
-233.7250036064945
 21
-115.9373052016099
 31
0.0
  0
LINE
  5
294
330
5C
100
AcDbEntity
  8
0
  6
Continuous
 62
     7
100
AcDbLine
 10
-233.7250036064945
 20
-111.9918569344195
 30
0.0
 11
-233.7250036064945
 21
-112.2999985057152
 31
0.0
  0
LINE
  5
295
330
5C
100
AcDbEntity
  8
0
  6
Continuous
 62
     7
100
AcDbLine
 10
-233.7250036064945
 20
-115.9373052016099
 30
0.0
 11
-233.7250036064945
 21
-132.6999985057153
 31
0.0
  0
LINE
  5
296
330
5C
100
AcDbEntity
  8
0
  6
Continuous
 62
     7
100
AcDbLine
 10
-233.1750036064945
 20
-120.0503031061238
 30
0.0
 11
-233.1750036064945
 21
-115.9373052016099
 31
0.0
  0
LINE
  5
297
330
5C
100
AcDbEntity
  8
0
  6
Continuous
 62
     7
100
AcDbLine
 10
-233.1750036064945
 20
-132.6999985057153
 30
0.0
 11
-233.7250036064945
 21
-132.6999985057153
 31
0.0
  0
LINE
  5
298
330
5C
100
AcDbEntity
  8
0
  6
Continuous
 62
     7
100
AcDbLine
 10
-233.1750036064945
 20
-115.9373052016099
 30
0.0
 11
-233.7250036064945
 21
-115.9373052016099
 31
0.0
  0
LINE
  5
299
330
5C
100
AcDbEntity
  8
0
  6
Continuous
 62
     7
100
AcDbLine
 10
-233.1750036064945
 20
-132.6999985057153
 30
0.0
 11
-233.1750036064945
 21
-130.736009385068
 31
0.0
  0
LINE
  5
29A
330
5C
100
AcDbEntity
  8
0
  6
Continuous
 62
     7
100
AcDbLine
 10
-233.1750036064945
 20
-130.736009385068
 30
0.0
 11
-233.1750036064945
 21
-120.0503031061238
 31
0.0
  0
LINE
  5
29B
330
5C
100
AcDbEntity
  8
0
  6
Continuous
 62
     7
100
AcDbLine
 10
-233.1750036064945
 20
-120.0503031061238
 30
0.0
 11
-231.7750036064945
 21
-123.9999985057153
 31
0.0
  0
LINE
  5
29C
330
5C
100
AcDbEntity
  8
0
  6
Continuous
 62
     7
100
AcDbLine
 10
-231.6400036064945
 20
-147.899998878618
 30
0.0
 11
-231.1400036064945
 21
-147.899998878618
 31
0.0
  0
LINE
  5
29D
330
5C
100
AcDbEntity
  8
0
  6
Continuous
 62
     7
100
AcDbLine
 10
-231.1400036064945
 20
-147.899998878618
 30
0.0
 11
-231.1400036064945
 21
-145.799998878618
 31
0.0
  0
LINE
  5
29E
330
5C
100
AcDbEntity
  8
0
  6
Continuous
 62
     7
100
AcDbLine
 10
-231.6400036064945
 20
-147.899998878618
 30
0.0
 11
-232.6400036064945
 21
-147.899998878618
 31
0.0
  0
LINE
  5
29F
330
5C
100
AcDbEntity
  8
0
  6
Continuous
 62
     7
100
AcDbLine
 10
-228.1400036064945
 20
-145.799998878618
 30
0.0
 11
-227.1400036064945
 21
-145.799998878618
 31
0.0
  0
LINE
  5
2A0
330
5C
100
AcDbEntity
  8
0
  6
Continuous
 62
     7
100
AcDbLine
 10
-226.6400036064945
 20
-147.899998878618
 30
0.0
 11
-227.6400036064945
 21
-147.899998878618
 31
0.0
  0
LINE
  5
2A1
330
5C
100
AcDbEntity
  8
0
  6
Continuous
 62
     7
100
AcDbLine
 10
-228.3900036064945
 20
-146.7999985057153
 30
0.0
 11
-228.3900036064945
 21
-145.7999985057153
 31
0.0
  0
LINE
  5
2A2
330
5C
100
AcDbEntity
  8
0
  6
Continuous
 62
     7
100
AcDbLine
 10
-228.3900036064945
 20
-145.7999985057153
 30
0.0
 11
-230.8900036064945
 21
-145.7999985057153
 31
0.0
  0
LINE
  5
2A3
330
5C
100
AcDbEntity
  8
0
  6
Continuous
 62
     7
100
AcDbLine
 10
-228.3900036064945
 20
-146.7999985057153
 30
0.0
 11
-230.8900036064945
 21
-146.7999985057153
 31
0.0
  0
LINE
  5
2A4
330
5C
100
AcDbEntity
  8
0
  6
Continuous
 62
     7
100
AcDbLine
 10
-228.1400036064945
 20
-147.899998878618
 30
0.0
 11
-228.1400036064945
 21
-145.799998878618
 31
0.0
  0
LINE
  5
2A5
330
5C
100
AcDbEntity
  8
0
  6
Continuous
 62
     7
100
AcDbLine
 10
-231.6400036064945
 20
-147.899998878618
 30
0.0
 11
-231.6400036064945
 21
-145.799998878618
 31
0.0
  0
LINE
  5
2A6
330
5C
100
AcDbEntity
  8
0
  6
Continuous
 62
     7
100
AcDbLine
 10
-227.5250036064946
 20
-123.9999985057153
 30
0.0
 11
-226.1250036064945
 21
-120.0503031061237
 31
0.0
  0
ENDBLK
  5
5E
330
5C
100
AcDbEntity
  8
0
100
AcDbBlockEnd
  0
BLOCK
  5
61
330
5F
100
AcDbEntity
  8
0
100
AcDbBlockBegin
  2
SA_Links1
 70
     0
 10
-229.6500036064896
 20
-124.9999985694685
 30
0.0
  3
SA_Links1
  1

  0
INSERT
  5
60
330
5F
100
AcDbEntity
  8
0
100
AcDbBlockReference
  2
USLKG_10-1-select__4
 10
-233.7250036064945
 20
-147.899998878618
 30
0.0
  0
MTEXT
  5
2A7
330
5F
100
AcDbEntity
  8
1
 62
     6
100
AcDbMText
 10
-229.6500036064899
 20
-152.9000000953474
 30
0.0
 40
5.0
 41
0.0
 71
     2
 72
     1
  1
 
  7
CONVERTER_11
 73
     1
 44
1.32052821128451
  0
ENDBLK
  5
62
330
5F
100
AcDbEntity
  8
0
100
AcDbBlockEnd
  0
BLOCK
  5
64
330
63
100
AcDbEntity
  8
0
100
AcDbBlockBegin
  2
USLKG_10-1-select__5
 70
     0
 10
-363.4250003935101
 20
-147.899998878618
 30
0.0
  3
USLKG_10-1-select__5
  1

  0
LINE
  5
2A8
330
63
100
AcDbEntity
  8
0
  6
Continuous
 62
     7
100
AcDbLine
 10
-359.35000039351
 20
-112.2999985057152
 30
0.0
 11
-355.2750003935101
 21
-112.2999985057152
 31
0.0
  0
LINE
  5
2A9
330
63
100
AcDbEntity
  8
0
  6
Continuous
 62
     7
100
AcDbLine
 10
-363.4250003935101
 20
-112.2999985057152
 30
0.0
 11
-359.35000039351
 21
-112.2999985057152
 31
0.0
  0
LINE
  5
2AA
330
63
100
AcDbEntity
  8
0
  6
Continuous
 62
     7
100
AcDbLine
 10
-359.35000039351
 20
-111.9918569344194
 30
0.0
 11
-355.2750003935101
 21
-111.9918569344194
 31
0.0
  0
LINE
  5
2AB
330
63
100
AcDbEntity
  8
0
  6
Continuous
 62
     7
100
AcDbLine
 10
-363.4250003935101
 20
-111.9918569344194
 30
0.0
 11
-359.35000039351
 21
-111.9918569344194
 31
0.0
  0
LINE
  5
2AC
330
63
100
AcDbEntity
  8
0
  6
Continuous
 62
     7
100
AcDbLine
 10
-359.35000039351
 20
-110.2499985057152
 30
0.0
 11
-355.2750003935101
 21
-110.2499985057152
 31
0.0
  0
LINE
  5
2AD
330
63
100
AcDbEntity
  8
0
  6
Continuous
 62
     7
100
AcDbLine
 10
-363.4250003935101
 20
-110.2499985057153
 30
0.0
 11
-359.35000039351
 21
-110.2499985057152
 31
0.0
  0
LINE
  5
2AE
330
63
100
AcDbEntity
  8
0
  6
Continuous
 62
     7
100
AcDbLine
 10
-363.4250003935101
 20
-108.7172986467394
 30
0.0
 11
-363.4250003935101
 21
-110.2499985057153
 31
0.0
  0
LINE
  5
2AF
330
63
100
AcDbEntity
  8
0
  6
Continuous
 62
     7
100
AcDbLine
 10
-363.4250003935101
 20
-110.2499985057153
 30
0.0
 11
-363.4250003935101
 21
-111.9918569344194
 31
0.0
  0
LINE
  5
2B0
330
63
100
AcDbEntity
  8
0
  6
Continuous
 62
     7
100
AcDbLine
 10
-363.4250003935101
 20
-105.8306029123147
 30
0.0
 11
-363.4250003935101
 21
-103.6829427584895
 31
0.0
  0
LINE
  5
2B1
330
63
100
AcDbEntity
  8
0
  6
Continuous
 62
     7
100
AcDbLine
 10
-363.4250003935101
 20
-102.0999985057152
 30
0.0
 11
-359.35000039351
 21
-102.0999985057152
 31
0.0
  0
LINE
  5
2B2
330
63
100
AcDbEntity
  8
0
  6
Continuous
 62
     7
100
AcDbLine
 10
-363.4250003935101
 20
-105.8306029123147
 30
0.0
 11
-363.4250003935101
 21
-106.2056599465308
 31
0.0
  0
LINE
  5
2B3
330
63
100
AcDbEntity
  8
0
  6
Continuous
 62
     7
100
AcDbLine
 10
-363.4250003935101
 20
-106.2056599465308
 30
0.0
 11
-363.4250003935101
 21
-108.7172986467394
 31
0.0
  0
LINE
  5
2B4
330
63
100
AcDbEntity
  8
0
  6
Continuous
 62
     7
100
AcDbLine
 10
-363.4250003935101
 20
-106.2056599465308
 30
0.0
 11
-359.35000039351
 21
-106.2056599465307
 31
0.0
  0
LINE
  5
2B5
330
63
100
AcDbEntity
  8
0
  6
Continuous
 62
     7
100
AcDbLine
 10
-355.2750003935101
 20
-103.6829427584896
 30
0.0
 11
-355.2750003935101
 21
-102.0999985057153
 31
0.0
  0
LINE
  5
2B6
330
63
100
AcDbEntity
  8
0
  6
Continuous
 62
     7
100
AcDbLine
 10
-359.35000039351
 20
-102.0999985057152
 30
0.0
 11
-355.2750003935101
 21
-102.0999985057153
 31
0.0
  0
LINE
  5
2B7
330
63
100
AcDbEntity
  8
0
  6
Continuous
 62
     7
100
AcDbLine
 10
-363.4250003935101
 20
-103.6829427584895
 30
0.0
 11
-363.4250003935101
 21
-102.0999985057152
 31
0.0
  0
LINE
  5
2B8
330
63
100
AcDbEntity
  8
0
  6
Continuous
 62
     7
100
AcDbLine
 10
-355.2750003935101
 20
-105.8306029123147
 30
0.0
 11
-355.2750003935101
 21
-103.6829427584896
 31
0.0
  0
LINE
  5
2B9
330
63
100
AcDbEntity
  8
0
  6
Continuous
 62
     7
100
AcDbLine
 10
-363.4250003935101
 20
-103.6829427584895
 30
0.0
 11
-359.35000039351
 21
-103.6829427584896
 31
0.0
  0
LINE
  5
2BA
330
63
100
AcDbEntity
  8
0
  6
Continuous
 62
     7
100
AcDbLine
 10
-359.35000039351
 20
-103.6829427584896
 30
0.0
 11
-355.2750003935101
 21
-103.6829427584896
 31
0.0
  0
LINE
  5
2BB
330
63
100
AcDbEntity
  8
0
  6
Continuous
 62
     7
100
AcDbLine
 10
-355.2750003935101
 20
-108.7172986467393
 30
0.0
 11
-355.2750003935101
 21
-106.2056599465307
 31
0.0
  0
LINE
  5
2BC
330
63
100
AcDbEntity
  8
0
  6
Continuous
 62
     7
100
AcDbLine
 10
-359.35000039351
 20
-106.2056599465307
 30
0.0
 11
-355.2750003935101
 21
-106.2056599465307
 31
0.0
  0
LINE
  5
2BD
330
63
100
AcDbEntity
  8
0
  6
Continuous
 62
     7
100
AcDbLine
 10
-359.35000039351
 20
-105.8306029123147
 30
0.0
 11
-355.2750003935101
 21
-105.8306029123147
 31
0.0
  0
LINE
  5
2BE
330
63
100
AcDbEntity
  8
0
  6
Continuous
 62
     7
100
AcDbLine
 10
-363.4250003935101
 20
-108.7172986467394
 30
0.0
 11
-359.35000039351
 21
-108.7172986467393
 31
0.0
  0
LINE
  5
2BF
330
63
100
AcDbEntity
  8
0
  6
Continuous
 62
     7
100
AcDbLine
 10
-363.4250003935101
 20
-105.8306029123147
 30
0.0
 11
-359.35000039351
 21
-105.8306029123147
 31
0.0
  0
LINE
  5
2C0
330
63
100
AcDbEntity
  8
0
  6
Continuous
 62
     7
100
AcDbLine
 10
-359.35000039351
 20
-108.7172986467393
 30
0.0
 11
-355.2750003935101
 21
-108.7172986467393
 31
0.0
  0
LINE
  5
2C1
330
63
100
AcDbEntity
  8
0
  6
Continuous
 62
     7
100
AcDbLine
 10
-357.2250003935101
 20
-123.9999985057151
 30
0.0
 11
-357.2250003935101
 21
-128.8499985057152
 31
0.0
  0
LINE
  5
2C2
330
63
100
AcDbEntity
  8
0
  6
Continuous
 62
     7
100
AcDbLine
 10
-355.8250003935101
 20
-130.736009385068
 30
0.0
 11
-357.2250003935101
 21
-128.8499985057152
 31
0.0
  0
LINE
  5
2C3
330
63
100
AcDbEntity
  8
0
  6
Continuous
 62
     7
100
AcDbLine
 10
-355.2750003935101
 20
-112.2999985057152
 30
0.0
 11
-355.2750003935101
 21
-111.9918569344194
 31
0.0
  0
LINE
  5
2C4
330
63
100
AcDbEntity
  8
0
  6
Continuous
 62
     7
100
AcDbLine
 10
-355.2750003935101
 20
-111.9918569344194
 30
0.0
 11
-355.2750003935101
 21
-110.2499985057152
 31
0.0
  0
LINE
  5
2C5
330
63
100
AcDbEntity
  8
0
  6
Continuous
 62
     7
100
AcDbLine
 10
-355.2750003935101
 20
-115.9373052016099
 30
0.0
 11
-355.2750003935101
 21
-112.2999985057152
 31
0.0
  0
LINE
  5
2C6
330
63
100
AcDbEntity
  8
0
  6
Continuous
 62
     7
100
AcDbLine
 10
-355.8250003935101
 20
-132.6999985057153
 30
0.0
 11
-355.2750003935101
 21
-132.6999985057152
 31
0.0
  0
LINE
  5
2C7
330
63
100
AcDbEntity
  8
0
  6
Continuous
 62
     7
100
AcDbLine
 10
-355.8250003935101
 20
-115.9373052016099
 30
0.0
 11
-355.2750003935101
 21
-115.9373052016099
 31
0.0
  0
LINE
  5
2C8
330
63
100
AcDbEntity
  8
0
  6
Continuous
 62
     7
100
AcDbLine
 10
-355.2750003935101
 20
-106.2056599465307
 30
0.0
 11
-355.2750003935101
 21
-105.8306029123147
 31
0.0
  0
LINE
  5
2C9
330
63
100
AcDbEntity
  8
0
  6
Continuous
 62
     7
100
AcDbLine
 10
-355.2750003935101
 20
-110.2499985057152
 30
0.0
 11
-355.2750003935101
 21
-108.7172986467393
 31
0.0
  0
LINE
  5
2CA
330
63
100
AcDbEntity
  8
0
  6
Continuous
 62
     7
100
AcDbLine
 10
-355.2750003935101
 20
-132.6999985057152
 30
0.0
 11
-355.2750003935101
 21
-115.9373052016099
 31
0.0
  0
LINE
  5
2CB
330
63
100
AcDbEntity
  8
0
  6
Continuous
 62
     7
100
AcDbLine
 10
-357.2250003935101
 20
-123.9999985057151
 30
0.0
 11
-355.8250003935101
 21
-120.0503031061236
 31
0.0
  0
LINE
  5
2CC
330
63
100
AcDbEntity
  8
0
  6
Continuous
 62
     7
100
AcDbLine
 10
-355.8250003935101
 20
-115.9373052016099
 30
0.0
 11
-355.8250003935101
 21
-120.0503031061236
 31
0.0
  0
LINE
  5
2CD
330
63
100
AcDbEntity
  8
0
  6
Continuous
 62
     7
100
AcDbLine
 10
-359.35000039351
 20
-115.9373052016106
 30
0.0
 11
-355.8250003935101
 21
-115.9373052016099
 31
0.0
  0
LINE
  5
2CE
330
63
100
AcDbEntity
  8
0
  6
Continuous
 62
     7
100
AcDbLine
 10
-355.8250003935101
 20
-130.736009385068
 30
0.0
 11
-355.8250003935101
 21
-132.6999985057153
 31
0.0
  0
LINE
  5
2CF
330
63
100
AcDbEntity
  8
0
  6
Continuous
 62
     7
100
AcDbLine
 10
-357.2250003935101
 20
-123.9999985057151
 30
0.0
 11
-359.35000039351
 21
-123.9999985057152
 31
0.0
  0
LINE
  5
2D0
330
63
100
AcDbEntity
  8
0
  6
Continuous
 62
     2
100
AcDbLine
 10
-359.35000039351
 20
-105.8306029123147
 30
0.0
 11
-359.35000039351
 21
-103.6829427584896
 31
0.0
  0
LINE
  5
2D1
330
63
100
AcDbEntity
  8
0
  6
Continuous
 62
     2
100
AcDbLine
 10
-359.35000039351
 20
-103.6829427584896
 30
0.0
 11
-359.35000039351
 21
-102.0999985057152
 31
0.0
  0
LINE
  5
2D2
330
63
100
AcDbEntity
  8
0
  6
Continuous
 62
     2
100
AcDbLine
 10
-359.35000039351
 20
-132.6999985057153
 30
0.0
 11
-359.35000039351
 21
-128.8499985057152
 31
0.0
  0
LINE
  5
2D3
330
63
100
AcDbEntity
  8
0
  6
Continuous
 62
     2
100
AcDbLine
 10
-359.35000039351
 20
-112.2999985057152
 30
0.0
 11
-359.35000039351
 21
-111.9918569344194
 31
0.0
  0
LINE
  5
2D4
330
63
100
AcDbEntity
  8
0
  6
Continuous
 62
     2
100
AcDbLine
 10
-359.35000039351
 20
-115.9373052016106
 30
0.0
 11
-359.35000039351
 21
-112.2999985057152
 31
0.0
  0
LINE
  5
2D5
330
63
100
AcDbEntity
  8
0
  6
Continuous
 62
     2
100
AcDbLine
 10
-359.35000039351
 20
-111.9918569344194
 30
0.0
 11
-359.35000039351
 21
-110.2499985057152
 31
0.0
  0
LINE
  5
2D6
330
63
100
AcDbEntity
  8
0
  6
Continuous
 62
     2
100
AcDbLine
 10
-359.35000039351
 20
-108.7172986467393
 30
0.0
 11
-359.35000039351
 21
-106.2056599465307
 31
0.0
  0
LINE
  5
2D7
330
63
100
AcDbEntity
  8
0
  6
Continuous
 62
     2
100
AcDbLine
 10
-359.35000039351
 20
-110.2499985057152
 30
0.0
 11
-359.35000039351
 21
-108.7172986467393
 31
0.0
  0
LINE
  5
2D8
330
63
100
AcDbEntity
  8
0
  6
Continuous
 62
     2
100
AcDbLine
 10
-359.35000039351
 20
-106.2056599465307
 30
0.0
 11
-359.35000039351
 21
-105.8306029123147
 31
0.0
  0
LINE
  5
2D9
330
63
100
AcDbEntity
  8
0
  6
Continuous
 62
     2
100
AcDbLine
 10
-359.35000039351
 20
-123.9999985057152
 30
0.0
 11
-359.35000039351
 21
-128.8499985057152
 31
0.0
  0
LINE
  5
2DA
330
63
100
AcDbEntity
  8
0
  6
Continuous
 62
     2
100
AcDbLine
 10
-359.35000039351
 20
-123.9999985057152
 30
0.0
 11
-359.35000039351
 21
-115.9373052016106
 31
0.0
  0
LINE
  5
2DB
330
63
100
AcDbEntity
  8
0
  6
Continuous
 62
     7
100
AcDbLine
 10
-355.8250003935101
 20
-120.0503031061236
 30
0.0
 11
-355.8250003935101
 21
-130.736009385068
 31
0.0
  0
LINE
  5
2DC
330
63
100
AcDbEntity
  8
0
  6
Continuous
 62
     7
100
AcDbLine
 10
-363.4250003935101
 20
-112.2999985057152
 30
0.0
 11
-363.4250003935101
 21
-111.9918569344194
 31
0.0
  0
LINE
  5
2DD
330
63
100
AcDbEntity
  8
0
  6
Continuous
 62
     7
100
AcDbLine
 10
-362.8750003935101
 20
-120.0503031061237
 30
0.0
 11
-362.8750003935101
 21
-115.9373052016098
 31
0.0
  0
LINE
  5
2DE
330
63
100
AcDbEntity
  8
0
  6
Continuous
 62
     7
100
AcDbLine
 10
-362.8750003935101
 20
-130.736009385068
 30
0.0
 11
-362.8750003935101
 21
-120.0503031061237
 31
0.0
  0
LINE
  5
2DF
330
63
100
AcDbEntity
  8
0
  6
Continuous
 62
     7
100
AcDbLine
 10
-363.4250003935101
 20
-115.9373052016099
 30
0.0
 11
-362.8750003935101
 21
-115.9373052016098
 31
0.0
  0
LINE
  5
2E0
330
63
100
AcDbEntity
  8
0
  6
Continuous
 62
     7
100
AcDbLine
 10
-361.8600003935101
 20
-144.8999985057153
 30
0.0
 11
-361.8600003935101
 21
-147.899998878618
 31
0.0
  0
LINE
  5
2E1
330
63
100
AcDbEntity
  8
0
  6
Continuous
 62
     7
100
AcDbLine
 10
-362.8750003935101
 20
-132.6999985057152
 30
0.0
 11
-362.8750003935101
 21
-130.736009385068
 31
0.0
  0
LINE
  5
2E2
330
63
100
AcDbEntity
  8
0
  6
Continuous
 62
     7
100
AcDbLine
 10
-363.4250003935101
 20
-132.6999985057152
 30
0.0
 11
-362.8750003935101
 21
-132.6999985057152
 31
0.0
  0
LINE
  5
2E3
330
63
100
AcDbEntity
  8
0
  6
Continuous
 62
     7
100
AcDbLine
 10
-362.3600003935101
 20
-147.899998878618
 30
0.0
 11
-361.8600003935101
 21
-147.899998878618
 31
0.0
  0
LINE
  5
2E4
330
63
100
AcDbEntity
  8
0
  6
Continuous
 62
     7
100
AcDbLine
 10
-362.3600003935101
 20
-138.6999985057152
 30
0.0
 11
-362.3600003935101
 21
-147.899998878618
 31
0.0
  0
LINE
  5
2E5
330
63
100
AcDbEntity
  8
0
  6
Continuous
 62
     7
100
AcDbLine
 10
-361.4750003935101
 20
-128.8499985057152
 30
0.0
 11
-362.8750003935101
 21
-130.736009385068
 31
0.0
  0
LINE
  5
2E6
330
63
100
AcDbEntity
  8
0
  6
Continuous
 62
     7
100
AcDbLine
 10
-363.4250003935101
 20
-132.6999985057152
 30
0.0
 11
-363.4250003935101
 21
-115.9373052016099
 31
0.0
  0
LINE
  5
2E7
330
63
100
AcDbEntity
  8
0
  6
Continuous
 62
     7
100
AcDbLine
 10
-363.4250003935101
 20
-115.9373052016099
 30
0.0
 11
-363.4250003935101
 21
-112.2999985057152
 31
0.0
  0
LINE
  5
2E8
330
63
100
AcDbEntity
  8
0
  6
Continuous
 62
     7
100
AcDbLine
 10
-359.35000039351
 20
-123.9999985057152
 30
0.0
 11
-361.4750003935101
 21
-123.9999985057153
 31
0.0
  0
LINE
  5
2E9
330
63
100
AcDbEntity
  8
0
  6
Continuous
 62
     7
100
AcDbLine
 10
-361.8600003935101
 20
-138.6999985057152
 30
0.0
 11
-361.8600003935101
 21
-141.3999985057152
 31
0.0
  0
LINE
  5
2EA
330
63
100
AcDbEntity
  8
0
  6
Continuous
 62
     7
100
AcDbLine
 10
-360.8600003935101
 20
-138.6999985057152
 30
0.0
 11
-360.8600003935101
 21
-141.3999985057152
 31
0.0
  0
LINE
  5
2EB
330
63
100
AcDbEntity
  8
0
  6
Continuous
 62
     7
100
AcDbLine
 10
-361.8600003935101
 20
-141.3999985057152
 30
0.0
 11
-360.8600003935101
 21
-141.3999985057152
 31
0.0
  0
LINE
  5
2EC
330
63
100
AcDbEntity
  8
0
  6
Continuous
 62
     7
100
AcDbLine
 10
-361.4750003935101
 20
-128.8499985057152
 30
0.0
 11
-359.35000039351
 21
-128.8499985057152
 31
0.0
  0
LINE
  5
2ED
330
63
100
AcDbEntity
  8
0
  6
Continuous
 62
     7
100
AcDbLine
 10
-362.8750003935101
 20
-115.9373052016098
 30
0.0
 11
-359.35000039351
 21
-115.9373052016106
 31
0.0
  0
LINE
  5
2EE
330
63
100
AcDbEntity
  8
0
  6
Continuous
 62
     7
100
AcDbLine
 10
-355.2750003935101
 20
-133.8999985057153
 30
0.0
 11
-359.35000039351
 21
-133.8999985057153
 31
0.0
  0
LINE
  5
2EF
330
63
100
AcDbEntity
  8
0
  6
Continuous
 62
     7
100
AcDbLine
 10
-356.3600003935101
 20
-138.6999985057152
 30
0.0
 11
-355.2750003935101
 21
-138.6999985057152
 31
0.0
  0
LINE
  5
2F0
330
63
100
AcDbEntity
  8
0
  6
Continuous
 62
     7
100
AcDbLine
 10
-355.2750003935101
 20
-132.6999985057152
 30
0.0
 11
-355.2750003935101
 21
-133.8999985057153
 31
0.0
  0
LINE
  5
2F1
330
63
100
AcDbEntity
  8
0
  6
Continuous
 62
     7
100
AcDbLine
 10
-356.8600003935101
 20
-138.6999985057152
 30
0.0
 11
-356.8600003935101
 21
-141.3999985057152
 31
0.0
  0
LINE
  5
2F2
330
63
100
AcDbEntity
  8
0
  6
Continuous
 62
     7
100
AcDbLine
 10
-356.8600003935101
 20
-138.6999985057152
 30
0.0
 11
-356.3600003935101
 21
-138.6999985057152
 31
0.0
  0
LINE
  5
2F3
330
63
100
AcDbEntity
  8
0
  6
Continuous
 62
     7
100
AcDbLine
 10
-356.3600003935101
 20
-138.6999985057152
 30
0.0
 11
-356.3600003935101
 21
-147.899998878618
 31
0.0
  0
LINE
  5
2F4
330
63
100
AcDbEntity
  8
0
  6
Continuous
 62
     7
100
AcDbLine
 10
-357.8600003935101
 20
-138.6999985057152
 30
0.0
 11
-356.8600003935101
 21
-138.6999985057152
 31
0.0
  0
LINE
  5
2F5
330
63
100
AcDbEntity
  8
0
  6
Continuous
 62
     7
100
AcDbLine
 10
-356.8600003935101
 20
-141.3999985057152
 30
0.0
 11
-357.8600003935101
 21
-141.3999985057152
 31
0.0
  0
LINE
  5
2F6
330
63
100
AcDbEntity
  8
0
  6
Continuous
 62
     7
100
AcDbLine
 10
-360.6100003935101
 20
-138.6999985057152
 30
0.0
 11
-359.35000039351
 21
-138.6999985057152
 31
0.0
  0
LINE
  5
2F7
330
63
100
AcDbEntity
  8
0
  6
Continuous
 62
     2
100
AcDbLine
 10
-359.35000039351
 20
-132.6999985057153
 30
0.0
 11
-359.35000039351
 21
-133.8999985057153
 31
0.0
  0
LINE
  5
2F8
330
63
100
AcDbEntity
  8
0
  6
Continuous
 62
     7
100
AcDbLine
 10
-361.8600003935101
 20
-138.6999985057152
 30
0.0
 11
-360.8600003935101
 21
-138.6999985057152
 31
0.0
  0
LINE
  5
2F9
330
63
100
AcDbEntity
  8
0
  6
Continuous
 62
     7
100
AcDbLine
 10
-355.8250003935101
 20
-132.6999985057153
 30
0.0
 11
-359.35000039351
 21
-132.6999985057153
 31
0.0
  0
LINE
  5
2FA
330
63
100
AcDbEntity
  8
0
  6
Continuous
 62
     7
100
AcDbLine
 10
-355.2750003935101
 20
-133.8999985057153
 30
0.0
 11
-355.2750003935101
 21
-138.6999985057152
 31
0.0
  0
LINE
  5
2FB
330
63
100
AcDbEntity
  8
0
  6
Continuous
 62
     7
100
AcDbLine
 10
-361.8600003935101
 20
-141.8999985057152
 30
0.0
 11
-360.8600003935101
 21
-141.8999985057153
 31
0.0
  0
LINE
  5
2FC
330
63
100
AcDbEntity
  8
0
  6
Continuous
 62
     7
100
AcDbLine
 10
-361.8600003935101
 20
-147.899998878618
 30
0.0
 11
-360.8600003935101
 21
-147.899998878618
 31
0.0
  0
LINE
  5
2FD
330
63
100
AcDbEntity
  8
0
  6
Continuous
 62
     7
100
AcDbLine
 10
-360.8600003935101
 20
-138.6999985057152
 30
0.0
 11
-360.6100003935101
 21
-138.6999985057152
 31
0.0
  0
LINE
  5
2FE
330
63
100
AcDbEntity
  8
0
  6
Continuous
 62
     7
100
AcDbLine
 10
-360.6100003935101
 20
-138.6999985057152
 30
0.0
 11
-360.6100003935101
 21
-146.7999985057153
 31
0.0
  0
LINE
  5
2FF
330
63
100
AcDbEntity
  8
0
  6
Continuous
 62
     7
100
AcDbLine
 10
-361.4750003935101
 20
-123.9999985057153
 30
0.0
 11
-361.4750003935101
 21
-128.8499985057152
 31
0.0
  0
LINE
  5
300
330
63
100
AcDbEntity
  8
0
  6
Continuous
 62
     7
100
AcDbLine
 10
-360.8600003935101
 20
-144.8999985057153
 30
0.0
 11
-360.8600003935101
 21
-147.899998878618
 31
0.0
  0
LINE
  5
301
330
63
100
AcDbEntity
  8
0
  6
Continuous
 62
     7
100
AcDbLine
 10
-363.4250003935101
 20
-132.6999985057152
 30
0.0
 11
-363.4250003935101
 21
-133.8999985057153
 31
0.0
  0
LINE
  5
302
330
63
100
AcDbEntity
  8
0
  6
Continuous
 62
     7
100
AcDbLine
 10
-363.4250003935101
 20
-138.6999985057152
 30
0.0
 11
-362.3600003935101
 21
-138.6999985057152
 31
0.0
  0
LINE
  5
303
330
63
100
AcDbEntity
  8
0
  6
Continuous
 62
     7
100
AcDbLine
 10
-362.3600003935101
 20
-138.6999985057152
 30
0.0
 11
-361.8600003935101
 21
-138.6999985057152
 31
0.0
  0
LINE
  5
304
330
63
100
AcDbEntity
  8
0
  6
Continuous
 62
     7
100
AcDbLine
 10
-363.4250003935101
 20
-138.6999985057152
 30
0.0
 11
-363.4250003935101
 21
-133.8999985057153
 31
0.0
  0
LINE
  5
305
330
63
100
AcDbEntity
  8
0
  6
Continuous
 62
     7
100
AcDbLine
 10
-359.35000039351
 20
-133.8999985057153
 30
0.0
 11
-363.4250003935101
 21
-133.8999985057153
 31
0.0
  0
LINE
  5
306
330
63
100
AcDbEntity
  8
0
  6
Continuous
 62
     7
100
AcDbLine
 10
-359.35000039351
 20
-132.6999985057153
 30
0.0
 11
-362.8750003935101
 21
-132.6999985057152
 31
0.0
  0
LINE
  5
307
330
63
100
AcDbEntity
  8
0
  6
Continuous
 62
     7
100
AcDbLine
 10
-358.1100003935101
 20
-138.6999985057152
 30
0.0
 11
-357.8600003935101
 21
-138.6999985057152
 31
0.0
  0
LINE
  5
308
330
63
100
AcDbEntity
  8
0
  6
Continuous
 62
     7
100
AcDbLine
 10
-357.8600003935101
 20
-138.6999985057152
 30
0.0
 11
-357.8600003935101
 21
-141.3999985057152
 31
0.0
  0
LINE
  5
309
330
63
100
AcDbEntity
  8
0
  6
Continuous
 62
     7
100
AcDbLine
 10
-359.35000039351
 20
-138.6999985057152
 30
0.0
 11
-358.1100003935101
 21
-138.6999985057152
 31
0.0
  0
LINE
  5
30A
330
63
100
AcDbEntity
  8
0
  6
Continuous
 62
     7
100
AcDbLine
 10
-359.35000039351
 20
-128.8499985057152
 30
0.0
 11
-357.2250003935101
 21
-128.8499985057152
 31
0.0
  0
LINE
  5
30B
330
63
100
AcDbEntity
  8
0
  6
Continuous
 62
     7
100
AcDbLine
 10
-358.1100003935101
 20
-146.7999985057153
 30
0.0
 11
-358.1100003935101
 21
-138.6999985057152
 31
0.0
  0
LINE
  5
30C
330
63
100
AcDbEntity
  8
0
  6
Continuous
 62
     2
100
AcDbLine
 10
-359.35000039351
 20
-133.8999985057153
 30
0.0
 11
-359.35000039351
 21
-138.6999985057152
 31
0.0
  0
LINE
  5
30D
330
63
100
AcDbEntity
  8
0
  6
Continuous
 62
     7
100
AcDbLine
 10
-357.8600003935101
 20
-144.8999985057153
 30
0.0
 11
-357.8600003935101
 21
-147.899998878618
 31
0.0
  0
LINE
  5
30E
330
63
100
AcDbEntity
  8
0
  6
Continuous
 62
     7
100
AcDbLine
 10
-356.8600003935101
 20
-147.899998878618
 30
0.0
 11
-357.8600003935101
 21
-147.899998878618
 31
0.0
  0
LINE
  5
30F
330
63
100
AcDbEntity
  8
0
  6
Continuous
 62
     7
100
AcDbLine
 10
-356.8600003935101
 20
-141.8999985057152
 30
0.0
 11
-357.8600003935101
 21
-141.8999985057152
 31
0.0
  0
LINE
  5
310
330
63
100
AcDbEntity
  8
0
  6
Continuous
 62
     2
100
AcDbLine
 10
-357.8600003935101
 20
-144.8999985057153
 30
0.0
 11
-356.8600003935101
 21
-144.8999985057153
 31
0.0
  0
LINE
  5
311
330
63
100
AcDbEntity
  8
0
  6
Continuous
 62
     7
100
AcDbLine
 10
-356.3600003935101
 20
-147.899998878618
 30
0.0
 11
-356.8600003935101
 21
-147.899998878618
 31
0.0
  0
LINE
  5
312
330
63
100
AcDbEntity
  8
0
  6
Continuous
 62
     7
100
AcDbLine
 10
-361.8600003935101
 20
-141.8999985057152
 30
0.0
 11
-361.8600003935101
 21
-141.3999985057152
 31
0.0
  0
LINE
  5
313
330
63
100
AcDbEntity
  8
0
  6
Continuous
 62
     7
100
AcDbLine
 10
-360.8600003935101
 20
-141.3999985057152
 30
0.0
 11
-360.8600003935101
 21
-141.8999985057153
 31
0.0
  0
LINE
  5
314
330
63
100
AcDbEntity
  8
0
  6
Continuous
 62
     7
100
AcDbLine
 10
-357.8600003935101
 20
-141.8999985057152
 30
0.0
 11
-357.8600003935101
 21
-141.3999985057152
 31
0.0
  0
LINE
  5
315
330
63
100
AcDbEntity
  8
0
  6
Continuous
 62
     7
100
AcDbLine
 10
-356.8600003935101
 20
-141.3999985057152
 30
0.0
 11
-356.8600003935101
 21
-141.8999985057152
 31
0.0
  0
LINE
  5
316
330
63
100
AcDbEntity
  8
0
  6
Continuous
 62
     7
100
AcDbLine
 10
-361.8600003935101
 20
-144.8999985057153
 30
0.0
 11
-361.8600003935101
 21
-141.8999985057152
 31
0.0
  0
LINE
  5
317
330
63
100
AcDbEntity
  8
0
  6
Continuous
 62
     2
100
AcDbLine
 10
-360.8600003935101
 20
-144.8999985057153
 30
0.0
 11
-361.8600003935101
 21
-144.8999985057153
 31
0.0
  0
LINE
  5
318
330
63
100
AcDbEntity
  8
0
  6
Continuous
 62
     7
100
AcDbLine
 10
-356.8600003935101
 20
-141.8999985057152
 30
0.0
 11
-356.8600003935101
 21
-144.8999985057153
 31
0.0
  0
LINE
  5
319
330
63
100
AcDbEntity
  8
0
  6
Continuous
 62
     7
100
AcDbLine
 10
-357.8600003935101
 20
-144.8999985057153
 30
0.0
 11
-357.8600003935101
 21
-141.8999985057152
 31
0.0
  0
LINE
  5
31A
330
63
100
AcDbEntity
  8
0
  6
Continuous
 62
     7
100
AcDbLine
 10
-360.8600003935101
 20
-141.8999985057153
 30
0.0
 11
-360.8600003935101
 21
-144.8999985057153
 31
0.0
  0
LINE
  5
31B
330
63
100
AcDbEntity
  8
0
  6
Continuous
 62
     7
100
AcDbLine
 10
-356.8600003935101
 20
-144.8999985057153
 30
0.0
 11
-356.8600003935101
 21
-147.899998878618
 31
0.0
  0
LINE
  5
31C
330
63
100
AcDbEntity
  8
0
  6
Continuous
 62
     7
100
AcDbLine
 10
-360.6100003935101
 20
-146.7999985057153
 30
0.0
 11
-358.1100003935101
 21
-146.7999985057153
 31
0.0
  0
LINE
  5
31D
330
63
100
AcDbEntity
  8
0
  6
Continuous
 62
     7
100
AcDbLine
 10
-362.8750003935101
 20
-120.0503031061237
 30
0.0
 11
-361.4750003935101
 21
-123.9999985057153
 31
0.0
  0
ENDBLK
  5
65
330
63
100
AcDbEntity
  8
0
100
AcDbBlockEnd
  0
BLOCK
  5
68
330
66
100
AcDbEntity
  8
0
100
AcDbBlockBegin
  2
SA_Rechts1
 70
     0
 10
-359.350000393515
 20
-124.9999985694685
 30
0.0
  3
SA_Rechts1
  1

  0
INSERT
  5
67
330
66
100
AcDbEntity
  8
0
100
AcDbBlockReference
  2
USLKG_10-1-select__5
 10
-363.4250003935101
 20
-147.899998878618
 30
0.0
  0
MTEXT
  5
31E
330
66
100
AcDbEntity
  8
1
 62
     6
100
AcDbMText
 10
-359.3500003935151
 20
-152.9000000953474
 30
0.0
 40
5.0
 41
0.0
 71
     2
 72
     1
  1
 
  7
CONVERTER_11
 73
     1
 44
1.32052821128451
  0
ENDBLK
  5
69
330
66
100
AcDbEntity
  8
0
100
AcDbBlockEnd
  0
BLOCK
  5
6B
330
6A
100
AcDbEntity
  8
0
100
AcDbBlockBegin
  2
USLKG_10-1-select__6
 70
     0
 10
-310.2500065333518
 20
-147.899998878618
 30
0.0
  3
USLKG_10-1-select__6
  1

  0
LINE
  5
31F
330
6A
100
AcDbEntity
  8
0
  6
Continuous
 62
     7
100
AcDbLine
 10
-282.6804945314372
 20
-147.899998878618
 30
0.0
 11
-281.900006726559
 21
-147.899998878618
 31
0.0
  0
LINE
  5
320
330
6A
100
AcDbEntity
  8
0
  6
Continuous
 62
     7
100
AcDbLine
 10
-272.5425695365133
 20
-146.7999985057153
 30
0.0
 11
-267.9000069522929
 21
-146.7999985057153
 31
0.0
  0
LINE
  5
321
330
6A
100
AcDbEntity
  8
0
  6
Continuous
 62
     7
100
AcDbLine
 10
-279.3000067265591
 20
-147.899998878618
 30
0.0
 11
-281.900006726559
 21
-147.899998878618
 31
0.0
  0
LINE
  5
322
330
6A
100
AcDbEntity
  8
0
  6
Continuous
 62
     7
100
AcDbLine
 10
-310.2500065333518
 20
-138.6999985057153
 30
0.0
 11
-310.2500065333518
 21
-133.8999985057153
 31
0.0
  0
LINE
  5
323
330
6A
100
AcDbEntity
  8
0
  6
Continuous
 62
     7
100
AcDbLine
 10
-309.6000067265591
 20
-138.6999985057153
 30
0.0
 11
-310.2500065333518
 21
-138.6999985057153
 31
0.0
  0
LINE
  5
324
330
6A
100
AcDbEntity
  8
0
  6
Continuous
 62
     7
100
AcDbLine
 10
-271.000006726559
 20
-138.6999985057153
 30
0.0
 11
-281.900006726559
 21
-138.6999985057153
 31
0.0
  0
LINE
  5
325
330
6A
100
AcDbEntity
  8
0
  6
Continuous
 62
     7
100
AcDbLine
 10
-281.900006726559
 20
-138.6999985057153
 30
0.0
 11
-293.9000071813184
 21
-138.6999985057153
 31
0.0
  0
LINE
  5
326
330
6A
100
AcDbEntity
  8
0
  6
Continuous
 62
     7
100
AcDbLine
 10
-273.4000069522929
 20
-143.5999985057153
 30
0.0
 11
-273.4000069522929
 21
-142.6821216748489
 31
0.0
  0
LINE
  5
327
330
6A
100
AcDbEntity
  8
0
  6
Continuous
 62
     7
100
AcDbLine
 10
-272.5425695365133
 20
-146.7999985057153
 30
0.0
 11
-273.4000069522929
 21
-143.5999985057153
 31
0.0
  0
LINE
  5
328
330
6A
100
AcDbEntity
  8
0
  6
Continuous
 62
     7
100
AcDbLine
 10
-279.3000067265591
 20
-144.8999985057153
 30
0.0
 11
-279.3000067265591
 21
-147.899998878618
 31
0.0
  0
LINE
  5
329
330
6A
100
AcDbEntity
  8
0
  6
Continuous
 62
     7
100
AcDbLine
 10
-281.900006726559
 20
-138.6999985057153
 30
0.0
 11
-281.900006726559
 21
-147.899998878618
 31
0.0
  0
LINE
  5
32A
330
6A
100
AcDbEntity
  8
0
  6
Continuous
 62
     7
100
AcDbLine
 10
-302.1000065333518
 20
-102.0999985057152
 30
0.0
 11
-275.9000065333519
 21
-102.0999985057152
 31
0.0
  0
LINE
  5
32B
330
6A
100
AcDbEntity
  8
0
  6
Continuous
 62
     7
100
AcDbLine
 10
-295.6000067265591
 20
-138.6999985057153
 30
0.0
 11
-296.0000070994618
 21
-138.6999985057153
 31
0.0
  0
LINE
  5
32C
330
6A
100
AcDbEntity
  8
0
  6
Continuous
 62
     7
100
AcDbLine
 10
-296.0000070994618
 20
-138.6999985057153
 30
0.0
 11
-297.0500063536563
 21
-138.6999985057153
 31
0.0
  0
LINE
  5
32D
330
6A
100
AcDbEntity
  8
0
  6
Continuous
 62
     7
100
AcDbLine
 10
-297.0000069522928
 20
-145.7999985057153
 30
0.0
 11
-297.0000069522928
 21
-141.6095411350983
 31
0.0
  0
LINE
  5
32E
330
6A
100
AcDbEntity
  8
0
  6
Continuous
 62
     7
100
AcDbLine
 10
-271.0540088792
 20
-109.9299867764743
 30
0.0
 11
-271.4303665461529
 21
-109.5536291095214
 31
0.0
  0
LINE
  5
32F
330
6A
100
AcDbEntity
  8
0
  6
Continuous
 62
     7
100
AcDbLine
 10
-267.7500065333518
 20
-111.9918569344195
 30
0.0
 11
-267.7500065333518
 21
-110.2499985057153
 31
0.0
  0
LINE
  5
330
330
6A
100
AcDbEntity
  8
0
  6
Continuous
 62
     7
100
AcDbLine
 10
-267.9000069522929
 20
-138.6999985057153
 30
0.0
 11
-267.9000069522929
 21
-146.7999985057153
 31
0.0
  0
LINE
  5
331
330
6A
100
AcDbEntity
  8
0
  6
Continuous
 62
     7
100
AcDbLine
 10
-267.7500065333518
 20
-138.6999985057153
 30
0.0
 11
-267.9000069522929
 21
-138.6999985057153
 31
0.0
  0
LINE
  5
332
330
6A
100
AcDbEntity
  8
0
  6
Continuous
 62
     7
100
AcDbLine
 10
-267.7500065333518
 20
-138.6999985057153
 30
0.0
 11
-267.7500065333518
 21
-133.8999985057153
 31
0.0
  0
LINE
  5
333
330
6A
100
AcDbEntity
  8
0
  6
Continuous
 62
     7
100
AcDbLine
 10
-271.0000065333518
 20
-132.6999985057153
 30
0.0
 11
-267.7500065333518
 21
-133.8999985057153
 31
0.0
  0
LINE
  5
334
330
6A
100
AcDbEntity
  8
0
  6
Continuous
 62
     7
100
AcDbLine
 10
-271.0000065333518
 20
-115.9373052016099
 30
0.0
 11
-268.9000065333518
 21
-112.2999985057152
 31
0.0
  0
LINE
  5
335
330
6A
100
AcDbEntity
  8
0
  6
Continuous
 62
     7
100
AcDbLine
 10
-268.9000065333518
 20
-112.2999985057152
 30
0.0
 11
-267.7500065333518
 21
-111.9918569344195
 31
0.0
  0
LINE
  5
336
330
6A
100
AcDbEntity
  8
0
  6
Continuous
 62
     7
100
AcDbLine
 10
-271.0000065333518
 20
-132.6999985057153
 30
0.0
 11
-271.0000065333518
 21
-115.9373052016099
 31
0.0
  0
LINE
  5
337
330
6A
100
AcDbEntity
  8
0
  6
Continuous
 62
     7
100
AcDbLine
 10
-267.7500065333518
 20
-110.2499985057153
 30
0.0
 11
-269.2827063923277
 21
-108.7172986467394
 31
0.0
  0
LINE
  5
338
330
6A
100
AcDbEntity
  8
0
  6
Continuous
 62
     7
100
AcDbLine
 10
-271.4303665461529
 20
-109.5536291095214
 30
0.0
 11
-269.2827063923277
 21
-108.7172986467394
 31
0.0
  0
LINE
  5
339
330
6A
100
AcDbEntity
  8
0
  6
Continuous
 62
     7
100
AcDbLine
 10
-271.0540088792
 20
-109.9299867764743
 30
0.0
 11
-271.8056679741673
 21
-110.6816458714416
 31
0.0
  0
LINE
  5
33A
330
6A
100
AcDbEntity
  8
0
  6
Continuous
 62
     7
100
AcDbLine
 10
-271.000006726559
 20
-138.6999985057153
 30
0.0
 11
-271.000006726559
 21
-141.3999985057153
 31
0.0
  0
LINE
  5
33B
330
6A
100
AcDbEntity
  8
0
  6
Continuous
 62
     7
100
AcDbLine
 10
-267.9000069522929
 20
-138.6999985057153
 30
0.0
 11
-271.000006726559
 21
-138.6999985057153
 31
0.0
  0
LINE
  5
33C
330
6A
100
AcDbEntity
  8
0
  6
Continuous
 62
     7
100
AcDbLine
 10
-271.8000069522929
 20
-141.5999982799816
 30
0.0
 11
-271.8000069522929
 21
-142.3999985057153
 31
0.0
  0
LINE
  5
33D
330
6A
100
AcDbEntity
  8
0
  6
Continuous
 62
     7
100
AcDbLine
 10
-271.500006726559
 20
-141.8999985057153
 30
0.0
 11
-271.000006726559
 21
-141.3999985057153
 31
0.0
  0
LINE
  5
33E
330
6A
100
AcDbEntity
  8
0
  6
Continuous
 62
     7
100
AcDbLine
 10
-271.500006726559
 20
-141.8999985057153
 30
0.0
 11
-272.000006726559
 21
-141.3999985057153
 31
0.0
  0
LINE
  5
33F
330
6A
100
AcDbEntity
  8
0
  6
Continuous
 62
     7
100
AcDbLine
 10
-310.2500065333518
 20
-133.8999985057153
 30
0.0
 11
-307.0000065333518
 21
-132.6999985057153
 31
0.0
  0
LINE
  5
340
330
6A
100
AcDbEntity
  8
0
  6
Continuous
 62
     7
100
AcDbLine
 10
-310.2500065333518
 20
-110.2499985057153
 30
0.0
 11
-308.7173066743759
 21
-108.7172986467394
 31
0.0
  0
LINE
  5
341
330
6A
100
AcDbEntity
  8
0
  6
Continuous
 62
     7
100
AcDbLine
 10
-309.1000065333519
 20
-112.2999985057152
 30
0.0
 11
-310.2500065333518
 21
-111.9918569344195
 31
0.0
  0
LINE
  5
342
330
6A
100
AcDbEntity
  8
0
  6
Continuous
 62
     7
100
AcDbLine
 10
-310.2500065333518
 20
-111.9918569344195
 30
0.0
 11
-310.2500065333518
 21
-110.2499985057153
 31
0.0
  0
LINE
  5
343
330
6A
100
AcDbEntity
  8
0
  6
Continuous
 62
     7
100
AcDbLine
 10
-306.9460041875036
 20
-109.9299867764743
 30
0.0
 11
-306.5696465205507
 21
-109.5536291095214
 31
0.0
  0
LINE
  5
344
330
6A
100
AcDbEntity
  8
0
  6
Continuous
 62
     7
100
AcDbLine
 10
-306.9460041875036
 20
-109.9299867764743
 30
0.0
 11
-306.1943450925363
 21
-110.6816458714416
 31
0.0
  0
LINE
  5
345
330
6A
100
AcDbEntity
  8
0
  6
Continuous
 62
     7
100
AcDbLine
 10
-307.0000065333518
 20
-132.6999985057153
 30
0.0
 11
-307.0000065333518
 21
-115.9373052016099
 31
0.0
  0
LINE
  5
346
330
6A
100
AcDbEntity
  8
0
  6
Continuous
 62
     7
100
AcDbLine
 10
-302.4700182625928
 20
-105.4540008515635
 30
0.0
 11
-301.7183591676255
 21
-106.2056599465308
 31
0.0
  0
LINE
  5
347
330
6A
100
AcDbEntity
  8
0
  6
Continuous
 62
     7
100
AcDbLine
 10
-302.8466203233442
 20
-105.8306029123148
 30
0.0
 11
-302.4700182625928
 21
-105.4540008515635
 31
0.0
  0
LINE
  5
348
330
6A
100
AcDbEntity
  8
0
  6
Continuous
 62
     7
100
AcDbLine
 10
-294.6623531599678
 20
-138.9876524452093
 30
0.0
 11
-294.8904643229099
 21
-139.4999985057153
 31
0.0
  0
LINE
  5
349
330
6A
100
AcDbEntity
  8
0
  6
Continuous
 62
     7
100
AcDbLine
 10
-294.8904643229099
 20
-139.4999985057153
 30
0.0
 11
-297.0000069522928
 21
-141.6095411350983
 31
0.0
  0
LINE
  5
34A
330
6A
100
AcDbEntity
  8
0
  6
Continuous
 62
     7
100
AcDbLine
 10
-302.8466203233442
 20
-105.8306029123148
 30
0.0
 11
-303.6829507861262
 21
-103.6829427584895
 31
0.0
  0
LINE
  5
34B
330
6A
100
AcDbEntity
  8
0
  6
Continuous
 62
     7
100
AcDbLine
 10
-303.6829507861262
 20
-103.6829427584895
 30
0.0
 11
-302.1000065333518
 21
-102.0999985057152
 31
0.0
  0
LINE
  5
34C
330
6A
100
AcDbEntity
  8
0
  6
Continuous
 62
     7
100
AcDbLine
 10
-306.1943450925363
 20
-110.6816458714416
 30
0.0
 11
-301.7183591676255
 21
-106.2056599465308
 31
0.0
  0
LINE
  5
34D
330
6A
100
AcDbEntity
  8
0
  6
Continuous
 62
     7
100
AcDbLine
 10
-306.5696465205507
 20
-109.5536291095214
 30
0.0
 11
-308.7173066743759
 21
-108.7172986467394
 31
0.0
  0
LINE
  5
34E
330
6A
100
AcDbEntity
  8
0
  6
Continuous
 62
     7
100
AcDbLine
 10
-309.1000065333519
 20
-112.2999985057152
 30
0.0
 11
-307.0000065333518
 21
-115.9373052016099
 31
0.0
  0
LINE
  5
34F
330
6A
100
AcDbEntity
  8
0
  6
Continuous
 62
     7
100
AcDbLine
 10
-293.9000071813184
 20
-138.6999985057153
 30
0.0
 11
-294.9500067265591
 21
-138.6999985057153
 31
0.0
  0
LINE
  5
350
330
6A
100
AcDbEntity
  8
0
  6
Continuous
 62
     7
100
AcDbLine
 10
-294.6623531599678
 20
-138.9876524452093
 30
0.0
 11
-294.425006726559
 21
-139.224998878618
 31
0.0
  0
LINE
  5
351
330
6A
100
AcDbEntity
  8
0
  6
Continuous
 62
     7
100
AcDbLine
 10
-294.425006726559
 20
-139.224998878618
 30
0.0
 11
-293.9000071813184
 21
-138.6999985057153
 31
0.0
  0
LINE
  5
352
330
6A
100
AcDbEntity
  8
0
  6
Continuous
 62
     7
100
AcDbLine
 10
-306.6000067265591
 20
-142.799998878618
 30
0.0
 11
-306.6000067265591
 21
-141.599998878618
 31
0.0
  0
LINE
  5
353
330
6A
100
AcDbEntity
  8
0
  6
Continuous
 62
     7
100
AcDbLine
 10
-305.6000067265591
 20
-142.799998878618
 30
0.0
 11
-306.6000067265591
 21
-142.799998878618
 31
0.0
  0
LINE
  5
354
330
6A
100
AcDbEntity
  8
0
  6
Continuous
 62
     7
100
AcDbLine
 10
-306.6000067265591
 20
-141.599998878618
 30
0.0
 11
-305.6000067265591
 21
-141.599998878618
 31
0.0
  0
LINE
  5
355
330
6A
100
AcDbEntity
  8
0
  6
Continuous
 62
     7
100
AcDbLine
 10
-305.3000067265591
 20
-138.6999985057153
 30
0.0
 11
-309.6000067265591
 21
-138.6999985057153
 31
0.0
  0
LINE
  5
356
330
6A
100
AcDbEntity
  8
0
  6
Continuous
 62
     7
100
AcDbLine
 10
-297.0500063536563
 20
-138.6999985057153
 30
0.0
 11
-297.5750067265591
 21
-139.224998878618
 31
0.0
  0
LINE
  5
357
330
6A
100
AcDbEntity
  8
0
  6
Continuous
 62
     7
100
AcDbLine
 10
-294.9500067265591
 20
-138.6999985057153
 30
0.0
 11
-294.6623531599678
 21
-138.9876524452093
 31
0.0
  0
LINE
  5
358
330
6A
100
AcDbEntity
  8
0
  6
Continuous
 62
     7
100
AcDbLine
 10
-295.6000067265591
 20
-138.6999985057153
 30
0.0
 11
-295.6000067265591
 21
-139.099998878618
 31
0.0
  0
LINE
  5
359
330
6A
100
AcDbEntity
  8
0
  6
Continuous
 62
     7
100
AcDbLine
 10
-295.6000067265591
 20
-139.099998878618
 30
0.0
 11
-296.0000070994618
 21
-138.6999985057153
 31
0.0
  0
LINE
  5
35A
330
6A
100
AcDbEntity
  8
0
  6
Continuous
 62
     7
100
AcDbLine
 10
-296.525006726559
 20
-139.224998878618
 30
0.0
 11
-297.0500063536563
 21
-138.6999985057153
 31
0.0
  0
LINE
  5
35B
330
6A
100
AcDbEntity
  8
0
  6
Continuous
 62
     7
100
AcDbLine
 10
-295.6000067265591
 20
-139.099998878618
 30
0.0
 11
-295.4750067265591
 21
-139.224998878618
 31
0.0
  0
LINE
  5
35C
330
6A
100
AcDbEntity
  8
0
  6
Continuous
 62
     7
100
AcDbLine
 10
-295.4750067265591
 20
-139.224998878618
 30
0.0
 11
-294.9500067265591
 21
-138.6999985057153
 31
0.0
  0
LINE
  5
35D
330
6A
100
AcDbEntity
  8
0
  6
Continuous
 62
     7
100
AcDbLine
 10
-297.5750067265591
 20
-139.224998878618
 30
0.0
 11
-298.1000070994618
 21
-138.6999985057153
 31
0.0
  0
LINE
  5
35E
330
6A
100
AcDbEntity
  8
0
  6
Continuous
 62
     7
100
AcDbLine
 10
-305.6000067265591
 20
-141.599998878618
 30
0.0
 11
-305.3000067265591
 21
-141.299998878618
 31
0.0
  0
LINE
  5
35F
330
6A
100
AcDbEntity
  8
0
  6
Continuous
 62
     7
100
AcDbLine
 10
-305.3000067265591
 20
-143.099998878618
 30
0.0
 11
-305.6000067265591
 21
-142.799998878618
 31
0.0
  0
LINE
  5
360
330
6A
100
AcDbEntity
  8
0
  6
Continuous
 62
     7
100
AcDbLine
 10
-294.9500067265591
 20
-138.6999985057153
 30
0.0
 11
-295.6000067265591
 21
-138.6999985057153
 31
0.0
  0
LINE
  5
361
330
6A
100
AcDbEntity
  8
0
  6
Continuous
 62
     7
100
AcDbLine
 10
-297.0500063536563
 20
-138.6999985057153
 30
0.0
 11
-298.1000070994618
 21
-138.6999985057153
 31
0.0
  0
LINE
  5
362
330
6A
100
AcDbEntity
  8
0
  6
Continuous
 62
     7
100
AcDbLine
 10
-298.1000070994618
 20
-138.6999985057153
 30
0.0
 11
-305.3000067265591
 21
-138.6999985057153
 31
0.0
  0
LINE
  5
363
330
6A
100
AcDbEntity
  8
0
  6
Continuous
 62
     7
100
AcDbLine
 10
-309.6000067265591
 20
-138.6999985057153
 30
0.0
 11
-309.6000067265591
 21
-145.799998878618
 31
0.0
  0
LINE
  5
364
330
6A
100
AcDbEntity
  8
0
  6
Continuous
 62
     7
100
AcDbLine
 10
-305.3000067265591
 20
-145.799998878618
 30
0.0
 11
-305.3000067265591
 21
-143.099998878618
 31
0.0
  0
LINE
  5
365
330
6A
100
AcDbEntity
  8
0
  6
Continuous
 62
     7
100
AcDbLine
 10
-305.3000067265591
 20
-141.299998878618
 30
0.0
 11
-305.3000067265591
 21
-138.6999985057153
 31
0.0
  0
LINE
  5
366
330
6A
100
AcDbEntity
  8
0
  6
Continuous
 62
     7
100
AcDbLine
 10
-309.6000067265591
 20
-145.799998878618
 30
0.0
 11
-305.3000067265591
 21
-145.799998878618
 31
0.0
  0
LINE
  5
367
330
6A
100
AcDbEntity
  8
0
  6
Continuous
 62
     7
100
AcDbLine
 10
-297.0000069522928
 20
-145.7999985057153
 30
0.0
 11
-285.2414705959525
 21
-145.7999985057153
 31
0.0
  0
LINE
  5
368
330
6A
100
AcDbEntity
  8
0
  6
Continuous
 62
     7
100
AcDbLine
 10
-296.0000070994618
 20
-138.6999985057153
 30
0.0
 11
-296.525006726559
 21
-139.224998878618
 31
0.0
  0
LINE
  5
369
330
6A
100
AcDbEntity
  8
0
  6
Continuous
 62
     7
100
AcDbLine
 10
-275.1533927433595
 20
-105.8306029123148
 30
0.0
 11
-275.5299948041108
 21
-105.4540008515635
 31
0.0
  0
LINE
  5
36A
330
6A
100
AcDbEntity
  8
0
  6
Continuous
 62
     7
100
AcDbLine
 10
-273.0000067265591
 20
-141.3999985057153
 30
0.0
 11
-272.500006726559
 21
-141.8999985057153
 31
0.0
  0
LINE
  5
36B
330
6A
100
AcDbEntity
  8
0
  6
Continuous
 62
     7
100
AcDbLine
 10
-273.0000067265591
 20
-141.3999985057153
 30
0.0
 11
-273.5000067265591
 21
-141.8999985057153
 31
0.0
  0
LINE
  5
36C
330
6A
100
AcDbEntity
  8
0
  6
Continuous
 62
     7
100
AcDbLine
 10
-274.0000067265591
 20
-141.3999985057153
 30
0.0
 11
-273.5000067265591
 21
-141.8999985057153
 31
0.0
  0
LINE
  5
36D
330
6A
100
AcDbEntity
  8
0
  6
Continuous
 62
     7
100
AcDbLine
 10
-274.0000067265591
 20
-141.3999985057153
 30
0.0
 11
-275.8000067265591
 21
-141.3999985057153
 31
0.0
  0
LINE
  5
36E
330
6A
100
AcDbEntity
  8
0
  6
Continuous
 62
     7
100
AcDbLine
 10
-273.4000069522929
 20
-142.6821216748489
 30
0.0
 11
-271.8000069522929
 21
-142.3999985057153
 31
0.0
  0
LINE
  5
36F
330
6A
100
AcDbEntity
  8
0
  6
Continuous
 62
     7
100
AcDbLine
 10
-272.500006726559
 20
-141.8999985057153
 30
0.0
 11
-272.000006726559
 21
-141.3999985057153
 31
0.0
  0
LINE
  5
370
330
6A
100
AcDbEntity
  8
0
  6
Continuous
 62
     7
100
AcDbLine
 10
-276.2816538990782
 20
-106.2056599465308
 30
0.0
 11
-271.8056679741673
 21
-110.6816458714416
 31
0.0
  0
LINE
  5
371
330
6A
100
AcDbEntity
  8
0
  6
Continuous
 62
     7
100
AcDbLine
 10
-275.5299948041108
 20
-105.4540008515635
 30
0.0
 11
-276.2816538990782
 21
-106.2056599465308
 31
0.0
  0
LINE
  5
372
330
6A
100
AcDbEntity
  8
0
  6
Continuous
 62
     7
100
AcDbLine
 10
-275.1533927433595
 20
-105.8306029123148
 30
0.0
 11
-274.3170622805775
 21
-103.6829427584895
 31
0.0
  0
LINE
  5
373
330
6A
100
AcDbEntity
  8
0
  6
Continuous
 62
     7
100
AcDbLine
 10
-274.3170622805775
 20
-103.6829427584895
 30
0.0
 11
-275.9000065333519
 21
-102.0999985057152
 31
0.0
  0
LINE
  5
374
330
6A
100
AcDbEntity
  8
0
  6
Continuous
 62
     7
100
AcDbLine
 10
-293.9000071813184
 20
-138.6999985057153
 30
0.0
 11
-282.6804945314372
 21
-147.899998878618
 31
0.0
  0
ARC
  5
375
330
6A
100
AcDbEntity
  8
0
  6
Continuous
 62
     7
100
AcDbCircle
 10
-275.8000067265591
 20
-144.8999985057153
 30
0.0
 40
3.5
100
AcDbArc
 50
90.0
 51
180.0
  0
ENDBLK
  5
6C
330
6A
100
AcDbEntity
  8
0
100
AcDbBlockEnd
  0
BLOCK
  5
6F
330
6D
100
AcDbEntity
  8
0
100
AcDbBlockBegin
  2
Vordans1
 70
     0
 10
-289.0000015111169
 20
-124.9999985694685
 30
0.0
  3
Vordans1
  1

  0
INSERT
  5
6E
330
6D
100
AcDbEntity
  8
0
100
AcDbBlockReference
  2
USLKG_10-1-select__6
 10
-310.2500065333518
 20
-147.899998878618
 30
0.0
  0
LINE
  5
376
330
6D
100
AcDbEntity
  8
1
  6
DOT_CENTER
 62
     2
100
AcDbLine
 10
-271.8000067265592
 20
-137.193852894463
 30
0.0
 11
-271.8000067265592
 21
-140.193852894463
 31
0.0
  0
LINE
  5
377
330
6D
100
AcDbEntity
  8
1
  6
DOT_CENTER
 62
     2
100
AcDbLine
 10
-289.3000067265592
 20
-137.193852894463
 30
0.0
 11
-289.3000067265592
 21
-140.193852894463
 31
0.0
  0
MTEXT
  5
378
330
6D
100
AcDbEntity
  8
1
 62
     6
100
AcDbMText
 10
-289.0000015111169
 20
-152.9000000953474
 30
0.0
 40
5.0
 41
0.0
 71
     2
 72
     1
  1
 
  7
CONVERTER_11
 73
     1
 44
1.32052821128451
  0
DIMENSION
  5
383
330
6D
100
AcDbEntity
  8
1
100
AcDbDimension
  2
*D18
 10
-310.2500065333518
 20
-177.728940373191
 30
0.0
 11
-289.0000015111169
 21
-173.803940373191
 31
0.0
 70
    32
  1
<>
 71
     5
 42
-1.0
 53
0.00013888888889
  3
ME10_DIM_11
100
AcDbAlignedDimension
 13
-267.7500065333518
 23
-111.9918569344195
 33
0.0
 14
-310.2500065333518
 24
-111.9918569344195
 34
0.0
100
AcDbRotatedDimension
  0
DIMENSION
  5
38E
330
6D
100
AcDbEntity
  8
1
100
AcDbDimension
  2
*D19
 10
-315.600006726559
 20
-102.0999985057153
 30
0.0
 11
-319.025006726559
 21
-121.239274869481
 31
0.0
 70
    32
  1
<>
 71
     5
 42
-1.0
 53
90.0
  3
ME10_DIM_12
100
AcDbAlignedDimension
 13
-305.6000067265591
 23
-141.599998878618
 33
0.0
 14
-302.1000065333518
 24
-102.0999985057152
 34
0.0
 50
90.0
100
AcDbRotatedDimension
  0
DIMENSION
  5
399
330
6D
100
AcDbEntity
  8
1
100
AcDbDimension
  2
*D20
 10
-323.600006726559
 20
-102.0999985057153
 30
0.0
 11
-327.025006726559
 21
-124.9999986921666
 31
0.0
 70
    32
  1
<>
 71
     5
 42
-1.0
 53
90.0
  3
ME10_DIM_13
100
AcDbAlignedDimension
 13
-281.900006726559
 23
-147.899998878618
 33
0.0
 14
-302.1000065333518
 24
-102.0999985057152
 34
0.0
 50
90.0
100
AcDbRotatedDimension
  0
DIMENSION
  5
3A4
330
6D
100
AcDbEntity
  8
1
100
AcDbDimension
  2
*D21
 10
-289.3000067265592
 20
-159.098245934738
 30
0.0
 11
-281.22838687546
 21
-155.673245934738
 31
0.0
 70
    32
  1
<>
 71
     5
 42
-1.0
 53
0.00013888888889
  3
ME10_DIM_14
100
AcDbAlignedDimension
 13
-271.8000067265592
 23
-140.193852894463
 33
0.0
 14
-289.3000067265592
 24
-140.193852894463
 34
0.0
100
AcDbRotatedDimension
  0
DIMENSION
  5
3AF
330
6D
100
AcDbEntity
  8
1
100
AcDbDimension
  2
*D22
 10
-289.3000067265593
 20
-167.098245934738
 30
0.0
 11
-278.5250066299556
 21
-163.673245934738
 31
0.0
 70
    32
  1
<>
 71
     5
 42
-1.0
 53
0.00013888888889
  3
ME10_DIM_15
100
AcDbAlignedDimension
 13
-267.7500065333518
 23
-138.6999985057153
 33
0.0
 14
-289.3000067265592
 24
-140.193852894463
 34
0.0
100
AcDbRotatedDimension
  0
ENDBLK
  5
70
330
6D
100
AcDbEntity
  8
0
100
AcDbBlockEnd
  0
BLOCK
  5
72
330
71
100
AcDbEntity
  8
0
100
AcDbBlockBegin
  2
_rahmen
 70
     0
 10
-123.4999999999899
 20
-267.0000000000051
 30
0.0
  3
_rahmen
  1

  0
LINE
  5
3B0
330
71
100
AcDbEntity
  8
1
  6
Continuous
 62
     6
100
AcDbLine
 10
-253.0448045267399
 20
-236.500000000005
 30
0.0
 11
-123.4999999999882
 21
-236.500000000005
 31
0.0
  0
LINE
  5
3B1
330
71
100
AcDbEntity
  8
1
  6
Continuous
 62
     7
100
AcDbLine
 10
-234.8448045267399
 20
-257.750000000005
 30
0.0
 11
-216.64480452674
 21
-257.750000000005
 31
0.0
  0
LINE
  5
3B2
330
71
100
AcDbEntity
  8
1
  6
Continuous
 62
     6
100
AcDbLine
 10
-234.8448045267399
 20
-262.000000000005
 30
0.0
 11
-253.0448045267399
 21
-262.0000000000051
 31
0.0
  0
LINE
  5
3B3
330
71
100
AcDbEntity
  8
1
  6
Continuous
 62
     7
100
AcDbLine
 10
-234.8448045267399
 20
-257.750000000005
 30
0.0
 11
-234.8448045267399
 21
-262.000000000005
 31
0.0
  0
LINE
  5
3B4
330
71
100
AcDbEntity
  8
1
  6
Continuous
 62
     7
100
AcDbLine
 10
-216.64480452674
 20
-257.750000000005
 30
0.0
 11
-216.64480452674
 21
-262.0000000000051
 31
0.0
  0
LINE
  5
3B5
330
71
100
AcDbEntity
  8
1
  6
Continuous
 62
     7
100
AcDbLine
 10
-253.0448045267399
 20
-257.7500000000051
 30
0.0
 11
-253.0448045267399
 21
-262.0000000000051
 31
0.0
  0
LINE
  5
3B6
330
71
100
AcDbEntity
  8
1
  6
Continuous
 62
     7
100
AcDbLine
 10
-253.0448045267399
 20
-257.7500000000051
 30
0.0
 11
-234.8448045267399
 21
-257.750000000005
 31
0.0
  0
LINE
  5
3B7
330
71
100
AcDbEntity
  8
1
  6
Continuous
 62
     2
100
AcDbLine
 10
-243.8081496401773
 20
-238.3750000000051
 30
0.0
 11
-243.8081496401773
 21
-243.3750000000051
 31
0.0
  0
LINE
  5
3B8
330
71
100
AcDbEntity
  8
1
  6
Continuous
 62
     2
100
AcDbLine
 10
-243.8081496401773
 20
-243.3750000000051
 30
0.0
 11
-248.8081496401773
 21
-242.1250000000051
 31
0.0
  0
LINE
  5
3B9
330
71
100
AcDbEntity
  8
1
  6
Continuous
 62
     2
100
AcDbLine
 10
-248.8081496401773
 20
-242.1250000000051
 30
0.0
 11
-248.8081496401773
 21
-239.6250000000051
 31
0.0
  0
LINE
  5
3BA
330
71
100
AcDbEntity
  8
1
  6
Continuous
 62
     2
100
AcDbLine
 10
-248.8081496401773
 20
-239.6250000000051
 30
0.0
 11
-243.8081496401773
 21
-238.3750000000051
 31
0.0
  0
LINE
  5
3BB
330
71
100
AcDbEntity
  8
1
  6
Continuous
 62
     6
100
AcDbLine
 10
-375.4999999999881
 20
-262.000000000005
 30
0.0
 11
-410.499999999988
 21
-262.000000000005
 31
0.0
  0
LINE
  5
3BC
330
71
100
AcDbEntity
  8
1
  6
Continuous
 62
     6
100
AcDbLine
 10
-123.4999999999882
 20
-245.000000000005
 30
0.0
 11
-123.4999999999886
 21
-253.500000000005
 31
0.0
  0
LINE
  5
3BD
330
71
100
AcDbEntity
  8
1
  6
Continuous
 62
     6
100
AcDbLine
 10
-216.64480452674
 20
-262.0000000000051
 30
0.0
 11
-216.9999999999899
 21
-262.000000000005
 31
0.0
  0
LINE
  5
3BE
330
71
100
AcDbEntity
  8
1
  6
Continuous
 62
     6
100
AcDbLine
 10
-369.2999999999901
 20
-262.0000000000051
 30
0.0
 11
-375.4999999999881
 21
-262.000000000005
 31
0.0
  0
LINE
  5
3BF
330
71
100
AcDbEntity
  8
1
  6
Continuous
 62
     7
100
AcDbLine
 10
-216.64480452674
 20
-245.000000000005
 30
0.0
 11
-216.64480452674
 21
-257.750000000005
 31
0.0
  0
LINE
  5
3C0
330
71
100
AcDbEntity
  8
1
  6
Continuous
 62
     7
100
AcDbLine
 10
-253.0448045267399
 20
-245.000000000005
 30
0.0
 11
-253.0448045267399
 21
-257.7500000000051
 31
0.0
  0
LINE
  5
3C1
330
71
100
AcDbEntity
  8
1
  6
Continuous
 62
     6
100
AcDbLine
 10
-266.9999999999899
 20
-262.000000000005
 30
0.0
 11
-316.9999999999901
 21
-262.000000000005
 31
0.0
  0
LINE
  5
3C2
330
71
100
AcDbEntity
  8
1
  6
Continuous
 62
     6
100
AcDbLine
 10
-369.2999999999901
 20
-262.0000000000051
 30
0.0
 11
-366.9999999999899
 21
-262.000000000005
 31
0.0
  0
LINE
  5
3C3
330
71
100
AcDbEntity
  8
1
  6
Continuous
 62
     6
100
AcDbLine
 10
-216.64480452674
 20
-262.0000000000051
 30
0.0
 11
-166.9999999999899
 21
-262.000000000005
 31
0.0
  0
LINE
  5
3C4
330
71
100
AcDbEntity
  8
1
  6
Continuous
 62
     6
100
AcDbLine
 10
-123.4999999999899
 20
-262.000000000005
 30
0.0
 11
-123.4999999999886
 21
-253.500000000005
 31
0.0
  0
LINE
  5
3C5
330
71
100
AcDbEntity
  8
1
  6
Continuous
 62
     2
100
AcDbLine
 10
-415.499999999989
 20
-262.000000000005
 30
0.0
 11
-415.499999999989
 21
-267.0000000000051
 31
0.0
  0
LINE
  5
3C6
330
71
100
AcDbEntity
  8
1
  6
Continuous
 62
     2
100
AcDbLine
 10
-410.499999999988
 20
-262.000000000005
 30
0.0
 11
-415.499999999989
 21
-262.000000000005
 31
0.0
  0
LINE
  5
3C7
330
71
100
AcDbEntity
  8
1
  6
Continuous
 62
     2
100
AcDbLine
 10
-410.499999999988
 20
-267.0000000000051
 30
0.0
 11
-366.9999999999899
 21
-267.0000000000051
 31
0.0
  0
LINE
  5
3C8
330
71
100
AcDbEntity
  8
1
  6
Continuous
 62
     2
100
AcDbLine
 10
-410.499999999988
 20
-262.000000000005
 30
0.0
 11
-410.499999999988
 21
-267.0000000000051
 31
0.0
  0
LINE
  5
3C9
330
71
100
AcDbEntity
  8
1
  6
Continuous
 62
     2
100
AcDbLine
 10
-166.9999999999899
 20
-267.0000000000051
 30
0.0
 11
-216.9999999999899
 21
-267.0000000000051
 31
0.0
  0
LINE
  5
3CA
330
71
100
AcDbEntity
  8
1
  6
Continuous
 62
     2
100
AcDbLine
 10
-166.9999999999899
 20
-267.0000000000051
 30
0.0
 11
-166.9999999999899
 21
-262.000000000005
 31
0.0
  0
LINE
  5
3CB
330
71
100
AcDbEntity
  8
1
  6
Continuous
 62
     2
100
AcDbLine
 10
-216.9999999999899
 20
-267.0000000000051
 30
0.0
 11
-216.9999999999899
 21
-262.000000000005
 31
0.0
  0
LINE
  5
3CC
330
71
100
AcDbEntity
  8
1
  6
Continuous
 62
     2
100
AcDbLine
 10
-266.9999999999899
 20
-267.0000000000051
 30
0.0
 11
-216.9999999999899
 21
-267.0000000000051
 31
0.0
  0
LINE
  5
3CD
330
71
100
AcDbEntity
  8
1
  6
Continuous
 62
     2
100
AcDbLine
 10
-266.9999999999899
 20
-267.0000000000051
 30
0.0
 11
-266.9999999999899
 21
-262.000000000005
 31
0.0
  0
LINE
  5
3CE
330
71
100
AcDbEntity
  8
1
  6
Continuous
 62
     2
100
AcDbLine
 10
-316.9999999999901
 20
-267.0000000000051
 30
0.0
 11
-266.9999999999899
 21
-267.0000000000051
 31
0.0
  0
LINE
  5
3CF
330
71
100
AcDbEntity
  8
1
  6
Continuous
 62
     2
100
AcDbLine
 10
-316.9999999999901
 20
-267.0000000000051
 30
0.0
 11
-316.9999999999901
 21
-262.000000000005
 31
0.0
  0
LINE
  5
3D0
330
71
100
AcDbEntity
  8
1
  6
Continuous
 62
     2
100
AcDbLine
 10
-366.9999999999899
 20
-267.0000000000051
 30
0.0
 11
-316.9999999999901
 21
-267.0000000000051
 31
0.0
  0
LINE
  5
3D1
330
71
100
AcDbEntity
  8
1
  6
Continuous
 62
     2
100
AcDbLine
 10
-366.9999999999899
 20
-267.0000000000051
 30
0.0
 11
-366.9999999999899
 21
-262.000000000005
 31
0.0
  0
LINE
  5
3D2
330
71
100
AcDbEntity
  8
1
  6
Continuous
 62
     6
100
AcDbLine
 10
-410.4999999999882
 20
-212.0000000000049
 30
0.0
 11
-410.499999999988
 21
-262.000000000005
 31
0.0
  0
LINE
  5
3D3
330
71
100
AcDbEntity
  8
1
  6
Continuous
 62
     2
100
AcDbLine
 10
-415.499999999989
 20
-212.0000000000049
 30
0.0
 11
-415.499999999989
 21
-262.000000000005
 31
0.0
  0
LINE
  5
3D4
330
71
100
AcDbEntity
  8
1
  6
Continuous
 62
     2
100
AcDbLine
 10
-415.499999999989
 20
-212.0000000000049
 30
0.0
 11
-410.4999999999882
 21
-212.0000000000049
 31
0.0
  0
LINE
  5
3D5
330
71
100
AcDbEntity
  8
1
  6
Continuous
 62
     6
100
AcDbLine
 10
-410.4999999999884
 20
-162.0000000000051
 30
0.0
 11
-410.4999999999882
 21
-212.0000000000049
 31
0.0
  0
LINE
  5
3D6
330
71
100
AcDbEntity
  8
1
  6
Continuous
 62
     2
100
AcDbLine
 10
-415.499999999989
 20
-162.0000000000051
 30
0.0
 11
-415.499999999989
 21
-212.0000000000049
 31
0.0
  0
LINE
  5
3D7
330
71
100
AcDbEntity
  8
1
  6
Continuous
 62
     2
100
AcDbLine
 10
-415.499999999989
 20
-162.0000000000051
 30
0.0
 11
-410.4999999999884
 21
-162.0000000000051
 31
0.0
  0
LINE
  5
3D8
330
71
100
AcDbEntity
  8
1
  6
Continuous
 62
     6
100
AcDbLine
 10
-410.4999999999889
 20
-112.000000000005
 30
0.0
 11
-410.4999999999884
 21
-162.0000000000051
 31
0.0
  0
LINE
  5
3D9
330
71
100
AcDbEntity
  8
1
  6
Continuous
 62
     2
100
AcDbLine
 10
-415.499999999989
 20
-112.000000000005
 30
0.0
 11
-415.499999999989
 21
-162.0000000000051
 31
0.0
  0
LINE
  5
3DA
330
71
100
AcDbEntity
  8
1
  6
Continuous
 62
     2
100
AcDbLine
 10
-415.499999999989
 20
-112.000000000005
 30
0.0
 11
-410.4999999999889
 21
-112.000000000005
 31
0.0
  0
LINE
  5
3DB
330
71
100
AcDbEntity
  8
1
  6
Continuous
 62
     6
100
AcDbLine
 10
-410.499999999989
 20
-77.000000000005
 30
0.0
 11
-410.4999999999889
 21
-112.000000000005
 31
0.0
  0
LINE
  5
3DC
330
71
100
AcDbEntity
  8
1
  6
Continuous
 62
     2
100
AcDbLine
 10
-415.499999999989
 20
-57.000000000005
 30
0.0
 11
-415.499999999989
 21
-112.000000000005
 31
0.0
  0
LINE
  5
3DD
330
71
100
AcDbEntity
  8
1
  6
Continuous
 62
     2
100
AcDbLine
 10
-415.499999999989
 20
-267.0000000000051
 30
0.0
 11
-410.499999999988
 21
-267.0000000000051
 31
0.0
  0
LINE
  5
3DE
330
71
100
AcDbEntity
  8
1
  6
Continuous
 62
     2
100
AcDbLine
 10
-266.9999999999899
 20
-57.000000000005
 30
0.0
 11
-266.9999999999899
 21
-66.20869184470632
 31
0.0
  0
LINE
  5
3DF
330
71
100
AcDbEntity
  8
1
  6
Continuous
 62
     2
100
AcDbLine
 10
-266.9999999999899
 20
-57.000000000005
 30
0.0
 11
-415.499999999989
 21
-57.000000000005
 31
0.0
  0
LINE
  5
3E0
330
71
100
AcDbEntity
  8
1
  6
Continuous
 62
     2
100
AcDbLine
 10
-118.4999999999909
 20
-262.000000000005
 30
0.0
 11
-118.4999999999909
 21
-212.0000000000049
 31
0.0
  0
LINE
  5
3E1
330
71
100
AcDbEntity
  8
1
  6
Continuous
 62
     2
100
AcDbLine
 10
-118.4999999999909
 20
-112.000000000005
 30
0.0
 11
-118.4999999999909
 21
-57.000000000005
 31
0.0
  0
LINE
  5
3E2
330
71
100
AcDbEntity
  8
1
  6
Continuous
 62
     6
100
AcDbLine
 10
-123.4999999999907
 20
-112.000000000005
 30
0.0
 11
-123.4999999999909
 21
-77.000000000005
 31
0.0
  0
LINE
  5
3E3
330
71
100
AcDbEntity
  8
1
  6
Continuous
 62
     2
100
AcDbLine
 10
-123.4999999999907
 20
-112.000000000005
 30
0.0
 11
-118.4999999999909
 21
-112.000000000005
 31
0.0
  0
LINE
  5
3E4
330
71
100
AcDbEntity
  8
1
  6
Continuous
 62
     2
100
AcDbLine
 10
-118.4999999999909
 20
-162.0000000000051
 30
0.0
 11
-118.4999999999909
 21
-112.000000000005
 31
0.0
  0
LINE
  5
3E5
330
71
100
AcDbEntity
  8
1
  6
Continuous
 62
     6
100
AcDbLine
 10
-123.4999999999895
 20
-162.0000000000051
 30
0.0
 11
-123.4999999999907
 21
-112.000000000005
 31
0.0
  0
LINE
  5
3E6
330
71
100
AcDbEntity
  8
1
  6
Continuous
 62
     2
100
AcDbLine
 10
-123.4999999999895
 20
-162.0000000000051
 30
0.0
 11
-118.4999999999909
 21
-162.0000000000051
 31
0.0
  0
LINE
  5
3E7
330
71
100
AcDbEntity
  8
1
  6
Continuous
 62
     2
100
AcDbLine
 10
-118.4999999999909
 20
-212.0000000000049
 30
0.0
 11
-118.4999999999909
 21
-162.0000000000051
 31
0.0
  0
LINE
  5
3E8
330
71
100
AcDbEntity
  8
1
  6
Continuous
 62
     6
100
AcDbLine
 10
-123.499999999989
 20
-212.0000000000049
 30
0.0
 11
-123.4999999999895
 21
-162.0000000000051
 31
0.0
  0
LINE
  5
3E9
330
71
100
AcDbEntity
  8
1
  6
Continuous
 62
     2
100
AcDbLine
 10
-123.499999999989
 20
-212.0000000000049
 30
0.0
 11
-118.4999999999909
 21
-212.0000000000049
 31
0.0
  0
LINE
  5
3EA
330
71
100
AcDbEntity
  8
1
  6
Continuous
 62
     6
100
AcDbLine
 10
-123.4999999999909
 20
-77.000000000005
 30
0.0
 11
-410.499999999989
 21
-77.000000000005
 31
0.0
  0
LINE
  5
3EB
330
71
100
AcDbEntity
  8
1
  6
Continuous
 62
     2
100
AcDbLine
 10
-118.4999999999909
 20
-57.000000000005
 30
0.0
 11
-266.9999999999899
 21
-57.000000000005
 31
0.0
  0
LINE
  5
3EC
330
71
100
AcDbEntity
  8
1
  6
Continuous
 62
     6
100
AcDbLine
 10
-123.4999999999882
 20
-245.000000000005
 30
0.0
 11
-123.499999999989
 21
-212.0000000000049
 31
0.0
  0
LINE
  5
3ED
330
71
100
AcDbEntity
  8
1
  6
Continuous
 62
     2
100
AcDbLine
 10
-123.4999999999899
 20
-267.0000000000051
 30
0.0
 11
-166.9999999999899
 21
-267.0000000000051
 31
0.0
  0
LINE
  5
3EE
330
71
100
AcDbEntity
  8
1
  6
Continuous
 62
     2
100
AcDbLine
 10
-118.4999999999909
 20
-267.0000000000051
 30
0.0
 11
-123.4999999999899
 21
-267.0000000000051
 31
0.0
  0
LINE
  5
3EF
330
71
100
AcDbEntity
  8
1
  6
Continuous
 62
     2
100
AcDbLine
 10
-118.4999999999909
 20
-267.0000000000051
 30
0.0
 11
-118.4999999999909
 21
-262.000000000005
 31
0.0
  0
LINE
  5
3F0
330
71
100
AcDbEntity
  8
1
  6
Continuous
 62
     6
100
AcDbLine
 10
-253.0448045267399
 20
-245.000000000005
 30
0.0
 11
-216.64480452674
 21
-245.000000000005
 31
0.0
  0
LINE
  5
3F1
330
71
100
AcDbEntity
  8
1
  6
Continuous
 62
     2
100
AcDbLine
 10
-123.4999999999899
 20
-262.000000000005
 30
0.0
 11
-123.4999999999899
 21
-267.0000000000051
 31
0.0
  0
LINE
  5
3F2
330
71
100
AcDbEntity
  8
1
  6
Continuous
 62
     2
100
AcDbLine
 10
-123.4999999999899
 20
-262.000000000005
 30
0.0
 11
-118.4999999999909
 21
-262.000000000005
 31
0.0
  0
LINE
  5
3F3
330
71
100
AcDbEntity
  8
1
  6
Continuous
 62
     6
100
AcDbLine
 10
-216.9999999999899
 20
-262.000000000005
 30
0.0
 11
-234.8448045267399
 21
-262.000000000005
 31
0.0
  0
LINE
  5
3F4
330
71
100
AcDbEntity
  8
1
  6
Continuous
 62
     6
100
AcDbLine
 10
-166.9999999999899
 20
-262.000000000005
 30
0.0
 11
-123.4999999999899
 21
-262.000000000005
 31
0.0
  0
LINE
  5
3F5
330
71
100
AcDbEntity
  8
1
  6
Continuous
 62
     6
100
AcDbLine
 10
-316.9999999999901
 20
-262.000000000005
 30
0.0
 11
-322.0448045267399
 21
-262.000000000005
 31
0.0
  0
LINE
  5
3F6
330
71
100
AcDbEntity
  8
1
  6
Continuous
 62
     6
100
AcDbLine
 10
-266.9999999999899
 20
-262.000000000005
 30
0.0
 11
-253.0448045267399
 21
-262.0000000000051
 31
0.0
  0
LINE
  5
3F7
102
{ACAD_REACTORS
330
4E1
330
4E2
102
}
330
71
100
AcDbEntity
  8
0
  6
Continuous
 62
     2
100
AcDbLine
 10
-245.5301785845931
 20
-249.9274852437929
 30
0.0
 11
-245.5301785845931
 21
-249.3219499552861
 31
0.0
  0
LINE
  5
3F8
102
{ACAD_REACTORS
330
4E1
330
4E2
102
}
330
71
100
AcDbEntity
  8
0
  6
Continuous
 62
     2
100
AcDbLine
 10
-245.5301785845931
 20
-252.7276198504242
 30
0.0
 11
-245.5301785845931
 21
-252.1457684437291
 31
0.0
  0
LINE
  5
3F9
102
{ACAD_REACTORS
330
4E3
330
4E4
102
}
330
71
100
AcDbEntity
  8
0
  6
Continuous
 62
     2
100
AcDbLine
 10
-222.9006921491139
 20
-252.4379557823012
 30
0.0
 11
-222.9006921491139
 21
-254.7064999999887
 31
0.0
  0
LINE
  5
3FA
102
{ACAD_REACTORS
330
4E3
330
4E4
102
}
330
71
100
AcDbEntity
  8
0
  6
Continuous
 62
     2
100
AcDbLine
 10
-224.2817459281015
 20
-251.6526904761781
 30
0.0
 11
-220.8968004094728
 21
-251.6526904761776
 31
0.0
  0
LINE
  5
3FB
102
{ACAD_REACTORS
330
4E3
330
4E4
102
}
330
71
100
AcDbEntity
  8
0
  6
Continuous
 62
     2
100
AcDbLine
 10
-220.8968004094728
 20
-252.4379557823012
 30
0.0
 11
-220.8968004094728
 21
-251.6526904761776
 31
0.0
  0
LINE
  5
3FC
102
{ACAD_REACTORS
330
4E3
330
4E4
102
}
330
71
100
AcDbEntity
  8
0
  6
Continuous
 62
     2
100
AcDbLine
 10
-221.7078994469462
 20
-252.4379557823012
 30
0.0
 11
-220.8968004094728
 21
-252.4379557823012
 31
0.0
  0
LINE
  5
3FD
102
{ACAD_REACTORS
330
4E3
330
4E4
102
}
330
71
100
AcDbEntity
  8
0
  6
Continuous
 62
     2
100
AcDbLine
 10
-221.7078994469462
 20
-254.7064999999887
 30
0.0
 11
-221.7078994469462
 21
-252.4379557823012
 31
0.0
  0
LINE
  5
3FE
102
{ACAD_REACTORS
330
4E3
330
4E4
102
}
330
71
100
AcDbEntity
  8
0
  6
Continuous
 62
     2
100
AcDbLine
 10
-222.9006921491139
 20
-254.7064999999887
 30
0.0
 11
-221.7078994469462
 21
-254.7064999999887
 31
0.0
  0
LINE
  5
3FF
102
{ACAD_REACTORS
330
4D9
330
4DA
102
}
330
71
100
AcDbEntity
  8
0
  6
Continuous
 62
     2
100
AcDbLine
 10
-223.5972830871784
 20
-248.2935000000032
 30
0.0
 11
-225.0000073049277
 21
-248.2935000000032
 31
0.0
  0
LINE
  5
400
102
{ACAD_REACTORS
330
4D9
330
4DA
102
}
330
71
100
AcDbEntity
  8
0
  6
Continuous
 62
     2
100
AcDbLine
 10
-223.5972830871784
 20
-248.2935000000032
 30
0.0
 11
-222.9961155652866
 21
-248.9733233215587
 31
0.0
  0
LINE
  5
401
102
{ACAD_REACTORS
330
4D9
330
4DA
102
}
330
71
100
AcDbEntity
  8
0
  6
Continuous
 62
     2
100
AcDbLine
 10
-222.9961155652866
 20
-248.9733233215587
 30
0.0
 11
-222.3949480433938
 21
-248.2935000000032
 31
0.0
  0
LINE
  5
402
102
{ACAD_REACTORS
330
4D9
330
4DA
102
}
330
71
100
AcDbEntity
  8
0
  6
Continuous
 62
     2
100
AcDbLine
 10
-222.2947534564131
 20
-249.7664505300394
 30
0.0
 11
-220.9922238256466
 21
-248.2935000000032
 31
0.0
  0
LINE
  5
403
102
{ACAD_REACTORS
330
4D9
330
4DA
102
}
330
71
100
AcDbEntity
  8
0
  6
Continuous
 62
     2
100
AcDbLine
 10
-222.2947534564131
 20
-249.7664505300394
 30
0.0
 11
-220.8968004094728
 21
-251.3473095238144
 31
0.0
  0
LINE
  5
404
102
{ACAD_REACTORS
330
4D9
330
4DA
102
}
330
71
100
AcDbEntity
  8
0
  6
Continuous
 62
     2
100
AcDbLine
 10
-222.2995246272211
 20
-251.3473095238144
 30
0.0
 11
-220.8968004094728
 21
-251.3473095238144
 31
0.0
  0
LINE
  5
405
102
{ACAD_REACTORS
330
4D9
330
4DA
102
}
330
71
100
AcDbEntity
  8
0
  6
Continuous
 62
     2
100
AcDbLine
 10
-222.9961155652866
 20
-250.5595777385207
 30
0.0
 11
-222.2995246272211
 21
-251.3473095238144
 31
0.0
  0
LINE
  5
406
102
{ACAD_REACTORS
330
4D7
330
4D8
102
}
330
71
100
AcDbEntity
  8
0
  6
Continuous
 62
     2
100
AcDbLine
 10
-226.4552144015703
 20
-248.2935000000032
 30
0.0
 11
-225.2147099913174
 21
-248.2935000000032
 31
0.0
  0
LINE
  5
407
102
{ACAD_REACTORS
330
4D7
330
4D8
102
}
330
71
100
AcDbEntity
  8
0
  6
Continuous
 62
     2
100
AcDbLine
 10
-225.2147099913174
 20
-248.2935000000032
 30
0.0
 11
-225.2147099913174
 21
-251.3473095238144
 31
0.0
  0
LINE
  5
408
102
{ACAD_REACTORS
330
4D7
330
4D8
102
}
330
71
100
AcDbEntity
  8
0
  6
Continuous
 62
     2
100
AcDbLine
 10
-226.4552144015703
 20
-251.3473095238144
 30
0.0
 11
-226.4552144015703
 21
-248.2935000000032
 31
0.0
  0
LINE
  5
409
102
{ACAD_REACTORS
330
4D5
330
4D6
102
}
330
71
100
AcDbEntity
  8
0
  6
Continuous
 62
     2
100
AcDbLine
 10
-227.9235244841079
 20
-253.4849761904642
 30
0.0
 11
-227.6233592469155
 21
-252.7171612244775
 31
0.0
  0
LINE
  5
40A
102
{ACAD_REACTORS
330
4D5
330
4D6
102
}
330
71
100
AcDbEntity
  8
0
  6
Continuous
 62
     2
100
AcDbLine
 10
-228.4010600887287
 20
-254.7064999999887
 30
0.0
 11
-228.1895800352529
 21
-254.1655394557708
 31
0.0
  0
LINE
  5
40B
102
{ACAD_REACTORS
330
4D5
330
4D6
102
}
330
71
100
AcDbEntity
  8
0
  6
Continuous
 62
     2
100
AcDbLine
 10
-228.2436114520424
 20
-251.6526904761776
 30
0.0
 11
-229.6415644989817
 21
-254.7064999999887
 31
0.0
  0
LINE
  5
40C
102
{ACAD_REACTORS
330
4D5
330
4D6
102
}
330
71
100
AcDbEntity
  8
0
  6
Continuous
 62
     2
100
AcDbLine
 10
-225.6051539948494
 20
-254.7064999999887
 30
0.0
 11
-226.8456584051033
 21
-254.7064999999887
 31
0.0
  0
LINE
  5
40D
102
{ACAD_REACTORS
330
4D5
330
4D6
102
}
330
71
100
AcDbEntity
  8
0
  6
Continuous
 62
     2
100
AcDbLine
 10
-228.1895800352529
 20
-254.1655394557708
 30
0.0
 11
-227.0571384585791
 21
-254.1655394557708
 31
0.0
  0
LINE
  5
40E
102
{ACAD_REACTORS
330
4D3
330
4D4
102
}
330
71
100
AcDbEntity
  8
0
  6
Continuous
 62
     2
100
AcDbLine
 10
-231.7990766381639
 20
-252.4379557823012
 30
0.0
 11
-230.9879776006893
 21
-252.4379557823012
 31
0.0
  0
LINE
  5
40F
102
{ACAD_REACTORS
330
4D3
330
4D4
102
}
330
71
100
AcDbEntity
  8
0
  6
Continuous
 62
     2
100
AcDbLine
 10
-228.9840858610503
 20
-251.6526904761776
 30
0.0
 11
-231.7990766381639
 21
-251.6526904761776
 31
0.0
  0
LINE
  5
410
102
{ACAD_REACTORS
330
4D3
330
4D4
102
}
330
71
100
AcDbEntity
  8
0
  6
Continuous
 62
     2
100
AcDbLine
 10
-228.9840858610503
 20
-252.4379557823012
 30
0.0
 11
-228.9840858610503
 21
-251.6526904761776
 31
0.0
  0
LINE
  5
411
102
{ACAD_REACTORS
330
4D3
330
4D4
102
}
330
71
100
AcDbEntity
  8
0
  6
Continuous
 62
     2
100
AcDbLine
 10
-229.7951848985228
 20
-252.4379557823012
 30
0.0
 11
-228.9840858610503
 21
-252.4379557823012
 31
0.0
  0
LINE
  5
412
102
{ACAD_REACTORS
330
4D3
330
4D4
102
}
330
71
100
AcDbEntity
  8
0
  6
Continuous
 62
     2
100
AcDbLine
 10
-229.7951848985228
 20
-254.7064999999887
 30
0.0
 11
-229.7951848985228
 21
-252.4379557823012
 31
0.0
  0
LINE
  5
413
102
{ACAD_REACTORS
330
4D1
330
4D2
102
}
330
71
100
AcDbEntity
  8
0
  6
Continuous
 62
     2
100
AcDbLine
 10
-229.1270700544248
 20
-251.3473095238144
 30
0.0
 11
-229.1270700544248
 21
-250.0385340136097
 31
0.0
  0
LINE
  5
414
102
{ACAD_REACTORS
330
4D1
330
4D2
102
}
330
71
100
AcDbEntity
  8
0
  6
Continuous
 62
     2
100
AcDbLine
 10
-230.3198627565913
 20
-248.2935000000032
 30
0.0
 11
-230.3198627565913
 21
-251.3473095238144
 31
0.0
  0
LINE
  5
415
102
{ACAD_REACTORS
330
4D1
330
4D2
102
}
330
71
100
AcDbEntity
  8
0
  6
Continuous
 62
     2
100
AcDbLine
 10
-229.1270700544248
 20
-248.2935000000032
 30
0.0
 11
-230.3198627565913
 21
-248.2935000000032
 31
0.0
  0
LINE
  5
416
102
{ACAD_REACTORS
330
4D1
330
4D2
102
}
330
71
100
AcDbEntity
  8
0
  6
Continuous
 62
     2
100
AcDbLine
 10
-227.8865656441708
 20
-248.2935000000032
 30
0.0
 11
-227.8865656441708
 21
-249.6022755102084
 31
0.0
  0
LINE
  5
417
102
{ACAD_REACTORS
330
4CF
330
4D0
102
}
330
71
100
AcDbEntity
  8
0
  6
Continuous
 62
     2
100
AcDbLine
 10
-235.568301577011
 20
-251.6526904761776
 30
0.0
 11
-235.568301577011
 21
-254.7064999999887
 31
0.0
  0
LINE
  5
418
102
{ACAD_REACTORS
330
4CF
330
4D0
102
}
330
71
100
AcDbEntity
  8
0
  6
Continuous
 62
     2
100
AcDbLine
 10
-234.3755088748434
 20
-251.6526904761776
 30
0.0
 11
-235.568301577011
 21
-251.6526904761776
 31
0.0
  0
LINE
  5
419
102
{ACAD_REACTORS
330
4CF
330
4D0
102
}
330
71
100
AcDbEntity
  8
0
  6
Continuous
 62
     2
100
AcDbLine
 10
-233.1350044645905
 20
-254.7064999999887
 30
0.0
 11
-231.9422117624241
 21
-254.7064999999887
 31
0.0
  0
LINE
  5
41A
102
{ACAD_REACTORS
330
4CF
330
4D0
102
}
330
71
100
AcDbEntity
  8
0
  6
Continuous
 62
     2
100
AcDbLine
 10
-235.568301577011
 20
-254.7064999999887
 30
0.0
 11
-234.3755088748434
 21
-254.7064999999887
 31
0.0
  0
LINE
  5
41B
102
{ACAD_REACTORS
330
4DF
330
4E0
102
}
330
71
100
AcDbEntity
  8
0
  6
Continuous
 62
     2
100
AcDbLine
 10
-231.8943491234519
 20
-249.4713979591879
 30
0.0
 11
-231.8943491234519
 21
-248.9915136054462
 31
0.0
  0
LINE
  5
41C
102
{ACAD_REACTORS
330
4DF
330
4E0
102
}
330
71
100
AcDbEntity
  8
0
  6
Continuous
 62
     2
100
AcDbLine
 10
-230.5584212970242
 20
-249.4713979591879
 30
0.0
 11
-231.8943491234519
 21
-249.4713979591879
 31
0.0
  0
LINE
  5
41D
102
{ACAD_REACTORS
330
4DF
330
4E0
102
}
330
71
100
AcDbEntity
  8
0
  6
Continuous
 62
     2
100
AcDbLine
 10
-230.5584212970242
 20
-250.1694115646302
 30
0.0
 11
-230.5584212970242
 21
-249.4713979591879
 31
0.0
  0
LINE
  5
41E
102
{ACAD_REACTORS
330
4DF
330
4E0
102
}
330
71
100
AcDbEntity
  8
0
  6
Continuous
 62
     2
100
AcDbLine
 10
-231.8943491234519
 20
-250.1694115646302
 30
0.0
 11
-230.5584212970242
 21
-250.1694115646302
 31
0.0
  0
LINE
  5
41F
102
{ACAD_REACTORS
330
4CD
330
4CE
102
}
330
71
100
AcDbEntity
  8
0
  6
Continuous
 62
     2
100
AcDbLine
 10
-235.3773038137788
 20
-248.2935000000032
 30
0.0
 11
-235.3773038137788
 21
-251.3473095238144
 31
0.0
  0
LINE
  5
420
102
{ACAD_REACTORS
330
4CD
330
4CE
102
}
330
71
100
AcDbEntity
  8
0
  6
Continuous
 62
     2
100
AcDbLine
 10
-235.3773038137788
 20
-251.3473095238144
 30
0.0
 11
-236.5700965159452
 21
-251.3473095238144
 31
0.0
  0
LINE
  5
421
102
{ACAD_REACTORS
330
4CD
330
4CE
102
}
330
71
100
AcDbEntity
  8
0
  6
Continuous
 62
     2
100
AcDbLine
 10
-236.5700965159452
 20
-251.3473095238144
 30
0.0
 11
-236.5700965159452
 21
-250.2130374149706
 31
0.0
  0
LINE
  5
422
102
{ACAD_REACTORS
330
4CD
330
4CE
102
}
330
71
100
AcDbEntity
  8
0
  6
Continuous
 62
     2
100
AcDbLine
 10
-237.6197540938527
 20
-251.3473095238144
 30
0.0
 11
-238.8125467960193
 21
-251.3473095238144
 31
0.0
  0
LINE
  5
423
102
{ACAD_REACTORS
330
4CD
330
4CE
102
}
330
71
100
AcDbEntity
  8
0
  6
Continuous
 62
     2
100
AcDbLine
 10
-238.8125467960193
 20
-248.2935000000032
 30
0.0
 11
-237.6197540938527
 21
-248.2935000000032
 31
0.0
  0
LINE
  5
424
102
{ACAD_REACTORS
330
4CD
330
4CE
102
}
330
71
100
AcDbEntity
  8
0
  6
Continuous
 62
     2
100
AcDbLine
 10
-237.6197540938527
 20
-248.2935000000032
 30
0.0
 11
-237.6197540938527
 21
-249.3623333333378
 31
0.0
  0
LINE
  5
425
102
{ACAD_REACTORS
330
4CD
330
4CE
102
}
330
71
100
AcDbEntity
  8
0
  6
Continuous
 62
     2
100
AcDbLine
 10
-237.6197540938527
 20
-249.3623333333378
 30
0.0
 11
-236.5700965159452
 21
-249.3623333333378
 31
0.0
  0
LINE
  5
426
102
{ACAD_REACTORS
330
4DB
330
4DC
102
}
330
71
100
AcDbEntity
  8
0
  6
Continuous
 62
     2
100
AcDbLine
 10
-240.7687268275729
 20
-248.9566058454433
 30
0.0
 11
-240.451431766031
 21
-248.9566058454433
 31
0.0
  0
LINE
  5
427
102
{ACAD_REACTORS
330
4DB
330
4DC
102
}
330
71
100
AcDbEntity
  8
0
  6
Continuous
 62
     2
100
AcDbLine
 10
-240.7687268275729
 20
-249.6623334947855
 30
0.0
 11
-240.451431766031
 21
-249.6623334947855
 31
0.0
  0
LINE
  5
428
102
{ACAD_REACTORS
330
4DB
330
4DC
102
}
330
71
100
AcDbEntity
  8
0
  6
Continuous
 62
     2
100
AcDbLine
 10
-242.009231237827
 20
-248.2935000000032
 30
0.0
 11
-242.009231237827
 21
-251.3473095238144
 31
0.0
  0
LINE
  5
429
102
{ACAD_REACTORS
330
4DB
330
4DC
102
}
330
71
100
AcDbEntity
  8
0
  6
Continuous
 62
     2
100
AcDbLine
 10
-242.009231237827
 20
-248.2935000000032
 30
0.0
 11
-240.0099592397926
 21
-248.2935000000032
 31
0.0
  0
LINE
  5
42A
102
{ACAD_REACTORS
330
4DB
330
4DC
102
}
330
71
100
AcDbEntity
  8
0
  6
Continuous
 62
     2
100
AcDbLine
 10
-240.7687268275729
 20
-250.4042312826706
 30
0.0
 11
-240.0099592397926
 21
-250.4042312826706
 31
0.0
  0
LINE
  5
42B
102
{ACAD_REACTORS
330
4E1
330
4E2
102
}
330
71
100
AcDbEntity
  8
0
  6
Continuous
 62
     2
100
AcDbLine
 10
-248.1057272711237
 20
-249.321772478638
 30
0.0
 11
-248.1057272711237
 21
-253.6782275213551
 31
0.0
  0
LINE
  5
42C
102
{ACAD_REACTORS
330
4E1
330
4E2
102
}
330
71
100
AcDbEntity
  8
0
  6
Continuous
 62
     2
100
AcDbLine
 10
-247.790010348048
 20
-249.0060555555618
 30
0.0
 11
-246.3141770870384
 21
-249.0060555555618
 31
0.0
  0
LINE
  5
42D
102
{ACAD_REACTORS
330
4E1
330
4E2
102
}
330
71
100
AcDbEntity
  8
0
  6
Continuous
 62
     2
100
AcDbLine
 10
-245.9984601639618
 20
-249.9257970976985
 30
0.0
 11
-245.9984601639618
 21
-249.321772478638
 31
0.0
  0
LINE
  5
42E
102
{ACAD_REACTORS
330
4E1
330
4E2
102
}
330
71
100
AcDbEntity
  8
0
  6
Continuous
 62
     2
100
AcDbLine
 10
-245.9984601639618
 20
-253.6782275213551
 30
0.0
 11
-245.9984601639618
 21
-252.1474565898235
 31
0.0
  0
LINE
  5
42F
102
{ACAD_REACTORS
330
4E1
330
4E2
102
}
330
71
100
AcDbEntity
  8
0
  6
Continuous
 62
     2
100
AcDbLine
 10
-242.9105929340777
 20
-254.7064999999887
 30
0.0
 11
-248.3839050247945
 21
-254.7064999999887
 31
0.0
  0
LINE
  5
430
102
{ACAD_REACTORS
330
4E1
330
4E2
102
}
330
71
100
AcDbEntity
  8
0
  6
Continuous
 62
     2
100
AcDbLine
 10
-242.4863483186938
 20
-248.7177446154052
 30
0.0
 11
-242.4863483186938
 21
-254.2822553846054
 31
0.0
  0
LINE
  5
431
102
{ACAD_REACTORS
330
4E1
330
4E2
102
}
330
71
100
AcDbEntity
  8
0
  6
Continuous
 62
     2
100
AcDbLine
 10
-248.3839050247945
 20
-248.2935000000214
 30
0.0
 11
-242.9105929340777
 21
-248.2935000000214
 31
0.0
  0
LINE
  5
432
102
{ACAD_REACTORS
330
4E1
330
4E2
102
}
330
71
100
AcDbEntity
  8
0
  6
Continuous
 62
     2
100
AcDbLine
 10
-248.8081496401773
 20
-248.7177446154052
 30
0.0
 11
-248.8081496401773
 21
-254.2822553846054
 31
0.0
  0
LINE
  5
433
102
{ACAD_REACTORS
330
4E1
330
4E2
102
}
330
71
100
AcDbEntity
  8
0
  6
Continuous
 62
     2
100
AcDbLine
 10
-246.3141770870384
 20
-253.9939444444318
 30
0.0
 11
-247.790010348048
 21
-253.9939444444318
 31
0.0
  0
LINE
  5
434
102
{ACAD_REACTORS
330
4DB
330
4DC
102
}
330
71
100
AcDbEntity
  8
0
  6
Continuous
 62
     2
100
AcDbLine
 10
-240.7687268275729
 20
-251.3473095238144
 30
0.0
 11
-240.7687268275729
 21
-250.4042312826706
 31
0.0
  0
LINE
  5
435
102
{ACAD_REACTORS
330
4DB
330
4DC
102
}
330
71
100
AcDbEntity
  8
0
  6
Continuous
 62
     2
100
AcDbLine
 10
-242.009231237827
 20
-251.3473095238144
 30
0.0
 11
-240.7687268275729
 21
-251.3473095238144
 31
0.0
  0
LINE
  5
436
102
{ACAD_REACTORS
330
4DB
330
4DC
102
}
330
71
100
AcDbEntity
  8
0
  6
Continuous
 62
     2
100
AcDbLine
 10
-240.7687268275729
 20
-249.6623334947855
 30
0.0
 11
-240.7687268275729
 21
-248.9566058454433
 31
0.0
  0
LINE
  5
437
102
{ACAD_REACTORS
330
4CD
330
4CE
102
}
330
71
100
AcDbEntity
  8
0
  6
Continuous
 62
     2
100
AcDbLine
 10
-238.8125467960193
 20
-248.2935000000032
 30
0.0
 11
-238.8125467960193
 21
-251.3473095238144
 31
0.0
  0
LINE
  5
438
102
{ACAD_REACTORS
330
4CD
330
4CE
102
}
330
71
100
AcDbEntity
  8
0
  6
Continuous
 62
     2
100
AcDbLine
 10
-237.6197540938527
 20
-250.2130374149706
 30
0.0
 11
-237.6197540938527
 21
-251.3473095238144
 31
0.0
  0
LINE
  5
439
102
{ACAD_REACTORS
330
4CD
330
4CE
102
}
330
71
100
AcDbEntity
  8
0
  6
Continuous
 62
     2
100
AcDbLine
 10
-236.5700965159452
 20
-250.2130374149706
 30
0.0
 11
-237.6197540938527
 21
-250.2130374149706
 31
0.0
  0
LINE
  5
43A
102
{ACAD_REACTORS
330
4CD
330
4CE
102
}
330
71
100
AcDbEntity
  8
0
  6
Continuous
 62
     2
100
AcDbLine
 10
-236.5700965159452
 20
-248.2935000000032
 30
0.0
 11
-235.3773038137788
 21
-248.2935000000032
 31
0.0
  0
LINE
  5
43B
102
{ACAD_REACTORS
330
4CD
330
4CE
102
}
330
71
100
AcDbEntity
  8
0
  6
Continuous
 62
     2
100
AcDbLine
 10
-236.5700965159452
 20
-249.3623333333378
 30
0.0
 11
-236.5700965159452
 21
-248.2935000000032
 31
0.0
  0
LINE
  5
43C
102
{ACAD_REACTORS
330
4DF
330
4E0
102
}
330
71
100
AcDbEntity
  8
0
  6
Continuous
 62
     2
100
AcDbLine
 10
-230.5584212970242
 20
-248.9915136054462
 30
0.0
 11
-230.5584212970242
 21
-248.2935000000032
 31
0.0
  0
LINE
  5
43D
102
{ACAD_REACTORS
330
4DF
330
4E0
102
}
330
71
100
AcDbEntity
  8
0
  6
Continuous
 62
     2
100
AcDbLine
 10
-233.7087410208052
 20
-248.2935000000032
 30
0.0
 11
-230.5584212970242
 21
-248.2935000000032
 31
0.0
  0
LINE
  5
43E
102
{ACAD_REACTORS
330
4DF
330
4E0
102
}
330
71
100
AcDbEntity
  8
0
  6
Continuous
 62
     2
100
AcDbLine
 10
-233.7087410208052
 20
-251.3473095238144
 30
0.0
 11
-230.5584212970242
 21
-251.3473095238144
 31
0.0
  0
LINE
  5
43F
102
{ACAD_REACTORS
330
4DF
330
4E0
102
}
330
71
100
AcDbEntity
  8
0
  6
Continuous
 62
     2
100
AcDbLine
 10
-230.5584212970242
 20
-251.3473095238144
 30
0.0
 11
-230.5584212970242
 21
-250.6492959183719
 31
0.0
  0
LINE
  5
440
102
{ACAD_REACTORS
330
4DF
330
4E0
102
}
330
71
100
AcDbEntity
  8
0
  6
Continuous
 62
     2
100
AcDbLine
 10
-230.5584212970242
 20
-250.6492959183719
 30
0.0
 11
-231.8943491234519
 21
-250.6492959183719
 31
0.0
  0
LINE
  5
441
102
{ACAD_REACTORS
330
4DF
330
4E0
102
}
330
71
100
AcDbEntity
  8
0
  6
Continuous
 62
     2
100
AcDbLine
 10
-231.8943491234519
 20
-250.6492959183719
 30
0.0
 11
-231.8943491234519
 21
-250.1694115646302
 31
0.0
  0
LINE
  5
442
102
{ACAD_REACTORS
330
4DF
330
4E0
102
}
330
71
100
AcDbEntity
  8
0
  6
Continuous
 62
     2
100
AcDbLine
 10
-231.8943491234519
 20
-248.9915136054462
 30
0.0
 11
-230.5584212970242
 21
-248.9915136054462
 31
0.0
  0
LINE
  5
443
102
{ACAD_REACTORS
330
4CF
330
4D0
102
}
330
71
100
AcDbEntity
  8
0
  6
Continuous
 62
     2
100
AcDbLine
 10
-234.3755088748434
 20
-254.7064999999887
 30
0.0
 11
-234.3755088748434
 21
-253.3977244897841
 31
0.0
  0
LINE
  5
444
102
{ACAD_REACTORS
330
4CF
330
4D0
102
}
330
71
100
AcDbEntity
  8
0
  6
Continuous
 62
     2
100
AcDbLine
 10
-234.3755088748434
 20
-253.3977244897841
 30
0.0
 11
-233.1350044645905
 21
-254.7064999999887
 31
0.0
  0
LINE
  5
445
102
{ACAD_REACTORS
330
4CF
330
4D0
102
}
330
71
100
AcDbEntity
  8
0
  6
Continuous
 62
     2
100
AcDbLine
 10
-231.9422117624241
 20
-254.7064999999887
 30
0.0
 11
-231.9422117624241
 21
-251.6526904761776
 31
0.0
  0
LINE
  5
446
102
{ACAD_REACTORS
330
4CF
330
4D0
102
}
330
71
100
AcDbEntity
  8
0
  6
Continuous
 62
     2
100
AcDbLine
 10
-231.9422117624241
 20
-251.6526904761776
 30
0.0
 11
-233.1350044645905
 21
-251.6526904761776
 31
0.0
  0
LINE
  5
447
102
{ACAD_REACTORS
330
4CF
330
4D0
102
}
330
71
100
AcDbEntity
  8
0
  6
Continuous
 62
     2
100
AcDbLine
 10
-233.1350044645905
 20
-251.6526904761776
 30
0.0
 11
-233.1350044645905
 21
-252.9614659863827
 31
0.0
  0
LINE
  5
448
102
{ACAD_REACTORS
330
4CF
330
4D0
102
}
330
71
100
AcDbEntity
  8
0
  6
Continuous
 62
     2
100
AcDbLine
 10
-233.1350044645905
 20
-252.9614659863827
 30
0.0
 11
-234.3755088748434
 21
-251.6526904761776
 31
0.0
  0
LINE
  5
449
102
{ACAD_REACTORS
330
4D1
330
4D2
102
}
330
71
100
AcDbEntity
  8
0
  6
Continuous
 62
     2
100
AcDbLine
 10
-229.1270700544248
 20
-250.0385340136097
 30
0.0
 11
-227.8865656441708
 21
-251.3473095238144
 31
0.0
  0
LINE
  5
44A
102
{ACAD_REACTORS
330
4D1
330
4D2
102
}
330
71
100
AcDbEntity
  8
0
  6
Continuous
 62
     2
100
AcDbLine
 10
-227.8865656441708
 20
-251.3473095238144
 30
0.0
 11
-226.6937729420042
 21
-251.3473095238144
 31
0.0
  0
LINE
  5
44B
102
{ACAD_REACTORS
330
4D1
330
4D2
102
}
330
71
100
AcDbEntity
  8
0
  6
Continuous
 62
     2
100
AcDbLine
 10
-226.6937729420042
 20
-251.3473095238144
 30
0.0
 11
-226.6937729420042
 21
-248.2935000000032
 31
0.0
  0
LINE
  5
44C
102
{ACAD_REACTORS
330
4D1
330
4D2
102
}
330
71
100
AcDbEntity
  8
0
  6
Continuous
 62
     2
100
AcDbLine
 10
-226.6937729420042
 20
-248.2935000000032
 30
0.0
 11
-227.8865656441708
 21
-248.2935000000032
 31
0.0
  0
LINE
  5
44D
102
{ACAD_REACTORS
330
4D1
330
4D2
102
}
330
71
100
AcDbEntity
  8
0
  6
Continuous
 62
     2
100
AcDbLine
 10
-227.8865656441708
 20
-249.6022755102084
 30
0.0
 11
-229.1270700544248
 21
-248.2935000000032
 31
0.0
  0
LINE
  5
44E
102
{ACAD_REACTORS
330
4D1
330
4D2
102
}
330
71
100
AcDbEntity
  8
0
  6
Continuous
 62
     2
100
AcDbLine
 10
-230.3198627565913
 20
-251.3473095238144
 30
0.0
 11
-229.1270700544248
 21
-251.3473095238144
 31
0.0
  0
LINE
  5
44F
102
{ACAD_REACTORS
330
4D3
330
4D4
102
}
330
71
100
AcDbEntity
  8
0
  6
Continuous
 62
     2
100
AcDbLine
 10
-231.7990766381639
 20
-251.6526904761776
 30
0.0
 11
-231.7990766381639
 21
-252.4379557823012
 31
0.0
  0
LINE
  5
450
102
{ACAD_REACTORS
330
4D3
330
4D4
102
}
330
71
100
AcDbEntity
  8
0
  6
Continuous
 62
     2
100
AcDbLine
 10
-230.9879776006893
 20
-252.4379557823012
 30
0.0
 11
-230.9879776006893
 21
-254.7064999999887
 31
0.0
  0
LINE
  5
451
102
{ACAD_REACTORS
330
4D3
330
4D4
102
}
330
71
100
AcDbEntity
  8
0
  6
Continuous
 62
     2
100
AcDbLine
 10
-230.9879776006893
 20
-254.7064999999887
 30
0.0
 11
-229.7951848985228
 21
-254.7064999999887
 31
0.0
  0
LINE
  5
452
102
{ACAD_REACTORS
330
4D5
330
4D6
102
}
330
71
100
AcDbEntity
  8
0
  6
Continuous
 62
     2
100
AcDbLine
 10
-226.8456584051033
 20
-254.7064999999887
 30
0.0
 11
-227.0571384585791
 21
-254.1655394557708
 31
0.0
  0
LINE
  5
453
102
{ACAD_REACTORS
330
4D5
330
4D6
102
}
330
71
100
AcDbEntity
  8
0
  6
Continuous
 62
     2
100
AcDbLine
 10
-227.0031070417897
 20
-251.6526904761776
 30
0.0
 11
-225.6051539948494
 21
-254.7064999999887
 31
0.0
  0
LINE
  5
454
102
{ACAD_REACTORS
330
4D5
330
4D6
102
}
330
71
100
AcDbEntity
  8
0
  6
Continuous
 62
     2
100
AcDbLine
 10
-228.2436114520424
 20
-251.6526904761776
 30
0.0
 11
-227.0031070417897
 21
-251.6526904761776
 31
0.0
  0
LINE
  5
455
102
{ACAD_REACTORS
330
4D5
330
4D6
102
}
330
71
100
AcDbEntity
  8
0
  6
Continuous
 62
     2
100
AcDbLine
 10
-229.6415644989817
 20
-254.7064999999887
 30
0.0
 11
-228.4010600887287
 21
-254.7064999999887
 31
0.0
  0
LINE
  5
456
102
{ACAD_REACTORS
330
4D5
330
4D6
102
}
330
71
100
AcDbEntity
  8
0
  6
Continuous
 62
     2
100
AcDbLine
 10
-227.9235244841079
 20
-253.4849761904642
 30
0.0
 11
-227.3231940097254
 21
-253.4849761904642
 31
0.0
  0
LINE
  5
457
102
{ACAD_REACTORS
330
4D5
330
4D6
102
}
330
71
100
AcDbEntity
  8
0
  6
Continuous
 62
     2
100
AcDbLine
 10
-227.3231940097254
 20
-253.4849761904642
 30
0.0
 11
-227.6233592469155
 21
-252.7171612244775
 31
0.0
  0
LINE
  5
458
102
{ACAD_REACTORS
330
4D7
330
4D8
102
}
330
71
100
AcDbEntity
  8
0
  6
Continuous
 62
     2
100
AcDbLine
 10
-225.2147099913174
 20
-251.3473095238144
 30
0.0
 11
-226.4552144015703
 21
-251.3473095238144
 31
0.0
  0
LINE
  5
459
102
{ACAD_REACTORS
330
4D9
330
4DA
102
}
330
71
100
AcDbEntity
  8
0
  6
Continuous
 62
     2
100
AcDbLine
 10
-223.6927065033523
 20
-251.3473095238144
 30
0.0
 11
-225.0954307211005
 21
-251.3473095238144
 31
0.0
  0
LINE
  5
45A
102
{ACAD_REACTORS
330
4D9
330
4DA
102
}
330
71
100
AcDbEntity
  8
0
  6
Continuous
 62
     2
100
AcDbLine
 10
-223.6927065033523
 20
-251.3473095238144
 30
0.0
 11
-222.9961155652866
 21
-250.5595777385207
 31
0.0
  0
LINE
  5
45B
102
{ACAD_REACTORS
330
4D9
330
4DA
102
}
330
71
100
AcDbEntity
  8
0
  6
Continuous
 62
     2
100
AcDbLine
 10
-222.3949480433938
 20
-248.2935000000032
 30
0.0
 11
-220.9922238256466
 21
-248.2935000000032
 31
0.0
  0
LINE
  5
45C
102
{ACAD_REACTORS
330
4D9
330
4DA
102
}
330
71
100
AcDbEntity
  8
0
  6
Continuous
 62
     2
100
AcDbLine
 10
-225.0000073049277
 20
-248.2935000000032
 30
0.0
 11
-223.6974776741602
 21
-249.7664505300394
 31
0.0
  0
LINE
  5
45D
102
{ACAD_REACTORS
330
4D9
330
4DA
102
}
330
71
100
AcDbEntity
  8
0
  6
Continuous
 62
     2
100
AcDbLine
 10
-225.0954307211005
 20
-251.3473095238144
 30
0.0
 11
-223.6974776741602
 21
-249.7664505300394
 31
0.0
  0
LINE
  5
45E
102
{ACAD_REACTORS
330
4E3
330
4E4
102
}
330
71
100
AcDbEntity
  8
0
  6
Continuous
 62
     2
100
AcDbLine
 10
-223.2346741057206
 20
-253.6594795918251
 30
0.0
 11
-223.2346741057206
 21
-254.5319965986284
 31
0.0
  0
LINE
  5
45F
102
{ACAD_REACTORS
330
4E3
330
4E4
102
}
330
71
100
AcDbEntity
  8
0
  6
Continuous
 62
     2
100
AcDbLine
 10
-224.004331448682
 20
-252.4379557823012
 30
0.0
 11
-222.9006921491139
 21
-252.4379557823012
 31
0.0
  0
LINE
  5
460
102
{ACAD_REACTORS
330
4E5
330
4E6
102
}
330
71
100
AcDbEntity
  8
0
  6
Continuous
 62
     2
100
AcDbLine
 10
-239.3373755849725
 20
-253.6594795918246
 30
0.0
 11
-239.3373755849725
 21
-254.5319965986278
 31
0.0
  0
LINE
  5
461
102
{ACAD_REACTORS
330
4E5
330
4E6
102
}
330
71
100
AcDbEntity
  8
0
  6
Continuous
 62
     2
100
AcDbLine
 10
-239.3373755849725
 20
-252.6997108843417
 30
0.0
 11
-239.3373755849725
 21
-251.8271938775384
 31
0.0
  0
LINE
  5
462
330
71
100
AcDbEntity
  8
1
  6
Continuous
 62
     7
100
AcDbLine
 10
-123.4999999999886
 20
-253.500000000005
 30
0.0
 11
-216.64480452674
 21
-253.500000000005
 31
0.0
  0
LINE
  5
463
330
71
100
AcDbEntity
  8
1
  6
Continuous
 62
     6
100
AcDbLine
 10
-322.0448045267399
 20
-262.000000000005
 30
0.0
 11
-366.9999999999899
 21
-262.000000000005
 31
0.0
  0
LINE
  5
464
330
71
100
AcDbEntity
  8
1
  6
Continuous
 62
     7
100
AcDbLine
 10
-132.4184082816674
 20
-236.500000000005
 30
0.0
 11
-132.4184082816674
 21
-245.000000000005
 31
0.0
  0
LINE
  5
465
330
71
100
AcDbEntity
  8
1
  6
Continuous
 62
     7
100
AcDbLine
 10
-158.918408281667
 20
-236.500000000005
 30
0.0
 11
-158.918408281667
 21
-245.000000000005
 31
0.0
  0
LINE
  5
466
330
71
100
AcDbEntity
  8
1
  6
Continuous
 62
     7
100
AcDbLine
 10
-216.64480452674
 20
-245.000000000005
 30
0.0
 11
-216.64480452674
 21
-236.500000000005
 31
0.0
  0
LINE
  5
467
330
71
100
AcDbEntity
  8
1
  6
Continuous
 62
     7
100
AcDbLine
 10
-253.0448045267399
 20
-245.000000000005
 30
0.0
 11
-253.0448045267399
 21
-236.500000000005
 31
0.0
  0
LINE
  5
468
330
71
100
AcDbEntity
  8
1
  6
Continuous
 62
     6
100
AcDbLine
 10
-216.64480452674
 20
-245.000000000005
 30
0.0
 11
-123.4999999999882
 21
-245.000000000005
 31
0.0
  0
LINE
  5
469
330
71
100
AcDbEntity
  8
1
  6
Continuous
 62
     7
100
AcDbLine
 10
-188.7448045267399
 20
-253.5000000000051
 30
0.0
 11
-188.7448045267399
 21
-245.000000000005
 31
0.0
  0
LINE
  5
46A
330
71
100
AcDbEntity
  8
1
  6
PHANTOM
 62
     2
100
AcDbLine
 10
-237.5581496401773
 20
-240.8750000000051
 30
0.0
 11
-243.0581496401773
 21
-240.8750000000051
 31
0.0
  0
LINE
  5
46B
330
71
100
AcDbEntity
  8
1
  6
PHANTOM
 62
     2
100
AcDbLine
 10
-240.3081496401773
 20
-238.1250000000051
 30
0.0
 11
-240.3081496401773
 21
-243.6250000000051
 31
0.0
  0
LINE
  5
46C
330
71
100
AcDbEntity
  8
1
  6
DOT_CENTER
 62
     2
100
AcDbLine
 10
-249.0581496401773
 20
-240.8750000000051
 30
0.0
 11
-243.5581496401773
 21
-240.8750000000051
 31
0.0
  0
ARC
  5
46D
102
{ACAD_REACTORS
330
4E5
330
4E6
102
}
330
71
100
AcDbEntity
  8
0
  6
Continuous
 62
     2
100
AcDbCircle
 10
-240.6733035020903
 20
-256.4922761833393
 30
0.0
 40
4.852596863498068
100
AcDbArc
 50
74.02000874164739
 51
84.84185523037506
  0
ARC
  5
46E
102
{ACAD_REACTORS
330
4E5
330
4E6
102
}
330
71
100
AcDbEntity
  8
0
  6
Continuous
 62
     2
100
AcDbCircle
 10
-240.0972628933366
 20
-253.336515827455
 30
0.0
 40
0.9059297849853228
100
AcDbArc
 50
71.55192388185348
 51
113.372277888129
  0
ARC
  5
46F
102
{ACAD_REACTORS
330
4E5
330
4E6
102
}
330
71
100
AcDbEntity
  8
0
  6
Continuous
 62
     2
100
AcDbCircle
 10
-240.2537029260386
 20
-253.3846666674219
 30
0.0
 40
0.5115800601948034
100
AcDbArc
 50
208.5214732576956
 51
246.6277221118274
  0
ARC
  5
470
102
{ACAD_REACTORS
330
4E5
330
4E6
102
}
330
71
100
AcDbEntity
  8
0
  6
Continuous
 62
     2
100
AcDbCircle
 10
-240.0972628933366
 20
-253.0226746487119
 30
0.0
 40
0.9059297849849192
100
AcDbArc
 50
246.627722111871
 51
288.4480761181584
  0
ARC
  5
471
102
{ACAD_REACTORS
330
4E5
330
4E6
102
}
330
71
100
AcDbEntity
  8
0
  6
Continuous
 62
     2
100
AcDbCircle
 10
-240.5154306269974
 20
-251.7691288726747
 30
0.0
 40
2.227384008972737
100
AcDbArc
 50
288.4480761181328
 51
301.9309089499593
  0
ARC
  5
472
102
{ACAD_REACTORS
330
4E1
330
4E2
102
}
330
71
100
AcDbEntity
  8
0
  6
Continuous
 62
     2
100
AcDbCircle
 10
-245.7405043596042
 20
-251.0366268437607
 30
0.0
 40
0.911848150144459
100
AcDbArc
 50
295.3740086781764
 51
64.62599132180748
  0
ARC
  5
473
102
{ACAD_REACTORS
330
4E1
330
4E2
102
}
330
71
100
AcDbEntity
  8
0
  6
Continuous
 62
     2
100
AcDbCircle
 10
-245.2144616615163
 20
-249.3219499552861
 30
0.0
 40
0.3157169230760711
100
AcDbArc
 50
90.18896704254594
 51
180.0
  0
ARC
  5
474
102
{ACAD_REACTORS
330
4E3
330
4E4
102
}
330
71
100
AcDbEntity
  8
0
  6
Continuous
 62
     2
100
AcDbCircle
 10
-224.004331448682
 20
-253.3924787891273
 30
0.0
 40
0.9545230068260935
100
AcDbArc
 50
90.0
 51
109.337143219432
  0
ARC
  5
475
102
{ACAD_REACTORS
330
4E3
330
4E4
102
}
330
71
100
AcDbEntity
  8
0
  6
Continuous
 62
     2
100
AcDbCircle
 10
-223.7736441887043
 20
-253.1795952380834
 30
0.0
 40
0.9410597353348924
100
AcDbArc
 50
151.4785267423624
 51
208.5214732576695
  0
ARC
  5
476
102
{ACAD_REACTORS
330
4E3
330
4E4
102
}
330
71
100
AcDbEntity
  8
0
  6
Continuous
 62
     2
100
AcDbCircle
 10
-223.9945614140826
 20
-253.0226746487119
 30
0.0
 40
0.9059297849852801
100
AcDbArc
 50
246.6277221118183
 51
288.4480761180817
  0
ARC
  5
477
102
{ACAD_REACTORS
330
4E3
330
4E4
102
}
330
71
100
AcDbEntity
  8
0
  6
Continuous
 62
     2
100
AcDbCircle
 10
-224.4127291477445
 20
-251.7691288726753
 30
0.0
 40
2.227384008972746
100
AcDbArc
 50
288.4480761181335
 51
301.9309089499397
  0
ARC
  5
478
102
{ACAD_REACTORS
330
4E3
330
4E4
102
}
330
71
100
AcDbEntity
  8
0
  6
Continuous
 62
     2
100
AcDbCircle
 10
-224.5706020228373
 20
-249.866914292827
 30
0.0
 40
4.852596863498825
100
AcDbArc
 50
275.1581447696364
 51
285.9799912583387
  0
ARC
  5
479
102
{ACAD_REACTORS
330
4E3
330
4E4
102
}
330
71
100
AcDbEntity
  8
0
  6
Continuous
 62
     2
100
AcDbCircle
 10
-224.2817459281015
 20
-253.0668048760486
 30
0.0
 40
1.639695123940448
100
AcDbArc
 50
195.0618917771012
 51
275.1581447696762
  0
ARC
  5
47A
102
{ACAD_REACTORS
330
4DB
330
4DC
102
}
330
71
100
AcDbEntity
  8
0
  6
Continuous
 62
     2
100
AcDbCircle
 10
-240.0099592397926
 20
-249.3488656413369
 30
0.0
 40
1.055365641333708
100
AcDbArc
 50
270.0
 51
90.0
  0
ARC
  5
47B
102
{ACAD_REACTORS
330
4E1
330
4E2
102
}
330
71
100
AcDbEntity
  8
0
  6
Continuous
 62
     2
100
AcDbCircle
 10
-247.790010348048
 20
-253.6782275213551
 30
0.0
 40
0.3157169230756836
100
AcDbArc
 50
180.0
 51
270.0
  0
ARC
  5
47C
102
{ACAD_REACTORS
330
4E1
330
4E2
102
}
330
71
100
AcDbEntity
  8
0
  6
Continuous
 62
     2
100
AcDbCircle
 10
-246.3141770870384
 20
-249.321772478638
 30
0.0
 40
0.315716923076593
100
AcDbArc
 50
0.0
 51
90.0
  0
ARC
  5
47D
102
{ACAD_REACTORS
330
4E1
330
4E2
102
}
330
71
100
AcDbEntity
  8
0
  6
Continuous
 62
     2
100
AcDbCircle
 10
-246.3141770870384
 20
-249.9257970976985
 30
0.0
 40
0.3157169230761203
100
AcDbArc
 50
295.1944106485397
 51
0.0
  0
ARC
  5
47E
102
{ACAD_REACTORS
330
4E1
330
4E2
102
}
330
71
100
AcDbEntity
  8
0
  6
Continuous
 62
     2
100
AcDbCircle
 10
-246.3141770870384
 20
-253.6782275213551
 30
0.0
 40
0.3157169230767067
100
AcDbArc
 50
270.0
 51
0.0
  0
ARC
  5
47F
102
{ACAD_REACTORS
330
4E1
330
4E2
102
}
330
71
100
AcDbEntity
  8
0
  6
Continuous
 62
     2
100
AcDbCircle
 10
-248.3839050247945
 20
-248.7177446154052
 30
0.0
 40
0.4242446153837989
100
AcDbArc
 50
90.0
 51
180.0
  0
ARC
  5
480
102
{ACAD_REACTORS
330
4E1
330
4E2
102
}
330
71
100
AcDbEntity
  8
0
  6
Continuous
 62
     2
100
AcDbCircle
 10
-242.9105929340777
 20
-248.7177446154052
 30
0.0
 40
0.4242446153838841
100
AcDbArc
 50
0.0
 51
90.0
  0
ARC
  5
481
102
{ACAD_REACTORS
330
4E1
330
4E2
102
}
330
71
100
AcDbEntity
  8
0
  6
Continuous
 62
     2
100
AcDbCircle
 10
-242.9105929340777
 20
-254.2822553846054
 30
0.0
 40
0.4242446153832873
100
AcDbArc
 50
270.0
 51
0.0
  0
ARC
  5
482
102
{ACAD_REACTORS
330
4DF
330
4E0
102
}
330
71
100
AcDbEntity
  8
0
  6
Continuous
 62
     2
100
AcDbCircle
 10
-233.6922090469862
 20
-249.8204047619091
 30
0.0
 40
0.7717997786796373
100
AcDbArc
 50
321.8795802028437
 51
38.12041979715956
  0
ARC
  5
483
102
{ACAD_REACTORS
330
4DF
330
4E0
102
}
330
71
100
AcDbEntity
  8
0
  6
Continuous
 62
     2
100
AcDbCircle
 10
-233.49246901064
 20
-249.9771359400295
 30
0.0
 40
0.5179085730134372
100
AcDbArc
 50
218.1204197971511
 51
321.8795802028566
  0
ARC
  5
484
102
{ACAD_REACTORS
330
4DD
330
4DE
102
}
330
71
100
AcDbEntity
  8
0
  6
Continuous
 62
     2
100
AcDbCircle
 10
-237.1724765996002
 20
-253.1795952380834
 30
0.0
 40
1.458034083652003
100
AcDbArc
 50
297.548148175701
 51
62.45185182429896
  0
ARC
  5
485
102
{ACAD_REACTORS
330
4DD
330
4DE
102
}
330
71
100
AcDbEntity
  8
0
  6
Continuous
 62
     2
100
AcDbCircle
 10
-237.7343563832668
 20
-253.1795952380834
 30
0.0
 40
1.45803408365149
100
AcDbArc
 50
117.5481481756624
 51
242.4518518243375
  0
ARC
  5
486
102
{ACAD_REACTORS
330
4DD
330
4DE
102
}
330
71
100
AcDbEntity
  8
0
  6
Continuous
 62
     2
100
AcDbCircle
 10
-237.4534164914335
 20
-253.7181702483862
 30
0.0
 40
2.065479772208568
100
AcDbArc
 50
62.45185182430637
 51
117.5481481756664
  0
ARC
  5
487
102
{ACAD_REACTORS
330
4DD
330
4DE
102
}
330
71
100
AcDbEntity
  8
0
  6
Continuous
 62
     2
100
AcDbCircle
 10
-237.4534164914335
 20
-252.6410202277801
 30
0.0
 40
2.065479772208509
100
AcDbArc
 50
242.4518518243402
 51
297.5481481756871
  0
ARC
  5
488
102
{ACAD_REACTORS
330
4DF
330
4E0
102
}
330
71
100
AcDbEntity
  8
0
  6
Continuous
 62
     2
100
AcDbCircle
 10
-233.2927289742937
 20
-249.8204047619091
 30
0.0
 40
0.7717997786796724
100
AcDbArc
 50
141.8795802028404
 51
218.1204197971562
  0
ARC
  5
489
102
{ACAD_REACTORS
330
4DF
330
4E0
102
}
330
71
100
AcDbEntity
  8
0
  6
Continuous
 62
     2
100
AcDbCircle
 10
-233.49246901064
 20
-249.6636735837886
 30
0.0
 40
0.5179085730135266
100
AcDbArc
 50
38.12041979714334
 51
141.8795802028489
  0
ARC
  5
48A
102
{ACAD_REACTORS
330
4E1
330
4E2
102
}
330
71
100
AcDbEntity
  8
0
  6
Continuous
 62
     2
100
AcDbCircle
 10
-248.3839050247945
 20
-254.2822553846054
 30
0.0
 40
0.4242446153828041
100
AcDbArc
 50
180.0
 51
270.0
  0
ARC
  5
48B
102
{ACAD_REACTORS
330
4E1
330
4E2
102
}
330
71
100
AcDbEntity
  8
0
  6
Continuous
 62
     2
100
AcDbCircle
 10
-246.3141770870384
 20
-252.1474565898235
 30
0.0
 40
0.315716923076593
100
AcDbArc
 50
0.0
 51
64.80558935146027
  0
ARC
  5
48C
102
{ACAD_REACTORS
330
4E1
330
4E2
102
}
330
71
100
AcDbEntity
  8
0
  6
Continuous
 62
     2
100
AcDbCircle
 10
-245.7915926394634
 20
-251.0366268437607
 30
0.0
 40
0.9118975235576147
100
AcDbArc
 50
115.1944106485282
 51
244.8055893514878
  0
ARC
  5
48D
102
{ACAD_REACTORS
330
4E1
330
4E2
102
}
330
71
100
AcDbEntity
  8
0
  6
Continuous
 62
     2
100
AcDbCircle
 10
-247.790010348048
 20
-249.321772478638
 30
0.0
 40
0.3157169230761951
100
AcDbArc
 50
90.0
 51
180.0
  0
ARC
  5
48E
102
{ACAD_REACTORS
330
4DB
330
4DC
102
}
330
71
100
AcDbEntity
  8
0
  6
Continuous
 62
     2
100
AcDbCircle
 10
-240.451431766031
 20
-249.3094696701144
 30
0.0
 40
0.3528638246711182
100
AcDbArc
 50
270.0
 51
90.0
  0
ARC
  5
48F
102
{ACAD_REACTORS
330
4DF
330
4E0
102
}
330
71
100
AcDbEntity
  8
0
  6
Continuous
 62
     2
100
AcDbCircle
 10
-233.7087410208052
 20
-249.8204047619091
 30
0.0
 40
1.526904761905882
100
AcDbArc
 50
90.0
 51
270.0
  0
ARC
  5
490
102
{ACAD_REACTORS
330
4E3
330
4E4
102
}
330
71
100
AcDbEntity
  8
0
  6
Continuous
 62
     2
100
AcDbCircle
 10
-224.2817459281015
 20
-253.2923856001183
 30
0.0
 40
1.639695123940214
100
AcDbArc
 50
90.0
 51
164.938108222895
  0
ARC
  5
491
102
{ACAD_REACTORS
330
4E3
330
4E4
102
}
330
71
100
AcDbEntity
  8
0
  6
Continuous
 62
     2
100
AcDbCircle
 10
-224.7008737715631
 20
-253.1795952380834
 30
0.0
 40
1.205656168393002
100
AcDbArc
 50
164.9381082229028
 51
195.0618917770959
  0
ARC
  5
492
102
{ACAD_REACTORS
330
4E3
330
4E4
102
}
330
71
100
AcDbEntity
  8
0
  6
Continuous
 62
     2
100
AcDbCircle
 10
-224.1510014467857
 20
-253.3846666674219
 30
0.0
 40
0.5115800601960215
100
AcDbArc
 50
208.5214732576866
 51
246.6277221118449
  0
ARC
  5
493
102
{ACAD_REACTORS
330
4E3
330
4E4
102
}
330
71
100
AcDbEntity
  8
0
  6
Continuous
 62
     2
100
AcDbCircle
 10
-224.1510014467857
 20
-252.9745238087444
 30
0.0
 40
0.5115800601944143
100
AcDbArc
 50
109.3371432194853
 51
151.4785267424225
  0
ARC
  5
494
102
{ACAD_REACTORS
330
4E1
330
4E2
102
}
330
71
100
AcDbEntity
  8
0
  6
Continuous
 62
     2
100
AcDbCircle
 10
-245.2144616615163
 20
-252.7276198504242
 30
0.0
 40
0.315716923076792
100
AcDbArc
 50
180.0
 51
269.8110329574542
  0
ARC
  5
495
102
{ACAD_REACTORS
330
4E1
330
4E2
102
}
330
71
100
AcDbEntity
  8
0
  6
Continuous
 62
     2
100
AcDbCircle
 10
-245.2088455262063
 20
-251.0247849028552
 30
0.0
 40
2.018561131933266
100
AcDbArc
 50
269.8110329575858
 51
90.18896704241416
  0
ARC
  5
496
102
{ACAD_REACTORS
330
4E1
330
4E2
102
}
330
71
100
AcDbEntity
  8
0
  6
Continuous
 62
     2
100
AcDbCircle
 10
-245.2144616615163
 20
-249.9274852437929
 30
0.0
 40
0.315716923076792
100
AcDbArc
 50
180.0
 51
244.6259913216482
  0
ARC
  5
497
102
{ACAD_REACTORS
330
4E1
330
4E2
102
}
330
71
100
AcDbEntity
  8
0
  6
Continuous
 62
     2
100
AcDbCircle
 10
-245.2144616615163
 20
-252.1457684437291
 30
0.0
 40
0.3157169230765328
100
AcDbArc
 50
115.3740086783519
 51
180.0
  0
ARC
  5
498
102
{ACAD_REACTORS
330
4E5
330
4E6
102
}
330
71
100
AcDbEntity
  8
0
  6
Continuous
 62
     2
100
AcDbCircle
 10
-240.3844474073544
 20
-253.2923856001183
 30
0.0
 40
1.639695123940507
100
AcDbArc
 50
84.84185523036236
 51
164.9381082228864
  0
ARC
  5
499
102
{ACAD_REACTORS
330
4E5
330
4E6
102
}
330
71
100
AcDbEntity
  8
0
  6
Continuous
 62
     2
100
AcDbCircle
 10
-240.8035752508172
 20
-253.1795952380834
 30
0.0
 40
1.205656168390944
100
AcDbArc
 50
164.9381082228765
 51
195.0618917770948
  0
ARC
  5
49A
102
{ACAD_REACTORS
330
4E5
330
4E6
102
}
330
71
100
AcDbEntity
  8
0
  6
Continuous
 62
     2
100
AcDbCircle
 10
-240.3844474073544
 20
-253.0668048760486
 30
0.0
 40
1.639695123939387
100
AcDbArc
 50
195.0618917770896
 51
275.1581447696395
  0
ARC
  5
49B
102
{ACAD_REACTORS
330
4E5
330
4E6
102
}
330
71
100
AcDbEntity
  8
0
  6
Continuous
 62
     2
100
AcDbCircle
 10
-240.6733035020903
 20
-249.866914292827
 30
0.0
 40
4.852596863498138
100
AcDbArc
 50
275.1581447696249
 51
285.9799912583529
  0
ARC
  5
49C
102
{ACAD_REACTORS
330
4E5
330
4E6
102
}
330
71
100
AcDbEntity
  8
0
  6
Continuous
 62
     2
100
AcDbCircle
 10
-239.8763456679583
 20
-253.1795952380834
 30
0.0
 40
0.9410597353332545
100
AcDbArc
 50
151.4785267422669
 51
208.5214732577057
  0
ARC
  5
49D
102
{ACAD_REACTORS
330
4E5
330
4E6
102
}
330
71
100
AcDbEntity
  8
0
  6
Continuous
 62
     2
100
AcDbCircle
 10
-240.2537029260386
 20
-252.9745238087444
 30
0.0
 40
0.5115800601948779
100
AcDbArc
 50
113.3722778881992
 51
151.4785267423044
  0
ARC
  5
49E
102
{ACAD_REACTORS
330
4E5
330
4E6
102
}
330
71
100
AcDbEntity
  8
0
  6
Continuous
 62
     2
100
AcDbCircle
 10
-240.5154306269974
 20
-254.5900616034916
 30
0.0
 40
2.227384008973478
100
AcDbArc
 50
58.06909105004071
 51
71.55192388186722
  0
ARC
  5
49F
102
{ACAD_REACTORS
330
4DD
330
4DE
102
}
330
71
100
AcDbEntity
  8
0
  6
Continuous
 62
     2
100
AcDbCircle
 10
-237.4534164914335
 20
-253.0228640599629
 30
0.0
 40
0.5179085730132998
100
AcDbArc
 50
38.12041979714704
 51
141.8795802028588
  0
ARC
  5
4A0
102
{ACAD_REACTORS
330
4DD
330
4DE
102
}
330
71
100
AcDbEntity
  8
0
  6
Continuous
 62
     2
100
AcDbCircle
 10
-237.2536764550874
 20
-253.1795952380834
 30
0.0
 40
0.7717997786794633
100
AcDbArc
 50
141.8795802028363
 51
218.1204197971687
  0
ARC
  5
4A1
102
{ACAD_REACTORS
330
4DD
330
4DE
102
}
330
71
100
AcDbEntity
  8
0
  6
Continuous
 62
     2
100
AcDbCircle
 10
-237.4534164914335
 20
-253.3363264162034
 30
0.0
 40
0.5179085730137354
100
AcDbArc
 50
218.1204197971931
 51
321.879580202801
  0
ARC
  5
4A2
102
{ACAD_REACTORS
330
4DD
330
4DE
102
}
330
71
100
AcDbEntity
  8
0
  6
Continuous
 62
     2
100
AcDbCircle
 10
-237.6531565277799
 20
-253.1795952380834
 30
0.0
 40
0.7717997786796947
100
AcDbArc
 50
321.8795802028417
 51
38.12041979715329
  0
CIRCLE
  5
4A3
330
71
100
AcDbEntity
  8
1
  6
Continuous
 62
     2
100
AcDbCircle
 10
-240.3081496401773
 20
-240.8750000000051
 30
0.0
 40
2.5
  0
CIRCLE
  5
4A4
330
71
100
AcDbEntity
  8
1
  6
Continuous
 62
     2
100
AcDbCircle
 10
-240.3081496401773
 20
-240.8750000000051
 30
0.0
 40
1.249999999999915
  0
CIRCLE
  5
4A5
102
{ACAD_REACTORS
330
4E1
330
4E2
102
}
330
71
100
AcDbEntity
  8
0
  6
Continuous
 62
     2
100
AcDbCircle
 10
-245.764319374277
 20
-251.0366268437607
 30
0.0
 40
0.4709789327785074
  0
MTEXT
  5
4A6
330
71
100
AcDbEntity
  8
1
 62
     3
100
AcDbMText
 10
-410.4949322139181
 20
-75.20869184470621
 30
0.0
 40
1.8
 41
0.0
 71
     7
 72
     1
  3
Weitergabe sowie Vervielf\U+00e4ltigung dieses Dokuments, Verwertung und \PMitteilung seines Inhalts sind verboten, soweit nicht ausdr\U+00fccklich gestattet. \PZuwiderhandlungen verpflichten zu Schadenersatz. Alle Rechte f\U+00fcr den Fall\Pder Pat
  1
ent-, Gebrauchsmuster- oder Designeintragung vorbehalten.
  7
CONVERTER_11
 73
     1
 44
0.99639855942377
  0
MTEXT
  5
4A7
330
71
100
AcDbEntity
  8
1
 62
     3
100
AcDbMText
 10
-227.64182237513
 20
-75.20869184470621
 30
0.0
 40
1.8
 41
0.0
 71
     7
 72
     1
  3
Transfer or duplication of this document as well as the utilisation or\Pcommunication of its content are not permitted unless express consent\Pis granted. Violations give rise to claims for damages. All rights reserved\Pin case of patent, utility mo
  1
del or design patent registrations.
  7
CONVERTER_11
 73
     1
 44
0.99639855942377
  0
TEXT
  5
4A8
330
71
100
AcDbEntity
  8
1
 62
     2
100
AcDbText
 10
-233.8448045267401
 20
-260.7590172149966
 30
0.0
 40
1.8
  1
of
 41
0.9
  7
CONVERTER_11
100
AcDbText
  0
TEXT
  5
4A9
330
71
100
AcDbEntity
  8
1
 62
     2
100
AcDbText
 10
-252.0448045267399
 20
-260.7590172149967
 30
0.0
 40
1.8
  1
page
 41
0.9
  7
CONVERTER_11
100
AcDbText
  0
TEXT
  5
4AA
330
71
100
AcDbEntity
  8
1
 62
     2
100
AcDbText
 10
-243.3985395563979
 20
-260.799248653807
 30
0.0
 40
1.8
  1
1
 41
0.9
  7
CONVERTER_11
100
AcDbText
  0
TEXT
  5
4AB
330
71
100
AcDbEntity
  8
1
 62
     2
100
AcDbText
 10
-228.6094957169264
 20
-260.7500000000051
 30
0.0
 40
1.8
  1
1
 41
0.9
  7
CONVERTER_11
100
AcDbText
  0
MTEXT
  5
4AD
330
71
100
AcDbEntity
  8
1
 62
     7
100
AcDbMText
 10
-170.0724022633644
 20
-258.7500000000048
 30
0.0
 40
3.0
 41
0.0
 71
     5
 72
     1
  1
USLKG 10-1
  7
CONVERTER_12
 73
     1
 44
1.20048019207683
  0
MTEXT
  5
4AE
330
71
100
AcDbEntity
  8
1
 62
     2
100
AcDbMText
 10
-215.64480452674
 20
-254.500000000005
 30
0.0
 40
1.8
 41
0.0
 71
     1
 72
     1
  1
description
  7
CONVERTER_11
 73
     1
 44
1.20048019207683
  0
MTEXT
  5
4AF
330
71
100
AcDbEntity
  8
1
 62
     3
100
AcDbMText
 10
-226.84480452674
 20
-240.875000000005
 30
0.0
 40
2.5
 41
0.0
 71
     5
 72
     1
  1
DIN A4
  7
CONVERTER_11
 73
     1
 44
1.20048019207683
  0
MTEXT
  5
4B0
330
71
100
AcDbEntity
  8
1
 62
     7
100
AcDbMText
 10
-412.999999999989
 20
-239.500000000005
 30
0.0
 40
3.5
 41
0.0
 71
     5
 72
     1
  1
D
  7
CONVERTER_11
 73
     1
 44
1.20048019207683
  0
MTEXT
  5
4B1
330
71
100
AcDbEntity
  8
1
 62
     7
100
AcDbMText
 10
-412.999999999989
 20
-187.000000000005
 30
0.0
 40
3.5
 41
0.0
 71
     5
 72
     1
  1
C
  7
CONVERTER_11
 73
     1
 44
1.20048019207683
  0
MTEXT
  5
4B2
330
71
100
AcDbEntity
  8
1
 62
     7
100
AcDbMText
 10
-412.999999999989
 20
-137.000000000005
 30
0.0
 40
3.5
 41
0.0
 71
     5
 72
     1
  1
B
  7
CONVERTER_11
 73
     1
 44
1.20048019207683
  0
MTEXT
  5
4B3
330
71
100
AcDbEntity
  8
1
 62
     7
100
AcDbMText
 10
-412.999999999989
 20
-84.500000000005
 30
0.0
 40
3.5
 41
0.0
 71
     5
 72
     1
  1
A
  7
CONVERTER_11
 73
     1
 44
1.20048019207683
  0
MTEXT
  5
4B4
330
71
100
AcDbEntity
  8
1
 62
     7
100
AcDbMText
 10
-142.7499999999907
 20
-264.5000000000051
 30
0.0
 40
3.5
 41
0.0
 71
     5
 72
     1
  1
6
  7
CONVERTER_11
 73
     1
 44
1.20048019207683
  0
MTEXT
  5
4B5
330
71
100
AcDbEntity
  8
1
 62
     7
100
AcDbMText
 10
-191.9999999999899
 20
-264.5000000000051
 30
0.0
 40
3.5
 41
0.0
 71
     5
 72
     1
  1
5
  7
CONVERTER_11
 73
     1
 44
1.20048019207683
  0
MTEXT
  5
4B6
330
71
100
AcDbEntity
  8
1
 62
     7
100
AcDbMText
 10
-241.99999999999
 20
-264.5000000000051
 30
0.0
 40
3.5
 41
0.0
 71
     5
 72
     1
  1
4
  7
CONVERTER_11
 73
     1
 44
1.20048019207683
  0
MTEXT
  5
4B7
330
71
100
AcDbEntity
  8
1
 62
     7
100
AcDbMText
 10
-291.9999999999899
 20
-264.5000000000051
 30
0.0
 40
3.5
 41
0.0
 71
     5
 72
     1
  1
3
  7
CONVERTER_11
 73
     1
 44
1.20048019207683
  0
MTEXT
  5
4B8
330
71
100
AcDbEntity
  8
1
 62
     7
100
AcDbMText
 10
-341.9999999999899
 20
-264.5000000000051
 30
0.0
 40
3.5
 41
0.0
 71
     5
 72
     1
  1
2
  7
CONVERTER_11
 73
     1
 44
1.20048019207683
  0
MTEXT
  5
4B9
330
71
100
AcDbEntity
  8
1
 62
     7
100
AcDbMText
 10
-391.2499999999895
 20
-264.5000000000051
 30
0.0
 40
3.5
 41
0.0
 71
     5
 72
     1
  1
1
  7
CONVERTER_11
 73
     1
 44
1.20048019207683
  0
MTEXT
  5
4BA
330
71
100
AcDbEntity
  8
1
 62
     7
100
AcDbMText
 10
-120.9999999999909
 20
-239.500000000005
 30
0.0
 40
3.5
 41
0.0
 71
     5
 72
     1
  1
D
  7
CONVERTER_11
 73
     1
 44
1.20048019207683
  0
MTEXT
  5
4BB
330
71
100
AcDbEntity
  8
1
 62
     7
100
AcDbMText
 10
-120.9999999999909
 20
-137.0000000000031
 30
0.0
 40
3.5
 41
0.0
 71
     5
 72
     1
  1
B
  7
CONVERTER_11
 73
     1
 44
1.20048019207683
  0
MTEXT
  5
4BC
330
71
100
AcDbEntity
  8
1
 62
     7
100
AcDbMText
 10
-120.9999999999909
 20
-84.500000000005
 30
0.0
 40
3.5
 41
0.0
 71
     5
 72
     1
  1
A
  7
CONVERTER_11
 73
     1
 44
1.20048019207683
  0
MTEXT
  5
4BD
330
71
100
AcDbEntity
  8
1
 62
     7
100
AcDbMText
 10
-120.9999999999909
 20
-187.0000000000031
 30
0.0
 40
3.5
 41
0.0
 71
     5
 72
     1
  1
C
  7
CONVERTER_11
 73
     1
 44
1.20048019207683
  0
MTEXT
  5
4BE
330
71
100
AcDbEntity
  8
1
 62
     2
100
AcDbMText
 10
-287.4828192517874
 20
-249.2500000000051
 30
0.0
 40
2.0
 41
0.0
 71
     5
 72
     1
  1
General Information\P- Simplified representation\P- Document excluded from change process\P- Linear dimensions [mm]
  7
CONVERTER_11
 73
     1
 44
1.20048019207683
  0
TEXT
  5
4BF
330
71
100
AcDbEntity
  8
1
 62
     7
100
AcDbText
 10
-215.1448045267402
 20
-252.2000000000051
 30
0.0
 40
2.5
  1
0442024
 41
0.81
  7
CONVERTER_12
100
AcDbText
  0
MTEXT
  5
4C0
330
71
100
AcDbEntity
  8
1
 62
     2
100
AcDbMText
 10
-215.5448045267399
 20
-246.000000000005
 30
0.0
 40
1.8
 41
0.0
 71
     1
 72
     1
  1
ident.-No.
  7
CONVERTER_11
 73
     1
 44
1.20048019207683
  0
MTEXT
  5
4C1
330
71
100
AcDbEntity
  8
1
 62
     2
100
AcDbMText
 10
-131.3184082816672
 20
-237.500000000005
 30
0.0
 40
1.8
 41
0.0
 71
     1
 72
     1
  1
scale
  7
CONVERTER_11
 73
     1
 44
1.20048019207683
  0
MTEXT
  5
4C3
330
71
100
AcDbEntity
  8
1
 62
     3
100
AcDbMText
 10
-127.9592041408276
 20
-243.7000000000049
 30
0.0
 40
2.5
 41
0.0
 71
     8
 72
     1
  1
1:1
  7
CONVERTER_13
 73
     1
 44
1.32052821128451
  0
TEXT
  5
4C4
330
71
100
AcDbEntity
  8
1
 62
     7
100
AcDbText
 10
-215.5448045267399
 20
-243.7000000000051
 30
0.0
 40
2.5
  1
00528594
 41
0.81
  7
CONVERTER_12
100
AcDbText
  0
MTEXT
  5
4C6
330
71
100
AcDbEntity
  8
1
 62
     2
100
AcDbMText
 10
-215.5448045267399
 20
-237.500000000005
 30
0.0
 40
1.8
 41
0.0
 71
     1
 72
     1
  1
document-No. / RI
  7
CONVERTER_14
 73
     1
 44
1.32052821128451
  0
TEXT
  5
4C7
330
71
100
AcDbEntity
  8
1
 62
     3
100
AcDbText
 10
-187.7448045267399
 20
-252.2000000000051
 30
0.0
 40
2.5
  1
 
 41
0.81
  7
CONVERTER_12
100
AcDbText
  0
MTEXT
  5
4C8
330
71
100
AcDbEntity
  8
1
 62
     2
100
AcDbMText
 10
-187.7448045267399
 20
-246.0000000000051
 30
0.0
 40
1.8
 41
0.0
 71
     1
 72
     1
  1
document-type
  7
CONVERTER_11
 73
     1
 44
1.20048019207683
  0
MTEXT
  5
4C9
330
71
100
AcDbEntity
  8
1
 62
     2
100
AcDbMText
 10
-157.918408281667
 20
-237.5000000000051
 30
0.0
 40
1.8
 41
0.0
 71
     1
 72
     1
  1
date
  7
CONVERTER_11
 73
     1
 44
1.32052821128451
  0
TEXT
  5
4CA
330
71
100
AcDbEntity
  8
1
 62
     3
100
AcDbText
 10
-157.918408281667
 20
-243.7000000000051
 30
0.0
 40
2.5
  1
28.02.2018
 41
0.81
  7
CONVERTER_12
100
AcDbText
  0
TEXT
  5
4CB
330
71
100
AcDbEntity
  8
1
 62
     7
100
AcDbText
 10
-195.5148923076841
 20
-243.7000000000051
 30
0.0
 40
2.5
  1
02
 41
0.81
  7
CONVERTER_12
100
AcDbText
  0
TEXT
  5
4CC
330
71
100
AcDbEntity
  8
1
 62
     7
100
AcDbText
 10
-197.6712568047261
 20
-243.7000000000051
 30
0.0
 40
2.5
  1
/
 41
0.9
  7
CONVERTER_11
100
AcDbText
  0
HATCH
  5
4CD
330
71
100
AcDbEntity
  8
1
  6
Continuous
 62
     2
100
AcDbHatch
 10
0.0
 20
0.0
 30
0.0
210
0.0
220
0.0
230
1.0
  2
_USER
 70
     0
 71
     1
 91
        1
 92
        1
 93
       12
 72
     1
 10
-235.3773038137788
 20
-251.3473095238144
 11
-236.5700965159452
 21
-251.3473095238144
 72
     1
 10
-236.5700965159452
 20
-251.3473095238144
 11
-236.5700965159452
 21
-250.2130374149706
 72
     1
 10
-236.5700965159452
 20
-250.2130374149706
 11
-237.6197540938527
 21
-250.2130374149706
 72
     1
 10
-237.6197540938527
 20
-250.2130374149706
 11
-237.6197540938527
 21
-251.3473095238144
 72
     1
 10
-237.6197540938527
 20
-251.3473095238144
 11
-238.8125467960193
 21
-251.3473095238144
 72
     1
 10
-238.8125467960193
 20
-251.3473095238144
 11
-238.8125467960193
 21
-248.2935000000032
 72
     1
 10
-238.8125467960193
 20
-248.2935000000032
 11
-237.6197540938527
 21
-248.2935000000032
 72
     1
 10
-237.6197540938527
 20
-248.2935000000032
 11
-237.6197540938527
 21
-249.3623333333378
 72
     1
 10
-237.6197540938527
 20
-249.3623333333378
 11
-236.5700965159452
 21
-249.3623333333378
 72
     1
 10
-236.5700965159452
 20
-249.3623333333378
 11
-236.5700965159452
 21
-248.2935000000032
 72
     1
 10
-236.5700965159452
 20
-248.2935000000032
 11
-235.3773038137788
 21
-248.2935000000032
 72
     1
 10
-235.3773038137788
 20
-248.2935000000032
 11
-235.3773038137788
 21
-251.3473095238144
 97
       12
330
43A
330
43B
330
425
330
424
330
423
330
437
330
422
330
438
330
439
330
421
330
420
330
41F
 75
     1
 76
     0
 52
45.0
 41
0.1
 77
     0
 78
     1
 53
45.0
 43
0.0
 44
0.0
 45
-0.0707106781186548
 46
0.0707106781186548
 79
     0
 98
        1
 10
0.0
 20
0.0
  0
HATCH
  5
4CE
330
71
100
AcDbEntity
  8
1
  6
Continuous
 62
     2
100
AcDbHatch
 10
0.0
 20
0.0
 30
0.0
210
0.0
220
0.0
230
1.0
  2
_USER
 70
     0
 71
     1
 91
        1
 92
        1
 93
       12
 72
     1
 10
-235.3773038137788
 20
-251.3473095238144
 11
-236.5700965159452
 21
-251.3473095238144
 72
     1
 10
-236.5700965159452
 20
-251.3473095238144
 11
-236.5700965159452
 21
-250.2130374149706
 72
     1
 10
-236.5700965159452
 20
-250.2130374149706
 11
-237.6197540938527
 21
-250.2130374149706
 72
     1
 10
-237.6197540938527
 20
-250.2130374149706
 11
-237.6197540938527
 21
-251.3473095238144
 72
     1
 10
-237.6197540938527
 20
-251.3473095238144
 11
-238.8125467960193
 21
-251.3473095238144
 72
     1
 10
-238.8125467960193
 20
-251.3473095238144
 11
-238.8125467960193
 21
-248.2935000000032
 72
     1
 10
-238.8125467960193
 20
-248.2935000000032
 11
-237.6197540938527
 21
-248.2935000000032
 72
     1
 10
-237.6197540938527
 20
-248.2935000000032
 11
-237.6197540938527
 21
-249.3623333333378
 72
     1
 10
-237.6197540938527
 20
-249.3623333333378
 11
-236.5700965159452
 21
-249.3623333333378
 72
     1
 10
-236.5700965159452
 20
-249.3623333333378
 11
-236.5700965159452
 21
-248.2935000000032
 72
     1
 10
-236.5700965159452
 20
-248.2935000000032
 11
-235.3773038137788
 21
-248.2935000000032
 72
     1
 10
-235.3773038137788
 20
-248.2935000000032
 11
-235.3773038137788
 21
-251.3473095238144
 97
       12
330
43A
330
43B
330
425
330
424
330
423
330
437
330
422
330
438
330
439
330
421
330
420
330
41F
 75
     1
 76
     0
 52
45.0
 41
0.1
 77
     0
 78
     1
 53
45.0
 43
0.0
 44
0.0
 45
-0.0707106781186548
 46
0.0707106781186548
 79
     0
 98
        1
 10
0.0
 20
0.0
  0
HATCH
  5
4CF
330
71
100
AcDbEntity
  8
1
  6
Continuous
 62
     2
100
AcDbHatch
 10
0.0
 20
0.0
 30
0.0
210
0.0
220
0.0
230
1.0
  2
_USER
 70
     0
 71
     1
 91
        1
 92
        1
 93
       10
 72
     1
 10
-233.1350044645905
 20
-252.9614659863827
 11
-234.3755088748434
 21
-251.6526904761776
 72
     1
 10
-234.3755088748434
 20
-251.6526904761776
 11
-235.568301577011
 21
-251.6526904761776
 72
     1
 10
-235.568301577011
 20
-251.6526904761776
 11
-235.568301577011
 21
-254.7064999999887
 72
     1
 10
-235.568301577011
 20
-254.7064999999887
 11
-234.3755088748434
 21
-254.7064999999887
 72
     1
 10
-234.3755088748434
 20
-254.7064999999887
 11
-234.3755088748434
 21
-253.3977244897841
 72
     1
 10
-234.3755088748434
 20
-253.3977244897841
 11
-233.1350044645905
 21
-254.7064999999887
 72
     1
 10
-233.1350044645905
 20
-254.7064999999887
 11
-231.9422117624241
 21
-254.7064999999887
 72
     1
 10
-231.9422117624241
 20
-254.7064999999887
 11
-231.9422117624241
 21
-251.6526904761776
 72
     1
 10
-231.9422117624241
 20
-251.6526904761776
 11
-233.1350044645905
 21
-251.6526904761776
 72
     1
 10
-233.1350044645905
 20
-251.6526904761776
 11
-233.1350044645905
 21
-252.9614659863827
 97
       10
330
448
330
418
330
417
330
41A
330
443
330
444
330
419
330
445
330
446
330
447
 75
     1
 76
     0
 52
45.0
 41
0.1
 77
     0
 78
     1
 53
45.0
 43
0.0
 44
0.0
 45
-0.0707106781186548
 46
0.0707106781186548
 79
     0
 98
        1
 10
0.0
 20
0.0
  0
HATCH
  5
4D0
330
71
100
AcDbEntity
  8
1
  6
Continuous
 62
     2
100
AcDbHatch
 10
0.0
 20
0.0
 30
0.0
210
0.0
220
0.0
230
1.0
  2
_USER
 70
     0
 71
     1
 91
        1
 92
        1
 93
       10
 72
     1
 10
-233.1350044645905
 20
-252.9614659863827
 11
-234.3755088748434
 21
-251.6526904761776
 72
     1
 10
-234.3755088748434
 20
-251.6526904761776
 11
-235.568301577011
 21
-251.6526904761776
 72
     1
 10
-235.568301577011
 20
-251.6526904761776
 11
-235.568301577011
 21
-254.7064999999887
 72
     1
 10
-235.568301577011
 20
-254.7064999999887
 11
-234.3755088748434
 21
-254.7064999999887
 72
     1
 10
-234.3755088748434
 20
-254.7064999999887
 11
-234.3755088748434
 21
-253.3977244897841
 72
     1
 10
-234.3755088748434
 20
-253.3977244897841
 11
-233.1350044645905
 21
-254.7064999999887
 72
     1
 10
-233.1350044645905
 20
-254.7064999999887
 11
-231.9422117624241
 21
-254.7064999999887
 72
     1
 10
-231.9422117624241
 20
-254.7064999999887
 11
-231.9422117624241
 21
-251.6526904761776
 72
     1
 10
-231.9422117624241
 20
-251.6526904761776
 11
-233.1350044645905
 21
-251.6526904761776
 72
     1
 10
-233.1350044645905
 20
-251.6526904761776
 11
-233.1350044645905
 21
-252.9614659863827
 97
       10
330
448
330
418
330
417
330
41A
330
443
330
444
330
419
330
445
330
446
330
447
 75
     1
 76
     0
 52
45.0
 41
0.1
 77
     0
 78
     1
 53
45.0
 43
0.0
 44
0.0
 45
-0.0707106781186548
 46
0.0707106781186548
 79
     0
 98
        1
 10
0.0
 20
0.0
  0
HATCH
  5
4D1
330
71
100
AcDbEntity
  8
1
  6
Continuous
 62
     2
100
AcDbHatch
 10
0.0
 20
0.0
 30
0.0
210
0.0
220
0.0
230
1.0
  2
_USER
 70
     0
 71
     1
 91
        1
 92
        1
 93
       10
 72
     1
 10
-227.8865656441708
 20
-249.6022755102084
 11
-229.1270700544248
 21
-248.2935000000032
 72
     1
 10
-229.1270700544248
 20
-248.2935000000032
 11
-230.3198627565913
 21
-248.2935000000032
 72
     1
 10
-230.3198627565913
 20
-248.2935000000032
 11
-230.3198627565913
 21
-251.3473095238144
 72
     1
 10
-230.3198627565913
 20
-251.3473095238144
 11
-229.1270700544248
 21
-251.3473095238144
 72
     1
 10
-229.1270700544248
 20
-251.3473095238144
 11
-229.1270700544248
 21
-250.0385340136097
 72
     1
 10
-229.1270700544248
 20
-250.0385340136097
 11
-227.8865656441708
 21
-251.3473095238144
 72
     1
 10
-227.8865656441708
 20
-251.3473095238144
 11
-226.6937729420042
 21
-251.3473095238144
 72
     1
 10
-226.6937729420042
 20
-251.3473095238144
 11
-226.6937729420042
 21
-248.2935000000032
 72
     1
 10
-226.6937729420042
 20
-248.2935000000032
 11
-227.8865656441708
 21
-248.2935000000032
 72
     1
 10
-227.8865656441708
 20
-248.2935000000032
 11
-227.8865656441708
 21
-249.6022755102084
 97
       10
330
44D
330
415
330
414
330
44E
330
413
330
449
330
44A
330
44B
330
44C
330
416
 75
     1
 76
     0
 52
45.0
 41
0.1
 77
     0
 78
     1
 53
45.0
 43
0.0
 44
0.0
 45
-0.0707106781186548
 46
0.0707106781186548
 79
     0
 98
        1
 10
0.0
 20
0.0
  0
HATCH
  5
4D2
330
71
100
AcDbEntity
  8
1
  6
Continuous
 62
     2
100
AcDbHatch
 10
0.0
 20
0.0
 30
0.0
210
0.0
220
0.0
230
1.0
  2
_USER
 70
     0
 71
     1
 91
        1
 92
        1
 93
       10
 72
     1
 10
-227.8865656441708
 20
-249.6022755102084
 11
-229.1270700544248
 21
-248.2935000000032
 72
     1
 10
-229.1270700544248
 20
-248.2935000000032
 11
-230.3198627565913
 21
-248.2935000000032
 72
     1
 10
-230.3198627565913
 20
-248.2935000000032
 11
-230.3198627565913
 21
-251.3473095238144
 72
     1
 10
-230.3198627565913
 20
-251.3473095238144
 11
-229.1270700544248
 21
-251.3473095238144
 72
     1
 10
-229.1270700544248
 20
-251.3473095238144
 11
-229.1270700544248
 21
-250.0385340136097
 72
     1
 10
-229.1270700544248
 20
-250.0385340136097
 11
-227.8865656441708
 21
-251.3473095238144
 72
     1
 10
-227.8865656441708
 20
-251.3473095238144
 11
-226.6937729420042
 21
-251.3473095238144
 72
     1
 10
-226.6937729420042
 20
-251.3473095238144
 11
-226.6937729420042
 21
-248.2935000000032
 72
     1
 10
-226.6937729420042
 20
-248.2935000000032
 11
-227.8865656441708
 21
-248.2935000000032
 72
     1
 10
-227.8865656441708
 20
-248.2935000000032
 11
-227.8865656441708
 21
-249.6022755102084
 97
       10
330
44D
330
415
330
414
330
44E
330
413
330
449
330
44A
330
44B
330
44C
330
416
 75
     1
 76
     0
 52
45.0
 41
0.1
 77
     0
 78
     1
 53
45.0
 43
0.0
 44
0.0
 45
-0.0707106781186548
 46
0.0707106781186548
 79
     0
 98
        1
 10
0.0
 20
0.0
  0
HATCH
  5
4D3
330
71
100
AcDbEntity
  8
1
  6
Continuous
 62
     2
100
AcDbHatch
 10
0.0
 20
0.0
 30
0.0
210
0.0
220
0.0
230
1.0
  2
_USER
 70
     0
 71
     1
 91
        1
 92
        1
 93
        8
 72
     1
 10
-228.9840858610503
 20
-251.6526904761776
 11
-231.7990766381639
 21
-251.6526904761776
 72
     1
 10
-231.7990766381639
 20
-251.6526904761776
 11
-231.7990766381639
 21
-252.4379557823012
 72
     1
 10
-231.7990766381639
 20
-252.4379557823012
 11
-230.9879776006893
 21
-252.4379557823012
 72
     1
 10
-230.9879776006893
 20
-252.4379557823012
 11
-230.9879776006893
 21
-254.7064999999887
 72
     1
 10
-230.9879776006893
 20
-254.7064999999887
 11
-229.7951848985228
 21
-254.7064999999887
 72
     1
 10
-229.7951848985228
 20
-254.7064999999887
 11
-229.7951848985228
 21
-252.4379557823012
 72
     1
 10
-229.7951848985228
 20
-252.4379557823012
 11
-228.9840858610503
 21
-252.4379557823012
 72
     1
 10
-228.9840858610503
 20
-252.4379557823012
 11
-228.9840858610503
 21
-251.6526904761776
 97
        8
330
40F
330
44F
330
40E
330
450
330
451
330
412
330
411
330
410
 75
     1
 76
     0
 52
45.0
 41
0.1
 77
     0
 78
     1
 53
45.0
 43
0.0
 44
0.0
 45
-0.0707106781186548
 46
0.0707106781186548
 79
     0
 98
        1
 10
0.0
 20
0.0
  0
HATCH
  5
4D4
330
71
100
AcDbEntity
  8
1
  6
Continuous
 62
     2
100
AcDbHatch
 10
0.0
 20
0.0
 30
0.0
210
0.0
220
0.0
230
1.0
  2
_USER
 70
     0
 71
     1
 91
        1
 92
        1
 93
        8
 72
     1
 10
-228.9840858610503
 20
-251.6526904761776
 11
-231.7990766381639
 21
-251.6526904761776
 72
     1
 10
-231.7990766381639
 20
-251.6526904761776
 11
-231.7990766381639
 21
-252.4379557823012
 72
     1
 10
-231.7990766381639
 20
-252.4379557823012
 11
-230.9879776006893
 21
-252.4379557823012
 72
     1
 10
-230.9879776006893
 20
-252.4379557823012
 11
-230.9879776006893
 21
-254.7064999999887
 72
     1
 10
-230.9879776006893
 20
-254.7064999999887
 11
-229.7951848985228
 21
-254.7064999999887
 72
     1
 10
-229.7951848985228
 20
-254.7064999999887
 11
-229.7951848985228
 21
-252.4379557823012
 72
     1
 10
-229.7951848985228
 20
-252.4379557823012
 11
-228.9840858610503
 21
-252.4379557823012
 72
     1
 10
-228.9840858610503
 20
-252.4379557823012
 11
-228.9840858610503
 21
-251.6526904761776
 97
        8
330
40F
330
44F
330
40E
330
450
330
451
330
412
330
411
330
410
 75
     1
 76
     0
 52
45.0
 41
0.1
 77
     0
 78
     1
 53
45.0
 43
0.0
 44
0.0
 45
-0.0707106781186548
 46
0.0707106781186548
 79
     0
 98
        1
 10
0.0
 20
0.0
  0
HATCH
  5
4D5
330
71
100
AcDbEntity
  8
1
  6
Continuous
 62
     2
100
AcDbHatch
 10
0.0
 20
0.0
 30
0.0
210
0.0
220
0.0
230
1.0
  2
_USER
 70
     0
 71
     1
 91
        2
 92
        1
 93
        8
 72
     1
 10
-226.8456584051033
 20
-254.7064999999887
 11
-227.0571384585791
 21
-254.1655394557708
 72
     1
 10
-227.0571384585791
 20
-254.1655394557708
 11
-228.1895800352529
 21
-254.1655394557708
 72
     1
 10
-228.1895800352529
 20
-254.1655394557708
 11
-228.4010600887287
 21
-254.7064999999887
 72
     1
 10
-228.4010600887287
 20
-254.7064999999887
 11
-229.6415644989817
 21
-254.7064999999887
 72
     1
 10
-229.6415644989817
 20
-254.7064999999887
 11
-228.2436114520424
 21
-251.6526904761776
 72
     1
 10
-228.2436114520424
 20
-251.6526904761776
 11
-227.0031070417897
 21
-251.6526904761776
 72
     1
 10
-227.0031070417897
 20
-251.6526904761776
 11
-225.6051539948494
 21
-254.7064999999887
 72
     1
 10
-225.6051539948494
 20
-254.7064999999887
 11
-226.8456584051033
 21
-254.7064999999887
 97
        8
330
453
330
454
330
40B
330
455
330
40A
330
40D
330
452
330
40C
 92
       16
 93
        3
 72
     1
 10
-227.9235244841079
 20
-253.4849761904642
 11
-227.6233592469155
 21
-252.7171612244775
 72
     1
 10
-227.6233592469155
 20
-252.7171612244775
 11
-227.3231940097254
 21
-253.4849761904642
 72
     1
 10
-227.3231940097254
 20
-253.4849761904642
 11
-227.9235244841079
 21
-253.4849761904642
 97
        3
330
409
330
457
330
456
 75
     1
 76
     0
 52
45.0
 41
0.1
 77
     0
 78
     1
 53
45.0
 43
0.0
 44
0.0
 45
-0.0707106781186548
 46
0.0707106781186548
 79
     0
 98
        1
 10
0.0
 20
0.0
  0
HATCH
  5
4D6
330
71
100
AcDbEntity
  8
1
  6
Continuous
 62
     2
100
AcDbHatch
 10
0.0
 20
0.0
 30
0.0
210
0.0
220
0.0
230
1.0
  2
_USER
 70
     0
 71
     1
 91
        2
 92
        1
 93
        8
 72
     1
 10
-226.8456584051033
 20
-254.7064999999887
 11
-227.0571384585791
 21
-254.1655394557708
 72
     1
 10
-227.0571384585791
 20
-254.1655394557708
 11
-228.1895800352529
 21
-254.1655394557708
 72
     1
 10
-228.1895800352529
 20
-254.1655394557708
 11
-228.4010600887287
 21
-254.7064999999887
 72
     1
 10
-228.4010600887287
 20
-254.7064999999887
 11
-229.6415644989817
 21
-254.7064999999887
 72
     1
 10
-229.6415644989817
 20
-254.7064999999887
 11
-228.2436114520424
 21
-251.6526904761776
 72
     1
 10
-228.2436114520424
 20
-251.6526904761776
 11
-227.0031070417897
 21
-251.6526904761776
 72
     1
 10
-227.0031070417897
 20
-251.6526904761776
 11
-225.6051539948494
 21
-254.7064999999887
 72
     1
 10
-225.6051539948494
 20
-254.7064999999887
 11
-226.8456584051033
 21
-254.7064999999887
 97
        8
330
453
330
454
330
40B
330
455
330
40A
330
40D
330
452
330
40C
 92
       16
 93
        3
 72
     1
 10
-227.9235244841079
 20
-253.4849761904642
 11
-227.6233592469155
 21
-252.7171612244775
 72
     1
 10
-227.6233592469155
 20
-252.7171612244775
 11
-227.3231940097254
 21
-253.4849761904642
 72
     1
 10
-227.3231940097254
 20
-253.4849761904642
 11
-227.9235244841079
 21
-253.4849761904642
 97
        3
330
409
330
457
330
456
 75
     1
 76
     0
 52
45.0
 41
0.1
 77
     0
 78
     1
 53
45.0
 43
0.0
 44
0.0
 45
-0.0707106781186548
 46
0.0707106781186548
 79
     0
 98
        1
 10
0.0
 20
0.0
  0
HATCH
  5
4D7
330
71
100
AcDbEntity
  8
1
  6
Continuous
 62
     2
100
AcDbHatch
 10
0.0
 20
0.0
 30
0.0
210
0.0
220
0.0
230
1.0
  2
_USER
 70
     0
 71
     1
 91
        1
 92
        1
 93
        4
 72
     1
 10
-225.2147099913174
 20
-251.3473095238144
 11
-226.4552144015703
 21
-251.3473095238144
 72
     1
 10
-226.4552144015703
 20
-251.3473095238144
 11
-226.4552144015703
 21
-248.2935000000032
 72
     1
 10
-226.4552144015703
 20
-248.2935000000032
 11
-225.2147099913174
 21
-248.2935000000032
 72
     1
 10
-225.2147099913174
 20
-248.2935000000032
 11
-225.2147099913174
 21
-251.3473095238144
 97
        4
330
406
330
408
330
458
330
407
 75
     1
 76
     0
 52
45.0
 41
0.1
 77
     0
 78
     1
 53
45.0
 43
0.0
 44
0.0
 45
-0.0707106781186548
 46
0.0707106781186548
 79
     0
 98
        1
 10
0.0
 20
0.0
  0
HATCH
  5
4D8
330
71
100
AcDbEntity
  8
1
  6
Continuous
 62
     2
100
AcDbHatch
 10
0.0
 20
0.0
 30
0.0
210
0.0
220
0.0
230
1.0
  2
_USER
 70
     0
 71
     1
 91
        1
 92
        1
 93
        4
 72
     1
 10
-225.2147099913174
 20
-251.3473095238144
 11
-226.4552144015703
 21
-251.3473095238144
 72
     1
 10
-226.4552144015703
 20
-251.3473095238144
 11
-226.4552144015703
 21
-248.2935000000032
 72
     1
 10
-226.4552144015703
 20
-248.2935000000032
 11
-225.2147099913174
 21
-248.2935000000032
 72
     1
 10
-225.2147099913174
 20
-248.2935000000032
 11
-225.2147099913174
 21
-251.3473095238144
 97
        4
330
406
330
408
330
458
330
407
 75
     1
 76
     0
 52
45.0
 41
0.1
 77
     0
 78
     1
 53
45.0
 43
0.0
 44
0.0
 45
-0.0707106781186548
 46
0.0707106781186548
 79
     0
 98
        1
 10
0.0
 20
0.0
  0
HATCH
  5
4D9
330
71
100
AcDbEntity
  8
1
  6
Continuous
 62
     2
100
AcDbHatch
 10
0.0
 20
0.0
 30
0.0
210
0.0
220
0.0
230
1.0
  2
_USER
 70
     0
 71
     1
 91
        1
 92
        1
 93
       12
 72
     1
 10
-220.9922238256466
 20
-248.2935000000032
 11
-222.2947534564131
 21
-249.7664505300394
 72
     1
 10
-222.2947534564131
 20
-249.7664505300394
 11
-220.8968004094728
 21
-251.3473095238144
 72
     1
 10
-220.8968004094728
 20
-251.3473095238144
 11
-222.2995246272211
 21
-251.3473095238144
 72
     1
 10
-222.2995246272211
 20
-251.3473095238144
 11
-222.9961155652866
 21
-250.5595777385207
 72
     1
 10
-222.9961155652866
 20
-250.5595777385207
 11
-223.6927065033523
 21
-251.3473095238144
 72
     1
 10
-223.6927065033523
 20
-251.3473095238144
 11
-225.0954307211005
 21
-251.3473095238144
 72
     1
 10
-225.0954307211005
 20
-251.3473095238144
 11
-223.6974776741602
 21
-249.7664505300394
 72
     1
 10
-223.6974776741602
 20
-249.7664505300394
 11
-225.0000073049277
 21
-248.2935000000032
 72
     1
 10
-225.0000073049277
 20
-248.2935000000032
 11
-223.5972830871784
 21
-248.2935000000032
 72
     1
 10
-223.5972830871784
 20
-248.2935000000032
 11
-222.9961155652866
 21
-248.9733233215587
 72
     1
 10
-222.9961155652866
 20
-248.9733233215587
 11
-222.3949480433938
 21
-248.2935000000032
 72
     1
 10
-222.3949480433938
 20
-248.2935000000032
 11
-220.9922238256466
 21
-248.2935000000032
 97
       12
330
401
330
400
330
3FF
330
45C
330
45D
330
459
330
45A
330
405
330
404
330
403
330
402
330
45B
 75
     1
 76
     0
 52
45.0
 41
0.1
 77
     0
 78
     1
 53
45.0
 43
0.0
 44
0.0
 45
-0.0707106781186548
 46
0.0707106781186548
 79
     0
 98
        1
 10
0.0
 20
0.0
  0
HATCH
  5
4DA
330
71
100
AcDbEntity
  8
1
  6
Continuous
 62
     2
100
AcDbHatch
 10
0.0
 20
0.0
 30
0.0
210
0.0
220
0.0
230
1.0
  2
_USER
 70
     0
 71
     1
 91
        1
 92
        1
 93
       12
 72
     1
 10
-220.9922238256466
 20
-248.2935000000032
 11
-222.2947534564131
 21
-249.7664505300394
 72
     1
 10
-222.2947534564131
 20
-249.7664505300394
 11
-220.8968004094728
 21
-251.3473095238144
 72
     1
 10
-220.8968004094728
 20
-251.3473095238144
 11
-222.2995246272211
 21
-251.3473095238144
 72
     1
 10
-222.2995246272211
 20
-251.3473095238144
 11
-222.9961155652866
 21
-250.5595777385207
 72
     1
 10
-222.9961155652866
 20
-250.5595777385207
 11
-223.6927065033523
 21
-251.3473095238144
 72
     1
 10
-223.6927065033523
 20
-251.3473095238144
 11
-225.0954307211005
 21
-251.3473095238144
 72
     1
 10
-225.0954307211005
 20
-251.3473095238144
 11
-223.6974776741602
 21
-249.7664505300394
 72
     1
 10
-223.6974776741602
 20
-249.7664505300394
 11
-225.0000073049277
 21
-248.2935000000032
 72
     1
 10
-225.0000073049277
 20
-248.2935000000032
 11
-223.5972830871784
 21
-248.2935000000032
 72
     1
 10
-223.5972830871784
 20
-248.2935000000032
 11
-222.9961155652866
 21
-248.9733233215587
 72
     1
 10
-222.9961155652866
 20
-248.9733233215587
 11
-222.3949480433938
 21
-248.2935000000032
 72
     1
 10
-222.3949480433938
 20
-248.2935000000032
 11
-220.9922238256466
 21
-248.2935000000032
 97
       12
330
401
330
400
330
3FF
330
45C
330
45D
330
459
330
45A
330
405
330
404
330
403
330
402
330
45B
 75
     1
 76
     0
 52
45.0
 41
0.1
 77
     0
 78
     1
 53
45.0
 43
0.0
 44
0.0
 45
-0.0707106781186548
 46
0.0707106781186548
 79
     0
 98
        1
 10
0.0
 20
0.0
  0
HATCH
  5
4DB
330
71
100
AcDbEntity
  8
1
  6
Continuous
 62
     2
100
AcDbHatch
 10
0.0
 20
0.0
 30
0.0
210
0.0
220
0.0
230
1.0
  2
_USER
 70
     0
 71
     1
 91
        2
 92
        1
 93
        6
 72
     1
 10
-240.0099592397926
 20
-250.4042312826706
 11
-240.7687268275729
 21
-250.4042312826706
 72
     1
 10
-240.7687268275729
 20
-250.4042312826706
 11
-240.7687268275729
 21
-251.3473095238144
 72
     1
 10
-240.7687268275729
 20
-251.3473095238144
 11
-242.009231237827
 21
-251.3473095238144
 72
     1
 10
-242.009231237827
 20
-251.3473095238144
 11
-242.009231237827
 21
-248.2935000000032
 72
     1
 10
-242.009231237827
 20
-248.2935000000032
 11
-240.0099592397926
 21
-248.2935000000032
 72
     2
 10
-240.0099592397926
 20
-249.3488656413369
 40
1.055365641333708
 50
270.0
 51
450.0
 73
     0
 97
        6
330
429
330
428
330
435
330
434
330
42A
330
47A
 92
       16
 93
        4
 72
     2
 10
-240.451431766031
 20
-249.3094696701144
 40
0.3528638246711182
 50
270.0
 51
450.0
 73
     1
 72
     1
 10
-240.451431766031
 20
-248.9566058454433
 11
-240.7687268275729
 21
-248.9566058454433
 72
     1
 10
-240.7687268275729
 20
-248.9566058454433
 11
-240.7687268275729
 21
-249.6623334947855
 72
     1
 10
-240.7687268275729
 20
-249.6623334947855
 11
-240.451431766031
 21
-249.6623334947855
 97
        4
330
48E
330
426
330
436
330
427
 75
     1
 76
     0
 52
45.0
 41
0.1
 77
     0
 78
     1
 53
45.0
 43
0.0
 44
0.0
 45
-0.0707106781186548
 46
0.0707106781186548
 79
     0
 98
        1
 10
0.0
 20
0.0
  0
HATCH
  5
4DC
330
71
100
AcDbEntity
  8
1
  6
Continuous
 62
     2
100
AcDbHatch
 10
0.0
 20
0.0
 30
0.0
210
0.0
220
0.0
230
1.0
  2
_USER
 70
     0
 71
     1
 91
        2
 92
        1
 93
        6
 72
     1
 10
-240.0099592397926
 20
-250.4042312826706
 11
-240.7687268275729
 21
-250.4042312826706
 72
     1
 10
-240.7687268275729
 20
-250.4042312826706
 11
-240.7687268275729
 21
-251.3473095238144
 72
     1
 10
-240.7687268275729
 20
-251.3473095238144
 11
-242.009231237827
 21
-251.3473095238144
 72
     1
 10
-242.009231237827
 20
-251.3473095238144
 11
-242.009231237827
 21
-248.2935000000032
 72
     1
 10
-242.009231237827
 20
-248.2935000000032
 11
-240.0099592397926
 21
-248.2935000000032
 72
     2
 10
-240.0099592397926
 20
-249.3488656413369
 40
1.055365641333708
 50
270.0
 51
450.0
 73
     0
 97
        6
330
429
330
428
330
435
330
434
330
42A
330
47A
 92
       16
 93
        4
 72
     2
 10
-240.451431766031
 20
-249.3094696701144
 40
0.3528638246711182
 50
270.0
 51
450.0
 73
     1
 72
     1
 10
-240.451431766031
 20
-248.9566058454433
 11
-240.7687268275729
 21
-248.9566058454433
 72
     1
 10
-240.7687268275729
 20
-248.9566058454433
 11
-240.7687268275729
 21
-249.6623334947855
 72
     1
 10
-240.7687268275729
 20
-249.6623334947855
 11
-240.451431766031
 21
-249.6623334947855
 97
        4
330
48E
330
426
330
436
330
427
 75
     1
 76
     0
 52
45.0
 41
0.1
 77
     0
 78
     1
 53
45.0
 43
0.0
 44
0.0
 45
-0.0707106781186548
 46
0.0707106781186548
 79
     0
 98
        1
 10
0.0
 20
0.0
  0
HATCH
  5
4DD
330
71
100
AcDbEntity
  8
1
  6
Continuous
 62
     2
100
AcDbHatch
 10
0.0
 20
0.0
 30
0.0
210
0.0
220
0.0
230
1.0
  2
_USER
 70
     0
 71
     1
 91
        2
 92
        1
 93
        4
 72
     2
 10
-237.4534164914335
 20
-253.7181702483862
 40
2.065479772208568
 50
62.45185182430637
 51
117.5481481756664
 73
     1
 72
     2
 10
-237.7343563832668
 20
-253.1795952380834
 40
1.45803408365149
 50
117.5481481756624
 51
242.4518518243375
 73
     1
 72
     2
 10
-237.4534164914335
 20
-252.6410202277801
 40
2.065479772208509
 50
242.4518518243402
 51
297.5481481756871
 73
     1
 72
     2
 10
-237.1724765996002
 20
-253.1795952380834
 40
1.458034083652003
 50
297.548148175701
 51
422.451851824299
 73
     1
 97
        4
330
486
330
485
330
487
330
484
 92
       16
 93
        4
 72
     2
 10
-237.6531565277799
 20
-253.1795952380834
 40
0.7717997786796947
 50
321.8795802028417
 51
398.1204197971533
 73
     1
 72
     2
 10
-237.4534164914335
 20
-253.0228640599629
 40
0.5179085730132998
 50
38.12041979714704
 51
141.8795802028588
 73
     1
 72
     2
 10
-237.2536764550874
 20
-253.1795952380834
 40
0.7717997786794633
 50
141.8795802028363
 51
218.1204197971687
 73
     1
 72
     2
 10
-237.4534164914335
 20
-253.3363264162034
 40
0.5179085730137354
 50
218.1204197971931
 51
321.879580202801
 73
     1
 97
        4
330
4A2
330
49F
330
4A0
330
4A1
 75
     1
 76
     0
 52
45.0
 41
0.1
 77
     0
 78
     1
 53
45.0
 43
0.0
 44
0.0
 45
-0.0707106781186548
 46
0.0707106781186548
 79
     0
 98
        1
 10
0.0
 20
0.0
  0
HATCH
  5
4DE
330
71
100
AcDbEntity
  8
1
  6
Continuous
 62
     2
100
AcDbHatch
 10
0.0
 20
0.0
 30
0.0
210
0.0
220
0.0
230
1.0
  2
_USER
 70
     0
 71
     1
 91
        2
 92
        1
 93
        4
 72
     2
 10
-237.4534164914335
 20
-253.7181702483862
 40
2.065479772208568
 50
62.45185182430637
 51
117.5481481756664
 73
     1
 72
     2
 10
-237.7343563832668
 20
-253.1795952380834
 40
1.45803408365149
 50
117.5481481756624
 51
242.4518518243375
 73
     1
 72
     2
 10
-237.4534164914335
 20
-252.6410202277801
 40
2.065479772208509
 50
242.4518518243402
 51
297.5481481756871
 73
     1
 72
     2
 10
-237.1724765996002
 20
-253.1795952380834
 40
1.458034083652003
 50
297.548148175701
 51
422.451851824299
 73
     1
 97
        4
330
486
330
485
330
487
330
484
 92
       16
 93
        4
 72
     2
 10
-237.6531565277799
 20
-253.1795952380834
 40
0.7717997786796947
 50
321.8795802028417
 51
398.1204197971533
 73
     1
 72
     2
 10
-237.4534164914335
 20
-253.0228640599629
 40
0.5179085730132998
 50
38.12041979714704
 51
141.8795802028588
 73
     1
 72
     2
 10
-237.2536764550874
 20
-253.1795952380834
 40
0.7717997786794633
 50
141.8795802028363
 51
218.1204197971687
 73
     1
 72
     2
 10
-237.4534164914335
 20
-253.3363264162034
 40
0.5179085730137354
 50
218.1204197971931
 51
321.879580202801
 73
     1
 97
        4
330
4A2
330
49F
330
4A0
330
4A1
 75
     1
 76
     0
 52
45.0
 41
0.1
 77
     0
 78
     1
 53
45.0
 43
0.0
 44
0.0
 45
-0.0707106781186548
 46
0.0707106781186548
 79
     0
 98
        1
 10
0.0
 20
0.0
  0
HATCH
  5
4DF
330
71
100
AcDbEntity
  8
1
  6
Continuous
 62
     2
100
AcDbHatch
 10
0.0
 20
0.0
 30
0.0
210
0.0
220
0.0
230
1.0
  2
_USER
 70
     0
 71
     1
 91
        2
 92
        1
 93
       12
 72
     1
 10
-230.5584212970242
 20
-248.9915136054462
 11
-231.8943491234519
 21
-248.9915136054462
 72
     1
 10
-231.8943491234519
 20
-248.9915136054462
 11
-231.8943491234519
 21
-249.4713979591879
 72
     1
 10
-231.8943491234519
 20
-249.4713979591879
 11
-230.5584212970242
 21
-249.4713979591879
 72
     1
 10
-230.5584212970242
 20
-249.4713979591879
 11
-230.5584212970242
 21
-250.1694115646302
 72
     1
 10
-230.5584212970242
 20
-250.1694115646302
 11
-231.8943491234519
 21
-250.1694115646302
 72
     1
 10
-231.8943491234519
 20
-250.1694115646302
 11
-231.8943491234519
 21
-250.6492959183719
 72
     1
 10
-231.8943491234519
 20
-250.6492959183719
 11
-230.5584212970242
 21
-250.6492959183719
 72
     1
 10
-230.5584212970242
 20
-250.6492959183719
 11
-230.5584212970242
 21
-251.3473095238144
 72
     1
 10
-230.5584212970242
 20
-251.3473095238144
 11
-233.7087410208052
 21
-251.3473095238144
 72
     2
 10
-233.7087410208052
 20
-249.8204047619091
 40
1.526904761905882
 50
90.0
 51
270.0
 73
     0
 72
     1
 10
-233.7087410208052
 20
-248.2935000000032
 11
-230.5584212970242
 21
-248.2935000000032
 72
     1
 10
-230.5584212970242
 20
-248.2935000000032
 11
-230.5584212970242
 21
-248.9915136054462
 97
       12
330
43D
330
48F
330
43E
330
43F
330
440
330
441
330
41E
330
41D
330
41C
330
41B
330
442
330
43C
 92
       16
 93
        4
 72
     2
 10
-233.49246901064
 20
-249.6636735837886
 40
0.5179085730135266
 50
38.12041979714334
 51
141.8795802028489
 73
     1
 72
     2
 10
-233.2927289742937
 20
-249.8204047619091
 40
0.7717997786796724
 50
141.8795802028404
 51
218.1204197971562
 73
     1
 72
     2
 10
-233.49246901064
 20
-249.9771359400295
 40
0.5179085730134372
 50
218.1204197971511
 51
321.8795802028566
 73
     1
 72
     2
 10
-233.6922090469862
 20
-249.8204047619091
 40
0.7717997786796373
 50
321.8795802028437
 51
398.1204197971596
 73
     1
 97
        4
330
489
330
488
330
483
330
482
 75
     1
 76
     0
 52
45.0
 41
0.1
 77
     0
 78
     1
 53
45.0
 43
0.0
 44
0.0
 45
-0.0707106781186548
 46
0.0707106781186548
 79
     0
 98
        1
 10
0.0
 20
0.0
  0
HATCH
  5
4E0
330
71
100
AcDbEntity
  8
1
  6
Continuous
 62
     2
100
AcDbHatch
 10
0.0
 20
0.0
 30
0.0
210
0.0
220
0.0
230
1.0
  2
_USER
 70
     0
 71
     1
 91
        2
 92
        1
 93
       12
 72
     1
 10
-230.5584212970242
 20
-248.9915136054462
 11
-231.8943491234519
 21
-248.9915136054462
 72
     1
 10
-231.8943491234519
 20
-248.9915136054462
 11
-231.8943491234519
 21
-249.4713979591879
 72
     1
 10
-231.8943491234519
 20
-249.4713979591879
 11
-230.5584212970242
 21
-249.4713979591879
 72
     1
 10
-230.5584212970242
 20
-249.4713979591879
 11
-230.5584212970242
 21
-250.1694115646302
 72
     1
 10
-230.5584212970242
 20
-250.1694115646302
 11
-231.8943491234519
 21
-250.1694115646302
 72
     1
 10
-231.8943491234519
 20
-250.1694115646302
 11
-231.8943491234519
 21
-250.6492959183719
 72
     1
 10
-231.8943491234519
 20
-250.6492959183719
 11
-230.5584212970242
 21
-250.6492959183719
 72
     1
 10
-230.5584212970242
 20
-250.6492959183719
 11
-230.5584212970242
 21
-251.3473095238144
 72
     1
 10
-230.5584212970242
 20
-251.3473095238144
 11
-233.7087410208052
 21
-251.3473095238144
 72
     2
 10
-233.7087410208052
 20
-249.8204047619091
 40
1.526904761905882
 50
90.0
 51
270.0
 73
     0
 72
     1
 10
-233.7087410208052
 20
-248.2935000000032
 11
-230.5584212970242
 21
-248.2935000000032
 72
     1
 10
-230.5584212970242
 20
-248.2935000000032
 11
-230.5584212970242
 21
-248.9915136054462
 97
       12
330
43D
330
48F
330
43E
330
43F
330
440
330
441
330
41E
330
41D
330
41C
330
41B
330
442
330
43C
 92
       16
 93
        4
 72
     2
 10
-233.49246901064
 20
-249.6636735837886
 40
0.5179085730135266
 50
38.12041979714334
 51
141.8795802028489
 73
     1
 72
     2
 10
-233.2927289742937
 20
-249.8204047619091
 40
0.7717997786796724
 50
141.8795802028404
 51
218.1204197971562
 73
     1
 72
     2
 10
-233.49246901064
 20
-249.9771359400295
 40
0.5179085730134372
 50
218.1204197971511
 51
321.8795802028566
 73
     1
 72
     2
 10
-233.6922090469862
 20
-249.8204047619091
 40
0.7717997786796373
 50
321.8795802028437
 51
398.1204197971596
 73
     1
 97
        4
330
489
330
488
330
483
330
482
 75
     1
 76
     0
 52
45.0
 41
0.1
 77
     0
 78
     1
 53
45.0
 43
0.0
 44
0.0
 45
-0.0707106781186548
 46
0.0707106781186548
 79
     0
 98
        1
 10
0.0
 20
0.0
  0
HATCH
  5
4E1
330
71
100
AcDbEntity
  8
1
  6
Continuous
 62
     2
100
AcDbHatch
 10
0.0
 20
0.0
 30
0.0
210
0.0
220
0.0
230
1.0
  2
_USER
 70
     0
 71
     1
 91
        4
 92
        1
 93
        8
 72
     1
 10
-242.4863483186938
 20
-248.7177446154052
 11
-242.4863483186938
 21
-254.2822553846054
 72
     2
 10
-242.9105929340777
 20
-254.2822553846054
 40
0.4242446153832873
 50
0.0
 51
90.0
 73
     0
 72
     1
 10
-242.9105929340777
 20
-254.7064999999887
 11
-248.3839050247945
 21
-254.7064999999887
 72
     2
 10
-248.3839050247945
 20
-254.2822553846054
 40
0.4242446153828041
 50
90.0
 51
180.0
 73
     0
 72
     1
 10
-248.8081496401773
 20
-254.2822553846054
 11
-248.8081496401773
 21
-248.7177446154052
 72
     2
 10
-248.3839050247945
 20
-248.7177446154052
 40
0.4242446153837989
 50
180.0
 51
270.0
 73
     0
 72
     1
 10
-248.3839050247945
 20
-248.2935000000214
 11
-242.9105929340777
 21
-248.2935000000214
 72
     2
 10
-242.9105929340777
 20
-248.7177446154052
 40
0.4242446153838841
 50
270.0
 51
360.0
 73
     0
 97
        8
330
431
330
47F
330
432
330
48A
330
42F
330
481
330
430
330
480
 92
       16
 93
        1
 72
     2
 10
-245.764319374277
 20
-251.0366268437607
 40
0.4709789327785074
 50
0.0
 51
360.0
 73
     1
 97
        1
330
4A5
 92
       16
 93
        8
 72
     2
 10
-245.2144616615163
 20
-252.1457684437291
 40
0.3157169230765328
 50
115.3740086783519
 51
180.0
 73
     1
 72
     1
 10
-245.5301785845931
 20
-252.1457684437291
 11
-245.5301785845931
 21
-252.7276198504242
 72
     2
 10
-245.2144616615163
 20
-252.7276198504242
 40
0.315716923076792
 50
180.0
 51
269.8110329574542
 73
     1
 72
     2
 10
-245.2088455262063
 20
-251.0247849028552
 40
2.018561131933266
 50
269.8110329575858
 51
450.1889670424142
 73
     1
 72
     2
 10
-245.2144616615163
 20
-249.3219499552861
 40
0.3157169230760711
 50
90.18896704254594
 51
180.0
 73
     1
 72
     1
 10
-245.5301785845931
 20
-249.3219499552861
 11
-245.5301785845931
 21
-249.9274852437929
 72
     2
 10
-245.2144616615163
 20
-249.9274852437929
 40
0.315716923076792
 50
180.0
 51
244.6259913216482
 73
     1
 72
     2
 10
-245.7405043596042
 20
-251.0366268437607
 40
0.911848150144459
 50
295.3740086781925
 51
424.6259913218236
 73
     0
 97
        8
330
497
330
3F8
330
494
330
495
330
473
330
3F7
330
496
330
472
 92
       16
 93
       12
 72
     2
 10
-247.790010348048
 20
-253.6782275213551
 40
0.3157169230756836
 50
180.0
 51
270.0
 73
     1
 72
     1
 10
-247.790010348048
 20
-253.9939444444318
 11
-246.3141770870384
 21
-253.9939444444318
 72
     2
 10
-246.3141770870384
 20
-253.6782275213551
 40
0.3157169230767067
 50
270.0
 51
360.0
 73
     1
 72
     1
 10
-245.9984601639618
 20
-253.6782275213551
 11
-245.9984601639618
 21
-252.1474565898235
 72
     2
 10
-246.3141770870384
 20
-252.1474565898235
 40
0.315716923076593
 50
0.0
 51
64.80558935146027
 73
     1
 72
     2
 10
-245.7915926394634
 20
-251.0366268437607
 40
0.9118975235576147
 50
115.1944106485122
 51
244.8055893514718
 73
     0
 72
     2
 10
-246.3141770870384
 20
-249.9257970976985
 40
0.3157169230761203
 50
295.1944106485397
 51
360.0
 73
     1
 72
     1
 10
-245.9984601639618
 20
-249.9257970976985
 11
-245.9984601639618
 21
-249.321772478638
 72
     2
 10
-246.3141770870384
 20
-249.321772478638
 40
0.315716923076593
 50
0.0
 51
90.0
 73
     1
 72
     1
 10
-246.3141770870384
 20
-249.0060555555618
 11
-247.790010348048
 21
-249.0060555555618
 72
     2
 10
-247.790010348048
 20
-249.321772478638
 40
0.3157169230761951
 50
90.0
 51
180.0
 73
     1
 72
     1
 10
-248.1057272711237
 20
-249.321772478638
 11
-248.1057272711237
 21
-253.6782275213551
 97
       12
330
47B
330
433
330
47E
330
42E
330
48B
330
48C
330
47D
330
42D
330
47C
330
42C
330
48D
330
42B
 75
     1
 76
     0
 52
45.0
 41
0.1
 77
     0
 78
     1
 53
45.0
 43
0.0
 44
0.0
 45
-0.0707106781186548
 46
0.0707106781186548
 79
     0
 98
        1
 10
0.0
 20
0.0
  0
HATCH
  5
4E2
330
71
100
AcDbEntity
  8
1
  6
Continuous
 62
     2
100
AcDbHatch
 10
0.0
 20
0.0
 30
0.0
210
0.0
220
0.0
230
1.0
  2
_USER
 70
     0
 71
     1
 91
        4
 92
        1
 93
        8
 72
     1
 10
-242.4863483186938
 20
-248.7177446154052
 11
-242.4863483186938
 21
-254.2822553846054
 72
     2
 10
-242.9105929340777
 20
-254.2822553846054
 40
0.4242446153832873
 50
0.0
 51
90.0
 73
     0
 72
     1
 10
-242.9105929340777
 20
-254.7064999999887
 11
-248.3839050247945
 21
-254.7064999999887
 72
     2
 10
-248.3839050247945
 20
-254.2822553846054
 40
0.4242446153828041
 50
90.0
 51
180.0
 73
     0
 72
     1
 10
-248.8081496401773
 20
-254.2822553846054
 11
-248.8081496401773
 21
-248.7177446154052
 72
     2
 10
-248.3839050247945
 20
-248.7177446154052
 40
0.4242446153837989
 50
180.0
 51
270.0
 73
     0
 72
     1
 10
-248.3839050247945
 20
-248.2935000000214
 11
-242.9105929340777
 21
-248.2935000000214
 72
     2
 10
-242.9105929340777
 20
-248.7177446154052
 40
0.4242446153838841
 50
270.0
 51
360.0
 73
     0
 97
        8
330
431
330
47F
330
432
330
48A
330
42F
330
481
330
430
330
480
 92
       16
 93
        1
 72
     2
 10
-245.764319374277
 20
-251.0366268437607
 40
0.4709789327785074
 50
0.0
 51
360.0
 73
     1
 97
        1
330
4A5
 92
       16
 93
        8
 72
     2
 10
-245.2144616615163
 20
-252.1457684437291
 40
0.3157169230765328
 50
115.3740086783519
 51
180.0
 73
     1
 72
     1
 10
-245.5301785845931
 20
-252.1457684437291
 11
-245.5301785845931
 21
-252.7276198504242
 72
     2
 10
-245.2144616615163
 20
-252.7276198504242
 40
0.315716923076792
 50
180.0
 51
269.8110329574542
 73
     1
 72
     2
 10
-245.2088455262063
 20
-251.0247849028552
 40
2.018561131933266
 50
269.8110329575858
 51
450.1889670424142
 73
     1
 72
     2
 10
-245.2144616615163
 20
-249.3219499552861
 40
0.3157169230760711
 50
90.18896704254594
 51
180.0
 73
     1
 72
     1
 10
-245.5301785845931
 20
-249.3219499552861
 11
-245.5301785845931
 21
-249.9274852437929
 72
     2
 10
-245.2144616615163
 20
-249.9274852437929
 40
0.315716923076792
 50
180.0
 51
244.6259913216482
 73
     1
 72
     2
 10
-245.7405043596042
 20
-251.0366268437607
 40
0.911848150144459
 50
295.3740086781925
 51
424.6259913218236
 73
     0
 97
        8
330
497
330
3F8
330
494
330
495
330
473
330
3F7
330
496
330
472
 92
       16
 93
       12
 72
     2
 10
-247.790010348048
 20
-253.6782275213551
 40
0.3157169230756836
 50
180.0
 51
270.0
 73
     1
 72
     1
 10
-247.790010348048
 20
-253.9939444444318
 11
-246.3141770870384
 21
-253.9939444444318
 72
     2
 10
-246.3141770870384
 20
-253.6782275213551
 40
0.3157169230767067
 50
270.0
 51
360.0
 73
     1
 72
     1
 10
-245.9984601639618
 20
-253.6782275213551
 11
-245.9984601639618
 21
-252.1474565898235
 72
     2
 10
-246.3141770870384
 20
-252.1474565898235
 40
0.315716923076593
 50
0.0
 51
64.80558935146027
 73
     1
 72
     2
 10
-245.7915926394634
 20
-251.0366268437607
 40
0.9118975235576147
 50
115.1944106485122
 51
244.8055893514718
 73
     0
 72
     2
 10
-246.3141770870384
 20
-249.9257970976985
 40
0.3157169230761203
 50
295.1944106485397
 51
360.0
 73
     1
 72
     1
 10
-245.9984601639618
 20
-249.9257970976985
 11
-245.9984601639618
 21
-249.321772478638
 72
     2
 10
-246.3141770870384
 20
-249.321772478638
 40
0.315716923076593
 50
0.0
 51
90.0
 73
     1
 72
     1
 10
-246.3141770870384
 20
-249.0060555555618
 11
-247.790010348048
 21
-249.0060555555618
 72
     2
 10
-247.790010348048
 20
-249.321772478638
 40
0.3157169230761951
 50
90.0
 51
180.0
 73
     1
 72
     1
 10
-248.1057272711237
 20
-249.321772478638
 11
-248.1057272711237
 21
-253.6782275213551
 97
       12
330
47B
330
433
330
47E
330
42E
330
48B
330
48C
330
47D
330
42D
330
47C
330
42C
330
48D
330
42B
 75
     1
 76
     0
 52
45.0
 41
0.1
 77
     0
 78
     1
 53
45.0
 43
0.0
 44
0.0
 45
-0.0707106781186548
 46
0.0707106781186548
 79
     0
 98
        1
 10
0.0
 20
0.0
  0
HATCH
  5
4E3
330
71
100
AcDbEntity
  8
1
  6
Continuous
 62
     2
100
AcDbHatch
 10
0.0
 20
0.0
 30
0.0
210
0.0
220
0.0
230
1.0
  2
_USER
 70
     0
 71
     1
 91
        1
 92
        1
 93
       18
 72
     1
 10
-220.8968004094728
 20
-252.4379557823012
 11
-221.7078994469462
 21
-252.4379557823012
 72
     1
 10
-221.7078994469462
 20
-252.4379557823012
 11
-221.7078994469462
 21
-254.7064999999887
 72
     1
 10
-221.7078994469462
 20
-254.7064999999887
 11
-222.9006921491139
 21
-254.7064999999887
 72
     1
 10
-222.9006921491139
 20
-254.7064999999887
 11
-222.9006921491139
 21
-252.4379557823012
 72
     1
 10
-222.9006921491139
 20
-252.4379557823012
 11
-224.004331448682
 21
-252.4379557823012
 72
     2
 10
-224.004331448682
 20
-253.3924787891273
 40
0.9545230068260935
 50
90.0
 51
109.337143219432
 73
     1
 72
     2
 10
-224.1510014467857
 20
-252.9745238087444
 40
0.5115800601944143
 50
109.3371432194853
 51
151.4785267424225
 73
     1
 72
     2
 10
-223.7736441887043
 20
-253.1795952380834
 40
0.9410597353348924
 50
151.4785267423624
 51
208.5214732576695
 73
     1
 72
     2
 10
-224.1510014467857
 20
-253.3846666674219
 40
0.5115800601960215
 50
208.5214732576866
 51
246.6277221118449
 73
     1
 72
     2
 10
-223.9945614140826
 20
-253.0226746487119
 40
0.9059297849852801
 50
246.6277221118183
 51
288.4480761180817
 73
     1
 72
     2
 10
-224.4127291477445
 20
-251.7691288726753
 40
2.227384008972746
 50
288.4480761181335
 51
301.9309089499397
 73
     1
 72
     1
 10
-223.2346741057206
 20
-253.6594795918251
 11
-223.2346741057206
 21
-254.5319965986284
 72
     2
 10
-224.5706020228373
 20
-249.866914292827
 40
4.852596863498825
 50
74.02000874166129
 51
84.84185523036365
 73
     0
 72
     2
 10
-224.2817459281015
 20
-253.0668048760486
 40
1.639695123940448
 50
84.8418552303238
 51
164.9381082228988
 73
     0
 72
     2
 10
-224.7008737715631
 20
-253.1795952380834
 40
1.205656168393002
 50
164.9381082229041
 51
195.0618917770972
 73
     0
 72
     2
 10
-224.2817459281015
 20
-253.2923856001183
 40
1.639695123940214
 50
195.061891777105
 51
270.0
 73
     0
 72
     1
 10
-224.2817459281015
 20
-251.6526904761781
 11
-220.8968004094728
 21
-251.6526904761776
 72
     1
 10
-220.8968004094728
 20
-251.6526904761776
 11
-220.8968004094728
 21
-252.4379557823012
 97
       18
330
3FA
330
490
330
491
330
479
330
478
330
45E
330
477
330
476
330
492
330
475
330
493
330
474
330
45F
330
3F9
330
3FE
330
3FD
330
3FC
330
3FB
 75
     1
 76
     0
 52
45.0
 41
0.1
 77
     0
 78
     1
 53
45.0
 43
0.0
 44
0.0
 45
-0.0707106781186548
 46
0.0707106781186548
 79
     0
 98
        1
 10
0.0
 20
0.0
  0
HATCH
  5
4E4
330
71
100
AcDbEntity
  8
1
  6
Continuous
 62
     2
100
AcDbHatch
 10
0.0
 20
0.0
 30
0.0
210
0.0
220
0.0
230
1.0
  2
_USER
 70
     0
 71
     1
 91
        1
 92
        1
 93
       18
 72
     1
 10
-220.8968004094728
 20
-252.4379557823012
 11
-221.7078994469462
 21
-252.4379557823012
 72
     1
 10
-221.7078994469462
 20
-252.4379557823012
 11
-221.7078994469462
 21
-254.7064999999887
 72
     1
 10
-221.7078994469462
 20
-254.7064999999887
 11
-222.9006921491139
 21
-254.7064999999887
 72
     1
 10
-222.9006921491139
 20
-254.7064999999887
 11
-222.9006921491139
 21
-252.4379557823012
 72
     1
 10
-222.9006921491139
 20
-252.4379557823012
 11
-224.004331448682
 21
-252.4379557823012
 72
     2
 10
-224.004331448682
 20
-253.3924787891273
 40
0.9545230068260935
 50
90.0
 51
109.337143219432
 73
     1
 72
     2
 10
-224.1510014467857
 20
-252.9745238087444
 40
0.5115800601944143
 50
109.3371432194853
 51
151.4785267424225
 73
     1
 72
     2
 10
-223.7736441887043
 20
-253.1795952380834
 40
0.9410597353348924
 50
151.4785267423624
 51
208.5214732576695
 73
     1
 72
     2
 10
-224.1510014467857
 20
-253.3846666674219
 40
0.5115800601960215
 50
208.5214732576866
 51
246.6277221118449
 73
     1
 72
     2
 10
-223.9945614140826
 20
-253.0226746487119
 40
0.9059297849852801
 50
246.6277221118183
 51
288.4480761180817
 73
     1
 72
     2
 10
-224.4127291477445
 20
-251.7691288726753
 40
2.227384008972746
 50
288.4480761181335
 51
301.9309089499397
 73
     1
 72
     1
 10
-223.2346741057206
 20
-253.6594795918251
 11
-223.2346741057206
 21
-254.5319965986284
 72
     2
 10
-224.5706020228373
 20
-249.866914292827
 40
4.852596863498825
 50
74.02000874166129
 51
84.84185523036365
 73
     0
 72
     2
 10
-224.2817459281015
 20
-253.0668048760486
 40
1.639695123940448
 50
84.8418552303238
 51
164.9381082228988
 73
     0
 72
     2
 10
-224.7008737715631
 20
-253.1795952380834
 40
1.205656168393002
 50
164.9381082229041
 51
195.0618917770972
 73
     0
 72
     2
 10
-224.2817459281015
 20
-253.2923856001183
 40
1.639695123940214
 50
195.061891777105
 51
270.0
 73
     0
 72
     1
 10
-224.2817459281015
 20
-251.6526904761781
 11
-220.8968004094728
 21
-251.6526904761776
 72
     1
 10
-220.8968004094728
 20
-251.6526904761776
 11
-220.8968004094728
 21
-252.4379557823012
 97
       18
330
3FA
330
490
330
491
330
479
330
478
330
45E
330
477
330
476
330
492
330
475
330
493
330
474
330
45F
330
3F9
330
3FE
330
3FD
330
3FC
330
3FB
 75
     1
 76
     0
 52
45.0
 41
0.1
 77
     0
 78
     1
 53
45.0
 43
0.0
 44
0.0
 45
-0.0707106781186548
 46
0.0707106781186548
 79
     0
 98
        1
 10
0.0
 20
0.0
  0
HATCH
  5
4E5
330
71
100
AcDbEntity
  8
1
  6
Continuous
 62
     2
100
AcDbHatch
 10
0.0
 20
0.0
 30
0.0
210
0.0
220
0.0
230
1.0
  2
_USER
 70
     0
 71
     1
 91
        1
 92
        1
 93
       14
 72
     2
 10
-240.3844474073544
 20
-253.2923856001183
 40
1.639695123940507
 50
84.84185523036236
 51
164.9381082228864
 73
     1
 72
     2
 10
-240.8035752508172
 20
-253.1795952380834
 40
1.205656168390944
 50
164.9381082228765
 51
195.0618917770948
 73
     1
 72
     2
 10
-240.3844474073544
 20
-253.0668048760486
 40
1.639695123939387
 50
195.0618917770896
 51
275.1581447696395
 73
     1
 72
     2
 10
-240.6733035020903
 20
-249.866914292827
 40
4.852596863498138
 50
275.1581447696249
 51
285.9799912583529
 73
     1
 72
     1
 10
-239.3373755849725
 20
-254.5319965986278
 11
-239.3373755849725
 21
-253.6594795918246
 72
     2
 10
-240.5154306269974
 20
-251.7691288726747
 40
2.227384008972737
 50
58.0690910500407
 51
71.55192388186722
 73
     0
 72
     2
 10
-240.0972628933366
 20
-253.0226746487119
 40
0.9059297849849192
 50
71.55192388184153
 51
113.372277888129
 73
     0
 72
     2
 10
-240.2537029260386
 20
-253.3846666674219
 40
0.5115800601948034
 50
113.3722778881726
 51
151.4785267423044
 73
     0
 72
     2
 10
-239.8763456679583
 20
-253.1795952380834
 40
0.9410597353332545
 50
151.4785267422943
 51
208.5214732577331
 73
     0
 72
     2
 10
-240.2537029260386
 20
-252.9745238087444
 40
0.5115800601948779
 50
208.5214732576956
 51
246.6277221118009
 73
     0
 72
     2
 10
-240.0972628933366
 20
-253.336515827455
 40
0.9059297849853228
 50
246.627722111871
 51
288.4480761181465
 73
     0
 72
     2
 10
-240.5154306269974
 20
-254.5900616034916
 40
2.227384008973478
 50
288.4480761181328
 51
301.9309089499592
 73
     0
 72
     1
 10
-239.3373755849725
 20
-252.6997108843417
 11
-239.3373755849725
 21
-251.8271938775384
 72
     2
 10
-240.6733035020903
 20
-256.4922761833393
 40
4.852596863498068
 50
74.02000874164739
 51
84.84185523037506
 73
     1
 97
       14
330
498
330
499
330
49A
330
49B
330
460
330
471
330
470
330
46F
330
49C
330
49D
330
46E
330
49E
330
461
330
46D
 75
     1
 76
     0
 52
45.0
 41
0.1
 77
     0
 78
     1
 53
45.0
 43
0.0
 44
0.0
 45
-0.0707106781186548
 46
0.0707106781186548
 79
     0
 98
        1
 10
0.0
 20
0.0
  0
HATCH
  5
4E6
330
71
100
AcDbEntity
  8
1
  6
Continuous
 62
     2
100
AcDbHatch
 10
0.0
 20
0.0
 30
0.0
210
0.0
220
0.0
230
1.0
  2
_USER
 70
     0
 71
     1
 91
        1
 92
        1
 93
       14
 72
     2
 10
-240.3844474073544
 20
-253.2923856001183
 40
1.639695123940507
 50
84.84185523036236
 51
164.9381082228864
 73
     1
 72
     2
 10
-240.8035752508172
 20
-253.1795952380834
 40
1.205656168390944
 50
164.9381082228765
 51
195.0618917770948
 73
     1
 72
     2
 10
-240.3844474073544
 20
-253.0668048760486
 40
1.639695123939387
 50
195.0618917770896
 51
275.1581447696395
 73
     1
 72
     2
 10
-240.6733035020903
 20
-249.866914292827
 40
4.852596863498138
 50
275.1581447696249
 51
285.9799912583529
 73
     1
 72
     1
 10
-239.3373755849725
 20
-254.5319965986278
 11
-239.3373755849725
 21
-253.6594795918246
 72
     2
 10
-240.5154306269974
 20
-251.7691288726747
 40
2.227384008972737
 50
58.0690910500407
 51
71.55192388186722
 73
     0
 72
     2
 10
-240.0972628933366
 20
-253.0226746487119
 40
0.9059297849849192
 50
71.55192388184153
 51
113.372277888129
 73
     0
 72
     2
 10
-240.2537029260386
 20
-253.3846666674219
 40
0.5115800601948034
 50
113.3722778881726
 51
151.4785267423044
 73
     0
 72
     2
 10
-239.8763456679583
 20
-253.1795952380834
 40
0.9410597353332545
 50
151.4785267422943
 51
208.5214732577331
 73
     0
 72
     2
 10
-240.2537029260386
 20
-252.9745238087444
 40
0.5115800601948779
 50
208.5214732576956
 51
246.6277221118009
 73
     0
 72
     2
 10
-240.0972628933366
 20
-253.336515827455
 40
0.9059297849853228
 50
246.627722111871
 51
288.4480761181465
 73
     0
 72
     2
 10
-240.5154306269974
 20
-254.5900616034916
 40
2.227384008973478
 50
288.4480761181328
 51
301.9309089499592
 73
     0
 72
     1
 10
-239.3373755849725
 20
-252.6997108843417
 11
-239.3373755849725
 21
-251.8271938775384
 72
     2
 10
-240.6733035020903
 20
-256.4922761833393
 40
4.852596863498068
 50
74.02000874164739
 51
84.84185523037506
 73
     1
 97
       14
330
498
330
499
330
49A
330
49B
330
460
330
471
330
470
330
46F
330
49C
330
49D
330
46E
330
49E
330
461
330
46D
 75
     1
 76
     0
 52
45.0
 41
0.1
 77
     0
 78
     1
 53
45.0
 43
0.0
 44
0.0
 45
-0.0707106781186548
 46
0.0707106781186548
 79
     0
 98
        1
 10
0.0
 20
0.0
  0
ENDBLK
  5
73
330
71
100
AcDbEntity
  8
0
100
AcDbBlockEnd
  0
BLOCK
  5
75
330
74
100
AcDbEntity
  8
0
100
AcDbBlockBegin
  2
_punkt
 70
     0
 10
-123.4999999999899
 20
-262.000000000005
 30
0.0
  3
_punkt
  1

  0
LINE
  5
4E7
330
74
100
AcDbEntity
  8
1
  6
Continuous
 62
     2
100
AcDbLine
 10
-123.4999999999899
 20
-262.000000000005
 30
0.0
 11
-118.4999999999909
 21
-262.000000000005
 31
0.0
  0
LINE
  5
4E8
330
74
100
AcDbEntity
  8
1
  6
Continuous
 62
     2
100
AcDbLine
 10
-123.4999999999899
 20
-262.000000000005
 30
0.0
 11
-123.4999999999899
 21
-267.0000000000051
 31
0.0
  0
ENDBLK
  5
76
330
74
100
AcDbEntity
  8
0
100
AcDbBlockEnd
  0
BLOCK
  5
7A
330
77
100
AcDbEntity
  8
0
100
AcDbBlockBegin
  2
A4I_CS
 70
     0
 10
-123.4999999999899
 20
-267.0000000000051
 30
0.0
  3
A4I_CS
  1

  0
INSERT
  5
78
330
77
100
AcDbEntity
  8
1
100
AcDbBlockReference
  2
_rahmen
 10
-123.4999999999899
 20
-267.0000000000051
 30
0.0
  0
INSERT
  5
79
330
77
100
AcDbEntity
  8
1
100
AcDbBlockReference
  2
_punkt
 10
-123.4999999999899
 20
-262.000000000005
 30
0.0
  0
ENDBLK
  5
7B
330
77
100
AcDbEntity
  8
0
100
AcDbBlockEnd
  0
BLOCK
  5
84
330
7C
100
AcDbEntity
  8
0
100
AcDbBlockBegin
  2
1
 70
     0
 10
0.0
 20
0.0
 30
0.0
  3
1
  1

  0
INSERT
  5
7D
330
7C
100
AcDbEntity
  8
0
100
AcDbBlockReference
  2
Allg1
 10
-177.300006308663
 20
-195.9999996222
 30
0.0
  0
INSERT
  5
7E
330
7C
100
AcDbEntity
  8
0
100
AcDbBlockReference
  2
Drfsicht1
 10
-289.0000015111169
 20
-210.0
 30
0.0
  0
INSERT
  5
7F
330
7C
100
AcDbEntity
  8
0
100
AcDbBlockReference
  2
Rckans1
 10
-177.30000570185
 20
-124.9999985694685
 30
0.0
  0
INSERT
  5
80
330
7C
100
AcDbEntity
  8
0
100
AcDbBlockReference
  2
SA_Links1
 10
-229.6500036064896
 20
-124.9999985694685
 30
0.0
  0
INSERT
  5
81
330
7C
100
AcDbEntity
  8
0
100
AcDbBlockReference
  2
SA_Rechts1
 10
-359.350000393515
 20
-124.9999985694685
 30
0.0
  0
INSERT
  5
82
330
7C
100
AcDbEntity
  8
0
100
AcDbBlockReference
  2
Vordans1
 10
-289.0000015111169
 20
-124.9999985694685
 30
0.0
  0
INSERT
  5
83
330
7C
100
AcDbEntity
  8
0
100
AcDbBlockReference
  2
A4I_CS
 10
-123.4999999999899
 20
-267.0000000000051
 30
0.0
  0
ENDBLK
  5
85
330
7C
100
AcDbEntity
  8
0
100
AcDbBlockEnd
  0
BLOCK
  5
1D2
330
1C9
100
AcDbEntity
  8
0
100
AcDbBlockBegin
  2
*D17
 70
     1
 10
0.0
 20
0.0
 30
0.0
  3
*D17
  1

  0
LINE
  5
1CA
330
1C9
100
AcDbEntity
  8
1
  6
Continuous
 62
     2
100
AcDbLine
 10
-315.6000067265591
 20
-221.0749999999952
 30
0.0
 11
-315.6000067265591
 21
-214.0749999999952
 31
0.0
  0
LINE
  5
1CB
330
1C9
100
AcDbEntity
  8
1
  6
Continuous
 62
     2
100
AcDbLine
 10
-315.6000067265591
 20
-214.0749999999952
 30
0.0
 11
-315.6000067265591
 21
-205.9249999999952
 31
0.0
  0
LINE
  5
1CC
330
1C9
100
AcDbEntity
  8
1
  6
Continuous
 62
     2
100
AcDbLine
 10
-315.6000067265591
 20
-205.9249999999952
 30
0.0
 11
-315.6000067265591
 21
-190.6701585754491
 31
0.0
  0
LINE
  5
1CD
330
1C9
100
AcDbEntity
  8
1
  6
Continuous
 62
     2
100
AcDbLine
 10
-302.6000065333518
 20
-214.0749999999952
 30
0.0
 11
-317.1000067265591
 21
-214.0749999999952
 31
0.0
  0
LINE
  5
1CE
330
1C9
100
AcDbEntity
  8
1
  6
Continuous
 62
     2
100
AcDbLine
 10
-302.6000065333518
 20
-205.9249999999952
 30
0.0
 11
-317.1000067265591
 21
-205.9249999999952
 31
0.0
  0
SOLID
  5
1CF
330
1C9
100
AcDbEntity
  8
1
 62
     2
100
AcDbTrace
 10
-315.1392229850032
 20
-217.5749999999952
 30
0.0
 11
-316.060790468115
 21
-217.5749999999952
 31
0.0
 12
-315.6000067265591
 22
-214.0749999999952
 32
0.0
 13
-315.6000067265591
 23
-214.0749999999952
 33
0.0
  0
SOLID
  5
1D0
330
1C9
100
AcDbEntity
  8
1
 62
     2
100
AcDbTrace
 10
-316.060790468115
 20
-202.4249999999952
 30
0.0
 11
-315.1392229850032
 21
-202.4249999999952
 31
0.0
 12
-315.6000067265591
 22
-205.9249999999952
 32
0.0
 13
-315.6000067265591
 23
-205.9249999999952
 33
0.0
  0
MTEXT
  5
1D1
330
1C9
100
AcDbEntity
  8
1
 62
     3
100
AcDbMText
 10
-317.9500067265591
 20
-199.2451585754491
 30
0.0
 40
3.5
 41
0.0
 71
     7
 72
     1
  1
8,15
  7
CONVERTER_11
 11
0.0
 21
1.0
 31
0.0
 73
     1
 44
0.60024009603842
  0
ENDBLK
  5
1D3
330
1C9
100
AcDbEntity
  8
0
100
AcDbBlockEnd
  0
BLOCK
  5
380
330
379
100
AcDbEntity
  8
0
100
AcDbBlockBegin
  2
*D18
 70
     1
 10
0.0
 20
0.0
 30
0.0
  3
*D18
  1

  0
LINE
  5
37A
330
379
100
AcDbEntity
  8
1
  6
Continuous
 62
     2
100
AcDbLine
 10
-310.2500065333518
 20
-177.728940373191
 30
0.0
 11
-267.7500065333518
 21
-177.728940373191
 31
0.0
  0
LINE
  5
37B
330
379
100
AcDbEntity
  8
1
  6
Continuous
 62
     2
100
AcDbLine
 10
-310.2500065333518
 20
-112.4918569344195
 30
0.0
 11
-310.2500065333518
 21
-179.228940373191
 31
0.0
  0
LINE
  5
37C
330
379
100
AcDbEntity
  8
1
  6
Continuous
 62
     2
100
AcDbLine
 10
-267.7500065333518
 20
-112.4918569344195
 30
0.0
 11
-267.7500065333518
 21
-179.228940373191
 31
0.0
  0
SOLID
  5
37D
330
379
100
AcDbEntity
  8
1
 62
     2
100
AcDbTrace
 10
-306.7500065333518
 20
-177.2681566316352
 30
0.0
 11
-306.7500065333518
 21
-178.1897241147469
 31
0.0
 12
-310.2500065333518
 22
-177.728940373191
 32
0.0
 13
-310.2500065333518
 23
-177.728940373191
 33
0.0
  0
SOLID
  5
37E
330
379
100
AcDbEntity
  8
1
 62
     2
100
AcDbTrace
 10
-271.2500065333518
 20
-178.1897241147469
 30
0.0
 11
-271.2500065333518
 21
-177.2681566316352
 31
0.0
 12
-267.7500065333518
 22
-177.728940373191
 32
0.0
 13
-267.7500065333518
 23
-177.728940373191
 33
0.0
  0
MTEXT
  5
37F
330
379
100
AcDbEntity
  8
1
 62
     3
100
AcDbMText
 10
-293.8125015111169
 20
-175.378940373191
 30
0.0
 40
3.5
 41
0.0
 71
     7
 72
     1
  1
42,5
  7
CONVERTER_11
 11
0.9999999999970619
 21
2.424068405545306E-6
 31
0.0
 73
     1
 44
0.60024009603842
  0
ENDBLK
  5
381
330
379
100
AcDbEntity
  8
0
100
AcDbBlockEnd
  0
BLOCK
  5
38B
330
384
100
AcDbEntity
  8
0
100
AcDbBlockBegin
  2
*D19
 70
     1
 10
0.0
 20
0.0
 30
0.0
  3
*D19
  1

  0
LINE
  5
385
330
384
100
AcDbEntity
  8
1
  6
Continuous
 62
     2
100
AcDbLine
 10
-315.600006726559
 20
-102.0999985057153
 30
0.0
 11
-315.600006726559
 21
-141.5999988786179
 31
0.0
  0
LINE
  5
386
330
384
100
AcDbEntity
  8
1
  6
Continuous
 62
     2
100
AcDbLine
 10
-302.1000065333517
 20
-102.0999985057153
 30
0.0
 11
-317.100006726559
 21
-102.0999985057153
 31
0.0
  0
LINE
  5
387
330
384
100
AcDbEntity
  8
1
  6
Continuous
 62
     2
100
AcDbLine
 10
-305.6000067265591
 20
-141.5999988786179
 30
0.0
 11
-317.100006726559
 21
-141.5999988786179
 31
0.0
  0
SOLID
  5
388
330
384
100
AcDbEntity
  8
1
 62
     2
100
AcDbTrace
 10
-315.1392229850031
 20
-105.5999985057153
 30
0.0
 11
-316.0607904681149
 21
-105.5999985057153
 31
0.0
 12
-315.600006726559
 22
-102.0999985057153
 32
0.0
 13
-315.600006726559
 23
-102.0999985057153
 33
0.0
  0
SOLID
  5
389
330
384
100
AcDbEntity
  8
1
 62
     2
100
AcDbTrace
 10
-316.0607904681149
 20
-138.0999988786179
 30
0.0
 11
-315.1392229850031
 21
-138.0999988786179
 31
0.0
 12
-315.600006726559
 22
-141.5999988786179
 32
0.0
 13
-315.600006726559
 23
-141.5999988786179
 33
0.0
  0
MTEXT
  5
38A
330
384
100
AcDbEntity
  8
1
 62
     3
100
AcDbMText
 10
-317.450006726559
 20
-126.051774869481
 30
0.0
 40
3.5
 41
0.0
 71
     7
 72
     1
  1
39,5
  7
CONVERTER_11
 11
0.0
 21
1.0
 31
0.0
 73
     1
 44
0.60024009603842
  0
ENDBLK
  5
38C
330
384
100
AcDbEntity
  8
0
100
AcDbBlockEnd
  0
BLOCK
  5
396
330
38F
100
AcDbEntity
  8
0
100
AcDbBlockBegin
  2
*D20
 70
     1
 10
0.0
 20
0.0
 30
0.0
  3
*D20
  1

  0
LINE
  5
390
330
38F
100
AcDbEntity
  8
1
  6
Continuous
 62
     2
100
AcDbLine
 10
-323.600006726559
 20
-102.0999985057153
 30
0.0
 11
-323.600006726559
 21
-147.8999988786179
 31
0.0
  0
LINE
  5
391
330
38F
100
AcDbEntity
  8
1
  6
Continuous
 62
     2
100
AcDbLine
 10
-302.1000065333517
 20
-102.0999985057153
 30
0.0
 11
-325.100006726559
 21
-102.0999985057153
 31
0.0
  0
LINE
  5
392
330
38F
100
AcDbEntity
  8
1
  6
Continuous
 62
     2
100
AcDbLine
 10
-281.900006726559
 20
-147.8999988786179
 30
0.0
 11
-325.100006726559
 21
-147.8999988786179
 31
0.0
  0
SOLID
  5
393
330
38F
100
AcDbEntity
  8
1
 62
     2
100
AcDbTrace
 10
-323.1392229850031
 20
-105.5999985057153
 30
0.0
 11
-324.0607904681149
 21
-105.5999985057153
 31
0.0
 12
-323.600006726559
 22
-102.0999985057153
 32
0.0
 13
-323.600006726559
 23
-102.0999985057153
 33
0.0
  0
SOLID
  5
394
330
38F
100
AcDbEntity
  8
1
 62
     2
100
AcDbTrace
 10
-324.0607904681149
 20
-144.3999988786179
 30
0.0
 11
-323.1392229850031
 21
-144.3999988786179
 31
0.0
 12
-323.600006726559
 22
-147.8999988786179
 32
0.0
 13
-323.600006726559
 23
-147.8999988786179
 33
0.0
  0
MTEXT
  5
395
330
38F
100
AcDbEntity
  8
1
 62
     3
100
AcDbMText
 10
-325.450006726559
 20
-129.8124986921666
 30
0.0
 40
3.5
 41
0.0
 71
     7
 72
     1
  1
45,8
  7
CONVERTER_11
 11
0.0
 21
1.0
 31
0.0
 73
     1
 44
0.60024009603842
  0
ENDBLK
  5
397
330
38F
100
AcDbEntity
  8
0
100
AcDbBlockEnd
  0
BLOCK
  5
3A1
330
39A
100
AcDbEntity
  8
0
100
AcDbBlockBegin
  2
*D21
 70
     1
 10
0.0
 20
0.0
 30
0.0
  3
*D21
  1

  0
LINE
  5
39B
330
39A
100
AcDbEntity
  8
1
  6
Continuous
 62
     2
100
AcDbLine
 10
-289.3000067265592
 20
-159.098245934738
 30
0.0
 11
-271.8000067265592
 21
-159.098245934738
 31
0.0
  0
LINE
  5
39C
330
39A
100
AcDbEntity
  8
1
  6
Continuous
 62
     2
100
AcDbLine
 10
-289.3000067265592
 20
-140.193852894463
 30
0.0
 11
-289.3000067265592
 21
-160.598245934738
 31
0.0
  0
LINE
  5
39D
330
39A
100
AcDbEntity
  8
1
  6
Continuous
 62
     2
100
AcDbLine
 10
-271.8000067265592
 20
-140.193852894463
 30
0.0
 11
-271.8000067265592
 21
-160.598245934738
 31
0.0
  0
SOLID
  5
39E
330
39A
100
AcDbEntity
  8
1
 62
     2
100
AcDbTrace
 10
-285.8000067265592
 20
-158.6374621931821
 30
0.0
 11
-285.8000067265592
 21
-159.5590296762939
 31
0.0
 12
-289.3000067265592
 22
-159.098245934738
 32
0.0
 13
-289.3000067265592
 23
-159.098245934738
 33
0.0
  0
SOLID
  5
39F
330
39A
100
AcDbEntity
  8
1
 62
     2
100
AcDbTrace
 10
-275.3000067265592
 20
-159.5590296762939
 30
0.0
 11
-275.3000067265592
 21
-158.6374621931821
 31
0.0
 12
-271.8000067265592
 22
-159.098245934738
 32
0.0
 13
-271.8000067265592
 23
-159.098245934738
 33
0.0
  0
MTEXT
  5
3A0
330
39A
100
AcDbEntity
  8
1
 62
     3
100
AcDbMText
 10
-285.51588687546
 20
-157.248245934738
 30
0.0
 40
3.5
 41
0.0
 71
     7
 72
     1
  1
17,5
  7
CONVERTER_11
 11
0.9999999999970619
 21
2.424068405545306E-6
 31
0.0
 73
     1
 44
0.60024009603842
  0
ENDBLK
  5
3A2
330
39A
100
AcDbEntity
  8
0
100
AcDbBlockEnd
  0
BLOCK
  5
3AC
330
3A5
100
AcDbEntity
  8
0
100
AcDbBlockBegin
  2
*D22
 70
     1
 10
0.0
 20
0.0
 30
0.0
  3
*D22
  1

  0
LINE
  5
3A6
330
3A5
100
AcDbEntity
  8
1
  6
Continuous
 62
     2
100
AcDbLine
 10
-289.3000067265593
 20
-167.098245934738
 30
0.0
 11
-267.750006533352
 21
-167.098245934738
 31
0.0
  0
LINE
  5
3A7
330
3A5
100
AcDbEntity
  8
1
  6
Continuous
 62
     2
100
AcDbLine
 10
-289.3000067265593
 20
-140.193852894463
 30
0.0
 11
-289.3000067265593
 21
-168.598245934738
 31
0.0
  0
LINE
  5
3A8
330
3A5
100
AcDbEntity
  8
1
  6
Continuous
 62
     2
100
AcDbLine
 10
-267.750006533352
 20
-138.6999985057153
 30
0.0
 11
-267.750006533352
 21
-168.598245934738
 31
0.0
  0
SOLID
  5
3A9
330
3A5
100
AcDbEntity
  8
1
 62
     2
100
AcDbTrace
 10
-285.8000067265593
 20
-166.6374621931821
 30
0.0
 11
-285.8000067265593
 21
-167.5590296762939
 31
0.0
 12
-289.3000067265593
 22
-167.098245934738
 32
0.0
 13
-289.3000067265593
 23
-167.098245934738
 33
0.0
  0
SOLID
  5
3AA
330
3A5
100
AcDbEntity
  8
1
 62
     2
100
AcDbTrace
 10
-271.250006533352
 20
-167.5590296762939
 30
0.0
 11
-271.250006533352
 21
-166.6374621931821
 31
0.0
 12
-267.750006533352
 22
-167.098245934738
 32
0.0
 13
-267.750006533352
 23
-167.098245934738
 33
0.0
  0
MTEXT
  5
3AB
330
3A5
100
AcDbEntity
  8
1
 62
     3
100
AcDbMText
 10
-284.3875066299556
 20
-165.248245934738
 30
0.0
 40
3.5
 41
0.0
 71
     7
 72
     1
  1
21,55
  7
CONVERTER_11
 11
0.9999999999970619
 21
2.424068405545306E-6
 31
0.0
 73
     1
 44
0.60024009603842
  0
ENDBLK
  5
3AD
330
3A5
100
AcDbEntity
  8
0
100
AcDbBlockEnd
  0
ENDSEC
  0
SECTION
  2
ENTITIES
  0
INSERT
  5
86
330
1F
100
AcDbEntity
  8
1
100
AcDbBlockReference
  2
1
 10
0.0
 20
0.0
 30
0.0
  0
ENDSEC
  0
SECTION
  2
OBJECTS
  0
DICTIONARY
  5
C
330
0
100
AcDbDictionary
281
     1
  3
ACAD_GROUP
350
D
  3
ACAD_LAYOUT
350
1A
  3
ACAD_MATERIAL
350
3B
  3
ACAD_MLEADERSTYLE
350
510
  3
ACAD_MLINESTYLE
350
17
  3
ACAD_PLOTSETTINGS
350
19
  3
ACAD_PLOTSTYLENAME
350
E
  3
ACAD_TABLESTYLE
350
50F
  3
ACAD_VISUALSTYLE
350
2A
  0
DICTIONARY
  5
D
102
{ACAD_REACTORS
330
C
102
}
330
C
100
AcDbDictionary
281
     1
  0
DICTIONARY
  5
1A
102
{ACAD_REACTORS
330
C
102
}
330
C
100
AcDbDictionary
281
     1
  3
Layout1
350
1E
  3
Layout2
350
26
  3
Model
350
22
  0
DICTIONARY
  5
3B
102
{ACAD_REACTORS
330
C
102
}
330
C
100
AcDbDictionary
281
     1
  3
ByBlock
350
3D
  3
ByLayer
350
3C
  3
Global
350
3E
  0
DICTIONARY
  5
510
102
{ACAD_REACTORS
330
C
102
}
330
C
100
AcDbDictionary
281
     1
  0
DICTIONARY
  5
17
102
{ACAD_REACTORS
330
C
102
}
330
C
100
AcDbDictionary
281
     1
  3
Standard
350
18
  0
DICTIONARY
  5
19
102
{ACAD_REACTORS
330
C
102
}
330
C
100
AcDbDictionary
281
     1
  0
ACDBDICTIONARYWDFLT
  5
E
102
{ACAD_REACTORS
330
C
102
}
330
C
100
AcDbDictionary
281
     1
  3
Normal
350
F
100
AcDbDictionaryWithDefault
340
F
  0
DICTIONARY
  5
50F
102
{ACAD_REACTORS
330
C
102
}
330
C
100
AcDbDictionary
281
     1
  0
DICTIONARY
  5
2A
102
{ACAD_REACTORS
330
C
102
}
330
C
100
AcDbDictionary
281
     1
  3
2dWireframe
350
2F
  3
3D Hidden
350
31
  3
3dWireframe
350
30
  3
Basic
350
32
  3
Brighten
350
36
  3
ColorChange
350
3A
  3
Conceptual
350
34
  3
Dim
350
35
  3
Facepattern
350
39
  3
Flat
350
2B
  3
FlatWithEdges
350
2C
  3
Gouraud
350
2D
  3
GouraudWithEdges
350
2E
  3
Linepattern
350
38
  3
Realistic
350
33
  3
Thicken
350
37
  0
LAYOUT
  5
1E
102
{ACAD_REACTORS
330
1A
102
}
330
1A
100
AcDbPlotSettings
  1

  2
none_device
  4

  6

 40
0.0
 41
0.0
 42
0.0
 43
0.0
 44
0.0
 45
0.0
 46
0.0
 47
0.0
 48
0.0
 49
0.0
140
0.0
141
0.0
142
1.0
143
1.0
 70
   688
 72
     0
 73
     0
 74
     5
  7

 75
    16
 76
     0
 77
     2
 78
   300
147
1.0
148
0.0
149
0.0
100
AcDbLayout
  1
Layout1
 70
     1
 71
     1
 10
0.0
 20
0.0
 11
12.0
 21
9.0
 12
0.0
 22
0.0
 32
0.0
 14
1.00000000000000E+20
 24
1.00000000000000E+20
 34
1.00000000000000E+20
 15
-1.00000000000000E+20
 25
-1.00000000000000E+20
 35
-1.00000000000000E+20
146
0.0
 13
0.0
 23
0.0
 33
0.0
 16
1.0
 26
0.0
 36
0.0
 17
0.0
 27
1.0
 37
0.0
 76
     0
330
1B
  0
LAYOUT
  5
26
102
{ACAD_REACTORS
330
1A
102
}
330
1A
100
AcDbPlotSettings
  1

  2
none_device
  4

  6

 40
0.0
 41
0.0
 42
0.0
 43
0.0
 44
0.0
 45
0.0
 46
0.0
 47
0.0
 48
0.0
 49
0.0
140
0.0
141
0.0
142
1.0
143
1.0
 70
   688
 72
     0
 73
     0
 74
     5
  7

 75
    16
 76
     0
 77
     2
 78
   300
147
1.0
148
0.0
149
0.0
100
AcDbLayout
  1
Layout2
 70
     1
 71
     2
 10
0.0
 20
0.0
 11
0.0
 21
0.0
 12
0.0
 22
0.0
 32
0.0
 14
0.0
 24
0.0
 34
0.0
 15
0.0
 25
0.0
 35
0.0
146
0.0
 13
0.0
 23
0.0
 33
0.0
 16
1.0
 26
0.0
 36
0.0
 17
0.0
 27
1.0
 37
0.0
 76
     0
330
23
  0
LAYOUT
  5
22
102
{ACAD_REACTORS
330
1A
102
}
330
1A
100
AcDbPlotSettings
  1

  2
none_device
  4

  6

 40
0.0
 41
0.0
 42
0.0
 43
0.0
 44
0.0
 45
0.0
 46
0.0
 47
0.0
 48
0.0
 49
0.0
140
0.0
141
0.0
142
1.0
143
1.0
 70
  1712
 72
     0
 73
     0
 74
     0
  7

 75
     0
 76
     0
 77
     2
 78
   300
147
1.0
148
0.0
149
0.0
100
AcDbLayout
  1
Model
 70
     1
 71
     0
 10
0.0
 20
0.0
 11
12.0
 21
9.0
 12
0.0
 22
0.0
 32
0.0
 14
-415.499999999989
 24
-267.0000000000051
 34
0.0
 15
-118.4999999999909
 25
-57.000000000005
 35
0.0
146
0.0
 13
0.0
 23
0.0
 33
0.0
 16
1.0
 26
0.0
 36
0.0
 17
0.0
 27
1.0
 37
0.0
 76
     0
330
1F
331
29
  0
MATERIAL
  5
3D
102
{ACAD_REACTORS
330
3B
102
}
102
{ACAD_XDICTIONARY
360
50B
102
}
330
3B
100
AcDbMaterial
  1
ByBlock
  0
MATERIAL
  5
3C
102
{ACAD_REACTORS
330
3B
102
}
102
{ACAD_XDICTIONARY
360
509
102
}
330
3B
100
AcDbMaterial
  1
ByLayer
  0
MATERIAL
  5
3E
102
{ACAD_REACTORS
330
3B
102
}
102
{ACAD_XDICTIONARY
360
50D
102
}
330
3B
100
AcDbMaterial
  1
Global
  0
MLINESTYLE
  5
18
102
{ACAD_REACTORS
330
17
102
}
330
17
100
AcDbMlineStyle
  2
Standard
 70
     0
  3

 62
   256
 51
90.0
 52
90.0
 71
     2
 49
0.5
 62
   256
  6
BYLAYER
 49
-0.5
 62
   256
  6
BYLAYER
  0
ACDBPLACEHOLDER
  5
F
102
{ACAD_REACTORS
330
E
102
}
330
E
  0
VISUALSTYLE
  5
2F
102
{ACAD_REACTORS
330
2A
102
}
102
{ACAD_XDICTIONARY
360
4F1
102
}
330
2A
100
AcDbVisualStyle
  2
2dWireframe
 70
     4
 71
     0
 72
     2
 73
     0
 90
        0
 40
-0.6
 41
-30.0
 62
     5
 63
     7
421
 16777215
 74
     1
 91
        4
 64
     7
 65
   257
 75
     1
175
     1
 42
1.0
 92
        0
 66
   257
 43
1.0
 76
     1
 77
     6
 78
     2
 67
     7
 79
     5
170
     0
171
     0
290
     0
174
     0
 93
        1
 44
0.0
173
     0
291
     0
 45
0.0
1001
ACAD
1000
AcDbSavedByObjectVersion
1070
     0
  0
VISUALSTYLE
  5
31
102
{ACAD_REACTORS
330
2A
102
}
102
{ACAD_XDICTIONARY
360
4F5
102
}
330
2A
100
AcDbVisualStyle
  2
3D Hidden
 70
     6
 71
     1
 72
     2
 73
     2
 90
        0
 40
-0.6
 41
-30.0
 62
     5
 63
     7
421
 16777215
 74
     2
 91
        2
 64
     7
 65
   257
 75
     2
175
     1
 42
40.0
 92
        0
 66
   257
 43
1.0
 76
     1
 77
     6
 78
     2
 67
     7
 79
     3
170
     0
171
     0
290
     0
174
     0
 93
        1
 44
0.0
173
     0
291
     0
 45
0.0
1001
ACAD
1000
AcDbSavedByObjectVersion
1070
     0
  0
VISUALSTYLE
  5
30
102
{ACAD_REACTORS
330
2A
102
}
102
{ACAD_XDICTIONARY
360
4F3
102
}
330
2A
100
AcDbVisualStyle
  2
3dWireframe
 70
     5
 71
     0
 72
     2
 73
     0
 90
        0
 40
-0.6
 41
-30.0
 62
     5
 63
     7
421
 16777215
 74
     1
 91
        4
 64
     7
 65
   257
 75
     1
175
     1
 42
1.0
 92
        0
 66
   257
 43
1.0
 76
     1
 77
     6
 78
     2
 67
     7
 79
     5
170
     0
171
     0
290
     0
174
     0
 93
        1
 44
0.0
173
     0
291
     0
 45
0.0
1001
ACAD
1000
AcDbSavedByObjectVersion
1070
     0
  0
VISUALSTYLE
  5
32
102
{ACAD_REACTORS
330
2A
102
}
102
{ACAD_XDICTIONARY
360
4F7
102
}
330
2A
100
AcDbVisualStyle
  2
Basic
 70
     7
 71
     1
 72
     0
 73
     1
 90
        0
 40
-0.6
 41
-30.0
 62
     5
 63
     7
421
 16777215
 74
     0
 91
        4
 64
     7
 65
   257
 75
     1
175
     1
 42
1.0
 92
        8
 66
     7
 43
1.0
 76
     1
 77
     6
 78
     2
 67
     7
 79
     5
170
     0
171
     0
290
     0
174
     0
 93
        1
 44
0.0
173
     0
291
     1
 45
0.0
1001
ACAD
1000
AcDbSavedByObjectVersion
1070
     0
  0
VISUALSTYLE
  5
36
102
{ACAD_REACTORS
330
2A
102
}
102
{ACAD_XDICTIONARY
360
4FF
102
}
330
2A
100
AcDbVisualStyle
  2
Brighten
 70
    12
 71
     2
 72
     2
 73
     0
 90
        0
 40
-0.6
 41
-30.0
 62
     5
 63
     7
421
 16777215
 74
     1
 91
        4
 64
     7
 65
   257
 75
     1
175
     1
 42
1.0
 92
        8
 66
     7
 43
1.0
 76
     1
 77
     6
 78
     2
 67
     7
 79
     5
170
     0
171
     0
290
     0
174
     0
 93
        1
 44
50.0
173
     0
291
     1
 45
0.0
1001
ACAD
1000
AcDbSavedByObjectVersion
1070
     0
  0
VISUALSTYLE
  5
3A
102
{ACAD_REACTORS
330
2A
102
}
102
{ACAD_XDICTIONARY
360
507
102
}
330
2A
100
AcDbVisualStyle
  2
ColorChange
 70
    16
 71
     2
 72
     2
 73
     3
 90
        0
 40
-0.6
 41
-30.0
 62
     5
 63
     8
421
  8421504
 74
     1
 91
        4
 64
     7
 65
   257
 75
     1
175
     1
 42
1.0
 92
        8
 66
     8
424
  8421504
 43
1.0
 76
     1
 77
     6
 78
     2
 67
     7
 79
     5
170
     0
171
     0
290
     0
174
     0
 93
        1
 44
0.0
173
     0
291
     1
 45
0.0
1001
ACAD
1000
AcDbSavedByObjectVersion
1070
     0
  0
VISUALSTYLE
  5
34
102
{ACAD_REACTORS
330
2A
102
}
102
{ACAD_XDICTIONARY
360
4FB
102
}
330
2A
100
AcDbVisualStyle
  2
Conceptual
 70
     9
 71
     3
 72
     2
 73
     0
 90
        0
 40
-0.6
 41
-30.0
 62
     5
 63
     7
421
 16777215
 74
     2
 91
        2
 64
     7
 65
   257
 75
     1
175
     1
 42
40.0
 92
        8
 66
     7
 43
1.0
 76
     1
 77
     6
 78
     2
 67
     7
 79
     3
170
     0
171
     0
290
     0
174
     0
 93
        1
 44
0.0
173
     0
291
     0
 45
0.0
1001
ACAD
1000
AcDbSavedByObjectVersion
1070
     0
  0
VISUALSTYLE
  5
35
102
{ACAD_REACTORS
330
2A
102
}
102
{ACAD_XDICTIONARY
360
4FD
102
}
330
2A
100
AcDbVisualStyle
  2
Dim
 70
    11
 71
     2
 72
     2
 73
     0
 90
        0
 40
-0.6
 41
-30.0
 62
     5
 63
     7
421
 16777215
 74
     1
 91
        4
 64
     7
 65
   257
 75
     1
175
     1
 42
1.0
 92
        8
 66
     7
 43
1.0
 76
     1
 77
     6
 78
     2
 67
     7
 79
     5
170
     0
171
     0
290
     0
174
     0
 93
        1
 44
-50.0
173
     0
291
     1
 45
0.0
1001
ACAD
1000
AcDbSavedByObjectVersion
1070
     0
  0
VISUALSTYLE
  5
39
102
{ACAD_REACTORS
330
2A
102
}
102
{ACAD_XDICTIONARY
360
505
102
}
330
2A
100
AcDbVisualStyle
  2
Facepattern
 70
    15
 71
     2
 72
     2
 73
     0
 90
        0
 40
-0.6
 41
-30.0
 62
     5
 63
     7
421
 16777215
 74
     1
 91
        4
 64
     7
 65
   257
 75
     1
175
     1
 42
1.0
 92
        8
 66
     7
 43
1.0
 76
     1
 77
     6
 78
     2
 67
     7
 79
     5
170
     0
171
     0
290
     0
174
     0
 93
        1
 44
0.0
173
     0
291
     1
 45
0.0
1001
ACAD
1000
AcDbSavedByObjectVersion
1070
     0
  0
VISUALSTYLE
  5
2B
102
{ACAD_REACTORS
330
2A
102
}
102
{ACAD_XDICTIONARY
360
4E9
102
}
330
2A
100
AcDbVisualStyle
  2
Flat
 70
     0
 71
     2
 72
     1
 73
     1
 90
        2
 40
-0.6
 41
30.0
 62
     5
 63
     7
421
 16777215
 74
     0
 91
        4
 64
     7
 65
   257
 75
     1
175
     1
 42
1.0
 92
        8
 66
     7
 43
1.0
 76
     1
 77
     6
 78
     2
 67
     7
 79
     5
170
     0
171
     0
290
     0
174
     0
 93
       13
 44
0.0
173
     0
291
     1
 45
0.0
1001
ACAD
1000
AcDbSavedByObjectVersion
1070
     0
  0
VISUALSTYLE
  5
2C
102
{ACAD_REACTORS
330
2A
102
}
102
{ACAD_XDICTIONARY
360
4EB
102
}
330
2A
100
AcDbVisualStyle
  2
FlatWithEdges
 70
     1
 71
     2
 72
     1
 73
     1
 90
        2
 40
-0.6
 41
30.0
 62
     5
 63
     7
421
 16777215
 74
     1
 91
        4
 64
     7
 65
   257
 75
     1
175
     1
 42
1.0
 92
        0
 66
   257
 43
1.0
 76
     1
 77
     6
 78
     2
 67
     7
 79
     5
170
     0
171
     0
290
     0
174
     0
 93
       13
 44
0.0
173
     0
291
     1
 45
0.0
1001
ACAD
1000
AcDbSavedByObjectVersion
1070
     0
  0
VISUALSTYLE
  5
2D
102
{ACAD_REACTORS
330
2A
102
}
102
{ACAD_XDICTIONARY
360
4ED
102
}
330
2A
100
AcDbVisualStyle
  2
Gouraud
 70
     2
 71
     2
 72
     2
 73
     1
 90
        2
 40
-0.6
 41
30.0
 62
     5
 63
     7
421
 16777215
 74
     0
 91
        4
 64
     7
 65
   257
 75
     1
175
     1
 42
1.0
 92
        0
 66
     7
 43
1.0
 76
     1
 77
     6
 78
     2
 67
     7
 79
     5
170
     0
171
     0
290
     0
174
     0
 93
       13
 44
0.0
173
     0
291
     1
 45
0.0
1001
ACAD
1000
AcDbSavedByObjectVersion
1070
     0
  0
VISUALSTYLE
  5
2E
102
{ACAD_REACTORS
330
2A
102
}
102
{ACAD_XDICTIONARY
360
4EF
102
}
330
2A
100
AcDbVisualStyle
  2
GouraudWithEdges
 70
     3
 71
     2
 72
     2
 73
     1
 90
        2
 40
-0.6
 41
30.0
 62
     5
 63
     7
421
 16777215
 74
     1
 91
        4
 64
     7
 65
   257
 75
     1
175
     1
 42
1.0
 92
        0
 66
   257
 43
1.0
 76
     1
 77
     6
 78
     2
 67
     7
 79
     5
170
     0
171
     0
290
     0
174
     0
 93
       13
 44
0.0
173
     0
291
     1
 45
0.0
1001
ACAD
1000
AcDbSavedByObjectVersion
1070
     0
  0
VISUALSTYLE
  5
38
102
{ACAD_REACTORS
330
2A
102
}
102
{ACAD_XDICTIONARY
360
503
102
}
330
2A
100
AcDbVisualStyle
  2
Linepattern
 70
    14
 71
     2
 72
     2
 73
     0
 90
        0
 40
-0.6
 41
-30.0
 62
     5
 63
     7
421
 16777215
 74
     1
 91
        4
 64
     7
 65
   257
 75
     7
175
     7
 42
1.0
 92
        8
 66
     7
 43
1.0
 76
     1
 77
     6
 78
     2
 67
     7
 79
     5
170
     0
171
     0
290
     0
174
     0
 93
        1
 44
0.0
173
     0
291
     1
 45
0.0
1001
ACAD
1000
AcDbSavedByObjectVersion
1070
     0
  0
VISUALSTYLE
  5
33
102
{ACAD_REACTORS
330
2A
102
}
102
{ACAD_XDICTIONARY
360
4F9
102
}
330
2A
100
AcDbVisualStyle
  2
Realistic
 70
     8
 71
     2
 72
     2
 73
     0
 90
        0
 40
-0.6
 41
-30.0
 62
     5
 63
     7
421
 16777215
 74
     1
 91
        0
 64
     7
 65
   257
 75
     1
175
     1
 42
1.0
 92
        8
 66
     8
424
  7895160
 43
1.0
 76
     1
 77
     6
 78
     2
 67
     7
 79
     5
170
     0
171
     0
290
     0
174
     0
 93
       13
 44
0.0
173
     0
291
     0
 45
0.0
1001
ACAD
1000
AcDbSavedByObjectVersion
1070
     0
  0
VISUALSTYLE
  5
37
102
{ACAD_REACTORS
330
2A
102
}
102
{ACAD_XDICTIONARY
360
501
102
}
330
2A
100
AcDbVisualStyle
  2
Thicken
 70
    13
 71
     2
 72
     2
 73
     0
 90
        0
 40
-0.6
 41
-30.0
 62
     5
 63
     7
421
 16777215
 74
     1
 91
        4
 64
     7
 65
   257
 75
     1
175
     1
 42
1.0
 92
       12
 66
     7
 43
1.0
 76
     1
 77
     6
 78
     2
 67
     7
 79
     5
170
     0
171
     0
290
     0
174
     0
 93
        1
 44
0.0
173
     0
291
     1
 45
0.0
1001
ACAD
1000
AcDbSavedByObjectVersion
1070
     0
  0
DICTIONARY
  5
50B
330
3D
100
AcDbDictionary
280
     1
281
     1
  3
ACAD_XREC_ROUNDTRIP
360
50C
  0
DICTIONARY
  5
509
330
3C
100
AcDbDictionary
280
     1
281
     1
  3
ACAD_XREC_ROUNDTRIP
360
50A
  0
DICTIONARY
  5
50D
330
3E
100
AcDbDictionary
280
     1
281
     1
  3
ACAD_XREC_ROUNDTRIP
360
50E
  0
DICTIONARY
  5
4F1
330
2F
100
AcDbDictionary
280
     1
281
     1
  3
ACAD_XREC_ROUNDTRIP
360
4F2
  0
DICTIONARY
  5
4F5
330
31
100
AcDbDictionary
280
     1
281
     1
  3
ACAD_XREC_ROUNDTRIP
360
4F6
  0
DICTIONARY
  5
4F3
330
30
100
AcDbDictionary
280
     1
281
     1
  3
ACAD_XREC_ROUNDTRIP
360
4F4
  0
DICTIONARY
  5
4F7
330
32
100
AcDbDictionary
280
     1
281
     1
  3
ACAD_XREC_ROUNDTRIP
360
4F8
  0
DICTIONARY
  5
4FF
330
36
100
AcDbDictionary
280
     1
281
     1
  3
ACAD_XREC_ROUNDTRIP
360
500
  0
DICTIONARY
  5
507
330
3A
100
AcDbDictionary
280
     1
281
     1
  3
ACAD_XREC_ROUNDTRIP
360
508
  0
DICTIONARY
  5
4FB
330
34
100
AcDbDictionary
280
     1
281
     1
  3
ACAD_XREC_ROUNDTRIP
360
4FC
  0
DICTIONARY
  5
4FD
330
35
100
AcDbDictionary
280
     1
281
     1
  3
ACAD_XREC_ROUNDTRIP
360
4FE
  0
DICTIONARY
  5
505
330
39
100
AcDbDictionary
280
     1
281
     1
  3
ACAD_XREC_ROUNDTRIP
360
506
  0
DICTIONARY
  5
4E9
330
2B
100
AcDbDictionary
280
     1
281
     1
  3
ACAD_XREC_ROUNDTRIP
360
4EA
  0
DICTIONARY
  5
4EB
330
2C
100
AcDbDictionary
280
     1
281
     1
  3
ACAD_XREC_ROUNDTRIP
360
4EC
  0
DICTIONARY
  5
4ED
330
2D
100
AcDbDictionary
280
     1
281
     1
  3
ACAD_XREC_ROUNDTRIP
360
4EE
  0
DICTIONARY
  5
4EF
330
2E
100
AcDbDictionary
280
     1
281
     1
  3
ACAD_XREC_ROUNDTRIP
360
4F0
  0
DICTIONARY
  5
503
330
38
100
AcDbDictionary
280
     1
281
     1
  3
ACAD_XREC_ROUNDTRIP
360
504
  0
DICTIONARY
  5
4F9
330
33
100
AcDbDictionary
280
     1
281
     1
  3
ACAD_XREC_ROUNDTRIP
360
4FA
  0
DICTIONARY
  5
501
330
37
100
AcDbDictionary
280
     1
281
     1
  3
ACAD_XREC_ROUNDTRIP
360
502
  0
XRECORD
  5
50C
102
{ACAD_REACTORS
330
50B
102
}
330
50B
100
AcDbXrecord
280
     1
102
MATERIAL
148
0.0
149
0.0
149
0.0
 93
        0
 94
      127
282
     0
 72
     1
 77
     1
171
     1
175
     1
179
     1
273
     0
  0
XRECORD
  5
50A
102
{ACAD_REACTORS
330
509
102
}
330
509
100
AcDbXrecord
280
     1
102
MATERIAL
148
0.0
149
0.0
149
0.0
 93
        0
 94
      127
282
     0
 72
     1
 77
     1
171
     1
175
     1
179
     1
273
     0
  0
XRECORD
  5
50E
102
{ACAD_REACTORS
330
50D
102
}
330
50D
100
AcDbXrecord
280
     1
102
MATERIAL
148
0.0
149
0.0
149
0.0
 93
        0
 94
      127
282
     0
 72
     1
 77
     1
171
     1
175
     1
179
     1
273
     0
  0
XRECORD
  5
4F2
102
{ACAD_REACTORS
330
4F1
102
}
330
4F1
100
AcDbXrecord
280
     1
102
RTVSPropertyOp0
 70
     1
102
RTVSPropertyOp1
 70
     1
102
RTVSPropertyOp2
 70
     1
102
RTVSPropertyOp3
 70
     1
102
RTVSPropertyOp4
 70
     1
102
RTVSPropertyOp5
 70
     1
102
RTVSPropertyOp6
 70
     1
102
RTVSPropertyOp7
 70
     1
102
RTVSPropertyOp8
 70
     1
102
RTVSPropertyOp9
 70
     1
102
RTVSPropertyOp10
 70
     1
102
RTVSPropertyOp11
 70
     1
102
RTVSPropertyOp12
 70
     1
102
RTVSPropertyOp13
 70
     1
102
RTVSPropertyOp14
 70
     1
102
RTVSPropertyOp15
 70
     1
102
RTVSPropertyOp16
 70
     1
102
RTVSPropertyOp17
 70
     1
102
RTVSPropertyOp18
 70
     1
102
RTVSPropertyOp19
 70
     1
102
RTVSPropertyOp20
 70
     1
102
RTVSPropertyOp21
 70
     1
102
RTVSPropertyOp22
 70
     1
102
RTVSPropertyOp23
 70
     1
102
RTVSPropertyOp24
 70
     1
102
RTVSPropertyOp25
 70
     1
102
RTVSPropertyOp26
 70
     1
102
RTVSPropertyOp27
 70
     1
102
RTVSPropertyOp28
 70
     1
102
RTVSPropertyOp29
 70
     1
102
RTVSPropertyOp30
 70
     1
102
RTVSPropertyOp31
 70
     1
102
RTVSPropertyOp32
 70
     1
  0
XRECORD
  5
4F6
102
{ACAD_REACTORS
330
4F5
102
}
330
4F5
100
AcDbXrecord
280
     1
102
RTVSPropertyOp0
 70
     1
102
RTVSPropertyOp1
 70
     1
102
RTVSPropertyOp2
 70
     1
102
RTVSPropertyOp3
 70
     1
102
RTVSPropertyOp4
 70
     1
102
RTVSPropertyOp5
 70
     1
102
RTVSPropertyOp6
 70
     1
102
RTVSPropertyOp7
 70
     1
102
RTVSPropertyOp8
 70
     1
102
RTVSPropertyOp9
 70
     1
102
RTVSPropertyOp10
 70
     1
102
RTVSPropertyOp11
 70
     1
102
RTVSPropertyOp12
 70
     1
102
RTVSPropertyOp13
 70
     1
102
RTVSPropertyOp14
 70
     1
102
RTVSPropertyOp15
 70
     1
102
RTVSPropertyOp16
 70
     1
102
RTVSPropertyOp17
 70
     1
102
RTVSPropertyOp18
 70
     1
102
RTVSPropertyOp19
 70
     1
102
RTVSPropertyOp20
 70
     1
102
RTVSPropertyOp21
 70
     1
102
RTVSPropertyOp22
 70
     1
102
RTVSPropertyOp23
 70
     1
102
RTVSPropertyOp24
 70
     1
102
RTVSPropertyOp25
 70
     1
102
RTVSPropertyOp26
 70
     1
102
RTVSPropertyOp27
 70
     1
102
RTVSPropertyOp28
 70
     1
102
RTVSPropertyOp29
 70
     1
102
RTVSPropertyOp30
 70
     1
102
RTVSPropertyOp31
 70
     1
102
RTVSPropertyOp32
 70
     1
  0
XRECORD
  5
4F4
102
{ACAD_REACTORS
330
4F3
102
}
330
4F3
100
AcDbXrecord
280
     1
102
RTVSPropertyOp0
 70
     1
102
RTVSPropertyOp1
 70
     1
102
RTVSPropertyOp2
 70
     1
102
RTVSPropertyOp3
 70
     1
102
RTVSPropertyOp4
 70
     1
102
RTVSPropertyOp5
 70
     1
102
RTVSPropertyOp6
 70
     1
102
RTVSPropertyOp7
 70
     1
102
RTVSPropertyOp8
 70
     1
102
RTVSPropertyOp9
 70
     1
102
RTVSPropertyOp10
 70
     1
102
RTVSPropertyOp11
 70
     1
102
RTVSPropertyOp12
 70
     1
102
RTVSPropertyOp13
 70
     1
102
RTVSPropertyOp14
 70
     1
102
RTVSPropertyOp15
 70
     1
102
RTVSPropertyOp16
 70
     1
102
RTVSPropertyOp17
 70
     1
102
RTVSPropertyOp18
 70
     1
102
RTVSPropertyOp19
 70
     1
102
RTVSPropertyOp20
 70
     1
102
RTVSPropertyOp21
 70
     1
102
RTVSPropertyOp22
 70
     1
102
RTVSPropertyOp23
 70
     1
102
RTVSPropertyOp24
 70
     1
102
RTVSPropertyOp25
 70
     1
102
RTVSPropertyOp26
 70
     1
102
RTVSPropertyOp27
 70
     1
102
RTVSPropertyOp28
 70
     1
102
RTVSPropertyOp29
 70
     1
102
RTVSPropertyOp30
 70
     1
102
RTVSPropertyOp31
 70
     1
102
RTVSPropertyOp32
 70
     1
  0
XRECORD
  5
4F8
102
{ACAD_REACTORS
330
4F7
102
}
330
4F7
100
AcDbXrecord
280
     1
102
RTVSPropertyOp0
 70
     1
102
RTVSPropertyOp1
 70
     1
102
RTVSPropertyOp2
 70
     1
102
RTVSPropertyOp3
 70
     1
102
RTVSPropertyOp4
 70
     1
102
RTVSPropertyOp5
 70
     1
102
RTVSPropertyOp6
 70
     1
102
RTVSPropertyOp7
 70
     1
102
RTVSPropertyOp8
 70
     1
102
RTVSPropertyOp9
 70
     1
102
RTVSPropertyOp10
 70
     1
102
RTVSPropertyOp11
 70
     1
102
RTVSPropertyOp12
 70
     1
102
RTVSPropertyOp13
 70
     1
102
RTVSPropertyOp14
 70
     1
102
RTVSPropertyOp15
 70
     1
102
RTVSPropertyOp16
 70
     1
102
RTVSPropertyOp17
 70
     1
102
RTVSPropertyOp18
 70
     1
102
RTVSPropertyOp19
 70
     1
102
RTVSPropertyOp20
 70
     1
102
RTVSPropertyOp21
 70
     1
102
RTVSPropertyOp22
 70
     1
102
RTVSPropertyOp23
 70
     1
102
RTVSPropertyOp24
 70
     1
102
RTVSPropertyOp25
 70
     1
102
RTVSPropertyOp26
 70
     1
102
RTVSPropertyOp27
 70
     1
102
RTVSPropertyOp28
 70
     1
102
RTVSPropertyOp29
 70
     1
102
RTVSPropertyOp30
 70
     1
102
RTVSPropertyOp31
 70
     1
102
RTVSPropertyOp32
 70
     1
  0
XRECORD
  5
500
102
{ACAD_REACTORS
330
4FF
102
}
330
4FF
100
AcDbXrecord
280
     1
102
RTVSPropertyOp0
 70
     1
102
RTVSPropertyOp1
 70
     1
102
RTVSPropertyOp2
 70
     1
102
RTVSPropertyOp3
 70
     1
102
RTVSPropertyOp4
 70
     1
102
RTVSPropertyOp5
 70
     1
102
RTVSPropertyOp6
 70
     1
102
RTVSPropertyOp7
 70
     1
102
RTVSPropertyOp8
 70
     1
102
RTVSPropertyOp9
 70
     1
102
RTVSPropertyOp10
 70
     1
102
RTVSPropertyOp11
 70
     1
102
RTVSPropertyOp12
 70
     1
102
RTVSPropertyOp13
 70
     1
102
RTVSPropertyOp14
 70
     1
102
RTVSPropertyOp15
 70
     1
102
RTVSPropertyOp16
 70
     1
102
RTVSPropertyOp17
 70
     1
102
RTVSPropertyOp18
 70
     1
102
RTVSPropertyOp19
 70
     1
102
RTVSPropertyOp20
 70
     1
102
RTVSPropertyOp21
 70
     1
102
RTVSPropertyOp22
 70
     1
102
RTVSPropertyOp23
 70
     1
102
RTVSPropertyOp24
 70
     1
102
RTVSPropertyOp25
 70
     1
102
RTVSPropertyOp26
 70
     1
102
RTVSPropertyOp27
 70
     1
102
RTVSPropertyOp28
 70
     1
102
RTVSPropertyOp29
 70
     1
102
RTVSPropertyOp30
 70
     1
102
RTVSPropertyOp31
 70
     1
102
RTVSPropertyOp32
 70
     1
  0
XRECORD
  5
508
102
{ACAD_REACTORS
330
507
102
}
330
507
100
AcDbXrecord
280
     1
102
RTVSPropertyOp0
 70
     1
102
RTVSPropertyOp1
 70
     1
102
RTVSPropertyOp2
 70
     1
102
RTVSPropertyOp3
 70
     1
102
RTVSPropertyOp4
 70
     1
102
RTVSPropertyOp5
 70
     1
102
RTVSPropertyOp6
 70
     1
102
RTVSPropertyOp7
 70
     1
102
RTVSPropertyOp8
 70
     1
102
RTVSPropertyOp9
 70
     1
102
RTVSPropertyOp10
 70
     1
102
RTVSPropertyOp11
 70
     1
102
RTVSPropertyOp12
 70
     1
102
RTVSPropertyOp13
 70
     1
102
RTVSPropertyOp14
 70
     1
102
RTVSPropertyOp15
 70
     1
102
RTVSPropertyOp16
 70
     1
102
RTVSPropertyOp17
 70
     1
102
RTVSPropertyOp18
 70
     1
102
RTVSPropertyOp19
 70
     1
102
RTVSPropertyOp20
 70
     1
102
RTVSPropertyOp21
 70
     1
102
RTVSPropertyOp22
 70
     1
102
RTVSPropertyOp23
 70
     1
102
RTVSPropertyOp24
 70
     1
102
RTVSPropertyOp25
 70
     1
102
RTVSPropertyOp26
 70
     1
102
RTVSPropertyOp27
 70
     1
102
RTVSPropertyOp28
 70
     1
102
RTVSPropertyOp29
 70
     1
102
RTVSPropertyOp30
 70
     1
102
RTVSPropertyOp31
 70
     1
102
RTVSPropertyOp32
 70
     1
  0
XRECORD
  5
4FC
102
{ACAD_REACTORS
330
4FB
102
}
330
4FB
100
AcDbXrecord
280
     1
102
RTVSPropertyOp0
 70
     1
102
RTVSPropertyOp1
 70
     1
102
RTVSPropertyOp2
 70
     1
102
RTVSPropertyOp3
 70
     1
102
RTVSPropertyOp4
 70
     1
102
RTVSPropertyOp5
 70
     1
102
RTVSPropertyOp6
 70
     1
102
RTVSPropertyOp7
 70
     1
102
RTVSPropertyOp8
 70
     1
102
RTVSPropertyOp9
 70
     1
102
RTVSPropertyOp10
 70
     1
102
RTVSPropertyOp11
 70
     1
102
RTVSPropertyOp12
 70
     1
102
RTVSPropertyOp13
 70
     1
102
RTVSPropertyOp14
 70
     1
102
RTVSPropertyOp15
 70
     1
102
RTVSPropertyOp16
 70
     1
102
RTVSPropertyOp17
 70
     1
102
RTVSPropertyOp18
 70
     1
102
RTVSPropertyOp19
 70
     1
102
RTVSPropertyOp20
 70
     1
102
RTVSPropertyOp21
 70
     1
102
RTVSPropertyOp22
 70
     1
102
RTVSPropertyOp23
 70
     1
102
RTVSPropertyOp24
 70
     1
102
RTVSPropertyOp25
 70
     1
102
RTVSPropertyOp26
 70
     1
102
RTVSPropertyOp27
 70
     1
102
RTVSPropertyOp28
 70
     1
102
RTVSPropertyOp29
 70
     1
102
RTVSPropertyOp30
 70
     1
102
RTVSPropertyOp31
 70
     1
102
RTVSPropertyOp32
 70
     1
  0
XRECORD
  5
4FE
102
{ACAD_REACTORS
330
4FD
102
}
330
4FD
100
AcDbXrecord
280
     1
102
RTVSPropertyOp0
 70
     1
102
RTVSPropertyOp1
 70
     1
102
RTVSPropertyOp2
 70
     1
102
RTVSPropertyOp3
 70
     1
102
RTVSPropertyOp4
 70
     1
102
RTVSPropertyOp5
 70
     1
102
RTVSPropertyOp6
 70
     1
102
RTVSPropertyOp7
 70
     1
102
RTVSPropertyOp8
 70
     1
102
RTVSPropertyOp9
 70
     1
102
RTVSPropertyOp10
 70
     1
102
RTVSPropertyOp11
 70
     1
102
RTVSPropertyOp12
 70
     1
102
RTVSPropertyOp13
 70
     1
102
RTVSPropertyOp14
 70
     1
102
RTVSPropertyOp15
 70
     1
102
RTVSPropertyOp16
 70
     1
102
RTVSPropertyOp17
 70
     1
102
RTVSPropertyOp18
 70
     1
102
RTVSPropertyOp19
 70
     1
102
RTVSPropertyOp20
 70
     1
102
RTVSPropertyOp21
 70
     1
102
RTVSPropertyOp22
 70
     1
102
RTVSPropertyOp23
 70
     1
102
RTVSPropertyOp24
 70
     1
102
RTVSPropertyOp25
 70
     1
102
RTVSPropertyOp26
 70
     1
102
RTVSPropertyOp27
 70
     1
102
RTVSPropertyOp28
 70
     1
102
RTVSPropertyOp29
 70
     1
102
RTVSPropertyOp30
 70
     1
102
RTVSPropertyOp31
 70
     1
102
RTVSPropertyOp32
 70
     1
  0
XRECORD
  5
506
102
{ACAD_REACTORS
330
505
102
}
330
505
100
AcDbXrecord
280
     1
102
RTVSPropertyOp0
 70
     1
102
RTVSPropertyOp1
 70
     1
102
RTVSPropertyOp2
 70
     1
102
RTVSPropertyOp3
 70
     1
102
RTVSPropertyOp4
 70
     1
102
RTVSPropertyOp5
 70
     1
102
RTVSPropertyOp6
 70
     1
102
RTVSPropertyOp7
 70
     1
102
RTVSPropertyOp8
 70
     1
102
RTVSPropertyOp9
 70
     1
102
RTVSPropertyOp10
 70
     1
102
RTVSPropertyOp11
 70
     1
102
RTVSPropertyOp12
 70
     1
102
RTVSPropertyOp13
 70
     1
102
RTVSPropertyOp14
 70
     1
102
RTVSPropertyOp15
 70
     1
102
RTVSPropertyOp16
 70
     1
102
RTVSPropertyOp17
 70
     1
102
RTVSPropertyOp18
 70
     1
102
RTVSPropertyOp19
 70
     1
102
RTVSPropertyOp20
 70
     1
102
RTVSPropertyOp21
 70
     1
102
RTVSPropertyOp22
 70
     1
102
RTVSPropertyOp23
 70
     1
102
RTVSPropertyOp24
 70
     1
102
RTVSPropertyOp25
 70
     1
102
RTVSPropertyOp26
 70
     1
102
RTVSPropertyOp27
 70
     1
102
RTVSPropertyOp28
 70
     1
102
RTVSPropertyOp29
 70
     1
102
RTVSPropertyOp30
 70
     1
102
RTVSPropertyOp31
 70
     1
102
RTVSPropertyOp32
 70
     1
  0
XRECORD
  5
4EA
102
{ACAD_REACTORS
330
4E9
102
}
330
4E9
100
AcDbXrecord
280
     1
102
RTVSPropertyOp0
 70
     1
102
RTVSPropertyOp1
 70
     1
102
RTVSPropertyOp2
 70
     1
102
RTVSPropertyOp3
 70
     1
102
RTVSPropertyOp4
 70
     1
102
RTVSPropertyOp5
 70
     1
102
RTVSPropertyOp6
 70
     1
102
RTVSPropertyOp7
 70
     1
102
RTVSPropertyOp8
 70
     1
102
RTVSPropertyOp9
 70
     1
102
RTVSPropertyOp10
 70
     1
102
RTVSPropertyOp11
 70
     1
102
RTVSPropertyOp12
 70
     1
102
RTVSPropertyOp13
 70
     1
102
RTVSPropertyOp14
 70
     1
102
RTVSPropertyOp15
 70
     1
102
RTVSPropertyOp16
 70
     1
102
RTVSPropertyOp17
 70
     1
102
RTVSPropertyOp18
 70
     1
102
RTVSPropertyOp19
 70
     1
102
RTVSPropertyOp20
 70
     1
102
RTVSPropertyOp21
 70
     1
102
RTVSPropertyOp22
 70
     1
102
RTVSPropertyOp23
 70
     1
102
RTVSPropertyOp24
 70
     1
102
RTVSPropertyOp25
 70
     1
102
RTVSPropertyOp26
 70
     1
102
RTVSPropertyOp27
 70
     1
102
RTVSPropertyOp28
 70
     1
102
RTVSPropertyOp29
 70
     1
102
RTVSPropertyOp30
 70
     1
102
RTVSPropertyOp31
 70
     1
102
RTVSPropertyOp32
 70
     1
  0
XRECORD
  5
4EC
102
{ACAD_REACTORS
330
4EB
102
}
330
4EB
100
AcDbXrecord
280
     1
102
RTVSPropertyOp0
 70
     1
102
RTVSPropertyOp1
 70
     1
102
RTVSPropertyOp2
 70
     1
102
RTVSPropertyOp3
 70
     1
102
RTVSPropertyOp4
 70
     1
102
RTVSPropertyOp5
 70
     1
102
RTVSPropertyOp6
 70
     1
102
RTVSPropertyOp7
 70
     1
102
RTVSPropertyOp8
 70
     1
102
RTVSPropertyOp9
 70
     1
102
RTVSPropertyOp10
 70
     1
102
RTVSPropertyOp11
 70
     1
102
RTVSPropertyOp12
 70
     1
102
RTVSPropertyOp13
 70
     1
102
RTVSPropertyOp14
 70
     1
102
RTVSPropertyOp15
 70
     1
102
RTVSPropertyOp16
 70
     1
102
RTVSPropertyOp17
 70
     1
102
RTVSPropertyOp18
 70
     1
102
RTVSPropertyOp19
 70
     1
102
RTVSPropertyOp20
 70
     1
102
RTVSPropertyOp21
 70
     1
102
RTVSPropertyOp22
 70
     1
102
RTVSPropertyOp23
 70
     1
102
RTVSPropertyOp24
 70
     1
102
RTVSPropertyOp25
 70
     1
102
RTVSPropertyOp26
 70
     1
102
RTVSPropertyOp27
 70
     1
102
RTVSPropertyOp28
 70
     1
102
RTVSPropertyOp29
 70
     1
102
RTVSPropertyOp30
 70
     1
102
RTVSPropertyOp31
 70
     1
102
RTVSPropertyOp32
 70
     1
  0
XRECORD
  5
4EE
102
{ACAD_REACTORS
330
4ED
102
}
330
4ED
100
AcDbXrecord
280
     1
102
RTVSPropertyOp0
 70
     1
102
RTVSPropertyOp1
 70
     1
102
RTVSPropertyOp2
 70
     1
102
RTVSPropertyOp3
 70
     1
102
RTVSPropertyOp4
 70
     1
102
RTVSPropertyOp5
 70
     1
102
RTVSPropertyOp6
 70
     1
102
RTVSPropertyOp7
 70
     1
102
RTVSPropertyOp8
 70
     1
102
RTVSPropertyOp9
 70
     1
102
RTVSPropertyOp10
 70
     1
102
RTVSPropertyOp11
 70
     1
102
RTVSPropertyOp12
 70
     1
102
RTVSPropertyOp13
 70
     1
102
RTVSPropertyOp14
 70
     1
102
RTVSPropertyOp15
 70
     1
102
RTVSPropertyOp16
 70
     1
102
RTVSPropertyOp17
 70
     1
102
RTVSPropertyOp18
 70
     1
102
RTVSPropertyOp19
 70
     1
102
RTVSPropertyOp20
 70
     1
102
RTVSPropertyOp21
 70
     1
102
RTVSPropertyOp22
 70
     1
102
RTVSPropertyOp23
 70
     1
102
RTVSPropertyOp24
 70
     1
102
RTVSPropertyOp25
 70
     1
102
RTVSPropertyOp26
 70
     1
102
RTVSPropertyOp27
 70
     1
102
RTVSPropertyOp28
 70
     1
102
RTVSPropertyOp29
 70
     1
102
RTVSPropertyOp30
 70
     1
102
RTVSPropertyOp31
 70
     1
102
RTVSPropertyOp32
 70
     1
  0
XRECORD
  5
4F0
102
{ACAD_REACTORS
330
4EF
102
}
330
4EF
100
AcDbXrecord
280
     1
102
RTVSPropertyOp0
 70
     1
102
RTVSPropertyOp1
 70
     1
102
RTVSPropertyOp2
 70
     1
102
RTVSPropertyOp3
 70
     1
102
RTVSPropertyOp4
 70
     1
102
RTVSPropertyOp5
 70
     1
102
RTVSPropertyOp6
 70
     1
102
RTVSPropertyOp7
 70
     1
102
RTVSPropertyOp8
 70
     1
102
RTVSPropertyOp9
 70
     1
102
RTVSPropertyOp10
 70
     1
102
RTVSPropertyOp11
 70
     1
102
RTVSPropertyOp12
 70
     1
102
RTVSPropertyOp13
 70
     1
102
RTVSPropertyOp14
 70
     1
102
RTVSPropertyOp15
 70
     1
102
RTVSPropertyOp16
 70
     1
102
RTVSPropertyOp17
 70
     1
102
RTVSPropertyOp18
 70
     1
102
RTVSPropertyOp19
 70
     1
102
RTVSPropertyOp20
 70
     1
102
RTVSPropertyOp21
 70
     1
102
RTVSPropertyOp22
 70
     1
102
RTVSPropertyOp23
 70
     1
102
RTVSPropertyOp24
 70
     1
102
RTVSPropertyOp25
 70
     1
102
RTVSPropertyOp26
 70
     1
102
RTVSPropertyOp27
 70
     1
102
RTVSPropertyOp28
 70
     1
102
RTVSPropertyOp29
 70
     1
102
RTVSPropertyOp30
 70
     1
102
RTVSPropertyOp31
 70
     1
102
RTVSPropertyOp32
 70
     1
  0
XRECORD
  5
504
102
{ACAD_REACTORS
330
503
102
}
330
503
100
AcDbXrecord
280
     1
102
RTVSPropertyOp0
 70
     1
102
RTVSPropertyOp1
 70
     1
102
RTVSPropertyOp2
 70
     1
102
RTVSPropertyOp3
 70
     1
102
RTVSPropertyOp4
 70
     1
102
RTVSPropertyOp5
 70
     1
102
RTVSPropertyOp6
 70
     1
102
RTVSPropertyOp7
 70
     1
102
RTVSPropertyOp8
 70
     1
102
RTVSPropertyOp9
 70
     1
102
RTVSPropertyOp10
 70
     1
102
RTVSPropertyOp11
 70
     1
102
RTVSPropertyOp12
 70
     1
102
RTVSPropertyOp13
 70
     1
102
RTVSPropertyOp14
 70
     1
102
RTVSPropertyOp15
 70
     1
102
RTVSPropertyOp16
 70
     1
102
RTVSPropertyOp17
 70
     1
102
RTVSPropertyOp18
 70
     1
102
RTVSPropertyOp19
 70
     1
102
RTVSPropertyOp20
 70
     1
102
RTVSPropertyOp21
 70
     1
102
RTVSPropertyOp22
 70
     1
102
RTVSPropertyOp23
 70
     1
102
RTVSPropertyOp24
 70
     1
102
RTVSPropertyOp25
 70
     1
102
RTVSPropertyOp26
 70
     1
102
RTVSPropertyOp27
 70
     1
102
RTVSPropertyOp28
 70
     1
102
RTVSPropertyOp29
 70
     1
102
RTVSPropertyOp30
 70
     1
102
RTVSPropertyOp31
 70
     1
102
RTVSPropertyOp32
 70
     1
  0
XRECORD
  5
4FA
102
{ACAD_REACTORS
330
4F9
102
}
330
4F9
100
AcDbXrecord
280
     1
102
RTVSPropertyOp0
 70
     1
102
RTVSPropertyOp1
 70
     1
102
RTVSPropertyOp2
 70
     1
102
RTVSPropertyOp3
 70
     1
102
RTVSPropertyOp4
 70
     1
102
RTVSPropertyOp5
 70
     1
102
RTVSPropertyOp6
 70
     1
102
RTVSPropertyOp7
 70
     1
102
RTVSPropertyOp8
 70
     1
102
RTVSPropertyOp9
 70
     1
102
RTVSPropertyOp10
 70
     1
102
RTVSPropertyOp11
 70
     1
102
RTVSPropertyOp12
 70
     1
102
RTVSPropertyOp13
 70
     1
102
RTVSPropertyOp14
 70
     1
102
RTVSPropertyOp15
 70
     1
102
RTVSPropertyOp16
 70
     1
102
RTVSPropertyOp17
 70
     1
102
RTVSPropertyOp18
 70
     1
102
RTVSPropertyOp19
 70
     1
102
RTVSPropertyOp20
 70
     1
102
RTVSPropertyOp21
 70
     1
102
RTVSPropertyOp22
 70
     1
102
RTVSPropertyOp23
 70
     1
102
RTVSPropertyOp24
 70
     1
102
RTVSPropertyOp25
 70
     1
102
RTVSPropertyOp26
 70
     1
102
RTVSPropertyOp27
 70
     1
102
RTVSPropertyOp28
 70
     1
102
RTVSPropertyOp29
 70
     1
102
RTVSPropertyOp30
 70
     1
102
RTVSPropertyOp31
 70
     1
102
RTVSPropertyOp32
 70
     1
  0
XRECORD
  5
502
102
{ACAD_REACTORS
330
501
102
}
330
501
100
AcDbXrecord
280
     1
102
RTVSPropertyOp0
 70
     1
102
RTVSPropertyOp1
 70
     1
102
RTVSPropertyOp2
 70
     1
102
RTVSPropertyOp3
 70
     1
102
RTVSPropertyOp4
 70
     1
102
RTVSPropertyOp5
 70
     1
102
RTVSPropertyOp6
 70
     1
102
RTVSPropertyOp7
 70
     1
102
RTVSPropertyOp8
 70
     1
102
RTVSPropertyOp9
 70
     1
102
RTVSPropertyOp10
 70
     1
102
RTVSPropertyOp11
 70
     1
102
RTVSPropertyOp12
 70
     1
102
RTVSPropertyOp13
 70
     1
102
RTVSPropertyOp14
 70
     1
102
RTVSPropertyOp15
 70
     1
102
RTVSPropertyOp16
 70
     1
102
RTVSPropertyOp17
 70
     1
102
RTVSPropertyOp18
 70
     1
102
RTVSPropertyOp19
 70
     1
102
RTVSPropertyOp20
 70
     1
102
RTVSPropertyOp21
 70
     1
102
RTVSPropertyOp22
 70
     1
102
RTVSPropertyOp23
 70
     1
102
RTVSPropertyOp24
 70
     1
102
RTVSPropertyOp25
 70
     1
102
RTVSPropertyOp26
 70
     1
102
RTVSPropertyOp27
 70
     1
102
RTVSPropertyOp28
 70
     1
102
RTVSPropertyOp29
 70
     1
102
RTVSPropertyOp30
 70
     1
102
RTVSPropertyOp31
 70
     1
102
RTVSPropertyOp32
 70
     1
  0
ENDSEC
  0
EOF
