  0
SECTION
  2
HEADER
  9
$ACADVER
  1
AC1018
  9
$ACADMAINTVER
 70
     0
  9
$DWGCODEPAGE
  3
ANSI_1252
  9
$INSBASE
 10
0.0
 20
0.0
 30
0.0
  9
$EXTMIN
 10
-413.5572347967278
 20
-269.4429789443379
 30
0.0
  9
$EXTMAX
 10
-116.5572347967297
 20
-59.4429789443378
 30
0.0
  9
$LIMMIN
 10
0.0
 20
0.0
  9
$LIMMAX
 10
12.0
 20
9.0
  9
$ORTHOMODE
 70
     0
  9
$REGENMODE
 70
     1
  9
$FILLMODE
 70
     1
  9
$QTEXTMODE
 70
     0
  9
$MIRRTEXT
 70
     1
  9
$LTSCALE
 40
1.0
  9
$ATTMODE
 70
     1
  9
$TEXTSIZE
 40
0.2
  9
$TRACEWID
 40
0.05
  9
$TEXTSTYLE
  7
Standard
  9
$CLAYER
  8
0
  9
$CELTYPE
  6
ByLayer
  9
$CECOLOR
 62
   256
  9
$CELTSCALE
 40
1.0
  9
$DISPSILH
 70
     0
  9
$DIMSCALE
 40
1.0
  9
$DIMASZ
 40
0.18
  9
$DIMEXO
 40
0.0625
  9
$DIMDLI
 40
0.38
  9
$DIMRND
 40
0.0
  9
$DIMDLE
 40
0.0
  9
$DIMEXE
 40
0.18
  9
$DIMTP
 40
0.0
  9
$DIMTM
 40
0.0
  9
$DIMTXT
 40
0.18
  9
$DIMCEN
 40
0.09
  9
$DIMTSZ
 40
0.0
  9
$DIMTOL
 70
     0
  9
$DIMLIM
 70
     0
  9
$DIMTIH
 70
     1
  9
$DIMTOH
 70
     1
  9
$DIMSE1
 70
     0
  9
$DIMSE2
 70
     0
  9
$DIMTAD
 70
     0
  9
$DIMZIN
 70
     0
  9
$DIMBLK
  1

  9
$DIMASO
 70
     1
  9
$DIMSHO
 70
     1
  9
$DIMPOST
  1

  9
$DIMAPOST
  1

  9
$DIMALT
 70
     0
  9
$DIMALTD
 70
     2
  9
$DIMALTF
 40
25.4
  9
$DIMLFAC
 40
1.0
  9
$DIMTOFL
 70
     0
  9
$DIMTVP
 40
0.0
  9
$DIMTIX
 70
     0
  9
$DIMSOXD
 70
     0
  9
$DIMSAH
 70
     0
  9
$DIMBLK1
  1

  9
$DIMBLK2
  1

  9
$DIMSTYLE
  2
Standard
  9
$DIMCLRD
 70
     0
  9
$DIMCLRE
 70
     0
  9
$DIMCLRT
 70
     0
  9
$DIMTFAC
 40
1.0
  9
$DIMGAP
 40
0.09
  9
$DIMJUST
 70
     0
  9
$DIMSD1
 70
     0
  9
$DIMSD2
 70
     0
  9
$DIMTOLJ
 70
     1
  9
$DIMTZIN
 70
     0
  9
$DIMALTZ
 70
     0
  9
$DIMALTTZ
 70
     0
  9
$DIMUPT
 70
     0
  9
$DIMDEC
 70
     4
  9
$DIMTDEC
 70
     4
  9
$DIMALTU
 70
     2
  9
$DIMALTTD
 70
     2
  9
$DIMTXSTY
  7
Standard
  9
$DIMAUNIT
 70
     0
  9
$DIMADEC
 70
     0
  9
$DIMALTRND
 40
0.0
  9
$DIMAZIN
 70
     0
  9
$DIMDSEP
 70
    46
  9
$DIMATFIT
 70
     3
  9
$DIMFRAC
 70
     0
  9
$DIMLDRBLK
  1

  9
$DIMLUNIT
 70
     2
  9
$DIMLWD
 70
    -2
  9
$DIMLWE
 70
    -2
  9
$DIMTMOVE
 70
     0
  9
$LUNITS
 70
     2
  9
$LUPREC
 70
     4
  9
$SKETCHINC
 40
0.1
  9
$FILLETRAD
 40
0.5
  9
$AUNITS
 70
     0
  9
$AUPREC
 70
     0
  9
$MENU
  1
.
  9
$ELEVATION
 40
0.0
  9
$PELEVATION
 40
0.0
  9
$THICKNESS
 40
0.0
  9
$LIMCHECK
 70
     0
  9
$CHAMFERA
 40
0.5
  9
$CHAMFERB
 40
0.5
  9
$CHAMFERC
 40
1.0
  9
$CHAMFERD
 40
0.0
  9
$SKPOLY
 70
     0
  9
$TDCREATE
 40
2458204.619214572
  9
$TDUCREATE
 40
2458204.535881239
  9
$TDUPDATE
 40
2458204.619215104
  9
$TDUUPDATE
 40
2458204.535881771
  9
$TDINDWG
 40
0.0000000116
  9
$TDUSRTIMER
 40
0.0000000116
  9
$USRTIMER
 70
     1
  9
$ANGBASE
 50
0.0
  9
$ANGDIR
 70
     0
  9
$PDMODE
 70
     0
  9
$PDSIZE
 40
0.0
  9
$PLINEWID
 40
0.0
  9
$SPLFRAME
 70
     0
  9
$SPLINETYPE
 70
     6
  9
$SPLINESEGS
 70
     8
  9
$HANDSEED
  5
382
  9
$SURFTAB1
 70
     6
  9
$SURFTAB2
 70
     6
  9
$SURFTYPE
 70
     6
  9
$SURFU
 70
     6
  9
$SURFV
 70
     6
  9
$UCSBASE
  2

  9
$UCSNAME
  2

  9
$UCSORG
 10
0.0
 20
0.0
 30
0.0
  9
$UCSXDIR
 10
1.0
 20
0.0
 30
0.0
  9
$UCSYDIR
 10
0.0
 20
1.0
 30
0.0
  9
$UCSORTHOREF
  2

  9
$UCSORTHOVIEW
 70
     0
  9
$UCSORGTOP
 10
0.0
 20
0.0
 30
0.0
  9
$UCSORGBOTTOM
 10
0.0
 20
0.0
 30
0.0
  9
$UCSORGLEFT
 10
0.0
 20
0.0
 30
0.0
  9
$UCSORGRIGHT
 10
0.0
 20
0.0
 30
0.0
  9
$UCSORGFRONT
 10
0.0
 20
0.0
 30
0.0
  9
$UCSORGBACK
 10
0.0
 20
0.0
 30
0.0
  9
$PUCSBASE
  2

  9
$PUCSNAME
  2

  9
$PUCSORG
 10
0.0
 20
0.0
 30
0.0
  9
$PUCSXDIR
 10
1.0
 20
0.0
 30
0.0
  9
$PUCSYDIR
 10
0.0
 20
1.0
 30
0.0
  9
$PUCSORTHOREF
  2

  9
$PUCSORTHOVIEW
 70
     0
  9
$PUCSORGTOP
 10
0.0
 20
0.0
 30
0.0
  9
$PUCSORGBOTTOM
 10
0.0
 20
0.0
 30
0.0
  9
$PUCSORGLEFT
 10
0.0
 20
0.0
 30
0.0
  9
$PUCSORGRIGHT
 10
0.0
 20
0.0
 30
0.0
  9
$PUCSORGFRONT
 10
0.0
 20
0.0
 30
0.0
  9
$PUCSORGBACK
 10
0.0
 20
0.0
 30
0.0
  9
$USERI1
 70
     0
  9
$USERI2
 70
     0
  9
$USERI3
 70
     0
  9
$USERI4
 70
     0
  9
$USERI5
 70
     0
  9
$USERR1
 40
18.1
  9
$USERR2
 40
0.0
  9
$USERR3
 40
0.0
  9
$USERR4
 40
0.0
  9
$USERR5
 40
0.0
  9
$WORLDVIEW
 70
     1
  9
$SHADEDGE
 70
     3
  9
$SHADEDIF
 70
    70
  9
$TILEMODE
 70
     1
  9
$MAXACTVP
 70
    64
  9
$PINSBASE
 10
0.0
 20
0.0
 30
0.0
  9
$PLIMCHECK
 70
     0
  9
$PEXTMIN
 10
1.00000000000000E+20
 20
1.00000000000000E+20
 30
1.00000000000000E+20
  9
$PEXTMAX
 10
-1.00000000000000E+20
 20
-1.00000000000000E+20
 30
-1.00000000000000E+20
  9
$PLIMMIN
 10
0.0
 20
0.0
  9
$PLIMMAX
 10
12.0
 20
9.0
  9
$UNITMODE
 70
     0
  9
$VISRETAIN
 70
     1
  9
$PLINEGEN
 70
     0
  9
$PSLTSCALE
 70
     1
  9
$TREEDEPTH
 70
  3020
  9
$CMLSTYLE
  2
Standard
  9
$CMLJUST
 70
     0
  9
$CMLSCALE
 40
1.0
  9
$PROXYGRAPHICS
 70
     1
  9
$MEASUREMENT
 70
     1
  9
$CELWEIGHT
370
    -1
  9
$ENDCAPS
280
     0
  9
$JOINSTYLE
280
     0
  9
$LWDISPLAY
290
     0
  9
$INSUNITS
 70
     4
  9
$HYPERLINKBASE
  1

  9
$STYLESHEET
  1

  9
$XEDIT
290
     1
  9
$CEPSNTYPE
380
     0
  9
$PSTYLEMODE
290
     1
  9
$FINGERPRINTGUID
  2
{04A21376-8671-46EE-B2C2-BC9558711E86}
  9
$VERSIONGUID
  2
{FAEB1C32-E019-11D5-929B-00C0DF256EC4}
  9
$EXTNAMES
290
     1
  9
$PSVPSCALE
 40
0.0
  9
$OLESTARTUP
290
     0
  9
$SORTENTS
280
   127
  9
$INDEXCTL
280
     0
  9
$HIDETEXT
280
     1
  9
$XCLIPFRAME
290
     0
  9
$HALOGAP
280
     0
  9
$OBSCOLOR
 70
   257
  9
$OBSLTYPE
280
     0
  9
$INTERSECTIONDISPLAY
280
     0
  9
$INTERSECTIONCOLOR
 70
   257
  9
$DIMASSOC
280
     2
  9
$PROJECTNAME
  1

  0
ENDSEC
  0
SECTION
  2
CLASSES
  0
CLASS
  1
ACDBDICTIONARYWDFLT
  2
AcDbDictionaryWithDefault
  3
ObjectDBX Classes
 90
        0
 91
        4
280
     0
281
     0
  0
CLASS
  1
VISUALSTYLE
  2
AcDbVisualStyle
  3
ObjectDBX Classes
 90
     4095
 91
        4
280
     0
281
     0
  0
CLASS
  1
MATERIAL
  2
AcDbMaterial
  3
ObjectDBX Classes
 90
     1153
 91
        4
280
     0
281
     0
  0
ENDSEC
  0
SECTION
  2
TABLES
  0
TABLE
  2
VPORT
  5
8
330
0
100
AcDbSymbolTable
 70
     1
  0
VPORT
  5
29
330
8
100
AcDbSymbolTableRecord
100
AcDbViewportTableRecord
  2
*Active
 70
     0
 10
0.0
 20
0.0
 11
1.0
 21
1.0
 12
-265.0572347967288
 22
-164.4429789443379
 13
0.0
 23
0.0
 14
0.5
 24
0.5
 15
0.5
 25
0.5
 16
0.0
 26
0.0
 36
1.0
 17
0.0
 27
0.0
 37
0.0
 40
231.0000000000001
 41
1.60267857142857
 42
50.0
 43
0.0
 44
0.0
 50
0.0
 51
0.0
 71
     0
 72
   100
 73
     1
 74
     3
 75
     0
 76
     0
 77
     0
 78
     0
281
     0
 65
     1
110
0.0
120
0.0
130
0.0
111
1.0
121
0.0
131
0.0
112
0.0
122
1.0
132
0.0
 79
     0
146
0.0
  0
ENDTAB
  0
TABLE
  2
LTYPE
  5
5
330
0
100
AcDbSymbolTable
 70
     8
  0
LTYPE
  5
14
330
5
100
AcDbSymbolTableRecord
100
AcDbLinetypeTableRecord
  2
ByBlock
 70
     0
  3

 72
    65
 73
     0
 40
0.0
  0
LTYPE
  5
15
330
5
100
AcDbSymbolTableRecord
100
AcDbLinetypeTableRecord
  2
ByLayer
 70
     0
  3

 72
    65
 73
     0
 40
0.0
  0
LTYPE
  5
16
330
5
100
AcDbSymbolTableRecord
100
AcDbLinetypeTableRecord
  2
Continuous
 70
     0
  3
Solid line
 72
    65
 73
     0
 40
0.0
  0
LTYPE
  5
3F
330
5
100
AcDbSymbolTableRecord
100
AcDbLinetypeTableRecord
  2
DASHED
 70
     0
  3
Dashed
 72
    65
 73
     2
 40
15.0
 49
7.0
 74
     0
 49
-8.0
 74
     0
  0
LTYPE
  5
40
330
5
100
AcDbSymbolTableRecord
100
AcDbLinetypeTableRecord
  2
DOTTED
 70
     0
  3
Dotted
 72
    65
 73
     2
 40
1.0
 49
0.0
 74
     0
 49
-1.0
 74
     0
  0
LTYPE
  5
41
330
5
100
AcDbSymbolTableRecord
100
AcDbLinetypeTableRecord
  2
DOT_CENTER
 70
     0
  3
Dot_Center
 72
    65
 73
     4
 40
14.0
 49
12.0
 74
     0
 49
-1.0
 74
     0
 49
0.0
 74
     0
 49
-1.0
 74
     0
  0
LTYPE
  5
42
330
5
100
AcDbSymbolTableRecord
100
AcDbLinetypeTableRecord
  2
LONG_DASHED
 70
     0
  3
Long_Dashed
 72
    65
 73
     2
 40
15.0
 49
10.0
 74
     0
 49
-5.0
 74
     0
  0
LTYPE
  5
43
330
5
100
AcDbSymbolTableRecord
100
AcDbLinetypeTableRecord
  2
DASH_CENTER
 70
     0
  3
Dash_Center
 72
    65
 73
     4
 40
14.0
 49
11.0
 74
     0
 49
-1.0
 74
     0
 49
1.0
 74
     0
 49
-1.0
 74
     0
  0
LTYPE
  5
44
330
5
100
AcDbSymbolTableRecord
100
AcDbLinetypeTableRecord
  2
PHANTOM
 70
     0
  3
Phantom
 72
    65
 73
     6
 40
13.0
 49
10.0
 74
     0
 49
-1.0
 74
     0
 49
0.0
 74
     0
 49
-1.0
 74
     0
 49
0.0
 74
     0
 49
-1.0
 74
     0
  0
LTYPE
  5
45
330
5
100
AcDbSymbolTableRecord
100
AcDbLinetypeTableRecord
  2
CENTER_DASH_DASH
 70
     0
  3
Center_Dash_Dash
 72
    65
 73
     6
 40
14.0
 49
9.0
 74
     0
 49
-1.0
 74
     0
 49
1.0
 74
     0
 49
-1.0
 74
     0
 49
1.0
 74
     0
 49
-1.0
 74
     0
  0
ENDTAB
  0
TABLE
  2
LAYER
  5
2
330
0
100
AcDbSymbolTable
 70
     2
  0
LAYER
  5
10
330
2
100
AcDbSymbolTableRecord
100
AcDbLayerTableRecord
  2
0
 70
     0
 62
     7
  6
Continuous
370
    -3
390
F
  0
LAYER
  5
46
330
2
100
AcDbSymbolTableRecord
100
AcDbLayerTableRecord
  2
1
 70
     0
 62
     7
  6
Continuous
370
    -3
390
F
  0
ENDTAB
  0
TABLE
  2
STYLE
  5
3
330
0
100
AcDbSymbolTable
 70
     5
  0
STYLE
  5
11
330
3
100
AcDbSymbolTableRecord
100
AcDbTextStyleTableRecord
  2
Standard
 70
     0
 40
0.0
 41
1.0
 50
0.0
 71
     0
 42
0.2
  3
txt
  4

  0
STYLE
  5
FB
330
3
100
AcDbSymbolTableRecord
100
AcDbTextStyleTableRecord
  2
CONVERTER_11
 70
     0
 40
0.0
 41
0.9
 50
0.0
 71
     0
 42
0.2
  3
txt.shx
  4

  0
STYLE
  5
31D
330
3
100
AcDbSymbolTableRecord
100
AcDbTextStyleTableRecord
  2
CONVERTER_12
 70
     0
 40
0.0
 41
0.81
 50
0.0
 71
     0
 42
0.2
  3
txt.shx
  4

  0
STYLE
  5
333
330
3
100
AcDbSymbolTableRecord
100
AcDbTextStyleTableRecord
  2
CONVERTER_13
 70
     0
 40
0.0
 41
0.72
 50
0.0
 71
     0
 42
0.2
  3
txt.shx
  4

  0
STYLE
  5
336
330
3
100
AcDbSymbolTableRecord
100
AcDbTextStyleTableRecord
  2
CONVERTER_14
 70
     0
 40
0.0
 41
0.855
 50
0.0
 71
     0
 42
0.2
  3
txt.shx
  4

  0
ENDTAB
  0
TABLE
  2
VIEW
  5
6
330
0
100
AcDbSymbolTable
 70
     0
  0
ENDTAB
  0
TABLE
  2
UCS
  5
7
330
0
100
AcDbSymbolTable
 70
     0
  0
ENDTAB
  0
TABLE
  2
APPID
  5
9
330
0
100
AcDbSymbolTable
 70
     1
  0
APPID
  5
12
330
9
100
AcDbSymbolTableRecord
100
AcDbRegAppTableRecord
  2
ACAD
 70
     0
  0
ENDTAB
  0
TABLE
  2
DIMSTYLE
  5
A
330
0
100
AcDbSymbolTable
 70
     5
100
AcDbDimStyleTable
  0
DIMSTYLE
105
27
330
A
100
AcDbSymbolTableRecord
100
AcDbDimStyleTableRecord
  2
Standard
 70
     0
178
     0
340
11
  0
DIMSTYLE
105
15A
102
{ACAD_REACTORS
330
15B
102
}
330
A
100
AcDbSymbolTableRecord
100
AcDbDimStyleTableRecord
  2
ME10_DIM_10
 70
     0
 41
1.75
 42
0.0
 44
0.75
 73
     0
 74
     0
 77
     1
 78
     8
140
1.75
147
0.75
172
     1
173
     1
174
     1
175
     1
176
     2
177
     2
178
     3
340
FB
  0
DIMSTYLE
105
209
102
{ACAD_REACTORS
330
20A
102
}
330
A
100
AcDbSymbolTableRecord
100
AcDbDimStyleTableRecord
  2
ME10_DIM_11
 70
     0
 41
1.75
 42
0.0
 44
0.75
 73
     0
 74
     0
 77
     1
 78
     8
140
1.75
147
0.75
172
     1
173
     1
174
     1
175
     1
176
     2
177
     2
178
     3
340
FB
  0
DIMSTYLE
105
214
102
{ACAD_REACTORS
330
215
102
}
330
A
100
AcDbSymbolTableRecord
100
AcDbDimStyleTableRecord
  2
ME10_DIM_12
 70
     0
 41
1.75
 42
0.0
 44
0.75
 73
     0
 74
     0
 77
     1
 78
     8
140
1.75
147
0.75
172
     1
173
     1
174
     1
175
     1
176
     2
177
     2
178
     3
340
FB
  0
DIMSTYLE
105
21F
102
{ACAD_REACTORS
330
220
102
}
330
A
100
AcDbSymbolTableRecord
100
AcDbDimStyleTableRecord
  2
ME10_DIM_13
 70
     0
 41
1.75
 42
0.0
 44
0.75
 73
     0
 74
     0
 77
     1
 78
     8
140
1.75
147
0.75
172
     1
173
     1
174
     1
175
     1
176
     2
177
     2
178
     3
340
FB
  0
ENDTAB
  0
TABLE
  2
BLOCK_RECORD
  5
1
330
0
100
AcDbSymbolTable
 70
    21
  0
BLOCK_RECORD
  5
1F
330
1
100
AcDbSymbolTableRecord
100
AcDbBlockTableRecord
  2
*Model_Space
340
22
  0
BLOCK_RECORD
  5
1B
330
1
100
AcDbSymbolTableRecord
100
AcDbBlockTableRecord
  2
*Paper_Space
340
1E
  0
BLOCK_RECORD
  5
23
330
1
100
AcDbSymbolTableRecord
100
AcDbBlockTableRecord
  2
*Paper_Space0
340
26
  0
BLOCK_RECORD
  5
47
330
1
100
AcDbSymbolTableRecord
100
AcDbBlockTableRecord
  2
AB_SS_EX-select__1
340
0
102
{BLKREFS
331
4B
102
}
  0
BLOCK_RECORD
  5
4A
330
1
100
AcDbSymbolTableRecord
100
AcDbBlockTableRecord
  2
Allg1
340
0
102
{BLKREFS
331
7D
102
}
  0
BLOCK_RECORD
  5
4E
330
1
100
AcDbSymbolTableRecord
100
AcDbBlockTableRecord
  2
AB_SS_EX-select__2
340
0
102
{BLKREFS
331
52
102
}
  0
BLOCK_RECORD
  5
51
330
1
100
AcDbSymbolTableRecord
100
AcDbBlockTableRecord
  2
Drfsicht1
340
0
102
{BLKREFS
331
7E
102
}
  0
BLOCK_RECORD
  5
55
330
1
100
AcDbSymbolTableRecord
100
AcDbBlockTableRecord
  2
AB_SS_EX-select__3
340
0
102
{BLKREFS
331
59
102
}
  0
BLOCK_RECORD
  5
58
330
1
100
AcDbSymbolTableRecord
100
AcDbBlockTableRecord
  2
Rckans1
340
0
102
{BLKREFS
331
7F
102
}
  0
BLOCK_RECORD
  5
5C
330
1
100
AcDbSymbolTableRecord
100
AcDbBlockTableRecord
  2
AB_SS_EX-select__4
340
0
102
{BLKREFS
331
60
102
}
  0
BLOCK_RECORD
  5
5F
330
1
100
AcDbSymbolTableRecord
100
AcDbBlockTableRecord
  2
SA_Links1
340
0
102
{BLKREFS
331
80
102
}
  0
BLOCK_RECORD
  5
63
330
1
100
AcDbSymbolTableRecord
100
AcDbBlockTableRecord
  2
AB_SS_EX-select__5
340
0
102
{BLKREFS
331
67
102
}
  0
BLOCK_RECORD
  5
66
330
1
100
AcDbSymbolTableRecord
100
AcDbBlockTableRecord
  2
SA_Rechts1
340
0
102
{BLKREFS
331
81
102
}
  0
BLOCK_RECORD
  5
6A
330
1
100
AcDbSymbolTableRecord
100
AcDbBlockTableRecord
  2
AB_SS_EX-select__6
340
0
102
{BLKREFS
331
6E
102
}
  0
BLOCK_RECORD
  5
6D
330
1
100
AcDbSymbolTableRecord
100
AcDbBlockTableRecord
  2
Vordans1
340
0
102
{BLKREFS
331
82
102
}
  0
BLOCK_RECORD
  5
71
330
1
100
AcDbSymbolTableRecord
100
AcDbBlockTableRecord
  2
_rahmen
340
0
102
{BLKREFS
331
78
102
}
  0
BLOCK_RECORD
  5
74
330
1
100
AcDbSymbolTableRecord
100
AcDbBlockTableRecord
  2
_punkt
340
0
102
{BLKREFS
331
79
102
}
  0
BLOCK_RECORD
  5
77
330
1
100
AcDbSymbolTableRecord
100
AcDbBlockTableRecord
  2
A4I_CS
340
0
102
{BLKREFS
331
83
102
}
  0
BLOCK_RECORD
  5
7C
330
1
100
AcDbSymbolTableRecord
100
AcDbBlockTableRecord
  2
1
340
0
102
{BLKREFS
331
86
102
}
  0
BLOCK_RECORD
  5
151
330
1
100
AcDbSymbolTableRecord
100
AcDbBlockTableRecord
  2
*D17
340
0
  0
BLOCK_RECORD
  5
200
330
1
100
AcDbSymbolTableRecord
100
AcDbBlockTableRecord
  2
*D18
340
0
  0
BLOCK_RECORD
  5
20B
330
1
100
AcDbSymbolTableRecord
100
AcDbBlockTableRecord
  2
*D19
340
0
  0
BLOCK_RECORD
  5
216
330
1
100
AcDbSymbolTableRecord
100
AcDbBlockTableRecord
  2
*D20
340
0
  0
ENDTAB
  0
ENDSEC
  0
SECTION
  2
BLOCKS
  0
BLOCK
  5
20
330
1F
100
AcDbEntity
  8
0
100
AcDbBlockBegin
  2
*Model_Space
 70
     0
 10
0.0
 20
0.0
 30
0.0
  3
*Model_Space
  1

  0
ENDBLK
  5
21
330
1F
100
AcDbEntity
  8
0
100
AcDbBlockEnd
  0
BLOCK
  5
1C
330
1B
100
AcDbEntity
 67
     1
  8
0
100
AcDbBlockBegin
  2
*Paper_Space
 70
     0
 10
0.0
 20
0.0
 30
0.0
  3
*Paper_Space
  1

  0
ENDBLK
  5
1D
330
1B
100
AcDbEntity
 67
     1
  8
0
100
AcDbBlockEnd
  0
BLOCK
  5
24
330
23
100
AcDbEntity
  8
0
100
AcDbBlockBegin
  2
*Paper_Space0
 70
     0
 10
0.0
 20
0.0
 30
0.0
  3
*Paper_Space0
  1

  0
ENDBLK
  5
25
330
23
100
AcDbEntity
  8
0
100
AcDbBlockEnd
  0
BLOCK
  5
48
330
47
100
AcDbEntity
  8
0
100
AcDbBlockBegin
  2
AB_SS_EX-select__1
 70
     0
 10
-112.4824960999735
 20
-111.1359579280162
 30
0.0
  3
AB_SS_EX-select__1
  1

  0
LINE
  5
87
330
47
100
AcDbEntity
  8
0
  6
Continuous
 62
     7
100
AcDbLine
 10
-88.91750165141764
 20
-92.25660412551548
 30
0.0
 11
-94.63326931639494
 21
-90.60660412551547
 31
0.0
  0
LINE
  5
88
330
47
100
AcDbEntity
  8
0
  6
Continuous
 62
     7
100
AcDbLine
 10
-91.53326931639498
 20
-90.21689269381247
 30
0.0
 11
-93.43218732595642
 21
-89.6687222818178
 31
0.0
  0
LINE
  5
89
330
47
100
AcDbEntity
  8
0
  6
Continuous
 62
     7
100
AcDbLine
 10
-85.81750165141767
 20
-94.46496890516579
 30
0.0
 11
-85.81750165141767
 21
-89.57192537378373
 31
0.0
  0
LINE
  5
8A
330
47
100
AcDbEntity
  8
0
  6
Continuous
 62
     7
100
AcDbLine
 10
-82.51750165141766
 20
-102.7355115113072
 30
0.0
 11
-82.51750165141766
 21
-86.71404154129507
 31
0.0
  0
LINE
  5
8B
330
47
100
AcDbEntity
  8
0
  6
Continuous
 62
     7
100
AcDbLine
 10
-88.91750165141764
 20
-97.14964765689754
 30
0.0
 11
-88.91750165141764
 21
-92.25660412551548
 31
0.0
  0
LINE
  5
8C
330
47
100
AcDbEntity
  8
0
  6
Continuous
 62
     7
100
AcDbLine
 10
-92.21750165141765
 20
-111.1359579280162
 30
0.0
 11
-92.21750165141765
 21
-95.11448795800413
 31
0.0
  0
LINE
  5
8D
330
47
100
AcDbEntity
  8
0
  6
Continuous
 62
     7
100
AcDbLine
 10
-94.63326931639494
 20
-90.60660412551547
 30
0.0
 11
-97.93326931639496
 21
-93.46448795800413
 31
0.0
  0
LINE
  5
8E
330
47
100
AcDbEntity
  8
0
  6
Continuous
 62
     7
100
AcDbLine
 10
-97.93326931639496
 20
-93.46448795800413
 30
0.0
 11
-92.21750165141765
 21
-95.11448795800413
 31
0.0
  0
LINE
  5
8F
330
47
100
AcDbEntity
  8
0
  6
Continuous
 62
     7
100
AcDbLine
 10
-93.43218732595642
 20
-90.95332663076474
 30
0.0
 11
-93.43218732595642
 21
-89.6687222818178
 31
0.0
  0
LINE
  5
90
330
47
100
AcDbEntity
  8
0
  6
Continuous
 62
     7
100
AcDbLine
 10
-98.46781042543478
 20
-90.81313931716045
 30
0.0
 11
-98.46781042543478
 21
-88.21506310580713
 31
0.0
  0
LINE
  5
91
330
47
100
AcDbEntity
  8
0
  6
Continuous
 62
     7
100
AcDbLine
 10
-92.21750165141765
 20
-111.1359579280162
 30
0.0
 11
-82.51750165141766
 21
-102.7355115113072
 31
0.0
  0
LINE
  5
92
330
47
100
AcDbEntity
  8
0
  6
Continuous
 62
     7
100
AcDbLine
 10
-87.15610644675206
 20
-88.14783930217243
 30
0.0
 11
-87.15610644675206
 21
-86.84880119649577
 31
0.0
  0
LINE
  5
93
330
47
100
AcDbEntity
  8
0
  6
Continuous
 62
     7
100
AcDbLine
 10
-87.46782803349592
 20
-85.95253103737508
 30
0.0
 11
-85.9444066622244
 21
-87.91236975415418
 31
0.0
  0
LINE
  5
94
330
47
100
AcDbEntity
  8
0
  6
Continuous
 62
     7
100
AcDbLine
 10
-100.3667284349962
 20
-87.66689269381249
 30
0.0
 11
-100.3667284349962
 21
-85.37192537378371
 31
0.0
  0
LINE
  5
95
330
47
100
AcDbEntity
  8
0
  6
Continuous
 62
     7
100
AcDbLine
 10
-100.3667284349962
 20
-85.37192537378371
 30
0.0
 11
-97.06672843499621
 21
-82.51404154129506
 31
0.0
  0
LINE
  5
96
330
47
100
AcDbEntity
  8
0
  6
Continuous
 62
     7
100
AcDbLine
 10
-97.06672843499621
 20
-84.80900886132383
 30
0.0
 11
-100.3667284349962
 21
-87.66689269381249
 31
0.0
  0
LINE
  5
97
330
47
100
AcDbEntity
  8
0
  6
Continuous
 62
     7
100
AcDbLine
 10
-98.46781042543478
 20
-88.21506310580713
 30
0.0
 11
-100.3667284349962
 21
-87.66689269381249
 31
0.0
  0
LINE
  5
98
330
47
100
AcDbEntity
  8
0
  6
Continuous
 62
     7
100
AcDbLine
 10
-89.35351024787249
 20
-83.52665394193147
 30
0.0
 11
-87.83008887660091
 21
-85.48649265871063
 31
0.0
  0
LINE
  5
99
330
47
100
AcDbEntity
  8
0
  6
Continuous
 62
     7
100
AcDbLine
 10
-101.9951894040789
 20
-88.49583461005679
 30
0.0
 11
-101.9951894040789
 21
-85.5513482371897
 31
0.0
  0
LINE
  5
9A
330
47
100
AcDbEntity
  8
0
  6
Continuous
 62
     7
100
AcDbLine
 10
-107.1699088747902
 20
-85.90210220053109
 30
0.0
 11
-110.9668269195346
 21
-86.63995706134287
 31
0.0
  0
LINE
  5
9B
330
47
100
AcDbEntity
  8
0
  6
Continuous
 62
     7
100
AcDbLine
 10
-105.9582090902625
 20
-86.42923425114384
 30
0.0
 11
-106.3204699333675
 21
-86.49963237952505
 31
0.0
  0
LINE
  5
9C
330
47
100
AcDbEntity
  8
0
  6
Continuous
 62
     7
100
AcDbLine
 10
-106.3204699333675
 20
-85.2005942738484
 30
0.0
 11
-106.3204699333675
 21
-86.49963237952505
 31
0.0
  0
LINE
  5
9D
330
47
100
AcDbEntity
  8
0
  6
Continuous
 62
     7
100
AcDbLine
 10
-107.5321697178952
 20
-85.43606382186664
 30
0.0
 11
-107.5321697178952
 21
-85.9725003289123
 31
0.0
  0
LINE
  5
9E
330
47
100
AcDbEntity
  8
0
  6
Continuous
 62
     7
100
AcDbLine
 10
-107.8438913046391
 20
-84.5397936627459
 30
0.0
 11
-107.8438913046391
 21
-83.24075555706924
 31
0.0
  0
LINE
  5
9F
330
47
100
AcDbEntity
  8
0
  6
Continuous
 62
     7
100
AcDbLine
 10
-102.7824960999735
 20
-80.86404154129505
 30
0.0
 11
-105.5419620174895
 21
-83.25380912674123
 31
0.0
  0
LINE
  5
A0
330
47
100
AcDbEntity
  8
0
  6
Continuous
 62
     7
100
AcDbLine
 10
-107.8438913046391
 20
-83.24075555706924
 30
0.0
 11
-106.3204699333675
 21
-85.2005942738484
 31
0.0
  0
LINE
  5
A1
330
47
100
AcDbEntity
  8
0
  6
Continuous
 62
     7
100
AcDbLine
 10
-106.3204699333675
 20
-85.2005942738484
 30
0.0
 11
-102.5235518886231
 21
-84.46273941303662
 31
0.0
  0
LINE
  5
A2
330
47
100
AcDbEntity
  8
0
  6
Continuous
 62
     7
100
AcDbLine
 10
-107.5321697178952
 20
-85.43606382186664
 30
0.0
 11
-109.0555910891668
 21
-83.47622510508748
 31
0.0
  0
LINE
  5
A3
330
47
100
AcDbEntity
  8
0
  6
Continuous
 62
     7
100
AcDbLine
 10
-111.3290877626396
 20
-86.17391868267839
 30
0.0
 11
-107.5321697178952
 21
-85.43606382186664
 31
0.0
  0
LINE
  5
A4
330
47
100
AcDbEntity
  8
0
  6
Continuous
 62
     7
100
AcDbLine
 10
-107.8438913046391
 20
-84.5397936627459
 30
0.0
 11
-106.3204699333675
 21
-86.49963237952505
 31
0.0
  0
LINE
  5
A5
330
47
100
AcDbEntity
  8
0
  6
Continuous
 62
     7
100
AcDbLine
 10
-83.50480834731229
 20
-87.4826948892424
 30
0.0
 11
-83.50480834731229
 21
-84.5382085163753
 31
0.0
  0
LINE
  5
A6
330
47
100
AcDbEntity
  8
0
  6
Continuous
 62
     7
100
AcDbLine
 10
-82.51750165141766
 20
-86.71404154129507
 30
0.0
 11
-83.50480834731229
 21
-86.42903064797133
 31
0.0
  0
LINE
  5
A7
330
47
100
AcDbEntity
  8
0
  6
Continuous
 62
     7
100
AcDbLine
 10
-83.50816626480099
 20
-87.5719822631153
 30
0.0
 11
-82.51750165141766
 21
-86.71404154129507
 31
0.0
  0
LINE
  5
A8
330
47
100
AcDbEntity
  8
0
  6
Continuous
 62
     7
100
AcDbLine
 10
-92.47644586276806
 20
-86.9258554462051
 30
0.0
 11
-92.47644586276806
 21
-85.62681734052848
 31
0.0
  0
LINE
  5
A9
330
47
100
AcDbEntity
  8
0
  6
Continuous
 62
     7
100
AcDbLine
 10
-93.00480834731229
 20
-87.4826948892424
 30
0.0
 11
-93.00480834731229
 21
-84.5382085163753
 31
0.0
  0
LINE
  5
AA
330
47
100
AcDbEntity
  8
0
  6
Continuous
 62
     7
100
AcDbLine
 10
-87.15610644675206
 20
-86.84880119649577
 30
0.0
 11
-88.67952781802359
 21
-84.88896247971667
 31
0.0
  0
LINE
  5
AB
330
47
100
AcDbEntity
  8
0
  6
Continuous
 62
     7
100
AcDbLine
 10
-83.6709099887515
 20
-83.91563807088667
 30
0.0
 11
-87.46782803349592
 21
-84.65349293169842
 31
0.0
  0
LINE
  5
AC
330
47
100
AcDbEntity
  8
0
  6
Continuous
 62
     7
100
AcDbLine
 10
-92.83870670587305
 20
-86.45981706754065
 30
0.0
 11
-92.83870670587305
 21
-85.16077896186397
 31
0.0
  0
LINE
  5
AD
330
47
100
AcDbEntity
  8
0
  6
Continuous
 62
     7
100
AcDbLine
 10
-92.47644586276806
 20
-86.38941893915944
 30
0.0
 11
-92.83870670587305
 21
-86.45981706754065
 31
0.0
  0
LINE
  5
AE
330
47
100
AcDbEntity
  8
0
  6
Continuous
 62
     7
100
AcDbLine
 10
-87.46782803349592
 20
-84.65349293169842
 30
0.0
 11
-87.46782803349592
 21
-85.95253103737508
 31
0.0
  0
LINE
  5
AF
330
47
100
AcDbEntity
  8
0
  6
Continuous
 62
     7
100
AcDbLine
 10
-87.46782803349592
 20
-84.65349293169842
 30
0.0
 11
-85.9444066622244
 21
-86.61333164847753
 31
0.0
  0
LINE
  5
B0
330
47
100
AcDbEntity
  8
0
  6
Continuous
 62
     7
100
AcDbLine
 10
-102.1612910455181
 20
-84.9287777917011
 30
0.0
 11
-105.9582090902625
 21
-85.66663265251285
 31
0.0
  0
LINE
  5
B1
330
47
100
AcDbEntity
  8
0
  6
Continuous
 62
     7
100
AcDbLine
 10
-102.5235518886231
 20
-84.99917592008228
 30
0.0
 11
-102.5235518886231
 21
-84.46273941303662
 31
0.0
  0
LINE
  5
B2
330
47
100
AcDbEntity
  8
0
  6
Continuous
 62
     7
100
AcDbLine
 10
-102.5235518886231
 20
-84.74930407301076
 30
0.0
 11
-100.3667284349962
 21
-85.37192537378371
 31
0.0
  0
LINE
  5
B3
330
47
100
AcDbEntity
  8
0
  6
Continuous
 62
     7
100
AcDbLine
 10
-88.67952781802359
 20
-84.88896247971667
 30
0.0
 11
-92.47644586276806
 21
-85.62681734052848
 31
0.0
  0
LINE
  5
B4
330
47
100
AcDbEntity
  8
0
  6
Continuous
 62
     7
100
AcDbLine
 10
-87.46782803349595
 20
-85.41609453032942
 30
0.0
 11
-87.83008887660091
 21
-85.48649265871063
 31
0.0
  0
LINE
  5
B5
330
47
100
AcDbEntity
  8
0
  6
Continuous
 62
     7
100
AcDbLine
 10
-87.83008887660091
 20
-84.18745455303397
 30
0.0
 11
-87.83008887660091
 21
-85.48649265871063
 31
0.0
  0
LINE
  5
B6
330
47
100
AcDbEntity
  8
0
  6
Continuous
 62
     7
100
AcDbLine
 10
-89.04178866112858
 20
-84.42292410105222
 30
0.0
 11
-89.04178866112858
 21
-84.95936060809788
 31
0.0
  0
LINE
  5
B7
330
47
100
AcDbEntity
  8
0
  6
Continuous
 62
     7
100
AcDbLine
 10
-92.83870670587305
 20
-85.16077896186397
 30
0.0
 11
-89.04178866112858
 21
-84.42292410105222
 31
0.0
  0
LINE
  5
B8
330
47
100
AcDbEntity
  8
0
  6
Continuous
 62
     7
100
AcDbLine
 10
-97.06672843499621
 20
-84.80900886132383
 30
0.0
 11
-93.00480834731229
 21
-85.98158418934935
 31
0.0
  0
LINE
  5
B9
330
47
100
AcDbEntity
  8
0
  6
Continuous
 62
     7
100
AcDbLine
 10
-91.53326931639498
 20
-90.21689269381247
 30
0.0
 11
-91.53326931639498
 21
-89.2012839671055
 31
0.0
  0
LINE
  5
BA
330
47
100
AcDbEntity
  8
0
  6
Continuous
 62
     7
100
AcDbLine
 10
-85.81750165141767
 20
-89.57192537378373
 30
0.0
 11
-85.72683703803438
 21
-89.49340751536948
 31
0.0
  0
LINE
  5
BB
330
47
100
AcDbEntity
  8
0
  6
Continuous
 62
     7
100
AcDbLine
 10
-85.90489637657276
 20
-89.54669668973668
 30
0.0
 11
-85.81750165141767
 21
-89.57192537378373
 31
0.0
  0
LINE
  5
BC
330
47
100
AcDbEntity
  8
0
  6
Continuous
 62
     7
100
AcDbLine
 10
-103.4667284349962
 20
-90.35157144554424
 30
0.0
 11
-103.4667284349962
 21
-90.21442368791992
 31
0.0
  0
LINE
  5
BD
330
47
100
AcDbEntity
  8
0
  6
Continuous
 62
     7
100
AcDbLine
 10
-103.4667284349962
 20
-90.35157144554424
 30
0.0
 11
-101.5678104254348
 21
-90.89974185753891
 31
0.0
  0
LINE
  5
BE
330
47
100
AcDbEntity
  8
0
  6
Continuous
 62
     7
100
AcDbLine
 10
-112.4824960999735
 20
-89.26448795800414
 30
0.0
 11
-110.7666146563331
 21
-89.75982026469578
 31
0.0
  0
LINE
  5
BF
330
47
100
AcDbEntity
  8
0
  6
Continuous
 62
     7
100
AcDbLine
 10
-102.5704933666799
 20
-89.6287967668967
 30
0.0
 11
-98.46781042543478
 21
-90.81313931716045
 31
0.0
  0
LINE
  5
C0
330
47
100
AcDbEntity
  8
0
  6
Continuous
 62
     7
100
AcDbLine
 10
-84.03317083185647
 20
-83.98603619926786
 30
0.0
 11
-84.03317083185647
 21
-83.4495996922222
 31
0.0
  0
LINE
  5
C1
330
47
100
AcDbEntity
  8
0
  6
Continuous
 62
     7
100
AcDbLine
 10
-89.35351024787249
 20
-83.52665394193147
 30
0.0
 11
-89.35351024787249
 21
-82.22761583625481
 31
0.0
  0
LINE
  5
C2
330
47
100
AcDbEntity
  8
0
  6
Continuous
 62
     7
100
AcDbLine
 10
-97.06672843499621
 20
-82.51404154129506
 30
0.0
 11
-102.7824960999735
 21
-80.86404154129505
 31
0.0
  0
LINE
  5
C3
330
47
100
AcDbEntity
  8
0
  6
Continuous
 62
     7
100
AcDbLine
 10
-89.35351024787249
 20
-82.22761583625481
 30
0.0
 11
-87.83008887660091
 21
-84.18745455303397
 31
0.0
  0
LINE
  5
C4
330
47
100
AcDbEntity
  8
0
  6
Continuous
 62
     7
100
AcDbLine
 10
-87.83008887660091
 20
-84.18745455303397
 30
0.0
 11
-84.03317083185647
 21
-83.4495996922222
 31
0.0
  0
LINE
  5
C5
330
47
100
AcDbEntity
  8
0
  6
Continuous
 62
     7
100
AcDbLine
 10
-89.04178866112858
 20
-84.42292410105222
 30
0.0
 11
-90.56521003240019
 21
-82.46308538427306
 31
0.0
  0
LINE
  5
C6
330
47
100
AcDbEntity
  8
0
  6
Continuous
 62
     7
100
AcDbLine
 10
-97.06672843499621
 20
-84.80900886132383
 30
0.0
 11
-97.06672843499621
 21
-82.51404154129506
 31
0.0
  0
LINE
  5
C7
330
47
100
AcDbEntity
  8
0
  6
Continuous
 62
     7
100
AcDbLine
 10
-106.7667284349962
 20
-93.20945527803289
 30
0.0
 11
-106.7667284349962
 21
-90.91448795800412
 31
0.0
  0
LINE
  5
C8
330
47
100
AcDbEntity
  8
0
  6
Continuous
 62
     7
100
AcDbLine
 10
-105.9582090902625
 20
-85.66663265251285
 30
0.0
 11
-105.9582090902625
 21
-86.9656707581895
 31
0.0
  0
LINE
  5
C9
330
47
100
AcDbEntity
  8
0
  6
Continuous
 62
     7
100
AcDbLine
 10
-111.3290877626396
 20
-87.47295678835505
 30
0.0
 11
-111.3290877626396
 21
-86.17391868267839
 31
0.0
  0
LINE
  5
CA
330
47
100
AcDbEntity
  8
0
  6
Continuous
 62
     7
100
AcDbLine
 10
-106.7667284349962
 20
-90.91448795800412
 30
0.0
 11
-106.7162710669022
 21
-90.87079059542657
 31
0.0
  0
LINE
  5
CB
330
47
100
AcDbEntity
  8
0
  6
Continuous
 62
     7
100
AcDbLine
 10
-106.9237641518247
 20
-90.86915565131247
 30
0.0
 11
-106.7667284349962
 21
-90.91448795800412
 31
0.0
  0
LINE
  5
CC
330
47
100
AcDbEntity
  8
0
  6
Continuous
 62
     7
100
AcDbLine
 10
-103.4667284349962
 20
-90.35157144554424
 30
0.0
 11
-106.7667284349962
 21
-93.20945527803289
 31
0.0
  0
LINE
  5
CD
330
47
100
AcDbEntity
  8
0
  6
Continuous
 62
     7
100
AcDbLine
 10
-105.6464875035187
 20
-87.86194091731019
 30
0.0
 11
-107.1699088747902
 21
-85.90210220053109
 31
0.0
  0
LINE
  5
CE
330
47
100
AcDbEntity
  8
0
  6
Continuous
 62
     7
100
AcDbLine
 10
-105.9582090902625
 20
-85.66663265251285
 30
0.0
 11
-104.434787718991
 21
-87.62647136929195
 31
0.0
  0
LINE
  5
CF
330
47
100
AcDbEntity
  8
0
  6
Continuous
 62
     7
100
AcDbLine
 10
-111.4951894040789
 20
-88.49583461005679
 30
0.0
 11
-111.4951894040789
 21
-85.5513482371897
 31
0.0
  0
LINE
  5
D0
330
47
100
AcDbEntity
  8
0
  6
Continuous
 62
     7
100
AcDbLine
 10
-112.4824960999735
 20
-105.2859579280162
 30
0.0
 11
-112.4824960999735
 21
-89.26448795800414
 31
0.0
  0
LINE
  5
D1
330
47
100
AcDbEntity
  8
0
  6
Continuous
 62
     7
100
AcDbLine
 10
-110.9668269195346
 20
-87.93899516701953
 30
0.0
 11
-110.9668269195346
 21
-86.63995706134287
 31
0.0
  0
LINE
  5
D2
330
47
100
AcDbEntity
  8
0
  6
Continuous
 62
     7
100
AcDbLine
 10
-105.6464875035187
 20
-89.16097902298685
 30
0.0
 11
-105.6464875035187
 21
-87.86194091731019
 31
0.0
  0
LINE
  5
D3
330
47
100
AcDbEntity
  8
0
  6
Continuous
 62
     7
100
AcDbLine
 10
-104.434787718991
 20
-88.92550947496858
 30
0.0
 11
-104.434787718991
 21
-87.62647136929195
 31
0.0
  0
LINE
  5
D4
330
47
100
AcDbEntity
  8
0
  6
Continuous
 62
     7
100
AcDbLine
 10
-110.9668269195346
 20
-87.40255865997386
 30
0.0
 11
-111.3290877626396
 21
-87.47295678835505
 31
0.0
  0
LINE
  5
D5
330
47
100
AcDbEntity
  8
0
  6
Continuous
 62
     7
100
AcDbLine
 10
-105.9582090902625
 20
-86.9656707581895
 30
0.0
 11
-104.434787718991
 21
-88.92550947496858
 31
0.0
  0
LINE
  5
D6
330
47
100
AcDbEntity
  8
0
  6
Continuous
 62
     7
100
AcDbLine
 10
-85.9444066622244
 20
-87.91236975415418
 30
0.0
 11
-85.9444066622244
 21
-86.61333164847753
 31
0.0
  0
LINE
  5
D7
330
47
100
AcDbEntity
  8
0
  6
Continuous
 62
     7
100
AcDbLine
 10
-111.4951894040789
 20
-88.40945527803288
 30
0.0
 11
-112.4824960999735
 21
-89.26448795800414
 31
0.0
  0
LINE
  5
D8
330
47
100
AcDbEntity
  8
0
  6
Continuous
 62
     7
100
AcDbLine
 10
-88.91750165141764
 20
-93.57007598792188
 30
0.0
 11
-85.81750165141767
 21
-94.46496890516579
 31
0.0
  0
LINE
  5
D9
330
47
100
AcDbEntity
  8
0
  6
Continuous
 62
     7
100
AcDbLine
 10
-97.93326931639496
 20
-95.75945527803287
 30
0.0
 11
-97.93326931639496
 21
-93.46448795800413
 31
0.0
  0
LINE
  5
DA
330
47
100
AcDbEntity
  8
0
  6
Continuous
 62
     7
100
AcDbLine
 10
-92.21750165141765
 20
-95.11448795800413
 30
0.0
 11
-88.91750165141764
 21
-92.25660412551548
 31
0.0
  0
LINE
  5
DB
330
47
100
AcDbEntity
  8
0
  6
Continuous
 62
     7
100
AcDbLine
 10
-97.93326931639496
 20
-95.75945527803287
 30
0.0
 11
-106.7667284349962
 21
-93.20945527803289
 31
0.0
  0
LINE
  5
DC
330
47
100
AcDbEntity
  8
0
  6
Continuous
 62
     7
100
AcDbLine
 10
-85.81750165141767
 20
-94.46496890516579
 30
0.0
 11
-88.91750165141764
 21
-97.14964765689754
 31
0.0
  0
LINE
  5
DD
330
47
100
AcDbEntity
  8
0
  6
Continuous
 62
     7
100
AcDbLine
 10
-92.21750165141765
 20
-111.1359579280162
 30
0.0
 11
-112.4824960999735
 21
-105.2859579280162
 31
0.0
  0
SPLINE
  5
DE
330
47
100
AcDbEntity
  8
0
  6
Continuous
 62
     7
100
AcDbSpline
210
0.0
220
0.0
230
1.0
 70
     8
 71
     3
 72
    13
 73
     9
 74
     7
 42
0.000000001
 43
0.0000000001
 44
0.00000001
 40
0.0
 40
0.0
 40
0.0
 40
0.0
 40
0.6360174643544009
 40
1.396924120428758
 40
2.278335398153151
 40
3.25373358823187
 40
4.283894797854125
 40
5.32331025603605
 40
5.32331025603605
 40
5.32331025603605
 40
5.32331025603605
 10
-101.5678104254348
 20
-90.89974185753891
 30
0.0
 10
-101.4355261576769
 20
-91.06743617566484
 30
0.0
 10
-101.1449821043041
 20
-91.43575346825463
 30
0.0
 10
-100.4765483877946
 20
-91.82512347594276
 30
0.0
 10
-99.66208257521706
 20
-92.13945681240955
 30
0.0
 10
-98.71699216103289
 20
-92.34021242637097
 30
0.0
 10
-97.7028328127756
 20
-92.43354112837434
 30
0.0
 10
-97.01343473974082
 20
-92.38993529608248
 30
0.0
 10
-96.66719435881731
 20
-92.3680348816466
 30
0.0
 11
-101.5678104254348
 21
-90.89974185753891
 31
0.0
 11
-101.1462281197438
 21
-91.37596300270292
 31
0.0
 11
-100.5056456101151
 21
-91.78661248986772
 31
0.0
 11
-99.68453550665637
 21
-92.10702478476101
 31
0.0
 11
-98.73221753455618
 21
-92.31795631209397
 31
0.0
 11
-97.70588904518229
 21
-92.40673664321595
 31
0.0
 11
-96.66719435881731
 21
-92.3680348816466
 31
0.0
  0
SPLINE
  5
DF
330
47
100
AcDbEntity
  8
0
  6
Continuous
 62
     7
100
AcDbSpline
210
0.0
220
0.0
230
1.0
 70
     8
 71
     3
 72
    11
 73
     7
 74
     5
 42
0.000000001
 43
0.0000000001
 44
0.00000001
 40
0.0
 40
0.0
 40
0.0
 40
0.0
 40
0.6985539012366605
 40
1.361746857739105
 40
1.977231691859735
 40
2.535819557772355
 40
2.535819557772355
 40
2.535819557772355
 40
2.535819557772355
 10
-98.46781042543478
 20
-90.81313931716045
 30
0.0
 10
-98.69857272742921
 20
-90.84585141772018
 30
0.0
 10
-99.14841609283617
 20
-90.90961974006659
 30
0.0
 10
-99.78594841811284
 20
-91.08084467541916
 30
0.0
 10
-100.3630597361732
 20
-91.29287250635886
 30
0.0
 10
-100.7020999373038
 20
-91.48964963309957
 30
0.0
 10
-100.863404887464
 20
-91.58327017535501
 30
0.0
 11
-98.46781042543478
 21
-90.81313931716045
 31
0.0
 11
-99.1572642275334
 21
-90.92552707134068
 31
0.0
 11
-99.7984685687787
 21
-91.09488436167325
 31
0.0
 11
-100.3727553024983
 21
-91.316280681573
 31
0.0
 11
-100.863404887464
 21
-91.58327017535501
 31
0.0
  0
SPLINE
  5
E0
330
47
100
AcDbEntity
  8
0
  6
Continuous
 62
     7
100
AcDbSpline
210
0.0
220
0.0
230
1.0
 70
     8
 71
     3
 72
     9
 73
     5
 74
     3
 42
0.000000001
 43
0.0000000001
 44
0.00000001
 40
0.0
 40
0.0
 40
0.0
 40
0.0
 40
0.3168003327880918
 40
0.6494607902929074
 40
0.6494607902929074
 40
0.6494607902929074
 40
0.6494607902929074
 10
-111.4951894040789
 20
-85.5513482371897
 30
0.0
 10
-111.4875265166154
 20
-85.65767337973777
 30
0.0
 10
-111.4718170915515
 20
-85.87564666691434
 30
0.0
 10
-111.3774325166069
 20
-86.07288909656805
 30
0.0
 10
-111.3290877626396
 20
-86.17391868267839
 30
0.0
 11
-111.4951894040789
 21
-85.5513482371897
 31
0.0
 11
-111.453480856613
 21
-85.86539098701314
 31
0.0
 11
-111.3290877626396
 21
-86.17391868267839
 31
0.0
  0
SPLINE
  5
E1
330
47
100
AcDbEntity
  8
0
  6
Continuous
 62
     7
100
AcDbSpline
210
0.0
220
0.0
230
1.0
 70
     8
 71
     3
 72
     9
 73
     5
 74
     3
 42
0.000000001
 43
0.0000000001
 44
0.00000001
 40
0.0
 40
0.0
 40
0.0
 40
0.0
 40
0.1760622324637195
 40
0.3507612544409225
 40
0.3507612544409225
 40
0.3507612544409225
 40
0.3507612544409225
 10
-107.8438913046391
 20
-84.5397936627459
 30
0.0
 10
-107.9021375146818
 20
-84.54700661046208
 30
0.0
 10
-108.0181789447327
 20
-84.56137667747464
 30
0.0
 10
-108.1337352980866
 20
-84.57923236199348
 30
0.0
 10
-108.191288922267
 20
-84.58812551664096
 30
0.0
 11
-107.8438913046391
 21
-84.5397936627459
 31
0.0
 11
-108.018507719862
 21
-84.56231070673786
 31
0.0
 11
-108.191288922267
 21
-84.58812551664096
 31
0.0
  0
SPLINE
  5
E2
330
47
100
AcDbEntity
  8
0
  6
Continuous
 62
     7
100
AcDbSpline
210
0.0
220
0.0
230
1.0
 70
     8
 71
     3
 72
    13
 73
     9
 74
     7
 42
0.000000001
 43
0.0000000001
 44
0.00000001
 40
0.0
 40
0.0
 40
0.0
 40
0.0
 40
0.7268992295207233
 40
1.567647705892137
 40
2.506642737193737
 40
3.516212152738285
 40
4.561632376679894
 40
5.604956908919469
 40
5.604956908919469
 40
5.604956908919469
 40
5.604956908919469
 10
-102.5235518886231
 20
-84.46273941303662
 30
0.0
 10
-102.7117460793012
 20
-84.30866651205804
 30
0.0
 10
-103.1176100367726
 20
-83.97638933941461
 30
0.0
 10
-103.8885528780671
 20
-83.63372622444706
 30
0.0
 10
-104.7803031416711
 20
-83.36696047599835
 30
0.0
 10
-105.7683660214532
 20
-83.20932699121782
 30
0.0
 10
-106.8025244687853
 20
-83.15207812916415
 30
0.0
 10
-107.4970012884647
 20
-83.21121618798665
 30
0.0
 10
-107.8438913046391
 20
-83.24075555706924
 30
0.0
 11
-102.5235518886231
 21
-84.46273941303662
 31
0.0
 11
-103.1045355107512
 21
-84.02588643531298
 31
0.0
 11
-103.8631588208566
 21
-83.66346584431064
 31
0.0
 11
-104.7624071436005
 21
-83.3931620708411
 31
0.0
 11
-105.7584020487986
 21
-83.22816342343408
 31
0.0
 11
-106.802545986528
 21
-83.17652162091898
 31
0.0
 11
-107.8438913046391
 21
-83.24075555706924
 31
0.0
  0
SPLINE
  5
E3
330
47
100
AcDbEntity
  8
0
  6
Continuous
 62
     7
100
AcDbSpline
210
0.0
220
0.0
230
1.0
 70
     8
 71
     3
 72
    13
 73
     9
 74
     7
 42
0.000000001
 43
0.0000000001
 44
0.00000001
 40
0.0
 40
0.0
 40
0.0
 40
0.0
 40
0.7341541388844425
 40
1.403133107113155
 40
1.999213597253921
 40
2.522448161962758
 40
2.984018426417336
 40
3.409074953209702
 40
3.409074953209702
 40
3.409074953209702
 40
3.409074953209702
 10
-109.0555910891668
 20
-83.47622510508748
 30
0.0
 10
-109.2896102849362
 20
-83.54882263570619
 30
0.0
 10
-109.7368734163709
 20
-83.68757279655358
 30
0.0
 10
-110.3383303220953
 20
-83.98020415976717
 30
0.0
 10
-110.833970321037
 20
-84.3176584474446
 30
0.0
 10
-111.2022011271642
 20
-84.69766104064848
 30
0.0
 10
-111.4476179184467
 20
-85.11236132603386
 30
0.0
 10
-111.479773667523
 20
-85.40909267108776
 30
0.0
 10
-111.4951894040789
 20
-85.5513482371897
 30
0.0
 11
-109.0555910891668
 21
-83.47622510508748
 31
0.0
 11
-109.7507675750771
 21
-83.71225887664923
 31
0.0
 11
-110.3518813541177
 21
-84.00584886987139
 31
0.0
 11
-110.8401195798664
 21
-84.34780703498484
 31
0.0
 11
-111.200202690405
 21
-84.72743127859228
 31
0.0
 11
-111.4208610603274
 21
-85.13284094658762
 31
0.0
 11
-111.4951894040789
 21
-85.5513482371897
 31
0.0
  0
SPLINE
  5
E4
330
47
100
AcDbEntity
  8
0
  6
Continuous
 62
     7
100
AcDbSpline
210
0.0
220
0.0
230
1.0
 70
     8
 71
     3
 72
    13
 73
     9
 74
     7
 42
0.000000001
 43
0.0000000001
 44
0.00000001
 40
0.0
 40
0.0
 40
0.0
 40
0.0
 40
0.7341541388844829
 40
1.403133107113163
 40
1.999213597253921
 40
2.522448161962758
 40
2.984018426417348
 40
3.409074953209728
 40
3.409074953209728
 40
3.409074953209728
 40
3.409074953209728
 10
-104.434787718991
 20
-87.62647136929195
 30
0.0
 10
-104.2007685232216
 20
-87.55387383867327
 30
0.0
 10
-103.7535053917869
 20
-87.41512367782585
 30
0.0
 10
-103.1520484860626
 20
-87.12249231461227
 30
0.0
 10
-102.6564084871208
 20
-86.78503802693481
 30
0.0
 10
-102.2881776809936
 20
-86.40503543373094
 30
0.0
 10
-102.0427608897111
 20
-85.99033514834557
 30
0.0
 10
-102.0106051406348
 20
-85.69360380329167
 30
0.0
 10
-101.9951894040789
 20
-85.5513482371897
 30
0.0
 11
-104.434787718991
 21
-87.62647136929195
 31
0.0
 11
-103.7396112330807
 21
-87.3904375977302
 31
0.0
 11
-103.1384974540401
 21
-87.09684760450803
 31
0.0
 11
-102.6502592282914
 21
-86.75488943939459
 31
0.0
 11
-102.2901761177528
 21
-86.37526519578715
 31
0.0
 11
-102.0695177478304
 21
-85.9698555277918
 31
0.0
 11
-101.9951894040789
 21
-85.5513482371897
 31
0.0
  0
SPLINE
  5
E5
330
47
100
AcDbEntity
  8
0
  6
Continuous
 62
     7
100
AcDbSpline
210
0.0
220
0.0
230
1.0
 70
     8
 71
     3
 72
     9
 73
     5
 74
     3
 42
0.000000001
 43
0.0000000001
 44
0.00000001
 40
0.0
 40
0.0
 40
0.0
 40
0.0
 40
0.3168003327880439
 40
0.6494607902928303
 40
0.6494607902928303
 40
0.6494607902928303
 40
0.6494607902928303
 10
-83.50480834731229
 20
-84.5382085163753
 30
0.0
 10
-83.51247123477583
 20
-84.43188337382722
 30
0.0
 10
-83.52818065983959
 20
-84.21391008665071
 30
0.0
 10
-83.62256523478423
 20
-84.01666765699703
 30
0.0
 10
-83.6709099887515
 20
-83.91563807088667
 30
0.0
 11
-83.50480834731229
 21
-84.5382085163753
 31
0.0
 11
-83.54651689477812
 21
-84.2241657665519
 31
0.0
 11
-83.6709099887515
 21
-83.91563807088667
 31
0.0
  0
SPLINE
  5
E6
330
47
100
AcDbEntity
  8
0
  6
Continuous
 62
     7
100
AcDbSpline
210
0.0
220
0.0
230
1.0
 70
     8
 71
     3
 72
    13
 73
     9
 74
     7
 42
0.000000001
 43
0.0000000001
 44
0.00000001
 40
0.0
 40
0.0
 40
0.0
 40
0.0
 40
0.7341541388844379
 40
1.403133107113156
 40
1.999213597253891
 40
2.522448161962718
 40
2.984018426417322
 40
3.409074953209701
 40
3.409074953209701
 40
3.409074953209701
 40
3.409074953209701
 10
-85.9444066622244
 20
-86.61333164847753
 30
0.0
 10
-85.71038746645502
 20
-86.54073411785885
 30
0.0
 10
-85.2631243350203
 20
-86.40198395701141
 30
0.0
 10
-84.66166742929596
 20
-86.1093525937979
 30
0.0
 10
-84.16602743035425
 20
-85.77189830612036
 30
0.0
 10
-83.79779662422699
 20
-85.39189571291655
 30
0.0
 10
-83.55237983294457
 20
-84.97719542753117
 30
0.0
 10
-83.52022408386817
 20
-84.68046408247727
 30
0.0
 10
-83.50480834731229
 20
-84.5382085163753
 30
0.0
 11
-85.9444066622244
 21
-86.61333164847753
 31
0.0
 11
-85.2492301763141
 21
-86.37729787691579
 31
0.0
 11
-84.6481163972735
 21
-86.08370788369362
 31
0.0
 11
-84.15987817152485
 21
-85.74174971858018
 31
0.0
 11
-83.79979506098621
 21
-85.36212547497276
 31
0.0
 11
-83.57913669106384
 21
-84.9567158069774
 31
0.0
 11
-83.50480834731229
 21
-84.5382085163753
 31
0.0
  0
SPLINE
  5
E7
330
47
100
AcDbEntity
  8
0
  6
Continuous
 62
     7
100
AcDbSpline
210
0.0
220
0.0
230
1.0
 70
     8
 71
     3
 72
     9
 73
     5
 74
     3
 42
0.000000001
 43
0.0000000001
 44
0.00000001
 40
0.0
 40
0.0
 40
0.0
 40
0.0
 40
0.2846949429608102
 40
0.59196814082253
 40
0.59196814082253
 40
0.59196814082253
 40
0.59196814082253
 10
-92.83870670587305
 20
-86.45981706754065
 30
0.0
 10
-92.78926019137333
 20
-86.54119394835986
 30
0.0
 10
-92.68644569954563
 20
-86.71040144133332
 30
0.0
 10
-92.54820338027999
 20
-86.85223423428961
 30
0.0
 10
-92.47644586276806
 20
-86.9258554462051
 30
0.0
 11
-92.83870670587305
 21
-86.45981706754065
 31
0.0
 11
-92.68217293958568
 21
-86.69761612344709
 31
0.0
 11
-92.47644586276806
 21
-86.9258554462051
 31
0.0
  0
SPLINE
  5
E8
330
47
100
AcDbEntity
  8
0
  6
Continuous
 62
     7
100
AcDbSpline
210
0.0
220
0.0
230
1.0
 70
     8
 71
     3
 72
     9
 73
     5
 74
     3
 42
0.000000001
 43
0.0000000001
 44
0.00000001
 40
0.0
 40
0.0
 40
0.0
 40
0.0
 40
0.0447067816140286
 40
0.0893662525279903
 40
0.0893662525279903
 40
0.0893662525279903
 40
0.0893662525279903
 10
-83.50816626480099
 20
-87.5719822631153
 30
0.0
 10
-83.50718690939328
 20
-87.55710892488506
 30
0.0
 10
-83.50522925494697
 20
-87.5273779871125
 30
0.0
 10
-83.50494859367119
 20
-87.49758399771791
 30
0.0
 10
-83.50480834731229
 20
-87.4826948892424
 30
0.0
 11
-83.50816626480099
 21
-87.5719822631153
 31
0.0
 11
-83.50564790087941
 21
-87.52734646826147
 31
0.0
 11
-83.50480834731229
 21
-87.4826948892424
 31
0.0
  0
SPLINE
  5
E9
330
47
100
AcDbEntity
  8
0
  6
Continuous
 62
     7
100
AcDbSpline
210
0.0
220
0.0
230
1.0
 70
     8
 71
     3
 72
     9
 73
     5
 74
     3
 42
0.000000001
 43
0.0000000001
 44
0.00000001
 40
0.0
 40
0.0
 40
0.0
 40
0.0
 40
0.3168003327880139
 40
0.6494607902928002
 40
0.6494607902928002
 40
0.6494607902928002
 40
0.6494607902928002
 10
-101.9951894040789
 20
-85.5513482371897
 30
0.0
 10
-102.0028522915424
 20
-85.44502309464164
 30
0.0
 10
-102.0185617166062
 20
-85.22704980746508
 30
0.0
 10
-102.1129462915509
 20
-85.02980737781147
 30
0.0
 10
-102.1612910455181
 20
-84.9287777917011
 30
0.0
 11
-101.9951894040789
 21
-85.5513482371897
 31
0.0
 11
-102.0368979515447
 21
-85.23730548736633
 31
0.0
 11
-102.1612910455181
 21
-84.9287777917011
 31
0.0
  0
SPLINE
  5
EA
330
47
100
AcDbEntity
  8
0
  6
Continuous
 62
     7
100
AcDbSpline
210
0.0
220
0.0
230
1.0
 70
     8
 71
     3
 72
     9
 73
     5
 74
     3
 42
0.000000001
 43
0.0000000001
 44
0.00000001
 40
0.0
 40
0.0
 40
0.0
 40
0.0
 40
0.3168003327880862
 40
0.6494607902928701
 40
0.6494607902928701
 40
0.6494607902928701
 40
0.6494607902928701
 10
-93.00480834731229
 20
-84.5382085163753
 30
0.0
 10
-92.99714545984877
 20
-84.6445336589234
 30
0.0
 10
-92.981436034785
 20
-84.86250694609996
 30
0.0
 10
-92.88705145984035
 20
-85.05974937575364
 30
0.0
 10
-92.83870670587305
 20
-85.16077896186397
 30
0.0
 11
-93.00480834731229
 21
-84.5382085163753
 31
0.0
 11
-92.96309979984646
 21
-84.85225126619875
 31
0.0
 11
-92.83870670587305
 21
-85.16077896186397
 31
0.0
  0
SPLINE
  5
EB
330
47
100
AcDbEntity
  8
0
  6
Continuous
 62
     7
100
AcDbSpline
210
0.0
220
0.0
230
1.0
 70
     8
 71
     3
 72
    13
 73
     9
 74
     7
 42
0.000000001
 43
0.0000000001
 44
0.00000001
 40
0.0
 40
0.0
 40
0.0
 40
0.0
 40
0.7268992295207629
 40
1.567647705892158
 40
2.506642737193754
 40
3.516212152738298
 40
4.561632376679906
 40
5.604956908919425
 40
5.604956908919425
 40
5.604956908919425
 40
5.604956908919425
 10
-92.47644586276806
 20
-85.62681734052848
 30
0.0
 10
-92.28825167208996
 20
-85.78089024150701
 30
0.0
 10
-91.88238771461853
 20
-86.11316741415044
 30
0.0
 10
-91.11144487332406
 20
-86.45583052911803
 30
0.0
 10
-90.21969460972002
 20
-86.72259627756668
 30
0.0
 10
-89.23163172993796
 20
-86.8802297623472
 30
0.0
 10
-88.19747328260584
 20
-86.93747862440084
 30
0.0
 10
-87.50299646292646
 20
-86.87834056557837
 30
0.0
 10
-87.15610644675206
 20
-86.84880119649577
 30
0.0
 11
-92.47644586276806
 21
-85.62681734052848
 31
0.0
 11
-91.89546224063987
 21
-86.06367031825208
 31
0.0
 11
-91.13683893053451
 21
-86.42609090925441
 31
0.0
 11
-90.23759060779062
 21
-86.69639468272393
 31
0.0
 11
-89.2415957025925
 21
-86.86139333013092
 31
0.0
 11
-88.19745176486308
 21
-86.91303513264603
 31
0.0
 11
-87.15610644675206
 21
-86.84880119649577
 31
0.0
  0
SPLINE
  5
EC
330
47
100
AcDbEntity
  8
0
  6
Continuous
 62
     7
100
AcDbSpline
210
0.0
220
0.0
230
1.0
 70
     8
 71
     3
 72
     9
 73
     5
 74
     3
 42
0.000000001
 43
0.0000000001
 44
0.00000001
 40
0.0
 40
0.0
 40
0.0
 40
0.0
 40
0.0933516311934354
 40
0.1858667951019056
 40
0.1858667951019056
 40
0.1858667951019056
 40
0.1858667951019056
 10
-85.90489637657276
 20
-89.54669668973668
 30
0.0
 10
-85.87499527625614
 20
-89.53807918465293
 30
0.0
 10
-85.81546100689721
 20
-89.52092137153693
 30
0.0
 10
-85.756289594867
 20
-89.50255124972959
 30
0.0
 10
-85.72683703803438
 20
-89.49340751536948
 30
0.0
 11
-85.90489637657276
 21
-89.54669668973668
 31
0.0
 11
-85.81528461111455
 21
-89.52053835357688
 31
0.0
 11
-85.72683703803438
 21
-89.49340751536948
 31
0.0
  0
SPLINE
  5
ED
330
47
100
AcDbEntity
  8
0
  6
Continuous
 62
     7
100
AcDbSpline
210
0.0
220
0.0
230
1.0
 70
     8
 71
     3
 72
    11
 73
     7
 74
     5
 42
0.000000001
 43
0.0000000001
 44
0.00000001
 40
0.0
 40
0.0
 40
0.0
 40
0.0
 40
0.8527506372179444
 40
1.835732446472178
 40
2.918987900336295
 40
4.059499321580093
 40
4.059499321580093
 40
4.059499321580093
 40
4.059499321580093
 10
-110.7666146563331
 20
-89.75982026469578
 30
0.0
 10
-110.5297585448204
 20
-89.91883606940384
 30
0.0
 10
-110.0198738998959
 20
-90.26115239047476
 30
0.0
 10
-109.0923813624982
 20
-90.58161677208237
 30
0.0
 10
-108.045659194742
 20
-90.81049407910714
 30
0.0
 10
-107.3040936010501
 20
-90.84926901575568
 30
0.0
 10
-106.9237641518247
 20
-90.86915565131247
 30
0.0
 11
-110.7666146563331
 21
-89.75982026469578
 31
0.0
 11
-110.0402055304081
 21
-90.20648953108775
 31
0.0
 11
-109.1201894040788
 21
-90.55264494404484
 31
0.0
 11
-108.0606225783576
 21
-90.7779459062125
 31
0.0
 11
-106.9237641518247
 21
-90.86915565131247
 31
0.0
  0
SPLINE
  5
EE
330
47
100
AcDbEntity
  8
0
  6
Continuous
 62
     7
100
AcDbSpline
210
0.0
220
0.0
230
1.0
 70
     8
 71
     3
 72
    15
 73
    11
 74
     9
 42
0.000000001
 43
0.0000000001
 44
0.00000001
 40
0.0
 40
0.0
 40
0.0
 40
0.0
 40
0.9238175413792974
 40
1.820598552970878
 40
2.666017895332334
 40
3.439653139468331
 40
4.127480661852686
 40
4.72536570468164
 40
5.244076261928237
 40
5.71444424891396
 40
5.71444424891396
 40
5.71444424891396
 40
5.71444424891396
 10
-106.7162710669022
 20
-90.87079059542657
 30
0.0
 10
-106.408228491306
 20
-90.86127711392488
 30
0.0
 10
-105.8011585429605
 20
-90.84252856941391
 30
0.0
 10
-104.9210758216159
 20
-90.70387669867752
 30
0.0
 10
-104.1085741736879
 20
-90.48948542296546
 30
0.0
 10
-103.3940253241723
 20
-90.19973522473188
 30
0.0
 10
-102.8002844099001
 20
-89.84621571480282
 30
0.0
 10
-102.3552732101489
 20
-89.43851332750151
 30
0.0
 10
-102.0543744919841
 20
-88.98448569695304
 30
0.0
 10
-102.014264281843
 20
-88.65332296267134
 30
0.0
 10
-101.9951894040789
 20
-88.49583461005679
 30
0.0
 11
-106.7162710669022
 21
-90.87079059542657
 31
0.0
 11
-105.7937061867436
 21
-90.8226982500303
 31
0.0
 11
-104.9074242004694
 21
-90.68587565170432
 31
0.0
 11
-104.0912220186312
 21
-90.4655398561516
 31
0.0
 11
-103.3762235314713
 21
-90.1700933228313
 31
0.0
 11
-102.7896943770859
 21
-89.81080200513048
 31
0.0
 11
-102.3540000495369
 21
-89.40136705737122
 31
0.0
 11
-102.0857556718527
 21
-88.95740129104297
 31
0.0
 11
-101.9951894040789
 21
-88.49583461005679
 31
0.0
  0
SPLINE
  5
EF
330
47
100
AcDbEntity
  8
0
  6
Continuous
 62
     7
100
AcDbSpline
210
0.0
220
0.0
230
1.0
 70
     8
 71
     3
 72
    17
 73
    13
 74
    11
 42
0.000000001
 43
0.0000000001
 44
0.00000001
 40
0.0
 40
0.0
 40
0.0
 40
0.0
 40
0.5030744763592391
 40
1.064248237413664
 40
1.718427598699494
 40
2.475232516033994
 40
3.326368368280159
 40
4.252061634141763
 40
5.225410134034927
 40
6.215546702871038
 40
7.190293206363409
 40
8.118672130323189
 40
8.118672130323189
 40
8.118672130323189
 40
8.118672130323189
 10
-93.00480834731229
 20
-87.4826948892424
 30
0.0
 10
-92.98282078424413
 20
-87.6511728456952
 30
0.0
 10
-92.9363063379852
 20
-88.00758601044215
 30
0.0
 10
-92.59212457905194
 20
-88.48872154869349
 30
0.0
 10
-92.08863395091362
 20
-88.91432918628641
 30
0.0
 10
-91.42085182222368
 20
-89.27565605877341
 30
0.0
 10
-90.62360511802419
 20
-89.56085457761543
 30
0.0
 10
-89.72620259607095
 20
-89.7585807408858
 30
0.0
 10
-88.76665673904267
 20
-89.86131664332044
 30
0.0
 10
-87.78603118211568
 20
-89.86157691871131
 30
0.0
 10
-86.82283352830997
 20
-89.770718713667
 30
0.0
 10
-86.20586483656405
 20
-89.62014786801976
 30
0.0
 10
-85.90489637657276
 20
-89.54669668973668
 30
0.0
 11
-93.00480834731229
 21
-87.4826948892424
 31
0.0
 11
-92.9016095204254
 21
-87.97507070086242
 31
0.0
 11
-92.59649849778414
 21
-88.44605186322659
 31
0.0
 11
-92.10273175714912
 21
-88.87517310576402
 31
0.0
 11
-91.44176555266138
 21
-89.2437885672784
 31
0.0
 11
-90.64231924504489
 21
-89.53588074390383
 31
0.0
 11
-89.73913112670967
 21
-89.73875815777909
 31
0.0
 11
-88.77144601066693
 21
-89.84360479999303
 31
0.0
 11
-87.78131202256553
 21
-89.84586549408935
 31
0.0
 11
-86.81175246193744
 21
-89.74544137380512
 31
0.0
 11
-85.90489637657276
 21
-89.54669668973668
 31
0.0
  0
SPLINE
  5
F0
330
47
100
AcDbEntity
  8
0
  6
Continuous
 62
     7
100
AcDbSpline
210
0.0
220
0.0
230
1.0
 70
     8
 71
     3
 72
     9
 73
     5
 74
     3
 42
0.000000001
 43
0.0000000001
 44
0.00000001
 40
0.0
 40
0.0
 40
0.0
 40
0.0
 40
0.1760622324637617
 40
0.3507612544409507
 40
0.3507612544409507
 40
0.3507612544409507
 40
0.3507612544409507
 10
-89.35351024787249
 20
-83.52665394193147
 30
0.0
 10
-89.41175645791519
 20
-83.53386688964764
 30
0.0
 10
-89.52779788796605
 20
-83.54823695666022
 30
0.0
 10
-89.64335424132005
 20
-83.56609264117907
 30
0.0
 10
-89.70090786550043
 20
-83.57498579582654
 30
0.0
 11
-89.35351024787249
 21
-83.52665394193147
 31
0.0
 11
-89.52812666309545
 21
-83.54917098592344
 31
0.0
 11
-89.70090786550043
 21
-83.57498579582654
 31
0.0
  0
SPLINE
  5
F1
330
47
100
AcDbEntity
  8
0
  6
Continuous
 62
     7
100
AcDbSpline
210
0.0
220
0.0
230
1.0
 70
     8
 71
     3
 72
    13
 73
     9
 74
     7
 42
0.000000001
 43
0.0000000001
 44
0.00000001
 40
0.0
 40
0.0
 40
0.0
 40
0.0
 40
0.7268992295207601
 40
1.567647705892167
 40
2.506642737193781
 40
3.516212152738327
 40
4.561632376679936
 40
5.604956908919482
 40
5.604956908919482
 40
5.604956908919482
 40
5.604956908919482
 10
-84.03317083185647
 20
-83.4495996922222
 30
0.0
 10
-84.22136502253456
 20
-83.29552679124363
 30
0.0
 10
-84.627228980006
 20
-82.96324961860023
 30
0.0
 10
-85.39817182130048
 20
-82.62058650363264
 30
0.0
 10
-86.28992208490449
 20
-82.3538207551839
 30
0.0
 10
-87.27798496468658
 20
-82.19618727040341
 30
0.0
 10
-88.31214341201868
 20
-82.13893840834973
 30
0.0
 10
-89.00662023169812
 20
-82.19807646717226
 30
0.0
 10
-89.35351024787249
 20
-82.22761583625481
 30
0.0
 11
-84.03317083185647
 21
-83.4495996922222
 31
0.0
 11
-84.61415445398464
 21
-83.01274671449858
 31
0.0
 11
-85.37277776409
 21
-82.65032612349621
 31
0.0
 11
-86.2720260868339
 21
-82.38002235002668
 31
0.0
 11
-87.26802099203202
 21
-82.21502370261967
 31
0.0
 11
-88.31216492976145
 21
-82.16338190010457
 31
0.0
 11
-89.35351024787249
 21
-82.22761583625481
 31
0.0
  0
SPLINE
  5
F2
330
47
100
AcDbEntity
  8
0
  6
Continuous
 62
     7
100
AcDbSpline
210
0.0
220
0.0
230
1.0
 70
     8
 71
     3
 72
    13
 73
     9
 74
     7
 42
0.000000001
 43
0.0000000001
 44
0.00000001
 40
0.0
 40
0.0
 40
0.0
 40
0.0
 40
0.7341541388844425
 40
1.403133107113155
 40
1.999213597253932
 40
2.522448161962769
 40
2.984018426417379
 40
3.40907495320974
 40
3.40907495320974
 40
3.40907495320974
 40
3.40907495320974
 10
-90.56521003240019
 20
-82.46308538427306
 30
0.0
 10
-90.79922922816958
 20
-82.53568291489177
 30
0.0
 10
-91.24649235960426
 20
-82.67443307573916
 30
0.0
 10
-91.84794926532868
 20
-82.96706443895275
 30
0.0
 10
-92.34358926427035
 20
-83.3045187266302
 30
0.0
 10
-92.71182007039765
 20
-83.68452131983409
 30
0.0
 10
-92.95723686168006
 20
-84.09922160521941
 30
0.0
 10
-92.98939261075637
 20
-84.39595295027335
 30
0.0
 10
-93.00480834731229
 20
-84.5382085163753
 30
0.0
 11
-90.56521003240019
 21
-82.46308538427306
 31
0.0
 11
-91.26038651831048
 21
-82.69911915583481
 31
0.0
 11
-91.86150029735109
 21
-82.99270914905696
 31
0.0
 11
-92.34973852309977
 21
-83.33466731417042
 31
0.0
 11
-92.70982163363841
 21
-83.71429155777786
 31
0.0
 11
-92.93048000356077
 21
-84.11970122577323
 31
0.0
 11
-93.00480834731229
 21
-84.5382085163753
 31
0.0
  0
SPLINE
  5
F3
330
47
100
AcDbEntity
  8
0
  6
Continuous
 62
     7
100
AcDbSpline
210
0.0
220
0.0
230
1.0
 70
     8
 71
     3
 72
     9
 73
     5
 74
     3
 42
0.000000001
 43
0.0000000001
 44
0.00000001
 40
0.0
 40
0.0
 40
0.0
 40
0.0
 40
0.1037379173014917
 40
0.2075026219667004
 40
0.2075026219667004
 40
0.2075026219667004
 40
0.2075026219667004
 10
-106.9237641518247
 20
-90.86915565131247
 30
0.0
 10
-106.8891886681843
 20
-90.86971145009534
 30
0.0
 10
-106.820028772557
 20
-90.87082317118194
 30
0.0
 10
-106.7508599452505
 20
-90.87080146161314
 30
0.0
 10
-106.7162710669022
 20
-90.87079059542657
 30
0.0
 11
-106.9237641518247
 21
-90.86915565131247
 31
0.0
 11
-106.8200354684268
 21
-90.87053975315602
 31
0.0
 11
-106.7162710669022
 21
-90.87079059542657
 31
0.0
  0
SPLINE
  5
F4
330
47
100
AcDbEntity
  8
0
  6
Continuous
 62
     7
100
AcDbSpline
210
0.0
220
0.0
230
1.0
 70
     8
 71
     3
 72
    11
 73
     7
 74
     5
 42
0.000000001
 43
0.0000000001
 44
0.00000001
 40
0.0
 40
0.0
 40
0.0
 40
0.0
 40
0.3353852800437711
 40
0.6894498730343491
 40
1.076891861296796
 40
1.506770852964994
 40
1.506770852964994
 40
1.506770852964994
 40
1.506770852964994
 10
-111.4951894040789
 20
-88.49583461005679
 30
0.0
 10
-111.4857946965974
 20
-88.6079821457041
 30
0.0
 10
-111.4664820279264
 20
-88.83852328172097
 30
0.0
 10
-111.3142745858772
 20
-89.17009856919186
 30
0.0
 10
-111.0823391725945
 20
-89.48732325937348
 30
0.0
 10
-110.8754370938818
 20
-89.66589728834187
 30
0.0
 10
-110.7666146563331
 20
-89.75982026469578
 30
0.0
 11
-111.4951894040789
 21
-88.49583461005679
 31
0.0
 11
-111.4485159104208
 21
-88.82795638363511
 31
0.0
 11
-111.309412774391
 21
-89.15355130930816
 31
0.0
 11
-111.0806135328757
 21
-89.4662207881638
 31
0.0
 11
-110.7666146563331
 21
-89.75982026469578
 31
0.0
  0
SPLINE
  5
F5
330
47
100
AcDbEntity
  8
0
  6
Continuous
 62
     7
100
AcDbSpline
210
0.0
220
0.0
230
1.0
 70
     8
 71
     3
 72
     9
 73
     5
 74
     3
 42
0.000000001
 43
0.0000000001
 44
0.00000001
 40
0.0
 40
0.0
 40
0.0
 40
0.0
 40
0.6295409208823807
 40
1.235264229496801
 40
1.235264229496801
 40
1.235264229496801
 40
1.235264229496801
 10
-87.15610644675206
 20
-88.14783930217243
 30
0.0
 10
-86.94798029243701
 20
-88.11953626542332
 30
0.0
 10
-86.53960208708435
 20
-88.06400096960522
 30
0.0
 10
-86.14023837319613
 20
-87.96225959395075
 30
0.0
 10
-85.9444066622244
 20
-87.91236975415418
 30
0.0
 11
-87.15610644675206
 21
-88.14783930217243
 31
0.0
 11
-86.53406935209125
 21
-88.05092890845113
 31
0.0
 11
-85.9444066622244
 21
-87.91236975415418
 31
0.0
  0
SPLINE
  5
F6
330
47
100
AcDbEntity
  8
0
  6
Continuous
 62
     7
100
AcDbSpline
210
0.0
220
0.0
230
1.0
 70
     8
 71
     3
 72
     9
 73
     5
 74
     3
 42
0.000000001
 43
0.0000000001
 44
0.00000001
 40
0.0
 40
0.0
 40
0.0
 40
0.0
 40
0.2846949429608183
 40
0.5919681408225667
 40
0.5919681408225667
 40
0.5919681408225667
 40
0.5919681408225667
 10
-111.3290877626396
 20
-87.47295678835505
 30
0.0
 10
-111.2796412481399
 20
-87.5543336691743
 30
0.0
 10
-111.1768267563122
 20
-87.72354116214774
 30
0.0
 10
-111.0385844370466
 20
-87.86537395510403
 30
0.0
 10
-110.9668269195346
 20
-87.93899516701953
 30
0.0
 11
-111.3290877626396
 21
-87.47295678835505
 31
0.0
 11
-111.1725539963523
 21
-87.71075584426151
 31
0.0
 11
-110.9668269195346
 21
-87.93899516701953
 31
0.0
  0
SPLINE
  5
F7
330
47
100
AcDbEntity
  8
0
  6
Continuous
 62
     7
100
AcDbSpline
210
0.0
220
0.0
230
1.0
 70
     8
 71
     3
 72
     9
 73
     5
 74
     3
 42
0.000000001
 43
0.0000000001
 44
0.00000001
 40
0.0
 40
0.0
 40
0.0
 40
0.0
 40
0.6295409208823829
 40
1.235264229496834
 40
1.235264229496834
 40
1.235264229496834
 40
1.235264229496834
 10
-105.6464875035187
 20
-89.16097902298685
 30
0.0
 10
-105.4383613492037
 20
-89.13267598623774
 30
0.0
 10
-105.029983143851
 20
-89.07714069041967
 30
0.0
 10
-104.6306194299627
 20
-88.97539931476514
 30
0.0
 10
-104.434787718991
 20
-88.92550947496858
 30
0.0
 11
-105.6464875035187
 21
-89.16097902298685
 31
0.0
 11
-105.0244504088579
 21
-89.06406862926553
 31
0.0
 11
-104.434787718991
 21
-88.92550947496858
 31
0.0
  0
SPLINE
  5
F8
330
47
100
AcDbEntity
  8
0
  6
Continuous
 62
     7
100
AcDbSpline
210
0.0
220
0.0
230
1.0
 70
     8
 71
     3
 72
    13
 73
     9
 74
     7
 42
0.000000001
 43
0.0000000001
 44
0.00000001
 40
0.0
 40
0.0
 40
0.0
 40
0.0
 40
0.6512814966795194
 40
1.433182213191218
 40
2.340082114678385
 40
3.342740424341239
 40
4.398572540693388
 40
5.458669431549648
 40
5.458669431549648
 40
5.458669431549648
 40
5.458669431549648
 10
-93.43218732595642
 20
-89.6687222818178
 30
0.0
 10
-93.56817181946931
 20
-89.49735743240907
 30
0.0
 10
-93.8674134934403
 20
-89.12025928394786
 30
0.0
 10
-94.5577233478136
 20
-88.72602498738374
 30
0.0
 10
-95.39804868452873
 20
-88.41067939863058
 30
0.0
 10
-96.3710499757484
 20
-88.21490896697807
 30
0.0
 10
-97.41094255682245
 20
-88.13172758138157
 30
0.0
 10
-98.11504808116555
 20
-88.18724729318875
 30
0.0
 10
-98.46781042543478
 20
-88.21506310580713
 30
0.0
 11
-93.43218732595642
 21
-89.6687222818178
 31
0.0
 11
-93.86565232538453
 21
-89.18264030628204
 31
0.0
 11
-94.52708519549851
 21
-88.76565672991931
 31
0.0
 11
-95.3749993168434
 21
-88.4439284686816
 31
0.0
 11
-96.35620607221034
 21
-88.23763501464434
 31
0.0
 11
-97.40915924744932
 21
-88.15971796861731
 31
0.0
 11
-98.46781042543478
 21
-88.21506310580713
 31
0.0
  0
SPLINE
  5
F9
330
47
100
AcDbEntity
  8
0
  6
Continuous
 62
     7
100
AcDbSpline
210
0.0
220
0.0
230
1.0
 70
     8
 71
     3
 72
    13
 73
     9
 74
     7
 42
0.000000001
 43
0.0000000001
 44
0.00000001
 40
0.0
 40
0.0
 40
0.0
 40
0.0
 40
0.726899229520726
 40
1.567647705892121
 40
2.506642737193721
 40
3.516212152738262
 40
4.561632376679857
 40
5.604956908919347
 40
5.604956908919347
 40
5.604956908919347
 40
5.604956908919347
 10
-110.9668269195346
 20
-86.63995706134287
 30
0.0
 10
-110.7786327288565
 20
-86.7940299623214
 30
0.0
 10
-110.3727687713851
 20
-87.12630713496485
 30
0.0
 10
-109.6018259300907
 20
-87.46897024993241
 30
0.0
 10
-108.7100756664866
 20
-87.73573599838113
 30
0.0
 10
-107.7220127867045
 20
-87.89336948316158
 30
0.0
 10
-106.6878543393724
 20
-87.95061834521528
 30
0.0
 10
-105.9933775196931
 20
-87.89148028639278
 30
0.0
 10
-105.6464875035187
 20
-87.86194091731019
 30
0.0
 11
-110.9668269195346
 21
-86.63995706134287
 31
0.0
 11
-110.3858432974065
 21
-87.07681003906649
 31
0.0
 11
-109.6272199873011
 21
-87.43923063006882
 31
0.0
 11
-108.7279716645572
 21
-87.70953440353836
 31
0.0
 11
-107.7319767593591
 21
-87.87453305094533
 31
0.0
 11
-106.6878328216297
 21
-87.92617485346045
 31
0.0
 11
-105.6464875035187
 21
-87.86194091731019
 31
0.0
  0
SPLINE
  5
FA
330
47
100
AcDbEntity
  8
0
  6
Continuous
 62
     7
100
AcDbSpline
210
0.0
220
0.0
230
1.0
 70
     8
 71
     3
 72
    11
 73
     7
 74
     5
 42
0.000000001
 43
0.0000000001
 44
0.00000001
 40
0.0
 40
0.0
 40
0.0
 40
0.0
 40
0.9643501947958181
 40
1.795555159017185
 40
2.491049623457974
 40
3.088032568589322
 40
3.088032568589322
 40
3.088032568589322
 40
3.088032568589322
 10
-85.72683703803438
 20
-89.49340751536948
 30
0.0
 10
-85.42290231890713
 20
-89.38448335403093
 30
0.0
 10
-84.85699633251579
 20
-89.18167388570518
 30
0.0
 10
-84.16070379364189
 20
-88.72508295334758
 30
0.0
 10
-83.65352495731992
 20
-88.19498277445508
 30
0.0
 10
-83.5540929505397
 20
-87.76882189619919
 30
0.0
 10
-83.50816626480099
 20
-87.5719822631153
 30
0.0
 11
-85.72683703803438
 21
-89.49340751536948
 31
0.0
 11
-84.83349850525039
 21
-89.13020295240696
 31
0.0
 11
-84.14118767933621
 21
-88.67019488924238
 31
0.0
 11
-83.69058575500091
 21
-88.14041147638176
 31
0.0
 11
-83.50816626480099
 21
-87.5719822631153
 31
0.0
  0
ENDBLK
  5
49
330
47
100
AcDbEntity
  8
0
100
AcDbBlockEnd
  0
BLOCK
  5
4C
330
4A
100
AcDbEntity
  8
0
100
AcDbBlockBegin
  2
Allg1
 70
     0
 10
-97.50000000000622
 20
-96.00000000003399
 30
0.0
  3
Allg1
  1

  0
INSERT
  5
4B
330
4A
100
AcDbEntity
  8
0
100
AcDbBlockReference
  2
AB_SS_EX-select__1
 10
-112.4824960999735
 20
-111.1359579280162
 30
0.0
  0
MTEXT
  5
FC
330
4A
100
AcDbEntity
  8
1
 62
     6
100
AcDbMText
 10
-97.49999887569561
 20
-113.6359579280162
 30
0.0
 40
2.5
 41
0.0
 71
     2
 72
     1
  1
 
  7
CONVERTER_11
 73
     1
 44
1.32052821128451
  0
ENDBLK
  5
4D
330
4A
100
AcDbEntity
  8
0
100
AcDbBlockEnd
  0
BLOCK
  5
4F
330
4E
100
AcDbEntity
  8
0
100
AcDbBlockBegin
  2
AB_SS_EX-select__2
 70
     0
 10
-158.6499990288065
 20
-104.2249983337092
 30
0.0
  3
AB_SS_EX-select__2
  1

  0
LINE
  5
FD
330
4E
100
AcDbEntity
  8
0
  6
Continuous
 62
     7
100
AcDbLine
 10
-141.2999990288065
 20
-97.07499833370915
 30
0.0
 11
-141.2999990288065
 21
-103.6749983337092
 31
0.0
  0
LINE
  5
FE
330
4E
100
AcDbEntity
  8
0
  6
Continuous
 62
     7
100
AcDbLine
 10
-138.917062916583
 20
-89.29488175452823
 30
0.0
 11
-141.4674355386075
 21
-92.47134288443812
 31
0.0
  0
LINE
  5
FF
330
4E
100
AcDbEntity
  8
0
  6
Continuous
 62
     7
100
AcDbLine
 10
-157.2472010101972
 20
-102.8452711558668
 30
0.0
 11
-154.6968283881728
 21
-99.66881002595687
 31
0.0
  0
LINE
  5
100
330
4E
100
AcDbEntity
  8
0
  6
Continuous
 62
     7
100
AcDbLine
 10
-153.917062916583
 20
-100.2948817545283
 30
0.0
 11
-156.4674355386075
 21
-103.4713428844381
 31
0.0
  0
LINE
  5
101
330
4E
100
AcDbEntity
  8
0
  6
Continuous
 62
     7
100
AcDbLine
 10
-157.9990842926184
 20
-97.07499833370915
 30
0.0
 11
-158.0999990288065
 21
-97.07499833370915
 31
0.0
  0
LINE
  5
102
330
4E
100
AcDbEntity
  8
0
  6
Continuous
 62
     7
100
AcDbLine
 10
-158.0999990288065
 20
-101.6936691069425
 30
0.0
 11
-158.0999990288065
 21
-103.6749983337092
 31
0.0
  0
LINE
  5
103
330
4E
100
AcDbEntity
  8
0
  6
Continuous
 62
     7
100
AcDbLine
 10
-158.0999990288065
 20
-97.07499833370915
 30
0.0
 11
-158.0999990288065
 21
-97.2563275604758
 31
0.0
  0
LINE
  5
104
330
4E
100
AcDbEntity
  8
0
  6
Continuous
 62
     7
100
AcDbLine
 10
-158.0999990288065
 20
-103.6749983337092
 30
0.0
 11
-156.1186698020399
 21
-103.6749983337092
 31
0.0
  0
LINE
  5
105
330
4E
100
AcDbEntity
  8
0
  6
Continuous
 62
     7
100
AcDbLine
 10
-151.6813282555731
 20
-103.6749983337092
 30
0.0
 11
-151.4999990288065
 21
-103.6749983337092
 31
0.0
  0
LINE
  5
106
330
4E
100
AcDbEntity
  8
0
  6
Continuous
 62
     7
100
AcDbLine
 10
-151.4999990288065
 20
-103.6749983337092
 30
0.0
 11
-151.4999990288065
 21
-103.5740835975211
 31
0.0
  0
LINE
  5
107
330
4E
100
AcDbEntity
  8
0
  6
Continuous
 62
     7
100
AcDbLine
 10
-154.6968283881728
 20
-99.66881002595687
 30
0.0
 11
-157.9759887131412
 21
-97.03598047949058
 31
0.0
  0
LINE
  5
108
330
4E
100
AcDbEntity
  8
0
  6
Continuous
 62
     7
100
AcDbLine
 10
-141.1186698020399
 20
-84.27499833370916
 30
0.0
 11
-141.2999990288065
 21
-84.27499833370916
 31
0.0
  0
LINE
  5
109
330
4E
100
AcDbEntity
  8
0
  6
Continuous
 62
     7
100
AcDbLine
 10
-151.4999990288065
 20
-84.27499833370916
 30
0.0
 11
-141.2999990288065
 21
-84.27499833370916
 31
0.0
  0
LINE
  5
10A
330
4E
100
AcDbEntity
  8
0
  6
Continuous
 62
     7
100
AcDbLine
 10
-134.6999990288065
 20
-84.27499833370916
 30
0.0
 11
-136.6813282555731
 21
-84.27499833370916
 31
0.0
  0
LINE
  5
10B
330
4E
100
AcDbEntity
  8
0
  6
Continuous
 62
     7
100
AcDbLine
 10
-141.2999990288065
 20
-103.6749983337092
 30
0.0
 11
-134.6999990288065
 21
-103.6749983337092
 31
0.0
  0
LINE
  5
10C
330
4E
100
AcDbEntity
  8
0
  6
Continuous
 62
     7
100
AcDbLine
 10
-141.2999990288065
 20
-103.6749983337092
 30
0.0
 11
-151.4999990288065
 21
-103.6749983337092
 31
0.0
  0
LINE
  5
10D
330
4E
100
AcDbEntity
  8
0
  6
Continuous
 62
     7
100
AcDbLine
 10
-134.6999990288065
 20
-86.2563275604758
 30
0.0
 11
-134.6999990288065
 21
-84.27499833370916
 31
0.0
  0
LINE
  5
10E
330
4E
100
AcDbEntity
  8
0
  6
Continuous
 62
     7
100
AcDbLine
 10
-134.6999990288065
 20
-90.87499833370916
 30
0.0
 11
-134.6999990288065
 21
-90.69366910694256
 31
0.0
  0
LINE
  5
10F
330
4E
100
AcDbEntity
  8
0
  6
Continuous
 62
     7
100
AcDbLine
 10
-134.6999990288065
 20
-103.6749983337092
 30
0.0
 11
-134.6999990288065
 21
-97.07499833370915
 31
0.0
  0
LINE
  5
110
330
4E
100
AcDbEntity
  8
0
  6
Continuous
 62
     7
100
AcDbLine
 10
-134.6999990288065
 20
-90.87499833370916
 30
0.0
 11
-134.6999990288065
 21
-97.07499833370915
 31
0.0
  0
LINE
  5
111
330
4E
100
AcDbEntity
  8
0
  6
Continuous
 62
     7
100
AcDbLine
 10
-142.2472010101972
 20
-91.84527115586675
 30
0.0
 11
-139.6968283881728
 21
-88.66881002595687
 31
0.0
  0
LINE
  5
112
330
4E
100
AcDbEntity
  8
0
  6
Continuous
 62
     7
100
AcDbLine
 10
-141.2999990288065
 20
-84.27499833370916
 30
0.0
 11
-141.2999990288065
 21
-84.37591306989725
 31
0.0
  0
LINE
  5
113
330
4E
100
AcDbEntity
  8
0
  6
Continuous
 62
     7
100
AcDbLine
 10
-142.1620954659984
 20
-85.02228536642386
 30
0.0
 11
-138.8829351410299
 21
-87.65511491289013
 31
0.0
  0
LINE
  5
114
330
4E
100
AcDbEntity
  8
0
  6
Continuous
 62
     7
100
AcDbLine
 10
-138.8829351410299
 20
-87.65511491289013
 30
0.0
 11
-136.3325625190055
 21
-84.47865378298027
 31
0.0
  0
LINE
  5
115
330
4E
100
AcDbEntity
  8
0
  6
Continuous
 62
     7
100
AcDbLine
 10
-135.5527970474157
 20
-85.10472551155166
 30
0.0
 11
-138.1031696694401
 21
-88.28118664146152
 31
0.0
  0
LINE
  5
116
330
4E
100
AcDbEntity
  8
0
  6
Continuous
 62
     7
100
AcDbLine
 10
-135.6379025916146
 20
-91.92771130099445
 30
0.0
 11
-138.917062916583
 21
-89.29488175452823
 31
0.0
  0
LINE
  5
117
330
4E
100
AcDbEntity
  8
0
  6
Continuous
 62
     7
100
AcDbLine
 10
-139.6968283881728
 20
-88.66881002595687
 30
0.0
 11
-142.9759887131412
 21
-86.03598047949058
 31
0.0
  0
LINE
  5
118
330
4E
100
AcDbEntity
  8
0
  6
Continuous
 62
     7
100
AcDbLine
 10
-134.8009137649946
 20
-90.87499833370916
 30
0.0
 11
-134.6999990288065
 21
-90.87499833370916
 31
0.0
  0
LINE
  5
119
330
4E
100
AcDbEntity
  8
0
  6
Continuous
 62
     7
100
AcDbLine
 10
-149.3073173808278
 20
-90.87499833370916
 30
0.0
 11
-151.4999990288065
 21
-90.87499833370916
 31
0.0
  0
LINE
  5
11A
330
4E
100
AcDbEntity
  8
0
  6
Continuous
 62
     7
100
AcDbLine
 10
-142.9990842926184
 20
-90.87499833370916
 30
0.0
 11
-143.4926806767852
 21
-90.87499833370916
 31
0.0
  0
LINE
  5
11B
330
4E
100
AcDbEntity
  8
0
  6
Continuous
 62
     7
100
AcDbLine
 10
-138.1031696694401
 20
-88.28118664146152
 30
0.0
 11
-134.8240093444718
 21
-90.91401618792773
 31
0.0
  0
LINE
  5
11C
330
4E
100
AcDbEntity
  8
0
  6
Continuous
 62
     7
100
AcDbLine
 10
-150.5527970474157
 20
-96.10472551155169
 30
0.0
 11
-153.1031696694401
 21
-99.28118664146152
 31
0.0
  0
LINE
  5
11D
330
4E
100
AcDbEntity
  8
0
  6
Continuous
 62
     7
100
AcDbLine
 10
-153.8829351410299
 20
-98.65511491289013
 30
0.0
 11
-151.3325625190055
 21
-95.47865378298027
 31
0.0
  0
LINE
  5
11E
330
4E
100
AcDbEntity
  8
0
  6
Continuous
 62
     7
100
AcDbLine
 10
-150.6379025916146
 20
-102.9277113009945
 30
0.0
 11
-153.917062916583
 21
-100.2948817545283
 31
0.0
  0
LINE
  5
11F
330
4E
100
AcDbEntity
  8
0
  6
Continuous
 62
     7
100
AcDbLine
 10
-153.1031696694401
 20
-99.28118664146152
 30
0.0
 11
-149.8240093444718
 21
-101.9140161879277
 31
0.0
  0
LINE
  5
120
330
4E
100
AcDbEntity
  8
0
  6
Continuous
 62
     7
100
AcDbLine
 10
-157.1620954659984
 20
-96.02228536642386
 30
0.0
 11
-153.8829351410299
 21
-98.65511491289013
 31
0.0
  0
LINE
  5
121
330
4E
100
AcDbEntity
  8
0
  6
Continuous
 62
     7
100
AcDbLine
 10
-149.8009137649946
 20
-97.07499833370915
 30
0.0
 11
-149.3073173808278
 21
-97.07499833370915
 31
0.0
  0
LINE
  5
122
330
4E
100
AcDbEntity
  8
0
  6
Continuous
 62
     7
100
AcDbLine
 10
-134.6999990288065
 20
-97.07499833370915
 30
0.0
 11
-141.2999990288065
 21
-97.07499833370915
 31
0.0
  0
LINE
  5
123
330
4E
100
AcDbEntity
  8
0
  6
Continuous
 62
     7
100
AcDbLine
 10
-143.4926806767852
 20
-97.07499833370915
 30
0.0
 11
-141.2999990288065
 21
-97.07499833370915
 31
0.0
  0
LINE
  5
124
330
4E
100
AcDbEntity
  8
0
  6
Continuous
 62
     7
100
AcDbLine
 10
-158.0999990288065
 20
-97.07499833370915
 30
0.0
 11
-158.0999990288065
 21
-90.87499833370916
 31
0.0
  0
LINE
  5
125
330
4E
100
AcDbEntity
  8
0
  6
Continuous
 62
     7
100
AcDbLine
 10
-151.4999990288065
 20
-84.27499833370916
 30
0.0
 11
-158.0999990288065
 21
-84.27499833370916
 31
0.0
  0
LINE
  5
126
330
4E
100
AcDbEntity
  8
0
  6
Continuous
 62
     7
100
AcDbLine
 10
-158.0999990288065
 20
-84.27499833370916
 30
0.0
 11
-158.0999990288065
 21
-90.87499833370916
 31
0.0
  0
LINE
  5
127
330
4E
100
AcDbEntity
  8
0
  6
Continuous
 62
     7
100
AcDbLine
 10
-151.4999990288065
 20
-90.87499833370916
 30
0.0
 11
-151.4999990288065
 21
-84.27499833370916
 31
0.0
  0
LINE
  5
128
330
4E
100
AcDbEntity
  8
0
  6
Continuous
 62
     7
100
AcDbLine
 10
-158.0999990288065
 20
-90.87499833370916
 30
0.0
 11
-151.4999990288065
 21
-90.87499833370916
 31
0.0
  0
LINE
  5
129
330
4E
100
AcDbEntity
  8
1
  6
DOT_CENTER
 62
     2
100
AcDbLine
 10
-141.7249990288065
 20
-93.97499833370918
 30
0.0
 11
-151.0749990288065
 21
-93.97499833370918
 31
0.0
  0
LINE
  5
12A
330
4E
100
AcDbEntity
  8
1
  6
DOT_CENTER
 62
     2
100
AcDbLine
 10
-146.3999990288065
 20
-89.29999833370917
 30
0.0
 11
-146.3999990288065
 21
-98.64999833370919
 31
0.0
  0
LINE
  5
12B
330
4E
100
AcDbEntity
  8
1
  6
DOT_CENTER
 62
     2
100
AcDbLine
 10
-148.6749990288065
 20
-99.47499833370918
 30
0.0
 11
-159.1249990288065
 21
-99.47499833370918
 31
0.0
  0
LINE
  5
12C
330
4E
100
AcDbEntity
  8
1
  6
DOT_CENTER
 62
     2
100
AcDbLine
 10
-153.8999990288065
 20
-94.24999833370919
 30
0.0
 11
-153.8999990288065
 21
-104.6999983337092
 31
0.0
  0
LINE
  5
12D
330
4E
100
AcDbEntity
  8
1
  6
DOT_CENTER
 62
     2
100
AcDbLine
 10
-133.6749990288065
 20
-88.47499833370918
 30
0.0
 11
-144.1249990288065
 21
-88.47499833370918
 31
0.0
  0
LINE
  5
12E
330
4E
100
AcDbEntity
  8
1
  6
DOT_CENTER
 62
     2
100
AcDbLine
 10
-138.8999990288065
 20
-83.24999833370916
 30
0.0
 11
-138.8999990288065
 21
-93.6999983337092
 31
0.0
  0
ARC
  5
12F
330
4E
100
AcDbEntity
  8
0
  6
Continuous
 62
     7
100
AcDbCircle
 10
-146.3999990288065
 20
-93.97499833370918
 30
0.0
 40
4.249999999999951
100
AcDbArc
 50
313.1628971402916
 51
46.83710285970889
  0
ARC
  5
130
330
4E
100
AcDbEntity
  8
0
  6
Continuous
 62
     7
100
AcDbCircle
 10
-153.8999990288065
 20
-99.47499833370918
 30
0.0
 40
4.750000000000003
100
AcDbArc
 50
149.1042606436094
 51
149.6511770723543
  0
ARC
  5
131
330
4E
100
AcDbEntity
  8
0
  6
Continuous
 62
     7
100
AcDbCircle
 10
-153.8999990288065
 20
-99.47499833370918
 30
0.0
 40
4.750000000000032
100
AcDbArc
 50
133.3739537878287
 51
149.1042606436094
  0
ARC
  5
132
330
4E
100
AcDbEntity
  8
0
  6
Continuous
 62
     7
100
AcDbCircle
 10
-153.8999990288065
 20
-99.47499833370918
 30
0.0
 40
4.749999999999994
100
AcDbArc
 50
237.281435634773
 51
242.1545244334484
  0
ARC
  5
133
330
4E
100
AcDbEntity
  8
0
  6
Continuous
 62
     7
100
AcDbCircle
 10
-153.8999990288065
 20
-99.47499833370918
 30
0.0
 40
4.750000000000004
100
AcDbArc
 50
149.6511770723543
 51
152.1545244334487
  0
ARC
  5
134
330
4E
100
AcDbEntity
  8
0
  6
Continuous
 62
     7
100
AcDbCircle
 10
-153.8999990288065
 20
-99.47499833370918
 30
0.0
 40
4.749999999999967
100
AcDbArc
 50
57.28143563477317
 51
133.3739537878287
  0
ARC
  5
135
330
4E
100
AcDbEntity
  8
0
  6
Continuous
 62
     7
100
AcDbCircle
 10
-138.8999990288065
 20
-88.47499833370918
 30
0.0
 40
4.749999999999967
100
AcDbArc
 50
57.28143563477317
 51
62.15452443344866
  0
ARC
  5
136
330
4E
100
AcDbEntity
  8
0
  6
Continuous
 62
     7
100
AcDbCircle
 10
-138.8999990288065
 20
-88.47499833370918
 30
0.0
 40
4.749999999999997
100
AcDbArc
 50
45.19677879666474
 51
57.28143563477317
  0
ARC
  5
137
330
4E
100
AcDbEntity
  8
0
  6
Continuous
 62
     7
100
AcDbCircle
 10
-153.8999990288065
 20
-99.47499833370918
 30
0.0
 40
4.750000000000007
100
AcDbArc
 50
225.1967787966663
 51
237.281435634773
  0
ARC
  5
138
330
4E
100
AcDbEntity
  8
0
  6
Continuous
 62
     7
100
AcDbCircle
 10
-153.8999990288065
 20
-99.47499833370918
 30
0.0
 40
4.750000000000032
100
AcDbArc
 50
313.3739537878287
 51
329.1042606436102
  0
ARC
  5
139
330
4E
100
AcDbEntity
  8
0
  6
Continuous
 62
     7
100
AcDbCircle
 10
-153.8999990288065
 20
-99.47499833370918
 30
0.0
 40
4.750000000000018
100
AcDbArc
 50
297.8454755665513
 51
300.348822927645
  0
ARC
  5
13A
330
4E
100
AcDbEntity
  8
0
  6
Continuous
 62
     7
100
AcDbCircle
 10
-153.8999990288065
 20
-99.47499833370918
 30
0.0
 40
4.749999999999988
100
AcDbArc
 50
300.348822927645
 51
313.3739537878287
  0
ARC
  5
13B
330
4E
100
AcDbEntity
  8
0
  6
Continuous
 62
     7
100
AcDbCircle
 10
-153.8999990288065
 20
-99.47499833370918
 30
0.0
 40
4.749999999999984
100
AcDbArc
 50
207.8454755665506
 51
225.1967787966663
  0
ARC
  5
13C
330
4E
100
AcDbEntity
  8
0
  6
Continuous
 62
     7
100
AcDbCircle
 10
-153.8999990288065
 20
-99.47499833370918
 30
0.0
 40
4.750000000000031
100
AcDbArc
 50
242.1545244334484
 51
297.8454755665513
  0
ARC
  5
13D
330
4E
100
AcDbEntity
  8
0
  6
Continuous
 62
     7
100
AcDbCircle
 10
-138.8999990288065
 20
-88.47499833370918
 30
0.0
 40
4.749999999999973
100
AcDbArc
 50
329.10426064361
 51
329.6511770723549
  0
ARC
  5
13E
330
4E
100
AcDbEntity
  8
0
  6
Continuous
 62
     7
100
AcDbCircle
 10
-138.8999990288065
 20
-88.47499833370918
 30
0.0
 40
4.749999999999993
100
AcDbArc
 50
27.8454755665515
 51
45.19677879666474
  0
ARC
  5
13F
330
4E
100
AcDbEntity
  8
0
  6
Continuous
 62
     7
100
AcDbCircle
 10
-138.8999990288065
 20
-88.47499833370918
 30
0.0
 40
4.749999999999993
100
AcDbArc
 50
332.1545244334485
 51
27.8454755665515
  0
ARC
  5
140
330
4E
100
AcDbEntity
  8
0
  6
Continuous
 62
     7
100
AcDbCircle
 10
-138.8999990288065
 20
-88.47499833370918
 30
0.0
 40
4.74999999999999
100
AcDbArc
 50
313.3739537878291
 51
329.10426064361
  0
ARC
  5
141
330
4E
100
AcDbEntity
  8
0
  6
Continuous
 62
     7
100
AcDbCircle
 10
-138.8999990288065
 20
-88.47499833370918
 30
0.0
 40
4.750000000000032
100
AcDbArc
 50
133.3739537878287
 51
149.1042606436094
  0
ARC
  5
142
330
4E
100
AcDbEntity
  8
0
  6
Continuous
 62
     7
100
AcDbCircle
 10
-138.8999990288065
 20
-88.47499833370918
 30
0.0
 40
4.749999999999978
100
AcDbArc
 50
225.196778796666
 51
237.2814356347731
  0
ARC
  5
143
330
4E
100
AcDbEntity
  8
0
  6
Continuous
 62
     7
100
AcDbCircle
 10
-138.8999990288065
 20
-88.47499833370918
 30
0.0
 40
4.750000000000014
100
AcDbArc
 50
120.3488229276452
 51
133.3739537878287
  0
ARC
  5
144
330
4E
100
AcDbEntity
  8
0
  6
Continuous
 62
     7
100
AcDbCircle
 10
-138.8999990288065
 20
-88.47499833370918
 30
0.0
 40
4.750000000000031
100
AcDbArc
 50
117.8454755665516
 51
120.3488229276452
  0
ARC
  5
145
330
4E
100
AcDbEntity
  8
0
  6
Continuous
 62
     7
100
AcDbCircle
 10
-138.8999990288065
 20
-88.47499833370918
 30
0.0
 40
4.750000000000018
100
AcDbArc
 50
62.15452443344866
 51
117.8454755665516
  0
ARC
  5
146
330
4E
100
AcDbEntity
  8
0
  6
Continuous
 62
     7
100
AcDbCircle
 10
-138.8999990288065
 20
-88.47499833370918
 30
0.0
 40
4.750000000000006
100
AcDbArc
 50
237.2814356347731
 51
313.3739537878291
  0
ARC
  5
147
330
4E
100
AcDbEntity
  8
0
  6
Continuous
 62
     7
100
AcDbCircle
 10
-138.8999990288065
 20
-88.47499833370918
 30
0.0
 40
4.750000000000003
100
AcDbArc
 50
149.1042606436094
 51
225.196778796666
  0
ARC
  5
148
330
4E
100
AcDbEntity
  8
0
  6
Continuous
 62
     7
100
AcDbCircle
 10
-138.8999990288065
 20
-88.47499833370918
 30
0.0
 40
4.749999999999976
100
AcDbArc
 50
329.6511770723549
 51
332.1545244334485
  0
ARC
  5
149
330
4E
100
AcDbEntity
  8
0
  6
Continuous
 62
     7
100
AcDbCircle
 10
-146.3999990288065
 20
-93.97499833370918
 30
0.0
 40
4.249999999999993
100
AcDbArc
 50
46.83710285970889
 51
133.1628971402914
  0
ARC
  5
14A
330
4E
100
AcDbEntity
  8
0
  6
Continuous
 62
     7
100
AcDbCircle
 10
-153.8999990288065
 20
-99.47499833370918
 30
0.0
 40
4.749999999999959
100
AcDbArc
 50
329.1042606436102
 51
45.1967787966645
  0
ARC
  5
14B
330
4E
100
AcDbEntity
  8
0
  6
Continuous
 62
     7
100
AcDbCircle
 10
-153.8999990288065
 20
-99.47499833370918
 30
0.0
 40
4.749999999999977
100
AcDbArc
 50
45.1967787966645
 51
57.28143563477317
  0
ARC
  5
14C
330
4E
100
AcDbEntity
  8
0
  6
Continuous
 62
     7
100
AcDbCircle
 10
-153.8999990288065
 20
-99.47499833370918
 30
0.0
 40
4.750000000000018
100
AcDbArc
 50
152.1545244334487
 51
207.8454755665506
  0
ARC
  5
14D
330
4E
100
AcDbEntity
  8
0
  6
Continuous
 62
     7
100
AcDbCircle
 10
-146.3999990288065
 20
-93.97499833370918
 30
0.0
 40
4.249999999999972
100
AcDbArc
 50
226.8371028597081
 51
313.1628971402916
  0
ARC
  5
14E
330
4E
100
AcDbEntity
  8
0
  6
Continuous
 62
     7
100
AcDbCircle
 10
-146.3999990288065
 20
-93.97499833370918
 30
0.0
 40
4.250000000000012
100
AcDbArc
 50
133.1628971402914
 51
226.8371028597081
  0
CIRCLE
  5
14F
330
4E
100
AcDbEntity
  8
0
  6
Continuous
 62
     7
100
AcDbCircle
 10
-146.3999990288065
 20
-93.97499833370918
 30
0.0
 40
2.25
  0
ENDBLK
  5
50
330
4E
100
AcDbEntity
  8
0
100
AcDbBlockEnd
  0
BLOCK
  5
53
330
51
100
AcDbEntity
  8
0
100
AcDbBlockBegin
  2
Drfsicht1
 70
     0
 10
-146.3999997370707
 20
-93.97499935558079
 30
0.0
  3
Drfsicht1
  1

  0
INSERT
  5
52
330
51
100
AcDbEntity
  8
0
100
AcDbBlockReference
  2
AB_SS_EX-select__2
 10
-158.6499990288065
 20
-104.2249983337092
 30
0.0
  0
MTEXT
  5
150
330
51
100
AcDbEntity
  8
1
 62
     6
100
AcDbMText
 10
-146.3999990288065
 20
-107.1999983337092
 30
0.0
 40
2.5
 41
0.0
 71
     2
 72
     1
  1
 
  7
CONVERTER_11
 73
     1
 44
1.32052821128451
  0
DIMENSION
  5
15B
330
51
100
AcDbEntity
  8
1
100
AcDbDimension
  2
*D17
 10
-163.0999990288065
 20
-84.27499833370916
 30
0.0
 11
-164.8124990288065
 21
-94.5499712873725
 31
0.0
 70
    32
  1
<>
 71
     5
 42
-1.0
 53
90.0
  3
ME10_DIM_10
100
AcDbAlignedDimension
 13
-158.0999990288065
 23
-103.6749983337092
 33
0.0
 14
-151.4999990288065
 24
-84.27499833370916
 34
0.0
 50
90.0
100
AcDbRotatedDimension
  0
ENDBLK
  5
54
330
51
100
AcDbEntity
  8
0
100
AcDbBlockEnd
  0
BLOCK
  5
56
330
55
100
AcDbEntity
  8
0
100
AcDbBlockBegin
  2
AB_SS_EX-select__3
 70
     0
 10
-90.75000070825422
 20
-69.75000000009004
 30
0.0
  3
AB_SS_EX-select__3
  1

  0
LINE
  5
15C
330
55
100
AcDbEntity
  8
0
  6
Continuous
 62
     7
100
AcDbLine
 10
-90.75000070825422
 20
-51.25000000009004
 30
0.0
 11
-90.20000070825421
 21
-51.25000000009004
 31
0.0
  0
LINE
  5
15D
330
55
100
AcDbEntity
  8
0
  6
Continuous
 62
     7
100
AcDbLine
 10
-90.20000070825421
 20
-51.25000000009004
 30
0.0
 11
-83.60000070825419
 21
-51.25000000009004
 31
0.0
  0
LINE
  5
15E
330
55
100
AcDbEntity
  8
0
  6
Continuous
 62
     7
100
AcDbLine
 10
-88.56743721805526
 20
-47.85000000009003
 30
0.0
 11
-82.73790427106235
 21
-47.85000000009003
 31
0.0
  0
LINE
  5
15F
330
55
100
AcDbEntity
  8
0
  6
Continuous
 62
     7
100
AcDbLine
 10
-82.73790427106235
 20
-47.85000000009003
 30
0.0
 11
-81.92401102391952
 21
-47.85000000009003
 31
0.0
  0
LINE
  5
160
330
55
100
AcDbEntity
  8
0
  6
Continuous
 62
     7
100
AcDbLine
 10
-81.25000070825422
 20
-51.25000000009004
 30
0.0
 11
-81.25000070825422
 21
-47.85000000009003
 31
0.0
  0
LINE
  5
161
330
55
100
AcDbEntity
  8
0
  6
Continuous
 62
     7
100
AcDbLine
 10
-89.34720268964503
 20
-47.85000000009003
 30
0.0
 11
-88.56743721805526
 21
-47.85000000009003
 31
0.0
  0
LINE
  5
162
330
55
100
AcDbEntity
  8
0
  6
Continuous
 62
     7
100
AcDbLine
 10
-90.75000070825422
 20
-51.25000000009004
 30
0.0
 11
-90.75000070825422
 21
-47.85000000009003
 31
0.0
  0
LINE
  5
163
330
55
100
AcDbEntity
  8
0
  6
Continuous
 62
     7
100
AcDbLine
 10
-83.60000070825419
 20
-51.25000000009004
 30
0.0
 11
-81.25000070825422
 21
-51.25000000009004
 31
0.0
  0
LINE
  5
164
330
55
100
AcDbEntity
  8
0
  6
Continuous
 62
     7
100
AcDbLine
 10
-75.75000070825422
 20
-51.25000000009004
 30
0.0
 11
-75.75000070825422
 21
-47.85000000009003
 31
0.0
  0
LINE
  5
165
330
55
100
AcDbEntity
  8
0
  6
Continuous
 62
     7
100
AcDbLine
 10
-90.20000070825421
 20
-69.75000000009004
 30
0.0
 11
-90.20000070825421
 21
-51.25000000009004
 31
0.0
  0
LINE
  5
166
330
55
100
AcDbEntity
  8
0
  6
Continuous
 62
     7
100
AcDbLine
 10
-66.92401102391949
 20
-49.35000000009003
 30
0.0
 11
-66.92401102391949
 21
-47.85000000009003
 31
0.0
  0
LINE
  5
167
330
55
100
AcDbEntity
  8
0
  6
Continuous
 62
     7
100
AcDbLine
 10
-67.73790427106235
 20
-49.35000000009003
 30
0.0
 11
-67.73790427106235
 21
-47.85000000009003
 31
0.0
  0
LINE
  5
168
330
55
100
AcDbEntity
  8
0
  6
Continuous
 62
     7
100
AcDbLine
 10
-74.34720268964503
 20
-47.85000000009003
 30
0.0
 11
-73.56743721805529
 21
-47.85000000009003
 31
0.0
  0
LINE
  5
169
330
55
100
AcDbEntity
  8
0
  6
Continuous
 62
     7
100
AcDbLine
 10
-73.56743721805529
 20
-47.85000000009003
 30
0.0
 11
-67.73790427106235
 21
-47.85000000009003
 31
0.0
  0
LINE
  5
16A
330
55
100
AcDbEntity
  8
0
  6
Continuous
 62
     7
100
AcDbLine
 10
-75.75000070825422
 20
-51.25000000009004
 30
0.0
 11
-73.40000070825423
 21
-51.25000000009004
 31
0.0
  0
LINE
  5
16B
330
55
100
AcDbEntity
  8
0
  6
Continuous
 62
     7
100
AcDbLine
 10
-73.56743721805529
 20
-49.35000000009003
 30
0.0
 11
-73.56743721805529
 21
-47.85000000009003
 31
0.0
  0
LINE
  5
16C
330
55
100
AcDbEntity
  8
0
  6
Continuous
 62
     7
100
AcDbLine
 10
-73.40000070825423
 20
-53.90000000009003
 30
0.0
 11
-83.60000070825419
 21
-53.90000000009003
 31
0.0
  0
LINE
  5
16D
330
55
100
AcDbEntity
  8
0
  6
Continuous
 62
     7
100
AcDbLine
 10
-73.40000070825423
 20
-53.90000000009003
 30
0.0
 11
-73.40000070825423
 21
-51.25000000009004
 31
0.0
  0
LINE
  5
16E
330
55
100
AcDbEntity
  8
0
  6
Continuous
 62
     7
100
AcDbLine
 10
-73.40000070825423
 20
-51.25000000009004
 30
0.0
 11
-66.8000007082542
 21
-51.25000000009004
 31
0.0
  0
LINE
  5
16F
330
55
100
AcDbEntity
  8
0
  6
Continuous
 62
     7
100
AcDbLine
 10
-66.8000007082542
 20
-51.25000000009004
 30
0.0
 11
-66.25000070825422
 21
-51.25000000009004
 31
0.0
  0
LINE
  5
170
330
55
100
AcDbEntity
  8
0
  6
Continuous
 62
     7
100
AcDbLine
 10
-66.8000007082542
 20
-69.75000000009004
 30
0.0
 11
-66.8000007082542
 21
-51.25000000009004
 31
0.0
  0
LINE
  5
171
330
55
100
AcDbEntity
  8
0
  6
Continuous
 62
     7
100
AcDbLine
 10
-81.92401102391952
 20
-47.85000000009003
 30
0.0
 11
-81.25000070825422
 21
-47.85000000009003
 31
0.0
  0
LINE
  5
172
330
55
100
AcDbEntity
  8
0
  6
Continuous
 62
     7
100
AcDbLine
 10
-75.75000070825422
 20
-47.85000000009003
 30
0.0
 11
-74.34720268964503
 21
-47.85000000009003
 31
0.0
  0
LINE
  5
173
330
55
100
AcDbEntity
  8
0
  6
Continuous
 62
     7
100
AcDbLine
 10
-90.75000070825422
 20
-47.85000000009003
 30
0.0
 11
-89.34720268964503
 21
-47.85000000009003
 31
0.0
  0
LINE
  5
174
330
55
100
AcDbEntity
  8
0
  6
Continuous
 62
     7
100
AcDbLine
 10
-66.92401102391949
 20
-47.85000000009003
 30
0.0
 11
-66.25000070825422
 21
-47.85000000009003
 31
0.0
  0
LINE
  5
175
330
55
100
AcDbEntity
  8
0
  6
Continuous
 62
     7
100
AcDbLine
 10
-67.73790427106235
 20
-47.85000000009003
 30
0.0
 11
-66.92401102391949
 21
-47.85000000009003
 31
0.0
  0
LINE
  5
176
330
55
100
AcDbEntity
  8
0
  6
Continuous
 62
     7
100
AcDbLine
 10
-83.60000070825419
 20
-53.90000000009003
 30
0.0
 11
-83.60000070825419
 21
-51.25000000009004
 31
0.0
  0
LINE
  5
177
330
55
100
AcDbEntity
  8
0
  6
Continuous
 62
     7
100
AcDbLine
 10
-89.34720268964503
 20
-49.35000000009003
 30
0.0
 11
-89.34720268964503
 21
-47.85000000009003
 31
0.0
  0
LINE
  5
178
330
55
100
AcDbEntity
  8
0
  6
Continuous
 62
     7
100
AcDbLine
 10
-88.56743721805526
 20
-49.35000000009003
 30
0.0
 11
-88.56743721805526
 21
-47.85000000009003
 31
0.0
  0
LINE
  5
179
330
55
100
AcDbEntity
  8
0
  6
Continuous
 62
     7
100
AcDbLine
 10
-74.34720268964503
 20
-49.35000000009003
 30
0.0
 11
-74.34720268964503
 21
-47.85000000009003
 31
0.0
  0
LINE
  5
17A
330
55
100
AcDbEntity
  8
0
  6
Continuous
 62
     7
100
AcDbLine
 10
-82.73790427106235
 20
-49.35000000009003
 30
0.0
 11
-82.73790427106235
 21
-47.85000000009003
 31
0.0
  0
LINE
  5
17B
330
55
100
AcDbEntity
  8
0
  6
Continuous
 62
     7
100
AcDbLine
 10
-81.92401102391952
 20
-49.35000000009003
 30
0.0
 11
-81.92401102391952
 21
-47.85000000009003
 31
0.0
  0
LINE
  5
17C
330
55
100
AcDbEntity
  8
0
  6
Continuous
 62
     7
100
AcDbLine
 10
-89.34720268964503
 20
-49.35000000009003
 30
0.0
 11
-88.56743721805526
 21
-49.35000000009003
 31
0.0
  0
LINE
  5
17D
330
55
100
AcDbEntity
  8
0
  6
Continuous
 62
     7
100
AcDbLine
 10
-74.34720268964503
 20
-49.35000000009003
 30
0.0
 11
-73.56743721805529
 21
-49.35000000009003
 31
0.0
  0
LINE
  5
17E
330
55
100
AcDbEntity
  8
0
  6
Continuous
 62
     7
100
AcDbLine
 10
-67.73790427106235
 20
-49.35000000009003
 30
0.0
 11
-66.92401102391949
 21
-49.35000000009003
 31
0.0
  0
LINE
  5
17F
330
55
100
AcDbEntity
  8
0
  6
Continuous
 62
     7
100
AcDbLine
 10
-82.73790427106235
 20
-49.35000000009003
 30
0.0
 11
-81.92401102391952
 21
-49.35000000009003
 31
0.0
  0
LINE
  5
180
330
55
100
AcDbEntity
  8
0
  6
Continuous
 62
     7
100
AcDbLine
 10
-66.25000070825422
 20
-51.25000000009004
 30
0.0
 11
-66.25000070825422
 21
-47.85000000009003
 31
0.0
  0
LINE
  5
181
330
55
100
AcDbEntity
  8
0
  6
Continuous
 62
     7
100
AcDbLine
 10
-90.20000070825421
 20
-69.75000000009004
 30
0.0
 11
-66.8000007082542
 21
-69.75000000009004
 31
0.0
  0
LINE
  5
182
330
55
100
AcDbEntity
  8
1
  6
DOT_CENTER
 62
     2
100
AcDbLine
 10
-86.00000070825422
 20
-51.25000000009004
 30
0.0
 11
-86.00000070825422
 21
-47.85000000009003
 31
0.0
  0
LINE
  5
183
330
55
100
AcDbEntity
  8
1
  6
DOT_CENTER
 62
     2
100
AcDbLine
 10
-71.00000070825422
 20
-51.25000000009004
 30
0.0
 11
-71.00000070825422
 21
-47.85000000009003
 31
0.0
  0
ENDBLK
  5
57
330
55
100
AcDbEntity
  8
0
100
AcDbBlockEnd
  0
BLOCK
  5
5A
330
58
100
AcDbEntity
  8
0
100
AcDbBlockBegin
  2
Rckans1
 70
     0
 10
-78.49999999999
 20
-60.50000000004502
 30
0.0
  3
Rckans1
  1

  0
INSERT
  5
59
330
58
100
AcDbEntity
  8
0
100
AcDbBlockReference
  2
AB_SS_EX-select__3
 10
-90.75000070825422
 20
-69.75000000009004
 30
0.0
  0
MTEXT
  5
184
330
58
100
AcDbEntity
  8
1
 62
     6
100
AcDbMText
 10
-78.50000070825422
 20
-72.25000000009004
 30
0.0
 40
2.5
 41
0.0
 71
     2
 72
     1
  1
 
  7
CONVERTER_11
 73
     1
 44
1.32052821128451
  0
ENDBLK
  5
5B
330
58
100
AcDbEntity
  8
0
100
AcDbBlockEnd
  0
BLOCK
  5
5D
330
5C
100
AcDbEntity
  8
0
100
AcDbBlockBegin
  2
AB_SS_EX-select__4
 70
     0
 10
-118.4500006404069
 20
-69.75000000009004
 30
0.0
  3
AB_SS_EX-select__4
  1

  0
LINE
  5
185
330
5C
100
AcDbEntity
  8
0
  6
Continuous
 62
     7
100
AcDbLine
 10
-118.4500006404069
 20
-51.25000000009003
 30
0.0
 11
-118.4500006404069
 21
-47.85000000009002
 31
0.0
  0
LINE
  5
186
330
5C
100
AcDbEntity
  8
0
  6
Continuous
 62
     7
100
AcDbLine
 10
-118.4500006404069
 20
-51.25000000009003
 30
0.0
 11
-117.900000640407
 21
-51.25000000009003
 31
0.0
  0
LINE
  5
187
330
5C
100
AcDbEntity
  8
0
  6
Continuous
 62
     7
100
AcDbLine
 10
-117.900000640407
 20
-51.25000000009003
 30
0.0
 11
-111.3000006404069
 21
-51.25000000009003
 31
0.0
  0
LINE
  5
188
330
5C
100
AcDbEntity
  8
0
  6
Continuous
 62
     7
100
AcDbLine
 10
-117.900000640407
 20
-69.75000000009004
 30
0.0
 11
-117.900000640407
 21
-51.25000000009003
 31
0.0
  0
LINE
  5
189
330
5C
100
AcDbEntity
  8
0
  6
Continuous
 62
     7
100
AcDbLine
 10
-111.3000006404069
 20
-56.90000000009003
 30
0.0
 11
-111.3000006404069
 21
-51.25000000009003
 31
0.0
  0
LINE
  5
18A
330
5C
100
AcDbEntity
  8
0
  6
Continuous
 62
     7
100
AcDbLine
 10
-105.100000640407
 20
-56.90000000009003
 30
0.0
 11
-105.100000640407
 21
-51.25000000009003
 31
0.0
  0
LINE
  5
18B
330
5C
100
AcDbEntity
  8
0
  6
Continuous
 62
     7
100
AcDbLine
 10
-105.100000640407
 20
-56.90000000009003
 30
0.0
 11
-111.3000006404069
 21
-56.90000000009003
 31
0.0
  0
LINE
  5
18C
330
5C
100
AcDbEntity
  8
0
  6
Continuous
 62
     7
100
AcDbLine
 10
-99.32972781824934
 20
-47.85000000009002
 30
0.0
 11
-98.70365608967795
 21
-47.85000000009002
 31
0.0
  0
LINE
  5
18D
330
5C
100
AcDbEntity
  8
0
  6
Continuous
 62
     7
100
AcDbLine
 10
-105.1390184946255
 20
-47.85000000009002
 30
0.0
 11
-99.32972781824934
 21
-47.85000000009002
 31
0.0
  0
LINE
  5
18E
330
5C
100
AcDbEntity
  8
0
  6
Continuous
 62
     7
100
AcDbLine
 10
-107.4500006404069
 20
-47.85000000009002
 30
0.0
 11
-106.1527136076923
 21
-47.85000000009002
 31
0.0
  0
LINE
  5
18F
330
5C
100
AcDbEntity
  8
0
  6
Continuous
 62
     7
100
AcDbLine
 10
-106.1527136076923
 20
-47.85000000009002
 30
0.0
 11
-105.1390184946255
 21
-47.85000000009002
 31
0.0
  0
LINE
  5
190
330
5C
100
AcDbEntity
  8
0
  6
Continuous
 62
     7
100
AcDbLine
 10
-97.95000064040694
 20
-51.25000000009003
 30
0.0
 11
-97.95000064040694
 21
-47.85000000009002
 31
0.0
  0
LINE
  5
191
330
5C
100
AcDbEntity
  8
0
  6
Continuous
 62
     7
100
AcDbLine
 10
-106.1527136076923
 20
-49.35000000009002
 30
0.0
 11
-105.1390184946255
 21
-49.35000000009002
 31
0.0
  0
LINE
  5
192
330
5C
100
AcDbEntity
  8
0
  6
Continuous
 62
     7
100
AcDbLine
 10
-105.1390184946255
 20
-49.35000000009002
 30
0.0
 11
-105.1390184946255
 21
-47.85000000009002
 31
0.0
  0
LINE
  5
193
330
5C
100
AcDbEntity
  8
0
  6
Continuous
 62
     7
100
AcDbLine
 10
-106.1527136076923
 20
-49.35000000009002
 30
0.0
 11
-106.1527136076923
 21
-47.85000000009002
 31
0.0
  0
LINE
  5
194
330
5C
100
AcDbEntity
  8
0
  6
Continuous
 62
     7
100
AcDbLine
 10
-99.32972781824934
 20
-49.35000000009002
 30
0.0
 11
-98.70365608967795
 21
-49.35000000009002
 31
0.0
  0
LINE
  5
195
330
5C
100
AcDbEntity
  8
0
  6
Continuous
 62
     7
100
AcDbLine
 10
-98.70365608967795
 20
-49.35000000009002
 30
0.0
 11
-98.70365608967795
 21
-47.85000000009002
 31
0.0
  0
LINE
  5
196
330
5C
100
AcDbEntity
  8
0
  6
Continuous
 62
     7
100
AcDbLine
 10
-98.70365608967795
 20
-47.85000000009002
 30
0.0
 11
-97.95000064040694
 21
-47.85000000009002
 31
0.0
  0
LINE
  5
197
330
5C
100
AcDbEntity
  8
0
  6
Continuous
 62
     7
100
AcDbLine
 10
-107.4500006404069
 20
-51.25000000009003
 30
0.0
 11
-107.4500006404069
 21
-47.85000000009002
 31
0.0
  0
LINE
  5
198
330
5C
100
AcDbEntity
  8
0
  6
Continuous
 62
     7
100
AcDbLine
 10
-98.50000064040692
 20
-51.25000000009003
 30
0.0
 11
-97.95000064040694
 21
-51.25000000009003
 31
0.0
  0
LINE
  5
199
330
5C
100
AcDbEntity
  8
0
  6
Continuous
 62
     7
100
AcDbLine
 10
-107.4500006404069
 20
-51.25000000009003
 30
0.0
 11
-105.100000640407
 21
-51.25000000009003
 31
0.0
  0
LINE
  5
19A
330
5C
100
AcDbEntity
  8
0
  6
Continuous
 62
     7
100
AcDbLine
 10
-105.100000640407
 20
-51.25000000009003
 30
0.0
 11
-98.50000064040692
 21
-51.25000000009003
 31
0.0
  0
LINE
  5
19B
330
5C
100
AcDbEntity
  8
0
  6
Continuous
 62
     7
100
AcDbLine
 10
-99.32972781824934
 20
-49.35000000009002
 30
0.0
 11
-99.32972781824934
 21
-47.85000000009002
 31
0.0
  0
LINE
  5
19C
330
5C
100
AcDbEntity
  8
0
  6
Continuous
 62
     7
100
AcDbLine
 10
-117.1527136076923
 20
-49.35000000009002
 30
0.0
 11
-116.1390184946255
 21
-49.35000000009002
 31
0.0
  0
LINE
  5
19D
330
5C
100
AcDbEntity
  8
0
  6
Continuous
 62
     7
100
AcDbLine
 10
-117.1527136076923
 20
-49.35000000009002
 30
0.0
 11
-117.1527136076923
 21
-47.85000000009002
 31
0.0
  0
LINE
  5
19E
330
5C
100
AcDbEntity
  8
0
  6
Continuous
 62
     7
100
AcDbLine
 10
-116.1390184946255
 20
-49.35000000009002
 30
0.0
 11
-116.1390184946255
 21
-47.85000000009002
 31
0.0
  0
LINE
  5
19F
330
5C
100
AcDbEntity
  8
0
  6
Continuous
 62
     7
100
AcDbLine
 10
-116.1390184946255
 20
-47.85000000009002
 30
0.0
 11
-110.3297278182494
 21
-47.85000000009002
 31
0.0
  0
LINE
  5
1A0
330
5C
100
AcDbEntity
  8
0
  6
Continuous
 62
     7
100
AcDbLine
 10
-110.3297278182494
 20
-47.85000000009002
 30
0.0
 11
-109.703656089678
 21
-47.85000000009002
 31
0.0
  0
LINE
  5
1A1
330
5C
100
AcDbEntity
  8
0
  6
Continuous
 62
     7
100
AcDbLine
 10
-109.703656089678
 20
-47.85000000009002
 30
0.0
 11
-108.9500006404069
 21
-47.85000000009002
 31
0.0
  0
LINE
  5
1A2
330
5C
100
AcDbEntity
  8
0
  6
Continuous
 62
     7
100
AcDbLine
 10
-117.1527136076923
 20
-47.85000000009002
 30
0.0
 11
-116.1390184946255
 21
-47.85000000009002
 31
0.0
  0
LINE
  5
1A3
330
5C
100
AcDbEntity
  8
0
  6
Continuous
 62
     7
100
AcDbLine
 10
-110.3297278182494
 20
-49.35000000009002
 30
0.0
 11
-109.703656089678
 21
-49.35000000009002
 31
0.0
  0
LINE
  5
1A4
330
5C
100
AcDbEntity
  8
0
  6
Continuous
 62
     7
100
AcDbLine
 10
-108.9500006404069
 20
-51.25000000009003
 30
0.0
 11
-108.9500006404069
 21
-47.85000000009002
 31
0.0
  0
LINE
  5
1A5
330
5C
100
AcDbEntity
  8
0
  6
Continuous
 62
     7
100
AcDbLine
 10
-109.703656089678
 20
-49.35000000009002
 30
0.0
 11
-109.703656089678
 21
-47.85000000009002
 31
0.0
  0
LINE
  5
1A6
330
5C
100
AcDbEntity
  8
0
  6
Continuous
 62
     7
100
AcDbLine
 10
-110.3297278182494
 20
-49.35000000009002
 30
0.0
 11
-110.3297278182494
 21
-47.85000000009002
 31
0.0
  0
LINE
  5
1A7
330
5C
100
AcDbEntity
  8
0
  6
Continuous
 62
     7
100
AcDbLine
 10
-111.3000006404069
 20
-51.25000000009003
 30
0.0
 11
-108.9500006404069
 21
-51.25000000009003
 31
0.0
  0
LINE
  5
1A8
330
5C
100
AcDbEntity
  8
0
  6
Continuous
 62
     7
100
AcDbLine
 10
-118.4500006404069
 20
-47.85000000009002
 30
0.0
 11
-117.1527136076923
 21
-47.85000000009002
 31
0.0
  0
LINE
  5
1A9
330
5C
100
AcDbEntity
  8
0
  6
Continuous
 62
     7
100
AcDbLine
 10
-98.50000064040692
 20
-69.75000000009004
 30
0.0
 11
-98.50000064040692
 21
-51.25000000009003
 31
0.0
  0
LINE
  5
1AA
330
5C
100
AcDbEntity
  8
0
  6
Continuous
 62
     7
100
AcDbLine
 10
-117.900000640407
 20
-69.75000000009004
 30
0.0
 11
-98.50000064040692
 21
-69.75000000009004
 31
0.0
  0
LINE
  5
1AB
330
5C
100
AcDbEntity
  8
1
  6
DOT_CENTER
 62
     2
100
AcDbLine
 10
-113.7000006404069
 20
-51.25000000009003
 30
0.0
 11
-113.7000006404069
 21
-47.85000000009002
 31
0.0
  0
LINE
  5
1AC
330
5C
100
AcDbEntity
  8
1
  6
DOT_CENTER
 62
     2
100
AcDbLine
 10
-102.7000006404069
 20
-51.25000000009003
 30
0.0
 11
-102.7000006404069
 21
-47.85000000009002
 31
0.0
  0
ENDBLK
  5
5E
330
5C
100
AcDbEntity
  8
0
100
AcDbBlockEnd
  0
BLOCK
  5
61
330
5F
100
AcDbEntity
  8
0
100
AcDbBlockBegin
  2
SA_Links1
 70
     0
 10
-108.1999996185353
 20
-60.50000000004501
 30
0.0
  3
SA_Links1
  1

  0
INSERT
  5
60
330
5F
100
AcDbEntity
  8
0
100
AcDbBlockReference
  2
AB_SS_EX-select__4
 10
-118.4500006404069
 20
-69.75000000009004
 30
0.0
  0
MTEXT
  5
1AD
330
5F
100
AcDbEntity
  8
1
 62
     6
100
AcDbMText
 10
-108.2000006404069
 20
-72.25000000009004
 30
0.0
 40
2.5
 41
0.0
 71
     2
 72
     1
  1
 
  7
CONVERTER_11
 73
     1
 44
1.32052821128451
  0
ENDBLK
  5
62
330
5F
100
AcDbEntity
  8
0
100
AcDbBlockEnd
  0
BLOCK
  5
64
330
63
100
AcDbEntity
  8
0
100
AcDbBlockBegin
  2
AB_SS_EX-select__5
 70
     0
 10
-196.8499983337094
 20
-67.75000000009004
 30
0.0
  3
AB_SS_EX-select__5
  1

  0
LINE
  5
1AE
330
63
100
AcDbEntity
  8
0
  6
Continuous
 62
     7
100
AcDbLine
 10
-196.2999983337094
 20
-49.25000000009004
 30
0.0
 11
-189.6999983337094
 21
-49.25000000009004
 31
0.0
  0
LINE
  5
1AF
330
63
100
AcDbEntity
  8
0
  6
Continuous
 62
     7
100
AcDbLine
 10
-196.8499983337094
 20
-49.25000000009004
 30
0.0
 11
-196.2999983337094
 21
-49.25000000009004
 31
0.0
  0
LINE
  5
1B0
330
63
100
AcDbEntity
  8
0
  6
Continuous
 62
     7
100
AcDbLine
 10
-195.5527113009947
 20
-47.35000000009003
 30
0.0
 11
-194.539016187928
 21
-47.35000000009003
 31
0.0
  0
LINE
  5
1B1
330
63
100
AcDbEntity
  8
0
  6
Continuous
 62
     7
100
AcDbLine
 10
-195.5527113009947
 20
-47.35000000009003
 30
0.0
 11
-195.5527113009947
 21
-45.85000000009003
 31
0.0
  0
LINE
  5
1B2
330
63
100
AcDbEntity
  8
0
  6
Continuous
 62
     7
100
AcDbLine
 10
-194.539016187928
 20
-47.35000000009003
 30
0.0
 11
-194.539016187928
 21
-45.85000000009003
 31
0.0
  0
LINE
  5
1B3
330
63
100
AcDbEntity
  8
0
  6
Continuous
 62
     7
100
AcDbLine
 10
-196.8499983337094
 20
-49.25000000009004
 30
0.0
 11
-196.8499983337094
 21
-45.85000000009003
 31
0.0
  0
LINE
  5
1B4
330
63
100
AcDbEntity
  8
0
  6
Continuous
 62
     7
100
AcDbLine
 10
-196.2999983337094
 20
-67.75000000009004
 30
0.0
 11
-196.2999983337094
 21
-49.25000000009004
 31
0.0
  0
LINE
  5
1B5
330
63
100
AcDbEntity
  8
0
  6
Continuous
 62
     7
100
AcDbLine
 10
-177.7297255115519
 20
-47.35000000009003
 30
0.0
 11
-177.1036537829805
 21
-47.35000000009003
 31
0.0
  0
LINE
  5
1B6
330
63
100
AcDbEntity
  8
0
  6
Continuous
 62
     7
100
AcDbLine
 10
-176.8999983337094
 20
-49.25000000009004
 30
0.0
 11
-176.3499983337094
 21
-49.25000000009004
 31
0.0
  0
LINE
  5
1B7
330
63
100
AcDbEntity
  8
0
  6
Continuous
 62
     7
100
AcDbLine
 10
-177.1036537829805
 20
-45.85000000009003
 30
0.0
 11
-176.3499983337094
 21
-45.85000000009003
 31
0.0
  0
LINE
  5
1B8
330
63
100
AcDbEntity
  8
0
  6
Continuous
 62
     7
100
AcDbLine
 10
-177.1036537829805
 20
-47.35000000009003
 30
0.0
 11
-177.1036537829805
 21
-45.85000000009003
 31
0.0
  0
LINE
  5
1B9
330
63
100
AcDbEntity
  8
0
  6
Continuous
 62
     7
100
AcDbLine
 10
-176.3499983337094
 20
-49.25000000009004
 30
0.0
 11
-176.3499983337094
 21
-45.85000000009003
 31
0.0
  0
LINE
  5
1BA
330
63
100
AcDbEntity
  8
0
  6
Continuous
 62
     7
100
AcDbLine
 10
-177.7297255115519
 20
-47.35000000009003
 30
0.0
 11
-177.7297255115519
 21
-45.85000000009003
 31
0.0
  0
LINE
  5
1BB
330
63
100
AcDbEntity
  8
0
  6
Continuous
 62
     7
100
AcDbLine
 10
-176.8999983337094
 20
-67.75000000009004
 30
0.0
 11
-176.8999983337094
 21
-49.25000000009004
 31
0.0
  0
LINE
  5
1BC
330
63
100
AcDbEntity
  8
0
  6
Continuous
 62
     7
100
AcDbLine
 10
-189.6999983337094
 20
-49.25000000009004
 30
0.0
 11
-187.3499983337094
 21
-49.25000000009004
 31
0.0
  0
LINE
  5
1BD
330
63
100
AcDbEntity
  8
0
  6
Continuous
 62
     7
100
AcDbLine
 10
-185.8499983337094
 20
-49.25000000009004
 30
0.0
 11
-183.4999983337094
 21
-49.25000000009004
 31
0.0
  0
LINE
  5
1BE
330
63
100
AcDbEntity
  8
0
  6
Continuous
 62
     7
100
AcDbLine
 10
-185.8499983337094
 20
-49.25000000009004
 30
0.0
 11
-185.8499983337094
 21
-45.85000000009003
 31
0.0
  0
LINE
  5
1BF
330
63
100
AcDbEntity
  8
0
  6
Continuous
 62
     7
100
AcDbLine
 10
-185.8499983337094
 20
-45.85000000009003
 30
0.0
 11
-184.5527113009947
 21
-45.85000000009003
 31
0.0
  0
LINE
  5
1C0
330
63
100
AcDbEntity
  8
0
  6
Continuous
 62
     7
100
AcDbLine
 10
-184.5527113009947
 20
-45.85000000009003
 30
0.0
 11
-183.539016187928
 21
-45.85000000009003
 31
0.0
  0
LINE
  5
1C1
330
63
100
AcDbEntity
  8
0
  6
Continuous
 62
     7
100
AcDbLine
 10
-188.729725511552
 20
-47.35000000009003
 30
0.0
 11
-188.1036537829805
 21
-47.35000000009003
 31
0.0
  0
LINE
  5
1C2
330
63
100
AcDbEntity
  8
0
  6
Continuous
 62
     7
100
AcDbLine
 10
-188.1036537829805
 20
-45.85000000009003
 30
0.0
 11
-187.3499983337094
 21
-45.85000000009003
 31
0.0
  0
LINE
  5
1C3
330
63
100
AcDbEntity
  8
0
  6
Continuous
 62
     7
100
AcDbLine
 10
-188.1036537829805
 20
-47.35000000009003
 30
0.0
 11
-188.1036537829805
 21
-45.85000000009003
 31
0.0
  0
LINE
  5
1C4
330
63
100
AcDbEntity
  8
0
  6
Continuous
 62
     7
100
AcDbLine
 10
-187.3499983337094
 20
-49.25000000009004
 30
0.0
 11
-187.3499983337094
 21
-45.85000000009003
 31
0.0
  0
LINE
  5
1C5
330
63
100
AcDbEntity
  8
0
  6
Continuous
 62
     7
100
AcDbLine
 10
-188.729725511552
 20
-47.35000000009003
 30
0.0
 11
-188.729725511552
 21
-45.85000000009003
 31
0.0
  0
LINE
  5
1C6
330
63
100
AcDbEntity
  8
0
  6
Continuous
 62
     7
100
AcDbLine
 10
-183.4999983337094
 20
-54.90000000009003
 30
0.0
 11
-189.6999983337094
 21
-54.90000000009003
 31
0.0
  0
LINE
  5
1C7
330
63
100
AcDbEntity
  8
0
  6
Continuous
 62
     7
100
AcDbLine
 10
-183.539016187928
 20
-45.85000000009003
 30
0.0
 11
-177.7297255115519
 21
-45.85000000009003
 31
0.0
  0
LINE
  5
1C8
330
63
100
AcDbEntity
  8
0
  6
Continuous
 62
     7
100
AcDbLine
 10
-177.7297255115519
 20
-45.85000000009003
 30
0.0
 11
-177.1036537829805
 21
-45.85000000009003
 31
0.0
  0
LINE
  5
1C9
330
63
100
AcDbEntity
  8
0
  6
Continuous
 62
     7
100
AcDbLine
 10
-183.4999983337094
 20
-49.25000000009004
 30
0.0
 11
-176.8999983337094
 21
-49.25000000009004
 31
0.0
  0
LINE
  5
1CA
330
63
100
AcDbEntity
  8
0
  6
Continuous
 62
     7
100
AcDbLine
 10
-183.539016187928
 20
-47.35000000009003
 30
0.0
 11
-183.539016187928
 21
-45.85000000009003
 31
0.0
  0
LINE
  5
1CB
330
63
100
AcDbEntity
  8
0
  6
Continuous
 62
     7
100
AcDbLine
 10
-184.5527113009947
 20
-47.35000000009003
 30
0.0
 11
-183.539016187928
 21
-47.35000000009003
 31
0.0
  0
LINE
  5
1CC
330
63
100
AcDbEntity
  8
0
  6
Continuous
 62
     7
100
AcDbLine
 10
-184.5527113009947
 20
-47.35000000009003
 30
0.0
 11
-184.5527113009947
 21
-45.85000000009003
 31
0.0
  0
LINE
  5
1CD
330
63
100
AcDbEntity
  8
0
  6
Continuous
 62
     7
100
AcDbLine
 10
-183.4999983337094
 20
-54.90000000009003
 30
0.0
 11
-183.4999983337094
 21
-49.25000000009004
 31
0.0
  0
LINE
  5
1CE
330
63
100
AcDbEntity
  8
0
  6
Continuous
 62
     7
100
AcDbLine
 10
-189.6999983337094
 20
-54.90000000009003
 30
0.0
 11
-189.6999983337094
 21
-49.25000000009004
 31
0.0
  0
LINE
  5
1CF
330
63
100
AcDbEntity
  8
0
  6
Continuous
 62
     7
100
AcDbLine
 10
-194.539016187928
 20
-45.85000000009003
 30
0.0
 11
-188.729725511552
 21
-45.85000000009003
 31
0.0
  0
LINE
  5
1D0
330
63
100
AcDbEntity
  8
0
  6
Continuous
 62
     7
100
AcDbLine
 10
-188.729725511552
 20
-45.85000000009003
 30
0.0
 11
-188.1036537829805
 21
-45.85000000009003
 31
0.0
  0
LINE
  5
1D1
330
63
100
AcDbEntity
  8
0
  6
Continuous
 62
     7
100
AcDbLine
 10
-195.5527113009947
 20
-45.85000000009003
 30
0.0
 11
-194.539016187928
 21
-45.85000000009003
 31
0.0
  0
LINE
  5
1D2
330
63
100
AcDbEntity
  8
0
  6
Continuous
 62
     7
100
AcDbLine
 10
-196.8499983337094
 20
-45.85000000009003
 30
0.0
 11
-195.5527113009947
 21
-45.85000000009003
 31
0.0
  0
LINE
  5
1D3
330
63
100
AcDbEntity
  8
0
  6
Continuous
 62
     7
100
AcDbLine
 10
-196.2999983337094
 20
-67.75000000009004
 30
0.0
 11
-176.8999983337094
 21
-67.75000000009004
 31
0.0
  0
LINE
  5
1D4
330
63
100
AcDbEntity
  8
1
  6
DOT_CENTER
 62
     2
100
AcDbLine
 10
-181.0999983337094
 20
-49.25000000009004
 30
0.0
 11
-181.0999983337094
 21
-45.85000000009003
 31
0.0
  0
LINE
  5
1D5
330
63
100
AcDbEntity
  8
1
  6
DOT_CENTER
 62
     2
100
AcDbLine
 10
-192.0999983337094
 20
-49.25000000009004
 30
0.0
 11
-192.0999983337094
 21
-45.85000000009003
 31
0.0
  0
ENDBLK
  5
65
330
63
100
AcDbEntity
  8
0
100
AcDbBlockEnd
  0
BLOCK
  5
68
330
66
100
AcDbEntity
  8
0
100
AcDbBlockBegin
  2
SA_Rechts1
 70
     0
 10
-186.5999993555811
 20
-58.50000000004502
 30
0.0
  3
SA_Rechts1
  1

  0
INSERT
  5
67
330
66
100
AcDbEntity
  8
0
100
AcDbBlockReference
  2
AB_SS_EX-select__5
 10
-196.8499983337094
 20
-67.75000000009004
 30
0.0
  0
MTEXT
  5
1D6
330
66
100
AcDbEntity
  8
1
 62
     6
100
AcDbMText
 10
-186.5999983337094
 20
-70.25000000009004
 30
0.0
 40
2.5
 41
0.0
 71
     2
 72
     1
  1
 
  7
CONVERTER_11
 73
     1
 44
1.32052821128451
  0
ENDBLK
  5
69
330
66
100
AcDbEntity
  8
0
100
AcDbBlockEnd
  0
BLOCK
  5
6B
330
6A
100
AcDbEntity
  8
0
100
AcDbBlockBegin
  2
AB_SS_EX-select__6
 70
     0
 10
-158.6499990288065
 20
-69.75000000009004
 30
0.0
  3
AB_SS_EX-select__6
  1

  0
LINE
  5
1D7
330
6A
100
AcDbEntity
  8
0
  6
Continuous
 62
     7
100
AcDbLine
 10
-134.8240093444718
 20
-47.85000000009003
 30
0.0
 11
-134.1499990288065
 21
-47.85000000009003
 31
0.0
  0
LINE
  5
1D8
330
6A
100
AcDbEntity
  8
0
  6
Continuous
 62
     7
100
AcDbLine
 10
-141.2999990288065
 20
-51.25000000009004
 30
0.0
 11
-134.6999990288065
 21
-51.25000000009004
 31
0.0
  0
LINE
  5
1D9
330
6A
100
AcDbEntity
  8
0
  6
Continuous
 62
     7
100
AcDbLine
 10
-134.8240093444718
 20
-49.35000000009003
 30
0.0
 11
-134.8240093444718
 21
-47.85000000009003
 31
0.0
  0
LINE
  5
1DA
330
6A
100
AcDbEntity
  8
0
  6
Continuous
 62
     7
100
AcDbLine
 10
-134.6999990288065
 20
-51.25000000009004
 30
0.0
 11
-134.1499990288065
 21
-51.25000000009004
 31
0.0
  0
LINE
  5
1DB
330
6A
100
AcDbEntity
  8
0
  6
Continuous
 62
     7
100
AcDbLine
 10
-134.1499990288065
 20
-51.25000000009004
 30
0.0
 11
-134.1499990288065
 21
-47.85000000009003
 31
0.0
  0
LINE
  5
1DC
330
6A
100
AcDbEntity
  8
0
  6
Continuous
 62
     7
100
AcDbLine
 10
-134.6999990288065
 20
-69.75000000009004
 30
0.0
 11
-134.6999990288065
 21
-51.25000000009004
 31
0.0
  0
LINE
  5
1DD
330
6A
100
AcDbEntity
  8
0
  6
Continuous
 62
     7
100
AcDbLine
 10
-156.4674355386075
 20
-49.35000000009003
 30
0.0
 11
-156.4674355386075
 21
-47.85000000009003
 31
0.0
  0
LINE
  5
1DE
330
6A
100
AcDbEntity
  8
0
  6
Continuous
 62
     7
100
AcDbLine
 10
-157.2472010101972
 20
-49.35000000009003
 30
0.0
 11
-156.4674355386075
 21
-49.35000000009003
 31
0.0
  0
LINE
  5
1DF
330
6A
100
AcDbEntity
  8
0
  6
Continuous
 62
     7
100
AcDbLine
 10
-142.2472010101972
 20
-47.85000000009003
 30
0.0
 11
-141.4674355386075
 21
-47.85000000009003
 31
0.0
  0
LINE
  5
1E0
330
6A
100
AcDbEntity
  8
0
  6
Continuous
 62
     7
100
AcDbLine
 10
-141.4674355386075
 20
-47.85000000009003
 30
0.0
 11
-135.6379025916146
 21
-47.85000000009003
 31
0.0
  0
LINE
  5
1E1
330
6A
100
AcDbEntity
  8
0
  6
Continuous
 62
     7
100
AcDbLine
 10
-135.6379025916146
 20
-47.85000000009003
 30
0.0
 11
-134.8240093444718
 21
-47.85000000009003
 31
0.0
  0
LINE
  5
1E2
330
6A
100
AcDbEntity
  8
0
  6
Continuous
 62
     7
100
AcDbLine
 10
-158.6499990288065
 20
-47.85000000009003
 30
0.0
 11
-157.2472010101972
 21
-47.85000000009003
 31
0.0
  0
LINE
  5
1E3
330
6A
100
AcDbEntity
  8
0
  6
Continuous
 62
     7
100
AcDbLine
 10
-157.2472010101972
 20
-49.35000000009003
 30
0.0
 11
-157.2472010101972
 21
-47.85000000009003
 31
0.0
  0
LINE
  5
1E4
330
6A
100
AcDbEntity
  8
0
  6
Continuous
 62
     7
100
AcDbLine
 10
-158.6499990288065
 20
-51.25000000009004
 30
0.0
 11
-158.0999990288065
 21
-51.25000000009004
 31
0.0
  0
LINE
  5
1E5
330
6A
100
AcDbEntity
  8
0
  6
Continuous
 62
     7
100
AcDbLine
 10
-158.6499990288065
 20
-51.25000000009004
 30
0.0
 11
-158.6499990288065
 21
-47.85000000009003
 31
0.0
  0
LINE
  5
1E6
330
6A
100
AcDbEntity
  8
0
  6
Continuous
 62
     7
100
AcDbLine
 10
-158.0999990288065
 20
-51.25000000009004
 30
0.0
 11
-151.4999990288065
 21
-51.25000000009004
 31
0.0
  0
LINE
  5
1E7
330
6A
100
AcDbEntity
  8
0
  6
Continuous
 62
     7
100
AcDbLine
 10
-158.0999990288065
 20
-69.75000000009004
 30
0.0
 11
-158.0999990288065
 21
-51.25000000009004
 31
0.0
  0
LINE
  5
1E8
330
6A
100
AcDbEntity
  8
0
  6
Continuous
 62
     7
100
AcDbLine
 10
-156.4674355386075
 20
-47.85000000009003
 30
0.0
 11
-150.6379025916146
 21
-47.85000000009003
 31
0.0
  0
LINE
  5
1E9
330
6A
100
AcDbEntity
  8
0
  6
Continuous
 62
     7
100
AcDbLine
 10
-150.6379025916146
 20
-47.85000000009003
 30
0.0
 11
-149.8240093444718
 21
-47.85000000009003
 31
0.0
  0
LINE
  5
1EA
330
6A
100
AcDbEntity
  8
0
  6
Continuous
 62
     7
100
AcDbLine
 10
-157.2472010101972
 20
-47.85000000009003
 30
0.0
 11
-156.4674355386075
 21
-47.85000000009003
 31
0.0
  0
LINE
  5
1EB
330
6A
100
AcDbEntity
  8
0
  6
Continuous
 62
     7
100
AcDbLine
 10
-135.6379025916146
 20
-49.35000000009003
 30
0.0
 11
-134.8240093444718
 21
-49.35000000009003
 31
0.0
  0
LINE
  5
1EC
330
6A
100
AcDbEntity
  8
0
  6
Continuous
 62
     7
100
AcDbLine
 10
-135.6379025916146
 20
-49.35000000009003
 30
0.0
 11
-135.6379025916146
 21
-47.85000000009003
 31
0.0
  0
LINE
  5
1ED
330
6A
100
AcDbEntity
  8
0
  6
Continuous
 62
     7
100
AcDbLine
 10
-141.4674355386075
 20
-49.35000000009003
 30
0.0
 11
-141.4674355386075
 21
-47.85000000009003
 31
0.0
  0
LINE
  5
1EE
330
6A
100
AcDbEntity
  8
0
  6
Continuous
 62
     7
100
AcDbLine
 10
-142.2472010101972
 20
-49.35000000009003
 30
0.0
 11
-141.4674355386075
 21
-49.35000000009003
 31
0.0
  0
LINE
  5
1EF
330
6A
100
AcDbEntity
  8
0
  6
Continuous
 62
     7
100
AcDbLine
 10
-141.2999990288065
 20
-53.90000000009003
 30
0.0
 11
-151.4999990288065
 21
-53.90000000009003
 31
0.0
  0
LINE
  5
1F0
330
6A
100
AcDbEntity
  8
0
  6
Continuous
 62
     7
100
AcDbLine
 10
-143.6499990288065
 20
-51.25000000009004
 30
0.0
 11
-141.2999990288065
 21
-51.25000000009004
 31
0.0
  0
LINE
  5
1F1
330
6A
100
AcDbEntity
  8
0
  6
Continuous
 62
     7
100
AcDbLine
 10
-143.6499990288065
 20
-47.85000000009003
 30
0.0
 11
-142.2472010101972
 21
-47.85000000009003
 31
0.0
  0
LINE
  5
1F2
330
6A
100
AcDbEntity
  8
0
  6
Continuous
 62
     7
100
AcDbLine
 10
-142.2472010101972
 20
-49.35000000009003
 30
0.0
 11
-142.2472010101972
 21
-47.85000000009003
 31
0.0
  0
LINE
  5
1F3
330
6A
100
AcDbEntity
  8
0
  6
Continuous
 62
     7
100
AcDbLine
 10
-143.6499990288065
 20
-51.25000000009004
 30
0.0
 11
-143.6499990288065
 21
-47.85000000009003
 31
0.0
  0
LINE
  5
1F4
330
6A
100
AcDbEntity
  8
0
  6
Continuous
 62
     7
100
AcDbLine
 10
-141.2999990288065
 20
-53.90000000009003
 30
0.0
 11
-141.2999990288065
 21
-51.25000000009004
 31
0.0
  0
LINE
  5
1F5
330
6A
100
AcDbEntity
  8
0
  6
Continuous
 62
     7
100
AcDbLine
 10
-151.4999990288065
 20
-53.90000000009003
 30
0.0
 11
-151.4999990288065
 21
-51.25000000009004
 31
0.0
  0
LINE
  5
1F6
330
6A
100
AcDbEntity
  8
0
  6
Continuous
 62
     7
100
AcDbLine
 10
-149.8240093444718
 20
-47.85000000009003
 30
0.0
 11
-149.1499990288065
 21
-47.85000000009003
 31
0.0
  0
LINE
  5
1F7
330
6A
100
AcDbEntity
  8
0
  6
Continuous
 62
     7
100
AcDbLine
 10
-150.6379025916146
 20
-49.35000000009003
 30
0.0
 11
-150.6379025916146
 21
-47.85000000009003
 31
0.0
  0
LINE
  5
1F8
330
6A
100
AcDbEntity
  8
0
  6
Continuous
 62
     7
100
AcDbLine
 10
-150.6379025916146
 20
-49.35000000009003
 30
0.0
 11
-149.8240093444718
 21
-49.35000000009003
 31
0.0
  0
LINE
  5
1F9
330
6A
100
AcDbEntity
  8
0
  6
Continuous
 62
     7
100
AcDbLine
 10
-149.8240093444718
 20
-49.35000000009003
 30
0.0
 11
-149.8240093444718
 21
-47.85000000009003
 31
0.0
  0
LINE
  5
1FA
330
6A
100
AcDbEntity
  8
0
  6
Continuous
 62
     7
100
AcDbLine
 10
-151.4999990288065
 20
-51.25000000009004
 30
0.0
 11
-149.1499990288065
 21
-51.25000000009004
 31
0.0
  0
LINE
  5
1FB
330
6A
100
AcDbEntity
  8
0
  6
Continuous
 62
     7
100
AcDbLine
 10
-149.1499990288065
 20
-51.25000000009004
 30
0.0
 11
-149.1499990288065
 21
-47.85000000009003
 31
0.0
  0
LINE
  5
1FC
330
6A
100
AcDbEntity
  8
0
  6
Continuous
 62
     7
100
AcDbLine
 10
-134.6999990288065
 20
-69.75000000009004
 30
0.0
 11
-158.0999990288065
 21
-69.75000000009004
 31
0.0
  0
LINE
  5
1FD
330
6A
100
AcDbEntity
  8
1
  6
DOT_CENTER
 62
     2
100
AcDbLine
 10
-138.8999990288065
 20
-51.25000000009004
 30
0.0
 11
-138.8999990288065
 21
-47.85000000009003
 31
0.0
  0
LINE
  5
1FE
330
6A
100
AcDbEntity
  8
1
  6
DOT_CENTER
 62
     2
100
AcDbLine
 10
-153.8999990288065
 20
-51.25000000009004
 30
0.0
 11
-153.8999990288065
 21
-47.85000000009003
 31
0.0
  0
ENDBLK
  5
6C
330
6A
100
AcDbEntity
  8
0
100
AcDbBlockEnd
  0
BLOCK
  5
6F
330
6D
100
AcDbEntity
  8
0
100
AcDbBlockBegin
  2
Vordans1
 70
     0
 10
-146.3999997370707
 20
-60.50000000004502
 30
0.0
  3
Vordans1
  1

  0
INSERT
  5
6E
330
6D
100
AcDbEntity
  8
0
100
AcDbBlockReference
  2
AB_SS_EX-select__6
 10
-158.6499990288065
 20
-69.75000000009004
 30
0.0
  0
MTEXT
  5
1FF
330
6D
100
AcDbEntity
  8
1
 62
     6
100
AcDbMText
 10
-146.3999990288065
 20
-72.25000000009004
 30
0.0
 40
2.5
 41
0.0
 71
     2
 72
     1
  1
 
  7
CONVERTER_11
 73
     1
 44
1.32052821128451
  0
DIMENSION
  5
20A
330
6D
100
AcDbEntity
  8
1
100
AcDbDimension
  2
*D18
 10
-163.0999990288065
 20
-51.25000000009004
 30
0.0
 11
-164.8124990288065
 21
-60.6572857379585
 31
0.0
 70
    32
  1
<>
 71
     5
 42
-1.0
 53
90.0
  3
ME10_DIM_11
100
AcDbAlignedDimension
 13
-158.0999990288065
 23
-69.75000000009004
 33
0.0
 14
-158.0999990288065
 24
-51.25000000009004
 34
0.0
 50
90.0
100
AcDbRotatedDimension
  0
DIMENSION
  5
215
330
6D
100
AcDbEntity
  8
1
100
AcDbDimension
  2
*D19
 10
-167.0999990288065
 20
-47.85000000009003
 30
0.0
 11
-168.8124990288065
 21
-60.6572857379585
 31
0.0
 70
    32
  1
<>
 71
     5
 42
-1.0
 53
90.0
  3
ME10_DIM_12
100
AcDbAlignedDimension
 13
-158.0999990288065
 23
-69.75000000009004
 33
0.0
 14
-156.4674355386075
 24
-47.85000000009003
 34
0.0
 50
90.0
100
AcDbRotatedDimension
  0
DIMENSION
  5
220
330
6D
100
AcDbEntity
  8
1
100
AcDbDimension
  2
*D20
 10
-134.6999990288065
 20
-74.75000000009004
 30
0.0
 11
-146.3999990288065
 21
-73.03750000009003
 31
0.0
 70
    32
  1
<>
 71
     5
 42
-1.0
 53
0.00013888888889
  3
ME10_DIM_13
100
AcDbAlignedDimension
 13
-158.0999990288065
 23
-69.75000000009004
 33
0.0
 14
-134.6999990288065
 24
-69.75000000009004
 34
0.0
100
AcDbRotatedDimension
  0
ENDBLK
  5
70
330
6D
100
AcDbEntity
  8
0
100
AcDbBlockEnd
  0
BLOCK
  5
72
330
71
100
AcDbEntity
  8
0
100
AcDbBlockBegin
  2
_rahmen
 70
     0
 10
-121.5572347967287
 20
-269.4429789443379
 30
0.0
  3
_rahmen
  1

  0
LINE
  5
221
330
71
100
AcDbEntity
  8
1
  6
Continuous
 62
     6
100
AcDbLine
 10
-251.1020393234788
 20
-238.9429789443378
 30
0.0
 11
-121.557234796727
 21
-238.9429789443378
 31
0.0
  0
LINE
  5
222
330
71
100
AcDbEntity
  8
1
  6
Continuous
 62
     7
100
AcDbLine
 10
-232.9020393234787
 20
-260.1929789443378
 30
0.0
 11
-214.7020393234788
 21
-260.1929789443378
 31
0.0
  0
LINE
  5
223
330
71
100
AcDbEntity
  8
1
  6
Continuous
 62
     6
100
AcDbLine
 10
-232.9020393234787
 20
-264.4429789443378
 30
0.0
 11
-251.1020393234788
 21
-264.4429789443379
 31
0.0
  0
LINE
  5
224
330
71
100
AcDbEntity
  8
1
  6
Continuous
 62
     7
100
AcDbLine
 10
-232.9020393234787
 20
-260.1929789443378
 30
0.0
 11
-232.9020393234787
 21
-264.4429789443378
 31
0.0
  0
LINE
  5
225
330
71
100
AcDbEntity
  8
1
  6
Continuous
 62
     7
100
AcDbLine
 10
-214.7020393234788
 20
-260.1929789443378
 30
0.0
 11
-214.7020393234788
 21
-264.4429789443379
 31
0.0
  0
LINE
  5
226
330
71
100
AcDbEntity
  8
1
  6
Continuous
 62
     7
100
AcDbLine
 10
-251.1020393234788
 20
-260.1929789443379
 30
0.0
 11
-251.1020393234788
 21
-264.4429789443379
 31
0.0
  0
LINE
  5
227
330
71
100
AcDbEntity
  8
1
  6
Continuous
 62
     7
100
AcDbLine
 10
-251.1020393234788
 20
-260.1929789443379
 30
0.0
 11
-232.9020393234787
 21
-260.1929789443378
 31
0.0
  0
LINE
  5
228
330
71
100
AcDbEntity
  8
1
  6
Continuous
 62
     2
100
AcDbLine
 10
-241.8653844369161
 20
-240.8179789443379
 30
0.0
 11
-241.8653844369161
 21
-245.8179789443379
 31
0.0
  0
LINE
  5
229
330
71
100
AcDbEntity
  8
1
  6
Continuous
 62
     2
100
AcDbLine
 10
-241.8653844369161
 20
-245.8179789443379
 30
0.0
 11
-246.8653844369161
 21
-244.5679789443379
 31
0.0
  0
LINE
  5
22A
330
71
100
AcDbEntity
  8
1
  6
Continuous
 62
     2
100
AcDbLine
 10
-246.8653844369161
 20
-244.5679789443379
 30
0.0
 11
-246.8653844369161
 21
-242.0679789443379
 31
0.0
  0
LINE
  5
22B
330
71
100
AcDbEntity
  8
1
  6
Continuous
 62
     2
100
AcDbLine
 10
-246.8653844369161
 20
-242.0679789443379
 30
0.0
 11
-241.8653844369161
 21
-240.8179789443379
 31
0.0
  0
LINE
  5
22C
330
71
100
AcDbEntity
  8
1
  6
Continuous
 62
     6
100
AcDbLine
 10
-373.557234796727
 20
-264.4429789443378
 30
0.0
 11
-408.5572347967269
 21
-264.4429789443378
 31
0.0
  0
LINE
  5
22D
330
71
100
AcDbEntity
  8
1
  6
Continuous
 62
     6
100
AcDbLine
 10
-121.557234796727
 20
-247.4429789443378
 30
0.0
 11
-121.5572347967274
 21
-255.9429789443378
 31
0.0
  0
LINE
  5
22E
330
71
100
AcDbEntity
  8
1
  6
Continuous
 62
     6
100
AcDbLine
 10
-214.7020393234788
 20
-264.4429789443379
 30
0.0
 11
-215.0572347967288
 21
-264.4429789443378
 31
0.0
  0
LINE
  5
22F
330
71
100
AcDbEntity
  8
1
  6
Continuous
 62
     6
100
AcDbLine
 10
-367.357234796729
 20
-264.4429789443379
 30
0.0
 11
-373.557234796727
 21
-264.4429789443378
 31
0.0
  0
LINE
  5
230
330
71
100
AcDbEntity
  8
1
  6
Continuous
 62
     7
100
AcDbLine
 10
-214.7020393234788
 20
-247.4429789443378
 30
0.0
 11
-214.7020393234788
 21
-260.1929789443378
 31
0.0
  0
LINE
  5
231
330
71
100
AcDbEntity
  8
1
  6
Continuous
 62
     7
100
AcDbLine
 10
-251.1020393234788
 20
-247.4429789443378
 30
0.0
 11
-251.1020393234788
 21
-260.1929789443379
 31
0.0
  0
LINE
  5
232
330
71
100
AcDbEntity
  8
1
  6
Continuous
 62
     6
100
AcDbLine
 10
-265.0572347967287
 20
-264.4429789443378
 30
0.0
 11
-315.057234796729
 21
-264.4429789443378
 31
0.0
  0
LINE
  5
233
330
71
100
AcDbEntity
  8
1
  6
Continuous
 62
     6
100
AcDbLine
 10
-367.357234796729
 20
-264.4429789443379
 30
0.0
 11
-365.0572347967287
 21
-264.4429789443378
 31
0.0
  0
LINE
  5
234
330
71
100
AcDbEntity
  8
1
  6
Continuous
 62
     6
100
AcDbLine
 10
-214.7020393234788
 20
-264.4429789443379
 30
0.0
 11
-165.0572347967288
 21
-264.4429789443378
 31
0.0
  0
LINE
  5
235
330
71
100
AcDbEntity
  8
1
  6
Continuous
 62
     6
100
AcDbLine
 10
-121.5572347967287
 20
-264.4429789443378
 30
0.0
 11
-121.5572347967274
 21
-255.9429789443378
 31
0.0
  0
LINE
  5
236
330
71
100
AcDbEntity
  8
1
  6
Continuous
 62
     2
100
AcDbLine
 10
-413.5572347967278
 20
-264.4429789443378
 30
0.0
 11
-413.5572347967278
 21
-269.4429789443379
 31
0.0
  0
LINE
  5
237
330
71
100
AcDbEntity
  8
1
  6
Continuous
 62
     2
100
AcDbLine
 10
-408.5572347967269
 20
-264.4429789443378
 30
0.0
 11
-413.5572347967278
 21
-264.4429789443378
 31
0.0
  0
LINE
  5
238
330
71
100
AcDbEntity
  8
1
  6
Continuous
 62
     2
100
AcDbLine
 10
-408.5572347967269
 20
-269.4429789443379
 30
0.0
 11
-365.0572347967287
 21
-269.4429789443379
 31
0.0
  0
LINE
  5
239
330
71
100
AcDbEntity
  8
1
  6
Continuous
 62
     2
100
AcDbLine
 10
-408.5572347967269
 20
-264.4429789443378
 30
0.0
 11
-408.5572347967269
 21
-269.4429789443379
 31
0.0
  0
LINE
  5
23A
330
71
100
AcDbEntity
  8
1
  6
Continuous
 62
     2
100
AcDbLine
 10
-165.0572347967288
 20
-269.4429789443379
 30
0.0
 11
-215.0572347967288
 21
-269.4429789443379
 31
0.0
  0
LINE
  5
23B
330
71
100
AcDbEntity
  8
1
  6
Continuous
 62
     2
100
AcDbLine
 10
-165.0572347967288
 20
-269.4429789443379
 30
0.0
 11
-165.0572347967288
 21
-264.4429789443378
 31
0.0
  0
LINE
  5
23C
330
71
100
AcDbEntity
  8
1
  6
Continuous
 62
     2
100
AcDbLine
 10
-215.0572347967288
 20
-269.4429789443379
 30
0.0
 11
-215.0572347967288
 21
-264.4429789443378
 31
0.0
  0
LINE
  5
23D
330
71
100
AcDbEntity
  8
1
  6
Continuous
 62
     2
100
AcDbLine
 10
-265.0572347967287
 20
-269.4429789443379
 30
0.0
 11
-215.0572347967288
 21
-269.4429789443379
 31
0.0
  0
LINE
  5
23E
330
71
100
AcDbEntity
  8
1
  6
Continuous
 62
     2
100
AcDbLine
 10
-265.0572347967287
 20
-269.4429789443379
 30
0.0
 11
-265.0572347967287
 21
-264.4429789443378
 31
0.0
  0
LINE
  5
23F
330
71
100
AcDbEntity
  8
1
  6
Continuous
 62
     2
100
AcDbLine
 10
-315.057234796729
 20
-269.4429789443379
 30
0.0
 11
-265.0572347967287
 21
-269.4429789443379
 31
0.0
  0
LINE
  5
240
330
71
100
AcDbEntity
  8
1
  6
Continuous
 62
     2
100
AcDbLine
 10
-315.057234796729
 20
-269.4429789443379
 30
0.0
 11
-315.057234796729
 21
-264.4429789443378
 31
0.0
  0
LINE
  5
241
330
71
100
AcDbEntity
  8
1
  6
Continuous
 62
     2
100
AcDbLine
 10
-365.0572347967287
 20
-269.4429789443379
 30
0.0
 11
-315.057234796729
 21
-269.4429789443379
 31
0.0
  0
LINE
  5
242
330
71
100
AcDbEntity
  8
1
  6
Continuous
 62
     2
100
AcDbLine
 10
-365.0572347967287
 20
-269.4429789443379
 30
0.0
 11
-365.0572347967287
 21
-264.4429789443378
 31
0.0
  0
LINE
  5
243
330
71
100
AcDbEntity
  8
1
  6
Continuous
 62
     6
100
AcDbLine
 10
-408.557234796727
 20
-214.4429789443377
 30
0.0
 11
-408.5572347967269
 21
-264.4429789443378
 31
0.0
  0
LINE
  5
244
330
71
100
AcDbEntity
  8
1
  6
Continuous
 62
     2
100
AcDbLine
 10
-413.5572347967278
 20
-214.4429789443377
 30
0.0
 11
-413.5572347967278
 21
-264.4429789443378
 31
0.0
  0
LINE
  5
245
330
71
100
AcDbEntity
  8
1
  6
Continuous
 62
     2
100
AcDbLine
 10
-413.5572347967278
 20
-214.4429789443377
 30
0.0
 11
-408.557234796727
 21
-214.4429789443377
 31
0.0
  0
LINE
  5
246
330
71
100
AcDbEntity
  8
1
  6
Continuous
 62
     6
100
AcDbLine
 10
-408.5572347967272
 20
-164.4429789443379
 30
0.0
 11
-408.557234796727
 21
-214.4429789443377
 31
0.0
  0
LINE
  5
247
330
71
100
AcDbEntity
  8
1
  6
Continuous
 62
     2
100
AcDbLine
 10
-413.5572347967278
 20
-164.4429789443379
 30
0.0
 11
-413.5572347967278
 21
-214.4429789443377
 31
0.0
  0
LINE
  5
248
330
71
100
AcDbEntity
  8
1
  6
Continuous
 62
     2
100
AcDbLine
 10
-413.5572347967278
 20
-164.4429789443379
 30
0.0
 11
-408.5572347967272
 21
-164.4429789443379
 31
0.0
  0
LINE
  5
249
330
71
100
AcDbEntity
  8
1
  6
Continuous
 62
     6
100
AcDbLine
 10
-408.5572347967278
 20
-114.4429789443378
 30
0.0
 11
-408.5572347967272
 21
-164.4429789443379
 31
0.0
  0
LINE
  5
24A
330
71
100
AcDbEntity
  8
1
  6
Continuous
 62
     2
100
AcDbLine
 10
-413.5572347967278
 20
-114.4429789443378
 30
0.0
 11
-413.5572347967278
 21
-164.4429789443379
 31
0.0
  0
LINE
  5
24B
330
71
100
AcDbEntity
  8
1
  6
Continuous
 62
     2
100
AcDbLine
 10
-413.5572347967278
 20
-114.4429789443378
 30
0.0
 11
-408.5572347967278
 21
-114.4429789443378
 31
0.0
  0
LINE
  5
24C
330
71
100
AcDbEntity
  8
1
  6
Continuous
 62
     6
100
AcDbLine
 10
-408.5572347967278
 20
-79.4429789443378
 30
0.0
 11
-408.5572347967278
 21
-114.4429789443378
 31
0.0
  0
LINE
  5
24D
330
71
100
AcDbEntity
  8
1
  6
Continuous
 62
     2
100
AcDbLine
 10
-413.5572347967278
 20
-59.4429789443378
 30
0.0
 11
-413.5572347967278
 21
-114.4429789443378
 31
0.0
  0
LINE
  5
24E
330
71
100
AcDbEntity
  8
1
  6
Continuous
 62
     2
100
AcDbLine
 10
-413.5572347967278
 20
-269.4429789443379
 30
0.0
 11
-408.5572347967269
 21
-269.4429789443379
 31
0.0
  0
LINE
  5
24F
330
71
100
AcDbEntity
  8
1
  6
Continuous
 62
     2
100
AcDbLine
 10
-265.0572347967287
 20
-59.4429789443378
 30
0.0
 11
-265.0572347967287
 21
-68.65167078903912
 31
0.0
  0
LINE
  5
250
330
71
100
AcDbEntity
  8
1
  6
Continuous
 62
     2
100
AcDbLine
 10
-265.0572347967287
 20
-59.4429789443378
 30
0.0
 11
-413.5572347967278
 21
-59.4429789443378
 31
0.0
  0
LINE
  5
251
330
71
100
AcDbEntity
  8
1
  6
Continuous
 62
     2
100
AcDbLine
 10
-116.5572347967297
 20
-264.4429789443378
 30
0.0
 11
-116.5572347967297
 21
-214.4429789443377
 31
0.0
  0
LINE
  5
252
330
71
100
AcDbEntity
  8
1
  6
Continuous
 62
     2
100
AcDbLine
 10
-116.5572347967297
 20
-114.4429789443378
 30
0.0
 11
-116.5572347967297
 21
-59.4429789443378
 31
0.0
  0
LINE
  5
253
330
71
100
AcDbEntity
  8
1
  6
Continuous
 62
     6
100
AcDbLine
 10
-121.5572347967296
 20
-114.4429789443378
 30
0.0
 11
-121.5572347967297
 21
-79.4429789443378
 31
0.0
  0
LINE
  5
254
330
71
100
AcDbEntity
  8
1
  6
Continuous
 62
     2
100
AcDbLine
 10
-121.5572347967296
 20
-114.4429789443378
 30
0.0
 11
-116.5572347967297
 21
-114.4429789443378
 31
0.0
  0
LINE
  5
255
330
71
100
AcDbEntity
  8
1
  6
Continuous
 62
     2
100
AcDbLine
 10
-116.5572347967297
 20
-164.4429789443379
 30
0.0
 11
-116.5572347967297
 21
-114.4429789443378
 31
0.0
  0
LINE
  5
256
330
71
100
AcDbEntity
  8
1
  6
Continuous
 62
     6
100
AcDbLine
 10
-121.5572347967283
 20
-164.4429789443379
 30
0.0
 11
-121.5572347967296
 21
-114.4429789443378
 31
0.0
  0
LINE
  5
257
330
71
100
AcDbEntity
  8
1
  6
Continuous
 62
     2
100
AcDbLine
 10
-121.5572347967283
 20
-164.4429789443379
 30
0.0
 11
-116.5572347967297
 21
-164.4429789443379
 31
0.0
  0
LINE
  5
258
330
71
100
AcDbEntity
  8
1
  6
Continuous
 62
     2
100
AcDbLine
 10
-116.5572347967297
 20
-214.4429789443377
 30
0.0
 11
-116.5572347967297
 21
-164.4429789443379
 31
0.0
  0
LINE
  5
259
330
71
100
AcDbEntity
  8
1
  6
Continuous
 62
     6
100
AcDbLine
 10
-121.5572347967278
 20
-214.4429789443377
 30
0.0
 11
-121.5572347967283
 21
-164.4429789443379
 31
0.0
  0
LINE
  5
25A
330
71
100
AcDbEntity
  8
1
  6
Continuous
 62
     2
100
AcDbLine
 10
-121.5572347967278
 20
-214.4429789443377
 30
0.0
 11
-116.5572347967297
 21
-214.4429789443377
 31
0.0
  0
LINE
  5
25B
330
71
100
AcDbEntity
  8
1
  6
Continuous
 62
     6
100
AcDbLine
 10
-121.5572347967297
 20
-79.4429789443378
 30
0.0
 11
-408.5572347967278
 21
-79.4429789443378
 31
0.0
  0
LINE
  5
25C
330
71
100
AcDbEntity
  8
1
  6
Continuous
 62
     2
100
AcDbLine
 10
-116.5572347967297
 20
-59.4429789443378
 30
0.0
 11
-265.0572347967287
 21
-59.4429789443378
 31
0.0
  0
LINE
  5
25D
330
71
100
AcDbEntity
  8
1
  6
Continuous
 62
     6
100
AcDbLine
 10
-121.557234796727
 20
-247.4429789443378
 30
0.0
 11
-121.5572347967278
 21
-214.4429789443377
 31
0.0
  0
LINE
  5
25E
330
71
100
AcDbEntity
  8
1
  6
Continuous
 62
     2
100
AcDbLine
 10
-121.5572347967287
 20
-269.4429789443379
 30
0.0
 11
-165.0572347967288
 21
-269.4429789443379
 31
0.0
  0
LINE
  5
25F
330
71
100
AcDbEntity
  8
1
  6
Continuous
 62
     2
100
AcDbLine
 10
-116.5572347967297
 20
-269.4429789443379
 30
0.0
 11
-121.5572347967287
 21
-269.4429789443379
 31
0.0
  0
LINE
  5
260
330
71
100
AcDbEntity
  8
1
  6
Continuous
 62
     2
100
AcDbLine
 10
-116.5572347967297
 20
-269.4429789443379
 30
0.0
 11
-116.5572347967297
 21
-264.4429789443378
 31
0.0
  0
LINE
  5
261
330
71
100
AcDbEntity
  8
1
  6
Continuous
 62
     6
100
AcDbLine
 10
-251.1020393234788
 20
-247.4429789443378
 30
0.0
 11
-214.7020393234788
 21
-247.4429789443378
 31
0.0
  0
LINE
  5
262
330
71
100
AcDbEntity
  8
1
  6
Continuous
 62
     2
100
AcDbLine
 10
-121.5572347967287
 20
-264.4429789443378
 30
0.0
 11
-121.5572347967287
 21
-269.4429789443379
 31
0.0
  0
LINE
  5
263
330
71
100
AcDbEntity
  8
1
  6
Continuous
 62
     2
100
AcDbLine
 10
-121.5572347967287
 20
-264.4429789443378
 30
0.0
 11
-116.5572347967297
 21
-264.4429789443378
 31
0.0
  0
LINE
  5
264
330
71
100
AcDbEntity
  8
1
  6
Continuous
 62
     6
100
AcDbLine
 10
-215.0572347967288
 20
-264.4429789443378
 30
0.0
 11
-232.9020393234787
 21
-264.4429789443378
 31
0.0
  0
LINE
  5
265
330
71
100
AcDbEntity
  8
1
  6
Continuous
 62
     6
100
AcDbLine
 10
-165.0572347967288
 20
-264.4429789443378
 30
0.0
 11
-121.5572347967287
 21
-264.4429789443378
 31
0.0
  0
LINE
  5
266
330
71
100
AcDbEntity
  8
1
  6
Continuous
 62
     6
100
AcDbLine
 10
-315.057234796729
 20
-264.4429789443378
 30
0.0
 11
-320.1020393234787
 21
-264.4429789443378
 31
0.0
  0
LINE
  5
267
330
71
100
AcDbEntity
  8
1
  6
Continuous
 62
     6
100
AcDbLine
 10
-265.0572347967287
 20
-264.4429789443378
 30
0.0
 11
-251.1020393234788
 21
-264.4429789443379
 31
0.0
  0
LINE
  5
268
102
{ACAD_REACTORS
330
352
330
353
102
}
330
71
100
AcDbEntity
  8
0
  6
Continuous
 62
     2
100
AcDbLine
 10
-243.5874133813319
 20
-252.3704641881257
 30
0.0
 11
-243.5874133813319
 21
-251.7649288996189
 31
0.0
  0
LINE
  5
269
102
{ACAD_REACTORS
330
352
330
353
102
}
330
71
100
AcDbEntity
  8
0
  6
Continuous
 62
     2
100
AcDbLine
 10
-243.5874133813319
 20
-255.170598794757
 30
0.0
 11
-243.5874133813319
 21
-254.5887473880619
 31
0.0
  0
LINE
  5
26A
102
{ACAD_REACTORS
330
354
330
355
102
}
330
71
100
AcDbEntity
  8
0
  6
Continuous
 62
     2
100
AcDbLine
 10
-220.9579269458527
 20
-254.880934726634
 30
0.0
 11
-220.9579269458527
 21
-257.1494789443215
 31
0.0
  0
LINE
  5
26B
102
{ACAD_REACTORS
330
354
330
355
102
}
330
71
100
AcDbEntity
  8
0
  6
Continuous
 62
     2
100
AcDbLine
 10
-222.3389807248403
 20
-254.0956694205109
 30
0.0
 11
-218.9540352062116
 21
-254.0956694205104
 31
0.0
  0
LINE
  5
26C
102
{ACAD_REACTORS
330
354
330
355
102
}
330
71
100
AcDbEntity
  8
0
  6
Continuous
 62
     2
100
AcDbLine
 10
-218.9540352062116
 20
-254.880934726634
 30
0.0
 11
-218.9540352062116
 21
-254.0956694205104
 31
0.0
  0
LINE
  5
26D
102
{ACAD_REACTORS
330
354
330
355
102
}
330
71
100
AcDbEntity
  8
0
  6
Continuous
 62
     2
100
AcDbLine
 10
-219.765134243685
 20
-254.880934726634
 30
0.0
 11
-218.9540352062116
 21
-254.880934726634
 31
0.0
  0
LINE
  5
26E
102
{ACAD_REACTORS
330
354
330
355
102
}
330
71
100
AcDbEntity
  8
0
  6
Continuous
 62
     2
100
AcDbLine
 10
-219.765134243685
 20
-257.1494789443215
 30
0.0
 11
-219.765134243685
 21
-254.880934726634
 31
0.0
  0
LINE
  5
26F
102
{ACAD_REACTORS
330
354
330
355
102
}
330
71
100
AcDbEntity
  8
0
  6
Continuous
 62
     2
100
AcDbLine
 10
-220.9579269458527
 20
-257.1494789443215
 30
0.0
 11
-219.765134243685
 21
-257.1494789443215
 31
0.0
  0
LINE
  5
270
102
{ACAD_REACTORS
330
34A
330
34B
102
}
330
71
100
AcDbEntity
  8
0
  6
Continuous
 62
     2
100
AcDbLine
 10
-221.6545178839172
 20
-250.736478944336
 30
0.0
 11
-223.0572421016665
 21
-250.736478944336
 31
0.0
  0
LINE
  5
271
102
{ACAD_REACTORS
330
34A
330
34B
102
}
330
71
100
AcDbEntity
  8
0
  6
Continuous
 62
     2
100
AcDbLine
 10
-221.6545178839172
 20
-250.736478944336
 30
0.0
 11
-221.0533503620254
 21
-251.4163022658915
 31
0.0
  0
LINE
  5
272
102
{ACAD_REACTORS
330
34A
330
34B
102
}
330
71
100
AcDbEntity
  8
0
  6
Continuous
 62
     2
100
AcDbLine
 10
-221.0533503620254
 20
-251.4163022658915
 30
0.0
 11
-220.4521828401327
 21
-250.736478944336
 31
0.0
  0
LINE
  5
273
102
{ACAD_REACTORS
330
34A
330
34B
102
}
330
71
100
AcDbEntity
  8
0
  6
Continuous
 62
     2
100
AcDbLine
 10
-220.3519882531519
 20
-252.2094294743722
 30
0.0
 11
-219.0494586223854
 21
-250.736478944336
 31
0.0
  0
LINE
  5
274
102
{ACAD_REACTORS
330
34A
330
34B
102
}
330
71
100
AcDbEntity
  8
0
  6
Continuous
 62
     2
100
AcDbLine
 10
-220.3519882531519
 20
-252.2094294743722
 30
0.0
 11
-218.9540352062116
 21
-253.7902884681472
 31
0.0
  0
LINE
  5
275
102
{ACAD_REACTORS
330
34A
330
34B
102
}
330
71
100
AcDbEntity
  8
0
  6
Continuous
 62
     2
100
AcDbLine
 10
-220.3567594239599
 20
-253.7902884681472
 30
0.0
 11
-218.9540352062116
 21
-253.7902884681472
 31
0.0
  0
LINE
  5
276
102
{ACAD_REACTORS
330
34A
330
34B
102
}
330
71
100
AcDbEntity
  8
0
  6
Continuous
 62
     2
100
AcDbLine
 10
-221.0533503620254
 20
-253.0025566828535
 30
0.0
 11
-220.3567594239599
 21
-253.7902884681472
 31
0.0
  0
LINE
  5
277
102
{ACAD_REACTORS
330
348
330
349
102
}
330
71
100
AcDbEntity
  8
0
  6
Continuous
 62
     2
100
AcDbLine
 10
-224.5124491983091
 20
-250.736478944336
 30
0.0
 11
-223.2719447880562
 21
-250.736478944336
 31
0.0
  0
LINE
  5
278
102
{ACAD_REACTORS
330
348
330
349
102
}
330
71
100
AcDbEntity
  8
0
  6
Continuous
 62
     2
100
AcDbLine
 10
-223.2719447880562
 20
-250.736478944336
 30
0.0
 11
-223.2719447880562
 21
-253.7902884681472
 31
0.0
  0
LINE
  5
279
102
{ACAD_REACTORS
330
348
330
349
102
}
330
71
100
AcDbEntity
  8
0
  6
Continuous
 62
     2
100
AcDbLine
 10
-224.5124491983091
 20
-253.7902884681472
 30
0.0
 11
-224.5124491983091
 21
-250.736478944336
 31
0.0
  0
LINE
  5
27A
102
{ACAD_REACTORS
330
346
330
347
102
}
330
71
100
AcDbEntity
  8
0
  6
Continuous
 62
     2
100
AcDbLine
 10
-225.9807592808467
 20
-255.927955134797
 30
0.0
 11
-225.6805940436543
 21
-255.1601401688103
 31
0.0
  0
LINE
  5
27B
102
{ACAD_REACTORS
330
346
330
347
102
}
330
71
100
AcDbEntity
  8
0
  6
Continuous
 62
     2
100
AcDbLine
 10
-226.4582948854676
 20
-257.1494789443215
 30
0.0
 11
-226.2468148319917
 21
-256.6085184001036
 31
0.0
  0
LINE
  5
27C
102
{ACAD_REACTORS
330
346
330
347
102
}
330
71
100
AcDbEntity
  8
0
  6
Continuous
 62
     2
100
AcDbLine
 10
-226.3008462487812
 20
-254.0956694205104
 30
0.0
 11
-227.6987992957205
 21
-257.1494789443215
 31
0.0
  0
LINE
  5
27D
102
{ACAD_REACTORS
330
346
330
347
102
}
330
71
100
AcDbEntity
  8
0
  6
Continuous
 62
     2
100
AcDbLine
 10
-223.6623887915882
 20
-257.1494789443215
 30
0.0
 11
-224.9028932018422
 21
-257.1494789443215
 31
0.0
  0
LINE
  5
27E
102
{ACAD_REACTORS
330
346
330
347
102
}
330
71
100
AcDbEntity
  8
0
  6
Continuous
 62
     2
100
AcDbLine
 10
-226.2468148319917
 20
-256.6085184001036
 30
0.0
 11
-225.1143732553179
 21
-256.6085184001036
 31
0.0
  0
LINE
  5
27F
102
{ACAD_REACTORS
330
344
330
345
102
}
330
71
100
AcDbEntity
  8
0
  6
Continuous
 62
     2
100
AcDbLine
 10
-229.8563114349028
 20
-254.880934726634
 30
0.0
 11
-229.0452123974281
 21
-254.880934726634
 31
0.0
  0
LINE
  5
280
102
{ACAD_REACTORS
330
344
330
345
102
}
330
71
100
AcDbEntity
  8
0
  6
Continuous
 62
     2
100
AcDbLine
 10
-227.0413206577891
 20
-254.0956694205104
 30
0.0
 11
-229.8563114349028
 21
-254.0956694205104
 31
0.0
  0
LINE
  5
281
102
{ACAD_REACTORS
330
344
330
345
102
}
330
71
100
AcDbEntity
  8
0
  6
Continuous
 62
     2
100
AcDbLine
 10
-227.0413206577891
 20
-254.880934726634
 30
0.0
 11
-227.0413206577891
 21
-254.0956694205104
 31
0.0
  0
LINE
  5
282
102
{ACAD_REACTORS
330
344
330
345
102
}
330
71
100
AcDbEntity
  8
0
  6
Continuous
 62
     2
100
AcDbLine
 10
-227.8524196952616
 20
-254.880934726634
 30
0.0
 11
-227.0413206577891
 21
-254.880934726634
 31
0.0
  0
LINE
  5
283
102
{ACAD_REACTORS
330
344
330
345
102
}
330
71
100
AcDbEntity
  8
0
  6
Continuous
 62
     2
100
AcDbLine
 10
-227.8524196952616
 20
-257.1494789443215
 30
0.0
 11
-227.8524196952616
 21
-254.880934726634
 31
0.0
  0
LINE
  5
284
102
{ACAD_REACTORS
330
342
330
343
102
}
330
71
100
AcDbEntity
  8
0
  6
Continuous
 62
     2
100
AcDbLine
 10
-227.1843048511636
 20
-253.7902884681472
 30
0.0
 11
-227.1843048511636
 21
-252.4815129579425
 31
0.0
  0
LINE
  5
285
102
{ACAD_REACTORS
330
342
330
343
102
}
330
71
100
AcDbEntity
  8
0
  6
Continuous
 62
     2
100
AcDbLine
 10
-228.3770975533302
 20
-250.736478944336
 30
0.0
 11
-228.3770975533302
 21
-253.7902884681472
 31
0.0
  0
LINE
  5
286
102
{ACAD_REACTORS
330
342
330
343
102
}
330
71
100
AcDbEntity
  8
0
  6
Continuous
 62
     2
100
AcDbLine
 10
-227.1843048511636
 20
-250.736478944336
 30
0.0
 11
-228.3770975533302
 21
-250.736478944336
 31
0.0
  0
LINE
  5
287
102
{ACAD_REACTORS
330
342
330
343
102
}
330
71
100
AcDbEntity
  8
0
  6
Continuous
 62
     2
100
AcDbLine
 10
-225.9438004409096
 20
-250.736478944336
 30
0.0
 11
-225.9438004409096
 21
-252.0452544545412
 31
0.0
  0
LINE
  5
288
102
{ACAD_REACTORS
330
340
330
341
102
}
330
71
100
AcDbEntity
  8
0
  6
Continuous
 62
     2
100
AcDbLine
 10
-233.6255363737498
 20
-254.0956694205104
 30
0.0
 11
-233.6255363737498
 21
-257.1494789443215
 31
0.0
  0
LINE
  5
289
102
{ACAD_REACTORS
330
340
330
341
102
}
330
71
100
AcDbEntity
  8
0
  6
Continuous
 62
     2
100
AcDbLine
 10
-232.4327436715822
 20
-254.0956694205104
 30
0.0
 11
-233.6255363737498
 21
-254.0956694205104
 31
0.0
  0
LINE
  5
28A
102
{ACAD_REACTORS
330
340
330
341
102
}
330
71
100
AcDbEntity
  8
0
  6
Continuous
 62
     2
100
AcDbLine
 10
-231.1922392613294
 20
-257.1494789443215
 30
0.0
 11
-229.999446559163
 21
-257.1494789443215
 31
0.0
  0
LINE
  5
28B
102
{ACAD_REACTORS
330
340
330
341
102
}
330
71
100
AcDbEntity
  8
0
  6
Continuous
 62
     2
100
AcDbLine
 10
-233.6255363737498
 20
-257.1494789443215
 30
0.0
 11
-232.4327436715822
 21
-257.1494789443215
 31
0.0
  0
LINE
  5
28C
102
{ACAD_REACTORS
330
350
330
351
102
}
330
71
100
AcDbEntity
  8
0
  6
Continuous
 62
     2
100
AcDbLine
 10
-229.9515839201907
 20
-251.9143769035207
 30
0.0
 11
-229.9515839201907
 21
-251.434492549779
 31
0.0
  0
LINE
  5
28D
102
{ACAD_REACTORS
330
350
330
351
102
}
330
71
100
AcDbEntity
  8
0
  6
Continuous
 62
     2
100
AcDbLine
 10
-228.6156560937631
 20
-251.9143769035207
 30
0.0
 11
-229.9515839201907
 21
-251.9143769035207
 31
0.0
  0
LINE
  5
28E
102
{ACAD_REACTORS
330
350
330
351
102
}
330
71
100
AcDbEntity
  8
0
  6
Continuous
 62
     2
100
AcDbLine
 10
-228.6156560937631
 20
-252.612390508963
 30
0.0
 11
-228.6156560937631
 21
-251.9143769035207
 31
0.0
  0
LINE
  5
28F
102
{ACAD_REACTORS
330
350
330
351
102
}
330
71
100
AcDbEntity
  8
0
  6
Continuous
 62
     2
100
AcDbLine
 10
-229.9515839201907
 20
-252.612390508963
 30
0.0
 11
-228.6156560937631
 21
-252.612390508963
 31
0.0
  0
LINE
  5
290
102
{ACAD_REACTORS
330
33E
330
33F
102
}
330
71
100
AcDbEntity
  8
0
  6
Continuous
 62
     2
100
AcDbLine
 10
-233.4345386105177
 20
-250.736478944336
 30
0.0
 11
-233.4345386105177
 21
-253.7902884681472
 31
0.0
  0
LINE
  5
291
102
{ACAD_REACTORS
330
33E
330
33F
102
}
330
71
100
AcDbEntity
  8
0
  6
Continuous
 62
     2
100
AcDbLine
 10
-233.4345386105177
 20
-253.7902884681472
 30
0.0
 11
-234.6273313126841
 21
-253.7902884681472
 31
0.0
  0
LINE
  5
292
102
{ACAD_REACTORS
330
33E
330
33F
102
}
330
71
100
AcDbEntity
  8
0
  6
Continuous
 62
     2
100
AcDbLine
 10
-234.6273313126841
 20
-253.7902884681472
 30
0.0
 11
-234.6273313126841
 21
-252.6560163593034
 31
0.0
  0
LINE
  5
293
102
{ACAD_REACTORS
330
33E
330
33F
102
}
330
71
100
AcDbEntity
  8
0
  6
Continuous
 62
     2
100
AcDbLine
 10
-235.6769888905915
 20
-253.7902884681472
 30
0.0
 11
-236.8697815927581
 21
-253.7902884681472
 31
0.0
  0
LINE
  5
294
102
{ACAD_REACTORS
330
33E
330
33F
102
}
330
71
100
AcDbEntity
  8
0
  6
Continuous
 62
     2
100
AcDbLine
 10
-236.8697815927581
 20
-250.736478944336
 30
0.0
 11
-235.6769888905915
 21
-250.736478944336
 31
0.0
  0
LINE
  5
295
102
{ACAD_REACTORS
330
33E
330
33F
102
}
330
71
100
AcDbEntity
  8
0
  6
Continuous
 62
     2
100
AcDbLine
 10
-235.6769888905915
 20
-250.736478944336
 30
0.0
 11
-235.6769888905915
 21
-251.8053122776706
 31
0.0
  0
LINE
  5
296
102
{ACAD_REACTORS
330
33E
330
33F
102
}
330
71
100
AcDbEntity
  8
0
  6
Continuous
 62
     2
100
AcDbLine
 10
-235.6769888905915
 20
-251.8053122776706
 30
0.0
 11
-234.6273313126841
 21
-251.8053122776706
 31
0.0
  0
LINE
  5
297
102
{ACAD_REACTORS
330
34C
330
34D
102
}
330
71
100
AcDbEntity
  8
0
  6
Continuous
 62
     2
100
AcDbLine
 10
-238.8259616243117
 20
-251.3995847897761
 30
0.0
 11
-238.5086665627698
 21
-251.3995847897761
 31
0.0
  0
LINE
  5
298
102
{ACAD_REACTORS
330
34C
330
34D
102
}
330
71
100
AcDbEntity
  8
0
  6
Continuous
 62
     2
100
AcDbLine
 10
-238.8259616243117
 20
-252.1053124391183
 30
0.0
 11
-238.5086665627698
 21
-252.1053124391183
 31
0.0
  0
LINE
  5
299
102
{ACAD_REACTORS
330
34C
330
34D
102
}
330
71
100
AcDbEntity
  8
0
  6
Continuous
 62
     2
100
AcDbLine
 10
-240.0664660345659
 20
-250.736478944336
 30
0.0
 11
-240.0664660345659
 21
-253.7902884681472
 31
0.0
  0
LINE
  5
29A
102
{ACAD_REACTORS
330
34C
330
34D
102
}
330
71
100
AcDbEntity
  8
0
  6
Continuous
 62
     2
100
AcDbLine
 10
-240.0664660345659
 20
-250.736478944336
 30
0.0
 11
-238.0671940365315
 21
-250.736478944336
 31
0.0
  0
LINE
  5
29B
102
{ACAD_REACTORS
330
34C
330
34D
102
}
330
71
100
AcDbEntity
  8
0
  6
Continuous
 62
     2
100
AcDbLine
 10
-238.8259616243117
 20
-252.8472102270034
 30
0.0
 11
-238.0671940365315
 21
-252.8472102270034
 31
0.0
  0
LINE
  5
29C
102
{ACAD_REACTORS
330
352
330
353
102
}
330
71
100
AcDbEntity
  8
0
  6
Continuous
 62
     2
100
AcDbLine
 10
-246.1629620678625
 20
-251.7647514229708
 30
0.0
 11
-246.1629620678625
 21
-256.1212064656879
 31
0.0
  0
LINE
  5
29D
102
{ACAD_REACTORS
330
352
330
353
102
}
330
71
100
AcDbEntity
  8
0
  6
Continuous
 62
     2
100
AcDbLine
 10
-245.8472451447869
 20
-251.4490344998946
 30
0.0
 11
-244.3714118837772
 21
-251.4490344998946
 31
0.0
  0
LINE
  5
29E
102
{ACAD_REACTORS
330
352
330
353
102
}
330
71
100
AcDbEntity
  8
0
  6
Continuous
 62
     2
100
AcDbLine
 10
-244.0556949607006
 20
-252.3687760420313
 30
0.0
 11
-244.0556949607006
 21
-251.7647514229708
 31
0.0
  0
LINE
  5
29F
102
{ACAD_REACTORS
330
352
330
353
102
}
330
71
100
AcDbEntity
  8
0
  6
Continuous
 62
     2
100
AcDbLine
 10
-244.0556949607006
 20
-256.1212064656879
 30
0.0
 11
-244.0556949607006
 21
-254.5904355341563
 31
0.0
  0
LINE
  5
2A0
102
{ACAD_REACTORS
330
352
330
353
102
}
330
71
100
AcDbEntity
  8
0
  6
Continuous
 62
     2
100
AcDbLine
 10
-240.9678277308165
 20
-257.1494789443215
 30
0.0
 11
-246.4411398215333
 21
-257.1494789443215
 31
0.0
  0
LINE
  5
2A1
102
{ACAD_REACTORS
330
352
330
353
102
}
330
71
100
AcDbEntity
  8
0
  6
Continuous
 62
     2
100
AcDbLine
 10
-240.5435831154327
 20
-251.160723559738
 30
0.0
 11
-240.5435831154327
 21
-256.7252343289382
 31
0.0
  0
LINE
  5
2A2
102
{ACAD_REACTORS
330
352
330
353
102
}
330
71
100
AcDbEntity
  8
0
  6
Continuous
 62
     2
100
AcDbLine
 10
-246.4411398215333
 20
-250.7364789443542
 30
0.0
 11
-240.9678277308165
 21
-250.7364789443542
 31
0.0
  0
LINE
  5
2A3
102
{ACAD_REACTORS
330
352
330
353
102
}
330
71
100
AcDbEntity
  8
0
  6
Continuous
 62
     2
100
AcDbLine
 10
-246.8653844369161
 20
-251.160723559738
 30
0.0
 11
-246.8653844369161
 21
-256.7252343289382
 31
0.0
  0
LINE
  5
2A4
102
{ACAD_REACTORS
330
352
330
353
102
}
330
71
100
AcDbEntity
  8
0
  6
Continuous
 62
     2
100
AcDbLine
 10
-244.3714118837772
 20
-256.4369233887646
 30
0.0
 11
-245.8472451447869
 21
-256.4369233887646
 31
0.0
  0
LINE
  5
2A5
102
{ACAD_REACTORS
330
34C
330
34D
102
}
330
71
100
AcDbEntity
  8
0
  6
Continuous
 62
     2
100
AcDbLine
 10
-238.8259616243117
 20
-253.7902884681472
 30
0.0
 11
-238.8259616243117
 21
-252.8472102270034
 31
0.0
  0
LINE
  5
2A6
102
{ACAD_REACTORS
330
34C
330
34D
102
}
330
71
100
AcDbEntity
  8
0
  6
Continuous
 62
     2
100
AcDbLine
 10
-240.0664660345659
 20
-253.7902884681472
 30
0.0
 11
-238.8259616243117
 21
-253.7902884681472
 31
0.0
  0
LINE
  5
2A7
102
{ACAD_REACTORS
330
34C
330
34D
102
}
330
71
100
AcDbEntity
  8
0
  6
Continuous
 62
     2
100
AcDbLine
 10
-238.8259616243117
 20
-252.1053124391183
 30
0.0
 11
-238.8259616243117
 21
-251.3995847897761
 31
0.0
  0
LINE
  5
2A8
102
{ACAD_REACTORS
330
33E
330
33F
102
}
330
71
100
AcDbEntity
  8
0
  6
Continuous
 62
     2
100
AcDbLine
 10
-236.8697815927581
 20
-250.736478944336
 30
0.0
 11
-236.8697815927581
 21
-253.7902884681472
 31
0.0
  0
LINE
  5
2A9
102
{ACAD_REACTORS
330
33E
330
33F
102
}
330
71
100
AcDbEntity
  8
0
  6
Continuous
 62
     2
100
AcDbLine
 10
-235.6769888905915
 20
-252.6560163593034
 30
0.0
 11
-235.6769888905915
 21
-253.7902884681472
 31
0.0
  0
LINE
  5
2AA
102
{ACAD_REACTORS
330
33E
330
33F
102
}
330
71
100
AcDbEntity
  8
0
  6
Continuous
 62
     2
100
AcDbLine
 10
-234.6273313126841
 20
-252.6560163593034
 30
0.0
 11
-235.6769888905915
 21
-252.6560163593034
 31
0.0
  0
LINE
  5
2AB
102
{ACAD_REACTORS
330
33E
330
33F
102
}
330
71
100
AcDbEntity
  8
0
  6
Continuous
 62
     2
100
AcDbLine
 10
-234.6273313126841
 20
-250.736478944336
 30
0.0
 11
-233.4345386105177
 21
-250.736478944336
 31
0.0
  0
LINE
  5
2AC
102
{ACAD_REACTORS
330
33E
330
33F
102
}
330
71
100
AcDbEntity
  8
0
  6
Continuous
 62
     2
100
AcDbLine
 10
-234.6273313126841
 20
-251.8053122776706
 30
0.0
 11
-234.6273313126841
 21
-250.736478944336
 31
0.0
  0
LINE
  5
2AD
102
{ACAD_REACTORS
330
350
330
351
102
}
330
71
100
AcDbEntity
  8
0
  6
Continuous
 62
     2
100
AcDbLine
 10
-228.6156560937631
 20
-251.434492549779
 30
0.0
 11
-228.6156560937631
 21
-250.736478944336
 31
0.0
  0
LINE
  5
2AE
102
{ACAD_REACTORS
330
350
330
351
102
}
330
71
100
AcDbEntity
  8
0
  6
Continuous
 62
     2
100
AcDbLine
 10
-231.7659758175441
 20
-250.736478944336
 30
0.0
 11
-228.6156560937631
 21
-250.736478944336
 31
0.0
  0
LINE
  5
2AF
102
{ACAD_REACTORS
330
350
330
351
102
}
330
71
100
AcDbEntity
  8
0
  6
Continuous
 62
     2
100
AcDbLine
 10
-231.7659758175441
 20
-253.7902884681472
 30
0.0
 11
-228.6156560937631
 21
-253.7902884681472
 31
0.0
  0
LINE
  5
2B0
102
{ACAD_REACTORS
330
350
330
351
102
}
330
71
100
AcDbEntity
  8
0
  6
Continuous
 62
     2
100
AcDbLine
 10
-228.6156560937631
 20
-253.7902884681472
 30
0.0
 11
-228.6156560937631
 21
-253.0922748627047
 31
0.0
  0
LINE
  5
2B1
102
{ACAD_REACTORS
330
350
330
351
102
}
330
71
100
AcDbEntity
  8
0
  6
Continuous
 62
     2
100
AcDbLine
 10
-228.6156560937631
 20
-253.0922748627047
 30
0.0
 11
-229.9515839201907
 21
-253.0922748627047
 31
0.0
  0
LINE
  5
2B2
102
{ACAD_REACTORS
330
350
330
351
102
}
330
71
100
AcDbEntity
  8
0
  6
Continuous
 62
     2
100
AcDbLine
 10
-229.9515839201907
 20
-253.0922748627047
 30
0.0
 11
-229.9515839201907
 21
-252.612390508963
 31
0.0
  0
LINE
  5
2B3
102
{ACAD_REACTORS
330
350
330
351
102
}
330
71
100
AcDbEntity
  8
0
  6
Continuous
 62
     2
100
AcDbLine
 10
-229.9515839201907
 20
-251.434492549779
 30
0.0
 11
-228.6156560937631
 21
-251.434492549779
 31
0.0
  0
LINE
  5
2B4
102
{ACAD_REACTORS
330
340
330
341
102
}
330
71
100
AcDbEntity
  8
0
  6
Continuous
 62
     2
100
AcDbLine
 10
-232.4327436715822
 20
-257.1494789443215
 30
0.0
 11
-232.4327436715822
 21
-255.8407034341169
 31
0.0
  0
LINE
  5
2B5
102
{ACAD_REACTORS
330
340
330
341
102
}
330
71
100
AcDbEntity
  8
0
  6
Continuous
 62
     2
100
AcDbLine
 10
-232.4327436715822
 20
-255.8407034341169
 30
0.0
 11
-231.1922392613294
 21
-257.1494789443215
 31
0.0
  0
LINE
  5
2B6
102
{ACAD_REACTORS
330
340
330
341
102
}
330
71
100
AcDbEntity
  8
0
  6
Continuous
 62
     2
100
AcDbLine
 10
-229.999446559163
 20
-257.1494789443215
 30
0.0
 11
-229.999446559163
 21
-254.0956694205104
 31
0.0
  0
LINE
  5
2B7
102
{ACAD_REACTORS
330
340
330
341
102
}
330
71
100
AcDbEntity
  8
0
  6
Continuous
 62
     2
100
AcDbLine
 10
-229.999446559163
 20
-254.0956694205104
 30
0.0
 11
-231.1922392613294
 21
-254.0956694205104
 31
0.0
  0
LINE
  5
2B8
102
{ACAD_REACTORS
330
340
330
341
102
}
330
71
100
AcDbEntity
  8
0
  6
Continuous
 62
     2
100
AcDbLine
 10
-231.1922392613294
 20
-254.0956694205104
 30
0.0
 11
-231.1922392613294
 21
-255.4044449307155
 31
0.0
  0
LINE
  5
2B9
102
{ACAD_REACTORS
330
340
330
341
102
}
330
71
100
AcDbEntity
  8
0
  6
Continuous
 62
     2
100
AcDbLine
 10
-231.1922392613294
 20
-255.4044449307155
 30
0.0
 11
-232.4327436715822
 21
-254.0956694205104
 31
0.0
  0
LINE
  5
2BA
102
{ACAD_REACTORS
330
342
330
343
102
}
330
71
100
AcDbEntity
  8
0
  6
Continuous
 62
     2
100
AcDbLine
 10
-227.1843048511636
 20
-252.4815129579425
 30
0.0
 11
-225.9438004409096
 21
-253.7902884681472
 31
0.0
  0
LINE
  5
2BB
102
{ACAD_REACTORS
330
342
330
343
102
}
330
71
100
AcDbEntity
  8
0
  6
Continuous
 62
     2
100
AcDbLine
 10
-225.9438004409096
 20
-253.7902884681472
 30
0.0
 11
-224.751007738743
 21
-253.7902884681472
 31
0.0
  0
LINE
  5
2BC
102
{ACAD_REACTORS
330
342
330
343
102
}
330
71
100
AcDbEntity
  8
0
  6
Continuous
 62
     2
100
AcDbLine
 10
-224.751007738743
 20
-253.7902884681472
 30
0.0
 11
-224.751007738743
 21
-250.736478944336
 31
0.0
  0
LINE
  5
2BD
102
{ACAD_REACTORS
330
342
330
343
102
}
330
71
100
AcDbEntity
  8
0
  6
Continuous
 62
     2
100
AcDbLine
 10
-224.751007738743
 20
-250.736478944336
 30
0.0
 11
-225.9438004409096
 21
-250.736478944336
 31
0.0
  0
LINE
  5
2BE
102
{ACAD_REACTORS
330
342
330
343
102
}
330
71
100
AcDbEntity
  8
0
  6
Continuous
 62
     2
100
AcDbLine
 10
-225.9438004409096
 20
-252.0452544545412
 30
0.0
 11
-227.1843048511636
 21
-250.736478944336
 31
0.0
  0
LINE
  5
2BF
102
{ACAD_REACTORS
330
342
330
343
102
}
330
71
100
AcDbEntity
  8
0
  6
Continuous
 62
     2
100
AcDbLine
 10
-228.3770975533302
 20
-253.7902884681472
 30
0.0
 11
-227.1843048511636
 21
-253.7902884681472
 31
0.0
  0
LINE
  5
2C0
102
{ACAD_REACTORS
330
344
330
345
102
}
330
71
100
AcDbEntity
  8
0
  6
Continuous
 62
     2
100
AcDbLine
 10
-229.8563114349028
 20
-254.0956694205104
 30
0.0
 11
-229.8563114349028
 21
-254.880934726634
 31
0.0
  0
LINE
  5
2C1
102
{ACAD_REACTORS
330
344
330
345
102
}
330
71
100
AcDbEntity
  8
0
  6
Continuous
 62
     2
100
AcDbLine
 10
-229.0452123974281
 20
-254.880934726634
 30
0.0
 11
-229.0452123974281
 21
-257.1494789443215
 31
0.0
  0
LINE
  5
2C2
102
{ACAD_REACTORS
330
344
330
345
102
}
330
71
100
AcDbEntity
  8
0
  6
Continuous
 62
     2
100
AcDbLine
 10
-229.0452123974281
 20
-257.1494789443215
 30
0.0
 11
-227.8524196952616
 21
-257.1494789443215
 31
0.0
  0
LINE
  5
2C3
102
{ACAD_REACTORS
330
346
330
347
102
}
330
71
100
AcDbEntity
  8
0
  6
Continuous
 62
     2
100
AcDbLine
 10
-224.9028932018422
 20
-257.1494789443215
 30
0.0
 11
-225.1143732553179
 21
-256.6085184001036
 31
0.0
  0
LINE
  5
2C4
102
{ACAD_REACTORS
330
346
330
347
102
}
330
71
100
AcDbEntity
  8
0
  6
Continuous
 62
     2
100
AcDbLine
 10
-225.0603418385285
 20
-254.0956694205104
 30
0.0
 11
-223.6623887915882
 21
-257.1494789443215
 31
0.0
  0
LINE
  5
2C5
102
{ACAD_REACTORS
330
346
330
347
102
}
330
71
100
AcDbEntity
  8
0
  6
Continuous
 62
     2
100
AcDbLine
 10
-226.3008462487812
 20
-254.0956694205104
 30
0.0
 11
-225.0603418385285
 21
-254.0956694205104
 31
0.0
  0
LINE
  5
2C6
102
{ACAD_REACTORS
330
346
330
347
102
}
330
71
100
AcDbEntity
  8
0
  6
Continuous
 62
     2
100
AcDbLine
 10
-227.6987992957205
 20
-257.1494789443215
 30
0.0
 11
-226.4582948854676
 21
-257.1494789443215
 31
0.0
  0
LINE
  5
2C7
102
{ACAD_REACTORS
330
346
330
347
102
}
330
71
100
AcDbEntity
  8
0
  6
Continuous
 62
     2
100
AcDbLine
 10
-225.9807592808467
 20
-255.927955134797
 30
0.0
 11
-225.3804288064642
 21
-255.927955134797
 31
0.0
  0
LINE
  5
2C8
102
{ACAD_REACTORS
330
346
330
347
102
}
330
71
100
AcDbEntity
  8
0
  6
Continuous
 62
     2
100
AcDbLine
 10
-225.3804288064642
 20
-255.927955134797
 30
0.0
 11
-225.6805940436543
 21
-255.1601401688103
 31
0.0
  0
LINE
  5
2C9
102
{ACAD_REACTORS
330
348
330
349
102
}
330
71
100
AcDbEntity
  8
0
  6
Continuous
 62
     2
100
AcDbLine
 10
-223.2719447880562
 20
-253.7902884681472
 30
0.0
 11
-224.5124491983091
 21
-253.7902884681472
 31
0.0
  0
LINE
  5
2CA
102
{ACAD_REACTORS
330
34A
330
34B
102
}
330
71
100
AcDbEntity
  8
0
  6
Continuous
 62
     2
100
AcDbLine
 10
-221.7499413000911
 20
-253.7902884681472
 30
0.0
 11
-223.1526655178394
 21
-253.7902884681472
 31
0.0
  0
LINE
  5
2CB
102
{ACAD_REACTORS
330
34A
330
34B
102
}
330
71
100
AcDbEntity
  8
0
  6
Continuous
 62
     2
100
AcDbLine
 10
-221.7499413000911
 20
-253.7902884681472
 30
0.0
 11
-221.0533503620254
 21
-253.0025566828535
 31
0.0
  0
LINE
  5
2CC
102
{ACAD_REACTORS
330
34A
330
34B
102
}
330
71
100
AcDbEntity
  8
0
  6
Continuous
 62
     2
100
AcDbLine
 10
-220.4521828401327
 20
-250.736478944336
 30
0.0
 11
-219.0494586223854
 21
-250.736478944336
 31
0.0
  0
LINE
  5
2CD
102
{ACAD_REACTORS
330
34A
330
34B
102
}
330
71
100
AcDbEntity
  8
0
  6
Continuous
 62
     2
100
AcDbLine
 10
-223.0572421016665
 20
-250.736478944336
 30
0.0
 11
-221.7547124708991
 21
-252.2094294743722
 31
0.0
  0
LINE
  5
2CE
102
{ACAD_REACTORS
330
34A
330
34B
102
}
330
71
100
AcDbEntity
  8
0
  6
Continuous
 62
     2
100
AcDbLine
 10
-223.1526655178394
 20
-253.7902884681472
 30
0.0
 11
-221.7547124708991
 21
-252.2094294743722
 31
0.0
  0
LINE
  5
2CF
102
{ACAD_REACTORS
330
354
330
355
102
}
330
71
100
AcDbEntity
  8
0
  6
Continuous
 62
     2
100
AcDbLine
 10
-221.2919089024594
 20
-256.1024585361579
 30
0.0
 11
-221.2919089024594
 21
-256.9749755429612
 31
0.0
  0
LINE
  5
2D0
102
{ACAD_REACTORS
330
354
330
355
102
}
330
71
100
AcDbEntity
  8
0
  6
Continuous
 62
     2
100
AcDbLine
 10
-222.0615662454208
 20
-254.880934726634
 30
0.0
 11
-220.9579269458527
 21
-254.880934726634
 31
0.0
  0
LINE
  5
2D1
102
{ACAD_REACTORS
330
356
330
357
102
}
330
71
100
AcDbEntity
  8
0
  6
Continuous
 62
     2
100
AcDbLine
 10
-237.3946103817114
 20
-256.1024585361574
 30
0.0
 11
-237.3946103817114
 21
-256.9749755429606
 31
0.0
  0
LINE
  5
2D2
102
{ACAD_REACTORS
330
356
330
357
102
}
330
71
100
AcDbEntity
  8
0
  6
Continuous
 62
     2
100
AcDbLine
 10
-237.3946103817114
 20
-255.1426898286745
 30
0.0
 11
-237.3946103817114
 21
-254.2701728218712
 31
0.0
  0
LINE
  5
2D3
330
71
100
AcDbEntity
  8
1
  6
Continuous
 62
     7
100
AcDbLine
 10
-121.5572347967274
 20
-255.9429789443378
 30
0.0
 11
-214.7020393234788
 21
-255.9429789443378
 31
0.0
  0
LINE
  5
2D4
330
71
100
AcDbEntity
  8
1
  6
Continuous
 62
     6
100
AcDbLine
 10
-320.1020393234787
 20
-264.4429789443378
 30
0.0
 11
-365.0572347967287
 21
-264.4429789443378
 31
0.0
  0
LINE
  5
2D5
330
71
100
AcDbEntity
  8
1
  6
Continuous
 62
     7
100
AcDbLine
 10
-130.4756430784063
 20
-238.9429789443378
 30
0.0
 11
-130.4756430784063
 21
-247.4429789443378
 31
0.0
  0
LINE
  5
2D6
330
71
100
AcDbEntity
  8
1
  6
Continuous
 62
     7
100
AcDbLine
 10
-156.9756430784059
 20
-238.9429789443378
 30
0.0
 11
-156.9756430784059
 21
-247.4429789443378
 31
0.0
  0
LINE
  5
2D7
330
71
100
AcDbEntity
  8
1
  6
Continuous
 62
     7
100
AcDbLine
 10
-214.7020393234788
 20
-247.4429789443378
 30
0.0
 11
-214.7020393234788
 21
-238.9429789443378
 31
0.0
  0
LINE
  5
2D8
330
71
100
AcDbEntity
  8
1
  6
Continuous
 62
     7
100
AcDbLine
 10
-251.1020393234788
 20
-247.4429789443378
 30
0.0
 11
-251.1020393234788
 21
-238.9429789443378
 31
0.0
  0
LINE
  5
2D9
330
71
100
AcDbEntity
  8
1
  6
Continuous
 62
     6
100
AcDbLine
 10
-214.7020393234788
 20
-247.4429789443378
 30
0.0
 11
-121.557234796727
 21
-247.4429789443378
 31
0.0
  0
LINE
  5
2DA
330
71
100
AcDbEntity
  8
1
  6
Continuous
 62
     7
100
AcDbLine
 10
-186.8020393234787
 20
-255.9429789443379
 30
0.0
 11
-186.8020393234787
 21
-247.4429789443378
 31
0.0
  0
LINE
  5
2DB
330
71
100
AcDbEntity
  8
1
  6
PHANTOM
 62
     2
100
AcDbLine
 10
-235.6153844369161
 20
-243.3179789443379
 30
0.0
 11
-241.1153844369161
 21
-243.3179789443379
 31
0.0
  0
LINE
  5
2DC
330
71
100
AcDbEntity
  8
1
  6
PHANTOM
 62
     2
100
AcDbLine
 10
-238.3653844369161
 20
-240.5679789443379
 30
0.0
 11
-238.3653844369161
 21
-246.0679789443379
 31
0.0
  0
LINE
  5
2DD
330
71
100
AcDbEntity
  8
1
  6
DOT_CENTER
 62
     2
100
AcDbLine
 10
-247.1153844369161
 20
-243.3179789443379
 30
0.0
 11
-241.6153844369161
 21
-243.3179789443379
 31
0.0
  0
ARC
  5
2DE
102
{ACAD_REACTORS
330
356
330
357
102
}
330
71
100
AcDbEntity
  8
0
  6
Continuous
 62
     2
100
AcDbCircle
 10
-238.7305382988292
 20
-258.9352551276721
 30
0.0
 40
4.852596863498095
100
AcDbArc
 50
74.02000874164747
 51
84.84185523037509
  0
ARC
  5
2DF
102
{ACAD_REACTORS
330
356
330
357
102
}
330
71
100
AcDbEntity
  8
0
  6
Continuous
 62
     2
100
AcDbCircle
 10
-238.1544976900754
 20
-255.7794947717878
 30
0.0
 40
0.9059297849852959
100
AcDbArc
 50
71.55192388185858
 51
113.372277888129
  0
ARC
  5
2E0
102
{ACAD_REACTORS
330
356
330
357
102
}
330
71
100
AcDbEntity
  8
0
  6
Continuous
 62
     2
100
AcDbCircle
 10
-238.3109377227775
 20
-255.8276456117547
 30
0.0
 40
0.5115800601948034
100
AcDbArc
 50
208.5214732576956
 51
246.6277221118361
  0
ARC
  5
2E1
102
{ACAD_REACTORS
330
356
330
357
102
}
330
71
100
AcDbEntity
  8
0
  6
Continuous
 62
     2
100
AcDbCircle
 10
-238.1544976900754
 20
-255.4656535930447
 30
0.0
 40
0.9059297849849192
100
AcDbArc
 50
246.627722111871
 51
288.4480761181528
  0
ARC
  5
2E2
102
{ACAD_REACTORS
330
356
330
357
102
}
330
71
100
AcDbEntity
  8
0
  6
Continuous
 62
     2
100
AcDbCircle
 10
-238.5726654237362
 20
-254.2121078170075
 30
0.0
 40
2.227384008972737
100
AcDbArc
 50
288.4480761181305
 51
301.930908949957
  0
ARC
  5
2E3
102
{ACAD_REACTORS
330
352
330
353
102
}
330
71
100
AcDbEntity
  8
0
  6
Continuous
 62
     2
100
AcDbCircle
 10
-243.797739156343
 20
-253.4796057880935
 30
0.0
 40
0.9118481501444847
100
AcDbArc
 50
295.3740086781757
 51
64.62599132180748
  0
ARC
  5
2E4
102
{ACAD_REACTORS
330
352
330
353
102
}
330
71
100
AcDbEntity
  8
0
  6
Continuous
 62
     2
100
AcDbCircle
 10
-243.2716964582552
 20
-251.7649288996189
 30
0.0
 40
0.3157169230760707
100
AcDbArc
 50
90.18896704253045
 51
180.0
  0
ARC
  5
2E5
102
{ACAD_REACTORS
330
354
330
355
102
}
330
71
100
AcDbEntity
  8
0
  6
Continuous
 62
     2
100
AcDbCircle
 10
-222.0615662454208
 20
-255.8354577334601
 30
0.0
 40
0.9545230068260935
100
AcDbArc
 50
90.0
 51
109.3371432194304
  0
ARC
  5
2E6
102
{ACAD_REACTORS
330
354
330
355
102
}
330
71
100
AcDbEntity
  8
0
  6
Continuous
 62
     2
100
AcDbCircle
 10
-221.8308789854432
 20
-255.6225741824162
 30
0.0
 40
0.9410597353348924
100
AcDbArc
 50
151.4785267423624
 51
208.5214732576695
  0
ARC
  5
2E7
102
{ACAD_REACTORS
330
354
330
355
102
}
330
71
100
AcDbEntity
  8
0
  6
Continuous
 62
     2
100
AcDbCircle
 10
-222.0517962108214
 20
-255.4656535930447
 30
0.0
 40
0.9059297849852801
100
AcDbArc
 50
246.6277221118183
 51
288.4480761180817
  0
ARC
  5
2E8
102
{ACAD_REACTORS
330
354
330
355
102
}
330
71
100
AcDbEntity
  8
0
  6
Continuous
 62
     2
100
AcDbCircle
 10
-222.4699639444833
 20
-254.2121078170081
 30
0.0
 40
2.227384008972746
100
AcDbArc
 50
288.4480761181335
 51
301.9309089499397
  0
ARC
  5
2E9
102
{ACAD_REACTORS
330
354
330
355
102
}
330
71
100
AcDbEntity
  8
0
  6
Continuous
 62
     2
100
AcDbCircle
 10
-222.6278368195762
 20
-252.3098932371598
 30
0.0
 40
4.852596863498861
100
AcDbArc
 50
275.1581447696373
 51
285.9799912583397
  0
ARC
  5
2EA
102
{ACAD_REACTORS
330
354
330
355
102
}
330
71
100
AcDbEntity
  8
0
  6
Continuous
 62
     2
100
AcDbCircle
 10
-222.3389807248403
 20
-255.5097838203814
 30
0.0
 40
1.639695123940531
100
AcDbArc
 50
195.0618917771004
 51
275.1581447696761
  0
ARC
  5
2EB
102
{ACAD_REACTORS
330
34C
330
34D
102
}
330
71
100
AcDbEntity
  8
0
  6
Continuous
 62
     2
100
AcDbCircle
 10
-238.0671940365315
 20
-251.7918445856697
 30
0.0
 40
1.05536564133368
100
AcDbArc
 50
270.0
 51
90.0
  0
ARC
  5
2EC
102
{ACAD_REACTORS
330
352
330
353
102
}
330
71
100
AcDbEntity
  8
0
  6
Continuous
 62
     2
100
AcDbCircle
 10
-245.8472451447869
 20
-256.1212064656879
 30
0.0
 40
0.3157169230755983
100
AcDbArc
 50
180.0
 51
270.0
  0
ARC
  5
2ED
102
{ACAD_REACTORS
330
352
330
353
102
}
330
71
100
AcDbEntity
  8
0
  6
Continuous
 62
     2
100
AcDbCircle
 10
-244.3714118837772
 20
-251.7647514229708
 30
0.0
 40
0.315716923076593
100
AcDbArc
 50
0.0
 51
90.0
  0
ARC
  5
2EE
102
{ACAD_REACTORS
330
352
330
353
102
}
330
71
100
AcDbEntity
  8
0
  6
Continuous
 62
     2
100
AcDbCircle
 10
-244.3714118837772
 20
-252.3687760420313
 30
0.0
 40
0.315716923076146
100
AcDbArc
 50
295.1944106485375
 51
0.0
  0
ARC
  5
2EF
102
{ACAD_REACTORS
330
352
330
353
102
}
330
71
100
AcDbEntity
  8
0
  6
Continuous
 62
     2
100
AcDbCircle
 10
-244.3714118837772
 20
-256.1212064656879
 30
0.0
 40
0.3157169230767067
100
AcDbArc
 50
270.0
 51
0.0
  0
ARC
  5
2F0
102
{ACAD_REACTORS
330
352
330
353
102
}
330
71
100
AcDbEntity
  8
0
  6
Continuous
 62
     2
100
AcDbCircle
 10
-246.4411398215333
 20
-251.160723559738
 30
0.0
 40
0.4242446153837989
100
AcDbArc
 50
90.0
 51
180.0
  0
ARC
  5
2F1
102
{ACAD_REACTORS
330
352
330
353
102
}
330
71
100
AcDbEntity
  8
0
  6
Continuous
 62
     2
100
AcDbCircle
 10
-240.9678277308165
 20
-251.160723559738
 30
0.0
 40
0.4242446153837989
100
AcDbArc
 50
0.0
 51
90.0
  0
ARC
  5
2F2
102
{ACAD_REACTORS
330
352
330
353
102
}
330
71
100
AcDbEntity
  8
0
  6
Continuous
 62
     2
100
AcDbCircle
 10
-240.9678277308165
 20
-256.7252343289382
 30
0.0
 40
0.4242446153833157
100
AcDbArc
 50
270.0
 51
0.0
  0
ARC
  5
2F3
102
{ACAD_REACTORS
330
350
330
351
102
}
330
71
100
AcDbEntity
  8
0
  6
Continuous
 62
     2
100
AcDbCircle
 10
-231.749443843725
 20
-252.2633837062419
 30
0.0
 40
0.7717997786796198
100
AcDbArc
 50
321.8795802028454
 51
38.12041979716123
  0
ARC
  5
2F4
102
{ACAD_REACTORS
330
350
330
351
102
}
330
71
100
AcDbEntity
  8
0
  6
Continuous
 62
     2
100
AcDbCircle
 10
-231.5497038073789
 20
-252.4201148843623
 30
0.0
 40
0.51790857301337
100
AcDbArc
 50
218.1204197971569
 51
321.8795802028625
  0
ARC
  5
2F5
102
{ACAD_REACTORS
330
34E
330
34F
102
}
330
71
100
AcDbEntity
  8
0
  6
Continuous
 62
     2
100
AcDbCircle
 10
-235.229711396339
 20
-255.6225741824162
 30
0.0
 40
1.458034083651991
100
AcDbArc
 50
297.5481481757026
 51
62.45185182429795
  0
ARC
  5
2F6
102
{ACAD_REACTORS
330
34E
330
34F
102
}
330
71
100
AcDbEntity
  8
0
  6
Continuous
 62
     2
100
AcDbCircle
 10
-235.7915911800056
 20
-255.6225741824162
 30
0.0
 40
1.45803408365149
100
AcDbArc
 50
117.5481481756624
 51
242.451851824337
  0
ARC
  5
2F7
102
{ACAD_REACTORS
330
34E
330
34F
102
}
330
71
100
AcDbEntity
  8
0
  6
Continuous
 62
     2
100
AcDbCircle
 10
-235.5106512881723
 20
-256.161149192719
 30
0.0
 40
2.065479772208581
100
AcDbArc
 50
62.45185182430567
 51
117.5481481756664
  0
ARC
  5
2F8
102
{ACAD_REACTORS
330
34E
330
34F
102
}
330
71
100
AcDbEntity
  8
0
  6
Continuous
 62
     2
100
AcDbCircle
 10
-235.5106512881723
 20
-255.0839991721129
 30
0.0
 40
2.065479772208483
100
AcDbArc
 50
242.4518518243399
 51
297.5481481756881
  0
ARC
  5
2F9
102
{ACAD_REACTORS
330
350
330
351
102
}
330
71
100
AcDbEntity
  8
0
  6
Continuous
 62
     2
100
AcDbCircle
 10
-231.3499637710326
 20
-252.2633837062419
 30
0.0
 40
0.7717997786796229
100
AcDbArc
 50
141.8795802028349
 51
218.1204197971585
  0
ARC
  5
2FA
102
{ACAD_REACTORS
330
350
330
351
102
}
330
71
100
AcDbEntity
  8
0
  6
Continuous
 62
     2
100
AcDbCircle
 10
-231.5497038073789
 20
-252.1066525281214
 30
0.0
 40
0.5179085730135936
100
AcDbArc
 50
38.12041979713752
 51
141.8795802028431
  0
ARC
  5
2FB
102
{ACAD_REACTORS
330
352
330
353
102
}
330
71
100
AcDbEntity
  8
0
  6
Continuous
 62
     2
100
AcDbCircle
 10
-246.4411398215333
 20
-256.7252343289382
 30
0.0
 40
0.4242446153827757
100
AcDbArc
 50
180.0
 51
270.0
  0
ARC
  5
2FC
102
{ACAD_REACTORS
330
352
330
353
102
}
330
71
100
AcDbEntity
  8
0
  6
Continuous
 62
     2
100
AcDbCircle
 10
-244.3714118837772
 20
-254.5904355341563
 30
0.0
 40
0.315716923076593
100
AcDbArc
 50
0.0
 51
64.80558935146249
  0
ARC
  5
2FD
102
{ACAD_REACTORS
330
352
330
353
102
}
330
71
100
AcDbEntity
  8
0
  6
Continuous
 62
     2
100
AcDbCircle
 10
-243.8488274362022
 20
-253.4796057880935
 30
0.0
 40
0.9118975235575889
100
AcDbArc
 50
115.194410648529
 51
244.8055893514878
  0
ARC
  5
2FE
102
{ACAD_REACTORS
330
352
330
353
102
}
330
71
100
AcDbEntity
  8
0
  6
Continuous
 62
     2
100
AcDbCircle
 10
-245.8472451447869
 20
-251.7647514229708
 30
0.0
 40
0.3157169230761951
100
AcDbArc
 50
90.0
 51
180.0
  0
ARC
  5
2FF
102
{ACAD_REACTORS
330
34C
330
34D
102
}
330
71
100
AcDbEntity
  8
0
  6
Continuous
 62
     2
100
AcDbCircle
 10
-238.5086665627698
 20
-251.7524486144472
 30
0.0
 40
0.3528638246711182
100
AcDbArc
 50
270.0
 51
90.0
  0
ARC
  5
300
102
{ACAD_REACTORS
330
350
330
351
102
}
330
71
100
AcDbEntity
  8
0
  6
Continuous
 62
     2
100
AcDbCircle
 10
-231.7659758175441
 20
-252.2633837062419
 30
0.0
 40
1.526904761905911
100
AcDbArc
 50
90.0
 51
270.0
  0
ARC
  5
301
102
{ACAD_REACTORS
330
354
330
355
102
}
330
71
100
AcDbEntity
  8
0
  6
Continuous
 62
     2
100
AcDbCircle
 10
-222.3389807248403
 20
-255.7353645444511
 30
0.0
 40
1.639695123940214
100
AcDbArc
 50
90.0
 51
164.9381082228967
  0
ARC
  5
302
102
{ACAD_REACTORS
330
354
330
355
102
}
330
71
100
AcDbEntity
  8
0
  6
Continuous
 62
     2
100
AcDbCircle
 10
-222.7581085683019
 20
-255.6225741824162
 30
0.0
 40
1.205656168393078
100
AcDbArc
 50
164.9381082229052
 51
195.0618917770948
  0
ARC
  5
303
102
{ACAD_REACTORS
330
354
330
355
102
}
330
71
100
AcDbEntity
  8
0
  6
Continuous
 62
     2
100
AcDbCircle
 10
-222.2082362435245
 20
-255.8276456117547
 30
0.0
 40
0.5115800601960965
100
AcDbArc
 50
208.521473257682
 51
246.6277221118449
  0
ARC
  5
304
102
{ACAD_REACTORS
330
354
330
355
102
}
330
71
100
AcDbEntity
  8
0
  6
Continuous
 62
     2
100
AcDbCircle
 10
-222.2082362435245
 20
-255.4175027530772
 30
0.0
 40
0.5115800601944048
100
AcDbArc
 50
109.3371432194823
 51
151.478526742427
  0
ARC
  5
305
102
{ACAD_REACTORS
330
352
330
353
102
}
330
71
100
AcDbEntity
  8
0
  6
Continuous
 62
     2
100
AcDbCircle
 10
-243.2716964582552
 20
-255.170598794757
 30
0.0
 40
0.3157169230767067
100
AcDbArc
 50
180.0
 51
269.8110329574695
  0
ARC
  5
306
102
{ACAD_REACTORS
330
352
330
353
102
}
330
71
100
AcDbEntity
  8
0
  6
Continuous
 62
     2
100
AcDbCircle
 10
-243.2660803229451
 20
-253.467763847188
 30
0.0
 40
2.018561131933266
100
AcDbArc
 50
269.8110329575858
 51
90.18896704241416
  0
ARC
  5
307
102
{ACAD_REACTORS
330
352
330
353
102
}
330
71
100
AcDbEntity
  8
0
  6
Continuous
 62
     2
100
AcDbCircle
 10
-243.2716964582552
 20
-252.3704641881257
 30
0.0
 40
0.3157169230767067
100
AcDbArc
 50
180.0
 51
244.6259913216599
  0
ARC
  5
308
102
{ACAD_REACTORS
330
352
330
353
102
}
330
71
100
AcDbEntity
  8
0
  6
Continuous
 62
     2
100
AcDbCircle
 10
-243.2716964582552
 20
-254.5887473880619
 30
0.0
 40
0.3157169230764706
100
AcDbArc
 50
115.3740086783401
 51
180.0
  0
ARC
  5
309
102
{ACAD_REACTORS
330
356
330
357
102
}
330
71
100
AcDbEntity
  8
0
  6
Continuous
 62
     2
100
AcDbCircle
 10
-238.4416822040932
 20
-255.7353645444511
 30
0.0
 40
1.639695123940499
100
AcDbArc
 50
84.84185523036533
 51
164.9381082228874
  0
ARC
  5
30A
102
{ACAD_REACTORS
330
356
330
357
102
}
330
71
100
AcDbEntity
  8
0
  6
Continuous
 62
     2
100
AcDbCircle
 10
-238.860810047556
 20
-255.6225741824162
 30
0.0
 40
1.205656168390964
100
AcDbArc
 50
164.9381082228781
 51
195.0618917770945
  0
ARC
  5
30B
102
{ACAD_REACTORS
330
356
330
357
102
}
330
71
100
AcDbEntity
  8
0
  6
Continuous
 62
     2
100
AcDbCircle
 10
-238.4416822040932
 20
-255.5097838203814
 30
0.0
 40
1.639695123939387
100
AcDbArc
 50
195.0618917770896
 51
275.1581447696365
  0
ARC
  5
30C
102
{ACAD_REACTORS
330
356
330
357
102
}
330
71
100
AcDbEntity
  8
0
  6
Continuous
 62
     2
100
AcDbCircle
 10
-238.7305382988292
 20
-252.3098932371598
 30
0.0
 40
4.852596863498138
100
AcDbArc
 50
275.1581447696249
 51
285.979991258353
  0
ARC
  5
30D
102
{ACAD_REACTORS
330
356
330
357
102
}
330
71
100
AcDbEntity
  8
0
  6
Continuous
 62
     2
100
AcDbCircle
 10
-237.9335804646971
 20
-255.6225741824162
 30
0.0
 40
0.9410597353333544
100
AcDbArc
 50
151.4785267422702
 51
208.5214732577024
  0
ARC
  5
30E
102
{ACAD_REACTORS
330
356
330
357
102
}
330
71
100
AcDbEntity
  8
0
  6
Continuous
 62
     2
100
AcDbCircle
 10
-238.3109377227775
 20
-255.4175027530772
 30
0.0
 40
0.511580060194844
100
AcDbArc
 50
113.3722778881904
 51
151.4785267423044
  0
ARC
  5
30F
102
{ACAD_REACTORS
330
356
330
357
102
}
330
71
100
AcDbEntity
  8
0
  6
Continuous
 62
     2
100
AcDbCircle
 10
-238.5726654237362
 20
-257.0330405478244
 30
0.0
 40
2.227384008973432
100
AcDbArc
 50
58.06909105004259
 51
71.55192388186931
  0
ARC
  5
310
102
{ACAD_REACTORS
330
34E
330
34F
102
}
330
71
100
AcDbEntity
  8
0
  6
Continuous
 62
     2
100
AcDbCircle
 10
-235.5106512881723
 20
-255.4658430042957
 30
0.0
 40
0.5179085730132998
100
AcDbArc
 50
38.12041979714704
 51
141.8795802028588
  0
ARC
  5
311
102
{ACAD_REACTORS
330
34E
330
34F
102
}
330
71
100
AcDbEntity
  8
0
  6
Continuous
 62
     2
100
AcDbCircle
 10
-235.3109112518262
 20
-255.6225741824162
 30
0.0
 40
0.7717997786794633
100
AcDbArc
 50
141.8795802028363
 51
218.1204197971687
  0
ARC
  5
312
102
{ACAD_REACTORS
330
34E
330
34F
102
}
330
71
100
AcDbEntity
  8
0
  6
Continuous
 62
     2
100
AcDbCircle
 10
-235.5106512881723
 20
-255.7793053605362
 30
0.0
 40
0.5179085730137354
100
AcDbArc
 50
218.1204197971931
 51
321.879580202801
  0
ARC
  5
313
102
{ACAD_REACTORS
330
34E
330
34F
102
}
330
71
100
AcDbEntity
  8
0
  6
Continuous
 62
     2
100
AcDbCircle
 10
-235.7103913245188
 20
-255.6225741824162
 30
0.0
 40
0.7717997786797618
100
AcDbArc
 50
321.8795802028456
 51
38.12041979714938
  0
CIRCLE
  5
314
330
71
100
AcDbEntity
  8
1
  6
Continuous
 62
     2
100
AcDbCircle
 10
-238.3653844369161
 20
-243.3179789443379
 30
0.0
 40
2.5
  0
CIRCLE
  5
315
330
71
100
AcDbEntity
  8
1
  6
Continuous
 62
     2
100
AcDbCircle
 10
-238.3653844369161
 20
-243.3179789443379
 30
0.0
 40
1.249999999999886
  0
CIRCLE
  5
316
102
{ACAD_REACTORS
330
352
330
353
102
}
330
71
100
AcDbEntity
  8
0
  6
Continuous
 62
     2
100
AcDbCircle
 10
-243.8215541710158
 20
-253.4796057880935
 30
0.0
 40
0.4709789327785074
  0
MTEXT
  5
317
330
71
100
AcDbEntity
  8
1
 62
     3
100
AcDbMText
 10
-408.5521670106569
 20
-77.651670789039
 30
0.0
 40
1.8
 41
0.0
 71
     7
 72
     1
  3
Weitergabe sowie Vervielf\U+00e4ltigung dieses Dokuments, Verwertung und \PMitteilung seines Inhalts sind verboten, soweit nicht ausdr\U+00fccklich gestattet. \PZuwiderhandlungen verpflichten zu Schadenersatz. Alle Rechte f\U+00fcr den Fall\Pder Pat
  1
ent-, Gebrauchsmuster- oder Designeintragung vorbehalten.
  7
CONVERTER_11
 73
     1
 44
0.99639855942377
  0
MTEXT
  5
318
330
71
100
AcDbEntity
  8
1
 62
     3
100
AcDbMText
 10
-225.6990571718688
 20
-77.651670789039
 30
0.0
 40
1.8
 41
0.0
 71
     7
 72
     1
  3
Transfer or duplication of this document as well as the utilisation or\Pcommunication of its content are not permitted unless express consent\Pis granted. Violations give rise to claims for damages. All rights reserved\Pin case of patent, utility mo
  1
del or design patent registrations.
  7
CONVERTER_11
 73
     1
 44
0.99639855942377
  0
TEXT
  5
319
330
71
100
AcDbEntity
  8
1
 62
     2
100
AcDbText
 10
-231.9020393234789
 20
-263.2019961593294
 30
0.0
 40
1.8
  1
of
 41
0.9
  7
CONVERTER_11
100
AcDbText
  0
TEXT
  5
31A
330
71
100
AcDbEntity
  8
1
 62
     2
100
AcDbText
 10
-250.1020393234788
 20
-263.2019961593295
 30
0.0
 40
1.8
  1
page
 41
0.9
  7
CONVERTER_11
100
AcDbText
  0
TEXT
  5
31B
330
71
100
AcDbEntity
  8
1
 62
     2
100
AcDbText
 10
-241.4557743531368
 20
-263.2422275981398
 30
0.0
 40
1.8
  1
1
 41
0.9
  7
CONVERTER_11
100
AcDbText
  0
TEXT
  5
31C
330
71
100
AcDbEntity
  8
1
 62
     2
100
AcDbText
 10
-226.6667305136652
 20
-263.1929789443379
 30
0.0
 40
1.8
  1
1
 41
0.9
  7
CONVERTER_11
100
AcDbText
  0
MTEXT
  5
31E
330
71
100
AcDbEntity
  8
1
 62
     7
100
AcDbMText
 10
-168.1296370601033
 20
-261.1929789443376
 30
0.0
 40
3.0
 41
0.0
 71
     5
 72
     1
  1
AB/SS-EX
  7
CONVERTER_12
 73
     1
 44
1.20048019207683
  0
MTEXT
  5
31F
330
71
100
AcDbEntity
  8
1
 62
     2
100
AcDbMText
 10
-213.7020393234788
 20
-256.9429789443378
 30
0.0
 40
1.8
 41
0.0
 71
     1
 72
     1
  1
description
  7
CONVERTER_11
 73
     1
 44
1.20048019207683
  0
MTEXT
  5
320
330
71
100
AcDbEntity
  8
1
 62
     3
100
AcDbMText
 10
-224.9020393234789
 20
-243.3179789443378
 30
0.0
 40
2.5
 41
0.0
 71
     5
 72
     1
  1
DIN A4
  7
CONVERTER_11
 73
     1
 44
1.20048019207683
  0
MTEXT
  5
321
330
71
100
AcDbEntity
  8
1
 62
     7
100
AcDbMText
 10
-411.0572347967278
 20
-241.9429789443378
 30
0.0
 40
3.5
 41
0.0
 71
     5
 72
     1
  1
D
  7
CONVERTER_11
 73
     1
 44
1.20048019207683
  0
MTEXT
  5
322
330
71
100
AcDbEntity
  8
1
 62
     7
100
AcDbMText
 10
-411.0572347967278
 20
-189.4429789443378
 30
0.0
 40
3.5
 41
0.0
 71
     5
 72
     1
  1
C
  7
CONVERTER_11
 73
     1
 44
1.20048019207683
  0
MTEXT
  5
323
330
71
100
AcDbEntity
  8
1
 62
     7
100
AcDbMText
 10
-411.0572347967278
 20
-139.4429789443378
 30
0.0
 40
3.5
 41
0.0
 71
     5
 72
     1
  1
B
  7
CONVERTER_11
 73
     1
 44
1.20048019207683
  0
MTEXT
  5
324
330
71
100
AcDbEntity
  8
1
 62
     7
100
AcDbMText
 10
-411.0572347967278
 20
-86.9429789443378
 30
0.0
 40
3.5
 41
0.0
 71
     5
 72
     1
  1
A
  7
CONVERTER_11
 73
     1
 44
1.20048019207683
  0
MTEXT
  5
325
330
71
100
AcDbEntity
  8
1
 62
     7
100
AcDbMText
 10
-140.8072347967296
 20
-266.9429789443379
 30
0.0
 40
3.5
 41
0.0
 71
     5
 72
     1
  1
6
  7
CONVERTER_11
 73
     1
 44
1.20048019207683
  0
MTEXT
  5
326
330
71
100
AcDbEntity
  8
1
 62
     7
100
AcDbMText
 10
-190.0572347967288
 20
-266.9429789443379
 30
0.0
 40
3.5
 41
0.0
 71
     5
 72
     1
  1
5
  7
CONVERTER_11
 73
     1
 44
1.20048019207683
  0
MTEXT
  5
327
330
71
100
AcDbEntity
  8
1
 62
     7
100
AcDbMText
 10
-240.0572347967288
 20
-266.9429789443379
 30
0.0
 40
3.5
 41
0.0
 71
     5
 72
     1
  1
4
  7
CONVERTER_11
 73
     1
 44
1.20048019207683
  0
MTEXT
  5
328
330
71
100
AcDbEntity
  8
1
 62
     7
100
AcDbMText
 10
-290.0572347967287
 20
-266.9429789443379
 30
0.0
 40
3.5
 41
0.0
 71
     5
 72
     1
  1
3
  7
CONVERTER_11
 73
     1
 44
1.20048019207683
  0
MTEXT
  5
329
330
71
100
AcDbEntity
  8
1
 62
     7
100
AcDbMText
 10
-340.0572347967287
 20
-266.9429789443379
 30
0.0
 40
3.5
 41
0.0
 71
     5
 72
     1
  1
2
  7
CONVERTER_11
 73
     1
 44
1.20048019207683
  0
MTEXT
  5
32A
330
71
100
AcDbEntity
  8
1
 62
     7
100
AcDbMText
 10
-389.3072347967283
 20
-266.9429789443379
 30
0.0
 40
3.5
 41
0.0
 71
     5
 72
     1
  1
1
  7
CONVERTER_11
 73
     1
 44
1.20048019207683
  0
MTEXT
  5
32B
330
71
100
AcDbEntity
  8
1
 62
     7
100
AcDbMText
 10
-119.0572347967297
 20
-241.9429789443378
 30
0.0
 40
3.5
 41
0.0
 71
     5
 72
     1
  1
D
  7
CONVERTER_11
 73
     1
 44
1.20048019207683
  0
MTEXT
  5
32C
330
71
100
AcDbEntity
  8
1
 62
     7
100
AcDbMText
 10
-119.0572347967297
 20
-139.4429789443359
 30
0.0
 40
3.5
 41
0.0
 71
     5
 72
     1
  1
B
  7
CONVERTER_11
 73
     1
 44
1.20048019207683
  0
MTEXT
  5
32D
330
71
100
AcDbEntity
  8
1
 62
     7
100
AcDbMText
 10
-119.0572347967297
 20
-86.9429789443378
 30
0.0
 40
3.5
 41
0.0
 71
     5
 72
     1
  1
A
  7
CONVERTER_11
 73
     1
 44
1.20048019207683
  0
MTEXT
  5
32E
330
71
100
AcDbEntity
  8
1
 62
     7
100
AcDbMText
 10
-119.0572347967297
 20
-189.4429789443359
 30
0.0
 40
3.5
 41
0.0
 71
     5
 72
     1
  1
C
  7
CONVERTER_11
 73
     1
 44
1.20048019207683
  0
MTEXT
  5
32F
330
71
100
AcDbEntity
  8
1
 62
     2
100
AcDbMText
 10
-285.5400540485263
 20
-251.6929789443379
 30
0.0
 40
2.0
 41
0.0
 71
     5
 72
     1
  1
General Information\P- Simplified representation\P- Document excluded from change process\P- Linear dimensions [mm]
  7
CONVERTER_11
 73
     1
 44
1.20048019207683
  0
TEXT
  5
330
330
71
100
AcDbEntity
  8
1
 62
     7
100
AcDbText
 10
-213.202039323479
 20
-254.6429789443379
 30
0.0
 40
2.5
  1
0404415
 41
0.81
  7
CONVERTER_12
100
AcDbText
  0
MTEXT
  5
331
330
71
100
AcDbEntity
  8
1
 62
     2
100
AcDbMText
 10
-213.6020393234788
 20
-248.4429789443378
 30
0.0
 40
1.8
 41
0.0
 71
     1
 72
     1
  1
ident.-No.
  7
CONVERTER_11
 73
     1
 44
1.20048019207683
  0
MTEXT
  5
332
330
71
100
AcDbEntity
  8
1
 62
     2
100
AcDbMText
 10
-129.375643078406
 20
-239.9429789443378
 30
0.0
 40
1.8
 41
0.0
 71
     1
 72
     1
  1
scale
  7
CONVERTER_11
 73
     1
 44
1.20048019207683
  0
MTEXT
  5
334
330
71
100
AcDbEntity
  8
1
 62
     3
100
AcDbMText
 10
-126.0164389375664
 20
-246.1429789443377
 30
0.0
 40
2.5
 41
0.0
 71
     8
 72
     1
  1
2:1
  7
CONVERTER_13
 73
     1
 44
1.32052821128451
  0
TEXT
  5
335
330
71
100
AcDbEntity
  8
1
 62
     7
100
AcDbText
 10
-213.6020393234788
 20
-246.1429789443379
 30
0.0
 40
2.5
  1
00889980
 41
0.81
  7
CONVERTER_12
100
AcDbText
  0
MTEXT
  5
337
330
71
100
AcDbEntity
  8
1
 62
     2
100
AcDbMText
 10
-213.6020393234788
 20
-239.9429789443378
 30
0.0
 40
1.8
 41
0.0
 71
     1
 72
     1
  1
document-No. / RI
  7
CONVERTER_14
 73
     1
 44
1.32052821128451
  0
TEXT
  5
338
330
71
100
AcDbEntity
  8
1
 62
     3
100
AcDbText
 10
-185.8020393234787
 20
-254.6429789443379
 30
0.0
 40
2.5
  1
 
 41
0.81
  7
CONVERTER_12
100
AcDbText
  0
MTEXT
  5
339
330
71
100
AcDbEntity
  8
1
 62
     2
100
AcDbMText
 10
-185.8020393234787
 20
-248.4429789443379
 30
0.0
 40
1.8
 41
0.0
 71
     1
 72
     1
  1
document-type
  7
CONVERTER_11
 73
     1
 44
1.20048019207683
  0
MTEXT
  5
33A
330
71
100
AcDbEntity
  8
1
 62
     2
100
AcDbMText
 10
-155.9756430784059
 20
-239.9429789443379
 30
0.0
 40
1.8
 41
0.0
 71
     1
 72
     1
  1
date
  7
CONVERTER_11
 73
     1
 44
1.32052821128451
  0
TEXT
  5
33B
330
71
100
AcDbEntity
  8
1
 62
     3
100
AcDbText
 10
-155.9756430784059
 20
-246.1429789443379
 30
0.0
 40
2.5
  1
12.03.2018
 41
0.81
  7
CONVERTER_12
100
AcDbText
  0
TEXT
  5
33C
330
71
100
AcDbEntity
  8
1
 62
     7
100
AcDbText
 10
-193.572127104423
 20
-246.1429789443379
 30
0.0
 40
2.5
  1
01
 41
0.81
  7
CONVERTER_12
100
AcDbText
  0
TEXT
  5
33D
330
71
100
AcDbEntity
  8
1
 62
     7
100
AcDbText
 10
-195.728491601465
 20
-246.1429789443379
 30
0.0
 40
2.5
  1
/
 41
0.9
  7
CONVERTER_11
100
AcDbText
  0
HATCH
  5
33E
330
71
100
AcDbEntity
  8
1
  6
Continuous
 62
     2
100
AcDbHatch
 10
0.0
 20
0.0
 30
0.0
210
0.0
220
0.0
230
1.0
  2
_USER
 70
     0
 71
     1
 91
        1
 92
        1
 93
       12
 72
     1
 10
-233.4345386105177
 20
-253.7902884681472
 11
-234.6273313126841
 21
-253.7902884681472
 72
     1
 10
-234.6273313126841
 20
-253.7902884681472
 11
-234.6273313126841
 21
-252.6560163593034
 72
     1
 10
-234.6273313126841
 20
-252.6560163593034
 11
-235.6769888905915
 21
-252.6560163593034
 72
     1
 10
-235.6769888905915
 20
-252.6560163593034
 11
-235.6769888905915
 21
-253.7902884681472
 72
     1
 10
-235.6769888905915
 20
-253.7902884681472
 11
-236.8697815927581
 21
-253.7902884681472
 72
     1
 10
-236.8697815927581
 20
-253.7902884681472
 11
-236.8697815927581
 21
-250.736478944336
 72
     1
 10
-236.8697815927581
 20
-250.736478944336
 11
-235.6769888905915
 21
-250.736478944336
 72
     1
 10
-235.6769888905915
 20
-250.736478944336
 11
-235.6769888905915
 21
-251.8053122776706
 72
     1
 10
-235.6769888905915
 20
-251.8053122776706
 11
-234.6273313126841
 21
-251.8053122776706
 72
     1
 10
-234.6273313126841
 20
-251.8053122776706
 11
-234.6273313126841
 21
-250.736478944336
 72
     1
 10
-234.6273313126841
 20
-250.736478944336
 11
-233.4345386105177
 21
-250.736478944336
 72
     1
 10
-233.4345386105177
 20
-250.736478944336
 11
-233.4345386105177
 21
-253.7902884681472
 97
       12
330
2AB
330
2AC
330
296
330
295
330
294
330
2A8
330
293
330
2A9
330
2AA
330
292
330
291
330
290
 75
     1
 76
     0
 52
45.0
 41
0.1
 77
     0
 78
     1
 53
45.0
 43
0.0
 44
0.0
 45
-0.0707106781186548
 46
0.0707106781186548
 79
     0
 98
        1
 10
0.0
 20
0.0
  0
HATCH
  5
33F
330
71
100
AcDbEntity
  8
1
  6
Continuous
 62
     2
100
AcDbHatch
 10
0.0
 20
0.0
 30
0.0
210
0.0
220
0.0
230
1.0
  2
_USER
 70
     0
 71
     1
 91
        1
 92
        1
 93
       12
 72
     1
 10
-233.4345386105177
 20
-253.7902884681472
 11
-234.6273313126841
 21
-253.7902884681472
 72
     1
 10
-234.6273313126841
 20
-253.7902884681472
 11
-234.6273313126841
 21
-252.6560163593034
 72
     1
 10
-234.6273313126841
 20
-252.6560163593034
 11
-235.6769888905915
 21
-252.6560163593034
 72
     1
 10
-235.6769888905915
 20
-252.6560163593034
 11
-235.6769888905915
 21
-253.7902884681472
 72
     1
 10
-235.6769888905915
 20
-253.7902884681472
 11
-236.8697815927581
 21
-253.7902884681472
 72
     1
 10
-236.8697815927581
 20
-253.7902884681472
 11
-236.8697815927581
 21
-250.736478944336
 72
     1
 10
-236.8697815927581
 20
-250.736478944336
 11
-235.6769888905915
 21
-250.736478944336
 72
     1
 10
-235.6769888905915
 20
-250.736478944336
 11
-235.6769888905915
 21
-251.8053122776706
 72
     1
 10
-235.6769888905915
 20
-251.8053122776706
 11
-234.6273313126841
 21
-251.8053122776706
 72
     1
 10
-234.6273313126841
 20
-251.8053122776706
 11
-234.6273313126841
 21
-250.736478944336
 72
     1
 10
-234.6273313126841
 20
-250.736478944336
 11
-233.4345386105177
 21
-250.736478944336
 72
     1
 10
-233.4345386105177
 20
-250.736478944336
 11
-233.4345386105177
 21
-253.7902884681472
 97
       12
330
2AB
330
2AC
330
296
330
295
330
294
330
2A8
330
293
330
2A9
330
2AA
330
292
330
291
330
290
 75
     1
 76
     0
 52
45.0
 41
0.1
 77
     0
 78
     1
 53
45.0
 43
0.0
 44
0.0
 45
-0.0707106781186548
 46
0.0707106781186548
 79
     0
 98
        1
 10
0.0
 20
0.0
  0
HATCH
  5
340
330
71
100
AcDbEntity
  8
1
  6
Continuous
 62
     2
100
AcDbHatch
 10
0.0
 20
0.0
 30
0.0
210
0.0
220
0.0
230
1.0
  2
_USER
 70
     0
 71
     1
 91
        1
 92
        1
 93
       10
 72
     1
 10
-231.1922392613294
 20
-255.4044449307155
 11
-232.4327436715822
 21
-254.0956694205104
 72
     1
 10
-232.4327436715822
 20
-254.0956694205104
 11
-233.6255363737498
 21
-254.0956694205104
 72
     1
 10
-233.6255363737498
 20
-254.0956694205104
 11
-233.6255363737498
 21
-257.1494789443215
 72
     1
 10
-233.6255363737498
 20
-257.1494789443215
 11
-232.4327436715822
 21
-257.1494789443215
 72
     1
 10
-232.4327436715822
 20
-257.1494789443215
 11
-232.4327436715822
 21
-255.8407034341169
 72
     1
 10
-232.4327436715822
 20
-255.8407034341169
 11
-231.1922392613294
 21
-257.1494789443215
 72
     1
 10
-231.1922392613294
 20
-257.1494789443215
 11
-229.999446559163
 21
-257.1494789443215
 72
     1
 10
-229.999446559163
 20
-257.1494789443215
 11
-229.999446559163
 21
-254.0956694205104
 72
     1
 10
-229.999446559163
 20
-254.0956694205104
 11
-231.1922392613294
 21
-254.0956694205104
 72
     1
 10
-231.1922392613294
 20
-254.0956694205104
 11
-231.1922392613294
 21
-255.4044449307155
 97
       10
330
2B9
330
289
330
288
330
28B
330
2B4
330
2B5
330
28A
330
2B6
330
2B7
330
2B8
 75
     1
 76
     0
 52
45.0
 41
0.1
 77
     0
 78
     1
 53
45.0
 43
0.0
 44
0.0
 45
-0.0707106781186548
 46
0.0707106781186548
 79
     0
 98
        1
 10
0.0
 20
0.0
  0
HATCH
  5
341
330
71
100
AcDbEntity
  8
1
  6
Continuous
 62
     2
100
AcDbHatch
 10
0.0
 20
0.0
 30
0.0
210
0.0
220
0.0
230
1.0
  2
_USER
 70
     0
 71
     1
 91
        1
 92
        1
 93
       10
 72
     1
 10
-231.1922392613294
 20
-255.4044449307155
 11
-232.4327436715822
 21
-254.0956694205104
 72
     1
 10
-232.4327436715822
 20
-254.0956694205104
 11
-233.6255363737498
 21
-254.0956694205104
 72
     1
 10
-233.6255363737498
 20
-254.0956694205104
 11
-233.6255363737498
 21
-257.1494789443215
 72
     1
 10
-233.6255363737498
 20
-257.1494789443215
 11
-232.4327436715822
 21
-257.1494789443215
 72
     1
 10
-232.4327436715822
 20
-257.1494789443215
 11
-232.4327436715822
 21
-255.8407034341169
 72
     1
 10
-232.4327436715822
 20
-255.8407034341169
 11
-231.1922392613294
 21
-257.1494789443215
 72
     1
 10
-231.1922392613294
 20
-257.1494789443215
 11
-229.999446559163
 21
-257.1494789443215
 72
     1
 10
-229.999446559163
 20
-257.1494789443215
 11
-229.999446559163
 21
-254.0956694205104
 72
     1
 10
-229.999446559163
 20
-254.0956694205104
 11
-231.1922392613294
 21
-254.0956694205104
 72
     1
 10
-231.1922392613294
 20
-254.0956694205104
 11
-231.1922392613294
 21
-255.4044449307155
 97
       10
330
2B9
330
289
330
288
330
28B
330
2B4
330
2B5
330
28A
330
2B6
330
2B7
330
2B8
 75
     1
 76
     0
 52
45.0
 41
0.1
 77
     0
 78
     1
 53
45.0
 43
0.0
 44
0.0
 45
-0.0707106781186548
 46
0.0707106781186548
 79
     0
 98
        1
 10
0.0
 20
0.0
  0
HATCH
  5
342
330
71
100
AcDbEntity
  8
1
  6
Continuous
 62
     2
100
AcDbHatch
 10
0.0
 20
0.0
 30
0.0
210
0.0
220
0.0
230
1.0
  2
_USER
 70
     0
 71
     1
 91
        1
 92
        1
 93
       10
 72
     1
 10
-225.9438004409096
 20
-252.0452544545412
 11
-227.1843048511636
 21
-250.736478944336
 72
     1
 10
-227.1843048511636
 20
-250.736478944336
 11
-228.3770975533302
 21
-250.736478944336
 72
     1
 10
-228.3770975533302
 20
-250.736478944336
 11
-228.3770975533302
 21
-253.7902884681472
 72
     1
 10
-228.3770975533302
 20
-253.7902884681472
 11
-227.1843048511636
 21
-253.7902884681472
 72
     1
 10
-227.1843048511636
 20
-253.7902884681472
 11
-227.1843048511636
 21
-252.4815129579425
 72
     1
 10
-227.1843048511636
 20
-252.4815129579425
 11
-225.9438004409096
 21
-253.7902884681472
 72
     1
 10
-225.9438004409096
 20
-253.7902884681472
 11
-224.751007738743
 21
-253.7902884681472
 72
     1
 10
-224.751007738743
 20
-253.7902884681472
 11
-224.751007738743
 21
-250.736478944336
 72
     1
 10
-224.751007738743
 20
-250.736478944336
 11
-225.9438004409096
 21
-250.736478944336
 72
     1
 10
-225.9438004409096
 20
-250.736478944336
 11
-225.9438004409096
 21
-252.0452544545412
 97
       10
330
2BE
330
286
330
285
330
2BF
330
284
330
2BA
330
2BB
330
2BC
330
2BD
330
287
 75
     1
 76
     0
 52
45.0
 41
0.1
 77
     0
 78
     1
 53
45.0
 43
0.0
 44
0.0
 45
-0.0707106781186548
 46
0.0707106781186548
 79
     0
 98
        1
 10
0.0
 20
0.0
  0
HATCH
  5
343
330
71
100
AcDbEntity
  8
1
  6
Continuous
 62
     2
100
AcDbHatch
 10
0.0
 20
0.0
 30
0.0
210
0.0
220
0.0
230
1.0
  2
_USER
 70
     0
 71
     1
 91
        1
 92
        1
 93
       10
 72
     1
 10
-225.9438004409096
 20
-252.0452544545412
 11
-227.1843048511636
 21
-250.736478944336
 72
     1
 10
-227.1843048511636
 20
-250.736478944336
 11
-228.3770975533302
 21
-250.736478944336
 72
     1
 10
-228.3770975533302
 20
-250.736478944336
 11
-228.3770975533302
 21
-253.7902884681472
 72
     1
 10
-228.3770975533302
 20
-253.7902884681472
 11
-227.1843048511636
 21
-253.7902884681472
 72
     1
 10
-227.1843048511636
 20
-253.7902884681472
 11
-227.1843048511636
 21
-252.4815129579425
 72
     1
 10
-227.1843048511636
 20
-252.4815129579425
 11
-225.9438004409096
 21
-253.7902884681472
 72
     1
 10
-225.9438004409096
 20
-253.7902884681472
 11
-224.751007738743
 21
-253.7902884681472
 72
     1
 10
-224.751007738743
 20
-253.7902884681472
 11
-224.751007738743
 21
-250.736478944336
 72
     1
 10
-224.751007738743
 20
-250.736478944336
 11
-225.9438004409096
 21
-250.736478944336
 72
     1
 10
-225.9438004409096
 20
-250.736478944336
 11
-225.9438004409096
 21
-252.0452544545412
 97
       10
330
2BE
330
286
330
285
330
2BF
330
284
330
2BA
330
2BB
330
2BC
330
2BD
330
287
 75
     1
 76
     0
 52
45.0
 41
0.1
 77
     0
 78
     1
 53
45.0
 43
0.0
 44
0.0
 45
-0.0707106781186548
 46
0.0707106781186548
 79
     0
 98
        1
 10
0.0
 20
0.0
  0
HATCH
  5
344
330
71
100
AcDbEntity
  8
1
  6
Continuous
 62
     2
100
AcDbHatch
 10
0.0
 20
0.0
 30
0.0
210
0.0
220
0.0
230
1.0
  2
_USER
 70
     0
 71
     1
 91
        1
 92
        1
 93
        8
 72
     1
 10
-227.0413206577891
 20
-254.0956694205104
 11
-229.8563114349028
 21
-254.0956694205104
 72
     1
 10
-229.8563114349028
 20
-254.0956694205104
 11
-229.8563114349028
 21
-254.880934726634
 72
     1
 10
-229.8563114349028
 20
-254.880934726634
 11
-229.0452123974281
 21
-254.880934726634
 72
     1
 10
-229.0452123974281
 20
-254.880934726634
 11
-229.0452123974281
 21
-257.1494789443215
 72
     1
 10
-229.0452123974281
 20
-257.1494789443215
 11
-227.8524196952616
 21
-257.1494789443215
 72
     1
 10
-227.8524196952616
 20
-257.1494789443215
 11
-227.8524196952616
 21
-254.880934726634
 72
     1
 10
-227.8524196952616
 20
-254.880934726634
 11
-227.0413206577891
 21
-254.880934726634
 72
     1
 10
-227.0413206577891
 20
-254.880934726634
 11
-227.0413206577891
 21
-254.0956694205104
 97
        8
330
280
330
2C0
330
27F
330
2C1
330
2C2
330
283
330
282
330
281
 75
     1
 76
     0
 52
45.0
 41
0.1
 77
     0
 78
     1
 53
45.0
 43
0.0
 44
0.0
 45
-0.0707106781186548
 46
0.0707106781186548
 79
     0
 98
        1
 10
0.0
 20
0.0
  0
HATCH
  5
345
330
71
100
AcDbEntity
  8
1
  6
Continuous
 62
     2
100
AcDbHatch
 10
0.0
 20
0.0
 30
0.0
210
0.0
220
0.0
230
1.0
  2
_USER
 70
     0
 71
     1
 91
        1
 92
        1
 93
        8
 72
     1
 10
-227.0413206577891
 20
-254.0956694205104
 11
-229.8563114349028
 21
-254.0956694205104
 72
     1
 10
-229.8563114349028
 20
-254.0956694205104
 11
-229.8563114349028
 21
-254.880934726634
 72
     1
 10
-229.8563114349028
 20
-254.880934726634
 11
-229.0452123974281
 21
-254.880934726634
 72
     1
 10
-229.0452123974281
 20
-254.880934726634
 11
-229.0452123974281
 21
-257.1494789443215
 72
     1
 10
-229.0452123974281
 20
-257.1494789443215
 11
-227.8524196952616
 21
-257.1494789443215
 72
     1
 10
-227.8524196952616
 20
-257.1494789443215
 11
-227.8524196952616
 21
-254.880934726634
 72
     1
 10
-227.8524196952616
 20
-254.880934726634
 11
-227.0413206577891
 21
-254.880934726634
 72
     1
 10
-227.0413206577891
 20
-254.880934726634
 11
-227.0413206577891
 21
-254.0956694205104
 97
        8
330
280
330
2C0
330
27F
330
2C1
330
2C2
330
283
330
282
330
281
 75
     1
 76
     0
 52
45.0
 41
0.1
 77
     0
 78
     1
 53
45.0
 43
0.0
 44
0.0
 45
-0.0707106781186548
 46
0.0707106781186548
 79
     0
 98
        1
 10
0.0
 20
0.0
  0
HATCH
  5
346
330
71
100
AcDbEntity
  8
1
  6
Continuous
 62
     2
100
AcDbHatch
 10
0.0
 20
0.0
 30
0.0
210
0.0
220
0.0
230
1.0
  2
_USER
 70
     0
 71
     1
 91
        2
 92
        1
 93
        8
 72
     1
 10
-224.9028932018422
 20
-257.1494789443215
 11
-225.1143732553179
 21
-256.6085184001036
 72
     1
 10
-225.1143732553179
 20
-256.6085184001036
 11
-226.2468148319917
 21
-256.6085184001036
 72
     1
 10
-226.2468148319917
 20
-256.6085184001036
 11
-226.4582948854676
 21
-257.1494789443215
 72
     1
 10
-226.4582948854676
 20
-257.1494789443215
 11
-227.6987992957205
 21
-257.1494789443215
 72
     1
 10
-227.6987992957205
 20
-257.1494789443215
 11
-226.3008462487812
 21
-254.0956694205104
 72
     1
 10
-226.3008462487812
 20
-254.0956694205104
 11
-225.0603418385285
 21
-254.0956694205104
 72
     1
 10
-225.0603418385285
 20
-254.0956694205104
 11
-223.6623887915882
 21
-257.1494789443215
 72
     1
 10
-223.6623887915882
 20
-257.1494789443215
 11
-224.9028932018422
 21
-257.1494789443215
 97
        8
330
2C4
330
2C5
330
27C
330
2C6
330
27B
330
27E
330
2C3
330
27D
 92
       16
 93
        3
 72
     1
 10
-225.9807592808467
 20
-255.927955134797
 11
-225.6805940436543
 21
-255.1601401688103
 72
     1
 10
-225.6805940436543
 20
-255.1601401688103
 11
-225.3804288064642
 21
-255.927955134797
 72
     1
 10
-225.3804288064642
 20
-255.927955134797
 11
-225.9807592808467
 21
-255.927955134797
 97
        3
330
27A
330
2C8
330
2C7
 75
     1
 76
     0
 52
45.0
 41
0.1
 77
     0
 78
     1
 53
45.0
 43
0.0
 44
0.0
 45
-0.0707106781186548
 46
0.0707106781186548
 79
     0
 98
        1
 10
0.0
 20
0.0
  0
HATCH
  5
347
330
71
100
AcDbEntity
  8
1
  6
Continuous
 62
     2
100
AcDbHatch
 10
0.0
 20
0.0
 30
0.0
210
0.0
220
0.0
230
1.0
  2
_USER
 70
     0
 71
     1
 91
        2
 92
        1
 93
        8
 72
     1
 10
-224.9028932018422
 20
-257.1494789443215
 11
-225.1143732553179
 21
-256.6085184001036
 72
     1
 10
-225.1143732553179
 20
-256.6085184001036
 11
-226.2468148319917
 21
-256.6085184001036
 72
     1
 10
-226.2468148319917
 20
-256.6085184001036
 11
-226.4582948854676
 21
-257.1494789443215
 72
     1
 10
-226.4582948854676
 20
-257.1494789443215
 11
-227.6987992957205
 21
-257.1494789443215
 72
     1
 10
-227.6987992957205
 20
-257.1494789443215
 11
-226.3008462487812
 21
-254.0956694205104
 72
     1
 10
-226.3008462487812
 20
-254.0956694205104
 11
-225.0603418385285
 21
-254.0956694205104
 72
     1
 10
-225.0603418385285
 20
-254.0956694205104
 11
-223.6623887915882
 21
-257.1494789443215
 72
     1
 10
-223.6623887915882
 20
-257.1494789443215
 11
-224.9028932018422
 21
-257.1494789443215
 97
        8
330
2C4
330
2C5
330
27C
330
2C6
330
27B
330
27E
330
2C3
330
27D
 92
       16
 93
        3
 72
     1
 10
-225.9807592808467
 20
-255.927955134797
 11
-225.6805940436543
 21
-255.1601401688103
 72
     1
 10
-225.6805940436543
 20
-255.1601401688103
 11
-225.3804288064642
 21
-255.927955134797
 72
     1
 10
-225.3804288064642
 20
-255.927955134797
 11
-225.9807592808467
 21
-255.927955134797
 97
        3
330
27A
330
2C8
330
2C7
 75
     1
 76
     0
 52
45.0
 41
0.1
 77
     0
 78
     1
 53
45.0
 43
0.0
 44
0.0
 45
-0.0707106781186548
 46
0.0707106781186548
 79
     0
 98
        1
 10
0.0
 20
0.0
  0
HATCH
  5
348
330
71
100
AcDbEntity
  8
1
  6
Continuous
 62
     2
100
AcDbHatch
 10
0.0
 20
0.0
 30
0.0
210
0.0
220
0.0
230
1.0
  2
_USER
 70
     0
 71
     1
 91
        1
 92
        1
 93
        4
 72
     1
 10
-223.2719447880562
 20
-253.7902884681472
 11
-224.5124491983091
 21
-253.7902884681472
 72
     1
 10
-224.5124491983091
 20
-253.7902884681472
 11
-224.5124491983091
 21
-250.736478944336
 72
     1
 10
-224.5124491983091
 20
-250.736478944336
 11
-223.2719447880562
 21
-250.736478944336
 72
     1
 10
-223.2719447880562
 20
-250.736478944336
 11
-223.2719447880562
 21
-253.7902884681472
 97
        4
330
277
330
279
330
2C9
330
278
 75
     1
 76
     0
 52
45.0
 41
0.1
 77
     0
 78
     1
 53
45.0
 43
0.0
 44
0.0
 45
-0.0707106781186548
 46
0.0707106781186548
 79
     0
 98
        1
 10
0.0
 20
0.0
  0
HATCH
  5
349
330
71
100
AcDbEntity
  8
1
  6
Continuous
 62
     2
100
AcDbHatch
 10
0.0
 20
0.0
 30
0.0
210
0.0
220
0.0
230
1.0
  2
_USER
 70
     0
 71
     1
 91
        1
 92
        1
 93
        4
 72
     1
 10
-223.2719447880562
 20
-253.7902884681472
 11
-224.5124491983091
 21
-253.7902884681472
 72
     1
 10
-224.5124491983091
 20
-253.7902884681472
 11
-224.5124491983091
 21
-250.736478944336
 72
     1
 10
-224.5124491983091
 20
-250.736478944336
 11
-223.2719447880562
 21
-250.736478944336
 72
     1
 10
-223.2719447880562
 20
-250.736478944336
 11
-223.2719447880562
 21
-253.7902884681472
 97
        4
330
277
330
279
330
2C9
330
278
 75
     1
 76
     0
 52
45.0
 41
0.1
 77
     0
 78
     1
 53
45.0
 43
0.0
 44
0.0
 45
-0.0707106781186548
 46
0.0707106781186548
 79
     0
 98
        1
 10
0.0
 20
0.0
  0
HATCH
  5
34A
330
71
100
AcDbEntity
  8
1
  6
Continuous
 62
     2
100
AcDbHatch
 10
0.0
 20
0.0
 30
0.0
210
0.0
220
0.0
230
1.0
  2
_USER
 70
     0
 71
     1
 91
        1
 92
        1
 93
       12
 72
     1
 10
-219.0494586223854
 20
-250.736478944336
 11
-220.3519882531519
 21
-252.2094294743722
 72
     1
 10
-220.3519882531519
 20
-252.2094294743722
 11
-218.9540352062116
 21
-253.7902884681472
 72
     1
 10
-218.9540352062116
 20
-253.7902884681472
 11
-220.3567594239599
 21
-253.7902884681472
 72
     1
 10
-220.3567594239599
 20
-253.7902884681472
 11
-221.0533503620254
 21
-253.0025566828535
 72
     1
 10
-221.0533503620254
 20
-253.0025566828535
 11
-221.7499413000911
 21
-253.7902884681472
 72
     1
 10
-221.7499413000911
 20
-253.7902884681472
 11
-223.1526655178394
 21
-253.7902884681472
 72
     1
 10
-223.1526655178394
 20
-253.7902884681472
 11
-221.7547124708991
 21
-252.2094294743722
 72
     1
 10
-221.7547124708991
 20
-252.2094294743722
 11
-223.0572421016665
 21
-250.736478944336
 72
     1
 10
-223.0572421016665
 20
-250.736478944336
 11
-221.6545178839172
 21
-250.736478944336
 72
     1
 10
-221.6545178839172
 20
-250.736478944336
 11
-221.0533503620254
 21
-251.4163022658915
 72
     1
 10
-221.0533503620254
 20
-251.4163022658915
 11
-220.4521828401327
 21
-250.736478944336
 72
     1
 10
-220.4521828401327
 20
-250.736478944336
 11
-219.0494586223854
 21
-250.736478944336
 97
       12
330
272
330
271
330
270
330
2CD
330
2CE
330
2CA
330
2CB
330
276
330
275
330
274
330
273
330
2CC
 75
     1
 76
     0
 52
45.0
 41
0.1
 77
     0
 78
     1
 53
45.0
 43
0.0
 44
0.0
 45
-0.0707106781186548
 46
0.0707106781186548
 79
     0
 98
        1
 10
0.0
 20
0.0
  0
HATCH
  5
34B
330
71
100
AcDbEntity
  8
1
  6
Continuous
 62
     2
100
AcDbHatch
 10
0.0
 20
0.0
 30
0.0
210
0.0
220
0.0
230
1.0
  2
_USER
 70
     0
 71
     1
 91
        1
 92
        1
 93
       12
 72
     1
 10
-219.0494586223854
 20
-250.736478944336
 11
-220.3519882531519
 21
-252.2094294743722
 72
     1
 10
-220.3519882531519
 20
-252.2094294743722
 11
-218.9540352062116
 21
-253.7902884681472
 72
     1
 10
-218.9540352062116
 20
-253.7902884681472
 11
-220.3567594239599
 21
-253.7902884681472
 72
     1
 10
-220.3567594239599
 20
-253.7902884681472
 11
-221.0533503620254
 21
-253.0025566828535
 72
     1
 10
-221.0533503620254
 20
-253.0025566828535
 11
-221.7499413000911
 21
-253.7902884681472
 72
     1
 10
-221.7499413000911
 20
-253.7902884681472
 11
-223.1526655178394
 21
-253.7902884681472
 72
     1
 10
-223.1526655178394
 20
-253.7902884681472
 11
-221.7547124708991
 21
-252.2094294743722
 72
     1
 10
-221.7547124708991
 20
-252.2094294743722
 11
-223.0572421016665
 21
-250.736478944336
 72
     1
 10
-223.0572421016665
 20
-250.736478944336
 11
-221.6545178839172
 21
-250.736478944336
 72
     1
 10
-221.6545178839172
 20
-250.736478944336
 11
-221.0533503620254
 21
-251.4163022658915
 72
     1
 10
-221.0533503620254
 20
-251.4163022658915
 11
-220.4521828401327
 21
-250.736478944336
 72
     1
 10
-220.4521828401327
 20
-250.736478944336
 11
-219.0494586223854
 21
-250.736478944336
 97
       12
330
272
330
271
330
270
330
2CD
330
2CE
330
2CA
330
2CB
330
276
330
275
330
274
330
273
330
2CC
 75
     1
 76
     0
 52
45.0
 41
0.1
 77
     0
 78
     1
 53
45.0
 43
0.0
 44
0.0
 45
-0.0707106781186548
 46
0.0707106781186548
 79
     0
 98
        1
 10
0.0
 20
0.0
  0
HATCH
  5
34C
330
71
100
AcDbEntity
  8
1
  6
Continuous
 62
     2
100
AcDbHatch
 10
0.0
 20
0.0
 30
0.0
210
0.0
220
0.0
230
1.0
  2
_USER
 70
     0
 71
     1
 91
        2
 92
        1
 93
        6
 72
     1
 10
-238.0671940365315
 20
-252.8472102270034
 11
-238.8259616243117
 21
-252.8472102270034
 72
     1
 10
-238.8259616243117
 20
-252.8472102270034
 11
-238.8259616243117
 21
-253.7902884681472
 72
     1
 10
-238.8259616243117
 20
-253.7902884681472
 11
-240.0664660345659
 21
-253.7902884681472
 72
     1
 10
-240.0664660345659
 20
-253.7902884681472
 11
-240.0664660345659
 21
-250.736478944336
 72
     1
 10
-240.0664660345659
 20
-250.736478944336
 11
-238.0671940365315
 21
-250.736478944336
 72
     2
 10
-238.0671940365315
 20
-251.7918445856697
 40
1.05536564133368
 50
270.0
 51
450.0
 73
     0
 97
        6
330
29A
330
299
330
2A6
330
2A5
330
29B
330
2EB
 92
       16
 93
        4
 72
     2
 10
-238.5086665627698
 20
-251.7524486144472
 40
0.3528638246711182
 50
270.0
 51
450.0
 73
     1
 72
     1
 10
-238.5086665627698
 20
-251.3995847897761
 11
-238.8259616243117
 21
-251.3995847897761
 72
     1
 10
-238.8259616243117
 20
-251.3995847897761
 11
-238.8259616243117
 21
-252.1053124391183
 72
     1
 10
-238.8259616243117
 20
-252.1053124391183
 11
-238.5086665627698
 21
-252.1053124391183
 97
        4
330
2FF
330
297
330
2A7
330
298
 75
     1
 76
     0
 52
45.0
 41
0.1
 77
     0
 78
     1
 53
45.0
 43
0.0
 44
0.0
 45
-0.0707106781186548
 46
0.0707106781186548
 79
     0
 98
        1
 10
0.0
 20
0.0
  0
HATCH
  5
34D
330
71
100
AcDbEntity
  8
1
  6
Continuous
 62
     2
100
AcDbHatch
 10
0.0
 20
0.0
 30
0.0
210
0.0
220
0.0
230
1.0
  2
_USER
 70
     0
 71
     1
 91
        2
 92
        1
 93
        6
 72
     1
 10
-238.0671940365315
 20
-252.8472102270034
 11
-238.8259616243117
 21
-252.8472102270034
 72
     1
 10
-238.8259616243117
 20
-252.8472102270034
 11
-238.8259616243117
 21
-253.7902884681472
 72
     1
 10
-238.8259616243117
 20
-253.7902884681472
 11
-240.0664660345659
 21
-253.7902884681472
 72
     1
 10
-240.0664660345659
 20
-253.7902884681472
 11
-240.0664660345659
 21
-250.736478944336
 72
     1
 10
-240.0664660345659
 20
-250.736478944336
 11
-238.0671940365315
 21
-250.736478944336
 72
     2
 10
-238.0671940365315
 20
-251.7918445856697
 40
1.05536564133368
 50
270.0
 51
450.0
 73
     0
 97
        6
330
29A
330
299
330
2A6
330
2A5
330
29B
330
2EB
 92
       16
 93
        4
 72
     2
 10
-238.5086665627698
 20
-251.7524486144472
 40
0.3528638246711182
 50
270.0
 51
450.0
 73
     1
 72
     1
 10
-238.5086665627698
 20
-251.3995847897761
 11
-238.8259616243117
 21
-251.3995847897761
 72
     1
 10
-238.8259616243117
 20
-251.3995847897761
 11
-238.8259616243117
 21
-252.1053124391183
 72
     1
 10
-238.8259616243117
 20
-252.1053124391183
 11
-238.5086665627698
 21
-252.1053124391183
 97
        4
330
2FF
330
297
330
2A7
330
298
 75
     1
 76
     0
 52
45.0
 41
0.1
 77
     0
 78
     1
 53
45.0
 43
0.0
 44
0.0
 45
-0.0707106781186548
 46
0.0707106781186548
 79
     0
 98
        1
 10
0.0
 20
0.0
  0
HATCH
  5
34E
330
71
100
AcDbEntity
  8
1
  6
Continuous
 62
     2
100
AcDbHatch
 10
0.0
 20
0.0
 30
0.0
210
0.0
220
0.0
230
1.0
  2
_USER
 70
     0
 71
     1
 91
        2
 92
        1
 93
        4
 72
     2
 10
-235.5106512881723
 20
-256.161149192719
 40
2.065479772208581
 50
62.45185182430567
 51
117.5481481756664
 73
     1
 72
     2
 10
-235.7915911800056
 20
-255.6225741824162
 40
1.45803408365149
 50
117.5481481756624
 51
242.451851824337
 73
     1
 72
     2
 10
-235.5106512881723
 20
-255.0839991721129
 40
2.065479772208483
 50
242.4518518243399
 51
297.5481481756881
 73
     1
 72
     2
 10
-235.229711396339
 20
-255.6225741824162
 40
1.458034083651991
 50
297.5481481757026
 51
422.4518518242979
 73
     1
 97
        4
330
2F7
330
2F6
330
2F8
330
2F5
 92
       16
 93
        4
 72
     2
 10
-235.7103913245188
 20
-255.6225741824162
 40
0.7717997786797618
 50
321.8795802028456
 51
398.1204197971494
 73
     1
 72
     2
 10
-235.5106512881723
 20
-255.4658430042957
 40
0.5179085730132998
 50
38.12041979714704
 51
141.8795802028588
 73
     1
 72
     2
 10
-235.3109112518262
 20
-255.6225741824162
 40
0.7717997786794633
 50
141.8795802028363
 51
218.1204197971687
 73
     1
 72
     2
 10
-235.5106512881723
 20
-255.7793053605362
 40
0.5179085730137354
 50
218.1204197971931
 51
321.879580202801
 73
     1
 97
        4
330
313
330
310
330
311
330
312
 75
     1
 76
     0
 52
45.0
 41
0.1
 77
     0
 78
     1
 53
45.0
 43
0.0
 44
0.0
 45
-0.0707106781186548
 46
0.0707106781186548
 79
     0
 98
        1
 10
0.0
 20
0.0
  0
HATCH
  5
34F
330
71
100
AcDbEntity
  8
1
  6
Continuous
 62
     2
100
AcDbHatch
 10
0.0
 20
0.0
 30
0.0
210
0.0
220
0.0
230
1.0
  2
_USER
 70
     0
 71
     1
 91
        2
 92
        1
 93
        4
 72
     2
 10
-235.5106512881723
 20
-256.161149192719
 40
2.065479772208581
 50
62.45185182430567
 51
117.5481481756664
 73
     1
 72
     2
 10
-235.7915911800056
 20
-255.6225741824162
 40
1.45803408365149
 50
117.5481481756624
 51
242.451851824337
 73
     1
 72
     2
 10
-235.5106512881723
 20
-255.0839991721129
 40
2.065479772208483
 50
242.4518518243399
 51
297.5481481756881
 73
     1
 72
     2
 10
-235.229711396339
 20
-255.6225741824162
 40
1.458034083651991
 50
297.5481481757026
 51
422.4518518242979
 73
     1
 97
        4
330
2F7
330
2F6
330
2F8
330
2F5
 92
       16
 93
        4
 72
     2
 10
-235.7103913245188
 20
-255.6225741824162
 40
0.7717997786797618
 50
321.8795802028456
 51
398.1204197971494
 73
     1
 72
     2
 10
-235.5106512881723
 20
-255.4658430042957
 40
0.5179085730132998
 50
38.12041979714704
 51
141.8795802028588
 73
     1
 72
     2
 10
-235.3109112518262
 20
-255.6225741824162
 40
0.7717997786794633
 50
141.8795802028363
 51
218.1204197971687
 73
     1
 72
     2
 10
-235.5106512881723
 20
-255.7793053605362
 40
0.5179085730137354
 50
218.1204197971931
 51
321.879580202801
 73
     1
 97
        4
330
313
330
310
330
311
330
312
 75
     1
 76
     0
 52
45.0
 41
0.1
 77
     0
 78
     1
 53
45.0
 43
0.0
 44
0.0
 45
-0.0707106781186548
 46
0.0707106781186548
 79
     0
 98
        1
 10
0.0
 20
0.0
  0
HATCH
  5
350
330
71
100
AcDbEntity
  8
1
  6
Continuous
 62
     2
100
AcDbHatch
 10
0.0
 20
0.0
 30
0.0
210
0.0
220
0.0
230
1.0
  2
_USER
 70
     0
 71
     1
 91
        2
 92
        1
 93
       12
 72
     1
 10
-228.6156560937631
 20
-251.434492549779
 11
-229.9515839201907
 21
-251.434492549779
 72
     1
 10
-229.9515839201907
 20
-251.434492549779
 11
-229.9515839201907
 21
-251.9143769035207
 72
     1
 10
-229.9515839201907
 20
-251.9143769035207
 11
-228.6156560937631
 21
-251.9143769035207
 72
     1
 10
-228.6156560937631
 20
-251.9143769035207
 11
-228.6156560937631
 21
-252.612390508963
 72
     1
 10
-228.6156560937631
 20
-252.612390508963
 11
-229.9515839201907
 21
-252.612390508963
 72
     1
 10
-229.9515839201907
 20
-252.612390508963
 11
-229.9515839201907
 21
-253.0922748627047
 72
     1
 10
-229.9515839201907
 20
-253.0922748627047
 11
-228.6156560937631
 21
-253.0922748627047
 72
     1
 10
-228.6156560937631
 20
-253.0922748627047
 11
-228.6156560937631
 21
-253.7902884681472
 72
     1
 10
-228.6156560937631
 20
-253.7902884681472
 11
-231.7659758175441
 21
-253.7902884681472
 72
     2
 10
-231.7659758175441
 20
-252.2633837062419
 40
1.526904761905911
 50
90.0
 51
270.0
 73
     0
 72
     1
 10
-231.7659758175441
 20
-250.736478944336
 11
-228.6156560937631
 21
-250.736478944336
 72
     1
 10
-228.6156560937631
 20
-250.736478944336
 11
-228.6156560937631
 21
-251.434492549779
 97
       12
330
2AE
330
300
330
2AF
330
2B0
330
2B1
330
2B2
330
28F
330
28E
330
28D
330
28C
330
2B3
330
2AD
 92
       16
 93
        4
 72
     2
 10
-231.5497038073789
 20
-252.1066525281214
 40
0.5179085730135936
 50
38.12041979713752
 51
141.8795802028431
 73
     1
 72
     2
 10
-231.3499637710326
 20
-252.2633837062419
 40
0.7717997786796229
 50
141.8795802028349
 51
218.1204197971585
 73
     1
 72
     2
 10
-231.5497038073789
 20
-252.4201148843623
 40
0.51790857301337
 50
218.1204197971569
 51
321.8795802028625
 73
     1
 72
     2
 10
-231.749443843725
 20
-252.2633837062419
 40
0.7717997786796198
 50
321.8795802028454
 51
398.1204197971612
 73
     1
 97
        4
330
2FA
330
2F9
330
2F4
330
2F3
 75
     1
 76
     0
 52
45.0
 41
0.1
 77
     0
 78
     1
 53
45.0
 43
0.0
 44
0.0
 45
-0.0707106781186548
 46
0.0707106781186548
 79
     0
 98
        1
 10
0.0
 20
0.0
  0
HATCH
  5
351
330
71
100
AcDbEntity
  8
1
  6
Continuous
 62
     2
100
AcDbHatch
 10
0.0
 20
0.0
 30
0.0
210
0.0
220
0.0
230
1.0
  2
_USER
 70
     0
 71
     1
 91
        2
 92
        1
 93
       12
 72
     1
 10
-228.6156560937631
 20
-251.434492549779
 11
-229.9515839201907
 21
-251.434492549779
 72
     1
 10
-229.9515839201907
 20
-251.434492549779
 11
-229.9515839201907
 21
-251.9143769035207
 72
     1
 10
-229.9515839201907
 20
-251.9143769035207
 11
-228.6156560937631
 21
-251.9143769035207
 72
     1
 10
-228.6156560937631
 20
-251.9143769035207
 11
-228.6156560937631
 21
-252.612390508963
 72
     1
 10
-228.6156560937631
 20
-252.612390508963
 11
-229.9515839201907
 21
-252.612390508963
 72
     1
 10
-229.9515839201907
 20
-252.612390508963
 11
-229.9515839201907
 21
-253.0922748627047
 72
     1
 10
-229.9515839201907
 20
-253.0922748627047
 11
-228.6156560937631
 21
-253.0922748627047
 72
     1
 10
-228.6156560937631
 20
-253.0922748627047
 11
-228.6156560937631
 21
-253.7902884681472
 72
     1
 10
-228.6156560937631
 20
-253.7902884681472
 11
-231.7659758175441
 21
-253.7902884681472
 72
     2
 10
-231.7659758175441
 20
-252.2633837062419
 40
1.526904761905911
 50
90.0
 51
270.0
 73
     0
 72
     1
 10
-231.7659758175441
 20
-250.736478944336
 11
-228.6156560937631
 21
-250.736478944336
 72
     1
 10
-228.6156560937631
 20
-250.736478944336
 11
-228.6156560937631
 21
-251.434492549779
 97
       12
330
2AE
330
300
330
2AF
330
2B0
330
2B1
330
2B2
330
28F
330
28E
330
28D
330
28C
330
2B3
330
2AD
 92
       16
 93
        4
 72
     2
 10
-231.5497038073789
 20
-252.1066525281214
 40
0.5179085730135936
 50
38.12041979713752
 51
141.8795802028431
 73
     1
 72
     2
 10
-231.3499637710326
 20
-252.2633837062419
 40
0.7717997786796229
 50
141.8795802028349
 51
218.1204197971585
 73
     1
 72
     2
 10
-231.5497038073789
 20
-252.4201148843623
 40
0.51790857301337
 50
218.1204197971569
 51
321.8795802028625
 73
     1
 72
     2
 10
-231.749443843725
 20
-252.2633837062419
 40
0.7717997786796198
 50
321.8795802028454
 51
398.1204197971612
 73
     1
 97
        4
330
2FA
330
2F9
330
2F4
330
2F3
 75
     1
 76
     0
 52
45.0
 41
0.1
 77
     0
 78
     1
 53
45.0
 43
0.0
 44
0.0
 45
-0.0707106781186548
 46
0.0707106781186548
 79
     0
 98
        1
 10
0.0
 20
0.0
  0
HATCH
  5
352
330
71
100
AcDbEntity
  8
1
  6
Continuous
 62
     2
100
AcDbHatch
 10
0.0
 20
0.0
 30
0.0
210
0.0
220
0.0
230
1.0
  2
_USER
 70
     0
 71
     1
 91
        4
 92
        1
 93
        8
 72
     1
 10
-240.5435831154327
 20
-251.160723559738
 11
-240.5435831154327
 21
-256.7252343289382
 72
     2
 10
-240.9678277308165
 20
-256.7252343289382
 40
0.4242446153833157
 50
0.0
 51
90.0
 73
     0
 72
     1
 10
-240.9678277308165
 20
-257.1494789443215
 11
-246.4411398215333
 21
-257.1494789443215
 72
     2
 10
-246.4411398215333
 20
-256.7252343289382
 40
0.4242446153827757
 50
90.0
 51
180.0
 73
     0
 72
     1
 10
-246.8653844369161
 20
-256.7252343289382
 11
-246.8653844369161
 21
-251.160723559738
 72
     2
 10
-246.4411398215333
 20
-251.160723559738
 40
0.4242446153837989
 50
180.0
 51
270.0
 73
     0
 72
     1
 10
-246.4411398215333
 20
-250.7364789443542
 11
-240.9678277308165
 21
-250.7364789443542
 72
     2
 10
-240.9678277308165
 20
-251.160723559738
 40
0.4242446153837989
 50
270.0
 51
360.0
 73
     0
 97
        8
330
2A2
330
2F0
330
2A3
330
2FB
330
2A0
330
2F2
330
2A1
330
2F1
 92
       16
 93
        1
 72
     2
 10
-243.8215541710158
 20
-253.4796057880935
 40
0.4709789327785074
 50
0.0
 51
360.0
 73
     1
 97
        1
330
316
 92
       16
 93
        8
 72
     2
 10
-243.2716964582552
 20
-254.5887473880619
 40
0.3157169230764706
 50
115.3740086783401
 51
180.0
 73
     1
 72
     1
 10
-243.5874133813319
 20
-254.5887473880619
 11
-243.5874133813319
 21
-255.170598794757
 72
     2
 10
-243.2716964582552
 20
-255.170598794757
 40
0.3157169230767067
 50
180.0
 51
269.8110329574695
 73
     1
 72
     2
 10
-243.2660803229451
 20
-253.467763847188
 40
2.018561131933266
 50
269.8110329575858
 51
450.1889670424142
 73
     1
 72
     2
 10
-243.2716964582552
 20
-251.7649288996189
 40
0.3157169230760707
 50
90.18896704253045
 51
180.0
 73
     1
 72
     1
 10
-243.5874133813319
 20
-251.7649288996189
 11
-243.5874133813319
 21
-252.3704641881257
 72
     2
 10
-243.2716964582552
 20
-252.3704641881257
 40
0.3157169230767067
 50
180.0
 51
244.6259913216599
 73
     1
 72
     2
 10
-243.797739156343
 20
-253.4796057880935
 40
0.9118481501444847
 50
295.3740086781925
 51
424.6259913218244
 73
     0
 97
        8
330
308
330
269
330
305
330
306
330
2E4
330
268
330
307
330
2E3
 92
       16
 93
       12
 72
     2
 10
-245.8472451447869
 20
-256.1212064656879
 40
0.3157169230755983
 50
180.0
 51
270.0
 73
     1
 72
     1
 10
-245.8472451447869
 20
-256.4369233887646
 11
-244.3714118837772
 21
-256.4369233887646
 72
     2
 10
-244.3714118837772
 20
-256.1212064656879
 40
0.3157169230767067
 50
270.0
 51
360.0
 73
     1
 72
     1
 10
-244.0556949607006
 20
-256.1212064656879
 11
-244.0556949607006
 21
-254.5904355341563
 72
     2
 10
-244.3714118837772
 20
-254.5904355341563
 40
0.315716923076593
 50
0.0
 51
64.80558935146249
 73
     1
 72
     2
 10
-243.8488274362022
 20
-253.4796057880935
 40
0.9118975235575889
 50
115.1944106485122
 51
244.805589351471
 73
     0
 72
     2
 10
-244.3714118837772
 20
-252.3687760420313
 40
0.315716923076146
 50
295.1944106485375
 51
360.0
 73
     1
 72
     1
 10
-244.0556949607006
 20
-252.3687760420313
 11
-244.0556949607006
 21
-251.7647514229708
 72
     2
 10
-244.3714118837772
 20
-251.7647514229708
 40
0.315716923076593
 50
0.0
 51
90.0
 73
     1
 72
     1
 10
-244.3714118837772
 20
-251.4490344998946
 11
-245.8472451447869
 21
-251.4490344998946
 72
     2
 10
-245.8472451447869
 20
-251.7647514229708
 40
0.3157169230761951
 50
90.0
 51
180.0
 73
     1
 72
     1
 10
-246.1629620678625
 20
-251.7647514229708
 11
-246.1629620678625
 21
-256.1212064656879
 97
       12
330
2EC
330
2A4
330
2EF
330
29F
330
2FC
330
2FD
330
2EE
330
29E
330
2ED
330
29D
330
2FE
330
29C
 75
     1
 76
     0
 52
45.0
 41
0.1
 77
     0
 78
     1
 53
45.0
 43
0.0
 44
0.0
 45
-0.0707106781186548
 46
0.0707106781186548
 79
     0
 98
        1
 10
0.0
 20
0.0
  0
HATCH
  5
353
330
71
100
AcDbEntity
  8
1
  6
Continuous
 62
     2
100
AcDbHatch
 10
0.0
 20
0.0
 30
0.0
210
0.0
220
0.0
230
1.0
  2
_USER
 70
     0
 71
     1
 91
        4
 92
        1
 93
        8
 72
     1
 10
-240.5435831154327
 20
-251.160723559738
 11
-240.5435831154327
 21
-256.7252343289382
 72
     2
 10
-240.9678277308165
 20
-256.7252343289382
 40
0.4242446153833157
 50
0.0
 51
90.0
 73
     0
 72
     1
 10
-240.9678277308165
 20
-257.1494789443215
 11
-246.4411398215333
 21
-257.1494789443215
 72
     2
 10
-246.4411398215333
 20
-256.7252343289382
 40
0.4242446153827757
 50
90.0
 51
180.0
 73
     0
 72
     1
 10
-246.8653844369161
 20
-256.7252343289382
 11
-246.8653844369161
 21
-251.160723559738
 72
     2
 10
-246.4411398215333
 20
-251.160723559738
 40
0.4242446153837989
 50
180.0
 51
270.0
 73
     0
 72
     1
 10
-246.4411398215333
 20
-250.7364789443542
 11
-240.9678277308165
 21
-250.7364789443542
 72
     2
 10
-240.9678277308165
 20
-251.160723559738
 40
0.4242446153837989
 50
270.0
 51
360.0
 73
     0
 97
        8
330
2A2
330
2F0
330
2A3
330
2FB
330
2A0
330
2F2
330
2A1
330
2F1
 92
       16
 93
        1
 72
     2
 10
-243.8215541710158
 20
-253.4796057880935
 40
0.4709789327785074
 50
0.0
 51
360.0
 73
     1
 97
        1
330
316
 92
       16
 93
        8
 72
     2
 10
-243.2716964582552
 20
-254.5887473880619
 40
0.3157169230764706
 50
115.3740086783401
 51
180.0
 73
     1
 72
     1
 10
-243.5874133813319
 20
-254.5887473880619
 11
-243.5874133813319
 21
-255.170598794757
 72
     2
 10
-243.2716964582552
 20
-255.170598794757
 40
0.3157169230767067
 50
180.0
 51
269.8110329574695
 73
     1
 72
     2
 10
-243.2660803229451
 20
-253.467763847188
 40
2.018561131933266
 50
269.8110329575858
 51
450.1889670424142
 73
     1
 72
     2
 10
-243.2716964582552
 20
-251.7649288996189
 40
0.3157169230760707
 50
90.18896704253045
 51
180.0
 73
     1
 72
     1
 10
-243.5874133813319
 20
-251.7649288996189
 11
-243.5874133813319
 21
-252.3704641881257
 72
     2
 10
-243.2716964582552
 20
-252.3704641881257
 40
0.3157169230767067
 50
180.0
 51
244.6259913216599
 73
     1
 72
     2
 10
-243.797739156343
 20
-253.4796057880935
 40
0.9118481501444847
 50
295.3740086781925
 51
424.6259913218244
 73
     0
 97
        8
330
308
330
269
330
305
330
306
330
2E4
330
268
330
307
330
2E3
 92
       16
 93
       12
 72
     2
 10
-245.8472451447869
 20
-256.1212064656879
 40
0.3157169230755983
 50
180.0
 51
270.0
 73
     1
 72
     1
 10
-245.8472451447869
 20
-256.4369233887646
 11
-244.3714118837772
 21
-256.4369233887646
 72
     2
 10
-244.3714118837772
 20
-256.1212064656879
 40
0.3157169230767067
 50
270.0
 51
360.0
 73
     1
 72
     1
 10
-244.0556949607006
 20
-256.1212064656879
 11
-244.0556949607006
 21
-254.5904355341563
 72
     2
 10
-244.3714118837772
 20
-254.5904355341563
 40
0.315716923076593
 50
0.0
 51
64.80558935146249
 73
     1
 72
     2
 10
-243.8488274362022
 20
-253.4796057880935
 40
0.9118975235575889
 50
115.1944106485122
 51
244.805589351471
 73
     0
 72
     2
 10
-244.3714118837772
 20
-252.3687760420313
 40
0.315716923076146
 50
295.1944106485375
 51
360.0
 73
     1
 72
     1
 10
-244.0556949607006
 20
-252.3687760420313
 11
-244.0556949607006
 21
-251.7647514229708
 72
     2
 10
-244.3714118837772
 20
-251.7647514229708
 40
0.315716923076593
 50
0.0
 51
90.0
 73
     1
 72
     1
 10
-244.3714118837772
 20
-251.4490344998946
 11
-245.8472451447869
 21
-251.4490344998946
 72
     2
 10
-245.8472451447869
 20
-251.7647514229708
 40
0.3157169230761951
 50
90.0
 51
180.0
 73
     1
 72
     1
 10
-246.1629620678625
 20
-251.7647514229708
 11
-246.1629620678625
 21
-256.1212064656879
 97
       12
330
2EC
330
2A4
330
2EF
330
29F
330
2FC
330
2FD
330
2EE
330
29E
330
2ED
330
29D
330
2FE
330
29C
 75
     1
 76
     0
 52
45.0
 41
0.1
 77
     0
 78
     1
 53
45.0
 43
0.0
 44
0.0
 45
-0.0707106781186548
 46
0.0707106781186548
 79
     0
 98
        1
 10
0.0
 20
0.0
  0
HATCH
  5
354
330
71
100
AcDbEntity
  8
1
  6
Continuous
 62
     2
100
AcDbHatch
 10
0.0
 20
0.0
 30
0.0
210
0.0
220
0.0
230
1.0
  2
_USER
 70
     0
 71
     1
 91
        1
 92
        1
 93
       18
 72
     1
 10
-218.9540352062116
 20
-254.880934726634
 11
-219.765134243685
 21
-254.880934726634
 72
     1
 10
-219.765134243685
 20
-254.880934726634
 11
-219.765134243685
 21
-257.1494789443215
 72
     1
 10
-219.765134243685
 20
-257.1494789443215
 11
-220.9579269458527
 21
-257.1494789443215
 72
     1
 10
-220.9579269458527
 20
-257.1494789443215
 11
-220.9579269458527
 21
-254.880934726634
 72
     1
 10
-220.9579269458527
 20
-254.880934726634
 11
-222.0615662454208
 21
-254.880934726634
 72
     2
 10
-222.0615662454208
 20
-255.8354577334601
 40
0.9545230068260935
 50
90.0
 51
109.3371432194304
 73
     1
 72
     2
 10
-222.2082362435245
 20
-255.4175027530772
 40
0.5115800601944048
 50
109.3371432194823
 51
151.478526742427
 73
     1
 72
     2
 10
-221.8308789854432
 20
-255.6225741824162
 40
0.9410597353348924
 50
151.4785267423624
 51
208.5214732576695
 73
     1
 72
     2
 10
-222.2082362435245
 20
-255.8276456117547
 40
0.5115800601960965
 50
208.521473257682
 51
246.6277221118449
 73
     1
 72
     2
 10
-222.0517962108214
 20
-255.4656535930447
 40
0.9059297849852801
 50
246.6277221118183
 51
288.4480761180817
 73
     1
 72
     2
 10
-222.4699639444833
 20
-254.2121078170081
 40
2.227384008972746
 50
288.4480761181335
 51
301.9309089499397
 73
     1
 72
     1
 10
-221.2919089024594
 20
-256.1024585361579
 11
-221.2919089024594
 21
-256.9749755429612
 72
     2
 10
-222.6278368195762
 20
-252.3098932371598
 40
4.852596863498861
 50
74.02000874166032
 51
84.84185523036268
 73
     0
 72
     2
 10
-222.3389807248403
 20
-255.5097838203814
 40
1.639695123940531
 50
84.84185523032386
 51
164.9381082228996
 73
     0
 72
     2
 10
-222.7581085683019
 20
-255.6225741824162
 40
1.205656168393078
 50
164.9381082229052
 51
195.0618917770948
 73
     0
 72
     2
 10
-222.3389807248403
 20
-255.7353645444511
 40
1.639695123940214
 50
195.0618917771033
 51
270.0
 73
     0
 72
     1
 10
-222.3389807248403
 20
-254.0956694205109
 11
-218.9540352062116
 21
-254.0956694205104
 72
     1
 10
-218.9540352062116
 20
-254.0956694205104
 11
-218.9540352062116
 21
-254.880934726634
 97
       18
330
26B
330
301
330
302
330
2EA
330
2E9
330
2CF
330
2E8
330
2E7
330
303
330
2E6
330
304
330
2E5
330
2D0
330
26A
330
26F
330
26E
330
26D
330
26C
 75
     1
 76
     0
 52
45.0
 41
0.1
 77
     0
 78
     1
 53
45.0
 43
0.0
 44
0.0
 45
-0.0707106781186548
 46
0.0707106781186548
 79
     0
 98
        1
 10
0.0
 20
0.0
  0
HATCH
  5
355
330
71
100
AcDbEntity
  8
1
  6
Continuous
 62
     2
100
AcDbHatch
 10
0.0
 20
0.0
 30
0.0
210
0.0
220
0.0
230
1.0
  2
_USER
 70
     0
 71
     1
 91
        1
 92
        1
 93
       18
 72
     1
 10
-218.9540352062116
 20
-254.880934726634
 11
-219.765134243685
 21
-254.880934726634
 72
     1
 10
-219.765134243685
 20
-254.880934726634
 11
-219.765134243685
 21
-257.1494789443215
 72
     1
 10
-219.765134243685
 20
-257.1494789443215
 11
-220.9579269458527
 21
-257.1494789443215
 72
     1
 10
-220.9579269458527
 20
-257.1494789443215
 11
-220.9579269458527
 21
-254.880934726634
 72
     1
 10
-220.9579269458527
 20
-254.880934726634
 11
-222.0615662454208
 21
-254.880934726634
 72
     2
 10
-222.0615662454208
 20
-255.8354577334601
 40
0.9545230068260935
 50
90.0
 51
109.3371432194304
 73
     1
 72
     2
 10
-222.2082362435245
 20
-255.4175027530772
 40
0.5115800601944048
 50
109.3371432194823
 51
151.478526742427
 73
     1
 72
     2
 10
-221.8308789854432
 20
-255.6225741824162
 40
0.9410597353348924
 50
151.4785267423624
 51
208.5214732576695
 73
     1
 72
     2
 10
-222.2082362435245
 20
-255.8276456117547
 40
0.5115800601960965
 50
208.521473257682
 51
246.6277221118449
 73
     1
 72
     2
 10
-222.0517962108214
 20
-255.4656535930447
 40
0.9059297849852801
 50
246.6277221118183
 51
288.4480761180817
 73
     1
 72
     2
 10
-222.4699639444833
 20
-254.2121078170081
 40
2.227384008972746
 50
288.4480761181335
 51
301.9309089499397
 73
     1
 72
     1
 10
-221.2919089024594
 20
-256.1024585361579
 11
-221.2919089024594
 21
-256.9749755429612
 72
     2
 10
-222.6278368195762
 20
-252.3098932371598
 40
4.852596863498861
 50
74.02000874166032
 51
84.84185523036268
 73
     0
 72
     2
 10
-222.3389807248403
 20
-255.5097838203814
 40
1.639695123940531
 50
84.84185523032386
 51
164.9381082228996
 73
     0
 72
     2
 10
-222.7581085683019
 20
-255.6225741824162
 40
1.205656168393078
 50
164.9381082229052
 51
195.0618917770948
 73
     0
 72
     2
 10
-222.3389807248403
 20
-255.7353645444511
 40
1.639695123940214
 50
195.0618917771033
 51
270.0
 73
     0
 72
     1
 10
-222.3389807248403
 20
-254.0956694205109
 11
-218.9540352062116
 21
-254.0956694205104
 72
     1
 10
-218.9540352062116
 20
-254.0956694205104
 11
-218.9540352062116
 21
-254.880934726634
 97
       18
330
26B
330
301
330
302
330
2EA
330
2E9
330
2CF
330
2E8
330
2E7
330
303
330
2E6
330
304
330
2E5
330
2D0
330
26A
330
26F
330
26E
330
26D
330
26C
 75
     1
 76
     0
 52
45.0
 41
0.1
 77
     0
 78
     1
 53
45.0
 43
0.0
 44
0.0
 45
-0.0707106781186548
 46
0.0707106781186548
 79
     0
 98
        1
 10
0.0
 20
0.0
  0
HATCH
  5
356
330
71
100
AcDbEntity
  8
1
  6
Continuous
 62
     2
100
AcDbHatch
 10
0.0
 20
0.0
 30
0.0
210
0.0
220
0.0
230
1.0
  2
_USER
 70
     0
 71
     1
 91
        1
 92
        1
 93
       14
 72
     2
 10
-238.4416822040932
 20
-255.7353645444511
 40
1.639695123940499
 50
84.84185523036533
 51
164.9381082228874
 73
     1
 72
     2
 10
-238.860810047556
 20
-255.6225741824162
 40
1.205656168390964
 50
164.9381082228781
 51
195.0618917770945
 73
     1
 72
     2
 10
-238.4416822040932
 20
-255.5097838203814
 40
1.639695123939387
 50
195.0618917770896
 51
275.1581447696365
 73
     1
 72
     2
 10
-238.7305382988292
 20
-252.3098932371598
 40
4.852596863498138
 50
275.1581447696249
 51
285.979991258353
 73
     1
 72
     1
 10
-237.3946103817114
 20
-256.9749755429606
 11
-237.3946103817114
 21
-256.1024585361574
 72
     2
 10
-238.5726654237362
 20
-254.2121078170075
 40
2.227384008972737
 50
58.06909105004299
 51
71.55192388186951
 73
     0
 72
     2
 10
-238.1544976900754
 20
-255.4656535930447
 40
0.9059297849849192
 50
71.55192388184723
 51
113.372277888129
 73
     0
 72
     2
 10
-238.3109377227775
 20
-255.8276456117547
 40
0.5115800601948034
 50
113.3722778881639
 51
151.4785267423044
 73
     0
 72
     2
 10
-237.9335804646971
 20
-255.6225741824162
 40
0.9410597353333544
 50
151.4785267422976
 51
208.5214732577298
 73
     0
 72
     2
 10
-238.3109377227775
 20
-255.4175027530772
 40
0.511580060194844
 50
208.5214732576956
 51
246.6277221118096
 73
     0
 72
     2
 10
-238.1544976900754
 20
-255.7794947717878
 40
0.9059297849852959
 50
246.627722111871
 51
288.4480761181414
 73
     0
 72
     2
 10
-238.5726654237362
 20
-257.0330405478244
 40
2.227384008973432
 50
288.4480761181306
 51
301.9309089499574
 73
     0
 72
     1
 10
-237.3946103817114
 20
-255.1426898286745
 11
-237.3946103817114
 21
-254.2701728218712
 72
     2
 10
-238.7305382988292
 20
-258.9352551276721
 40
4.852596863498095
 50
74.02000874164747
 51
84.84185523037509
 73
     1
 97
       14
330
309
330
30A
330
30B
330
30C
330
2D1
330
2E2
330
2E1
330
2E0
330
30D
330
30E
330
2DF
330
30F
330
2D2
330
2DE
 75
     1
 76
     0
 52
45.0
 41
0.1
 77
     0
 78
     1
 53
45.0
 43
0.0
 44
0.0
 45
-0.0707106781186548
 46
0.0707106781186548
 79
     0
 98
        1
 10
0.0
 20
0.0
  0
HATCH
  5
357
330
71
100
AcDbEntity
  8
1
  6
Continuous
 62
     2
100
AcDbHatch
 10
0.0
 20
0.0
 30
0.0
210
0.0
220
0.0
230
1.0
  2
_USER
 70
     0
 71
     1
 91
        1
 92
        1
 93
       14
 72
     2
 10
-238.4416822040932
 20
-255.7353645444511
 40
1.639695123940499
 50
84.84185523036533
 51
164.9381082228874
 73
     1
 72
     2
 10
-238.860810047556
 20
-255.6225741824162
 40
1.205656168390964
 50
164.9381082228781
 51
195.0618917770945
 73
     1
 72
     2
 10
-238.4416822040932
 20
-255.5097838203814
 40
1.639695123939387
 50
195.0618917770896
 51
275.1581447696365
 73
     1
 72
     2
 10
-238.7305382988292
 20
-252.3098932371598
 40
4.852596863498138
 50
275.1581447696249
 51
285.979991258353
 73
     1
 72
     1
 10
-237.3946103817114
 20
-256.9749755429606
 11
-237.3946103817114
 21
-256.1024585361574
 72
     2
 10
-238.5726654237362
 20
-254.2121078170075
 40
2.227384008972737
 50
58.06909105004299
 51
71.55192388186951
 73
     0
 72
     2
 10
-238.1544976900754
 20
-255.4656535930447
 40
0.9059297849849192
 50
71.55192388184723
 51
113.372277888129
 73
     0
 72
     2
 10
-238.3109377227775
 20
-255.8276456117547
 40
0.5115800601948034
 50
113.3722778881639
 51
151.4785267423044
 73
     0
 72
     2
 10
-237.9335804646971
 20
-255.6225741824162
 40
0.9410597353333544
 50
151.4785267422976
 51
208.5214732577298
 73
     0
 72
     2
 10
-238.3109377227775
 20
-255.4175027530772
 40
0.511580060194844
 50
208.5214732576956
 51
246.6277221118096
 73
     0
 72
     2
 10
-238.1544976900754
 20
-255.7794947717878
 40
0.9059297849852959
 50
246.627722111871
 51
288.4480761181414
 73
     0
 72
     2
 10
-238.5726654237362
 20
-257.0330405478244
 40
2.227384008973432
 50
288.4480761181306
 51
301.9309089499574
 73
     0
 72
     1
 10
-237.3946103817114
 20
-255.1426898286745
 11
-237.3946103817114
 21
-254.2701728218712
 72
     2
 10
-238.7305382988292
 20
-258.9352551276721
 40
4.852596863498095
 50
74.02000874164747
 51
84.84185523037509
 73
     1
 97
       14
330
309
330
30A
330
30B
330
30C
330
2D1
330
2E2
330
2E1
330
2E0
330
30D
330
30E
330
2DF
330
30F
330
2D2
330
2DE
 75
     1
 76
     0
 52
45.0
 41
0.1
 77
     0
 78
     1
 53
45.0
 43
0.0
 44
0.0
 45
-0.0707106781186548
 46
0.0707106781186548
 79
     0
 98
        1
 10
0.0
 20
0.0
  0
ENDBLK
  5
73
330
71
100
AcDbEntity
  8
0
100
AcDbBlockEnd
  0
BLOCK
  5
75
330
74
100
AcDbEntity
  8
0
100
AcDbBlockBegin
  2
_punkt
 70
     0
 10
-121.5572347967287
 20
-264.4429789443378
 30
0.0
  3
_punkt
  1

  0
LINE
  5
358
330
74
100
AcDbEntity
  8
1
  6
Continuous
 62
     2
100
AcDbLine
 10
-121.5572347967287
 20
-264.4429789443378
 30
0.0
 11
-116.5572347967297
 21
-264.4429789443378
 31
0.0
  0
LINE
  5
359
330
74
100
AcDbEntity
  8
1
  6
Continuous
 62
     2
100
AcDbLine
 10
-121.5572347967287
 20
-264.4429789443378
 30
0.0
 11
-121.5572347967287
 21
-269.4429789443379
 31
0.0
  0
ENDBLK
  5
76
330
74
100
AcDbEntity
  8
0
100
AcDbBlockEnd
  0
BLOCK
  5
7A
330
77
100
AcDbEntity
  8
0
100
AcDbBlockBegin
  2
A4I_CS
 70
     0
 10
-121.5572347967287
 20
-269.4429789443379
 30
0.0
  3
A4I_CS
  1

  0
INSERT
  5
78
330
77
100
AcDbEntity
  8
1
100
AcDbBlockReference
  2
_rahmen
 10
-121.5572347967287
 20
-269.4429789443379
 30
0.0
  0
INSERT
  5
79
330
77
100
AcDbEntity
  8
1
100
AcDbBlockReference
  2
_punkt
 10
-121.5572347967287
 20
-264.4429789443378
 30
0.0
  0
ENDBLK
  5
7B
330
77
100
AcDbEntity
  8
0
100
AcDbBlockEnd
  0
BLOCK
  5
84
330
7C
100
AcDbEntity
  8
0
100
AcDbBlockBegin
  2
1
 70
     0
 10
0.0
 20
0.0
 30
0.0
  3
1
  1

  0
INSERT
  5
7D
330
7C
100
AcDbEntity
  8
0
100
AcDbBlockReference
  2
Allg1
 10
-195.0000000000124
 20
-192.000000000068
 30
0.0
 41
2.0
 42
2.0
 43
2.0
  0
INSERT
  5
7E
330
7C
100
AcDbEntity
  8
0
100
AcDbBlockReference
  2
Drfsicht1
 10
-292.7999994741414
 20
-187.9499987111616
 30
0.0
 41
2.0
 42
2.0
 43
2.0
  0
INSERT
  5
7F
330
7C
100
AcDbEntity
  8
0
100
AcDbBlockReference
  2
Rckans1
 10
-156.99999999998
 20
-121.00000000009
 30
0.0
 41
2.0
 42
2.0
 43
2.0
  0
INSERT
  5
80
330
7C
100
AcDbEntity
  8
0
100
AcDbBlockReference
  2
SA_Links1
 10
-216.3999992370706
 20
-121.00000000009
 30
0.0
 41
2.0
 42
2.0
 43
2.0
  0
INSERT
  5
81
330
7C
100
AcDbEntity
  8
0
100
AcDbBlockReference
  2
SA_Rechts1
 10
-373.1999987111622
 20
-117.00000000009
 30
0.0
 41
2.0
 42
2.0
 43
2.0
  0
INSERT
  5
82
330
7C
100
AcDbEntity
  8
0
100
AcDbBlockReference
  2
Vordans1
 10
-292.7999994741414
 20
-121.00000000009
 30
0.0
 41
2.0
 42
2.0
 43
2.0
  0
INSERT
  5
83
330
7C
100
AcDbEntity
  8
0
100
AcDbBlockReference
  2
A4I_CS
 10
-121.5572347967287
 20
-269.4429789443379
 30
0.0
  0
ENDBLK
  5
85
330
7C
100
AcDbEntity
  8
0
100
AcDbBlockEnd
  0
BLOCK
  5
158
330
151
100
AcDbEntity
  8
0
100
AcDbBlockBegin
  2
*D17
 70
     1
 10
0.0
 20
0.0
 30
0.0
  3
*D17
  1

  0
LINE
  5
152
330
151
100
AcDbEntity
  8
1
  6
Continuous
 62
     2
100
AcDbLine
 10
-163.0999990288065
 20
-84.27499833370916
 30
0.0
 11
-163.0999990288065
 21
-103.6749983337092
 31
0.0
  0
LINE
  5
153
330
151
100
AcDbEntity
  8
1
  6
Continuous
 62
     2
100
AcDbLine
 10
-151.4999990288065
 20
-84.27499833370916
 30
0.0
 11
-163.8499990288065
 21
-84.27499833370916
 31
0.0
  0
LINE
  5
154
330
151
100
AcDbEntity
  8
1
  6
Continuous
 62
     2
100
AcDbLine
 10
-158.0999990288065
 20
-103.6749983337092
 30
0.0
 11
-163.8499990288065
 21
-103.6749983337092
 31
0.0
  0
SOLID
  5
155
330
151
100
AcDbEntity
  8
1
 62
     2
100
AcDbTrace
 10
-162.8696071580286
 20
-86.02499833370916
 30
0.0
 11
-163.3303908995844
 21
-86.02499833370916
 31
0.0
 12
-163.0999990288065
 22
-84.27499833370916
 32
0.0
 13
-163.0999990288065
 23
-84.27499833370916
 33
0.0
  0
SOLID
  5
156
330
151
100
AcDbEntity
  8
1
 62
     2
100
AcDbTrace
 10
-163.3303908995844
 20
-101.9249983337092
 30
0.0
 11
-162.8696071580286
 21
-101.9249983337092
 31
0.0
 12
-163.0999990288065
 22
-103.6749983337092
 32
0.0
 13
-163.0999990288065
 23
-103.6749983337092
 33
0.0
  0
MTEXT
  5
157
330
151
100
AcDbEntity
  8
1
 62
     3
100
AcDbMText
 10
-164.0249990288065
 20
-96.6937212873725
 30
0.0
 40
1.75
 41
0.0
 71
     7
 72
     1
  1
19,4
  7
CONVERTER_11
 11
0.0
 21
1.0
 31
0.0
 73
     1
 44
0.60024009603842
  0
ENDBLK
  5
159
330
151
100
AcDbEntity
  8
0
100
AcDbBlockEnd
  0
BLOCK
  5
207
330
200
100
AcDbEntity
  8
0
100
AcDbBlockBegin
  2
*D18
 70
     1
 10
0.0
 20
0.0
 30
0.0
  3
*D18
  1

  0
LINE
  5
201
330
200
100
AcDbEntity
  8
1
  6
Continuous
 62
     2
100
AcDbLine
 10
-163.0999990288065
 20
-51.25000000009004
 30
0.0
 11
-163.0999990288065
 21
-69.75000000009004
 31
0.0
  0
LINE
  5
202
330
200
100
AcDbEntity
  8
1
  6
Continuous
 62
     2
100
AcDbLine
 10
-158.0999990288065
 20
-51.25000000009004
 30
0.0
 11
-163.8499990288065
 21
-51.25000000009004
 31
0.0
  0
LINE
  5
203
330
200
100
AcDbEntity
  8
1
  6
Continuous
 62
     2
100
AcDbLine
 10
-158.0999990288065
 20
-69.75000000009004
 30
0.0
 11
-163.8499990288065
 21
-69.75000000009004
 31
0.0
  0
SOLID
  5
204
330
200
100
AcDbEntity
  8
1
 62
     2
100
AcDbTrace
 10
-162.8696071580286
 20
-53.00000000009004
 30
0.0
 11
-163.3303908995844
 21
-53.00000000009004
 31
0.0
 12
-163.0999990288065
 22
-51.25000000009004
 32
0.0
 13
-163.0999990288065
 23
-51.25000000009004
 33
0.0
  0
SOLID
  5
205
330
200
100
AcDbEntity
  8
1
 62
     2
100
AcDbTrace
 10
-163.3303908995844
 20
-68.00000000009004
 30
0.0
 11
-162.8696071580286
 21
-68.00000000009004
 31
0.0
 12
-163.0999990288065
 22
-69.75000000009004
 32
0.0
 13
-163.0999990288065
 23
-69.75000000009004
 33
0.0
  0
MTEXT
  5
206
330
200
100
AcDbEntity
  8
1
 62
     3
100
AcDbMText
 10
-164.0249990288065
 20
-62.8010357379585
 30
0.0
 40
1.75
 41
0.0
 71
     7
 72
     1
  1
18,5
  7
CONVERTER_11
 11
0.0
 21
1.0
 31
0.0
 73
     1
 44
0.60024009603842
  0
ENDBLK
  5
208
330
200
100
AcDbEntity
  8
0
100
AcDbBlockEnd
  0
BLOCK
  5
212
330
20B
100
AcDbEntity
  8
0
100
AcDbBlockBegin
  2
*D19
 70
     1
 10
0.0
 20
0.0
 30
0.0
  3
*D19
  1

  0
LINE
  5
20C
330
20B
100
AcDbEntity
  8
1
  6
Continuous
 62
     2
100
AcDbLine
 10
-167.0999990288065
 20
-47.85000000009003
 30
0.0
 11
-167.0999990288065
 21
-69.75000000009004
 31
0.0
  0
LINE
  5
20D
330
20B
100
AcDbEntity
  8
1
  6
Continuous
 62
     2
100
AcDbLine
 10
-156.4674355386075
 20
-47.85000000009003
 30
0.0
 11
-167.8499990288065
 21
-47.85000000009003
 31
0.0
  0
LINE
  5
20E
330
20B
100
AcDbEntity
  8
1
  6
Continuous
 62
     2
100
AcDbLine
 10
-158.0999990288065
 20
-69.75000000009004
 30
0.0
 11
-167.8499990288065
 21
-69.75000000009004
 31
0.0
  0
SOLID
  5
20F
330
20B
100
AcDbEntity
  8
1
 62
     2
100
AcDbTrace
 10
-166.8696071580286
 20
-49.60000000009003
 30
0.0
 11
-167.3303908995844
 21
-49.60000000009003
 31
0.0
 12
-167.0999990288065
 22
-47.85000000009003
 32
0.0
 13
-167.0999990288065
 23
-47.85000000009003
 33
0.0
  0
SOLID
  5
210
330
20B
100
AcDbEntity
  8
1
 62
     2
100
AcDbTrace
 10
-167.3303908995844
 20
-68.00000000009004
 30
0.0
 11
-166.8696071580286
 21
-68.00000000009004
 31
0.0
 12
-167.0999990288065
 22
-69.75000000009004
 32
0.0
 13
-167.0999990288065
 23
-69.75000000009004
 33
0.0
  0
MTEXT
  5
211
330
20B
100
AcDbEntity
  8
1
 62
     3
100
AcDbMText
 10
-168.0249990288065
 20
-62.8010357379585
 30
0.0
 40
1.75
 41
0.0
 71
     7
 72
     1
  1
21,9
  7
CONVERTER_11
 11
0.0
 21
1.0
 31
0.0
 73
     1
 44
0.60024009603842
  0
ENDBLK
  5
213
330
20B
100
AcDbEntity
  8
0
100
AcDbBlockEnd
  0
BLOCK
  5
21D
330
216
100
AcDbEntity
  8
0
100
AcDbBlockBegin
  2
*D20
 70
     1
 10
0.0
 20
0.0
 30
0.0
  3
*D20
  1

  0
LINE
  5
217
330
216
100
AcDbEntity
  8
1
  6
Continuous
 62
     2
100
AcDbLine
 10
-134.6999990288065
 20
-74.75000000009004
 30
0.0
 11
-158.0999990288065
 21
-74.75000000009004
 31
0.0
  0
LINE
  5
218
330
216
100
AcDbEntity
  8
1
  6
Continuous
 62
     2
100
AcDbLine
 10
-134.6999990288065
 20
-69.75000000009004
 30
0.0
 11
-134.6999990288065
 21
-75.50000000009004
 31
0.0
  0
LINE
  5
219
330
216
100
AcDbEntity
  8
1
  6
Continuous
 62
     2
100
AcDbLine
 10
-158.0999990288065
 20
-69.75000000009004
 30
0.0
 11
-158.0999990288065
 21
-75.50000000009004
 31
0.0
  0
SOLID
  5
21A
330
216
100
AcDbEntity
  8
1
 62
     2
100
AcDbTrace
 10
-136.4499990288065
 20
-74.98039187086798
 30
0.0
 11
-136.4499990288065
 21
-74.5196081293121
 31
0.0
 12
-134.6999990288065
 22
-74.75000000009004
 32
0.0
 13
-134.6999990288065
 23
-74.75000000009004
 33
0.0
  0
SOLID
  5
21B
330
216
100
AcDbEntity
  8
1
 62
     2
100
AcDbTrace
 10
-156.3499990288065
 20
-74.5196081293121
 30
0.0
 11
-156.3499990288065
 21
-74.98039187086798
 31
0.0
 12
-158.0999990288065
 22
-74.75000000009004
 32
0.0
 13
-158.0999990288065
 23
-74.75000000009004
 33
0.0
  0
MTEXT
  5
21C
330
216
100
AcDbEntity
  8
1
 62
     3
100
AcDbMText
 10
-148.8062490288065
 20
-73.82500000009003
 30
0.0
 40
1.75
 41
0.0
 71
     7
 72
     1
  1
23,4
  7
CONVERTER_11
 11
0.9999999999970619
 21
2.424068405545306E-6
 31
0.0
 73
     1
 44
0.60024009603842
  0
ENDBLK
  5
21E
330
216
100
AcDbEntity
  8
0
100
AcDbBlockEnd
  0
ENDSEC
  0
SECTION
  2
ENTITIES
  0
INSERT
  5
86
330
1F
100
AcDbEntity
  8
1
100
AcDbBlockReference
  2
1
 10
0.0
 20
0.0
 30
0.0
  0
ENDSEC
  0
SECTION
  2
OBJECTS
  0
DICTIONARY
  5
C
330
0
100
AcDbDictionary
281
     1
  3
ACAD_GROUP
350
D
  3
ACAD_LAYOUT
350
1A
  3
ACAD_MATERIAL
350
3B
  3
ACAD_MLEADERSTYLE
350
381
  3
ACAD_MLINESTYLE
350
17
  3
ACAD_PLOTSETTINGS
350
19
  3
ACAD_PLOTSTYLENAME
350
E
  3
ACAD_TABLESTYLE
350
380
  3
ACAD_VISUALSTYLE
350
2A
  0
DICTIONARY
  5
D
102
{ACAD_REACTORS
330
C
102
}
330
C
100
AcDbDictionary
281
     1
  0
DICTIONARY
  5
1A
102
{ACAD_REACTORS
330
C
102
}
330
C
100
AcDbDictionary
281
     1
  3
Layout1
350
1E
  3
Layout2
350
26
  3
Model
350
22
  0
DICTIONARY
  5
3B
102
{ACAD_REACTORS
330
C
102
}
330
C
100
AcDbDictionary
281
     1
  3
ByBlock
350
3D
  3
ByLayer
350
3C
  3
Global
350
3E
  0
DICTIONARY
  5
381
102
{ACAD_REACTORS
330
C
102
}
330
C
100
AcDbDictionary
281
     1
  0
DICTIONARY
  5
17
102
{ACAD_REACTORS
330
C
102
}
330
C
100
AcDbDictionary
281
     1
  3
Standard
350
18
  0
DICTIONARY
  5
19
102
{ACAD_REACTORS
330
C
102
}
330
C
100
AcDbDictionary
281
     1
  0
ACDBDICTIONARYWDFLT
  5
E
102
{ACAD_REACTORS
330
C
102
}
330
C
100
AcDbDictionary
281
     1
  3
Normal
350
F
100
AcDbDictionaryWithDefault
340
F
  0
DICTIONARY
  5
380
102
{ACAD_REACTORS
330
C
102
}
330
C
100
AcDbDictionary
281
     1
  0
DICTIONARY
  5
2A
102
{ACAD_REACTORS
330
C
102
}
330
C
100
AcDbDictionary
281
     1
  3
2dWireframe
350
2F
  3
3D Hidden
350
31
  3
3dWireframe
350
30
  3
Basic
350
32
  3
Brighten
350
36
  3
ColorChange
350
3A
  3
Conceptual
350
34
  3
Dim
350
35
  3
Facepattern
350
39
  3
Flat
350
2B
  3
FlatWithEdges
350
2C
  3
Gouraud
350
2D
  3
GouraudWithEdges
350
2E
  3
Linepattern
350
38
  3
Realistic
350
33
  3
Thicken
350
37
  0
LAYOUT
  5
1E
102
{ACAD_REACTORS
330
1A
102
}
330
1A
100
AcDbPlotSettings
  1

  2
none_device
  4

  6

 40
0.0
 41
0.0
 42
0.0
 43
0.0
 44
0.0
 45
0.0
 46
0.0
 47
0.0
 48
0.0
 49
0.0
140
0.0
141
0.0
142
1.0
143
1.0
 70
   688
 72
     0
 73
     0
 74
     5
  7

 75
    16
 76
     0
 77
     2
 78
   300
147
1.0
148
0.0
149
0.0
100
AcDbLayout
  1
Layout1
 70
     1
 71
     1
 10
0.0
 20
0.0
 11
12.0
 21
9.0
 12
0.0
 22
0.0
 32
0.0
 14
1.00000000000000E+20
 24
1.00000000000000E+20
 34
1.00000000000000E+20
 15
-1.00000000000000E+20
 25
-1.00000000000000E+20
 35
-1.00000000000000E+20
146
0.0
 13
0.0
 23
0.0
 33
0.0
 16
1.0
 26
0.0
 36
0.0
 17
0.0
 27
1.0
 37
0.0
 76
     0
330
1B
  0
LAYOUT
  5
26
102
{ACAD_REACTORS
330
1A
102
}
330
1A
100
AcDbPlotSettings
  1

  2
none_device
  4

  6

 40
0.0
 41
0.0
 42
0.0
 43
0.0
 44
0.0
 45
0.0
 46
0.0
 47
0.0
 48
0.0
 49
0.0
140
0.0
141
0.0
142
1.0
143
1.0
 70
   688
 72
     0
 73
     0
 74
     5
  7

 75
    16
 76
     0
 77
     2
 78
   300
147
1.0
148
0.0
149
0.0
100
AcDbLayout
  1
Layout2
 70
     1
 71
     2
 10
0.0
 20
0.0
 11
0.0
 21
0.0
 12
0.0
 22
0.0
 32
0.0
 14
0.0
 24
0.0
 34
0.0
 15
0.0
 25
0.0
 35
0.0
146
0.0
 13
0.0
 23
0.0
 33
0.0
 16
1.0
 26
0.0
 36
0.0
 17
0.0
 27
1.0
 37
0.0
 76
     0
330
23
  0
LAYOUT
  5
22
102
{ACAD_REACTORS
330
1A
102
}
330
1A
100
AcDbPlotSettings
  1

  2
none_device
  4

  6

 40
0.0
 41
0.0
 42
0.0
 43
0.0
 44
0.0
 45
0.0
 46
0.0
 47
0.0
 48
0.0
 49
0.0
140
0.0
141
0.0
142
1.0
143
1.0
 70
  1712
 72
     0
 73
     0
 74
     0
  7

 75
     0
 76
     0
 77
     2
 78
   300
147
1.0
148
0.0
149
0.0
100
AcDbLayout
  1
Model
 70
     1
 71
     0
 10
0.0
 20
0.0
 11
12.0
 21
9.0
 12
0.0
 22
0.0
 32
0.0
 14
-413.5572347967278
 24
-269.4429789443379
 34
0.0
 15
-116.5572347967297
 25
-59.4429789443378
 35
0.0
146
0.0
 13
0.0
 23
0.0
 33
0.0
 16
1.0
 26
0.0
 36
0.0
 17
0.0
 27
1.0
 37
0.0
 76
     0
330
1F
331
29
  0
MATERIAL
  5
3D
102
{ACAD_REACTORS
330
3B
102
}
102
{ACAD_XDICTIONARY
360
37C
102
}
330
3B
100
AcDbMaterial
  1
ByBlock
  0
MATERIAL
  5
3C
102
{ACAD_REACTORS
330
3B
102
}
102
{ACAD_XDICTIONARY
360
37A
102
}
330
3B
100
AcDbMaterial
  1
ByLayer
  0
MATERIAL
  5
3E
102
{ACAD_REACTORS
330
3B
102
}
102
{ACAD_XDICTIONARY
360
37E
102
}
330
3B
100
AcDbMaterial
  1
Global
  0
MLINESTYLE
  5
18
102
{ACAD_REACTORS
330
17
102
}
330
17
100
AcDbMlineStyle
  2
Standard
 70
     0
  3

 62
   256
 51
90.0
 52
90.0
 71
     2
 49
0.5
 62
   256
  6
BYLAYER
 49
-0.5
 62
   256
  6
BYLAYER
  0
ACDBPLACEHOLDER
  5
F
102
{ACAD_REACTORS
330
E
102
}
330
E
  0
VISUALSTYLE
  5
2F
102
{ACAD_REACTORS
330
2A
102
}
102
{ACAD_XDICTIONARY
360
362
102
}
330
2A
100
AcDbVisualStyle
  2
2dWireframe
 70
     4
 71
     0
 72
     2
 73
     0
 90
        0
 40
-0.6
 41
-30.0
 62
     5
 63
     7
421
 16777215
 74
     1
 91
        4
 64
     7
 65
   257
 75
     1
175
     1
 42
1.0
 92
        0
 66
   257
 43
1.0
 76
     1
 77
     6
 78
     2
 67
     7
 79
     5
170
     0
171
     0
290
     0
174
     0
 93
        1
 44
0.0
173
     0
291
     0
 45
0.0
1001
ACAD
1000
AcDbSavedByObjectVersion
1070
     0
  0
VISUALSTYLE
  5
31
102
{ACAD_REACTORS
330
2A
102
}
102
{ACAD_XDICTIONARY
360
366
102
}
330
2A
100
AcDbVisualStyle
  2
3D Hidden
 70
     6
 71
     1
 72
     2
 73
     2
 90
        0
 40
-0.6
 41
-30.0
 62
     5
 63
     7
421
 16777215
 74
     2
 91
        2
 64
     7
 65
   257
 75
     2
175
     1
 42
40.0
 92
        0
 66
   257
 43
1.0
 76
     1
 77
     6
 78
     2
 67
     7
 79
     3
170
     0
171
     0
290
     0
174
     0
 93
        1
 44
0.0
173
     0
291
     0
 45
0.0
1001
ACAD
1000
AcDbSavedByObjectVersion
1070
     0
  0
VISUALSTYLE
  5
30
102
{ACAD_REACTORS
330
2A
102
}
102
{ACAD_XDICTIONARY
360
364
102
}
330
2A
100
AcDbVisualStyle
  2
3dWireframe
 70
     5
 71
     0
 72
     2
 73
     0
 90
        0
 40
-0.6
 41
-30.0
 62
     5
 63
     7
421
 16777215
 74
     1
 91
        4
 64
     7
 65
   257
 75
     1
175
     1
 42
1.0
 92
        0
 66
   257
 43
1.0
 76
     1
 77
     6
 78
     2
 67
     7
 79
     5
170
     0
171
     0
290
     0
174
     0
 93
        1
 44
0.0
173
     0
291
     0
 45
0.0
1001
ACAD
1000
AcDbSavedByObjectVersion
1070
     0
  0
VISUALSTYLE
  5
32
102
{ACAD_REACTORS
330
2A
102
}
102
{ACAD_XDICTIONARY
360
368
102
}
330
2A
100
AcDbVisualStyle
  2
Basic
 70
     7
 71
     1
 72
     0
 73
     1
 90
        0
 40
-0.6
 41
-30.0
 62
     5
 63
     7
421
 16777215
 74
     0
 91
        4
 64
     7
 65
   257
 75
     1
175
     1
 42
1.0
 92
        8
 66
     7
 43
1.0
 76
     1
 77
     6
 78
     2
 67
     7
 79
     5
170
     0
171
     0
290
     0
174
     0
 93
        1
 44
0.0
173
     0
291
     1
 45
0.0
1001
ACAD
1000
AcDbSavedByObjectVersion
1070
     0
  0
VISUALSTYLE
  5
36
102
{ACAD_REACTORS
330
2A
102
}
102
{ACAD_XDICTIONARY
360
370
102
}
330
2A
100
AcDbVisualStyle
  2
Brighten
 70
    12
 71
     2
 72
     2
 73
     0
 90
        0
 40
-0.6
 41
-30.0
 62
     5
 63
     7
421
 16777215
 74
     1
 91
        4
 64
     7
 65
   257
 75
     1
175
     1
 42
1.0
 92
        8
 66
     7
 43
1.0
 76
     1
 77
     6
 78
     2
 67
     7
 79
     5
170
     0
171
     0
290
     0
174
     0
 93
        1
 44
50.0
173
     0
291
     1
 45
0.0
1001
ACAD
1000
AcDbSavedByObjectVersion
1070
     0
  0
VISUALSTYLE
  5
3A
102
{ACAD_REACTORS
330
2A
102
}
102
{ACAD_XDICTIONARY
360
378
102
}
330
2A
100
AcDbVisualStyle
  2
ColorChange
 70
    16
 71
     2
 72
     2
 73
     3
 90
        0
 40
-0.6
 41
-30.0
 62
     5
 63
     8
421
  8421504
 74
     1
 91
        4
 64
     7
 65
   257
 75
     1
175
     1
 42
1.0
 92
        8
 66
     8
424
  8421504
 43
1.0
 76
     1
 77
     6
 78
     2
 67
     7
 79
     5
170
     0
171
     0
290
     0
174
     0
 93
        1
 44
0.0
173
     0
291
     1
 45
0.0
1001
ACAD
1000
AcDbSavedByObjectVersion
1070
     0
  0
VISUALSTYLE
  5
34
102
{ACAD_REACTORS
330
2A
102
}
102
{ACAD_XDICTIONARY
360
36C
102
}
330
2A
100
AcDbVisualStyle
  2
Conceptual
 70
     9
 71
     3
 72
     2
 73
     0
 90
        0
 40
-0.6
 41
-30.0
 62
     5
 63
     7
421
 16777215
 74
     2
 91
        2
 64
     7
 65
   257
 75
     1
175
     1
 42
40.0
 92
        8
 66
     7
 43
1.0
 76
     1
 77
     6
 78
     2
 67
     7
 79
     3
170
     0
171
     0
290
     0
174
     0
 93
        1
 44
0.0
173
     0
291
     0
 45
0.0
1001
ACAD
1000
AcDbSavedByObjectVersion
1070
     0
  0
VISUALSTYLE
  5
35
102
{ACAD_REACTORS
330
2A
102
}
102
{ACAD_XDICTIONARY
360
36E
102
}
330
2A
100
AcDbVisualStyle
  2
Dim
 70
    11
 71
     2
 72
     2
 73
     0
 90
        0
 40
-0.6
 41
-30.0
 62
     5
 63
     7
421
 16777215
 74
     1
 91
        4
 64
     7
 65
   257
 75
     1
175
     1
 42
1.0
 92
        8
 66
     7
 43
1.0
 76
     1
 77
     6
 78
     2
 67
     7
 79
     5
170
     0
171
     0
290
     0
174
     0
 93
        1
 44
-50.0
173
     0
291
     1
 45
0.0
1001
ACAD
1000
AcDbSavedByObjectVersion
1070
     0
  0
VISUALSTYLE
  5
39
102
{ACAD_REACTORS
330
2A
102
}
102
{ACAD_XDICTIONARY
360
376
102
}
330
2A
100
AcDbVisualStyle
  2
Facepattern
 70
    15
 71
     2
 72
     2
 73
     0
 90
        0
 40
-0.6
 41
-30.0
 62
     5
 63
     7
421
 16777215
 74
     1
 91
        4
 64
     7
 65
   257
 75
     1
175
     1
 42
1.0
 92
        8
 66
     7
 43
1.0
 76
     1
 77
     6
 78
     2
 67
     7
 79
     5
170
     0
171
     0
290
     0
174
     0
 93
        1
 44
0.0
173
     0
291
     1
 45
0.0
1001
ACAD
1000
AcDbSavedByObjectVersion
1070
     0
  0
VISUALSTYLE
  5
2B
102
{ACAD_REACTORS
330
2A
102
}
102
{ACAD_XDICTIONARY
360
35A
102
}
330
2A
100
AcDbVisualStyle
  2
Flat
 70
     0
 71
     2
 72
     1
 73
     1
 90
        2
 40
-0.6
 41
30.0
 62
     5
 63
     7
421
 16777215
 74
     0
 91
        4
 64
     7
 65
   257
 75
     1
175
     1
 42
1.0
 92
        8
 66
     7
 43
1.0
 76
     1
 77
     6
 78
     2
 67
     7
 79
     5
170
     0
171
     0
290
     0
174
     0
 93
       13
 44
0.0
173
     0
291
     1
 45
0.0
1001
ACAD
1000
AcDbSavedByObjectVersion
1070
     0
  0
VISUALSTYLE
  5
2C
102
{ACAD_REACTORS
330
2A
102
}
102
{ACAD_XDICTIONARY
360
35C
102
}
330
2A
100
AcDbVisualStyle
  2
FlatWithEdges
 70
     1
 71
     2
 72
     1
 73
     1
 90
        2
 40
-0.6
 41
30.0
 62
     5
 63
     7
421
 16777215
 74
     1
 91
        4
 64
     7
 65
   257
 75
     1
175
     1
 42
1.0
 92
        0
 66
   257
 43
1.0
 76
     1
 77
     6
 78
     2
 67
     7
 79
     5
170
     0
171
     0
290
     0
174
     0
 93
       13
 44
0.0
173
     0
291
     1
 45
0.0
1001
ACAD
1000
AcDbSavedByObjectVersion
1070
     0
  0
VISUALSTYLE
  5
2D
102
{ACAD_REACTORS
330
2A
102
}
102
{ACAD_XDICTIONARY
360
35E
102
}
330
2A
100
AcDbVisualStyle
  2
Gouraud
 70
     2
 71
     2
 72
     2
 73
     1
 90
        2
 40
-0.6
 41
30.0
 62
     5
 63
     7
421
 16777215
 74
     0
 91
        4
 64
     7
 65
   257
 75
     1
175
     1
 42
1.0
 92
        0
 66
     7
 43
1.0
 76
     1
 77
     6
 78
     2
 67
     7
 79
     5
170
     0
171
     0
290
     0
174
     0
 93
       13
 44
0.0
173
     0
291
     1
 45
0.0
1001
ACAD
1000
AcDbSavedByObjectVersion
1070
     0
  0
VISUALSTYLE
  5
2E
102
{ACAD_REACTORS
330
2A
102
}
102
{ACAD_XDICTIONARY
360
360
102
}
330
2A
100
AcDbVisualStyle
  2
GouraudWithEdges
 70
     3
 71
     2
 72
     2
 73
     1
 90
        2
 40
-0.6
 41
30.0
 62
     5
 63
     7
421
 16777215
 74
     1
 91
        4
 64
     7
 65
   257
 75
     1
175
     1
 42
1.0
 92
        0
 66
   257
 43
1.0
 76
     1
 77
     6
 78
     2
 67
     7
 79
     5
170
     0
171
     0
290
     0
174
     0
 93
       13
 44
0.0
173
     0
291
     1
 45
0.0
1001
ACAD
1000
AcDbSavedByObjectVersion
1070
     0
  0
VISUALSTYLE
  5
38
102
{ACAD_REACTORS
330
2A
102
}
102
{ACAD_XDICTIONARY
360
374
102
}
330
2A
100
AcDbVisualStyle
  2
Linepattern
 70
    14
 71
     2
 72
     2
 73
     0
 90
        0
 40
-0.6
 41
-30.0
 62
     5
 63
     7
421
 16777215
 74
     1
 91
        4
 64
     7
 65
   257
 75
     7
175
     7
 42
1.0
 92
        8
 66
     7
 43
1.0
 76
     1
 77
     6
 78
     2
 67
     7
 79
     5
170
     0
171
     0
290
     0
174
     0
 93
        1
 44
0.0
173
     0
291
     1
 45
0.0
1001
ACAD
1000
AcDbSavedByObjectVersion
1070
     0
  0
VISUALSTYLE
  5
33
102
{ACAD_REACTORS
330
2A
102
}
102
{ACAD_XDICTIONARY
360
36A
102
}
330
2A
100
AcDbVisualStyle
  2
Realistic
 70
     8
 71
     2
 72
     2
 73
     0
 90
        0
 40
-0.6
 41
-30.0
 62
     5
 63
     7
421
 16777215
 74
     1
 91
        0
 64
     7
 65
   257
 75
     1
175
     1
 42
1.0
 92
        8
 66
     8
424
  7895160
 43
1.0
 76
     1
 77
     6
 78
     2
 67
     7
 79
     5
170
     0
171
     0
290
     0
174
     0
 93
       13
 44
0.0
173
     0
291
     0
 45
0.0
1001
ACAD
1000
AcDbSavedByObjectVersion
1070
     0
  0
VISUALSTYLE
  5
37
102
{ACAD_REACTORS
330
2A
102
}
102
{ACAD_XDICTIONARY
360
372
102
}
330
2A
100
AcDbVisualStyle
  2
Thicken
 70
    13
 71
     2
 72
     2
 73
     0
 90
        0
 40
-0.6
 41
-30.0
 62
     5
 63
     7
421
 16777215
 74
     1
 91
        4
 64
     7
 65
   257
 75
     1
175
     1
 42
1.0
 92
       12
 66
     7
 43
1.0
 76
     1
 77
     6
 78
     2
 67
     7
 79
     5
170
     0
171
     0
290
     0
174
     0
 93
        1
 44
0.0
173
     0
291
     1
 45
0.0
1001
ACAD
1000
AcDbSavedByObjectVersion
1070
     0
  0
DICTIONARY
  5
37C
330
3D
100
AcDbDictionary
280
     1
281
     1
  3
ACAD_XREC_ROUNDTRIP
360
37D
  0
DICTIONARY
  5
37A
330
3C
100
AcDbDictionary
280
     1
281
     1
  3
ACAD_XREC_ROUNDTRIP
360
37B
  0
DICTIONARY
  5
37E
330
3E
100
AcDbDictionary
280
     1
281
     1
  3
ACAD_XREC_ROUNDTRIP
360
37F
  0
DICTIONARY
  5
362
330
2F
100
AcDbDictionary
280
     1
281
     1
  3
ACAD_XREC_ROUNDTRIP
360
363
  0
DICTIONARY
  5
366
330
31
100
AcDbDictionary
280
     1
281
     1
  3
ACAD_XREC_ROUNDTRIP
360
367
  0
DICTIONARY
  5
364
330
30
100
AcDbDictionary
280
     1
281
     1
  3
ACAD_XREC_ROUNDTRIP
360
365
  0
DICTIONARY
  5
368
330
32
100
AcDbDictionary
280
     1
281
     1
  3
ACAD_XREC_ROUNDTRIP
360
369
  0
DICTIONARY
  5
370
330
36
100
AcDbDictionary
280
     1
281
     1
  3
ACAD_XREC_ROUNDTRIP
360
371
  0
DICTIONARY
  5
378
330
3A
100
AcDbDictionary
280
     1
281
     1
  3
ACAD_XREC_ROUNDTRIP
360
379
  0
DICTIONARY
  5
36C
330
34
100
AcDbDictionary
280
     1
281
     1
  3
ACAD_XREC_ROUNDTRIP
360
36D
  0
DICTIONARY
  5
36E
330
35
100
AcDbDictionary
280
     1
281
     1
  3
ACAD_XREC_ROUNDTRIP
360
36F
  0
DICTIONARY
  5
376
330
39
100
AcDbDictionary
280
     1
281
     1
  3
ACAD_XREC_ROUNDTRIP
360
377
  0
DICTIONARY
  5
35A
330
2B
100
AcDbDictionary
280
     1
281
     1
  3
ACAD_XREC_ROUNDTRIP
360
35B
  0
DICTIONARY
  5
35C
330
2C
100
AcDbDictionary
280
     1
281
     1
  3
ACAD_XREC_ROUNDTRIP
360
35D
  0
DICTIONARY
  5
35E
330
2D
100
AcDbDictionary
280
     1
281
     1
  3
ACAD_XREC_ROUNDTRIP
360
35F
  0
DICTIONARY
  5
360
330
2E
100
AcDbDictionary
280
     1
281
     1
  3
ACAD_XREC_ROUNDTRIP
360
361
  0
DICTIONARY
  5
374
330
38
100
AcDbDictionary
280
     1
281
     1
  3
ACAD_XREC_ROUNDTRIP
360
375
  0
DICTIONARY
  5
36A
330
33
100
AcDbDictionary
280
     1
281
     1
  3
ACAD_XREC_ROUNDTRIP
360
36B
  0
DICTIONARY
  5
372
330
37
100
AcDbDictionary
280
     1
281
     1
  3
ACAD_XREC_ROUNDTRIP
360
373
  0
XRECORD
  5
37D
102
{ACAD_REACTORS
330
37C
102
}
330
37C
100
AcDbXrecord
280
     1
102
MATERIAL
148
0.0
149
0.0
149
0.0
 93
        0
 94
      127
282
     0
 72
     1
 77
     1
171
     1
175
     1
179
     1
273
     0
  0
XRECORD
  5
37B
102
{ACAD_REACTORS
330
37A
102
}
330
37A
100
AcDbXrecord
280
     1
102
MATERIAL
148
0.0
149
0.0
149
0.0
 93
        0
 94
      127
282
     0
 72
     1
 77
     1
171
     1
175
     1
179
     1
273
     0
  0
XRECORD
  5
37F
102
{ACAD_REACTORS
330
37E
102
}
330
37E
100
AcDbXrecord
280
     1
102
MATERIAL
148
0.0
149
0.0
149
0.0
 93
        0
 94
      127
282
     0
 72
     1
 77
     1
171
     1
175
     1
179
     1
273
     0
  0
XRECORD
  5
363
102
{ACAD_REACTORS
330
362
102
}
330
362
100
AcDbXrecord
280
     1
102
RTVSPropertyOp0
 70
     1
102
RTVSPropertyOp1
 70
     1
102
RTVSPropertyOp2
 70
     1
102
RTVSPropertyOp3
 70
     1
102
RTVSPropertyOp4
 70
     1
102
RTVSPropertyOp5
 70
     1
102
RTVSPropertyOp6
 70
     1
102
RTVSPropertyOp7
 70
     1
102
RTVSPropertyOp8
 70
     1
102
RTVSPropertyOp9
 70
     1
102
RTVSPropertyOp10
 70
     1
102
RTVSPropertyOp11
 70
     1
102
RTVSPropertyOp12
 70
     1
102
RTVSPropertyOp13
 70
     1
102
RTVSPropertyOp14
 70
     1
102
RTVSPropertyOp15
 70
     1
102
RTVSPropertyOp16
 70
     1
102
RTVSPropertyOp17
 70
     1
102
RTVSPropertyOp18
 70
     1
102
RTVSPropertyOp19
 70
     1
102
RTVSPropertyOp20
 70
     1
102
RTVSPropertyOp21
 70
     1
102
RTVSPropertyOp22
 70
     1
102
RTVSPropertyOp23
 70
     1
102
RTVSPropertyOp24
 70
     1
102
RTVSPropertyOp25
 70
     1
102
RTVSPropertyOp26
 70
     1
102
RTVSPropertyOp27
 70
     1
102
RTVSPropertyOp28
 70
     1
102
RTVSPropertyOp29
 70
     1
102
RTVSPropertyOp30
 70
     1
102
RTVSPropertyOp31
 70
     1
102
RTVSPropertyOp32
 70
     1
  0
XRECORD
  5
367
102
{ACAD_REACTORS
330
366
102
}
330
366
100
AcDbXrecord
280
     1
102
RTVSPropertyOp0
 70
     1
102
RTVSPropertyOp1
 70
     1
102
RTVSPropertyOp2
 70
     1
102
RTVSPropertyOp3
 70
     1
102
RTVSPropertyOp4
 70
     1
102
RTVSPropertyOp5
 70
     1
102
RTVSPropertyOp6
 70
     1
102
RTVSPropertyOp7
 70
     1
102
RTVSPropertyOp8
 70
     1
102
RTVSPropertyOp9
 70
     1
102
RTVSPropertyOp10
 70
     1
102
RTVSPropertyOp11
 70
     1
102
RTVSPropertyOp12
 70
     1
102
RTVSPropertyOp13
 70
     1
102
RTVSPropertyOp14
 70
     1
102
RTVSPropertyOp15
 70
     1
102
RTVSPropertyOp16
 70
     1
102
RTVSPropertyOp17
 70
     1
102
RTVSPropertyOp18
 70
     1
102
RTVSPropertyOp19
 70
     1
102
RTVSPropertyOp20
 70
     1
102
RTVSPropertyOp21
 70
     1
102
RTVSPropertyOp22
 70
     1
102
RTVSPropertyOp23
 70
     1
102
RTVSPropertyOp24
 70
     1
102
RTVSPropertyOp25
 70
     1
102
RTVSPropertyOp26
 70
     1
102
RTVSPropertyOp27
 70
     1
102
RTVSPropertyOp28
 70
     1
102
RTVSPropertyOp29
 70
     1
102
RTVSPropertyOp30
 70
     1
102
RTVSPropertyOp31
 70
     1
102
RTVSPropertyOp32
 70
     1
  0
XRECORD
  5
365
102
{ACAD_REACTORS
330
364
102
}
330
364
100
AcDbXrecord
280
     1
102
RTVSPropertyOp0
 70
     1
102
RTVSPropertyOp1
 70
     1
102
RTVSPropertyOp2
 70
     1
102
RTVSPropertyOp3
 70
     1
102
RTVSPropertyOp4
 70
     1
102
RTVSPropertyOp5
 70
     1
102
RTVSPropertyOp6
 70
     1
102
RTVSPropertyOp7
 70
     1
102
RTVSPropertyOp8
 70
     1
102
RTVSPropertyOp9
 70
     1
102
RTVSPropertyOp10
 70
     1
102
RTVSPropertyOp11
 70
     1
102
RTVSPropertyOp12
 70
     1
102
RTVSPropertyOp13
 70
     1
102
RTVSPropertyOp14
 70
     1
102
RTVSPropertyOp15
 70
     1
102
RTVSPropertyOp16
 70
     1
102
RTVSPropertyOp17
 70
     1
102
RTVSPropertyOp18
 70
     1
102
RTVSPropertyOp19
 70
     1
102
RTVSPropertyOp20
 70
     1
102
RTVSPropertyOp21
 70
     1
102
RTVSPropertyOp22
 70
     1
102
RTVSPropertyOp23
 70
     1
102
RTVSPropertyOp24
 70
     1
102
RTVSPropertyOp25
 70
     1
102
RTVSPropertyOp26
 70
     1
102
RTVSPropertyOp27
 70
     1
102
RTVSPropertyOp28
 70
     1
102
RTVSPropertyOp29
 70
     1
102
RTVSPropertyOp30
 70
     1
102
RTVSPropertyOp31
 70
     1
102
RTVSPropertyOp32
 70
     1
  0
XRECORD
  5
369
102
{ACAD_REACTORS
330
368
102
}
330
368
100
AcDbXrecord
280
     1
102
RTVSPropertyOp0
 70
     1
102
RTVSPropertyOp1
 70
     1
102
RTVSPropertyOp2
 70
     1
102
RTVSPropertyOp3
 70
     1
102
RTVSPropertyOp4
 70
     1
102
RTVSPropertyOp5
 70
     1
102
RTVSPropertyOp6
 70
     1
102
RTVSPropertyOp7
 70
     1
102
RTVSPropertyOp8
 70
     1
102
RTVSPropertyOp9
 70
     1
102
RTVSPropertyOp10
 70
     1
102
RTVSPropertyOp11
 70
     1
102
RTVSPropertyOp12
 70
     1
102
RTVSPropertyOp13
 70
     1
102
RTVSPropertyOp14
 70
     1
102
RTVSPropertyOp15
 70
     1
102
RTVSPropertyOp16
 70
     1
102
RTVSPropertyOp17
 70
     1
102
RTVSPropertyOp18
 70
     1
102
RTVSPropertyOp19
 70
     1
102
RTVSPropertyOp20
 70
     1
102
RTVSPropertyOp21
 70
     1
102
RTVSPropertyOp22
 70
     1
102
RTVSPropertyOp23
 70
     1
102
RTVSPropertyOp24
 70
     1
102
RTVSPropertyOp25
 70
     1
102
RTVSPropertyOp26
 70
     1
102
RTVSPropertyOp27
 70
     1
102
RTVSPropertyOp28
 70
     1
102
RTVSPropertyOp29
 70
     1
102
RTVSPropertyOp30
 70
     1
102
RTVSPropertyOp31
 70
     1
102
RTVSPropertyOp32
 70
     1
  0
XRECORD
  5
371
102
{ACAD_REACTORS
330
370
102
}
330
370
100
AcDbXrecord
280
     1
102
RTVSPropertyOp0
 70
     1
102
RTVSPropertyOp1
 70
     1
102
RTVSPropertyOp2
 70
     1
102
RTVSPropertyOp3
 70
     1
102
RTVSPropertyOp4
 70
     1
102
RTVSPropertyOp5
 70
     1
102
RTVSPropertyOp6
 70
     1
102
RTVSPropertyOp7
 70
     1
102
RTVSPropertyOp8
 70
     1
102
RTVSPropertyOp9
 70
     1
102
RTVSPropertyOp10
 70
     1
102
RTVSPropertyOp11
 70
     1
102
RTVSPropertyOp12
 70
     1
102
RTVSPropertyOp13
 70
     1
102
RTVSPropertyOp14
 70
     1
102
RTVSPropertyOp15
 70
     1
102
RTVSPropertyOp16
 70
     1
102
RTVSPropertyOp17
 70
     1
102
RTVSPropertyOp18
 70
     1
102
RTVSPropertyOp19
 70
     1
102
RTVSPropertyOp20
 70
     1
102
RTVSPropertyOp21
 70
     1
102
RTVSPropertyOp22
 70
     1
102
RTVSPropertyOp23
 70
     1
102
RTVSPropertyOp24
 70
     1
102
RTVSPropertyOp25
 70
     1
102
RTVSPropertyOp26
 70
     1
102
RTVSPropertyOp27
 70
     1
102
RTVSPropertyOp28
 70
     1
102
RTVSPropertyOp29
 70
     1
102
RTVSPropertyOp30
 70
     1
102
RTVSPropertyOp31
 70
     1
102
RTVSPropertyOp32
 70
     1
  0
XRECORD
  5
379
102
{ACAD_REACTORS
330
378
102
}
330
378
100
AcDbXrecord
280
     1
102
RTVSPropertyOp0
 70
     1
102
RTVSPropertyOp1
 70
     1
102
RTVSPropertyOp2
 70
     1
102
RTVSPropertyOp3
 70
     1
102
RTVSPropertyOp4
 70
     1
102
RTVSPropertyOp5
 70
     1
102
RTVSPropertyOp6
 70
     1
102
RTVSPropertyOp7
 70
     1
102
RTVSPropertyOp8
 70
     1
102
RTVSPropertyOp9
 70
     1
102
RTVSPropertyOp10
 70
     1
102
RTVSPropertyOp11
 70
     1
102
RTVSPropertyOp12
 70
     1
102
RTVSPropertyOp13
 70
     1
102
RTVSPropertyOp14
 70
     1
102
RTVSPropertyOp15
 70
     1
102
RTVSPropertyOp16
 70
     1
102
RTVSPropertyOp17
 70
     1
102
RTVSPropertyOp18
 70
     1
102
RTVSPropertyOp19
 70
     1
102
RTVSPropertyOp20
 70
     1
102
RTVSPropertyOp21
 70
     1
102
RTVSPropertyOp22
 70
     1
102
RTVSPropertyOp23
 70
     1
102
RTVSPropertyOp24
 70
     1
102
RTVSPropertyOp25
 70
     1
102
RTVSPropertyOp26
 70
     1
102
RTVSPropertyOp27
 70
     1
102
RTVSPropertyOp28
 70
     1
102
RTVSPropertyOp29
 70
     1
102
RTVSPropertyOp30
 70
     1
102
RTVSPropertyOp31
 70
     1
102
RTVSPropertyOp32
 70
     1
  0
XRECORD
  5
36D
102
{ACAD_REACTORS
330
36C
102
}
330
36C
100
AcDbXrecord
280
     1
102
RTVSPropertyOp0
 70
     1
102
RTVSPropertyOp1
 70
     1
102
RTVSPropertyOp2
 70
     1
102
RTVSPropertyOp3
 70
     1
102
RTVSPropertyOp4
 70
     1
102
RTVSPropertyOp5
 70
     1
102
RTVSPropertyOp6
 70
     1
102
RTVSPropertyOp7
 70
     1
102
RTVSPropertyOp8
 70
     1
102
RTVSPropertyOp9
 70
     1
102
RTVSPropertyOp10
 70
     1
102
RTVSPropertyOp11
 70
     1
102
RTVSPropertyOp12
 70
     1
102
RTVSPropertyOp13
 70
     1
102
RTVSPropertyOp14
 70
     1
102
RTVSPropertyOp15
 70
     1
102
RTVSPropertyOp16
 70
     1
102
RTVSPropertyOp17
 70
     1
102
RTVSPropertyOp18
 70
     1
102
RTVSPropertyOp19
 70
     1
102
RTVSPropertyOp20
 70
     1
102
RTVSPropertyOp21
 70
     1
102
RTVSPropertyOp22
 70
     1
102
RTVSPropertyOp23
 70
     1
102
RTVSPropertyOp24
 70
     1
102
RTVSPropertyOp25
 70
     1
102
RTVSPropertyOp26
 70
     1
102
RTVSPropertyOp27
 70
     1
102
RTVSPropertyOp28
 70
     1
102
RTVSPropertyOp29
 70
     1
102
RTVSPropertyOp30
 70
     1
102
RTVSPropertyOp31
 70
     1
102
RTVSPropertyOp32
 70
     1
  0
XRECORD
  5
36F
102
{ACAD_REACTORS
330
36E
102
}
330
36E
100
AcDbXrecord
280
     1
102
RTVSPropertyOp0
 70
     1
102
RTVSPropertyOp1
 70
     1
102
RTVSPropertyOp2
 70
     1
102
RTVSPropertyOp3
 70
     1
102
RTVSPropertyOp4
 70
     1
102
RTVSPropertyOp5
 70
     1
102
RTVSPropertyOp6
 70
     1
102
RTVSPropertyOp7
 70
     1
102
RTVSPropertyOp8
 70
     1
102
RTVSPropertyOp9
 70
     1
102
RTVSPropertyOp10
 70
     1
102
RTVSPropertyOp11
 70
     1
102
RTVSPropertyOp12
 70
     1
102
RTVSPropertyOp13
 70
     1
102
RTVSPropertyOp14
 70
     1
102
RTVSPropertyOp15
 70
     1
102
RTVSPropertyOp16
 70
     1
102
RTVSPropertyOp17
 70
     1
102
RTVSPropertyOp18
 70
     1
102
RTVSPropertyOp19
 70
     1
102
RTVSPropertyOp20
 70
     1
102
RTVSPropertyOp21
 70
     1
102
RTVSPropertyOp22
 70
     1
102
RTVSPropertyOp23
 70
     1
102
RTVSPropertyOp24
 70
     1
102
RTVSPropertyOp25
 70
     1
102
RTVSPropertyOp26
 70
     1
102
RTVSPropertyOp27
 70
     1
102
RTVSPropertyOp28
 70
     1
102
RTVSPropertyOp29
 70
     1
102
RTVSPropertyOp30
 70
     1
102
RTVSPropertyOp31
 70
     1
102
RTVSPropertyOp32
 70
     1
  0
XRECORD
  5
377
102
{ACAD_REACTORS
330
376
102
}
330
376
100
AcDbXrecord
280
     1
102
RTVSPropertyOp0
 70
     1
102
RTVSPropertyOp1
 70
     1
102
RTVSPropertyOp2
 70
     1
102
RTVSPropertyOp3
 70
     1
102
RTVSPropertyOp4
 70
     1
102
RTVSPropertyOp5
 70
     1
102
RTVSPropertyOp6
 70
     1
102
RTVSPropertyOp7
 70
     1
102
RTVSPropertyOp8
 70
     1
102
RTVSPropertyOp9
 70
     1
102
RTVSPropertyOp10
 70
     1
102
RTVSPropertyOp11
 70
     1
102
RTVSPropertyOp12
 70
     1
102
RTVSPropertyOp13
 70
     1
102
RTVSPropertyOp14
 70
     1
102
RTVSPropertyOp15
 70
     1
102
RTVSPropertyOp16
 70
     1
102
RTVSPropertyOp17
 70
     1
102
RTVSPropertyOp18
 70
     1
102
RTVSPropertyOp19
 70
     1
102
RTVSPropertyOp20
 70
     1
102
RTVSPropertyOp21
 70
     1
102
RTVSPropertyOp22
 70
     1
102
RTVSPropertyOp23
 70
     1
102
RTVSPropertyOp24
 70
     1
102
RTVSPropertyOp25
 70
     1
102
RTVSPropertyOp26
 70
     1
102
RTVSPropertyOp27
 70
     1
102
RTVSPropertyOp28
 70
     1
102
RTVSPropertyOp29
 70
     1
102
RTVSPropertyOp30
 70
     1
102
RTVSPropertyOp31
 70
     1
102
RTVSPropertyOp32
 70
     1
  0
XRECORD
  5
35B
102
{ACAD_REACTORS
330
35A
102
}
330
35A
100
AcDbXrecord
280
     1
102
RTVSPropertyOp0
 70
     1
102
RTVSPropertyOp1
 70
     1
102
RTVSPropertyOp2
 70
     1
102
RTVSPropertyOp3
 70
     1
102
RTVSPropertyOp4
 70
     1
102
RTVSPropertyOp5
 70
     1
102
RTVSPropertyOp6
 70
     1
102
RTVSPropertyOp7
 70
     1
102
RTVSPropertyOp8
 70
     1
102
RTVSPropertyOp9
 70
     1
102
RTVSPropertyOp10
 70
     1
102
RTVSPropertyOp11
 70
     1
102
RTVSPropertyOp12
 70
     1
102
RTVSPropertyOp13
 70
     1
102
RTVSPropertyOp14
 70
     1
102
RTVSPropertyOp15
 70
     1
102
RTVSPropertyOp16
 70
     1
102
RTVSPropertyOp17
 70
     1
102
RTVSPropertyOp18
 70
     1
102
RTVSPropertyOp19
 70
     1
102
RTVSPropertyOp20
 70
     1
102
RTVSPropertyOp21
 70
     1
102
RTVSPropertyOp22
 70
     1
102
RTVSPropertyOp23
 70
     1
102
RTVSPropertyOp24
 70
     1
102
RTVSPropertyOp25
 70
     1
102
RTVSPropertyOp26
 70
     1
102
RTVSPropertyOp27
 70
     1
102
RTVSPropertyOp28
 70
     1
102
RTVSPropertyOp29
 70
     1
102
RTVSPropertyOp30
 70
     1
102
RTVSPropertyOp31
 70
     1
102
RTVSPropertyOp32
 70
     1
  0
XRECORD
  5
35D
102
{ACAD_REACTORS
330
35C
102
}
330
35C
100
AcDbXrecord
280
     1
102
RTVSPropertyOp0
 70
     1
102
RTVSPropertyOp1
 70
     1
102
RTVSPropertyOp2
 70
     1
102
RTVSPropertyOp3
 70
     1
102
RTVSPropertyOp4
 70
     1
102
RTVSPropertyOp5
 70
     1
102
RTVSPropertyOp6
 70
     1
102
RTVSPropertyOp7
 70
     1
102
RTVSPropertyOp8
 70
     1
102
RTVSPropertyOp9
 70
     1
102
RTVSPropertyOp10
 70
     1
102
RTVSPropertyOp11
 70
     1
102
RTVSPropertyOp12
 70
     1
102
RTVSPropertyOp13
 70
     1
102
RTVSPropertyOp14
 70
     1
102
RTVSPropertyOp15
 70
     1
102
RTVSPropertyOp16
 70
     1
102
RTVSPropertyOp17
 70
     1
102
RTVSPropertyOp18
 70
     1
102
RTVSPropertyOp19
 70
     1
102
RTVSPropertyOp20
 70
     1
102
RTVSPropertyOp21
 70
     1
102
RTVSPropertyOp22
 70
     1
102
RTVSPropertyOp23
 70
     1
102
RTVSPropertyOp24
 70
     1
102
RTVSPropertyOp25
 70
     1
102
RTVSPropertyOp26
 70
     1
102
RTVSPropertyOp27
 70
     1
102
RTVSPropertyOp28
 70
     1
102
RTVSPropertyOp29
 70
     1
102
RTVSPropertyOp30
 70
     1
102
RTVSPropertyOp31
 70
     1
102
RTVSPropertyOp32
 70
     1
  0
XRECORD
  5
35F
102
{ACAD_REACTORS
330
35E
102
}
330
35E
100
AcDbXrecord
280
     1
102
RTVSPropertyOp0
 70
     1
102
RTVSPropertyOp1
 70
     1
102
RTVSPropertyOp2
 70
     1
102
RTVSPropertyOp3
 70
     1
102
RTVSPropertyOp4
 70
     1
102
RTVSPropertyOp5
 70
     1
102
RTVSPropertyOp6
 70
     1
102
RTVSPropertyOp7
 70
     1
102
RTVSPropertyOp8
 70
     1
102
RTVSPropertyOp9
 70
     1
102
RTVSPropertyOp10
 70
     1
102
RTVSPropertyOp11
 70
     1
102
RTVSPropertyOp12
 70
     1
102
RTVSPropertyOp13
 70
     1
102
RTVSPropertyOp14
 70
     1
102
RTVSPropertyOp15
 70
     1
102
RTVSPropertyOp16
 70
     1
102
RTVSPropertyOp17
 70
     1
102
RTVSPropertyOp18
 70
     1
102
RTVSPropertyOp19
 70
     1
102
RTVSPropertyOp20
 70
     1
102
RTVSPropertyOp21
 70
     1
102
RTVSPropertyOp22
 70
     1
102
RTVSPropertyOp23
 70
     1
102
RTVSPropertyOp24
 70
     1
102
RTVSPropertyOp25
 70
     1
102
RTVSPropertyOp26
 70
     1
102
RTVSPropertyOp27
 70
     1
102
RTVSPropertyOp28
 70
     1
102
RTVSPropertyOp29
 70
     1
102
RTVSPropertyOp30
 70
     1
102
RTVSPropertyOp31
 70
     1
102
RTVSPropertyOp32
 70
     1
  0
XRECORD
  5
361
102
{ACAD_REACTORS
330
360
102
}
330
360
100
AcDbXrecord
280
     1
102
RTVSPropertyOp0
 70
     1
102
RTVSPropertyOp1
 70
     1
102
RTVSPropertyOp2
 70
     1
102
RTVSPropertyOp3
 70
     1
102
RTVSPropertyOp4
 70
     1
102
RTVSPropertyOp5
 70
     1
102
RTVSPropertyOp6
 70
     1
102
RTVSPropertyOp7
 70
     1
102
RTVSPropertyOp8
 70
     1
102
RTVSPropertyOp9
 70
     1
102
RTVSPropertyOp10
 70
     1
102
RTVSPropertyOp11
 70
     1
102
RTVSPropertyOp12
 70
     1
102
RTVSPropertyOp13
 70
     1
102
RTVSPropertyOp14
 70
     1
102
RTVSPropertyOp15
 70
     1
102
RTVSPropertyOp16
 70
     1
102
RTVSPropertyOp17
 70
     1
102
RTVSPropertyOp18
 70
     1
102
RTVSPropertyOp19
 70
     1
102
RTVSPropertyOp20
 70
     1
102
RTVSPropertyOp21
 70
     1
102
RTVSPropertyOp22
 70
     1
102
RTVSPropertyOp23
 70
     1
102
RTVSPropertyOp24
 70
     1
102
RTVSPropertyOp25
 70
     1
102
RTVSPropertyOp26
 70
     1
102
RTVSPropertyOp27
 70
     1
102
RTVSPropertyOp28
 70
     1
102
RTVSPropertyOp29
 70
     1
102
RTVSPropertyOp30
 70
     1
102
RTVSPropertyOp31
 70
     1
102
RTVSPropertyOp32
 70
     1
  0
XRECORD
  5
375
102
{ACAD_REACTORS
330
374
102
}
330
374
100
AcDbXrecord
280
     1
102
RTVSPropertyOp0
 70
     1
102
RTVSPropertyOp1
 70
     1
102
RTVSPropertyOp2
 70
     1
102
RTVSPropertyOp3
 70
     1
102
RTVSPropertyOp4
 70
     1
102
RTVSPropertyOp5
 70
     1
102
RTVSPropertyOp6
 70
     1
102
RTVSPropertyOp7
 70
     1
102
RTVSPropertyOp8
 70
     1
102
RTVSPropertyOp9
 70
     1
102
RTVSPropertyOp10
 70
     1
102
RTVSPropertyOp11
 70
     1
102
RTVSPropertyOp12
 70
     1
102
RTVSPropertyOp13
 70
     1
102
RTVSPropertyOp14
 70
     1
102
RTVSPropertyOp15
 70
     1
102
RTVSPropertyOp16
 70
     1
102
RTVSPropertyOp17
 70
     1
102
RTVSPropertyOp18
 70
     1
102
RTVSPropertyOp19
 70
     1
102
RTVSPropertyOp20
 70
     1
102
RTVSPropertyOp21
 70
     1
102
RTVSPropertyOp22
 70
     1
102
RTVSPropertyOp23
 70
     1
102
RTVSPropertyOp24
 70
     1
102
RTVSPropertyOp25
 70
     1
102
RTVSPropertyOp26
 70
     1
102
RTVSPropertyOp27
 70
     1
102
RTVSPropertyOp28
 70
     1
102
RTVSPropertyOp29
 70
     1
102
RTVSPropertyOp30
 70
     1
102
RTVSPropertyOp31
 70
     1
102
RTVSPropertyOp32
 70
     1
  0
XRECORD
  5
36B
102
{ACAD_REACTORS
330
36A
102
}
330
36A
100
AcDbXrecord
280
     1
102
RTVSPropertyOp0
 70
     1
102
RTVSPropertyOp1
 70
     1
102
RTVSPropertyOp2
 70
     1
102
RTVSPropertyOp3
 70
     1
102
RTVSPropertyOp4
 70
     1
102
RTVSPropertyOp5
 70
     1
102
RTVSPropertyOp6
 70
     1
102
RTVSPropertyOp7
 70
     1
102
RTVSPropertyOp8
 70
     1
102
RTVSPropertyOp9
 70
     1
102
RTVSPropertyOp10
 70
     1
102
RTVSPropertyOp11
 70
     1
102
RTVSPropertyOp12
 70
     1
102
RTVSPropertyOp13
 70
     1
102
RTVSPropertyOp14
 70
     1
102
RTVSPropertyOp15
 70
     1
102
RTVSPropertyOp16
 70
     1
102
RTVSPropertyOp17
 70
     1
102
RTVSPropertyOp18
 70
     1
102
RTVSPropertyOp19
 70
     1
102
RTVSPropertyOp20
 70
     1
102
RTVSPropertyOp21
 70
     1
102
RTVSPropertyOp22
 70
     1
102
RTVSPropertyOp23
 70
     1
102
RTVSPropertyOp24
 70
     1
102
RTVSPropertyOp25
 70
     1
102
RTVSPropertyOp26
 70
     1
102
RTVSPropertyOp27
 70
     1
102
RTVSPropertyOp28
 70
     1
102
RTVSPropertyOp29
 70
     1
102
RTVSPropertyOp30
 70
     1
102
RTVSPropertyOp31
 70
     1
102
RTVSPropertyOp32
 70
     1
  0
XRECORD
  5
373
102
{ACAD_REACTORS
330
372
102
}
330
372
100
AcDbXrecord
280
     1
102
RTVSPropertyOp0
 70
     1
102
RTVSPropertyOp1
 70
     1
102
RTVSPropertyOp2
 70
     1
102
RTVSPropertyOp3
 70
     1
102
RTVSPropertyOp4
 70
     1
102
RTVSPropertyOp5
 70
     1
102
RTVSPropertyOp6
 70
     1
102
RTVSPropertyOp7
 70
     1
102
RTVSPropertyOp8
 70
     1
102
RTVSPropertyOp9
 70
     1
102
RTVSPropertyOp10
 70
     1
102
RTVSPropertyOp11
 70
     1
102
RTVSPropertyOp12
 70
     1
102
RTVSPropertyOp13
 70
     1
102
RTVSPropertyOp14
 70
     1
102
RTVSPropertyOp15
 70
     1
102
RTVSPropertyOp16
 70
     1
102
RTVSPropertyOp17
 70
     1
102
RTVSPropertyOp18
 70
     1
102
RTVSPropertyOp19
 70
     1
102
RTVSPropertyOp20
 70
     1
102
RTVSPropertyOp21
 70
     1
102
RTVSPropertyOp22
 70
     1
102
RTVSPropertyOp23
 70
     1
102
RTVSPropertyOp24
 70
     1
102
RTVSPropertyOp25
 70
     1
102
RTVSPropertyOp26
 70
     1
102
RTVSPropertyOp27
 70
     1
102
RTVSPropertyOp28
 70
     1
102
RTVSPropertyOp29
 70
     1
102
RTVSPropertyOp30
 70
     1
102
RTVSPropertyOp31
 70
     1
102
RTVSPropertyOp32
 70
     1
  0
ENDSEC
  0
EOF
