  0
SECTION
  2
HEADER
  9
$ACADVER
  1
AC1018
  9
$ACADMAINTVER
 70
     0
  9
$DWGCODEPAGE
  3
ANSI_1252
  9
$INSBASE
 10
0.0
 20
0.0
 30
0.0
  9
$EXTMIN
 10
-237.7499974102409
 20
9.47063561947402
 30
0.0
  9
$EXTMAX
 10
59.25000258975717
 20
219.4706356194741
 30
0.0
  9
$LIMMIN
 10
0.0
 20
0.0
  9
$LIMMAX
 10
12.0
 20
9.0
  9
$ORTHOMODE
 70
     0
  9
$REGENMODE
 70
     1
  9
$FILLMODE
 70
     1
  9
$QTEXTMODE
 70
     0
  9
$MIRRTEXT
 70
     1
  9
$LTSCALE
 40
1.0
  9
$ATTMODE
 70
     1
  9
$TEXTSIZE
 40
0.2
  9
$TRACEWID
 40
0.05
  9
$TEXTSTYLE
  7
Standard
  9
$CLAYER
  8
0
  9
$CELTYPE
  6
ByLayer
  9
$CECOLOR
 62
   256
  9
$CELTSCALE
 40
1.0
  9
$DISPSILH
 70
     0
  9
$DIMSCALE
 40
1.0
  9
$DIMASZ
 40
0.18
  9
$DIMEXO
 40
0.0625
  9
$DIMDLI
 40
0.38
  9
$DIMRND
 40
0.0
  9
$DIMDLE
 40
0.0
  9
$DIMEXE
 40
0.18
  9
$DIMTP
 40
0.0
  9
$DIMTM
 40
0.0
  9
$DIMTXT
 40
0.18
  9
$DIMCEN
 40
0.09
  9
$DIMTSZ
 40
0.0
  9
$DIMTOL
 70
     0
  9
$DIMLIM
 70
     0
  9
$DIMTIH
 70
     1
  9
$DIMTOH
 70
     1
  9
$DIMSE1
 70
     0
  9
$DIMSE2
 70
     0
  9
$DIMTAD
 70
     0
  9
$DIMZIN
 70
     0
  9
$DIMBLK
  1

  9
$DIMASO
 70
     1
  9
$DIMSHO
 70
     1
  9
$DIMPOST
  1

  9
$DIMAPOST
  1

  9
$DIMALT
 70
     0
  9
$DIMALTD
 70
     2
  9
$DIMALTF
 40
25.4
  9
$DIMLFAC
 40
1.0
  9
$DIMTOFL
 70
     0
  9
$DIMTVP
 40
0.0
  9
$DIMTIX
 70
     0
  9
$DIMSOXD
 70
     0
  9
$DIMSAH
 70
     0
  9
$DIMBLK1
  1

  9
$DIMBLK2
  1

  9
$DIMSTYLE
  2
Standard
  9
$DIMCLRD
 70
     0
  9
$DIMCLRE
 70
     0
  9
$DIMCLRT
 70
     0
  9
$DIMTFAC
 40
1.0
  9
$DIMGAP
 40
0.09
  9
$DIMJUST
 70
     0
  9
$DIMSD1
 70
     0
  9
$DIMSD2
 70
     0
  9
$DIMTOLJ
 70
     1
  9
$DIMTZIN
 70
     0
  9
$DIMALTZ
 70
     0
  9
$DIMALTTZ
 70
     0
  9
$DIMUPT
 70
     0
  9
$DIMDEC
 70
     4
  9
$DIMTDEC
 70
     4
  9
$DIMALTU
 70
     2
  9
$DIMALTTD
 70
     2
  9
$DIMTXSTY
  7
Standard
  9
$DIMAUNIT
 70
     0
  9
$DIMADEC
 70
     0
  9
$DIMALTRND
 40
0.0
  9
$DIMAZIN
 70
     0
  9
$DIMDSEP
 70
    46
  9
$DIMATFIT
 70
     3
  9
$DIMFRAC
 70
     0
  9
$DIMLDRBLK
  1

  9
$DIMLUNIT
 70
     2
  9
$DIMLWD
 70
    -2
  9
$DIMLWE
 70
    -2
  9
$DIMTMOVE
 70
     0
  9
$LUNITS
 70
     2
  9
$LUPREC
 70
     4
  9
$SKETCHINC
 40
0.1
  9
$FILLETRAD
 40
0.5
  9
$AUNITS
 70
     0
  9
$AUPREC
 70
     0
  9
$MENU
  1
.
  9
$ELEVATION
 40
0.0
  9
$PELEVATION
 40
0.0
  9
$THICKNESS
 40
0.0
  9
$LIMCHECK
 70
     0
  9
$CHAMFERA
 40
0.5
  9
$CHAMFERB
 40
0.5
  9
$CHAMFERC
 40
1.0
  9
$CHAMFERD
 40
0.0
  9
$SKPOLY
 70
     0
  9
$TDCREATE
 40
2458137.579583704
  9
$TDUCREATE
 40
2458137.537917037
  9
$TDUPDATE
 40
2458137.579584063
  9
$TDUUPDATE
 40
2458137.537917396
  9
$TDINDWG
 40
0.0000000116
  9
$TDUSRTIMER
 40
0.0000000116
  9
$USRTIMER
 70
     1
  9
$ANGBASE
 50
0.0
  9
$ANGDIR
 70
     0
  9
$PDMODE
 70
     0
  9
$PDSIZE
 40
0.0
  9
$PLINEWID
 40
0.0
  9
$SPLFRAME
 70
     0
  9
$SPLINETYPE
 70
     6
  9
$SPLINESEGS
 70
     8
  9
$HANDSEED
  5
267
  9
$SURFTAB1
 70
     6
  9
$SURFTAB2
 70
     6
  9
$SURFTYPE
 70
     6
  9
$SURFU
 70
     6
  9
$SURFV
 70
     6
  9
$UCSBASE
  2

  9
$UCSNAME
  2

  9
$UCSORG
 10
0.0
 20
0.0
 30
0.0
  9
$UCSXDIR
 10
1.0
 20
0.0
 30
0.0
  9
$UCSYDIR
 10
0.0
 20
1.0
 30
0.0
  9
$UCSORTHOREF
  2

  9
$UCSORTHOVIEW
 70
     0
  9
$UCSORGTOP
 10
0.0
 20
0.0
 30
0.0
  9
$UCSORGBOTTOM
 10
0.0
 20
0.0
 30
0.0
  9
$UCSORGLEFT
 10
0.0
 20
0.0
 30
0.0
  9
$UCSORGRIGHT
 10
0.0
 20
0.0
 30
0.0
  9
$UCSORGFRONT
 10
0.0
 20
0.0
 30
0.0
  9
$UCSORGBACK
 10
0.0
 20
0.0
 30
0.0
  9
$PUCSBASE
  2

  9
$PUCSNAME
  2

  9
$PUCSORG
 10
0.0
 20
0.0
 30
0.0
  9
$PUCSXDIR
 10
1.0
 20
0.0
 30
0.0
  9
$PUCSYDIR
 10
0.0
 20
1.0
 30
0.0
  9
$PUCSORTHOREF
  2

  9
$PUCSORTHOVIEW
 70
     0
  9
$PUCSORGTOP
 10
0.0
 20
0.0
 30
0.0
  9
$PUCSORGBOTTOM
 10
0.0
 20
0.0
 30
0.0
  9
$PUCSORGLEFT
 10
0.0
 20
0.0
 30
0.0
  9
$PUCSORGRIGHT
 10
0.0
 20
0.0
 30
0.0
  9
$PUCSORGFRONT
 10
0.0
 20
0.0
 30
0.0
  9
$PUCSORGBACK
 10
0.0
 20
0.0
 30
0.0
  9
$USERI1
 70
     0
  9
$USERI2
 70
     0
  9
$USERI3
 70
     0
  9
$USERI4
 70
     0
  9
$USERI5
 70
     0
  9
$USERR1
 40
18.1
  9
$USERR2
 40
0.0
  9
$USERR3
 40
0.0
  9
$USERR4
 40
0.0
  9
$USERR5
 40
0.0
  9
$WORLDVIEW
 70
     1
  9
$SHADEDGE
 70
     3
  9
$SHADEDIF
 70
    70
  9
$TILEMODE
 70
     1
  9
$MAXACTVP
 70
    64
  9
$PINSBASE
 10
0.0
 20
0.0
 30
0.0
  9
$PLIMCHECK
 70
     0
  9
$PEXTMIN
 10
1.00000000000000E+20
 20
1.00000000000000E+20
 30
1.00000000000000E+20
  9
$PEXTMAX
 10
-1.00000000000000E+20
 20
-1.00000000000000E+20
 30
-1.00000000000000E+20
  9
$PLIMMIN
 10
0.0
 20
0.0
  9
$PLIMMAX
 10
12.0
 20
9.0
  9
$UNITMODE
 70
     0
  9
$VISRETAIN
 70
     1
  9
$PLINEGEN
 70
     0
  9
$PSLTSCALE
 70
     1
  9
$TREEDEPTH
 70
  3020
  9
$CMLSTYLE
  2
Standard
  9
$CMLJUST
 70
     0
  9
$CMLSCALE
 40
1.0
  9
$PROXYGRAPHICS
 70
     1
  9
$MEASUREMENT
 70
     1
  9
$CELWEIGHT
370
    -1
  9
$ENDCAPS
280
     0
  9
$JOINSTYLE
280
     0
  9
$LWDISPLAY
290
     0
  9
$INSUNITS
 70
     4
  9
$HYPERLINKBASE
  1

  9
$STYLESHEET
  1

  9
$XEDIT
290
     1
  9
$CEPSNTYPE
380
     0
  9
$PSTYLEMODE
290
     1
  9
$FINGERPRINTGUID
  2
{DC90FD19-3E7D-41AF-9C73-0FD78BF65792}
  9
$VERSIONGUID
  2
{FAEB1C32-E019-11D5-929B-00C0DF256EC4}
  9
$EXTNAMES
290
     1
  9
$PSVPSCALE
 40
0.0
  9
$OLESTARTUP
290
     0
  9
$SORTENTS
280
   127
  9
$INDEXCTL
280
     0
  9
$HIDETEXT
280
     1
  9
$XCLIPFRAME
290
     0
  9
$HALOGAP
280
     0
  9
$OBSCOLOR
 70
   257
  9
$OBSLTYPE
280
     0
  9
$INTERSECTIONDISPLAY
280
     0
  9
$INTERSECTIONCOLOR
 70
   257
  9
$DIMASSOC
280
     2
  9
$PROJECTNAME
  1

  0
ENDSEC
  0
SECTION
  2
CLASSES
  0
CLASS
  1
ACDBDICTIONARYWDFLT
  2
AcDbDictionaryWithDefault
  3
ObjectDBX Classes
 90
        0
 91
        4
280
     0
281
     0
  0
CLASS
  1
VISUALSTYLE
  2
AcDbVisualStyle
  3
ObjectDBX Classes
 90
     4095
 91
        4
280
     0
281
     0
  0
CLASS
  1
MATERIAL
  2
AcDbMaterial
  3
ObjectDBX Classes
 90
     1153
 91
        4
280
     0
281
     0
  0
ENDSEC
  0
SECTION
  2
TABLES
  0
TABLE
  2
VPORT
  5
8
330
0
100
AcDbSymbolTable
 70
     1
  0
VPORT
  5
29
330
8
100
AcDbSymbolTableRecord
100
AcDbViewportTableRecord
  2
*Active
 70
     0
 10
0.0
 20
0.0
 11
1.0
 21
1.0
 12
-89.24999741024186
 22
114.4706356194741
 13
0.0
 23
0.0
 14
0.5
 24
0.5
 15
0.5
 25
0.5
 16
0.0
 26
0.0
 36
1.0
 17
0.0
 27
0.0
 37
0.0
 40
231.0000000000001
 41
1.60267857142857
 42
50.0
 43
0.0
 44
0.0
 50
0.0
 51
0.0
 71
     0
 72
   100
 73
     1
 74
     3
 75
     0
 76
     0
 77
     0
 78
     0
281
     0
 65
     1
110
0.0
120
0.0
130
0.0
111
1.0
121
0.0
131
0.0
112
0.0
122
1.0
132
0.0
 79
     0
146
0.0
  0
ENDTAB
  0
TABLE
  2
LTYPE
  5
5
330
0
100
AcDbSymbolTable
 70
     8
  0
LTYPE
  5
14
330
5
100
AcDbSymbolTableRecord
100
AcDbLinetypeTableRecord
  2
ByBlock
 70
     0
  3

 72
    65
 73
     0
 40
0.0
  0
LTYPE
  5
15
330
5
100
AcDbSymbolTableRecord
100
AcDbLinetypeTableRecord
  2
ByLayer
 70
     0
  3

 72
    65
 73
     0
 40
0.0
  0
LTYPE
  5
16
330
5
100
AcDbSymbolTableRecord
100
AcDbLinetypeTableRecord
  2
Continuous
 70
     0
  3
Solid line
 72
    65
 73
     0
 40
0.0
  0
LTYPE
  5
3F
330
5
100
AcDbSymbolTableRecord
100
AcDbLinetypeTableRecord
  2
DASHED
 70
     0
  3
Dashed
 72
    65
 73
     2
 40
15.0
 49
7.0
 74
     0
 49
-8.0
 74
     0
  0
LTYPE
  5
40
330
5
100
AcDbSymbolTableRecord
100
AcDbLinetypeTableRecord
  2
DOTTED
 70
     0
  3
Dotted
 72
    65
 73
     2
 40
1.0
 49
0.0
 74
     0
 49
-1.0
 74
     0
  0
LTYPE
  5
41
330
5
100
AcDbSymbolTableRecord
100
AcDbLinetypeTableRecord
  2
DOT_CENTER
 70
     0
  3
Dot_Center
 72
    65
 73
     4
 40
14.0
 49
12.0
 74
     0
 49
-1.0
 74
     0
 49
0.0
 74
     0
 49
-1.0
 74
     0
  0
LTYPE
  5
42
330
5
100
AcDbSymbolTableRecord
100
AcDbLinetypeTableRecord
  2
LONG_DASHED
 70
     0
  3
Long_Dashed
 72
    65
 73
     2
 40
15.0
 49
10.0
 74
     0
 49
-5.0
 74
     0
  0
LTYPE
  5
43
330
5
100
AcDbSymbolTableRecord
100
AcDbLinetypeTableRecord
  2
DASH_CENTER
 70
     0
  3
Dash_Center
 72
    65
 73
     4
 40
14.0
 49
11.0
 74
     0
 49
-1.0
 74
     0
 49
1.0
 74
     0
 49
-1.0
 74
     0
  0
LTYPE
  5
44
330
5
100
AcDbSymbolTableRecord
100
AcDbLinetypeTableRecord
  2
PHANTOM
 70
     0
  3
Phantom
 72
    65
 73
     6
 40
13.0
 49
10.0
 74
     0
 49
-1.0
 74
     0
 49
0.0
 74
     0
 49
-1.0
 74
     0
 49
0.0
 74
     0
 49
-1.0
 74
     0
  0
LTYPE
  5
45
330
5
100
AcDbSymbolTableRecord
100
AcDbLinetypeTableRecord
  2
CENTER_DASH_DASH
 70
     0
  3
Center_Dash_Dash
 72
    65
 73
     6
 40
14.0
 49
9.0
 74
     0
 49
-1.0
 74
     0
 49
1.0
 74
     0
 49
-1.0
 74
     0
 49
1.0
 74
     0
 49
-1.0
 74
     0
  0
ENDTAB
  0
TABLE
  2
LAYER
  5
2
330
0
100
AcDbSymbolTable
 70
     2
  0
LAYER
  5
10
330
2
100
AcDbSymbolTableRecord
100
AcDbLayerTableRecord
  2
0
 70
     0
 62
     7
  6
Continuous
370
    -3
390
F
  0
LAYER
  5
46
330
2
100
AcDbSymbolTableRecord
100
AcDbLayerTableRecord
  2
1
 70
     0
 62
     7
  6
Continuous
370
    -3
390
F
  0
ENDTAB
  0
TABLE
  2
STYLE
  5
3
330
0
100
AcDbSymbolTable
 70
     5
  0
STYLE
  5
11
330
3
100
AcDbSymbolTableRecord
100
AcDbTextStyleTableRecord
  2
Standard
 70
     0
 40
0.0
 41
1.0
 50
0.0
 71
     0
 42
0.2
  3
txt
  4

  0
STYLE
  5
17D
330
3
100
AcDbSymbolTableRecord
100
AcDbTextStyleTableRecord
  2
CONVERTER_11
 70
     0
 40
0.0
 41
0.9
 50
0.0
 71
     0
 42
0.2
  3
txt.shx
  4

  0
STYLE
  5
184
330
3
100
AcDbSymbolTableRecord
100
AcDbTextStyleTableRecord
  2
CONVERTER_12
 70
     0
 40
0.0
 41
0.81
 50
0.0
 71
     0
 42
0.2
  3
txt.shx
  4

  0
STYLE
  5
19A
330
3
100
AcDbSymbolTableRecord
100
AcDbTextStyleTableRecord
  2
CONVERTER_13
 70
     0
 40
0.0
 41
0.72
 50
0.0
 71
     0
 42
0.2
  3
txt.shx
  4

  0
STYLE
  5
19D
330
3
100
AcDbSymbolTableRecord
100
AcDbTextStyleTableRecord
  2
CONVERTER_14
 70
     0
 40
0.0
 41
0.855
 50
0.0
 71
     0
 42
0.2
  3
txt.shx
  4

  0
ENDTAB
  0
TABLE
  2
VIEW
  5
6
330
0
100
AcDbSymbolTable
 70
     0
  0
ENDTAB
  0
TABLE
  2
UCS
  5
7
330
0
100
AcDbSymbolTable
 70
     0
  0
ENDTAB
  0
TABLE
  2
APPID
  5
9
330
0
100
AcDbSymbolTable
 70
     1
  0
APPID
  5
12
330
9
100
AcDbSymbolTableRecord
100
AcDbRegAppTableRecord
  2
ACAD
 70
     0
  0
ENDTAB
  0
TABLE
  2
DIMSTYLE
  5
A
330
0
100
AcDbSymbolTable
 70
     4
100
AcDbDimStyleTable
  0
DIMSTYLE
105
27
330
A
100
AcDbSymbolTableRecord
100
AcDbDimStyleTableRecord
  2
Standard
 70
     0
178
     0
340
11
  0
DIMSTYLE
105
1F3
102
{ACAD_REACTORS
330
1F4
102
}
330
A
100
AcDbSymbolTableRecord
100
AcDbDimStyleTableRecord
  2
ME10_DIM_10
 70
     0
 41
3.5
 42
0.0
 44
1.5
 73
     0
 74
     0
 77
     1
 78
     8
140
3.5
147
1.5
172
     1
173
     1
174
     1
175
     1
176
     2
177
     2
178
     3
340
17D
  0
DIMSTYLE
105
232
102
{ACAD_REACTORS
330
233
102
}
330
A
100
AcDbSymbolTableRecord
100
AcDbDimStyleTableRecord
  2
ME10_DIM_11
 70
     0
 41
3.5
 42
0.0
 44
1.5
 73
     0
 74
     0
 77
     1
 78
     8
140
3.5
147
1.5
172
     1
173
     1
174
     1
175
     1
176
     2
177
     2
178
     3
340
17D
  0
DIMSTYLE
105
23D
102
{ACAD_REACTORS
330
23E
102
}
330
A
100
AcDbSymbolTableRecord
100
AcDbDimStyleTableRecord
  2
ME10_DIM_12
 70
     0
 41
3.5
 42
0.0
 44
1.5
 73
     0
 74
     0
 77
     1
 78
     8
140
3.5
147
1.5
172
     1
173
     1
174
     1
175
     1
176
     2
177
     2
178
     3
340
17D
  0
ENDTAB
  0
TABLE
  2
BLOCK_RECORD
  5
1
330
0
100
AcDbSymbolTable
 70
    20
  0
BLOCK_RECORD
  5
1F
330
1
100
AcDbSymbolTableRecord
100
AcDbBlockTableRecord
  2
*Model_Space
340
22
  0
BLOCK_RECORD
  5
1B
330
1
100
AcDbSymbolTableRecord
100
AcDbBlockTableRecord
  2
*Paper_Space
340
1E
  0
BLOCK_RECORD
  5
23
330
1
100
AcDbSymbolTableRecord
100
AcDbBlockTableRecord
  2
*Paper_Space0
340
26
  0
BLOCK_RECORD
  5
47
330
1
100
AcDbSymbolTableRecord
100
AcDbBlockTableRecord
  2
_rahmen
340
0
102
{BLKREFS
331
4E
102
}
  0
BLOCK_RECORD
  5
4A
330
1
100
AcDbSymbolTableRecord
100
AcDbBlockTableRecord
  2
_punkt
340
0
102
{BLKREFS
331
4F
102
}
  0
BLOCK_RECORD
  5
4D
330
1
100
AcDbSymbolTableRecord
100
AcDbBlockTableRecord
  2
A4I_CS
340
0
102
{BLKREFS
331
7D
102
}
  0
BLOCK_RECORD
  5
52
330
1
100
AcDbSymbolTableRecord
100
AcDbBlockTableRecord
  2
TS_URTK_SS-select__1
340
0
102
{BLKREFS
331
56
102
}
  0
BLOCK_RECORD
  5
55
330
1
100
AcDbSymbolTableRecord
100
AcDbBlockTableRecord
  2
AllgSicht1
340
0
102
{BLKREFS
331
7E
102
}
  0
BLOCK_RECORD
  5
59
330
1
100
AcDbSymbolTableRecord
100
AcDbBlockTableRecord
  2
TS_URTK_SS-select__2
340
0
102
{BLKREFS
331
5D
102
}
  0
BLOCK_RECORD
  5
5C
330
1
100
AcDbSymbolTableRecord
100
AcDbBlockTableRecord
  2
Drfsicht1
340
0
102
{BLKREFS
331
7F
102
}
  0
BLOCK_RECORD
  5
60
330
1
100
AcDbSymbolTableRecord
100
AcDbBlockTableRecord
  2
TS_URTK_SS-select__3
340
0
102
{BLKREFS
331
64
102
}
  0
BLOCK_RECORD
  5
63
330
1
100
AcDbSymbolTableRecord
100
AcDbBlockTableRecord
  2
Rckans1
340
0
102
{BLKREFS
331
80
102
}
  0
BLOCK_RECORD
  5
67
330
1
100
AcDbSymbolTableRecord
100
AcDbBlockTableRecord
  2
TS_URTK_SS-select__4
340
0
102
{BLKREFS
331
6B
102
}
  0
BLOCK_RECORD
  5
6A
330
1
100
AcDbSymbolTableRecord
100
AcDbBlockTableRecord
  2
SA_Links1
340
0
102
{BLKREFS
331
81
102
}
  0
BLOCK_RECORD
  5
6E
330
1
100
AcDbSymbolTableRecord
100
AcDbBlockTableRecord
  2
TS_URTK_SS-select__5
340
0
102
{BLKREFS
331
72
102
}
  0
BLOCK_RECORD
  5
71
330
1
100
AcDbSymbolTableRecord
100
AcDbBlockTableRecord
  2
SA_Rechts1
340
0
102
{BLKREFS
331
82
102
}
  0
BLOCK_RECORD
  5
75
330
1
100
AcDbSymbolTableRecord
100
AcDbBlockTableRecord
  2
TS_URTK_SS-select__6
340
0
102
{BLKREFS
331
79
102
}
  0
BLOCK_RECORD
  5
78
330
1
100
AcDbSymbolTableRecord
100
AcDbBlockTableRecord
  2
Vordans1
340
0
102
{BLKREFS
331
83
102
}
  0
BLOCK_RECORD
  5
7C
330
1
100
AcDbSymbolTableRecord
100
AcDbBlockTableRecord
  2
1
340
0
102
{BLKREFS
331
86
102
}
  0
BLOCK_RECORD
  5
1E8
330
1
100
AcDbSymbolTableRecord
100
AcDbBlockTableRecord
  2
*D17
340
0
  0
BLOCK_RECORD
  5
229
330
1
100
AcDbSymbolTableRecord
100
AcDbBlockTableRecord
  2
*D18
340
0
  0
BLOCK_RECORD
  5
234
330
1
100
AcDbSymbolTableRecord
100
AcDbBlockTableRecord
  2
*D19
340
0
  0
ENDTAB
  0
ENDSEC
  0
SECTION
  2
BLOCKS
  0
BLOCK
  5
20
330
1F
100
AcDbEntity
  8
0
100
AcDbBlockBegin
  2
*Model_Space
 70
     0
 10
0.0
 20
0.0
 30
0.0
  3
*Model_Space
  1

  0
ENDBLK
  5
21
330
1F
100
AcDbEntity
  8
0
100
AcDbBlockEnd
  0
BLOCK
  5
1C
330
1B
100
AcDbEntity
 67
     1
  8
0
100
AcDbBlockBegin
  2
*Paper_Space
 70
     0
 10
0.0
 20
0.0
 30
0.0
  3
*Paper_Space
  1

  0
ENDBLK
  5
1D
330
1B
100
AcDbEntity
 67
     1
  8
0
100
AcDbBlockEnd
  0
BLOCK
  5
24
330
23
100
AcDbEntity
  8
0
100
AcDbBlockBegin
  2
*Paper_Space0
 70
     0
 10
0.0
 20
0.0
 30
0.0
  3
*Paper_Space0
  1

  0
ENDBLK
  5
25
330
23
100
AcDbEntity
  8
0
100
AcDbBlockEnd
  0
BLOCK
  5
48
330
47
100
AcDbEntity
  8
0
100
AcDbBlockBegin
  2
_rahmen
 70
     0
 10
54.25000258975818
 20
9.47063561947402
 30
0.0
  3
_rahmen
  1

  0
LINE
  5
87
330
47
100
AcDbEntity
  8
1
  6
Continuous
 62
     6
100
AcDbLine
 10
-75.29480193699183
 20
39.97063561947414
 30
0.0
 11
54.25000258975987
 21
39.97063561947414
 31
0.0
  0
LINE
  5
88
330
47
100
AcDbEntity
  8
1
  6
Continuous
 62
     7
100
AcDbLine
 10
-57.09480193699181
 20
18.72063561947414
 30
0.0
 11
-38.89480193699191
 21
18.72063561947414
 31
0.0
  0
LINE
  5
89
330
47
100
AcDbEntity
  8
1
  6
Continuous
 62
     6
100
AcDbLine
 10
-57.09480193699181
 20
14.47063561947414
 30
0.0
 11
-75.29480193699183
 21
14.47063561947402
 31
0.0
  0
LINE
  5
8A
330
47
100
AcDbEntity
  8
1
  6
Continuous
 62
     7
100
AcDbLine
 10
-57.09480193699181
 20
18.72063561947414
 30
0.0
 11
-57.09480193699181
 21
14.47063561947414
 31
0.0
  0
LINE
  5
8B
330
47
100
AcDbEntity
  8
1
  6
Continuous
 62
     7
100
AcDbLine
 10
-38.89480193699191
 20
18.72063561947414
 30
0.0
 11
-38.89480193699191
 21
14.47063561947402
 31
0.0
  0
LINE
  5
8C
330
47
100
AcDbEntity
  8
1
  6
Continuous
 62
     7
100
AcDbLine
 10
-75.29480193699183
 20
18.72063561947402
 30
0.0
 11
-75.29480193699183
 21
14.47063561947402
 31
0.0
  0
LINE
  5
8D
330
47
100
AcDbEntity
  8
1
  6
Continuous
 62
     7
100
AcDbLine
 10
-75.29480193699183
 20
18.72063561947402
 30
0.0
 11
-57.09480193699181
 21
18.72063561947414
 31
0.0
  0
LINE
  5
8E
330
47
100
AcDbEntity
  8
1
  6
Continuous
 62
     2
100
AcDbLine
 10
-66.05814705042923
 20
38.09563561947405
 30
0.0
 11
-66.05814705042923
 21
33.09563561947405
 31
0.0
  0
LINE
  5
8F
330
47
100
AcDbEntity
  8
1
  6
Continuous
 62
     2
100
AcDbLine
 10
-66.05814705042923
 20
33.09563561947405
 30
0.0
 11
-71.05814705042923
 21
34.34563561947405
 31
0.0
  0
LINE
  5
90
330
47
100
AcDbEntity
  8
1
  6
Continuous
 62
     2
100
AcDbLine
 10
-71.05814705042923
 20
34.34563561947405
 30
0.0
 11
-71.05814705042923
 21
36.84563561947405
 31
0.0
  0
LINE
  5
91
330
47
100
AcDbEntity
  8
1
  6
Continuous
 62
     2
100
AcDbLine
 10
-71.05814705042923
 20
36.84563561947405
 30
0.0
 11
-66.05814705042923
 21
38.09563561947405
 31
0.0
  0
LINE
  5
92
330
47
100
AcDbEntity
  8
1
  6
Continuous
 62
     6
100
AcDbLine
 10
-197.74999741024
 20
14.47063561947414
 30
0.0
 11
-232.7499974102399
 21
14.47063561947414
 31
0.0
  0
LINE
  5
93
330
47
100
AcDbEntity
  8
1
  6
Continuous
 62
     6
100
AcDbLine
 10
54.25000258975987
 20
31.47063561947414
 30
0.0
 11
54.25000258975948
 21
22.97063561947414
 31
0.0
  0
LINE
  5
94
330
47
100
AcDbEntity
  8
1
  6
Continuous
 62
     6
100
AcDbLine
 10
-38.89480193699191
 20
14.47063561947402
 30
0.0
 11
-39.24999741024183
 21
14.47063561947414
 31
0.0
  0
LINE
  5
95
330
47
100
AcDbEntity
  8
1
  6
Continuous
 62
     6
100
AcDbLine
 10
-191.549997410242
 20
14.47063561947402
 30
0.0
 11
-197.74999741024
 21
14.47063561947414
 31
0.0
  0
LINE
  5
96
330
47
100
AcDbEntity
  8
1
  6
Continuous
 62
     7
100
AcDbLine
 10
-38.89480193699191
 20
31.47063561947414
 30
0.0
 11
-38.89480193699191
 21
18.72063561947414
 31
0.0
  0
LINE
  5
97
330
47
100
AcDbEntity
  8
1
  6
Continuous
 62
     7
100
AcDbLine
 10
-75.29480193699183
 20
31.47063561947414
 30
0.0
 11
-75.29480193699183
 21
18.72063561947402
 31
0.0
  0
LINE
  5
98
330
47
100
AcDbEntity
  8
1
  6
Continuous
 62
     6
100
AcDbLine
 10
-89.2499974102418
 20
14.47063561947414
 30
0.0
 11
-139.249997410242
 21
14.47063561947414
 31
0.0
  0
LINE
  5
99
330
47
100
AcDbEntity
  8
1
  6
Continuous
 62
     6
100
AcDbLine
 10
-191.549997410242
 20
14.47063561947402
 30
0.0
 11
-189.2499974102418
 21
14.47063561947414
 31
0.0
  0
LINE
  5
9A
330
47
100
AcDbEntity
  8
1
  6
Continuous
 62
     6
100
AcDbLine
 10
-38.89480193699191
 20
14.47063561947402
 30
0.0
 11
10.75000258975817
 21
14.47063561947414
 31
0.0
  0
LINE
  5
9B
330
47
100
AcDbEntity
  8
1
  6
Continuous
 62
     6
100
AcDbLine
 10
54.25000258975818
 20
14.47063561947414
 30
0.0
 11
54.25000258975948
 21
22.97063561947414
 31
0.0
  0
LINE
  5
9C
330
47
100
AcDbEntity
  8
1
  6
Continuous
 62
     2
100
AcDbLine
 10
-237.7499974102409
 20
14.47063561947414
 30
0.0
 11
-237.7499974102409
 21
9.47063561947402
 31
0.0
  0
LINE
  5
9D
330
47
100
AcDbEntity
  8
1
  6
Continuous
 62
     2
100
AcDbLine
 10
-232.7499974102399
 20
14.47063561947414
 30
0.0
 11
-237.7499974102409
 21
14.47063561947414
 31
0.0
  0
LINE
  5
9E
330
47
100
AcDbEntity
  8
1
  6
Continuous
 62
     2
100
AcDbLine
 10
-232.7499974102399
 20
9.47063561947402
 30
0.0
 11
-189.2499974102418
 21
9.47063561947402
 31
0.0
  0
LINE
  5
9F
330
47
100
AcDbEntity
  8
1
  6
Continuous
 62
     2
100
AcDbLine
 10
-232.7499974102399
 20
14.47063561947414
 30
0.0
 11
-232.7499974102399
 21
9.47063561947402
 31
0.0
  0
LINE
  5
A0
330
47
100
AcDbEntity
  8
1
  6
Continuous
 62
     2
100
AcDbLine
 10
10.75000258975817
 20
9.47063561947402
 30
0.0
 11
-39.24999741024183
 21
9.47063561947402
 31
0.0
  0
LINE
  5
A1
330
47
100
AcDbEntity
  8
1
  6
Continuous
 62
     2
100
AcDbLine
 10
10.75000258975817
 20
9.47063561947402
 30
0.0
 11
10.75000258975817
 21
14.47063561947414
 31
0.0
  0
LINE
  5
A2
330
47
100
AcDbEntity
  8
1
  6
Continuous
 62
     2
100
AcDbLine
 10
-39.24999741024183
 20
9.47063561947402
 30
0.0
 11
-39.24999741024183
 21
14.47063561947414
 31
0.0
  0
LINE
  5
A3
330
47
100
AcDbEntity
  8
1
  6
Continuous
 62
     2
100
AcDbLine
 10
-89.2499974102418
 20
9.47063561947402
 30
0.0
 11
-39.24999741024183
 21
9.47063561947402
 31
0.0
  0
LINE
  5
A4
330
47
100
AcDbEntity
  8
1
  6
Continuous
 62
     2
100
AcDbLine
 10
-89.2499974102418
 20
9.47063561947402
 30
0.0
 11
-89.2499974102418
 21
14.47063561947414
 31
0.0
  0
LINE
  5
A5
330
47
100
AcDbEntity
  8
1
  6
Continuous
 62
     2
100
AcDbLine
 10
-139.249997410242
 20
9.47063561947402
 30
0.0
 11
-89.2499974102418
 21
9.47063561947402
 31
0.0
  0
LINE
  5
A6
330
47
100
AcDbEntity
  8
1
  6
Continuous
 62
     2
100
AcDbLine
 10
-139.249997410242
 20
9.47063561947402
 30
0.0
 11
-139.249997410242
 21
14.47063561947414
 31
0.0
  0
LINE
  5
A7
330
47
100
AcDbEntity
  8
1
  6
Continuous
 62
     2
100
AcDbLine
 10
-189.2499974102418
 20
9.47063561947402
 30
0.0
 11
-139.249997410242
 21
9.47063561947402
 31
0.0
  0
LINE
  5
A8
330
47
100
AcDbEntity
  8
1
  6
Continuous
 62
     2
100
AcDbLine
 10
-189.2499974102418
 20
9.47063561947402
 30
0.0
 11
-189.2499974102418
 21
14.47063561947414
 31
0.0
  0
LINE
  5
A9
330
47
100
AcDbEntity
  8
1
  6
Continuous
 62
     6
100
AcDbLine
 10
-232.7499974102401
 20
64.47063561947425
 30
0.0
 11
-232.7499974102399
 21
14.47063561947414
 31
0.0
  0
LINE
  5
AA
330
47
100
AcDbEntity
  8
1
  6
Continuous
 62
     2
100
AcDbLine
 10
-237.7499974102409
 20
64.47063561947425
 30
0.0
 11
-237.7499974102409
 21
14.47063561947414
 31
0.0
  0
LINE
  5
AB
330
47
100
AcDbEntity
  8
1
  6
Continuous
 62
     2
100
AcDbLine
 10
-237.7499974102409
 20
64.47063561947425
 30
0.0
 11
-232.7499974102401
 21
64.47063561947425
 31
0.0
  0
LINE
  5
AC
330
47
100
AcDbEntity
  8
1
  6
Continuous
 62
     6
100
AcDbLine
 10
-232.7499974102403
 20
114.4706356194741
 30
0.0
 11
-232.7499974102401
 21
64.47063561947425
 31
0.0
  0
LINE
  5
AD
330
47
100
AcDbEntity
  8
1
  6
Continuous
 62
     2
100
AcDbLine
 10
-237.7499974102409
 20
114.4706356194741
 30
0.0
 11
-237.7499974102409
 21
64.47063561947425
 31
0.0
  0
LINE
  5
AE
330
47
100
AcDbEntity
  8
1
  6
Continuous
 62
     2
100
AcDbLine
 10
-237.7499974102409
 20
114.4706356194741
 30
0.0
 11
-232.7499974102403
 21
114.4706356194741
 31
0.0
  0
LINE
  5
AF
330
47
100
AcDbEntity
  8
1
  6
Continuous
 62
     6
100
AcDbLine
 10
-232.7499974102408
 20
164.4706356194741
 30
0.0
 11
-232.7499974102403
 21
114.4706356194741
 31
0.0
  0
LINE
  5
B0
330
47
100
AcDbEntity
  8
1
  6
Continuous
 62
     2
100
AcDbLine
 10
-237.7499974102409
 20
164.4706356194741
 30
0.0
 11
-237.7499974102409
 21
114.4706356194741
 31
0.0
  0
LINE
  5
B1
330
47
100
AcDbEntity
  8
1
  6
Continuous
 62
     2
100
AcDbLine
 10
-237.7499974102409
 20
164.4706356194741
 30
0.0
 11
-232.7499974102408
 21
164.4706356194741
 31
0.0
  0
LINE
  5
B2
330
47
100
AcDbEntity
  8
1
  6
Continuous
 62
     6
100
AcDbLine
 10
-232.7499974102409
 20
199.4706356194741
 30
0.0
 11
-232.7499974102408
 21
164.4706356194741
 31
0.0
  0
LINE
  5
B3
330
47
100
AcDbEntity
  8
1
  6
Continuous
 62
     2
100
AcDbLine
 10
-237.7499974102409
 20
219.4706356194741
 30
0.0
 11
-237.7499974102409
 21
164.4706356194741
 31
0.0
  0
LINE
  5
B4
330
47
100
AcDbEntity
  8
1
  6
Continuous
 62
     2
100
AcDbLine
 10
-237.7499974102409
 20
9.47063561947402
 30
0.0
 11
-232.7499974102399
 21
9.47063561947402
 31
0.0
  0
LINE
  5
B5
330
47
100
AcDbEntity
  8
1
  6
Continuous
 62
     2
100
AcDbLine
 10
-89.2499974102418
 20
219.4706356194741
 30
0.0
 11
-89.2499974102418
 21
210.2619437747728
 31
0.0
  0
LINE
  5
B6
330
47
100
AcDbEntity
  8
1
  6
Continuous
 62
     2
100
AcDbLine
 10
-89.2499974102418
 20
219.4706356194741
 30
0.0
 11
-237.7499974102409
 21
219.4706356194741
 31
0.0
  0
LINE
  5
B7
330
47
100
AcDbEntity
  8
1
  6
Continuous
 62
     2
100
AcDbLine
 10
59.25000258975717
 20
14.47063561947414
 30
0.0
 11
59.25000258975717
 21
64.47063561947425
 31
0.0
  0
LINE
  5
B8
330
47
100
AcDbEntity
  8
1
  6
Continuous
 62
     2
100
AcDbLine
 10
59.25000258975717
 20
164.4706356194741
 30
0.0
 11
59.25000258975717
 21
219.4706356194741
 31
0.0
  0
LINE
  5
B9
330
47
100
AcDbEntity
  8
1
  6
Continuous
 62
     6
100
AcDbLine
 10
54.25000258975737
 20
164.4706356194741
 30
0.0
 11
54.25000258975717
 21
199.4706356194741
 31
0.0
  0
LINE
  5
BA
330
47
100
AcDbEntity
  8
1
  6
Continuous
 62
     2
100
AcDbLine
 10
54.25000258975737
 20
164.4706356194741
 30
0.0
 11
59.25000258975717
 21
164.4706356194741
 31
0.0
  0
LINE
  5
BB
330
47
100
AcDbEntity
  8
1
  6
Continuous
 62
     2
100
AcDbLine
 10
59.25000258975717
 20
114.4706356194741
 30
0.0
 11
59.25000258975717
 21
164.4706356194741
 31
0.0
  0
LINE
  5
BC
330
47
100
AcDbEntity
  8
1
  6
Continuous
 62
     6
100
AcDbLine
 10
54.25000258975858
 20
114.4706356194741
 30
0.0
 11
54.25000258975737
 21
164.4706356194741
 31
0.0
  0
LINE
  5
BD
330
47
100
AcDbEntity
  8
1
  6
Continuous
 62
     2
100
AcDbLine
 10
54.25000258975858
 20
114.4706356194741
 30
0.0
 11
59.25000258975717
 21
114.4706356194741
 31
0.0
  0
LINE
  5
BE
330
47
100
AcDbEntity
  8
1
  6
Continuous
 62
     2
100
AcDbLine
 10
59.25000258975717
 20
64.47063561947425
 30
0.0
 11
59.25000258975717
 21
114.4706356194741
 31
0.0
  0
LINE
  5
BF
330
47
100
AcDbEntity
  8
1
  6
Continuous
 62
     6
100
AcDbLine
 10
54.25000258975908
 20
64.47063561947425
 30
0.0
 11
54.25000258975858
 21
114.4706356194741
 31
0.0
  0
LINE
  5
C0
330
47
100
AcDbEntity
  8
1
  6
Continuous
 62
     2
100
AcDbLine
 10
54.25000258975908
 20
64.47063561947425
 30
0.0
 11
59.25000258975717
 21
64.47063561947425
 31
0.0
  0
LINE
  5
C1
330
47
100
AcDbEntity
  8
1
  6
Continuous
 62
     6
100
AcDbLine
 10
54.25000258975717
 20
199.4706356194741
 30
0.0
 11
-232.7499974102409
 21
199.4706356194741
 31
0.0
  0
LINE
  5
C2
330
47
100
AcDbEntity
  8
1
  6
Continuous
 62
     2
100
AcDbLine
 10
59.25000258975717
 20
219.4706356194741
 30
0.0
 11
-89.2499974102418
 21
219.4706356194741
 31
0.0
  0
LINE
  5
C3
330
47
100
AcDbEntity
  8
1
  6
Continuous
 62
     6
100
AcDbLine
 10
54.25000258975987
 20
31.47063561947414
 30
0.0
 11
54.25000258975908
 21
64.47063561947425
 31
0.0
  0
LINE
  5
C4
330
47
100
AcDbEntity
  8
1
  6
Continuous
 62
     2
100
AcDbLine
 10
54.25000258975818
 20
9.47063561947402
 30
0.0
 11
10.75000258975817
 21
9.47063561947402
 31
0.0
  0
LINE
  5
C5
330
47
100
AcDbEntity
  8
1
  6
Continuous
 62
     2
100
AcDbLine
 10
59.25000258975717
 20
9.47063561947402
 30
0.0
 11
54.25000258975818
 21
9.47063561947402
 31
0.0
  0
LINE
  5
C6
330
47
100
AcDbEntity
  8
1
  6
Continuous
 62
     2
100
AcDbLine
 10
59.25000258975717
 20
9.47063561947402
 30
0.0
 11
59.25000258975717
 21
14.47063561947414
 31
0.0
  0
LINE
  5
C7
330
47
100
AcDbEntity
  8
1
  6
Continuous
 62
     6
100
AcDbLine
 10
-75.29480193699183
 20
31.47063561947414
 30
0.0
 11
-38.89480193699191
 21
31.47063561947414
 31
0.0
  0
LINE
  5
C8
330
47
100
AcDbEntity
  8
1
  6
Continuous
 62
     2
100
AcDbLine
 10
54.25000258975818
 20
14.47063561947414
 30
0.0
 11
54.25000258975818
 21
9.47063561947402
 31
0.0
  0
LINE
  5
C9
330
47
100
AcDbEntity
  8
1
  6
Continuous
 62
     2
100
AcDbLine
 10
54.25000258975818
 20
14.47063561947414
 30
0.0
 11
59.25000258975717
 21
14.47063561947414
 31
0.0
  0
LINE
  5
CA
330
47
100
AcDbEntity
  8
1
  6
Continuous
 62
     6
100
AcDbLine
 10
-39.24999741024183
 20
14.47063561947414
 30
0.0
 11
-57.09480193699181
 21
14.47063561947414
 31
0.0
  0
LINE
  5
CB
330
47
100
AcDbEntity
  8
1
  6
Continuous
 62
     6
100
AcDbLine
 10
10.75000258975817
 20
14.47063561947414
 30
0.0
 11
54.25000258975818
 21
14.47063561947414
 31
0.0
  0
LINE
  5
CC
330
47
100
AcDbEntity
  8
1
  6
Continuous
 62
     6
100
AcDbLine
 10
-139.249997410242
 20
14.47063561947414
 30
0.0
 11
-144.2948019369918
 21
14.47063561947414
 31
0.0
  0
LINE
  5
CD
330
47
100
AcDbEntity
  8
1
  6
Continuous
 62
     6
100
AcDbLine
 10
-89.2499974102418
 20
14.47063561947414
 30
0.0
 11
-75.29480193699183
 21
14.47063561947402
 31
0.0
  0
LINE
  5
CE
102
{ACAD_REACTORS
330
1B9
330
1BA
102
}
330
47
100
AcDbEntity
  8
0
  6
Continuous
 62
     2
100
AcDbLine
 10
-67.78017599484502
 20
26.54315037568625
 30
0.0
 11
-67.78017599484502
 21
27.14868566419304
 31
0.0
  0
LINE
  5
CF
102
{ACAD_REACTORS
330
1B9
330
1BA
102
}
330
47
100
AcDbEntity
  8
0
  6
Continuous
 62
     2
100
AcDbLine
 10
-67.78017599484502
 20
23.74301576905495
 30
0.0
 11
-67.78017599484502
 21
24.32486717575003
 31
0.0
  0
LINE
  5
D0
102
{ACAD_REACTORS
330
1BB
330
1BC
102
}
330
47
100
AcDbEntity
  8
0
  6
Continuous
 62
     2
100
AcDbLine
 10
-45.15068955936582
 20
24.03267983717794
 30
0.0
 11
-45.15068955936582
 21
21.76413561949045
 31
0.0
  0
LINE
  5
D1
102
{ACAD_REACTORS
330
1BB
330
1BC
102
}
330
47
100
AcDbEntity
  8
0
  6
Continuous
 62
     2
100
AcDbLine
 10
-46.53174333835341
 20
24.81794514330105
 30
0.0
 11
-43.14679781972473
 21
24.81794514330153
 31
0.0
  0
LINE
  5
D2
102
{ACAD_REACTORS
330
1BB
330
1BC
102
}
330
47
100
AcDbEntity
  8
0
  6
Continuous
 62
     2
100
AcDbLine
 10
-43.14679781972473
 20
24.03267983717794
 30
0.0
 11
-43.14679781972473
 21
24.81794514330153
 31
0.0
  0
LINE
  5
D3
102
{ACAD_REACTORS
330
1BB
330
1BC
102
}
330
47
100
AcDbEntity
  8
0
  6
Continuous
 62
     2
100
AcDbLine
 10
-43.95789685719811
 20
24.03267983717794
 30
0.0
 11
-43.14679781972473
 21
24.03267983717794
 31
0.0
  0
LINE
  5
D4
102
{ACAD_REACTORS
330
1BB
330
1BC
102
}
330
47
100
AcDbEntity
  8
0
  6
Continuous
 62
     2
100
AcDbLine
 10
-43.95789685719811
 20
21.76413561949045
 30
0.0
 11
-43.95789685719811
 21
24.03267983717794
 31
0.0
  0
LINE
  5
D5
102
{ACAD_REACTORS
330
1BB
330
1BC
102
}
330
47
100
AcDbEntity
  8
0
  6
Continuous
 62
     2
100
AcDbLine
 10
-45.15068955936582
 20
21.76413561949045
 30
0.0
 11
-43.95789685719811
 21
21.76413561949045
 31
0.0
  0
LINE
  5
D6
102
{ACAD_REACTORS
330
1B1
330
1B2
102
}
330
47
100
AcDbEntity
  8
0
  6
Continuous
 62
     2
100
AcDbLine
 10
-45.84728049743032
 20
28.17713561947593
 30
0.0
 11
-47.25000471517961
 21
28.17713561947593
 31
0.0
  0
LINE
  5
D7
102
{ACAD_REACTORS
330
1B1
330
1B2
102
}
330
47
100
AcDbEntity
  8
0
  6
Continuous
 62
     2
100
AcDbLine
 10
-45.84728049743032
 20
28.17713561947593
 30
0.0
 11
-45.24611297553852
 21
27.49731229792045
 31
0.0
  0
LINE
  5
D8
102
{ACAD_REACTORS
330
1B1
330
1B2
102
}
330
47
100
AcDbEntity
  8
0
  6
Continuous
 62
     2
100
AcDbLine
 10
-45.24611297553852
 20
27.49731229792045
 30
0.0
 11
-44.64494545364573
 21
28.17713561947593
 31
0.0
  0
LINE
  5
D9
102
{ACAD_REACTORS
330
1B1
330
1B2
102
}
330
47
100
AcDbEntity
  8
0
  6
Continuous
 62
     2
100
AcDbLine
 10
-44.54475086666503
 20
26.70418508943973
 30
0.0
 11
-43.24222123589851
 21
28.17713561947593
 31
0.0
  0
LINE
  5
DA
102
{ACAD_REACTORS
330
1B1
330
1B2
102
}
330
47
100
AcDbEntity
  8
0
  6
Continuous
 62
     2
100
AcDbLine
 10
-44.54475086666503
 20
26.70418508943973
 30
0.0
 11
-43.14679781972473
 21
25.12332609566474
 31
0.0
  0
LINE
  5
DB
102
{ACAD_REACTORS
330
1B1
330
1B2
102
}
330
47
100
AcDbEntity
  8
0
  6
Continuous
 62
     2
100
AcDbLine
 10
-44.54952203747303
 20
25.12332609566474
 30
0.0
 11
-43.14679781972473
 21
25.12332609566474
 31
0.0
  0
LINE
  5
DC
102
{ACAD_REACTORS
330
1B1
330
1B2
102
}
330
47
100
AcDbEntity
  8
0
  6
Continuous
 62
     2
100
AcDbLine
 10
-45.24611297553852
 20
25.91105788095845
 30
0.0
 11
-44.54952203747303
 21
25.12332609566474
 31
0.0
  0
LINE
  5
DD
102
{ACAD_REACTORS
330
1AF
330
1B0
102
}
330
47
100
AcDbEntity
  8
0
  6
Continuous
 62
     2
100
AcDbLine
 10
-48.70521181182221
 20
28.17713561947593
 30
0.0
 11
-47.46470740156931
 21
28.17713561947593
 31
0.0
  0
LINE
  5
DE
102
{ACAD_REACTORS
330
1AF
330
1B0
102
}
330
47
100
AcDbEntity
  8
0
  6
Continuous
 62
     2
100
AcDbLine
 10
-47.46470740156931
 20
28.17713561947593
 30
0.0
 11
-47.46470740156931
 21
25.12332609566474
 31
0.0
  0
LINE
  5
DF
102
{ACAD_REACTORS
330
1AF
330
1B0
102
}
330
47
100
AcDbEntity
  8
0
  6
Continuous
 62
     2
100
AcDbLine
 10
-48.70521181182221
 20
25.12332609566474
 30
0.0
 11
-48.70521181182221
 21
28.17713561947593
 31
0.0
  0
LINE
  5
E0
102
{ACAD_REACTORS
330
1AD
330
1AE
102
}
330
47
100
AcDbEntity
  8
0
  6
Continuous
 62
     2
100
AcDbLine
 10
-50.17352189435982
 20
22.98565942901493
 30
0.0
 11
-49.87335665716742
 21
23.75347439500163
 31
0.0
  0
LINE
  5
E1
102
{ACAD_REACTORS
330
1AD
330
1AE
102
}
330
47
100
AcDbEntity
  8
0
  6
Continuous
 62
     2
100
AcDbLine
 10
-50.65105749898063
 20
21.76413561949045
 30
0.0
 11
-50.43957744550482
 21
22.30509616370833
 31
0.0
  0
LINE
  5
E2
102
{ACAD_REACTORS
330
1AD
330
1AE
102
}
330
47
100
AcDbEntity
  8
0
  6
Continuous
 62
     2
100
AcDbLine
 10
-50.49360886229431
 20
24.81794514330153
 30
0.0
 11
-51.89156190923362
 21
21.76413561949045
 31
0.0
  0
LINE
  5
E3
102
{ACAD_REACTORS
330
1AD
330
1AE
102
}
330
47
100
AcDbEntity
  8
0
  6
Continuous
 62
     2
100
AcDbLine
 10
-47.85515140510131
 20
21.76413561949045
 30
0.0
 11
-49.09565581535523
 21
21.76413561949045
 31
0.0
  0
LINE
  5
E4
102
{ACAD_REACTORS
330
1AD
330
1AE
102
}
330
47
100
AcDbEntity
  8
0
  6
Continuous
 62
     2
100
AcDbLine
 10
-50.43957744550482
 20
22.30509616370833
 30
0.0
 11
-49.30713586883101
 21
22.30509616370833
 31
0.0
  0
LINE
  5
E5
102
{ACAD_REACTORS
330
1AB
330
1AC
102
}
330
47
100
AcDbEntity
  8
0
  6
Continuous
 62
     2
100
AcDbLine
 10
-54.04907404841583
 20
24.03267983717794
 30
0.0
 11
-53.23797501094123
 21
24.03267983717794
 31
0.0
  0
LINE
  5
E6
102
{ACAD_REACTORS
330
1AB
330
1AC
102
}
330
47
100
AcDbEntity
  8
0
  6
Continuous
 62
     2
100
AcDbLine
 10
-51.23408327130221
 20
24.81794514330153
 30
0.0
 11
-54.04907404841583
 21
24.81794514330153
 31
0.0
  0
LINE
  5
E7
102
{ACAD_REACTORS
330
1AB
330
1AC
102
}
330
47
100
AcDbEntity
  8
0
  6
Continuous
 62
     2
100
AcDbLine
 10
-51.23408327130221
 20
24.03267983717794
 30
0.0
 11
-51.23408327130221
 21
24.81794514330153
 31
0.0
  0
LINE
  5
E8
102
{ACAD_REACTORS
330
1AB
330
1AC
102
}
330
47
100
AcDbEntity
  8
0
  6
Continuous
 62
     2
100
AcDbLine
 10
-52.04518230877471
 20
24.03267983717794
 30
0.0
 11
-51.23408327130221
 21
24.03267983717794
 31
0.0
  0
LINE
  5
E9
102
{ACAD_REACTORS
330
1AB
330
1AC
102
}
330
47
100
AcDbEntity
  8
0
  6
Continuous
 62
     2
100
AcDbLine
 10
-52.04518230877471
 20
21.76413561949045
 30
0.0
 11
-52.04518230877471
 21
24.03267983717794
 31
0.0
  0
LINE
  5
EA
102
{ACAD_REACTORS
330
1A9
330
1AA
102
}
330
47
100
AcDbEntity
  8
0
  6
Continuous
 62
     2
100
AcDbLine
 10
-51.37706746467671
 20
25.12332609566474
 30
0.0
 11
-51.37706746467671
 21
26.43210160586943
 31
0.0
  0
LINE
  5
EB
102
{ACAD_REACTORS
330
1A9
330
1AA
102
}
330
47
100
AcDbEntity
  8
0
  6
Continuous
 62
     2
100
AcDbLine
 10
-52.56986016684323
 20
28.17713561947593
 30
0.0
 11
-52.56986016684323
 21
25.12332609566474
 31
0.0
  0
LINE
  5
EC
102
{ACAD_REACTORS
330
1A9
330
1AA
102
}
330
47
100
AcDbEntity
  8
0
  6
Continuous
 62
     2
100
AcDbLine
 10
-51.37706746467671
 20
28.17713561947593
 30
0.0
 11
-52.56986016684323
 21
28.17713561947593
 31
0.0
  0
LINE
  5
ED
102
{ACAD_REACTORS
330
1A9
330
1AA
102
}
330
47
100
AcDbEntity
  8
0
  6
Continuous
 62
     2
100
AcDbLine
 10
-50.13656305442271
 20
28.17713561947593
 30
0.0
 11
-50.13656305442271
 21
26.86836010927075
 31
0.0
  0
LINE
  5
EE
102
{ACAD_REACTORS
330
1A7
330
1A8
102
}
330
47
100
AcDbEntity
  8
0
  6
Continuous
 62
     2
100
AcDbLine
 10
-57.81829898726292
 20
24.81794514330153
 30
0.0
 11
-57.81829898726292
 21
21.76413561949045
 31
0.0
  0
LINE
  5
EF
102
{ACAD_REACTORS
330
1A7
330
1A8
102
}
330
47
100
AcDbEntity
  8
0
  6
Continuous
 62
     2
100
AcDbLine
 10
-56.62550628509533
 20
24.81794514330153
 30
0.0
 11
-57.81829898726292
 21
24.81794514330153
 31
0.0
  0
LINE
  5
F0
102
{ACAD_REACTORS
330
1A7
330
1A8
102
}
330
47
100
AcDbEntity
  8
0
  6
Continuous
 62
     2
100
AcDbLine
 10
-55.38500187484243
 20
21.76413561949045
 30
0.0
 11
-54.19220917267603
 21
21.76413561949045
 31
0.0
  0
LINE
  5
F1
102
{ACAD_REACTORS
330
1A7
330
1A8
102
}
330
47
100
AcDbEntity
  8
0
  6
Continuous
 62
     2
100
AcDbLine
 10
-57.81829898726292
 20
21.76413561949045
 30
0.0
 11
-56.62550628509533
 21
21.76413561949045
 31
0.0
  0
LINE
  5
F2
102
{ACAD_REACTORS
330
1B7
330
1B8
102
}
330
47
100
AcDbEntity
  8
0
  6
Continuous
 62
     2
100
AcDbLine
 10
-54.14434653370381
 20
26.99923766029124
 30
0.0
 11
-54.14434653370381
 21
27.47912201403295
 31
0.0
  0
LINE
  5
F3
102
{ACAD_REACTORS
330
1B7
330
1B8
102
}
330
47
100
AcDbEntity
  8
0
  6
Continuous
 62
     2
100
AcDbLine
 10
-52.80841870727613
 20
26.99923766029124
 30
0.0
 11
-54.14434653370381
 21
26.99923766029124
 31
0.0
  0
LINE
  5
F4
102
{ACAD_REACTORS
330
1B7
330
1B8
102
}
330
47
100
AcDbEntity
  8
0
  6
Continuous
 62
     2
100
AcDbLine
 10
-52.80841870727613
 20
26.30122405484894
 30
0.0
 11
-52.80841870727613
 21
26.99923766029124
 31
0.0
  0
LINE
  5
F5
102
{ACAD_REACTORS
330
1B7
330
1B8
102
}
330
47
100
AcDbEntity
  8
0
  6
Continuous
 62
     2
100
AcDbLine
 10
-54.14434653370381
 20
26.30122405484894
 30
0.0
 11
-52.80841870727613
 21
26.30122405484894
 31
0.0
  0
LINE
  5
F6
102
{ACAD_REACTORS
330
1A5
330
1A6
102
}
330
47
100
AcDbEntity
  8
0
  6
Continuous
 62
     2
100
AcDbLine
 10
-57.62730122403073
 20
28.17713561947593
 30
0.0
 11
-57.62730122403073
 21
25.12332609566474
 31
0.0
  0
LINE
  5
F7
102
{ACAD_REACTORS
330
1A5
330
1A6
102
}
330
47
100
AcDbEntity
  8
0
  6
Continuous
 62
     2
100
AcDbLine
 10
-57.62730122403073
 20
25.12332609566474
 30
0.0
 11
-58.82009392619713
 21
25.12332609566474
 31
0.0
  0
LINE
  5
F8
102
{ACAD_REACTORS
330
1A5
330
1A6
102
}
330
47
100
AcDbEntity
  8
0
  6
Continuous
 62
     2
100
AcDbLine
 10
-58.82009392619713
 20
25.12332609566474
 30
0.0
 11
-58.82009392619713
 21
26.25759820450855
 31
0.0
  0
LINE
  5
F9
102
{ACAD_REACTORS
330
1A5
330
1A6
102
}
330
47
100
AcDbEntity
  8
0
  6
Continuous
 62
     2
100
AcDbLine
 10
-59.86975150410461
 20
25.12332609566474
 30
0.0
 11
-61.06254420627121
 21
25.12332609566474
 31
0.0
  0
LINE
  5
FA
102
{ACAD_REACTORS
330
1A5
330
1A6
102
}
330
47
100
AcDbEntity
  8
0
  6
Continuous
 62
     2
100
AcDbLine
 10
-61.06254420627121
 20
28.17713561947593
 30
0.0
 11
-59.86975150410461
 21
28.17713561947593
 31
0.0
  0
LINE
  5
FB
102
{ACAD_REACTORS
330
1A5
330
1A6
102
}
330
47
100
AcDbEntity
  8
0
  6
Continuous
 62
     2
100
AcDbLine
 10
-59.86975150410461
 20
28.17713561947593
 30
0.0
 11
-59.86975150410461
 21
27.10830228614134
 31
0.0
  0
LINE
  5
FC
102
{ACAD_REACTORS
330
1A5
330
1A6
102
}
330
47
100
AcDbEntity
  8
0
  6
Continuous
 62
     2
100
AcDbLine
 10
-59.86975150410461
 20
27.10830228614134
 30
0.0
 11
-58.82009392619713
 21
27.10830228614134
 31
0.0
  0
LINE
  5
FD
102
{ACAD_REACTORS
330
1B3
330
1B4
102
}
330
47
100
AcDbEntity
  8
0
  6
Continuous
 62
     2
100
AcDbLine
 10
-63.01872423782481
 20
27.51402977403583
 30
0.0
 11
-62.70142917628292
 21
27.51402977403583
 31
0.0
  0
LINE
  5
FE
102
{ACAD_REACTORS
330
1B3
330
1B4
102
}
330
47
100
AcDbEntity
  8
0
  6
Continuous
 62
     2
100
AcDbLine
 10
-63.01872423782481
 20
26.80830212469363
 30
0.0
 11
-62.70142917628292
 21
26.80830212469363
 31
0.0
  0
LINE
  5
FF
102
{ACAD_REACTORS
330
1B3
330
1B4
102
}
330
47
100
AcDbEntity
  8
0
  6
Continuous
 62
     2
100
AcDbLine
 10
-64.25922864807893
 20
28.17713561947593
 30
0.0
 11
-64.25922864807893
 21
25.12332609566474
 31
0.0
  0
LINE
  5
100
102
{ACAD_REACTORS
330
1B3
330
1B4
102
}
330
47
100
AcDbEntity
  8
0
  6
Continuous
 62
     2
100
AcDbLine
 10
-64.25922864807893
 20
28.17713561947593
 30
0.0
 11
-62.25995665004453
 21
28.17713561947593
 31
0.0
  0
LINE
  5
101
102
{ACAD_REACTORS
330
1B3
330
1B4
102
}
330
47
100
AcDbEntity
  8
0
  6
Continuous
 62
     2
100
AcDbLine
 10
-63.01872423782481
 20
26.06640433680855
 30
0.0
 11
-62.25995665004453
 21
26.06640433680855
 31
0.0
  0
LINE
  5
102
102
{ACAD_REACTORS
330
1B9
330
1BA
102
}
330
47
100
AcDbEntity
  8
0
  6
Continuous
 62
     2
100
AcDbLine
 10
-70.35572468137562
 20
27.14886314084114
 30
0.0
 11
-70.35572468137562
 21
22.79240809812404
 31
0.0
  0
LINE
  5
103
102
{ACAD_REACTORS
330
1B9
330
1BA
102
}
330
47
100
AcDbEntity
  8
0
  6
Continuous
 62
     2
100
AcDbLine
 10
-70.04000775829994
 20
27.46458006391734
 30
0.0
 11
-68.56417449729031
 21
27.46458006391734
 31
0.0
  0
LINE
  5
104
102
{ACAD_REACTORS
330
1B9
330
1BA
102
}
330
47
100
AcDbEntity
  8
0
  6
Continuous
 62
     2
100
AcDbLine
 10
-68.24845757421372
 20
26.54483852178063
 30
0.0
 11
-68.24845757421372
 21
27.14886314084114
 31
0.0
  0
LINE
  5
105
102
{ACAD_REACTORS
330
1B9
330
1BA
102
}
330
47
100
AcDbEntity
  8
0
  6
Continuous
 62
     2
100
AcDbLine
 10
-68.24845757421372
 20
22.79240809812404
 30
0.0
 11
-68.24845757421372
 21
24.32317902965565
 31
0.0
  0
LINE
  5
106
102
{ACAD_REACTORS
330
1B9
330
1BA
102
}
330
47
100
AcDbEntity
  8
0
  6
Continuous
 62
     2
100
AcDbLine
 10
-65.16059034432962
 20
21.76413561949045
 30
0.0
 11
-70.63390243504642
 21
21.76413561949045
 31
0.0
  0
LINE
  5
107
102
{ACAD_REACTORS
330
1B9
330
1BA
102
}
330
47
100
AcDbEntity
  8
0
  6
Continuous
 62
     2
100
AcDbLine
 10
-64.73634572894574
 20
27.75289100407395
 30
0.0
 11
-64.73634572894574
 21
22.18838023487373
 31
0.0
  0
LINE
  5
108
102
{ACAD_REACTORS
330
1B9
330
1BA
102
}
330
47
100
AcDbEntity
  8
0
  6
Continuous
 62
     2
100
AcDbLine
 10
-70.63390243504642
 20
28.17713561945774
 30
0.0
 11
-65.16059034432962
 21
28.17713561945774
 31
0.0
  0
LINE
  5
109
102
{ACAD_REACTORS
330
1B9
330
1BA
102
}
330
47
100
AcDbEntity
  8
0
  6
Continuous
 62
     2
100
AcDbLine
 10
-71.05814705042923
 20
27.75289100407395
 30
0.0
 11
-71.05814705042923
 21
22.18838023487373
 31
0.0
  0
LINE
  5
10A
102
{ACAD_REACTORS
330
1B9
330
1BA
102
}
330
47
100
AcDbEntity
  8
0
  6
Continuous
 62
     2
100
AcDbLine
 10
-68.56417449729031
 20
22.47669117504734
 30
0.0
 11
-70.04000775829994
 21
22.47669117504734
 31
0.0
  0
LINE
  5
10B
102
{ACAD_REACTORS
330
1B3
330
1B4
102
}
330
47
100
AcDbEntity
  8
0
  6
Continuous
 62
     2
100
AcDbLine
 10
-63.01872423782481
 20
25.12332609566474
 30
0.0
 11
-63.01872423782481
 21
26.06640433680855
 31
0.0
  0
LINE
  5
10C
102
{ACAD_REACTORS
330
1B3
330
1B4
102
}
330
47
100
AcDbEntity
  8
0
  6
Continuous
 62
     2
100
AcDbLine
 10
-64.25922864807893
 20
25.12332609566474
 30
0.0
 11
-63.01872423782481
 21
25.12332609566474
 31
0.0
  0
LINE
  5
10D
102
{ACAD_REACTORS
330
1B3
330
1B4
102
}
330
47
100
AcDbEntity
  8
0
  6
Continuous
 62
     2
100
AcDbLine
 10
-63.01872423782481
 20
26.80830212469363
 30
0.0
 11
-63.01872423782481
 21
27.51402977403583
 31
0.0
  0
LINE
  5
10E
102
{ACAD_REACTORS
330
1A5
330
1A6
102
}
330
47
100
AcDbEntity
  8
0
  6
Continuous
 62
     2
100
AcDbLine
 10
-61.06254420627121
 20
28.17713561947593
 30
0.0
 11
-61.06254420627121
 21
25.12332609566474
 31
0.0
  0
LINE
  5
10F
102
{ACAD_REACTORS
330
1A5
330
1A6
102
}
330
47
100
AcDbEntity
  8
0
  6
Continuous
 62
     2
100
AcDbLine
 10
-59.86975150410461
 20
26.25759820450855
 30
0.0
 11
-59.86975150410461
 21
25.12332609566474
 31
0.0
  0
LINE
  5
110
102
{ACAD_REACTORS
330
1A5
330
1A6
102
}
330
47
100
AcDbEntity
  8
0
  6
Continuous
 62
     2
100
AcDbLine
 10
-58.82009392619713
 20
26.25759820450855
 30
0.0
 11
-59.86975150410461
 21
26.25759820450855
 31
0.0
  0
LINE
  5
111
102
{ACAD_REACTORS
330
1A5
330
1A6
102
}
330
47
100
AcDbEntity
  8
0
  6
Continuous
 62
     2
100
AcDbLine
 10
-58.82009392619713
 20
28.17713561947593
 30
0.0
 11
-57.62730122403073
 21
28.17713561947593
 31
0.0
  0
LINE
  5
112
102
{ACAD_REACTORS
330
1A5
330
1A6
102
}
330
47
100
AcDbEntity
  8
0
  6
Continuous
 62
     2
100
AcDbLine
 10
-58.82009392619713
 20
27.10830228614134
 30
0.0
 11
-58.82009392619713
 21
28.17713561947593
 31
0.0
  0
LINE
  5
113
102
{ACAD_REACTORS
330
1B7
330
1B8
102
}
330
47
100
AcDbEntity
  8
0
  6
Continuous
 62
     2
100
AcDbLine
 10
-52.80841870727613
 20
27.47912201403295
 30
0.0
 11
-52.80841870727613
 21
28.17713561947593
 31
0.0
  0
LINE
  5
114
102
{ACAD_REACTORS
330
1B7
330
1B8
102
}
330
47
100
AcDbEntity
  8
0
  6
Continuous
 62
     2
100
AcDbLine
 10
-55.95873843105713
 20
28.17713561947593
 30
0.0
 11
-52.80841870727613
 21
28.17713561947593
 31
0.0
  0
LINE
  5
115
102
{ACAD_REACTORS
330
1B7
330
1B8
102
}
330
47
100
AcDbEntity
  8
0
  6
Continuous
 62
     2
100
AcDbLine
 10
-55.95873843105713
 20
25.12332609566474
 30
0.0
 11
-52.80841870727613
 21
25.12332609566474
 31
0.0
  0
LINE
  5
116
102
{ACAD_REACTORS
330
1B7
330
1B8
102
}
330
47
100
AcDbEntity
  8
0
  6
Continuous
 62
     2
100
AcDbLine
 10
-52.80841870727613
 20
25.12332609566474
 30
0.0
 11
-52.80841870727613
 21
25.82133970110724
 31
0.0
  0
LINE
  5
117
102
{ACAD_REACTORS
330
1B7
330
1B8
102
}
330
47
100
AcDbEntity
  8
0
  6
Continuous
 62
     2
100
AcDbLine
 10
-52.80841870727613
 20
25.82133970110724
 30
0.0
 11
-54.14434653370381
 21
25.82133970110724
 31
0.0
  0
LINE
  5
118
102
{ACAD_REACTORS
330
1B7
330
1B8
102
}
330
47
100
AcDbEntity
  8
0
  6
Continuous
 62
     2
100
AcDbLine
 10
-54.14434653370381
 20
25.82133970110724
 30
0.0
 11
-54.14434653370381
 21
26.30122405484894
 31
0.0
  0
LINE
  5
119
102
{ACAD_REACTORS
330
1B7
330
1B8
102
}
330
47
100
AcDbEntity
  8
0
  6
Continuous
 62
     2
100
AcDbLine
 10
-54.14434653370381
 20
27.47912201403295
 30
0.0
 11
-52.80841870727613
 21
27.47912201403295
 31
0.0
  0
LINE
  5
11A
102
{ACAD_REACTORS
330
1A7
330
1A8
102
}
330
47
100
AcDbEntity
  8
0
  6
Continuous
 62
     2
100
AcDbLine
 10
-56.62550628509533
 20
21.76413561949045
 30
0.0
 11
-56.62550628509533
 21
23.07291112969503
 31
0.0
  0
LINE
  5
11B
102
{ACAD_REACTORS
330
1A7
330
1A8
102
}
330
47
100
AcDbEntity
  8
0
  6
Continuous
 62
     2
100
AcDbLine
 10
-56.62550628509533
 20
23.07291112969503
 30
0.0
 11
-55.38500187484243
 21
21.76413561949045
 31
0.0
  0
LINE
  5
11C
102
{ACAD_REACTORS
330
1A7
330
1A8
102
}
330
47
100
AcDbEntity
  8
0
  6
Continuous
 62
     2
100
AcDbLine
 10
-54.19220917267603
 20
21.76413561949045
 30
0.0
 11
-54.19220917267603
 21
24.81794514330153
 31
0.0
  0
LINE
  5
11D
102
{ACAD_REACTORS
330
1A7
330
1A8
102
}
330
47
100
AcDbEntity
  8
0
  6
Continuous
 62
     2
100
AcDbLine
 10
-54.19220917267603
 20
24.81794514330153
 30
0.0
 11
-55.38500187484243
 21
24.81794514330153
 31
0.0
  0
LINE
  5
11E
102
{ACAD_REACTORS
330
1A7
330
1A8
102
}
330
47
100
AcDbEntity
  8
0
  6
Continuous
 62
     2
100
AcDbLine
 10
-55.38500187484243
 20
24.81794514330153
 30
0.0
 11
-55.38500187484243
 21
23.50916963309643
 31
0.0
  0
LINE
  5
11F
102
{ACAD_REACTORS
330
1A7
330
1A8
102
}
330
47
100
AcDbEntity
  8
0
  6
Continuous
 62
     2
100
AcDbLine
 10
-55.38500187484243
 20
23.50916963309643
 30
0.0
 11
-56.62550628509533
 21
24.81794514330153
 31
0.0
  0
LINE
  5
120
102
{ACAD_REACTORS
330
1A9
330
1AA
102
}
330
47
100
AcDbEntity
  8
0
  6
Continuous
 62
     2
100
AcDbLine
 10
-51.37706746467671
 20
26.43210160586943
 30
0.0
 11
-50.13656305442271
 21
25.12332609566474
 31
0.0
  0
LINE
  5
121
102
{ACAD_REACTORS
330
1A9
330
1AA
102
}
330
47
100
AcDbEntity
  8
0
  6
Continuous
 62
     2
100
AcDbLine
 10
-50.13656305442271
 20
25.12332609566474
 30
0.0
 11
-48.94377035225611
 21
25.12332609566474
 31
0.0
  0
LINE
  5
122
102
{ACAD_REACTORS
330
1A9
330
1AA
102
}
330
47
100
AcDbEntity
  8
0
  6
Continuous
 62
     2
100
AcDbLine
 10
-48.94377035225611
 20
25.12332609566474
 30
0.0
 11
-48.94377035225611
 21
28.17713561947593
 31
0.0
  0
LINE
  5
123
102
{ACAD_REACTORS
330
1A9
330
1AA
102
}
330
47
100
AcDbEntity
  8
0
  6
Continuous
 62
     2
100
AcDbLine
 10
-48.94377035225611
 20
28.17713561947593
 30
0.0
 11
-50.13656305442271
 21
28.17713561947593
 31
0.0
  0
LINE
  5
124
102
{ACAD_REACTORS
330
1A9
330
1AA
102
}
330
47
100
AcDbEntity
  8
0
  6
Continuous
 62
     2
100
AcDbLine
 10
-50.13656305442271
 20
26.86836010927075
 30
0.0
 11
-51.37706746467671
 21
28.17713561947593
 31
0.0
  0
LINE
  5
125
102
{ACAD_REACTORS
330
1A9
330
1AA
102
}
330
47
100
AcDbEntity
  8
0
  6
Continuous
 62
     2
100
AcDbLine
 10
-52.56986016684323
 20
25.12332609566474
 30
0.0
 11
-51.37706746467671
 21
25.12332609566474
 31
0.0
  0
LINE
  5
126
102
{ACAD_REACTORS
330
1AB
330
1AC
102
}
330
47
100
AcDbEntity
  8
0
  6
Continuous
 62
     2
100
AcDbLine
 10
-54.04907404841583
 20
24.81794514330153
 30
0.0
 11
-54.04907404841583
 21
24.03267983717794
 31
0.0
  0
LINE
  5
127
102
{ACAD_REACTORS
330
1AB
330
1AC
102
}
330
47
100
AcDbEntity
  8
0
  6
Continuous
 62
     2
100
AcDbLine
 10
-53.23797501094123
 20
24.03267983717794
 30
0.0
 11
-53.23797501094123
 21
21.76413561949045
 31
0.0
  0
LINE
  5
128
102
{ACAD_REACTORS
330
1AB
330
1AC
102
}
330
47
100
AcDbEntity
  8
0
  6
Continuous
 62
     2
100
AcDbLine
 10
-53.23797501094123
 20
21.76413561949045
 30
0.0
 11
-52.04518230877471
 21
21.76413561949045
 31
0.0
  0
LINE
  5
129
102
{ACAD_REACTORS
330
1AD
330
1AE
102
}
330
47
100
AcDbEntity
  8
0
  6
Continuous
 62
     2
100
AcDbLine
 10
-49.09565581535523
 20
21.76413561949045
 30
0.0
 11
-49.30713586883101
 21
22.30509616370833
 31
0.0
  0
LINE
  5
12A
102
{ACAD_REACTORS
330
1AD
330
1AE
102
}
330
47
100
AcDbEntity
  8
0
  6
Continuous
 62
     2
100
AcDbLine
 10
-49.25310445204161
 20
24.81794514330153
 30
0.0
 11
-47.85515140510131
 21
21.76413561949045
 31
0.0
  0
LINE
  5
12B
102
{ACAD_REACTORS
330
1AD
330
1AE
102
}
330
47
100
AcDbEntity
  8
0
  6
Continuous
 62
     2
100
AcDbLine
 10
-50.49360886229431
 20
24.81794514330153
 30
0.0
 11
-49.25310445204161
 21
24.81794514330153
 31
0.0
  0
LINE
  5
12C
102
{ACAD_REACTORS
330
1AD
330
1AE
102
}
330
47
100
AcDbEntity
  8
0
  6
Continuous
 62
     2
100
AcDbLine
 10
-51.89156190923362
 20
21.76413561949045
 30
0.0
 11
-50.65105749898063
 21
21.76413561949045
 31
0.0
  0
LINE
  5
12D
102
{ACAD_REACTORS
330
1AD
330
1AE
102
}
330
47
100
AcDbEntity
  8
0
  6
Continuous
 62
     2
100
AcDbLine
 10
-50.17352189435982
 20
22.98565942901493
 30
0.0
 11
-49.57319141997732
 21
22.98565942901493
 31
0.0
  0
LINE
  5
12E
102
{ACAD_REACTORS
330
1AD
330
1AE
102
}
330
47
100
AcDbEntity
  8
0
  6
Continuous
 62
     2
100
AcDbLine
 10
-49.57319141997732
 20
22.98565942901493
 30
0.0
 11
-49.87335665716742
 21
23.75347439500163
 31
0.0
  0
LINE
  5
12F
102
{ACAD_REACTORS
330
1AF
330
1B0
102
}
330
47
100
AcDbEntity
  8
0
  6
Continuous
 62
     2
100
AcDbLine
 10
-47.46470740156931
 20
25.12332609566474
 30
0.0
 11
-48.70521181182221
 21
25.12332609566474
 31
0.0
  0
LINE
  5
130
102
{ACAD_REACTORS
330
1B1
330
1B2
102
}
330
47
100
AcDbEntity
  8
0
  6
Continuous
 62
     2
100
AcDbLine
 10
-45.94270391360422
 20
25.12332609566474
 30
0.0
 11
-47.34542813135244
 21
25.12332609566474
 31
0.0
  0
LINE
  5
131
102
{ACAD_REACTORS
330
1B1
330
1B2
102
}
330
47
100
AcDbEntity
  8
0
  6
Continuous
 62
     2
100
AcDbLine
 10
-45.94270391360422
 20
25.12332609566474
 30
0.0
 11
-45.24611297553852
 21
25.91105788095845
 31
0.0
  0
LINE
  5
132
102
{ACAD_REACTORS
330
1B1
330
1B2
102
}
330
47
100
AcDbEntity
  8
0
  6
Continuous
 62
     2
100
AcDbLine
 10
-44.64494545364573
 20
28.17713561947593
 30
0.0
 11
-43.24222123589851
 21
28.17713561947593
 31
0.0
  0
LINE
  5
133
102
{ACAD_REACTORS
330
1B1
330
1B2
102
}
330
47
100
AcDbEntity
  8
0
  6
Continuous
 62
     2
100
AcDbLine
 10
-47.25000471517961
 20
28.17713561947593
 30
0.0
 11
-45.94747508441213
 21
26.70418508943973
 31
0.0
  0
LINE
  5
134
102
{ACAD_REACTORS
330
1B1
330
1B2
102
}
330
47
100
AcDbEntity
  8
0
  6
Continuous
 62
     2
100
AcDbLine
 10
-47.34542813135244
 20
25.12332609566474
 30
0.0
 11
-45.94747508441213
 21
26.70418508943973
 31
0.0
  0
LINE
  5
135
102
{ACAD_REACTORS
330
1BB
330
1BC
102
}
330
47
100
AcDbEntity
  8
0
  6
Continuous
 62
     2
100
AcDbLine
 10
-45.48467151597251
 20
22.81115602765405
 30
0.0
 11
-45.48467151597251
 21
21.93863902085073
 31
0.0
  0
LINE
  5
136
102
{ACAD_REACTORS
330
1BB
330
1BC
102
}
330
47
100
AcDbEntity
  8
0
  6
Continuous
 62
     2
100
AcDbLine
 10
-46.25432885893392
 20
24.03267983717794
 30
0.0
 11
-45.15068955936582
 21
24.03267983717794
 31
0.0
  0
LINE
  5
137
102
{ACAD_REACTORS
330
1BD
330
1BE
102
}
330
47
100
AcDbEntity
  8
0
  6
Continuous
 62
     2
100
AcDbLine
 10
-61.58737299522443
 20
22.81115602765453
 30
0.0
 11
-61.58737299522443
 21
21.93863902085133
 31
0.0
  0
LINE
  5
138
102
{ACAD_REACTORS
330
1BD
330
1BE
102
}
330
47
100
AcDbEntity
  8
0
  6
Continuous
 62
     2
100
AcDbLine
 10
-61.58737299522443
 20
23.77092473513744
 30
0.0
 11
-61.58737299522443
 21
24.64344174194073
 31
0.0
  0
LINE
  5
139
330
47
100
AcDbEntity
  8
1
  6
Continuous
 62
     7
100
AcDbLine
 10
54.25000258975948
 20
22.97063561947414
 30
0.0
 11
-38.89480193699191
 21
22.97063561947414
 31
0.0
  0
LINE
  5
13A
330
47
100
AcDbEntity
  8
1
  6
Continuous
 62
     6
100
AcDbLine
 10
-144.2948019369918
 20
14.47063561947414
 30
0.0
 11
-189.2499974102418
 21
14.47063561947414
 31
0.0
  0
LINE
  5
13B
330
47
100
AcDbEntity
  8
1
  6
Continuous
 62
     7
100
AcDbLine
 10
45.33159430808067
 20
39.97063561947414
 30
0.0
 11
45.33159430808067
 21
31.47063561947414
 31
0.0
  0
LINE
  5
13C
330
47
100
AcDbEntity
  8
1
  6
Continuous
 62
     7
100
AcDbLine
 10
18.83159430808107
 20
39.97063561947414
 30
0.0
 11
18.83159430808107
 21
31.47063561947414
 31
0.0
  0
LINE
  5
13D
330
47
100
AcDbEntity
  8
1
  6
Continuous
 62
     7
100
AcDbLine
 10
-38.89480193699191
 20
31.47063561947414
 30
0.0
 11
-38.89480193699191
 21
39.97063561947414
 31
0.0
  0
LINE
  5
13E
330
47
100
AcDbEntity
  8
1
  6
Continuous
 62
     7
100
AcDbLine
 10
-75.29480193699183
 20
31.47063561947414
 30
0.0
 11
-75.29480193699183
 21
39.97063561947414
 31
0.0
  0
LINE
  5
13F
330
47
100
AcDbEntity
  8
1
  6
Continuous
 62
     6
100
AcDbLine
 10
-38.89480193699191
 20
31.47063561947414
 30
0.0
 11
54.25000258975987
 21
31.47063561947414
 31
0.0
  0
LINE
  5
140
330
47
100
AcDbEntity
  8
1
  6
Continuous
 62
     7
100
AcDbLine
 10
-10.99480193699182
 20
22.97063561947405
 30
0.0
 11
-10.99480193699182
 21
31.47063561947414
 31
0.0
  0
LINE
  5
141
330
47
100
AcDbEntity
  8
1
  6
PHANTOM
 62
     2
100
AcDbLine
 10
-59.80814705042923
 20
35.59563561947405
 30
0.0
 11
-65.30814705042923
 21
35.59563561947405
 31
0.0
  0
LINE
  5
142
330
47
100
AcDbEntity
  8
1
  6
PHANTOM
 62
     2
100
AcDbLine
 10
-62.55814705042923
 20
38.34563561947405
 30
0.0
 11
-62.55814705042923
 21
32.84563561947405
 31
0.0
  0
LINE
  5
143
330
47
100
AcDbEntity
  8
1
  6
DOT_CENTER
 62
     2
100
AcDbLine
 10
-71.30814705042923
 20
35.59563561947405
 30
0.0
 11
-65.80814705042923
 21
35.59563561947405
 31
0.0
  0
ARC
  5
144
102
{ACAD_REACTORS
330
1BD
330
1BE
102
}
330
47
100
AcDbEntity
  8
0
  6
Continuous
 62
     2
100
AcDbCircle
 10
-62.92330091234223
 20
19.97835943613984
 30
0.0
 40
4.852596863498064
100
AcDbArc
 50
74.02000874164737
 51
84.84185523037513
  0
ARC
  5
145
102
{ACAD_REACTORS
330
1BD
330
1BE
102
}
330
47
100
AcDbEntity
  8
0
  6
Continuous
 62
     2
100
AcDbCircle
 10
-62.34726030358851
 20
23.13411979202414
 30
0.0
 40
0.9059297849853251
100
AcDbArc
 50
71.55192388185306
 51
113.372277888129
  0
ARC
  5
146
102
{ACAD_REACTORS
330
1BD
330
1BE
102
}
330
47
100
AcDbEntity
  8
0
  6
Continuous
 62
     2
100
AcDbCircle
 10
-62.50370033629054
 20
23.08596895205724
 30
0.0
 40
0.511580060194791
100
AcDbArc
 50
208.5214732576963
 51
246.6277221118278
  0
ARC
  5
147
102
{ACAD_REACTORS
330
1BD
330
1BE
102
}
330
47
100
AcDbEntity
  8
0
  6
Continuous
 62
     2
100
AcDbCircle
 10
-62.34726030358851
 20
23.44796097076724
 30
0.0
 40
0.905929784984916
100
AcDbArc
 50
246.6277221118709
 51
288.448076118159
  0
ARC
  5
148
102
{ACAD_REACTORS
330
1BD
330
1BE
102
}
330
47
100
AcDbEntity
  8
0
  6
Continuous
 62
     2
100
AcDbCircle
 10
-62.76542803724931
 20
24.70150674680443
 30
0.0
 40
2.227384008972739
100
AcDbArc
 50
288.448076118133
 51
301.9309089499592
  0
ARC
  5
149
102
{ACAD_REACTORS
330
1B9
330
1BA
102
}
330
47
100
AcDbEntity
  8
0
  6
Continuous
 62
     2
100
AcDbCircle
 10
-67.99050176985611
 20
25.43400877571844
 30
0.0
 40
0.9118481501444557
100
AcDbArc
 50
295.3740086781766
 51
64.62599132180736
  0
ARC
  5
14A
102
{ACAD_REACTORS
330
1B9
330
1BA
102
}
330
47
100
AcDbEntity
  8
0
  6
Continuous
 62
     2
100
AcDbCircle
 10
-67.46445907176823
 20
27.14868566419304
 30
0.0
 40
0.3157169230760746
100
AcDbArc
 50
90.18896704254594
 51
180.0
  0
ARC
  5
14B
102
{ACAD_REACTORS
330
1BB
330
1BC
102
}
330
47
100
AcDbEntity
  8
0
  6
Continuous
 62
     2
100
AcDbCircle
 10
-46.25432885893392
 20
23.07815683035184
 30
0.0
 40
0.9545230068261006
100
AcDbArc
 50
90.0
 51
109.3371432194319
  0
ARC
  5
14C
102
{ACAD_REACTORS
330
1BB
330
1BC
102
}
330
47
100
AcDbEntity
  8
0
  6
Continuous
 62
     2
100
AcDbCircle
 10
-46.02364159895623
 20
23.29104038139573
 30
0.0
 40
0.9410597353348941
100
AcDbArc
 50
151.4785267423622
 51
208.5214732576695
  0
ARC
  5
14D
102
{ACAD_REACTORS
330
1BB
330
1BC
102
}
330
47
100
AcDbEntity
  8
0
  6
Continuous
 62
     2
100
AcDbCircle
 10
-46.24455882433452
 20
23.44796097076724
 30
0.0
 40
0.905929784985274
100
AcDbArc
 50
246.6277221118186
 51
288.4480761180817
  0
ARC
  5
14E
102
{ACAD_REACTORS
330
1BB
330
1BC
102
}
330
47
100
AcDbEntity
  8
0
  6
Continuous
 62
     2
100
AcDbCircle
 10
-46.66272655799642
 20
24.70150674680383
 30
0.0
 40
2.227384008972746
100
AcDbArc
 50
288.4480761181335
 51
301.9309089499397
  0
ARC
  5
14F
102
{ACAD_REACTORS
330
1BB
330
1BC
102
}
330
47
100
AcDbEntity
  8
0
  6
Continuous
 62
     2
100
AcDbCircle
 10
-46.82059943308923
 20
26.60372132665214
 30
0.0
 40
4.852596863498825
100
AcDbArc
 50
275.1581447696364
 51
285.9799912583387
  0
ARC
  5
150
102
{ACAD_REACTORS
330
1BB
330
1BC
102
}
330
47
100
AcDbEntity
  8
0
  6
Continuous
 62
     2
100
AcDbCircle
 10
-46.53174333835341
 20
23.40383074343055
 30
0.0
 40
1.639695123940448
100
AcDbArc
 50
195.0618917771012
 51
275.1581447696762
  0
ARC
  5
151
102
{ACAD_REACTORS
330
1B3
330
1B4
102
}
330
47
100
AcDbEntity
  8
0
  6
Continuous
 62
     2
100
AcDbCircle
 10
-62.25995665004453
 20
27.12176997814225
 30
0.0
 40
1.055365641333701
100
AcDbArc
 50
270.0
 51
90.0
  0
ARC
  5
152
102
{ACAD_REACTORS
330
1B9
330
1BA
102
}
330
47
100
AcDbEntity
  8
0
  6
Continuous
 62
     2
100
AcDbCircle
 10
-70.04000775829994
 20
22.79240809812404
 30
0.0
 40
0.3157169230756836
100
AcDbArc
 50
180.0
 51
270.0
  0
ARC
  5
153
102
{ACAD_REACTORS
330
1B9
330
1BA
102
}
330
47
100
AcDbEntity
  8
0
  6
Continuous
 62
     2
100
AcDbCircle
 10
-68.56417449729031
 20
27.14886314084114
 30
0.0
 40
0.315716923076593
100
AcDbArc
 50
0.0
 51
90.0
  0
ARC
  5
154
102
{ACAD_REACTORS
330
1B9
330
1BA
102
}
330
47
100
AcDbEntity
  8
0
  6
Continuous
 62
     2
100
AcDbCircle
 10
-68.56417449729031
 20
26.54483852178063
 30
0.0
 40
0.3157169230761203
100
AcDbArc
 50
295.1944106485397
 51
0.0
  0
ARC
  5
155
102
{ACAD_REACTORS
330
1B9
330
1BA
102
}
330
47
100
AcDbEntity
  8
0
  6
Continuous
 62
     2
100
AcDbCircle
 10
-68.56417449729031
 20
22.79240809812404
 30
0.0
 40
0.3157169230766996
100
AcDbArc
 50
270.0
 51
0.0
  0
ARC
  5
156
102
{ACAD_REACTORS
330
1B9
330
1BA
102
}
330
47
100
AcDbEntity
  8
0
  6
Continuous
 62
     2
100
AcDbCircle
 10
-70.63390243504642
 20
27.75289100407395
 30
0.0
 40
0.4242446153837918
100
AcDbArc
 50
90.0
 51
180.0
  0
ARC
  5
157
102
{ACAD_REACTORS
330
1B9
330
1BA
102
}
330
47
100
AcDbEntity
  8
0
  6
Continuous
 62
     2
100
AcDbCircle
 10
-65.16059034432962
 20
27.75289100407395
 30
0.0
 40
0.4242446153838841
100
AcDbArc
 50
0.0
 51
90.0
  0
ARC
  5
158
102
{ACAD_REACTORS
330
1B9
330
1BA
102
}
330
47
100
AcDbEntity
  8
0
  6
Continuous
 62
     2
100
AcDbCircle
 10
-65.16059034432962
 20
22.18838023487373
 30
0.0
 40
0.4242446153832802
100
AcDbArc
 50
270.0
 51
0.0
  0
ARC
  5
159
102
{ACAD_REACTORS
330
1B7
330
1B8
102
}
330
47
100
AcDbEntity
  8
0
  6
Continuous
 62
     2
100
AcDbCircle
 10
-55.94220645723812
 20
26.65023085757005
 30
0.0
 40
0.7717997786796486
100
AcDbArc
 50
321.8795802028444
 51
38.12041979715892
  0
ARC
  5
15A
102
{ACAD_REACTORS
330
1B7
330
1B8
102
}
330
47
100
AcDbEntity
  8
0
  6
Continuous
 62
     2
100
AcDbCircle
 10
-55.74246642089193
 20
26.49349967944963
 30
0.0
 40
0.5179085730134393
100
AcDbArc
 50
218.1204197971514
 51
321.8795802028569
  0
ARC
  5
15B
102
{ACAD_REACTORS
330
1B5
330
1B6
102
}
330
47
100
AcDbEntity
  8
0
  6
Continuous
 62
     2
100
AcDbCircle
 10
-59.42247400985212
 20
23.29104038139573
 30
0.0
 40
1.458034083652002
100
AcDbArc
 50
297.5481481757007
 51
62.4518518242992
  0
ARC
  5
15C
102
{ACAD_REACTORS
330
1B5
330
1B6
102
}
330
47
100
AcDbEntity
  8
0
  6
Continuous
 62
     2
100
AcDbCircle
 10
-59.98435379351872
 20
23.29104038139573
 30
0.0
 40
1.45803408365149
100
AcDbArc
 50
117.5481481756624
 51
242.4518518243376
  0
ARC
  5
15D
102
{ACAD_REACTORS
330
1B5
330
1B6
102
}
330
47
100
AcDbEntity
  8
0
  6
Continuous
 62
     2
100
AcDbCircle
 10
-59.70341390168542
 20
22.75246537109294
 30
0.0
 40
2.065479772208568
100
AcDbArc
 50
62.45185182430637
 51
117.5481481756664
  0
ARC
  5
15E
102
{ACAD_REACTORS
330
1B5
330
1B6
102
}
330
47
100
AcDbEntity
  8
0
  6
Continuous
 62
     2
100
AcDbCircle
 10
-59.70341390168542
 20
23.82961539169904
 30
0.0
 40
2.065479772208515
100
AcDbArc
 50
242.4518518243403
 51
297.548148175687
  0
ARC
  5
15F
102
{ACAD_REACTORS
330
1B7
330
1B8
102
}
330
47
100
AcDbEntity
  8
0
  6
Continuous
 62
     2
100
AcDbCircle
 10
-55.54272638454563
 20
26.65023085757005
 30
0.0
 40
0.7717997786796724
100
AcDbArc
 50
141.8795802028404
 51
218.1204197971562
  0
ARC
  5
160
102
{ACAD_REACTORS
330
1B7
330
1B8
102
}
330
47
100
AcDbEntity
  8
0
  6
Continuous
 62
     2
100
AcDbCircle
 10
-55.74246642089193
 20
26.80696203569053
 30
0.0
 40
0.5179085730135343
100
AcDbArc
 50
38.12041979714316
 51
141.8795802028486
  0
ARC
  5
161
102
{ACAD_REACTORS
330
1B9
330
1BA
102
}
330
47
100
AcDbEntity
  8
0
  6
Continuous
 62
     2
100
AcDbCircle
 10
-70.63390243504642
 20
22.18838023487373
 30
0.0
 40
0.4242446153828041
100
AcDbArc
 50
180.0
 51
270.0
  0
ARC
  5
162
102
{ACAD_REACTORS
330
1B9
330
1BA
102
}
330
47
100
AcDbEntity
  8
0
  6
Continuous
 62
     2
100
AcDbCircle
 10
-68.56417449729031
 20
24.32317902965565
 30
0.0
 40
0.315716923076593
100
AcDbArc
 50
0.0
 51
64.80558935146027
  0
ARC
  5
163
102
{ACAD_REACTORS
330
1B9
330
1BA
102
}
330
47
100
AcDbEntity
  8
0
  6
Continuous
 62
     2
100
AcDbCircle
 10
-68.04159004971532
 20
25.43400877571844
 30
0.0
 40
0.9118975235576114
100
AcDbArc
 50
115.1944106485283
 51
244.8055893514878
  0
ARC
  5
164
102
{ACAD_REACTORS
330
1B9
330
1BA
102
}
330
47
100
AcDbEntity
  8
0
  6
Continuous
 62
     2
100
AcDbCircle
 10
-70.04000775829994
 20
27.14886314084114
 30
0.0
 40
0.3157169230761987
100
AcDbArc
 50
90.0
 51
180.0
  0
ARC
  5
165
102
{ACAD_REACTORS
330
1B3
330
1B4
102
}
330
47
100
AcDbEntity
  8
0
  6
Continuous
 62
     2
100
AcDbCircle
 10
-62.70142917628292
 20
27.16116594936474
 30
0.0
 40
0.3528638246711111
100
AcDbArc
 50
270.0
 51
90.0
  0
ARC
  5
166
102
{ACAD_REACTORS
330
1B7
330
1B8
102
}
330
47
100
AcDbEntity
  8
0
  6
Continuous
 62
     2
100
AcDbCircle
 10
-55.95873843105713
 20
26.65023085757005
 30
0.0
 40
1.526904761905879
100
AcDbArc
 50
90.0
 51
270.0
  0
ARC
  5
167
102
{ACAD_REACTORS
330
1BB
330
1BC
102
}
330
47
100
AcDbEntity
  8
0
  6
Continuous
 62
     2
100
AcDbCircle
 10
-46.53174333835341
 20
23.17825001936083
 30
0.0
 40
1.639695123940218
100
AcDbArc
 50
90.0
 51
164.9381082228951
  0
ARC
  5
168
102
{ACAD_REACTORS
330
1BB
330
1BC
102
}
330
47
100
AcDbEntity
  8
0
  6
Continuous
 62
     2
100
AcDbCircle
 10
-46.95087118181502
 20
23.29104038139573
 30
0.0
 40
1.205656168393001
100
AcDbArc
 50
164.938108222903
 51
195.0618917770958
  0
ARC
  5
169
102
{ACAD_REACTORS
330
1BB
330
1BC
102
}
330
47
100
AcDbEntity
  8
0
  6
Continuous
 62
     2
100
AcDbCircle
 10
-46.40099885703762
 20
23.08596895205724
 30
0.0
 40
0.5115800601960199
100
AcDbArc
 50
208.5214732576863
 51
246.6277221118453
  0
ARC
  5
16A
102
{ACAD_REACTORS
330
1BB
330
1BC
102
}
330
47
100
AcDbEntity
  8
0
  6
Continuous
 62
     2
100
AcDbCircle
 10
-46.40099885703762
 20
23.49611181073473
 30
0.0
 40
0.5115800601944176
100
AcDbArc
 50
109.3371432194852
 51
151.4785267424221
  0
ARC
  5
16B
102
{ACAD_REACTORS
330
1B9
330
1BA
102
}
330
47
100
AcDbEntity
  8
0
  6
Continuous
 62
     2
100
AcDbCircle
 10
-67.46445907176823
 20
23.74301576905495
 30
0.0
 40
0.315716923076792
100
AcDbArc
 50
180.0
 51
269.8110329574542
  0
ARC
  5
16C
102
{ACAD_REACTORS
330
1B9
330
1BA
102
}
330
47
100
AcDbEntity
  8
0
  6
Continuous
 62
     2
100
AcDbCircle
 10
-67.45884293645821
 20
25.44585071662394
 30
0.0
 40
2.018561131933269
100
AcDbArc
 50
269.8110329575858
 51
90.18896704241416
  0
ARC
  5
16D
102
{ACAD_REACTORS
330
1B9
330
1BA
102
}
330
47
100
AcDbEntity
  8
0
  6
Continuous
 62
     2
100
AcDbCircle
 10
-67.46445907176823
 20
26.54315037568625
 30
0.0
 40
0.315716923076792
100
AcDbArc
 50
180.0
 51
244.6259913216482
  0
ARC
  5
16E
102
{ACAD_REACTORS
330
1B9
330
1BA
102
}
330
47
100
AcDbEntity
  8
0
  6
Continuous
 62
     2
100
AcDbCircle
 10
-67.46445907176823
 20
24.32486717575003
 30
0.0
 40
0.315716923076536
100
AcDbArc
 50
115.3740086783516
 51
180.0
  0
ARC
  5
16F
102
{ACAD_REACTORS
330
1BD
330
1BE
102
}
330
47
100
AcDbEntity
  8
0
  6
Continuous
 62
     2
100
AcDbCircle
 10
-62.63444481760632
 20
23.17825001936083
 30
0.0
 40
1.639695123940502
100
AcDbArc
 50
84.8418552303626
 51
164.9381082228866
  0
ARC
  5
170
102
{ACAD_REACTORS
330
1BD
330
1BE
102
}
330
47
100
AcDbEntity
  8
0
  6
Continuous
 62
     2
100
AcDbCircle
 10
-63.05357266106913
 20
23.29104038139573
 30
0.0
 40
1.205656168390936
100
AcDbArc
 50
164.9381082228765
 51
195.0618917770948
  0
ARC
  5
171
102
{ACAD_REACTORS
330
1BD
330
1BE
102
}
330
47
100
AcDbEntity
  8
0
  6
Continuous
 62
     2
100
AcDbCircle
 10
-62.63444481760632
 20
23.40383074343055
 30
0.0
 40
1.639695123939387
100
AcDbArc
 50
195.0618917770896
 51
275.1581447696393
  0
ARC
  5
172
102
{ACAD_REACTORS
330
1BD
330
1BE
102
}
330
47
100
AcDbEntity
  8
0
  6
Continuous
 62
     2
100
AcDbCircle
 10
-62.92330091234223
 20
26.60372132665214
 30
0.0
 40
4.852596863498144
100
AcDbArc
 50
275.1581447696248
 51
285.9799912583529
  0
ARC
  5
173
102
{ACAD_REACTORS
330
1BD
330
1BE
102
}
330
47
100
AcDbEntity
  8
0
  6
Continuous
 62
     2
100
AcDbCircle
 10
-62.12634307821023
 20
23.29104038139573
 30
0.0
 40
0.941059735333242
100
AcDbArc
 50
151.4785267422665
 51
208.5214732577063
  0
ARC
  5
174
102
{ACAD_REACTORS
330
1BD
330
1BE
102
}
330
47
100
AcDbEntity
  8
0
  6
Continuous
 62
     2
100
AcDbCircle
 10
-62.50370033629054
 20
23.49611181073473
 30
0.0
 40
0.5115800601948751
100
AcDbArc
 50
113.3722778881984
 51
151.4785267423037
  0
ARC
  5
175
102
{ACAD_REACTORS
330
1BD
330
1BE
102
}
330
47
100
AcDbEntity
  8
0
  6
Continuous
 62
     2
100
AcDbCircle
 10
-62.76542803724931
 20
21.88057401598755
 30
0.0
 40
2.227384008973478
100
AcDbArc
 50
58.06909105004071
 51
71.55192388186708
  0
ARC
  5
176
102
{ACAD_REACTORS
330
1B5
330
1B6
102
}
330
47
100
AcDbEntity
  8
0
  6
Continuous
 62
     2
100
AcDbCircle
 10
-59.70341390168542
 20
23.44777155951624
 30
0.0
 40
0.5179085730132965
100
AcDbArc
 50
38.12041979714783
 51
141.879580202859
  0
ARC
  5
177
102
{ACAD_REACTORS
330
1B5
330
1B6
102
}
330
47
100
AcDbEntity
  8
0
  6
Continuous
 62
     2
100
AcDbCircle
 10
-59.50367386533932
 20
23.29104038139573
 30
0.0
 40
0.771799778679471
100
AcDbArc
 50
141.8795802028364
 51
218.1204197971686
  0
ARC
  5
178
102
{ACAD_REACTORS
330
1B5
330
1B6
102
}
330
47
100
AcDbEntity
  8
0
  6
Continuous
 62
     2
100
AcDbCircle
 10
-59.70341390168542
 20
23.13430920327573
 30
0.0
 40
0.5179085730137409
100
AcDbArc
 50
218.1204197971927
 51
321.8795802028005
  0
ARC
  5
179
102
{ACAD_REACTORS
330
1B5
330
1B6
102
}
330
47
100
AcDbEntity
  8
0
  6
Continuous
 62
     2
100
AcDbCircle
 10
-59.90315393803184
 20
23.29104038139573
 30
0.0
 40
0.771799778679697
100
AcDbArc
 50
321.8795802028415
 51
38.12041979715349
  0
CIRCLE
  5
17A
330
47
100
AcDbEntity
  8
1
  6
Continuous
 62
     2
100
AcDbCircle
 10
-62.55814705042923
 20
35.59563561947405
 30
0.0
 40
2.5
  0
CIRCLE
  5
17B
330
47
100
AcDbEntity
  8
1
  6
Continuous
 62
     2
100
AcDbCircle
 10
-62.55814705042923
 20
35.59563561947405
 30
0.0
 40
1.249999999999915
  0
CIRCLE
  5
17C
102
{ACAD_REACTORS
330
1B9
330
1BA
102
}
330
47
100
AcDbEntity
  8
0
  6
Continuous
 62
     2
100
AcDbCircle
 10
-68.01431678452892
 20
25.43400877571844
 30
0.0
 40
0.4709789327785074
  0
MTEXT
  5
17E
330
47
100
AcDbEntity
  8
1
 62
     3
100
AcDbMText
 10
-232.74492962417
 20
201.2619437747729
 30
0.0
 40
1.8
 41
0.0
 71
     7
 72
     1
  3
Weitergabe sowie Vervielf\U+00e4ltigung dieses Dokuments, Verwertung und \PMitteilung seines Inhalts sind verboten, soweit nicht ausdr\U+00fccklich gestattet. \PZuwiderhandlungen verpflichten zu Schadenersatz. Alle Rechte f\U+00fcr den Fall\Pder Pat
  1
ent-, Gebrauchsmuster- oder Designeintragung vorbehalten.
  7
CONVERTER_11
 73
     1
 44
0.99639855942377
  0
MTEXT
  5
17F
330
47
100
AcDbEntity
  8
1
 62
     3
100
AcDbMText
 10
-49.89181978538193
 20
201.2619437747729
 30
0.0
 40
1.8
 41
0.0
 71
     7
 72
     1
  3
Transfer or duplication of this document as well as the utilisation or\Pcommunication of its content are not permitted unless express consent\Pis granted. Violations give rise to claims for damages. All rights reserved\Pin case of patent, utility mo
  1
del or design patent registrations.
  7
CONVERTER_11
 73
     1
 44
0.99639855942377
  0
TEXT
  5
180
330
47
100
AcDbEntity
  8
1
 62
     2
100
AcDbText
 10
-56.09480193699201
 20
15.71161840448252
 30
0.0
 40
1.8
  1
of
 41
0.9
  7
CONVERTER_11
100
AcDbText
  0
TEXT
  5
181
330
47
100
AcDbEntity
  8
1
 62
     2
100
AcDbText
 10
-74.29480193699183
 20
15.71161840448247
 30
0.0
 40
1.8
  1
page
 41
0.9
  7
CONVERTER_11
100
AcDbText
  0
TEXT
  5
182
330
47
100
AcDbEntity
  8
1
 62
     2
100
AcDbText
 10
-65.64853696664983
 20
15.67138696567213
 30
0.0
 40
1.8
  1
1
 41
0.9
  7
CONVERTER_11
100
AcDbText
  0
TEXT
  5
183
330
47
100
AcDbEntity
  8
1
 62
     2
100
AcDbText
 10
-50.85949312717833
 20
15.72063561947402
 30
0.0
 40
1.8
  1
1
 41
0.9
  7
CONVERTER_11
100
AcDbText
  0
MTEXT
  5
185
330
47
100
AcDbEntity
  8
1
 62
     7
100
AcDbMText
 10
7.67760032638367
 20
17.72063561947437
 30
0.0
 40
3.0
 41
0.0
 71
     5
 72
     1
  1
TS-URTK/SS
  7
CONVERTER_12
 73
     1
 44
1.20048019207683
  0
MTEXT
  5
186
330
47
100
AcDbEntity
  8
1
 62
     2
100
AcDbMText
 10
-37.89480193699191
 20
21.97063561947414
 30
0.0
 40
1.8
 41
0.0
 71
     1
 72
     1
  1
description
  7
CONVERTER_11
 73
     1
 44
1.20048019207683
  0
MTEXT
  5
187
330
47
100
AcDbEntity
  8
1
 62
     3
100
AcDbMText
 10
-49.09480193699193
 20
35.59563561947414
 30
0.0
 40
2.5
 41
0.0
 71
     5
 72
     1
  1
DIN A4
  7
CONVERTER_11
 73
     1
 44
1.20048019207683
  0
MTEXT
  5
188
330
47
100
AcDbEntity
  8
1
 62
     7
100
AcDbMText
 10
-235.2499974102409
 20
36.97063561947414
 30
0.0
 40
3.5
 41
0.0
 71
     5
 72
     1
  1
D
  7
CONVERTER_11
 73
     1
 44
1.20048019207683
  0
MTEXT
  5
189
330
47
100
AcDbEntity
  8
1
 62
     7
100
AcDbMText
 10
-235.2499974102409
 20
89.47063561947414
 30
0.0
 40
3.5
 41
0.0
 71
     5
 72
     1
  1
C
  7
CONVERTER_11
 73
     1
 44
1.20048019207683
  0
MTEXT
  5
18A
330
47
100
AcDbEntity
  8
1
 62
     7
100
AcDbMText
 10
-235.2499974102409
 20
139.4706356194741
 30
0.0
 40
3.5
 41
0.0
 71
     5
 72
     1
  1
B
  7
CONVERTER_11
 73
     1
 44
1.20048019207683
  0
MTEXT
  5
18B
330
47
100
AcDbEntity
  8
1
 62
     7
100
AcDbMText
 10
-235.2499974102409
 20
191.9706356194741
 30
0.0
 40
3.5
 41
0.0
 71
     5
 72
     1
  1
A
  7
CONVERTER_11
 73
     1
 44
1.20048019207683
  0
MTEXT
  5
18C
330
47
100
AcDbEntity
  8
1
 62
     7
100
AcDbMText
 10
35.00000258975737
 20
11.97063561947402
 30
0.0
 40
3.5
 41
0.0
 71
     5
 72
     1
  1
6
  7
CONVERTER_11
 73
     1
 44
1.20048019207683
  0
MTEXT
  5
18D
330
47
100
AcDbEntity
  8
1
 62
     7
100
AcDbMText
 10
-14.24999741024183
 20
11.97063561947402
 30
0.0
 40
3.5
 41
0.0
 71
     5
 72
     1
  1
5
  7
CONVERTER_11
 73
     1
 44
1.20048019207683
  0
MTEXT
  5
18E
330
47
100
AcDbEntity
  8
1
 62
     7
100
AcDbMText
 10
-64.24999741024192
 20
11.97063561947402
 30
0.0
 40
3.5
 41
0.0
 71
     5
 72
     1
  1
4
  7
CONVERTER_11
 73
     1
 44
1.20048019207683
  0
MTEXT
  5
18F
330
47
100
AcDbEntity
  8
1
 62
     7
100
AcDbMText
 10
-114.2499974102418
 20
11.97063561947402
 30
0.0
 40
3.5
 41
0.0
 71
     5
 72
     1
  1
3
  7
CONVERTER_11
 73
     1
 44
1.20048019207683
  0
MTEXT
  5
190
330
47
100
AcDbEntity
  8
1
 62
     7
100
AcDbMText
 10
-164.2499974102418
 20
11.97063561947402
 30
0.0
 40
3.5
 41
0.0
 71
     5
 72
     1
  1
2
  7
CONVERTER_11
 73
     1
 44
1.20048019207683
  0
MTEXT
  5
191
330
47
100
AcDbEntity
  8
1
 62
     7
100
AcDbMText
 10
-213.4999974102414
 20
11.97063561947402
 30
0.0
 40
3.5
 41
0.0
 71
     5
 72
     1
  1
1
  7
CONVERTER_11
 73
     1
 44
1.20048019207683
  0
MTEXT
  5
192
330
47
100
AcDbEntity
  8
1
 62
     7
100
AcDbMText
 10
56.75000258975717
 20
36.97063561947414
 30
0.0
 40
3.5
 41
0.0
 71
     5
 72
     1
  1
D
  7
CONVERTER_11
 73
     1
 44
1.20048019207683
  0
MTEXT
  5
193
330
47
100
AcDbEntity
  8
1
 62
     7
100
AcDbMText
 10
56.75000258975717
 20
139.470635619476
 30
0.0
 40
3.5
 41
0.0
 71
     5
 72
     1
  1
B
  7
CONVERTER_11
 73
     1
 44
1.20048019207683
  0
MTEXT
  5
194
330
47
100
AcDbEntity
  8
1
 62
     7
100
AcDbMText
 10
56.75000258975717
 20
191.9706356194741
 30
0.0
 40
3.5
 41
0.0
 71
     5
 72
     1
  1
A
  7
CONVERTER_11
 73
     1
 44
1.20048019207683
  0
MTEXT
  5
195
330
47
100
AcDbEntity
  8
1
 62
     7
100
AcDbMText
 10
56.75000258975717
 20
89.47063561947604
 30
0.0
 40
3.5
 41
0.0
 71
     5
 72
     1
  1
C
  7
CONVERTER_11
 73
     1
 44
1.20048019207683
  0
MTEXT
  5
196
330
47
100
AcDbEntity
  8
1
 62
     2
100
AcDbMText
 10
-109.7328166620393
 20
27.22063561947405
 30
0.0
 40
2.0
 41
0.0
 71
     5
 72
     1
  1
General Information\P- Simplified representation\P- Document excluded from change process\P- Linear dimensions [mm]
  7
CONVERTER_11
 73
     1
 44
1.20048019207683
  0
TEXT
  5
197
330
47
100
AcDbEntity
  8
1
 62
     7
100
AcDbText
 10
-37.39480193699211
 20
24.27063561947404
 30
0.0
 40
2.5
  1
0321213
 41
0.81
  7
CONVERTER_12
100
AcDbText
  0
MTEXT
  5
198
330
47
100
AcDbEntity
  8
1
 62
     2
100
AcDbMText
 10
-37.79480193699183
 20
30.47063561947414
 30
0.0
 40
1.8
 41
0.0
 71
     1
 72
     1
  1
ident.-No.
  7
CONVERTER_11
 73
     1
 44
1.20048019207683
  0
MTEXT
  5
199
330
47
100
AcDbEntity
  8
1
 62
     2
100
AcDbMText
 10
46.43159430808089
 20
38.97063561947414
 30
0.0
 40
1.8
 41
0.0
 71
     1
 72
     1
  1
scale
  7
CONVERTER_11
 73
     1
 44
1.20048019207683
  0
MTEXT
  5
19B
330
47
100
AcDbEntity
  8
1
 62
     3
100
AcDbMText
 10
49.79079844892048
 20
32.77063561947423
 30
0.0
 40
2.5
 41
0.0
 71
     8
 72
     1
  1
1:1
  7
CONVERTER_13
 73
     1
 44
1.32052821128451
  0
TEXT
  5
19C
330
47
100
AcDbEntity
  8
1
 62
     7
100
AcDbText
 10
-37.79480193699183
 20
32.77063561947404
 30
0.0
 40
2.5
  1
00352258
 41
0.81
  7
CONVERTER_12
100
AcDbText
  0
MTEXT
  5
19E
330
47
100
AcDbEntity
  8
1
 62
     2
100
AcDbMText
 10
-37.79480193699183
 20
38.97063561947414
 30
0.0
 40
1.8
 41
0.0
 71
     1
 72
     1
  1
document-No. / RI
  7
CONVERTER_14
 73
     1
 44
1.32052821128451
  0
TEXT
  5
19F
330
47
100
AcDbEntity
  8
1
 62
     3
100
AcDbText
 10
-9.99480193699182
 20
24.27063561947404
 30
0.0
 40
2.5
  1
TECDOC 2D_Productdrawing
 41
0.81
  7
CONVERTER_12
100
AcDbText
  0
MTEXT
  5
1A0
330
47
100
AcDbEntity
  8
1
 62
     2
100
AcDbMText
 10
-9.99480193699182
 20
30.47063561947405
 30
0.0
 40
1.8
 41
0.0
 71
     1
 72
     1
  1
document-type
  7
CONVERTER_11
 73
     1
 44
1.20048019207683
  0
MTEXT
  5
1A1
330
47
100
AcDbEntity
  8
1
 62
     2
100
AcDbMText
 10
19.83159430808107
 20
38.97063561947405
 30
0.0
 40
1.8
 41
0.0
 71
     1
 72
     1
  1
date
  7
CONVERTER_11
 73
     1
 44
1.32052821128451
  0
TEXT
  5
1A2
330
47
100
AcDbEntity
  8
1
 62
     3
100
AcDbText
 10
19.83159430808107
 20
32.77063561947404
 30
0.0
 40
2.5
  1
02.01.2018
 41
0.81
  7
CONVERTER_12
100
AcDbText
  0
TEXT
  5
1A3
330
47
100
AcDbEntity
  8
1
 62
     7
100
AcDbText
 10
-17.76488971793603
 20
32.77063561947404
 30
0.0
 40
2.5
  1
02
 41
0.81
  7
CONVERTER_12
100
AcDbText
  0
TEXT
  5
1A4
330
47
100
AcDbEntity
  8
1
 62
     7
100
AcDbText
 10
-19.92125421497804
 20
32.77063561947404
 30
0.0
 40
2.5
  1
/
 41
0.9
  7
CONVERTER_11
100
AcDbText
  0
HATCH
  5
1A5
330
47
100
AcDbEntity
  8
1
  6
Continuous
 62
     2
100
AcDbHatch
 10
0.0
 20
0.0
 30
0.0
210
0.0
220
0.0
230
1.0
  2
_USER
 70
     0
 71
     1
 91
        1
 92
        1
 93
       12
 72
     1
 10
-57.62730122403073
 20
25.12332609566474
 11
-58.82009392619713
 21
25.12332609566474
 72
     1
 10
-58.82009392619713
 20
25.12332609566474
 11
-58.82009392619713
 21
26.25759820450855
 72
     1
 10
-58.82009392619713
 20
26.25759820450855
 11
-59.86975150410461
 21
26.25759820450855
 72
     1
 10
-59.86975150410461
 20
26.25759820450855
 11
-59.86975150410461
 21
25.12332609566474
 72
     1
 10
-59.86975150410461
 20
25.12332609566474
 11
-61.06254420627121
 21
25.12332609566474
 72
     1
 10
-61.06254420627121
 20
25.12332609566474
 11
-61.06254420627121
 21
28.17713561947593
 72
     1
 10
-61.06254420627121
 20
28.17713561947593
 11
-59.86975150410461
 21
28.17713561947593
 72
     1
 10
-59.86975150410461
 20
28.17713561947593
 11
-59.86975150410461
 21
27.10830228614134
 72
     1
 10
-59.86975150410461
 20
27.10830228614134
 11
-58.82009392619713
 21
27.10830228614134
 72
     1
 10
-58.82009392619713
 20
27.10830228614134
 11
-58.82009392619713
 21
28.17713561947593
 72
     1
 10
-58.82009392619713
 20
28.17713561947593
 11
-57.62730122403073
 21
28.17713561947593
 72
     1
 10
-57.62730122403073
 20
28.17713561947593
 11
-57.62730122403073
 21
25.12332609566474
 97
       12
330
111
330
112
330
FC
330
FB
330
FA
330
10E
330
F9
330
10F
330
110
330
F8
330
F7
330
F6
 75
     1
 76
     0
 52
45.0
 41
0.1
 77
     0
 78
     1
 53
45.0
 43
0.0
 44
0.0
 45
-0.0707106781186548
 46
0.0707106781186548
 79
     0
 98
        1
 10
0.0
 20
0.0
  0
HATCH
  5
1A6
330
47
100
AcDbEntity
  8
1
  6
Continuous
 62
     2
100
AcDbHatch
 10
0.0
 20
0.0
 30
0.0
210
0.0
220
0.0
230
1.0
  2
_USER
 70
     0
 71
     1
 91
        1
 92
        1
 93
       12
 72
     1
 10
-57.62730122403073
 20
25.12332609566474
 11
-58.82009392619713
 21
25.12332609566474
 72
     1
 10
-58.82009392619713
 20
25.12332609566474
 11
-58.82009392619713
 21
26.25759820450855
 72
     1
 10
-58.82009392619713
 20
26.25759820450855
 11
-59.86975150410461
 21
26.25759820450855
 72
     1
 10
-59.86975150410461
 20
26.25759820450855
 11
-59.86975150410461
 21
25.12332609566474
 72
     1
 10
-59.86975150410461
 20
25.12332609566474
 11
-61.06254420627121
 21
25.12332609566474
 72
     1
 10
-61.06254420627121
 20
25.12332609566474
 11
-61.06254420627121
 21
28.17713561947593
 72
     1
 10
-61.06254420627121
 20
28.17713561947593
 11
-59.86975150410461
 21
28.17713561947593
 72
     1
 10
-59.86975150410461
 20
28.17713561947593
 11
-59.86975150410461
 21
27.10830228614134
 72
     1
 10
-59.86975150410461
 20
27.10830228614134
 11
-58.82009392619713
 21
27.10830228614134
 72
     1
 10
-58.82009392619713
 20
27.10830228614134
 11
-58.82009392619713
 21
28.17713561947593
 72
     1
 10
-58.82009392619713
 20
28.17713561947593
 11
-57.62730122403073
 21
28.17713561947593
 72
     1
 10
-57.62730122403073
 20
28.17713561947593
 11
-57.62730122403073
 21
25.12332609566474
 97
       12
330
111
330
112
330
FC
330
FB
330
FA
330
10E
330
F9
330
10F
330
110
330
F8
330
F7
330
F6
 75
     1
 76
     0
 52
45.0
 41
0.1
 77
     0
 78
     1
 53
45.0
 43
0.0
 44
0.0
 45
-0.0707106781186548
 46
0.0707106781186548
 79
     0
 98
        1
 10
0.0
 20
0.0
  0
HATCH
  5
1A7
330
47
100
AcDbEntity
  8
1
  6
Continuous
 62
     2
100
AcDbHatch
 10
0.0
 20
0.0
 30
0.0
210
0.0
220
0.0
230
1.0
  2
_USER
 70
     0
 71
     1
 91
        1
 92
        1
 93
       10
 72
     1
 10
-55.38500187484243
 20
23.50916963309643
 11
-56.62550628509533
 21
24.81794514330153
 72
     1
 10
-56.62550628509533
 20
24.81794514330153
 11
-57.81829898726292
 21
24.81794514330153
 72
     1
 10
-57.81829898726292
 20
24.81794514330153
 11
-57.81829898726292
 21
21.76413561949045
 72
     1
 10
-57.81829898726292
 20
21.76413561949045
 11
-56.62550628509533
 21
21.76413561949045
 72
     1
 10
-56.62550628509533
 20
21.76413561949045
 11
-56.62550628509533
 21
23.07291112969503
 72
     1
 10
-56.62550628509533
 20
23.07291112969503
 11
-55.38500187484243
 21
21.76413561949045
 72
     1
 10
-55.38500187484243
 20
21.76413561949045
 11
-54.19220917267603
 21
21.76413561949045
 72
     1
 10
-54.19220917267603
 20
21.76413561949045
 11
-54.19220917267603
 21
24.81794514330153
 72
     1
 10
-54.19220917267603
 20
24.81794514330153
 11
-55.38500187484243
 21
24.81794514330153
 72
     1
 10
-55.38500187484243
 20
24.81794514330153
 11
-55.38500187484243
 21
23.50916963309643
 97
       10
330
11F
330
EF
330
EE
330
F1
330
11A
330
11B
330
F0
330
11C
330
11D
330
11E
 75
     1
 76
     0
 52
45.0
 41
0.1
 77
     0
 78
     1
 53
45.0
 43
0.0
 44
0.0
 45
-0.0707106781186548
 46
0.0707106781186548
 79
     0
 98
        1
 10
0.0
 20
0.0
  0
HATCH
  5
1A8
330
47
100
AcDbEntity
  8
1
  6
Continuous
 62
     2
100
AcDbHatch
 10
0.0
 20
0.0
 30
0.0
210
0.0
220
0.0
230
1.0
  2
_USER
 70
     0
 71
     1
 91
        1
 92
        1
 93
       10
 72
     1
 10
-55.38500187484243
 20
23.50916963309643
 11
-56.62550628509533
 21
24.81794514330153
 72
     1
 10
-56.62550628509533
 20
24.81794514330153
 11
-57.81829898726292
 21
24.81794514330153
 72
     1
 10
-57.81829898726292
 20
24.81794514330153
 11
-57.81829898726292
 21
21.76413561949045
 72
     1
 10
-57.81829898726292
 20
21.76413561949045
 11
-56.62550628509533
 21
21.76413561949045
 72
     1
 10
-56.62550628509533
 20
21.76413561949045
 11
-56.62550628509533
 21
23.07291112969503
 72
     1
 10
-56.62550628509533
 20
23.07291112969503
 11
-55.38500187484243
 21
21.76413561949045
 72
     1
 10
-55.38500187484243
 20
21.76413561949045
 11
-54.19220917267603
 21
21.76413561949045
 72
     1
 10
-54.19220917267603
 20
21.76413561949045
 11
-54.19220917267603
 21
24.81794514330153
 72
     1
 10
-54.19220917267603
 20
24.81794514330153
 11
-55.38500187484243
 21
24.81794514330153
 72
     1
 10
-55.38500187484243
 20
24.81794514330153
 11
-55.38500187484243
 21
23.50916963309643
 97
       10
330
11F
330
EF
330
EE
330
F1
330
11A
330
11B
330
F0
330
11C
330
11D
330
11E
 75
     1
 76
     0
 52
45.0
 41
0.1
 77
     0
 78
     1
 53
45.0
 43
0.0
 44
0.0
 45
-0.0707106781186548
 46
0.0707106781186548
 79
     0
 98
        1
 10
0.0
 20
0.0
  0
HATCH
  5
1A9
330
47
100
AcDbEntity
  8
1
  6
Continuous
 62
     2
100
AcDbHatch
 10
0.0
 20
0.0
 30
0.0
210
0.0
220
0.0
230
1.0
  2
_USER
 70
     0
 71
     1
 91
        1
 92
        1
 93
       10
 72
     1
 10
-50.13656305442271
 20
26.86836010927075
 11
-51.37706746467671
 21
28.17713561947593
 72
     1
 10
-51.37706746467671
 20
28.17713561947593
 11
-52.56986016684323
 21
28.17713561947593
 72
     1
 10
-52.56986016684323
 20
28.17713561947593
 11
-52.56986016684323
 21
25.12332609566474
 72
     1
 10
-52.56986016684323
 20
25.12332609566474
 11
-51.37706746467671
 21
25.12332609566474
 72
     1
 10
-51.37706746467671
 20
25.12332609566474
 11
-51.37706746467671
 21
26.43210160586943
 72
     1
 10
-51.37706746467671
 20
26.43210160586943
 11
-50.13656305442271
 21
25.12332609566474
 72
     1
 10
-50.13656305442271
 20
25.12332609566474
 11
-48.94377035225611
 21
25.12332609566474
 72
     1
 10
-48.94377035225611
 20
25.12332609566474
 11
-48.94377035225611
 21
28.17713561947593
 72
     1
 10
-48.94377035225611
 20
28.17713561947593
 11
-50.13656305442271
 21
28.17713561947593
 72
     1
 10
-50.13656305442271
 20
28.17713561947593
 11
-50.13656305442271
 21
26.86836010927075
 97
       10
330
124
330
EC
330
EB
330
125
330
EA
330
120
330
121
330
122
330
123
330
ED
 75
     1
 76
     0
 52
45.0
 41
0.1
 77
     0
 78
     1
 53
45.0
 43
0.0
 44
0.0
 45
-0.0707106781186548
 46
0.0707106781186548
 79
     0
 98
        1
 10
0.0
 20
0.0
  0
HATCH
  5
1AA
330
47
100
AcDbEntity
  8
1
  6
Continuous
 62
     2
100
AcDbHatch
 10
0.0
 20
0.0
 30
0.0
210
0.0
220
0.0
230
1.0
  2
_USER
 70
     0
 71
     1
 91
        1
 92
        1
 93
       10
 72
     1
 10
-50.13656305442271
 20
26.86836010927075
 11
-51.37706746467671
 21
28.17713561947593
 72
     1
 10
-51.37706746467671
 20
28.17713561947593
 11
-52.56986016684323
 21
28.17713561947593
 72
     1
 10
-52.56986016684323
 20
28.17713561947593
 11
-52.56986016684323
 21
25.12332609566474
 72
     1
 10
-52.56986016684323
 20
25.12332609566474
 11
-51.37706746467671
 21
25.12332609566474
 72
     1
 10
-51.37706746467671
 20
25.12332609566474
 11
-51.37706746467671
 21
26.43210160586943
 72
     1
 10
-51.37706746467671
 20
26.43210160586943
 11
-50.13656305442271
 21
25.12332609566474
 72
     1
 10
-50.13656305442271
 20
25.12332609566474
 11
-48.94377035225611
 21
25.12332609566474
 72
     1
 10
-48.94377035225611
 20
25.12332609566474
 11
-48.94377035225611
 21
28.17713561947593
 72
     1
 10
-48.94377035225611
 20
28.17713561947593
 11
-50.13656305442271
 21
28.17713561947593
 72
     1
 10
-50.13656305442271
 20
28.17713561947593
 11
-50.13656305442271
 21
26.86836010927075
 97
       10
330
124
330
EC
330
EB
330
125
330
EA
330
120
330
121
330
122
330
123
330
ED
 75
     1
 76
     0
 52
45.0
 41
0.1
 77
     0
 78
     1
 53
45.0
 43
0.0
 44
0.0
 45
-0.0707106781186548
 46
0.0707106781186548
 79
     0
 98
        1
 10
0.0
 20
0.0
  0
HATCH
  5
1AB
330
47
100
AcDbEntity
  8
1
  6
Continuous
 62
     2
100
AcDbHatch
 10
0.0
 20
0.0
 30
0.0
210
0.0
220
0.0
230
1.0
  2
_USER
 70
     0
 71
     1
 91
        1
 92
        1
 93
        8
 72
     1
 10
-51.23408327130221
 20
24.81794514330153
 11
-54.04907404841583
 21
24.81794514330153
 72
     1
 10
-54.04907404841583
 20
24.81794514330153
 11
-54.04907404841583
 21
24.03267983717794
 72
     1
 10
-54.04907404841583
 20
24.03267983717794
 11
-53.23797501094123
 21
24.03267983717794
 72
     1
 10
-53.23797501094123
 20
24.03267983717794
 11
-53.23797501094123
 21
21.76413561949045
 72
     1
 10
-53.23797501094123
 20
21.76413561949045
 11
-52.04518230877471
 21
21.76413561949045
 72
     1
 10
-52.04518230877471
 20
21.76413561949045
 11
-52.04518230877471
 21
24.03267983717794
 72
     1
 10
-52.04518230877471
 20
24.03267983717794
 11
-51.23408327130221
 21
24.03267983717794
 72
     1
 10
-51.23408327130221
 20
24.03267983717794
 11
-51.23408327130221
 21
24.81794514330153
 97
        8
330
E6
330
126
330
E5
330
127
330
128
330
E9
330
E8
330
E7
 75
     1
 76
     0
 52
45.0
 41
0.1
 77
     0
 78
     1
 53
45.0
 43
0.0
 44
0.0
 45
-0.0707106781186548
 46
0.0707106781186548
 79
     0
 98
        1
 10
0.0
 20
0.0
  0
HATCH
  5
1AC
330
47
100
AcDbEntity
  8
1
  6
Continuous
 62
     2
100
AcDbHatch
 10
0.0
 20
0.0
 30
0.0
210
0.0
220
0.0
230
1.0
  2
_USER
 70
     0
 71
     1
 91
        1
 92
        1
 93
        8
 72
     1
 10
-51.23408327130221
 20
24.81794514330153
 11
-54.04907404841583
 21
24.81794514330153
 72
     1
 10
-54.04907404841583
 20
24.81794514330153
 11
-54.04907404841583
 21
24.03267983717794
 72
     1
 10
-54.04907404841583
 20
24.03267983717794
 11
-53.23797501094123
 21
24.03267983717794
 72
     1
 10
-53.23797501094123
 20
24.03267983717794
 11
-53.23797501094123
 21
21.76413561949045
 72
     1
 10
-53.23797501094123
 20
21.76413561949045
 11
-52.04518230877471
 21
21.76413561949045
 72
     1
 10
-52.04518230877471
 20
21.76413561949045
 11
-52.04518230877471
 21
24.03267983717794
 72
     1
 10
-52.04518230877471
 20
24.03267983717794
 11
-51.23408327130221
 21
24.03267983717794
 72
     1
 10
-51.23408327130221
 20
24.03267983717794
 11
-51.23408327130221
 21
24.81794514330153
 97
        8
330
E6
330
126
330
E5
330
127
330
128
330
E9
330
E8
330
E7
 75
     1
 76
     0
 52
45.0
 41
0.1
 77
     0
 78
     1
 53
45.0
 43
0.0
 44
0.0
 45
-0.0707106781186548
 46
0.0707106781186548
 79
     0
 98
        1
 10
0.0
 20
0.0
  0
HATCH
  5
1AD
330
47
100
AcDbEntity
  8
1
  6
Continuous
 62
     2
100
AcDbHatch
 10
0.0
 20
0.0
 30
0.0
210
0.0
220
0.0
230
1.0
  2
_USER
 70
     0
 71
     1
 91
        2
 92
        1
 93
        8
 72
     1
 10
-49.09565581535523
 20
21.76413561949045
 11
-49.30713586883101
 21
22.30509616370833
 72
     1
 10
-49.30713586883101
 20
22.30509616370833
 11
-50.43957744550482
 21
22.30509616370833
 72
     1
 10
-50.43957744550482
 20
22.30509616370833
 11
-50.65105749898063
 21
21.76413561949045
 72
     1
 10
-50.65105749898063
 20
21.76413561949045
 11
-51.89156190923362
 21
21.76413561949045
 72
     1
 10
-51.89156190923362
 20
21.76413561949045
 11
-50.49360886229431
 21
24.81794514330153
 72
     1
 10
-50.49360886229431
 20
24.81794514330153
 11
-49.25310445204161
 21
24.81794514330153
 72
     1
 10
-49.25310445204161
 20
24.81794514330153
 11
-47.85515140510131
 21
21.76413561949045
 72
     1
 10
-47.85515140510131
 20
21.76413561949045
 11
-49.09565581535523
 21
21.76413561949045
 97
        8
330
12A
330
12B
330
E2
330
12C
330
E1
330
E4
330
129
330
E3
 92
       16
 93
        3
 72
     1
 10
-50.17352189435982
 20
22.98565942901493
 11
-49.87335665716742
 21
23.75347439500163
 72
     1
 10
-49.87335665716742
 20
23.75347439500163
 11
-49.57319141997732
 21
22.98565942901493
 72
     1
 10
-49.57319141997732
 20
22.98565942901493
 11
-50.17352189435982
 21
22.98565942901493
 97
        3
330
E0
330
12E
330
12D
 75
     1
 76
     0
 52
45.0
 41
0.1
 77
     0
 78
     1
 53
45.0
 43
0.0
 44
0.0
 45
-0.0707106781186548
 46
0.0707106781186548
 79
     0
 98
        1
 10
0.0
 20
0.0
  0
HATCH
  5
1AE
330
47
100
AcDbEntity
  8
1
  6
Continuous
 62
     2
100
AcDbHatch
 10
0.0
 20
0.0
 30
0.0
210
0.0
220
0.0
230
1.0
  2
_USER
 70
     0
 71
     1
 91
        2
 92
        1
 93
        8
 72
     1
 10
-49.09565581535523
 20
21.76413561949045
 11
-49.30713586883101
 21
22.30509616370833
 72
     1
 10
-49.30713586883101
 20
22.30509616370833
 11
-50.43957744550482
 21
22.30509616370833
 72
     1
 10
-50.43957744550482
 20
22.30509616370833
 11
-50.65105749898063
 21
21.76413561949045
 72
     1
 10
-50.65105749898063
 20
21.76413561949045
 11
-51.89156190923362
 21
21.76413561949045
 72
     1
 10
-51.89156190923362
 20
21.76413561949045
 11
-50.49360886229431
 21
24.81794514330153
 72
     1
 10
-50.49360886229431
 20
24.81794514330153
 11
-49.25310445204161
 21
24.81794514330153
 72
     1
 10
-49.25310445204161
 20
24.81794514330153
 11
-47.85515140510131
 21
21.76413561949045
 72
     1
 10
-47.85515140510131
 20
21.76413561949045
 11
-49.09565581535523
 21
21.76413561949045
 97
        8
330
12A
330
12B
330
E2
330
12C
330
E1
330
E4
330
129
330
E3
 92
       16
 93
        3
 72
     1
 10
-50.17352189435982
 20
22.98565942901493
 11
-49.87335665716742
 21
23.75347439500163
 72
     1
 10
-49.87335665716742
 20
23.75347439500163
 11
-49.57319141997732
 21
22.98565942901493
 72
     1
 10
-49.57319141997732
 20
22.98565942901493
 11
-50.17352189435982
 21
22.98565942901493
 97
        3
330
E0
330
12E
330
12D
 75
     1
 76
     0
 52
45.0
 41
0.1
 77
     0
 78
     1
 53
45.0
 43
0.0
 44
0.0
 45
-0.0707106781186548
 46
0.0707106781186548
 79
     0
 98
        1
 10
0.0
 20
0.0
  0
HATCH
  5
1AF
330
47
100
AcDbEntity
  8
1
  6
Continuous
 62
     2
100
AcDbHatch
 10
0.0
 20
0.0
 30
0.0
210
0.0
220
0.0
230
1.0
  2
_USER
 70
     0
 71
     1
 91
        1
 92
        1
 93
        4
 72
     1
 10
-47.46470740156931
 20
25.12332609566474
 11
-48.70521181182221
 21
25.12332609566474
 72
     1
 10
-48.70521181182221
 20
25.12332609566474
 11
-48.70521181182221
 21
28.17713561947593
 72
     1
 10
-48.70521181182221
 20
28.17713561947593
 11
-47.46470740156931
 21
28.17713561947593
 72
     1
 10
-47.46470740156931
 20
28.17713561947593
 11
-47.46470740156931
 21
25.12332609566474
 97
        4
330
DD
330
DF
330
12F
330
DE
 75
     1
 76
     0
 52
45.0
 41
0.1
 77
     0
 78
     1
 53
45.0
 43
0.0
 44
0.0
 45
-0.0707106781186548
 46
0.0707106781186548
 79
     0
 98
        1
 10
0.0
 20
0.0
  0
HATCH
  5
1B0
330
47
100
AcDbEntity
  8
1
  6
Continuous
 62
     2
100
AcDbHatch
 10
0.0
 20
0.0
 30
0.0
210
0.0
220
0.0
230
1.0
  2
_USER
 70
     0
 71
     1
 91
        1
 92
        1
 93
        4
 72
     1
 10
-47.46470740156931
 20
25.12332609566474
 11
-48.70521181182221
 21
25.12332609566474
 72
     1
 10
-48.70521181182221
 20
25.12332609566474
 11
-48.70521181182221
 21
28.17713561947593
 72
     1
 10
-48.70521181182221
 20
28.17713561947593
 11
-47.46470740156931
 21
28.17713561947593
 72
     1
 10
-47.46470740156931
 20
28.17713561947593
 11
-47.46470740156931
 21
25.12332609566474
 97
        4
330
DD
330
DF
330
12F
330
DE
 75
     1
 76
     0
 52
45.0
 41
0.1
 77
     0
 78
     1
 53
45.0
 43
0.0
 44
0.0
 45
-0.0707106781186548
 46
0.0707106781186548
 79
     0
 98
        1
 10
0.0
 20
0.0
  0
HATCH
  5
1B1
330
47
100
AcDbEntity
  8
1
  6
Continuous
 62
     2
100
AcDbHatch
 10
0.0
 20
0.0
 30
0.0
210
0.0
220
0.0
230
1.0
  2
_USER
 70
     0
 71
     1
 91
        1
 92
        1
 93
       12
 72
     1
 10
-43.24222123589851
 20
28.17713561947593
 11
-44.54475086666503
 21
26.70418508943973
 72
     1
 10
-44.54475086666503
 20
26.70418508943973
 11
-43.14679781972473
 21
25.12332609566474
 72
     1
 10
-43.14679781972473
 20
25.12332609566474
 11
-44.54952203747303
 21
25.12332609566474
 72
     1
 10
-44.54952203747303
 20
25.12332609566474
 11
-45.24611297553852
 21
25.91105788095845
 72
     1
 10
-45.24611297553852
 20
25.91105788095845
 11
-45.94270391360422
 21
25.12332609566474
 72
     1
 10
-45.94270391360422
 20
25.12332609566474
 11
-47.34542813135244
 21
25.12332609566474
 72
     1
 10
-47.34542813135244
 20
25.12332609566474
 11
-45.94747508441213
 21
26.70418508943973
 72
     1
 10
-45.94747508441213
 20
26.70418508943973
 11
-47.25000471517961
 21
28.17713561947593
 72
     1
 10
-47.25000471517961
 20
28.17713561947593
 11
-45.84728049743032
 21
28.17713561947593
 72
     1
 10
-45.84728049743032
 20
28.17713561947593
 11
-45.24611297553852
 21
27.49731229792045
 72
     1
 10
-45.24611297553852
 20
27.49731229792045
 11
-44.64494545364573
 21
28.17713561947593
 72
     1
 10
-44.64494545364573
 20
28.17713561947593
 11
-43.24222123589851
 21
28.17713561947593
 97
       12
330
D8
330
D7
330
D6
330
133
330
134
330
130
330
131
330
DC
330
DB
330
DA
330
D9
330
132
 75
     1
 76
     0
 52
45.0
 41
0.1
 77
     0
 78
     1
 53
45.0
 43
0.0
 44
0.0
 45
-0.0707106781186548
 46
0.0707106781186548
 79
     0
 98
        1
 10
0.0
 20
0.0
  0
HATCH
  5
1B2
330
47
100
AcDbEntity
  8
1
  6
Continuous
 62
     2
100
AcDbHatch
 10
0.0
 20
0.0
 30
0.0
210
0.0
220
0.0
230
1.0
  2
_USER
 70
     0
 71
     1
 91
        1
 92
        1
 93
       12
 72
     1
 10
-43.24222123589851
 20
28.17713561947593
 11
-44.54475086666503
 21
26.70418508943973
 72
     1
 10
-44.54475086666503
 20
26.70418508943973
 11
-43.14679781972473
 21
25.12332609566474
 72
     1
 10
-43.14679781972473
 20
25.12332609566474
 11
-44.54952203747303
 21
25.12332609566474
 72
     1
 10
-44.54952203747303
 20
25.12332609566474
 11
-45.24611297553852
 21
25.91105788095845
 72
     1
 10
-45.24611297553852
 20
25.91105788095845
 11
-45.94270391360422
 21
25.12332609566474
 72
     1
 10
-45.94270391360422
 20
25.12332609566474
 11
-47.34542813135244
 21
25.12332609566474
 72
     1
 10
-47.34542813135244
 20
25.12332609566474
 11
-45.94747508441213
 21
26.70418508943973
 72
     1
 10
-45.94747508441213
 20
26.70418508943973
 11
-47.25000471517961
 21
28.17713561947593
 72
     1
 10
-47.25000471517961
 20
28.17713561947593
 11
-45.84728049743032
 21
28.17713561947593
 72
     1
 10
-45.84728049743032
 20
28.17713561947593
 11
-45.24611297553852
 21
27.49731229792045
 72
     1
 10
-45.24611297553852
 20
27.49731229792045
 11
-44.64494545364573
 21
28.17713561947593
 72
     1
 10
-44.64494545364573
 20
28.17713561947593
 11
-43.24222123589851
 21
28.17713561947593
 97
       12
330
D8
330
D7
330
D6
330
133
330
134
330
130
330
131
330
DC
330
DB
330
DA
330
D9
330
132
 75
     1
 76
     0
 52
45.0
 41
0.1
 77
     0
 78
     1
 53
45.0
 43
0.0
 44
0.0
 45
-0.0707106781186548
 46
0.0707106781186548
 79
     0
 98
        1
 10
0.0
 20
0.0
  0
HATCH
  5
1B3
330
47
100
AcDbEntity
  8
1
  6
Continuous
 62
     2
100
AcDbHatch
 10
0.0
 20
0.0
 30
0.0
210
0.0
220
0.0
230
1.0
  2
_USER
 70
     0
 71
     1
 91
        2
 92
        1
 93
        6
 72
     1
 10
-62.25995665004453
 20
26.06640433680855
 11
-63.01872423782481
 21
26.06640433680855
 72
     1
 10
-63.01872423782481
 20
26.06640433680855
 11
-63.01872423782481
 21
25.12332609566474
 72
     1
 10
-63.01872423782481
 20
25.12332609566474
 11
-64.25922864807893
 21
25.12332609566474
 72
     1
 10
-64.25922864807893
 20
25.12332609566474
 11
-64.25922864807893
 21
28.17713561947593
 72
     1
 10
-64.25922864807893
 20
28.17713561947593
 11
-62.25995665004453
 21
28.17713561947593
 72
     2
 10
-62.25995665004453
 20
27.12176997814225
 40
1.055365641333701
 50
270.0
 51
450.0
 73
     0
 97
        6
330
100
330
FF
330
10C
330
10B
330
101
330
151
 92
       16
 93
        4
 72
     2
 10
-62.70142917628292
 20
27.16116594936474
 40
0.3528638246711111
 50
270.0
 51
450.0
 73
     1
 72
     1
 10
-62.70142917628292
 20
27.51402977403583
 11
-63.01872423782481
 21
27.51402977403583
 72
     1
 10
-63.01872423782481
 20
27.51402977403583
 11
-63.01872423782481
 21
26.80830212469363
 72
     1
 10
-63.01872423782481
 20
26.80830212469363
 11
-62.70142917628292
 21
26.80830212469363
 97
        4
330
165
330
FD
330
10D
330
FE
 75
     1
 76
     0
 52
45.0
 41
0.1
 77
     0
 78
     1
 53
45.0
 43
0.0
 44
0.0
 45
-0.0707106781186548
 46
0.0707106781186548
 79
     0
 98
        1
 10
0.0
 20
0.0
  0
HATCH
  5
1B4
330
47
100
AcDbEntity
  8
1
  6
Continuous
 62
     2
100
AcDbHatch
 10
0.0
 20
0.0
 30
0.0
210
0.0
220
0.0
230
1.0
  2
_USER
 70
     0
 71
     1
 91
        2
 92
        1
 93
        6
 72
     1
 10
-62.25995665004453
 20
26.06640433680855
 11
-63.01872423782481
 21
26.06640433680855
 72
     1
 10
-63.01872423782481
 20
26.06640433680855
 11
-63.01872423782481
 21
25.12332609566474
 72
     1
 10
-63.01872423782481
 20
25.12332609566474
 11
-64.25922864807893
 21
25.12332609566474
 72
     1
 10
-64.25922864807893
 20
25.12332609566474
 11
-64.25922864807893
 21
28.17713561947593
 72
     1
 10
-64.25922864807893
 20
28.17713561947593
 11
-62.25995665004453
 21
28.17713561947593
 72
     2
 10
-62.25995665004453
 20
27.12176997814225
 40
1.055365641333701
 50
270.0
 51
450.0
 73
     0
 97
        6
330
100
330
FF
330
10C
330
10B
330
101
330
151
 92
       16
 93
        4
 72
     2
 10
-62.70142917628292
 20
27.16116594936474
 40
0.3528638246711111
 50
270.0
 51
450.0
 73
     1
 72
     1
 10
-62.70142917628292
 20
27.51402977403583
 11
-63.01872423782481
 21
27.51402977403583
 72
     1
 10
-63.01872423782481
 20
27.51402977403583
 11
-63.01872423782481
 21
26.80830212469363
 72
     1
 10
-63.01872423782481
 20
26.80830212469363
 11
-62.70142917628292
 21
26.80830212469363
 97
        4
330
165
330
FD
330
10D
330
FE
 75
     1
 76
     0
 52
45.0
 41
0.1
 77
     0
 78
     1
 53
45.0
 43
0.0
 44
0.0
 45
-0.0707106781186548
 46
0.0707106781186548
 79
     0
 98
        1
 10
0.0
 20
0.0
  0
HATCH
  5
1B5
330
47
100
AcDbEntity
  8
1
  6
Continuous
 62
     2
100
AcDbHatch
 10
0.0
 20
0.0
 30
0.0
210
0.0
220
0.0
230
1.0
  2
_USER
 70
     0
 71
     1
 91
        2
 92
        1
 93
        4
 72
     2
 10
-59.70341390168542
 20
22.75246537109294
 40
2.065479772208568
 50
62.45185182430637
 51
117.5481481756664
 73
     1
 72
     2
 10
-59.98435379351872
 20
23.29104038139573
 40
1.45803408365149
 50
117.5481481756624
 51
242.4518518243376
 73
     1
 72
     2
 10
-59.70341390168542
 20
23.82961539169904
 40
2.065479772208515
 50
242.4518518243403
 51
297.548148175687
 73
     1
 72
     2
 10
-59.42247400985212
 20
23.29104038139573
 40
1.458034083652002
 50
297.5481481757007
 51
422.4518518242992
 73
     1
 97
        4
330
15D
330
15C
330
15E
330
15B
 92
       16
 93
        4
 72
     2
 10
-59.90315393803184
 20
23.29104038139573
 40
0.771799778679697
 50
321.8795802028415
 51
398.1204197971534
 73
     1
 72
     2
 10
-59.70341390168542
 20
23.44777155951624
 40
0.5179085730132965
 50
38.12041979714783
 51
141.879580202859
 73
     1
 72
     2
 10
-59.50367386533932
 20
23.29104038139573
 40
0.771799778679471
 50
141.8795802028364
 51
218.1204197971686
 73
     1
 72
     2
 10
-59.70341390168542
 20
23.13430920327573
 40
0.5179085730137409
 50
218.1204197971927
 51
321.8795802028005
 73
     1
 97
        4
330
179
330
176
330
177
330
178
 75
     1
 76
     0
 52
45.0
 41
0.1
 77
     0
 78
     1
 53
45.0
 43
0.0
 44
0.0
 45
-0.0707106781186548
 46
0.0707106781186548
 79
     0
 98
        1
 10
0.0
 20
0.0
  0
HATCH
  5
1B6
330
47
100
AcDbEntity
  8
1
  6
Continuous
 62
     2
100
AcDbHatch
 10
0.0
 20
0.0
 30
0.0
210
0.0
220
0.0
230
1.0
  2
_USER
 70
     0
 71
     1
 91
        2
 92
        1
 93
        4
 72
     2
 10
-59.70341390168542
 20
22.75246537109294
 40
2.065479772208568
 50
62.45185182430637
 51
117.5481481756664
 73
     1
 72
     2
 10
-59.98435379351872
 20
23.29104038139573
 40
1.45803408365149
 50
117.5481481756624
 51
242.4518518243376
 73
     1
 72
     2
 10
-59.70341390168542
 20
23.82961539169904
 40
2.065479772208515
 50
242.4518518243403
 51
297.548148175687
 73
     1
 72
     2
 10
-59.42247400985212
 20
23.29104038139573
 40
1.458034083652002
 50
297.5481481757007
 51
422.4518518242992
 73
     1
 97
        4
330
15D
330
15C
330
15E
330
15B
 92
       16
 93
        4
 72
     2
 10
-59.90315393803184
 20
23.29104038139573
 40
0.771799778679697
 50
321.8795802028415
 51
398.1204197971534
 73
     1
 72
     2
 10
-59.70341390168542
 20
23.44777155951624
 40
0.5179085730132965
 50
38.12041979714783
 51
141.879580202859
 73
     1
 72
     2
 10
-59.50367386533932
 20
23.29104038139573
 40
0.771799778679471
 50
141.8795802028364
 51
218.1204197971686
 73
     1
 72
     2
 10
-59.70341390168542
 20
23.13430920327573
 40
0.5179085730137409
 50
218.1204197971927
 51
321.8795802028005
 73
     1
 97
        4
330
179
330
176
330
177
330
178
 75
     1
 76
     0
 52
45.0
 41
0.1
 77
     0
 78
     1
 53
45.0
 43
0.0
 44
0.0
 45
-0.0707106781186548
 46
0.0707106781186548
 79
     0
 98
        1
 10
0.0
 20
0.0
  0
HATCH
  5
1B7
330
47
100
AcDbEntity
  8
1
  6
Continuous
 62
     2
100
AcDbHatch
 10
0.0
 20
0.0
 30
0.0
210
0.0
220
0.0
230
1.0
  2
_USER
 70
     0
 71
     1
 91
        2
 92
        1
 93
       12
 72
     1
 10
-52.80841870727613
 20
27.47912201403295
 11
-54.14434653370381
 21
27.47912201403295
 72
     1
 10
-54.14434653370381
 20
27.47912201403295
 11
-54.14434653370381
 21
26.99923766029124
 72
     1
 10
-54.14434653370381
 20
26.99923766029124
 11
-52.80841870727613
 21
26.99923766029124
 72
     1
 10
-52.80841870727613
 20
26.99923766029124
 11
-52.80841870727613
 21
26.30122405484894
 72
     1
 10
-52.80841870727613
 20
26.30122405484894
 11
-54.14434653370381
 21
26.30122405484894
 72
     1
 10
-54.14434653370381
 20
26.30122405484894
 11
-54.14434653370381
 21
25.82133970110724
 72
     1
 10
-54.14434653370381
 20
25.82133970110724
 11
-52.80841870727613
 21
25.82133970110724
 72
     1
 10
-52.80841870727613
 20
25.82133970110724
 11
-52.80841870727613
 21
25.12332609566474
 72
     1
 10
-52.80841870727613
 20
25.12332609566474
 11
-55.95873843105713
 21
25.12332609566474
 72
     2
 10
-55.95873843105713
 20
26.65023085757005
 40
1.526904761905879
 50
90.0
 51
270.0
 73
     0
 72
     1
 10
-55.95873843105713
 20
28.17713561947593
 11
-52.80841870727613
 21
28.17713561947593
 72
     1
 10
-52.80841870727613
 20
28.17713561947593
 11
-52.80841870727613
 21
27.47912201403295
 97
       12
330
114
330
166
330
115
330
116
330
117
330
118
330
F5
330
F4
330
F3
330
F2
330
119
330
113
 92
       16
 93
        4
 72
     2
 10
-55.74246642089193
 20
26.80696203569053
 40
0.5179085730135343
 50
38.12041979714316
 51
141.8795802028486
 73
     1
 72
     2
 10
-55.54272638454563
 20
26.65023085757005
 40
0.7717997786796724
 50
141.8795802028404
 51
218.1204197971562
 73
     1
 72
     2
 10
-55.74246642089193
 20
26.49349967944963
 40
0.5179085730134393
 50
218.1204197971514
 51
321.8795802028569
 73
     1
 72
     2
 10
-55.94220645723812
 20
26.65023085757005
 40
0.7717997786796486
 50
321.8795802028444
 51
398.1204197971589
 73
     1
 97
        4
330
160
330
15F
330
15A
330
159
 75
     1
 76
     0
 52
45.0
 41
0.1
 77
     0
 78
     1
 53
45.0
 43
0.0
 44
0.0
 45
-0.0707106781186548
 46
0.0707106781186548
 79
     0
 98
        1
 10
0.0
 20
0.0
  0
HATCH
  5
1B8
330
47
100
AcDbEntity
  8
1
  6
Continuous
 62
     2
100
AcDbHatch
 10
0.0
 20
0.0
 30
0.0
210
0.0
220
0.0
230
1.0
  2
_USER
 70
     0
 71
     1
 91
        2
 92
        1
 93
       12
 72
     1
 10
-52.80841870727613
 20
27.47912201403295
 11
-54.14434653370381
 21
27.47912201403295
 72
     1
 10
-54.14434653370381
 20
27.47912201403295
 11
-54.14434653370381
 21
26.99923766029124
 72
     1
 10
-54.14434653370381
 20
26.99923766029124
 11
-52.80841870727613
 21
26.99923766029124
 72
     1
 10
-52.80841870727613
 20
26.99923766029124
 11
-52.80841870727613
 21
26.30122405484894
 72
     1
 10
-52.80841870727613
 20
26.30122405484894
 11
-54.14434653370381
 21
26.30122405484894
 72
     1
 10
-54.14434653370381
 20
26.30122405484894
 11
-54.14434653370381
 21
25.82133970110724
 72
     1
 10
-54.14434653370381
 20
25.82133970110724
 11
-52.80841870727613
 21
25.82133970110724
 72
     1
 10
-52.80841870727613
 20
25.82133970110724
 11
-52.80841870727613
 21
25.12332609566474
 72
     1
 10
-52.80841870727613
 20
25.12332609566474
 11
-55.95873843105713
 21
25.12332609566474
 72
     2
 10
-55.95873843105713
 20
26.65023085757005
 40
1.526904761905879
 50
90.0
 51
270.0
 73
     0
 72
     1
 10
-55.95873843105713
 20
28.17713561947593
 11
-52.80841870727613
 21
28.17713561947593
 72
     1
 10
-52.80841870727613
 20
28.17713561947593
 11
-52.80841870727613
 21
27.47912201403295
 97
       12
330
114
330
166
330
115
330
116
330
117
330
118
330
F5
330
F4
330
F3
330
F2
330
119
330
113
 92
       16
 93
        4
 72
     2
 10
-55.74246642089193
 20
26.80696203569053
 40
0.5179085730135343
 50
38.12041979714316
 51
141.8795802028486
 73
     1
 72
     2
 10
-55.54272638454563
 20
26.65023085757005
 40
0.7717997786796724
 50
141.8795802028404
 51
218.1204197971562
 73
     1
 72
     2
 10
-55.74246642089193
 20
26.49349967944963
 40
0.5179085730134393
 50
218.1204197971514
 51
321.8795802028569
 73
     1
 72
     2
 10
-55.94220645723812
 20
26.65023085757005
 40
0.7717997786796486
 50
321.8795802028444
 51
398.1204197971589
 73
     1
 97
        4
330
160
330
15F
330
15A
330
159
 75
     1
 76
     0
 52
45.0
 41
0.1
 77
     0
 78
     1
 53
45.0
 43
0.0
 44
0.0
 45
-0.0707106781186548
 46
0.0707106781186548
 79
     0
 98
        1
 10
0.0
 20
0.0
  0
HATCH
  5
1B9
330
47
100
AcDbEntity
  8
1
  6
Continuous
 62
     2
100
AcDbHatch
 10
0.0
 20
0.0
 30
0.0
210
0.0
220
0.0
230
1.0
  2
_USER
 70
     0
 71
     1
 91
        4
 92
        1
 93
        8
 72
     1
 10
-64.73634572894574
 20
27.75289100407395
 11
-64.73634572894574
 21
22.18838023487373
 72
     2
 10
-65.16059034432962
 20
22.18838023487373
 40
0.4242446153832802
 50
0.0
 51
90.0
 73
     0
 72
     1
 10
-65.16059034432962
 20
21.76413561949045
 11
-70.63390243504642
 21
21.76413561949045
 72
     2
 10
-70.63390243504642
 20
22.18838023487373
 40
0.4242446153828041
 50
90.0
 51
180.0
 73
     0
 72
     1
 10
-71.05814705042923
 20
22.18838023487373
 11
-71.05814705042923
 21
27.75289100407395
 72
     2
 10
-70.63390243504642
 20
27.75289100407395
 40
0.4242446153837918
 50
180.0
 51
270.0
 73
     0
 72
     1
 10
-70.63390243504642
 20
28.17713561945774
 11
-65.16059034432962
 21
28.17713561945774
 72
     2
 10
-65.16059034432962
 20
27.75289100407395
 40
0.4242446153838841
 50
270.0
 51
360.0
 73
     0
 97
        8
330
108
330
156
330
109
330
161
330
106
330
158
330
107
330
157
 92
       16
 93
        1
 72
     2
 10
-68.01431678452892
 20
25.43400877571844
 40
0.4709789327785074
 50
0.0
 51
360.0
 73
     1
 97
        1
330
17C
 92
       16
 93
        8
 72
     2
 10
-67.46445907176823
 20
24.32486717575003
 40
0.315716923076536
 50
115.3740086783516
 51
180.0
 73
     1
 72
     1
 10
-67.78017599484502
 20
24.32486717575003
 11
-67.78017599484502
 21
23.74301576905495
 72
     2
 10
-67.46445907176823
 20
23.74301576905495
 40
0.315716923076792
 50
180.0
 51
269.8110329574542
 73
     1
 72
     2
 10
-67.45884293645821
 20
25.44585071662394
 40
2.018561131933269
 50
269.8110329575858
 51
450.1889670424142
 73
     1
 72
     2
 10
-67.46445907176823
 20
27.14868566419304
 40
0.3157169230760746
 50
90.18896704254594
 51
180.0
 73
     1
 72
     1
 10
-67.78017599484502
 20
27.14868566419304
 11
-67.78017599484502
 21
26.54315037568625
 72
     2
 10
-67.46445907176823
 20
26.54315037568625
 40
0.315716923076792
 50
180.0
 51
244.6259913216482
 73
     1
 72
     2
 10
-67.99050176985611
 20
25.43400877571844
 40
0.9118481501444557
 50
295.3740086781926
 51
424.6259913218234
 73
     0
 97
        8
330
16E
330
CF
330
16B
330
16C
330
14A
330
CE
330
16D
330
149
 92
       16
 93
       12
 72
     2
 10
-70.04000775829994
 20
22.79240809812404
 40
0.3157169230756836
 50
180.0
 51
270.0
 73
     1
 72
     1
 10
-70.04000775829994
 20
22.47669117504734
 11
-68.56417449729031
 21
22.47669117504734
 72
     2
 10
-68.56417449729031
 20
22.79240809812404
 40
0.3157169230766996
 50
270.0
 51
360.0
 73
     1
 72
     1
 10
-68.24845757421372
 20
22.79240809812404
 11
-68.24845757421372
 21
24.32317902965565
 72
     2
 10
-68.56417449729031
 20
24.32317902965565
 40
0.315716923076593
 50
0.0
 51
64.80558935146027
 73
     1
 72
     2
 10
-68.04159004971532
 20
25.43400877571844
 40
0.9118975235576114
 50
115.1944106485122
 51
244.8055893514717
 73
     0
 72
     2
 10
-68.56417449729031
 20
26.54483852178063
 40
0.3157169230761203
 50
295.1944106485397
 51
360.0
 73
     1
 72
     1
 10
-68.24845757421372
 20
26.54483852178063
 11
-68.24845757421372
 21
27.14886314084114
 72
     2
 10
-68.56417449729031
 20
27.14886314084114
 40
0.315716923076593
 50
0.0
 51
90.0
 73
     1
 72
     1
 10
-68.56417449729031
 20
27.46458006391734
 11
-70.04000775829994
 21
27.46458006391734
 72
     2
 10
-70.04000775829994
 20
27.14886314084114
 40
0.3157169230761987
 50
90.0
 51
180.0
 73
     1
 72
     1
 10
-70.35572468137562
 20
27.14886314084114
 11
-70.35572468137562
 21
22.79240809812404
 97
       12
330
152
330
10A
330
155
330
105
330
162
330
163
330
154
330
104
330
153
330
103
330
164
330
102
 75
     1
 76
     0
 52
45.0
 41
0.1
 77
     0
 78
     1
 53
45.0
 43
0.0
 44
0.0
 45
-0.0707106781186548
 46
0.0707106781186548
 79
     0
 98
        1
 10
0.0
 20
0.0
  0
HATCH
  5
1BA
330
47
100
AcDbEntity
  8
1
  6
Continuous
 62
     2
100
AcDbHatch
 10
0.0
 20
0.0
 30
0.0
210
0.0
220
0.0
230
1.0
  2
_USER
 70
     0
 71
     1
 91
        4
 92
        1
 93
        8
 72
     1
 10
-64.73634572894574
 20
27.75289100407395
 11
-64.73634572894574
 21
22.18838023487373
 72
     2
 10
-65.16059034432962
 20
22.18838023487373
 40
0.4242446153832802
 50
0.0
 51
90.0
 73
     0
 72
     1
 10
-65.16059034432962
 20
21.76413561949045
 11
-70.63390243504642
 21
21.76413561949045
 72
     2
 10
-70.63390243504642
 20
22.18838023487373
 40
0.4242446153828041
 50
90.0
 51
180.0
 73
     0
 72
     1
 10
-71.05814705042923
 20
22.18838023487373
 11
-71.05814705042923
 21
27.75289100407395
 72
     2
 10
-70.63390243504642
 20
27.75289100407395
 40
0.4242446153837918
 50
180.0
 51
270.0
 73
     0
 72
     1
 10
-70.63390243504642
 20
28.17713561945774
 11
-65.16059034432962
 21
28.17713561945774
 72
     2
 10
-65.16059034432962
 20
27.75289100407395
 40
0.4242446153838841
 50
270.0
 51
360.0
 73
     0
 97
        8
330
108
330
156
330
109
330
161
330
106
330
158
330
107
330
157
 92
       16
 93
        1
 72
     2
 10
-68.01431678452892
 20
25.43400877571844
 40
0.4709789327785074
 50
0.0
 51
360.0
 73
     1
 97
        1
330
17C
 92
       16
 93
        8
 72
     2
 10
-67.46445907176823
 20
24.32486717575003
 40
0.315716923076536
 50
115.3740086783516
 51
180.0
 73
     1
 72
     1
 10
-67.78017599484502
 20
24.32486717575003
 11
-67.78017599484502
 21
23.74301576905495
 72
     2
 10
-67.46445907176823
 20
23.74301576905495
 40
0.315716923076792
 50
180.0
 51
269.8110329574542
 73
     1
 72
     2
 10
-67.45884293645821
 20
25.44585071662394
 40
2.018561131933269
 50
269.8110329575858
 51
450.1889670424142
 73
     1
 72
     2
 10
-67.46445907176823
 20
27.14868566419304
 40
0.3157169230760746
 50
90.18896704254594
 51
180.0
 73
     1
 72
     1
 10
-67.78017599484502
 20
27.14868566419304
 11
-67.78017599484502
 21
26.54315037568625
 72
     2
 10
-67.46445907176823
 20
26.54315037568625
 40
0.315716923076792
 50
180.0
 51
244.6259913216482
 73
     1
 72
     2
 10
-67.99050176985611
 20
25.43400877571844
 40
0.9118481501444557
 50
295.3740086781926
 51
424.6259913218234
 73
     0
 97
        8
330
16E
330
CF
330
16B
330
16C
330
14A
330
CE
330
16D
330
149
 92
       16
 93
       12
 72
     2
 10
-70.04000775829994
 20
22.79240809812404
 40
0.3157169230756836
 50
180.0
 51
270.0
 73
     1
 72
     1
 10
-70.04000775829994
 20
22.47669117504734
 11
-68.56417449729031
 21
22.47669117504734
 72
     2
 10
-68.56417449729031
 20
22.79240809812404
 40
0.3157169230766996
 50
270.0
 51
360.0
 73
     1
 72
     1
 10
-68.24845757421372
 20
22.79240809812404
 11
-68.24845757421372
 21
24.32317902965565
 72
     2
 10
-68.56417449729031
 20
24.32317902965565
 40
0.315716923076593
 50
0.0
 51
64.80558935146027
 73
     1
 72
     2
 10
-68.04159004971532
 20
25.43400877571844
 40
0.9118975235576114
 50
115.1944106485122
 51
244.8055893514717
 73
     0
 72
     2
 10
-68.56417449729031
 20
26.54483852178063
 40
0.3157169230761203
 50
295.1944106485397
 51
360.0
 73
     1
 72
     1
 10
-68.24845757421372
 20
26.54483852178063
 11
-68.24845757421372
 21
27.14886314084114
 72
     2
 10
-68.56417449729031
 20
27.14886314084114
 40
0.315716923076593
 50
0.0
 51
90.0
 73
     1
 72
     1
 10
-68.56417449729031
 20
27.46458006391734
 11
-70.04000775829994
 21
27.46458006391734
 72
     2
 10
-70.04000775829994
 20
27.14886314084114
 40
0.3157169230761987
 50
90.0
 51
180.0
 73
     1
 72
     1
 10
-70.35572468137562
 20
27.14886314084114
 11
-70.35572468137562
 21
22.79240809812404
 97
       12
330
152
330
10A
330
155
330
105
330
162
330
163
330
154
330
104
330
153
330
103
330
164
330
102
 75
     1
 76
     0
 52
45.0
 41
0.1
 77
     0
 78
     1
 53
45.0
 43
0.0
 44
0.0
 45
-0.0707106781186548
 46
0.0707106781186548
 79
     0
 98
        1
 10
0.0
 20
0.0
  0
HATCH
  5
1BB
330
47
100
AcDbEntity
  8
1
  6
Continuous
 62
     2
100
AcDbHatch
 10
0.0
 20
0.0
 30
0.0
210
0.0
220
0.0
230
1.0
  2
_USER
 70
     0
 71
     1
 91
        1
 92
        1
 93
       18
 72
     1
 10
-43.14679781972473
 20
24.03267983717794
 11
-43.95789685719811
 21
24.03267983717794
 72
     1
 10
-43.95789685719811
 20
24.03267983717794
 11
-43.95789685719811
 21
21.76413561949045
 72
     1
 10
-43.95789685719811
 20
21.76413561949045
 11
-45.15068955936582
 21
21.76413561949045
 72
     1
 10
-45.15068955936582
 20
21.76413561949045
 11
-45.15068955936582
 21
24.03267983717794
 72
     1
 10
-45.15068955936582
 20
24.03267983717794
 11
-46.25432885893392
 21
24.03267983717794
 72
     2
 10
-46.25432885893392
 20
23.07815683035184
 40
0.9545230068261006
 50
90.0
 51
109.3371432194319
 73
     1
 72
     2
 10
-46.40099885703762
 20
23.49611181073473
 40
0.5115800601944176
 50
109.3371432194852
 51
151.4785267424221
 73
     1
 72
     2
 10
-46.02364159895623
 20
23.29104038139573
 40
0.9410597353348941
 50
151.4785267423622
 51
208.5214732576695
 73
     1
 72
     2
 10
-46.40099885703762
 20
23.08596895205724
 40
0.5115800601960199
 50
208.5214732576863
 51
246.6277221118453
 73
     1
 72
     2
 10
-46.24455882433452
 20
23.44796097076724
 40
0.905929784985274
 50
246.6277221118186
 51
288.4480761180817
 73
     1
 72
     2
 10
-46.66272655799642
 20
24.70150674680383
 40
2.227384008972746
 50
288.4480761181335
 51
301.9309089499397
 73
     1
 72
     1
 10
-45.48467151597251
 20
22.81115602765405
 11
-45.48467151597251
 21
21.93863902085073
 72
     2
 10
-46.82059943308923
 20
26.60372132665214
 40
4.852596863498825
 50
74.02000874166129
 51
84.84185523036365
 73
     0
 72
     2
 10
-46.53174333835341
 20
23.40383074343055
 40
1.639695123940448
 50
84.8418552303238
 51
164.9381082228988
 73
     0
 72
     2
 10
-46.95087118181502
 20
23.29104038139573
 40
1.205656168393001
 50
164.9381082229043
 51
195.061891777097
 73
     0
 72
     2
 10
-46.53174333835341
 20
23.17825001936083
 40
1.639695123940218
 50
195.0618917771049
 51
270.0
 73
     0
 72
     1
 10
-46.53174333835341
 20
24.81794514330105
 11
-43.14679781972473
 21
24.81794514330153
 72
     1
 10
-43.14679781972473
 20
24.81794514330153
 11
-43.14679781972473
 21
24.03267983717794
 97
       18
330
D1
330
167
330
168
330
150
330
14F
330
135
330
14E
330
14D
330
169
330
14C
330
16A
330
14B
330
136
330
D0
330
D5
330
D4
330
D3
330
D2
 75
     1
 76
     0
 52
45.0
 41
0.1
 77
     0
 78
     1
 53
45.0
 43
0.0
 44
0.0
 45
-0.0707106781186548
 46
0.0707106781186548
 79
     0
 98
        1
 10
0.0
 20
0.0
  0
HATCH
  5
1BC
330
47
100
AcDbEntity
  8
1
  6
Continuous
 62
     2
100
AcDbHatch
 10
0.0
 20
0.0
 30
0.0
210
0.0
220
0.0
230
1.0
  2
_USER
 70
     0
 71
     1
 91
        1
 92
        1
 93
       18
 72
     1
 10
-43.14679781972473
 20
24.03267983717794
 11
-43.95789685719811
 21
24.03267983717794
 72
     1
 10
-43.95789685719811
 20
24.03267983717794
 11
-43.95789685719811
 21
21.76413561949045
 72
     1
 10
-43.95789685719811
 20
21.76413561949045
 11
-45.15068955936582
 21
21.76413561949045
 72
     1
 10
-45.15068955936582
 20
21.76413561949045
 11
-45.15068955936582
 21
24.03267983717794
 72
     1
 10
-45.15068955936582
 20
24.03267983717794
 11
-46.25432885893392
 21
24.03267983717794
 72
     2
 10
-46.25432885893392
 20
23.07815683035184
 40
0.9545230068261006
 50
90.0
 51
109.3371432194319
 73
     1
 72
     2
 10
-46.40099885703762
 20
23.49611181073473
 40
0.5115800601944176
 50
109.3371432194852
 51
151.4785267424221
 73
     1
 72
     2
 10
-46.02364159895623
 20
23.29104038139573
 40
0.9410597353348941
 50
151.4785267423622
 51
208.5214732576695
 73
     1
 72
     2
 10
-46.40099885703762
 20
23.08596895205724
 40
0.5115800601960199
 50
208.5214732576863
 51
246.6277221118453
 73
     1
 72
     2
 10
-46.24455882433452
 20
23.44796097076724
 40
0.905929784985274
 50
246.6277221118186
 51
288.4480761180817
 73
     1
 72
     2
 10
-46.66272655799642
 20
24.70150674680383
 40
2.227384008972746
 50
288.4480761181335
 51
301.9309089499397
 73
     1
 72
     1
 10
-45.48467151597251
 20
22.81115602765405
 11
-45.48467151597251
 21
21.93863902085073
 72
     2
 10
-46.82059943308923
 20
26.60372132665214
 40
4.852596863498825
 50
74.02000874166129
 51
84.84185523036365
 73
     0
 72
     2
 10
-46.53174333835341
 20
23.40383074343055
 40
1.639695123940448
 50
84.8418552303238
 51
164.9381082228988
 73
     0
 72
     2
 10
-46.95087118181502
 20
23.29104038139573
 40
1.205656168393001
 50
164.9381082229043
 51
195.061891777097
 73
     0
 72
     2
 10
-46.53174333835341
 20
23.17825001936083
 40
1.639695123940218
 50
195.0618917771049
 51
270.0
 73
     0
 72
     1
 10
-46.53174333835341
 20
24.81794514330105
 11
-43.14679781972473
 21
24.81794514330153
 72
     1
 10
-43.14679781972473
 20
24.81794514330153
 11
-43.14679781972473
 21
24.03267983717794
 97
       18
330
D1
330
167
330
168
330
150
330
14F
330
135
330
14E
330
14D
330
169
330
14C
330
16A
330
14B
330
136
330
D0
330
D5
330
D4
330
D3
330
D2
 75
     1
 76
     0
 52
45.0
 41
0.1
 77
     0
 78
     1
 53
45.0
 43
0.0
 44
0.0
 45
-0.0707106781186548
 46
0.0707106781186548
 79
     0
 98
        1
 10
0.0
 20
0.0
  0
HATCH
  5
1BD
330
47
100
AcDbEntity
  8
1
  6
Continuous
 62
     2
100
AcDbHatch
 10
0.0
 20
0.0
 30
0.0
210
0.0
220
0.0
230
1.0
  2
_USER
 70
     0
 71
     1
 91
        1
 92
        1
 93
       14
 72
     2
 10
-62.63444481760632
 20
23.17825001936083
 40
1.639695123940502
 50
84.8418552303626
 51
164.9381082228866
 73
     1
 72
     2
 10
-63.05357266106913
 20
23.29104038139573
 40
1.205656168390936
 50
164.9381082228765
 51
195.0618917770948
 73
     1
 72
     2
 10
-62.63444481760632
 20
23.40383074343055
 40
1.639695123939387
 50
195.0618917770896
 51
275.1581447696393
 73
     1
 72
     2
 10
-62.92330091234223
 20
26.60372132665214
 40
4.852596863498144
 50
275.1581447696248
 51
285.9799912583529
 73
     1
 72
     1
 10
-61.58737299522443
 20
21.93863902085133
 11
-61.58737299522443
 21
22.81115602765453
 72
     2
 10
-62.76542803724931
 20
24.70150674680443
 40
2.227384008972739
 50
58.0690910500408
 51
71.55192388186703
 73
     0
 72
     2
 10
-62.34726030358851
 20
23.44796097076724
 40
0.905929784984916
 50
71.55192388184102
 51
113.3722778881291
 73
     0
 72
     2
 10
-62.50370033629054
 20
23.08596895205724
 40
0.511580060194791
 50
113.3722778881722
 51
151.4785267423037
 73
     0
 72
     2
 10
-62.12634307821023
 20
23.29104038139573
 40
0.941059735333242
 50
151.4785267422936
 51
208.5214732577335
 73
     0
 72
     2
 10
-62.50370033629054
 20
23.49611181073473
 40
0.5115800601948751
 50
208.5214732576963
 51
246.6277221118016
 73
     0
 72
     2
 10
-62.34726030358851
 20
23.13411979202414
 40
0.9059297849853251
 50
246.6277221118709
 51
288.4480761181469
 73
     0
 72
     2
 10
-62.76542803724931
 20
21.88057401598755
 40
2.227384008973478
 50
288.4480761181329
 51
301.9309089499593
 73
     0
 72
     1
 10
-61.58737299522443
 20
23.77092473513744
 11
-61.58737299522443
 21
24.64344174194073
 72
     2
 10
-62.92330091234223
 20
19.97835943613984
 40
4.852596863498064
 50
74.02000874164737
 51
84.84185523037513
 73
     1
 97
       14
330
16F
330
170
330
171
330
172
330
137
330
148
330
147
330
146
330
173
330
174
330
145
330
175
330
138
330
144
 75
     1
 76
     0
 52
45.0
 41
0.1
 77
     0
 78
     1
 53
45.0
 43
0.0
 44
0.0
 45
-0.0707106781186548
 46
0.0707106781186548
 79
     0
 98
        1
 10
0.0
 20
0.0
  0
HATCH
  5
1BE
330
47
100
AcDbEntity
  8
1
  6
Continuous
 62
     2
100
AcDbHatch
 10
0.0
 20
0.0
 30
0.0
210
0.0
220
0.0
230
1.0
  2
_USER
 70
     0
 71
     1
 91
        1
 92
        1
 93
       14
 72
     2
 10
-62.63444481760632
 20
23.17825001936083
 40
1.639695123940502
 50
84.8418552303626
 51
164.9381082228866
 73
     1
 72
     2
 10
-63.05357266106913
 20
23.29104038139573
 40
1.205656168390936
 50
164.9381082228765
 51
195.0618917770948
 73
     1
 72
     2
 10
-62.63444481760632
 20
23.40383074343055
 40
1.639695123939387
 50
195.0618917770896
 51
275.1581447696393
 73
     1
 72
     2
 10
-62.92330091234223
 20
26.60372132665214
 40
4.852596863498144
 50
275.1581447696248
 51
285.9799912583529
 73
     1
 72
     1
 10
-61.58737299522443
 20
21.93863902085133
 11
-61.58737299522443
 21
22.81115602765453
 72
     2
 10
-62.76542803724931
 20
24.70150674680443
 40
2.227384008972739
 50
58.0690910500408
 51
71.55192388186703
 73
     0
 72
     2
 10
-62.34726030358851
 20
23.44796097076724
 40
0.905929784984916
 50
71.55192388184102
 51
113.3722778881291
 73
     0
 72
     2
 10
-62.50370033629054
 20
23.08596895205724
 40
0.511580060194791
 50
113.3722778881722
 51
151.4785267423037
 73
     0
 72
     2
 10
-62.12634307821023
 20
23.29104038139573
 40
0.941059735333242
 50
151.4785267422936
 51
208.5214732577335
 73
     0
 72
     2
 10
-62.50370033629054
 20
23.49611181073473
 40
0.5115800601948751
 50
208.5214732576963
 51
246.6277221118016
 73
     0
 72
     2
 10
-62.34726030358851
 20
23.13411979202414
 40
0.9059297849853251
 50
246.6277221118709
 51
288.4480761181469
 73
     0
 72
     2
 10
-62.76542803724931
 20
21.88057401598755
 40
2.227384008973478
 50
288.4480761181329
 51
301.9309089499593
 73
     0
 72
     1
 10
-61.58737299522443
 20
23.77092473513744
 11
-61.58737299522443
 21
24.64344174194073
 72
     2
 10
-62.92330091234223
 20
19.97835943613984
 40
4.852596863498064
 50
74.02000874164737
 51
84.84185523037513
 73
     1
 97
       14
330
16F
330
170
330
171
330
172
330
137
330
148
330
147
330
146
330
173
330
174
330
145
330
175
330
138
330
144
 75
     1
 76
     0
 52
45.0
 41
0.1
 77
     0
 78
     1
 53
45.0
 43
0.0
 44
0.0
 45
-0.0707106781186548
 46
0.0707106781186548
 79
     0
 98
        1
 10
0.0
 20
0.0
  0
ENDBLK
  5
49
330
47
100
AcDbEntity
  8
0
100
AcDbBlockEnd
  0
BLOCK
  5
4B
330
4A
100
AcDbEntity
  8
0
100
AcDbBlockBegin
  2
_punkt
 70
     0
 10
54.25000258975818
 20
14.47063561947414
 30
0.0
  3
_punkt
  1

  0
LINE
  5
1BF
330
4A
100
AcDbEntity
  8
1
  6
Continuous
 62
     2
100
AcDbLine
 10
54.25000258975818
 20
14.47063561947414
 30
0.0
 11
59.25000258975717
 21
14.47063561947414
 31
0.0
  0
LINE
  5
1C0
330
4A
100
AcDbEntity
  8
1
  6
Continuous
 62
     2
100
AcDbLine
 10
54.25000258975818
 20
14.47063561947414
 30
0.0
 11
54.25000258975818
 21
9.47063561947402
 31
0.0
  0
ENDBLK
  5
4C
330
4A
100
AcDbEntity
  8
0
100
AcDbBlockEnd
  0
BLOCK
  5
50
330
4D
100
AcDbEntity
  8
0
100
AcDbBlockBegin
  2
A4I_CS
 70
     0
 10
54.25000258975818
 20
9.47063561947402
 30
0.0
  3
A4I_CS
  1

  0
INSERT
  5
4E
330
4D
100
AcDbEntity
  8
1
100
AcDbBlockReference
  2
_rahmen
 10
54.25000258975818
 20
9.47063561947402
 30
0.0
  0
INSERT
  5
4F
330
4D
100
AcDbEntity
  8
1
100
AcDbBlockReference
  2
_punkt
 10
54.25000258975818
 20
14.47063561947414
 30
0.0
  0
ENDBLK
  5
51
330
4D
100
AcDbEntity
  8
0
100
AcDbBlockEnd
  0
BLOCK
  5
53
330
52
100
AcDbEntity
  8
0
100
AcDbBlockBegin
  2
TS_URTK_SS-select__1
 70
     0
 10
-49.84021238187464
 20
58.50633526818686
 30
0.0
  3
TS_URTK_SS-select__1
  1

  0
LINE
  5
1C1
330
52
100
AcDbEntity
  8
0
  6
Continuous
 62
     7
100
AcDbLine
 10
-15.23220893238933
 20
69.13605574273222
 30
0.0
 11
-15.23220893238933
 21
68.90511563505636
 31
0.0
  0
LINE
  5
1C2
330
52
100
AcDbEntity
  8
0
  6
Continuous
 62
     7
100
AcDbLine
 10
-15.63220893238933
 20
68.55870547354259
 30
0.0
 11
-15.23220893238933
 21
68.90511563505636
 31
0.0
  0
LINE
  5
1C3
330
52
100
AcDbEntity
  8
0
  6
Continuous
 62
     7
100
AcDbLine
 10
-37.53236307983865
 20
67.37518192023951
 30
0.0
 11
-37.93236307983864
 21
67.02877175872575
 31
0.0
  0
LINE
  5
1C4
330
52
100
AcDbEntity
  8
0
  6
Continuous
 62
     7
100
AcDbLine
 10
-15.63220893238933
 20
68.55870547354259
 30
0.0
 11
-15.63220893238933
 21
69.25152579657014
 31
0.0
  0
LINE
  5
1C5
330
52
100
AcDbEntity
  8
0
  6
Continuous
 62
     7
100
AcDbLine
 10
-12.81762637008994
 20
68.43902579657014
 30
0.0
 11
-15.63220893238933
 21
69.25152579657014
 31
0.0
  0
LINE
  5
1C6
330
52
100
AcDbEntity
  8
0
  6
Continuous
 62
     7
100
AcDbLine
 10
-12.81762637008994
 20
59.77877175872575
 30
0.0
 11
-12.81762637008994
 21
68.43902579657014
 31
0.0
  0
LINE
  5
1C7
330
52
100
AcDbEntity
  8
0
  6
Continuous
 62
     7
100
AcDbLine
 10
-0.90977706805383
 20
58.50633526818686
 30
0.0
 11
-0.50977706805385
 21
58.85274542970063
 31
0.0
  0
LINE
  5
1C8
330
52
100
AcDbEntity
  8
0
  6
Continuous
 62
     7
100
AcDbLine
 10
-0.90977706805383
 20
58.50633526818686
 30
0.0
 11
-8.98990408697604
 21
58.67380351345631
 31
0.0
  0
LINE
  5
1C9
330
52
100
AcDbEntity
  8
0
  6
Continuous
 62
     7
100
AcDbLine
 10
-8.98990408697604
 20
58.67380351345631
 30
0.0
 11
-12.81762637008994
 21
59.77877175872575
 31
0.0
  0
LINE
  5
1CA
330
52
100
AcDbEntity
  8
0
  6
Continuous
 62
     7
100
AcDbLine
 10
-0.50977706805385
 20
78.16511193409363
 30
0.0
 11
-0.50977706805385
 21
58.85274542970063
 31
0.0
  0
LINE
  5
1CB
330
52
100
AcDbEntity
  8
0
  6
Continuous
 62
     7
100
AcDbLine
 10
-41.76008536295244
 20
68.1337400039952
 30
0.0
 11
-37.93236307983864
 21
67.02877175872575
 31
0.0
  0
LINE
  5
1CC
330
52
100
AcDbEntity
  8
0
  6
Continuous
 62
     7
100
AcDbLine
 10
-37.93236307983864
 20
75.68902579657014
 30
0.0
 11
-37.93236307983864
 21
67.02877175872575
 31
0.0
  0
LINE
  5
1CD
330
52
100
AcDbEntity
  8
0
  6
Continuous
 62
     7
100
AcDbLine
 10
-49.84021238187464
 20
72.63133526818683
 30
0.0
 11
-41.76008536295244
 21
68.1337400039952
 31
0.0
  0
LINE
  5
1CE
330
52
100
AcDbEntity
  8
0
  6
Continuous
 62
     7
100
AcDbLine
 10
-0.90977706805383
 20
77.81870177257986
 30
0.0
 11
-0.90977706805383
 21
58.50633526818686
 31
0.0
  0
LINE
  5
1CF
330
52
100
AcDbEntity
  8
0
  6
Continuous
 62
     7
100
AcDbLine
 10
-0.90977706805383
 20
77.81870177257986
 30
0.0
 11
-0.50977706805385
 21
78.16511193409363
 31
0.0
  0
LINE
  5
1D0
330
52
100
AcDbEntity
  8
0
  6
Continuous
 62
     7
100
AcDbLine
 10
-9.74323618665515
 20
89.2021608911811
 30
0.0
 11
-0.90977706805383
 21
77.81870177257986
 31
0.0
  0
LINE
  5
1D1
330
52
100
AcDbEntity
  8
0
  6
Continuous
 62
     7
100
AcDbLine
 10
-9.34323618665515
 20
89.54857105269487
 30
0.0
 11
-0.50977706805385
 21
78.16511193409363
 31
0.0
  0
LINE
  5
1D2
330
52
100
AcDbEntity
  8
0
  6
Continuous
 62
     7
100
AcDbLine
 10
-9.74323618665515
 20
89.2021608911811
 30
0.0
 11
-9.34323618665515
 21
89.54857105269487
 31
0.0
  0
LINE
  5
1D3
330
52
100
AcDbEntity
  8
0
  6
Continuous
 62
     7
100
AcDbLine
 10
-49.84021238187464
 20
91.94370177257984
 30
0.0
 11
-49.44021238187465
 21
92.2901119340936
 31
0.0
  0
LINE
  5
1D4
330
52
100
AcDbEntity
  8
0
  6
Continuous
 62
     7
100
AcDbLine
 10
-41.00675326327344
 20
98.22716089118109
 30
0.0
 11
-40.60675326327345
 21
98.57357105269483
 31
0.0
  0
LINE
  5
1D5
330
52
100
AcDbEntity
  8
0
  6
Continuous
 62
     7
100
AcDbLine
 10
-49.44021238187465
 20
92.2901119340936
 30
0.0
 11
-40.60675326327345
 21
98.57357105269483
 31
0.0
  0
LINE
  5
1D6
330
52
100
AcDbEntity
  8
0
  6
Continuous
 62
     7
100
AcDbLine
 10
-49.84021238187464
 20
91.94370177257984
 30
0.0
 11
-41.00675326327344
 21
98.22716089118109
 31
0.0
  0
LINE
  5
1D7
330
52
100
AcDbEntity
  8
0
  6
Continuous
 62
     7
100
AcDbLine
 10
-41.00675326327344
 20
98.22716089118109
 30
0.0
 11
-9.74323618665515
 21
89.2021608911811
 31
0.0
  0
LINE
  5
1D8
330
52
100
AcDbEntity
  8
0
  6
Continuous
 62
     7
100
AcDbLine
 10
-35.11778051753925
 20
74.87652579657014
 30
0.0
 11
-35.11778051753925
 21
74.18370547354259
 31
0.0
  0
LINE
  5
1D9
330
52
100
AcDbEntity
  8
0
  6
Continuous
 62
     7
100
AcDbLine
 10
-35.11778051753925
 20
74.18370547354259
 30
0.0
 11
-15.63220893238933
 21
68.55870547354259
 31
0.0
  0
LINE
  5
1DA
330
52
100
AcDbEntity
  8
0
  6
Continuous
 62
     7
100
AcDbLine
 10
-35.11778051753925
 20
74.87652579657014
 30
0.0
 11
-37.93236307983864
 21
75.68902579657014
 31
0.0
  0
LINE
  5
1DB
330
52
100
AcDbEntity
  8
0
  6
Continuous
 62
     7
100
AcDbLine
 10
-49.84021238187464
 20
72.63133526818683
 30
0.0
 11
-49.84021238187464
 21
91.94370177257984
 31
0.0
  0
LINE
  5
1DC
330
52
100
AcDbEntity
  8
0
  6
Continuous
 62
     7
100
AcDbLine
 10
-37.53236307983865
 20
75.57355574273221
 30
0.0
 11
-37.53236307983865
 21
67.37518192023951
 31
0.0
  0
LINE
  5
1DD
330
52
100
AcDbEntity
  8
0
  6
Continuous
 62
     7
100
AcDbLine
 10
-40.60675326327345
 20
98.57357105269483
 30
0.0
 11
-9.34323618665515
 21
89.54857105269487
 31
0.0
  0
ENDBLK
  5
54
330
52
100
AcDbEntity
  8
0
100
AcDbBlockEnd
  0
BLOCK
  5
57
330
55
100
AcDbEntity
  8
0
100
AcDbBlockBegin
  2
AllgSicht1
 70
     0
 10
-23.99999493507123
 20
79.75000098125486
 30
0.0
  3
AllgSicht1
  1

  0
INSERT
  5
56
330
55
100
AcDbEntity
  8
0
100
AcDbBlockReference
  2
TS_URTK_SS-select__1
 10
-49.84021238187464
 20
58.50633526818686
 30
0.0
  0
ENDBLK
  5
58
330
55
100
AcDbEntity
  8
0
100
AcDbBlockEnd
  0
BLOCK
  5
5A
330
59
100
AcDbEntity
  8
0
100
AcDbBlockBegin
  2
TS_URTK_SS-select__2
 70
     0
 10
-147.2499978500405
 20
92.00000095367432
 30
0.0
  3
TS_URTK_SS-select__2
  1

  0
LINE
  5
1DE
330
59
100
AcDbEntity
  8
0
  6
Continuous
 62
     7
100
AcDbLine
 10
-100.9499978500405
 20
92.80000095367431
 30
0.0
 11
-90.74999785004047
 21
92.80000095367431
 31
0.0
  0
LINE
  5
1DF
330
59
100
AcDbEntity
  8
0
  6
Continuous
 62
     7
100
AcDbLine
 10
-90.74999785004047
 20
92.00000095367432
 30
0.0
 11
-90.74999785004047
 21
92.80000095367431
 31
0.0
  0
LINE
  5
1E0
330
59
100
AcDbEntity
  8
0
  6
Continuous
 62
     7
100
AcDbLine
 10
-100.9499978500405
 20
92.00000095367432
 30
0.0
 11
-90.74999785004047
 21
92.00000095367432
 31
0.0
  0
LINE
  5
1E1
330
59
100
AcDbEntity
  8
0
  6
Continuous
 62
     7
100
AcDbLine
 10
-147.2499978500405
 20
92.80000095367431
 30
0.0
 11
-137.0499978500405
 21
92.80000095367431
 31
0.0
  0
LINE
  5
1E2
330
59
100
AcDbEntity
  8
0
  6
Continuous
 62
     7
100
AcDbLine
 10
-137.0499978500405
 20
92.80000095367431
 30
0.0
 11
-100.9499978500405
 21
92.80000095367431
 31
0.0
  0
LINE
  5
1E3
330
59
100
AcDbEntity
  8
0
  6
Continuous
 62
     7
100
AcDbLine
 10
-147.2499978500405
 20
92.00000095367432
 30
0.0
 11
-137.0499978500405
 21
92.00000095367432
 31
0.0
  0
LINE
  5
1E4
330
59
100
AcDbEntity
  8
0
  6
Continuous
 62
     7
100
AcDbLine
 10
-147.2499978500405
 20
92.00000095367432
 30
0.0
 11
-147.2499978500405
 21
92.80000095367431
 31
0.0
  0
LINE
  5
1E5
330
59
100
AcDbEntity
  8
0
  6
Continuous
 62
     7
100
AcDbLine
 10
-100.9499978500405
 20
92.00000095367432
 30
0.0
 11
-100.9499978500405
 21
92.80000095367431
 31
0.0
  0
LINE
  5
1E6
330
59
100
AcDbEntity
  8
0
  6
Continuous
 62
     7
100
AcDbLine
 10
-137.0499978500405
 20
92.00000095367432
 30
0.0
 11
-137.0499978500405
 21
92.80000095367431
 31
0.0
  0
LINE
  5
1E7
330
59
100
AcDbEntity
  8
0
  6
Continuous
 62
     7
100
AcDbLine
 10
-137.0499978500405
 20
92.00000095367432
 30
0.0
 11
-100.9499978500405
 21
92.00000095367432
 31
0.0
  0
ENDBLK
  5
5B
330
59
100
AcDbEntity
  8
0
100
AcDbBlockEnd
  0
BLOCK
  5
5E
330
5C
100
AcDbEntity
  8
0
100
AcDbBlockBegin
  2
Drfsicht1
 70
     0
 10
-118.9999980926511
 20
94.75000095367432
 30
0.0
  3
Drfsicht1
  1

  0
INSERT
  5
5D
330
5C
100
AcDbEntity
  8
0
100
AcDbBlockReference
  2
TS_URTK_SS-select__2
 10
-147.2499978500405
 20
92.00000095367432
 30
0.0
  0
DIMENSION
  5
1F4
330
5C
100
AcDbEntity
  8
1
100
AcDbDimension
  2
*D17
 10
-157.2499978500405
 20
92.80000095367431
 30
0.0
 11
-160.6749978500405
 21
100.443462874791
 31
0.0
 70
    32
  1
<>
 71
     5
 42
-1.0
 53
90.0
  3
ME10_DIM_10
100
AcDbAlignedDimension
 13
-147.2499978500405
 23
92.00000095367432
 33
0.0
 14
-147.2499978500405
 24
92.80000095367431
 34
0.0
 50
90.0
100
AcDbRotatedDimension
  0
ENDBLK
  5
5F
330
5C
100
AcDbEntity
  8
0
100
AcDbBlockEnd
  0
BLOCK
  5
61
330
60
100
AcDbEntity
  8
0
100
AcDbBlockBegin
  2
TS_URTK_SS-select__3
 70
     0
 10
-52.24999482048372
 20
127.5000003863107
 30
0.0
  3
TS_URTK_SS-select__3
  1

  0
LINE
  5
1F5
330
60
100
AcDbEntity
  8
0
  6
Continuous
 62
     7
100
AcDbLine
 10
-5.08012183940593
 20
127.5000003863107
 30
0.0
 11
-9.49999482048373
 21
127.5000003863107
 31
0.0
  0
LINE
  5
1F6
330
60
100
AcDbEntity
  8
0
  6
Continuous
 62
     7
100
AcDbLine
 10
-9.49999482048373
 20
137.5000003863107
 30
0.0
 11
-9.49999482048373
 21
127.5000003863107
 31
0.0
  0
LINE
  5
1F7
330
60
100
AcDbEntity
  8
0
  6
Continuous
 62
     7
100
AcDbLine
 10
-38.49999482048374
 20
127.5000003863107
 30
0.0
 11
-38.49999482048374
 21
137.5000003863107
 31
0.0
  0
LINE
  5
1F8
330
60
100
AcDbEntity
  8
0
  6
Continuous
 62
     7
100
AcDbLine
 10
-42.91986780156155
 20
127.5000003863107
 30
0.0
 11
-38.49999482048374
 21
127.5000003863107
 31
0.0
  0
LINE
  5
1F9
330
60
100
AcDbEntity
  8
0
  6
Continuous
 62
     7
100
AcDbLine
 10
-52.24999482048372
 20
130.0000003863107
 30
0.0
 11
-42.91986780156155
 21
127.5000003863107
 31
0.0
  0
LINE
  5
1FA
330
60
100
AcDbEntity
  8
0
  6
Continuous
 62
     7
100
AcDbLine
 10
-52.24999482048372
 20
152.3000003863107
 30
0.0
 11
-52.24999482048372
 21
130.0000003863107
 31
0.0
  0
LINE
  5
1FB
330
60
100
AcDbEntity
  8
0
  6
Continuous
 62
     7
100
AcDbLine
 10
-42.04999482048375
 20
162.5000003863107
 30
0.0
 11
-52.24999482048372
 21
152.3000003863107
 31
0.0
  0
LINE
  5
1FC
330
60
100
AcDbEntity
  8
0
  6
Continuous
 62
     7
100
AcDbLine
 10
-5.94999482048367
 20
162.5000003863106
 30
0.0
 11
-42.04999482048375
 21
162.5000003863107
 31
0.0
  0
LINE
  5
1FD
330
60
100
AcDbEntity
  8
0
  6
Continuous
 62
     7
100
AcDbLine
 10
4.25000517951627
 20
130.0000003863107
 30
0.0
 11
-5.08012183940593
 21
127.5000003863107
 31
0.0
  0
LINE
  5
1FE
330
60
100
AcDbEntity
  8
0
  6
Continuous
 62
     7
100
AcDbLine
 10
4.25000517951627
 20
130.0000003863107
 30
0.0
 11
4.25000517951629
 21
152.3000003863107
 31
0.0
  0
LINE
  5
1FF
330
60
100
AcDbEntity
  8
0
  6
Continuous
 62
     7
100
AcDbLine
 10
-12.74999482048373
 20
136.7000003863107
 30
0.0
 11
-12.74999482048373
 21
137.5000003863107
 31
0.0
  0
LINE
  5
200
330
60
100
AcDbEntity
  8
0
  6
Continuous
 62
     7
100
AcDbLine
 10
-38.49999482048374
 20
137.5000003863107
 30
0.0
 11
-35.24999482048374
 21
137.5000003863107
 31
0.0
  0
LINE
  5
201
330
60
100
AcDbEntity
  8
0
  6
Continuous
 62
     7
100
AcDbLine
 10
-35.24999482048374
 20
137.5000003863107
 30
0.0
 11
-35.24999482048374
 21
136.7000003863107
 31
0.0
  0
LINE
  5
202
330
60
100
AcDbEntity
  8
0
  6
Continuous
 62
     7
100
AcDbLine
 10
-35.24999482048374
 20
136.7000003863107
 30
0.0
 11
-12.74999482048373
 21
136.7000003863107
 31
0.0
  0
LINE
  5
203
330
60
100
AcDbEntity
  8
0
  6
Continuous
 62
     7
100
AcDbLine
 10
-12.74999482048373
 20
137.5000003863107
 30
0.0
 11
-9.49999482048373
 21
137.5000003863107
 31
0.0
  0
LINE
  5
204
330
60
100
AcDbEntity
  8
0
  6
Continuous
 62
     7
100
AcDbLine
 10
4.25000517951629
 20
152.3000003863107
 30
0.0
 11
-5.94999482048367
 21
162.5000003863106
 31
0.0
  0
ENDBLK
  5
62
330
60
100
AcDbEntity
  8
0
100
AcDbBlockEnd
  0
BLOCK
  5
65
330
63
100
AcDbEntity
  8
0
100
AcDbBlockBegin
  2
Rckans1
 70
     0
 10
-23.99999457787305
 20
145.0
 30
0.0
  3
Rckans1
  1

  0
INSERT
  5
64
330
63
100
AcDbEntity
  8
0
100
AcDbBlockReference
  2
TS_URTK_SS-select__3
 10
-52.24999482048372
 20
127.5000003863107
 30
0.0
  0
ENDBLK
  5
66
330
63
100
AcDbEntity
  8
0
100
AcDbBlockEnd
  0
BLOCK
  5
68
330
67
100
AcDbEntity
  8
0
100
AcDbBlockBegin
  2
TS_URTK_SS-select__4
 70
     0
 10
-71.04999633526285
 20
127.5000003863106
 30
0.0
  3
TS_URTK_SS-select__4
  1

  0
LINE
  5
205
330
67
100
AcDbEntity
  8
0
  6
Continuous
 62
     7
100
AcDbLine
 10
-71.04999633526285
 20
152.3000003863106
 30
0.0
 11
-71.04999633526285
 21
162.5000003863106
 31
0.0
  0
LINE
  5
206
330
67
100
AcDbEntity
  8
0
  6
Continuous
 62
     7
100
AcDbLine
 10
-70.24999633526272
 20
162.5000003863106
 30
0.0
 11
-71.04999633526285
 21
162.5000003863106
 31
0.0
  0
LINE
  5
207
330
67
100
AcDbEntity
  8
0
  6
Continuous
 62
     7
100
AcDbLine
 10
-70.24999633526272
 20
152.3000003863106
 30
0.0
 11
-70.24999633526272
 21
162.5000003863106
 31
0.0
  0
LINE
  5
208
330
67
100
AcDbEntity
  8
0
  6
Continuous
 62
     7
100
AcDbLine
 10
-71.04999633526285
 20
130.0000003863106
 30
0.0
 11
-71.04999633526285
 21
127.5000003863106
 31
0.0
  0
LINE
  5
209
330
67
100
AcDbEntity
  8
0
  6
Continuous
 62
     7
100
AcDbLine
 10
-71.04999633526285
 20
130.0000003863106
 30
0.0
 11
-71.04999633526285
 21
152.3000003863106
 31
0.0
  0
LINE
  5
20A
330
67
100
AcDbEntity
  8
0
  6
Continuous
 62
     7
100
AcDbLine
 10
-70.24999633526272
 20
130.0000003863106
 30
0.0
 11
-70.24999633526272
 21
127.5000003863106
 31
0.0
  0
LINE
  5
20B
330
67
100
AcDbEntity
  8
0
  6
Continuous
 62
     7
100
AcDbLine
 10
-70.24999633526272
 20
152.3000003863106
 30
0.0
 11
-70.24999633526272
 21
130.0000003863106
 31
0.0
  0
LINE
  5
20C
330
67
100
AcDbEntity
  8
0
  6
Continuous
 62
     7
100
AcDbLine
 10
-70.24999633526272
 20
130.0000003863106
 30
0.0
 11
-71.04999633526285
 21
130.0000003863106
 31
0.0
  0
LINE
  5
20D
330
67
100
AcDbEntity
  8
0
  6
Continuous
 62
     7
100
AcDbLine
 10
-70.24999633526272
 20
127.5000003863106
 30
0.0
 11
-71.04999633526285
 21
127.5000003863106
 31
0.0
  0
LINE
  5
20E
330
67
100
AcDbEntity
  8
0
  6
Continuous
 62
     7
100
AcDbLine
 10
-70.24999633526272
 20
152.3000003863106
 30
0.0
 11
-71.04999633526285
 21
152.3000003863106
 31
0.0
  0
ENDBLK
  5
69
330
67
100
AcDbEntity
  8
0
100
AcDbBlockEnd
  0
BLOCK
  5
6C
330
6A
100
AcDbEntity
  8
0
100
AcDbBlockBegin
  2
SA_Links1
 70
     0
 10
-72.99999633526272
 20
144.9999999999999
 30
0.0
  3
SA_Links1
  1

  0
INSERT
  5
6B
330
6A
100
AcDbEntity
  8
0
100
AcDbBlockReference
  2
TS_URTK_SS-select__4
 10
-71.04999633526285
 20
127.5000003863106
 30
0.0
  0
ENDBLK
  5
6D
330
6A
100
AcDbEntity
  8
0
100
AcDbBlockEnd
  0
BLOCK
  5
6F
330
6E
100
AcDbEntity
  8
0
100
AcDbBlockBegin
  2
TS_URTK_SS-select__5
 70
     0
 10
-181.75
 20
127.5000003863106
 30
0.0
  3
TS_URTK_SS-select__5
  1

  0
LINE
  5
20F
330
6E
100
AcDbEntity
  8
0
  6
Continuous
 62
     7
100
AcDbLine
 10
-180.95
 20
152.3000003863106
 30
0.0
 11
-180.95
 21
130.0000003863106
 31
0.0
  0
LINE
  5
210
330
6E
100
AcDbEntity
  8
0
  6
Continuous
 62
     7
100
AcDbLine
 10
-181.75
 20
130.0000003863106
 30
0.0
 11
-180.95
 21
130.0000003863106
 31
0.0
  0
LINE
  5
211
330
6E
100
AcDbEntity
  8
0
  6
Continuous
 62
     7
100
AcDbLine
 10
-181.75
 20
162.5000003863106
 30
0.0
 11
-181.75
 21
152.3000003863106
 31
0.0
  0
LINE
  5
212
330
6E
100
AcDbEntity
  8
0
  6
Continuous
 62
     7
100
AcDbLine
 10
-181.75
 20
162.5000003863106
 30
0.0
 11
-180.95
 21
162.5000003863106
 31
0.0
  0
LINE
  5
213
330
6E
100
AcDbEntity
  8
0
  6
Continuous
 62
     7
100
AcDbLine
 10
-180.95
 20
162.5000003863106
 30
0.0
 11
-180.95
 21
152.3000003863106
 31
0.0
  0
LINE
  5
214
330
6E
100
AcDbEntity
  8
0
  6
Continuous
 62
     7
100
AcDbLine
 10
-181.75
 20
152.3000003863106
 30
0.0
 11
-180.95
 21
152.3000003863106
 31
0.0
  0
LINE
  5
215
330
6E
100
AcDbEntity
  8
0
  6
Continuous
 62
     7
100
AcDbLine
 10
-181.75
 20
152.3000003863106
 30
0.0
 11
-181.75
 21
130.0000003863106
 31
0.0
  0
LINE
  5
216
330
6E
100
AcDbEntity
  8
0
  6
Continuous
 62
     7
100
AcDbLine
 10
-181.75
 20
130.0000003863106
 30
0.0
 11
-181.75
 21
127.5000003863106
 31
0.0
  0
LINE
  5
217
330
6E
100
AcDbEntity
  8
0
  6
Continuous
 62
     7
100
AcDbLine
 10
-180.95
 20
130.0000003863106
 30
0.0
 11
-180.95
 21
127.5000003863106
 31
0.0
  0
LINE
  5
218
330
6E
100
AcDbEntity
  8
0
  6
Continuous
 62
     7
100
AcDbLine
 10
-180.95
 20
127.5000003863106
 30
0.0
 11
-181.75
 21
127.5000003863106
 31
0.0
  0
ENDBLK
  5
70
330
6E
100
AcDbEntity
  8
0
100
AcDbBlockEnd
  0
BLOCK
  5
73
330
71
100
AcDbEntity
  8
0
100
AcDbBlockBegin
  2
SA_Rechts1
 70
     0
 10
-179.0
 20
144.9999999999999
 30
0.0
  3
SA_Rechts1
  1

  0
INSERT
  5
72
330
71
100
AcDbEntity
  8
0
100
AcDbBlockReference
  2
TS_URTK_SS-select__5
 10
-181.75
 20
127.5000003863106
 30
0.0
  0
ENDBLK
  5
74
330
71
100
AcDbEntity
  8
0
100
AcDbBlockEnd
  0
BLOCK
  5
76
330
75
100
AcDbEntity
  8
0
100
AcDbBlockBegin
  2
TS_URTK_SS-select__6
 70
     0
 10
-147.2499978500405
 20
127.5000003863106
 30
0.0
  3
TS_URTK_SS-select__6
  1

  0
LINE
  5
219
330
75
100
AcDbEntity
  8
0
  6
Continuous
 62
     7
100
AcDbLine
 10
-137.9198708311183
 20
127.5000003863106
 30
0.0
 11
-133.4999978500405
 21
127.5000003863106
 31
0.0
  0
LINE
  5
21A
330
75
100
AcDbEntity
  8
0
  6
Continuous
 62
     7
100
AcDbLine
 10
-147.2499978500405
 20
130.0000003863106
 30
0.0
 11
-147.2499978500405
 21
152.3000003863106
 31
0.0
  0
LINE
  5
21B
330
75
100
AcDbEntity
  8
0
  6
Continuous
 62
     7
100
AcDbLine
 10
-133.4999978500405
 20
137.5000003863106
 30
0.0
 11
-133.4999978500405
 21
127.5000003863106
 31
0.0
  0
LINE
  5
21C
330
75
100
AcDbEntity
  8
0
  6
Continuous
 62
     7
100
AcDbLine
 10
-147.2499978500405
 20
130.0000003863106
 30
0.0
 11
-137.9198708311183
 21
127.5000003863106
 31
0.0
  0
LINE
  5
21D
330
75
100
AcDbEntity
  8
0
  6
Continuous
 62
     7
100
AcDbLine
 10
-104.4999978500405
 20
137.5000003863106
 30
0.0
 11
-107.7499978500405
 21
137.5000003863106
 31
0.0
  0
LINE
  5
21E
330
75
100
AcDbEntity
  8
0
  6
Continuous
 62
     7
100
AcDbLine
 10
-130.2499978500405
 20
137.5000003863106
 30
0.0
 11
-133.4999978500405
 21
137.5000003863106
 31
0.0
  0
LINE
  5
21F
330
75
100
AcDbEntity
  8
0
  6
Continuous
 62
     7
100
AcDbLine
 10
-137.0499978500405
 20
162.5000003863106
 30
0.0
 11
-100.9499978500405
 21
162.5000003863106
 31
0.0
  0
LINE
  5
220
330
75
100
AcDbEntity
  8
0
  6
Continuous
 62
     7
100
AcDbLine
 10
-130.2499978500405
 20
136.7000003863106
 30
0.0
 11
-107.7499978500405
 21
136.7000003863106
 31
0.0
  0
LINE
  5
221
330
75
100
AcDbEntity
  8
0
  6
Continuous
 62
     7
100
AcDbLine
 10
-100.0801248689626
 20
127.5000003863106
 30
0.0
 11
-104.4999978500405
 21
127.5000003863106
 31
0.0
  0
LINE
  5
222
330
75
100
AcDbEntity
  8
0
  6
Continuous
 62
     7
100
AcDbLine
 10
-104.4999978500405
 20
127.5000003863106
 30
0.0
 11
-104.4999978500405
 21
137.5000003863106
 31
0.0
  0
LINE
  5
223
330
75
100
AcDbEntity
  8
0
  6
Continuous
 62
     7
100
AcDbLine
 10
-90.74999785004047
 20
152.3000003863106
 30
0.0
 11
-90.74999785004047
 21
130.0000003863106
 31
0.0
  0
LINE
  5
224
330
75
100
AcDbEntity
  8
0
  6
Continuous
 62
     7
100
AcDbLine
 10
-107.7499978500405
 20
136.7000003863106
 30
0.0
 11
-107.7499978500405
 21
137.5000003863106
 31
0.0
  0
LINE
  5
225
330
75
100
AcDbEntity
  8
0
  6
Continuous
 62
     7
100
AcDbLine
 10
-100.9499978500405
 20
162.5000003863106
 30
0.0
 11
-90.74999785004047
 21
152.3000003863106
 31
0.0
  0
LINE
  5
226
330
75
100
AcDbEntity
  8
0
  6
Continuous
 62
     7
100
AcDbLine
 10
-130.2499978500405
 20
137.5000003863106
 30
0.0
 11
-130.2499978500405
 21
136.7000003863106
 31
0.0
  0
LINE
  5
227
330
75
100
AcDbEntity
  8
0
  6
Continuous
 62
     7
100
AcDbLine
 10
-90.74999785004047
 20
130.0000003863106
 30
0.0
 11
-100.0801248689626
 21
127.5000003863106
 31
0.0
  0
LINE
  5
228
330
75
100
AcDbEntity
  8
0
  6
Continuous
 62
     7
100
AcDbLine
 10
-147.2499978500405
 20
152.3000003863106
 30
0.0
 11
-137.0499978500405
 21
162.5000003863106
 31
0.0
  0
ENDBLK
  5
77
330
75
100
AcDbEntity
  8
0
100
AcDbBlockEnd
  0
BLOCK
  5
7A
330
78
100
AcDbEntity
  8
0
100
AcDbBlockBegin
  2
Vordans1
 70
     0
 10
-118.9999980926511
 20
144.9999999999999
 30
0.0
  3
Vordans1
  1

  0
INSERT
  5
79
330
78
100
AcDbEntity
  8
0
100
AcDbBlockReference
  2
TS_URTK_SS-select__6
 10
-147.2499978500405
 20
127.5000003863106
 30
0.0
  0
DIMENSION
  5
233
330
78
100
AcDbEntity
  8
1
100
AcDbDimension
  2
*D18
 10
-157.2499978500405
 20
127.5000003863106
 30
0.0
 11
-160.4999978500405
 21
145.325249016621
 31
0.0
 70
    32
  1
<>
 71
     5
 42
-1.0
 53
90.0
  3
ME10_DIM_11
100
AcDbAlignedDimension
 13
-137.0499978500405
 23
162.5000003863106
 33
0.0
 14
-137.9198708311183
 24
127.5000003863106
 34
0.0
 50
90.0
100
AcDbRotatedDimension
  0
DIMENSION
  5
23E
330
78
100
AcDbEntity
  8
1
100
AcDbDimension
  2
*D19
 10
-147.2499978500405
 20
116.824648914687
 30
0.0
 11
-118.9999978500405
 21
120.249648914687
 31
0.0
 70
    32
  1
<>
 71
     5
 42
-1.0
 53
0.00013888888889
  3
ME10_DIM_12
100
AcDbAlignedDimension
 13
-90.74999785004047
 23
130.0000003863106
 33
0.0
 14
-147.2499978500405
 24
130.0000003863106
 34
0.0
100
AcDbRotatedDimension
  0
ENDBLK
  5
7B
330
78
100
AcDbEntity
  8
0
100
AcDbBlockEnd
  0
BLOCK
  5
84
330
7C
100
AcDbEntity
  8
0
100
AcDbBlockBegin
  2
1
 70
     0
 10
0.0
 20
0.0
 30
0.0
  3
1
  1

  0
INSERT
  5
7D
330
7C
100
AcDbEntity
  8
0
100
AcDbBlockReference
  2
A4I_CS
 10
54.25000258975818
 20
9.47063561947402
 30
0.0
  0
INSERT
  5
7E
330
7C
100
AcDbEntity
  8
0
100
AcDbBlockReference
  2
AllgSicht1
 10
-23.99999493507123
 20
79.75000098125486
 30
0.0
  0
INSERT
  5
7F
330
7C
100
AcDbEntity
  8
0
100
AcDbBlockReference
  2
Drfsicht1
 10
-118.9999980926511
 20
94.75000095367432
 30
0.0
  0
INSERT
  5
80
330
7C
100
AcDbEntity
  8
0
100
AcDbBlockReference
  2
Rckans1
 10
-23.99999457787305
 20
145.0
 30
0.0
  0
INSERT
  5
81
330
7C
100
AcDbEntity
  8
0
100
AcDbBlockReference
  2
SA_Links1
 10
-72.99999633526272
 20
144.9999999999999
 30
0.0
  0
INSERT
  5
82
330
7C
100
AcDbEntity
  8
0
100
AcDbBlockReference
  2
SA_Rechts1
 10
-179.0
 20
144.9999999999999
 30
0.0
  0
INSERT
  5
83
330
7C
100
AcDbEntity
  8
0
100
AcDbBlockReference
  2
Vordans1
 10
-118.9999980926511
 20
144.9999999999999
 30
0.0
  0
ENDBLK
  5
85
330
7C
100
AcDbEntity
  8
0
100
AcDbBlockEnd
  0
BLOCK
  5
1F1
330
1E8
100
AcDbEntity
  8
0
100
AcDbBlockBegin
  2
*D17
 70
     1
 10
0.0
 20
0.0
 30
0.0
  3
*D17
  1

  0
LINE
  5
1E9
330
1E8
100
AcDbEntity
  8
1
  6
Continuous
 62
     2
100
AcDbLine
 10
-157.2499978500405
 20
103.680962874791
 30
0.0
 11
-157.2499978500405
 21
92.80000095367431
 31
0.0
  0
LINE
  5
1EA
330
1E8
100
AcDbEntity
  8
1
  6
Continuous
 62
     2
100
AcDbLine
 10
-157.2499978500405
 20
92.80000095367431
 30
0.0
 11
-157.2499978500405
 21
92.00000095367432
 31
0.0
  0
LINE
  5
1EB
330
1E8
100
AcDbEntity
  8
1
  6
Continuous
 62
     2
100
AcDbLine
 10
-157.2499978500405
 20
92.00000095367432
 30
0.0
 11
-157.2499978500405
 21
85.00000095367432
 31
0.0
  0
LINE
  5
1EC
330
1E8
100
AcDbEntity
  8
1
  6
Continuous
 62
     2
100
AcDbLine
 10
-147.2499978500405
 20
92.80000095367431
 30
0.0
 11
-158.7499978500405
 21
92.80000095367431
 31
0.0
  0
LINE
  5
1ED
330
1E8
100
AcDbEntity
  8
1
  6
Continuous
 62
     2
100
AcDbLine
 10
-147.2499978500405
 20
92.00000095367432
 30
0.0
 11
-158.7499978500405
 21
92.00000095367432
 31
0.0
  0
SOLID
  5
1EE
330
1E8
100
AcDbEntity
  8
1
 62
     2
100
AcDbTrace
 10
-157.7107815915964
 20
96.30000095367431
 30
0.0
 11
-156.7892141084846
 21
96.30000095367431
 31
0.0
 12
-157.2499978500405
 22
92.80000095367431
 32
0.0
 13
-157.2499978500405
 23
92.80000095367431
 33
0.0
  0
SOLID
  5
1EF
330
1E8
100
AcDbEntity
  8
1
 62
     2
100
AcDbTrace
 10
-156.7892141084846
 20
88.50000095367432
 30
0.0
 11
-157.7107815915964
 21
88.50000095367432
 31
0.0
 12
-157.2499978500405
 22
92.00000095367432
 32
0.0
 13
-157.2499978500405
 23
92.00000095367432
 33
0.0
  0
MTEXT
  5
1F0
330
1E8
100
AcDbEntity
  8
1
 62
     3
100
AcDbMText
 10
-159.0999978500405
 20
97.205962874791
 30
0.0
 40
3.5
 41
0.0
 71
     7
 72
     1
  1
0,8
  7
CONVERTER_11
 11
0.0
 21
1.0
 31
0.0
 73
     1
 44
0.60024009603842
  0
ENDBLK
  5
1F2
330
1E8
100
AcDbEntity
  8
0
100
AcDbBlockEnd
  0
BLOCK
  5
230
330
229
100
AcDbEntity
  8
0
100
AcDbBlockBegin
  2
*D18
 70
     1
 10
0.0
 20
0.0
 30
0.0
  3
*D18
  1

  0
LINE
  5
22A
330
229
100
AcDbEntity
  8
1
  6
Continuous
 62
     2
100
AcDbLine
 10
-157.2499978500405
 20
127.5000003863106
 30
0.0
 11
-157.2499978500405
 21
162.5000003863106
 31
0.0
  0
LINE
  5
22B
330
229
100
AcDbEntity
  8
1
  6
Continuous
 62
     2
100
AcDbLine
 10
-137.9198708311183
 20
127.5000003863106
 30
0.0
 11
-158.7499978500405
 21
127.5000003863106
 31
0.0
  0
LINE
  5
22C
330
229
100
AcDbEntity
  8
1
  6
Continuous
 62
     2
100
AcDbLine
 10
-137.0499978500405
 20
162.5000003863106
 30
0.0
 11
-158.7499978500405
 21
162.5000003863106
 31
0.0
  0
SOLID
  5
22D
330
229
100
AcDbEntity
  8
1
 62
     2
100
AcDbTrace
 10
-157.7107815915964
 20
131.0000003863106
 30
0.0
 11
-156.7892141084846
 21
131.0000003863106
 31
0.0
 12
-157.2499978500405
 22
127.5000003863106
 32
0.0
 13
-157.2499978500405
 23
127.5000003863106
 33
0.0
  0
SOLID
  5
22E
330
229
100
AcDbEntity
  8
1
 62
     2
100
AcDbTrace
 10
-156.7892141084846
 20
159.0000003863106
 30
0.0
 11
-157.7107815915964
 21
159.0000003863106
 31
0.0
 12
-157.2499978500405
 22
162.5000003863106
 32
0.0
 13
-157.2499978500405
 23
162.5000003863106
 33
0.0
  0
MTEXT
  5
22F
330
229
100
AcDbEntity
  8
1
 62
     3
100
AcDbMText
 10
-158.7499978500405
 20
142.700249016621
 30
0.0
 40
3.5
 41
0.0
 71
     7
 72
     1
  1
35
  7
CONVERTER_11
 11
0.0
 21
1.0
 31
0.0
 73
     1
 44
0.60024009603842
  0
ENDBLK
  5
231
330
229
100
AcDbEntity
  8
0
100
AcDbBlockEnd
  0
BLOCK
  5
23B
330
234
100
AcDbEntity
  8
0
100
AcDbBlockBegin
  2
*D19
 70
     1
 10
0.0
 20
0.0
 30
0.0
  3
*D19
  1

  0
LINE
  5
235
330
234
100
AcDbEntity
  8
1
  6
Continuous
 62
     2
100
AcDbLine
 10
-147.2499978500405
 20
116.824648914687
 30
0.0
 11
-90.7499978500405
 21
116.824648914687
 31
0.0
  0
LINE
  5
236
330
234
100
AcDbEntity
  8
1
  6
Continuous
 62
     2
100
AcDbLine
 10
-147.2499978500405
 20
130.0000003863106
 30
0.0
 11
-147.2499978500405
 21
115.324648914687
 31
0.0
  0
LINE
  5
237
330
234
100
AcDbEntity
  8
1
  6
Continuous
 62
     2
100
AcDbLine
 10
-90.7499978500405
 20
130.0000003863106
 30
0.0
 11
-90.7499978500405
 21
115.324648914687
 31
0.0
  0
SOLID
  5
238
330
234
100
AcDbEntity
  8
1
 62
     2
100
AcDbTrace
 10
-143.7499978500405
 20
117.2854326562429
 30
0.0
 11
-143.7499978500405
 21
116.3638651731311
 31
0.0
 12
-147.2499978500405
 22
116.824648914687
 32
0.0
 13
-147.2499978500405
 23
116.824648914687
 33
0.0
  0
SOLID
  5
239
330
234
100
AcDbEntity
  8
1
 62
     2
100
AcDbTrace
 10
-94.2499978500405
 20
116.3638651731311
 30
0.0
 11
-94.2499978500405
 21
117.2854326562429
 31
0.0
 12
-90.7499978500405
 22
116.824648914687
 32
0.0
 13
-90.7499978500405
 23
116.824648914687
 33
0.0
  0
MTEXT
  5
23A
330
234
100
AcDbEntity
  8
1
 62
     3
100
AcDbMText
 10
-123.8124978500405
 20
118.674648914687
 30
0.0
 40
3.5
 41
0.0
 71
     7
 72
     1
  1
56,5
  7
CONVERTER_11
 11
0.9999999999970619
 21
2.424068405545306E-6
 31
0.0
 73
     1
 44
0.60024009603842
  0
ENDBLK
  5
23C
330
234
100
AcDbEntity
  8
0
100
AcDbBlockEnd
  0
ENDSEC
  0
SECTION
  2
ENTITIES
  0
INSERT
  5
86
330
1F
100
AcDbEntity
  8
1
100
AcDbBlockReference
  2
1
 10
0.0
 20
0.0
 30
0.0
  0
ENDSEC
  0
SECTION
  2
OBJECTS
  0
DICTIONARY
  5
C
330
0
100
AcDbDictionary
281
     1
  3
ACAD_GROUP
350
D
  3
ACAD_LAYOUT
350
1A
  3
ACAD_MATERIAL
350
3B
  3
ACAD_MLEADERSTYLE
350
266
  3
ACAD_MLINESTYLE
350
17
  3
ACAD_PLOTSETTINGS
350
19
  3
ACAD_PLOTSTYLENAME
350
E
  3
ACAD_TABLESTYLE
350
265
  3
ACAD_VISUALSTYLE
350
2A
  0
DICTIONARY
  5
D
102
{ACAD_REACTORS
330
C
102
}
330
C
100
AcDbDictionary
281
     1
  0
DICTIONARY
  5
1A
102
{ACAD_REACTORS
330
C
102
}
330
C
100
AcDbDictionary
281
     1
  3
Layout1
350
1E
  3
Layout2
350
26
  3
Model
350
22
  0
DICTIONARY
  5
3B
102
{ACAD_REACTORS
330
C
102
}
330
C
100
AcDbDictionary
281
     1
  3
ByBlock
350
3D
  3
ByLayer
350
3C
  3
Global
350
3E
  0
DICTIONARY
  5
266
102
{ACAD_REACTORS
330
C
102
}
330
C
100
AcDbDictionary
281
     1
  0
DICTIONARY
  5
17
102
{ACAD_REACTORS
330
C
102
}
330
C
100
AcDbDictionary
281
     1
  3
Standard
350
18
  0
DICTIONARY
  5
19
102
{ACAD_REACTORS
330
C
102
}
330
C
100
AcDbDictionary
281
     1
  0
ACDBDICTIONARYWDFLT
  5
E
102
{ACAD_REACTORS
330
C
102
}
330
C
100
AcDbDictionary
281
     1
  3
Normal
350
F
100
AcDbDictionaryWithDefault
340
F
  0
DICTIONARY
  5
265
102
{ACAD_REACTORS
330
C
102
}
330
C
100
AcDbDictionary
281
     1
  0
DICTIONARY
  5
2A
102
{ACAD_REACTORS
330
C
102
}
330
C
100
AcDbDictionary
281
     1
  3
2dWireframe
350
2F
  3
3D Hidden
350
31
  3
3dWireframe
350
30
  3
Basic
350
32
  3
Brighten
350
36
  3
ColorChange
350
3A
  3
Conceptual
350
34
  3
Dim
350
35
  3
Facepattern
350
39
  3
Flat
350
2B
  3
FlatWithEdges
350
2C
  3
Gouraud
350
2D
  3
GouraudWithEdges
350
2E
  3
Linepattern
350
38
  3
Realistic
350
33
  3
Thicken
350
37
  0
LAYOUT
  5
1E
102
{ACAD_REACTORS
330
1A
102
}
330
1A
100
AcDbPlotSettings
  1

  2
none_device
  4

  6

 40
0.0
 41
0.0
 42
0.0
 43
0.0
 44
0.0
 45
0.0
 46
0.0
 47
0.0
 48
0.0
 49
0.0
140
0.0
141
0.0
142
1.0
143
1.0
 70
   688
 72
     0
 73
     0
 74
     5
  7

 75
    16
 76
     0
 77
     2
 78
   300
147
1.0
148
0.0
149
0.0
100
AcDbLayout
  1
Layout1
 70
     1
 71
     1
 10
0.0
 20
0.0
 11
12.0
 21
9.0
 12
0.0
 22
0.0
 32
0.0
 14
1.00000000000000E+20
 24
1.00000000000000E+20
 34
1.00000000000000E+20
 15
-1.00000000000000E+20
 25
-1.00000000000000E+20
 35
-1.00000000000000E+20
146
0.0
 13
0.0
 23
0.0
 33
0.0
 16
1.0
 26
0.0
 36
0.0
 17
0.0
 27
1.0
 37
0.0
 76
     0
330
1B
  0
LAYOUT
  5
26
102
{ACAD_REACTORS
330
1A
102
}
330
1A
100
AcDbPlotSettings
  1

  2
none_device
  4

  6

 40
0.0
 41
0.0
 42
0.0
 43
0.0
 44
0.0
 45
0.0
 46
0.0
 47
0.0
 48
0.0
 49
0.0
140
0.0
141
0.0
142
1.0
143
1.0
 70
   688
 72
     0
 73
     0
 74
     5
  7

 75
    16
 76
     0
 77
     2
 78
   300
147
1.0
148
0.0
149
0.0
100
AcDbLayout
  1
Layout2
 70
     1
 71
     2
 10
0.0
 20
0.0
 11
0.0
 21
0.0
 12
0.0
 22
0.0
 32
0.0
 14
0.0
 24
0.0
 34
0.0
 15
0.0
 25
0.0
 35
0.0
146
0.0
 13
0.0
 23
0.0
 33
0.0
 16
1.0
 26
0.0
 36
0.0
 17
0.0
 27
1.0
 37
0.0
 76
     0
330
23
  0
LAYOUT
  5
22
102
{ACAD_REACTORS
330
1A
102
}
330
1A
100
AcDbPlotSettings
  1

  2
none_device
  4

  6

 40
0.0
 41
0.0
 42
0.0
 43
0.0
 44
0.0
 45
0.0
 46
0.0
 47
0.0
 48
0.0
 49
0.0
140
0.0
141
0.0
142
1.0
143
1.0
 70
  1712
 72
     0
 73
     0
 74
     0
  7

 75
     0
 76
     0
 77
     2
 78
   300
147
1.0
148
0.0
149
0.0
100
AcDbLayout
  1
Model
 70
     1
 71
     0
 10
0.0
 20
0.0
 11
12.0
 21
9.0
 12
0.0
 22
0.0
 32
0.0
 14
-237.7499974102409
 24
9.47063561947402
 34
0.0
 15
59.25000258975717
 25
219.4706356194741
 35
0.0
146
0.0
 13
0.0
 23
0.0
 33
0.0
 16
1.0
 26
0.0
 36
0.0
 17
0.0
 27
1.0
 37
0.0
 76
     0
330
1F
331
29
  0
MATERIAL
  5
3D
102
{ACAD_REACTORS
330
3B
102
}
102
{ACAD_XDICTIONARY
360
261
102
}
330
3B
100
AcDbMaterial
  1
ByBlock
  0
MATERIAL
  5
3C
102
{ACAD_REACTORS
330
3B
102
}
102
{ACAD_XDICTIONARY
360
25F
102
}
330
3B
100
AcDbMaterial
  1
ByLayer
  0
MATERIAL
  5
3E
102
{ACAD_REACTORS
330
3B
102
}
102
{ACAD_XDICTIONARY
360
263
102
}
330
3B
100
AcDbMaterial
  1
Global
  0
MLINESTYLE
  5
18
102
{ACAD_REACTORS
330
17
102
}
330
17
100
AcDbMlineStyle
  2
Standard
 70
     0
  3

 62
   256
 51
90.0
 52
90.0
 71
     2
 49
0.5
 62
   256
  6
BYLAYER
 49
-0.5
 62
   256
  6
BYLAYER
  0
ACDBPLACEHOLDER
  5
F
102
{ACAD_REACTORS
330
E
102
}
330
E
  0
VISUALSTYLE
  5
2F
102
{ACAD_REACTORS
330
2A
102
}
102
{ACAD_XDICTIONARY
360
247
102
}
330
2A
100
AcDbVisualStyle
  2
2dWireframe
 70
     4
 71
     0
 72
     2
 73
     0
 90
        0
 40
-0.6
 41
-30.0
 62
     5
 63
     7
421
 16777215
 74
     1
 91
        4
 64
     7
 65
   257
 75
     1
175
     1
 42
1.0
 92
        0
 66
   257
 43
1.0
 76
     1
 77
     6
 78
     2
 67
     7
 79
     5
170
     0
171
     0
290
     0
174
     0
 93
        1
 44
0.0
173
     0
291
     0
 45
0.0
1001
ACAD
1000
AcDbSavedByObjectVersion
1070
     0
  0
VISUALSTYLE
  5
31
102
{ACAD_REACTORS
330
2A
102
}
102
{ACAD_XDICTIONARY
360
24B
102
}
330
2A
100
AcDbVisualStyle
  2
3D Hidden
 70
     6
 71
     1
 72
     2
 73
     2
 90
        0
 40
-0.6
 41
-30.0
 62
     5
 63
     7
421
 16777215
 74
     2
 91
        2
 64
     7
 65
   257
 75
     2
175
     1
 42
40.0
 92
        0
 66
   257
 43
1.0
 76
     1
 77
     6
 78
     2
 67
     7
 79
     3
170
     0
171
     0
290
     0
174
     0
 93
        1
 44
0.0
173
     0
291
     0
 45
0.0
1001
ACAD
1000
AcDbSavedByObjectVersion
1070
     0
  0
VISUALSTYLE
  5
30
102
{ACAD_REACTORS
330
2A
102
}
102
{ACAD_XDICTIONARY
360
249
102
}
330
2A
100
AcDbVisualStyle
  2
3dWireframe
 70
     5
 71
     0
 72
     2
 73
     0
 90
        0
 40
-0.6
 41
-30.0
 62
     5
 63
     7
421
 16777215
 74
     1
 91
        4
 64
     7
 65
   257
 75
     1
175
     1
 42
1.0
 92
        0
 66
   257
 43
1.0
 76
     1
 77
     6
 78
     2
 67
     7
 79
     5
170
     0
171
     0
290
     0
174
     0
 93
        1
 44
0.0
173
     0
291
     0
 45
0.0
1001
ACAD
1000
AcDbSavedByObjectVersion
1070
     0
  0
VISUALSTYLE
  5
32
102
{ACAD_REACTORS
330
2A
102
}
102
{ACAD_XDICTIONARY
360
24D
102
}
330
2A
100
AcDbVisualStyle
  2
Basic
 70
     7
 71
     1
 72
     0
 73
     1
 90
        0
 40
-0.6
 41
-30.0
 62
     5
 63
     7
421
 16777215
 74
     0
 91
        4
 64
     7
 65
   257
 75
     1
175
     1
 42
1.0
 92
        8
 66
     7
 43
1.0
 76
     1
 77
     6
 78
     2
 67
     7
 79
     5
170
     0
171
     0
290
     0
174
     0
 93
        1
 44
0.0
173
     0
291
     1
 45
0.0
1001
ACAD
1000
AcDbSavedByObjectVersion
1070
     0
  0
VISUALSTYLE
  5
36
102
{ACAD_REACTORS
330
2A
102
}
102
{ACAD_XDICTIONARY
360
255
102
}
330
2A
100
AcDbVisualStyle
  2
Brighten
 70
    12
 71
     2
 72
     2
 73
     0
 90
        0
 40
-0.6
 41
-30.0
 62
     5
 63
     7
421
 16777215
 74
     1
 91
        4
 64
     7
 65
   257
 75
     1
175
     1
 42
1.0
 92
        8
 66
     7
 43
1.0
 76
     1
 77
     6
 78
     2
 67
     7
 79
     5
170
     0
171
     0
290
     0
174
     0
 93
        1
 44
50.0
173
     0
291
     1
 45
0.0
1001
ACAD
1000
AcDbSavedByObjectVersion
1070
     0
  0
VISUALSTYLE
  5
3A
102
{ACAD_REACTORS
330
2A
102
}
102
{ACAD_XDICTIONARY
360
25D
102
}
330
2A
100
AcDbVisualStyle
  2
ColorChange
 70
    16
 71
     2
 72
     2
 73
     3
 90
        0
 40
-0.6
 41
-30.0
 62
     5
 63
     8
421
  8421504
 74
     1
 91
        4
 64
     7
 65
   257
 75
     1
175
     1
 42
1.0
 92
        8
 66
     8
424
  8421504
 43
1.0
 76
     1
 77
     6
 78
     2
 67
     7
 79
     5
170
     0
171
     0
290
     0
174
     0
 93
        1
 44
0.0
173
     0
291
     1
 45
0.0
1001
ACAD
1000
AcDbSavedByObjectVersion
1070
     0
  0
VISUALSTYLE
  5
34
102
{ACAD_REACTORS
330
2A
102
}
102
{ACAD_XDICTIONARY
360
251
102
}
330
2A
100
AcDbVisualStyle
  2
Conceptual
 70
     9
 71
     3
 72
     2
 73
     0
 90
        0
 40
-0.6
 41
-30.0
 62
     5
 63
     7
421
 16777215
 74
     2
 91
        2
 64
     7
 65
   257
 75
     1
175
     1
 42
40.0
 92
        8
 66
     7
 43
1.0
 76
     1
 77
     6
 78
     2
 67
     7
 79
     3
170
     0
171
     0
290
     0
174
     0
 93
        1
 44
0.0
173
     0
291
     0
 45
0.0
1001
ACAD
1000
AcDbSavedByObjectVersion
1070
     0
  0
VISUALSTYLE
  5
35
102
{ACAD_REACTORS
330
2A
102
}
102
{ACAD_XDICTIONARY
360
253
102
}
330
2A
100
AcDbVisualStyle
  2
Dim
 70
    11
 71
     2
 72
     2
 73
     0
 90
        0
 40
-0.6
 41
-30.0
 62
     5
 63
     7
421
 16777215
 74
     1
 91
        4
 64
     7
 65
   257
 75
     1
175
     1
 42
1.0
 92
        8
 66
     7
 43
1.0
 76
     1
 77
     6
 78
     2
 67
     7
 79
     5
170
     0
171
     0
290
     0
174
     0
 93
        1
 44
-50.0
173
     0
291
     1
 45
0.0
1001
ACAD
1000
AcDbSavedByObjectVersion
1070
     0
  0
VISUALSTYLE
  5
39
102
{ACAD_REACTORS
330
2A
102
}
102
{ACAD_XDICTIONARY
360
25B
102
}
330
2A
100
AcDbVisualStyle
  2
Facepattern
 70
    15
 71
     2
 72
     2
 73
     0
 90
        0
 40
-0.6
 41
-30.0
 62
     5
 63
     7
421
 16777215
 74
     1
 91
        4
 64
     7
 65
   257
 75
     1
175
     1
 42
1.0
 92
        8
 66
     7
 43
1.0
 76
     1
 77
     6
 78
     2
 67
     7
 79
     5
170
     0
171
     0
290
     0
174
     0
 93
        1
 44
0.0
173
     0
291
     1
 45
0.0
1001
ACAD
1000
AcDbSavedByObjectVersion
1070
     0
  0
VISUALSTYLE
  5
2B
102
{ACAD_REACTORS
330
2A
102
}
102
{ACAD_XDICTIONARY
360
23F
102
}
330
2A
100
AcDbVisualStyle
  2
Flat
 70
     0
 71
     2
 72
     1
 73
     1
 90
        2
 40
-0.6
 41
30.0
 62
     5
 63
     7
421
 16777215
 74
     0
 91
        4
 64
     7
 65
   257
 75
     1
175
     1
 42
1.0
 92
        8
 66
     7
 43
1.0
 76
     1
 77
     6
 78
     2
 67
     7
 79
     5
170
     0
171
     0
290
     0
174
     0
 93
       13
 44
0.0
173
     0
291
     1
 45
0.0
1001
ACAD
1000
AcDbSavedByObjectVersion
1070
     0
  0
VISUALSTYLE
  5
2C
102
{ACAD_REACTORS
330
2A
102
}
102
{ACAD_XDICTIONARY
360
241
102
}
330
2A
100
AcDbVisualStyle
  2
FlatWithEdges
 70
     1
 71
     2
 72
     1
 73
     1
 90
        2
 40
-0.6
 41
30.0
 62
     5
 63
     7
421
 16777215
 74
     1
 91
        4
 64
     7
 65
   257
 75
     1
175
     1
 42
1.0
 92
        0
 66
   257
 43
1.0
 76
     1
 77
     6
 78
     2
 67
     7
 79
     5
170
     0
171
     0
290
     0
174
     0
 93
       13
 44
0.0
173
     0
291
     1
 45
0.0
1001
ACAD
1000
AcDbSavedByObjectVersion
1070
     0
  0
VISUALSTYLE
  5
2D
102
{ACAD_REACTORS
330
2A
102
}
102
{ACAD_XDICTIONARY
360
243
102
}
330
2A
100
AcDbVisualStyle
  2
Gouraud
 70
     2
 71
     2
 72
     2
 73
     1
 90
        2
 40
-0.6
 41
30.0
 62
     5
 63
     7
421
 16777215
 74
     0
 91
        4
 64
     7
 65
   257
 75
     1
175
     1
 42
1.0
 92
        0
 66
     7
 43
1.0
 76
     1
 77
     6
 78
     2
 67
     7
 79
     5
170
     0
171
     0
290
     0
174
     0
 93
       13
 44
0.0
173
     0
291
     1
 45
0.0
1001
ACAD
1000
AcDbSavedByObjectVersion
1070
     0
  0
VISUALSTYLE
  5
2E
102
{ACAD_REACTORS
330
2A
102
}
102
{ACAD_XDICTIONARY
360
245
102
}
330
2A
100
AcDbVisualStyle
  2
GouraudWithEdges
 70
     3
 71
     2
 72
     2
 73
     1
 90
        2
 40
-0.6
 41
30.0
 62
     5
 63
     7
421
 16777215
 74
     1
 91
        4
 64
     7
 65
   257
 75
     1
175
     1
 42
1.0
 92
        0
 66
   257
 43
1.0
 76
     1
 77
     6
 78
     2
 67
     7
 79
     5
170
     0
171
     0
290
     0
174
     0
 93
       13
 44
0.0
173
     0
291
     1
 45
0.0
1001
ACAD
1000
AcDbSavedByObjectVersion
1070
     0
  0
VISUALSTYLE
  5
38
102
{ACAD_REACTORS
330
2A
102
}
102
{ACAD_XDICTIONARY
360
259
102
}
330
2A
100
AcDbVisualStyle
  2
Linepattern
 70
    14
 71
     2
 72
     2
 73
     0
 90
        0
 40
-0.6
 41
-30.0
 62
     5
 63
     7
421
 16777215
 74
     1
 91
        4
 64
     7
 65
   257
 75
     7
175
     7
 42
1.0
 92
        8
 66
     7
 43
1.0
 76
     1
 77
     6
 78
     2
 67
     7
 79
     5
170
     0
171
     0
290
     0
174
     0
 93
        1
 44
0.0
173
     0
291
     1
 45
0.0
1001
ACAD
1000
AcDbSavedByObjectVersion
1070
     0
  0
VISUALSTYLE
  5
33
102
{ACAD_REACTORS
330
2A
102
}
102
{ACAD_XDICTIONARY
360
24F
102
}
330
2A
100
AcDbVisualStyle
  2
Realistic
 70
     8
 71
     2
 72
     2
 73
     0
 90
        0
 40
-0.6
 41
-30.0
 62
     5
 63
     7
421
 16777215
 74
     1
 91
        0
 64
     7
 65
   257
 75
     1
175
     1
 42
1.0
 92
        8
 66
     8
424
  7895160
 43
1.0
 76
     1
 77
     6
 78
     2
 67
     7
 79
     5
170
     0
171
     0
290
     0
174
     0
 93
       13
 44
0.0
173
     0
291
     0
 45
0.0
1001
ACAD
1000
AcDbSavedByObjectVersion
1070
     0
  0
VISUALSTYLE
  5
37
102
{ACAD_REACTORS
330
2A
102
}
102
{ACAD_XDICTIONARY
360
257
102
}
330
2A
100
AcDbVisualStyle
  2
Thicken
 70
    13
 71
     2
 72
     2
 73
     0
 90
        0
 40
-0.6
 41
-30.0
 62
     5
 63
     7
421
 16777215
 74
     1
 91
        4
 64
     7
 65
   257
 75
     1
175
     1
 42
1.0
 92
       12
 66
     7
 43
1.0
 76
     1
 77
     6
 78
     2
 67
     7
 79
     5
170
     0
171
     0
290
     0
174
     0
 93
        1
 44
0.0
173
     0
291
     1
 45
0.0
1001
ACAD
1000
AcDbSavedByObjectVersion
1070
     0
  0
DICTIONARY
  5
261
330
3D
100
AcDbDictionary
280
     1
281
     1
  3
ACAD_XREC_ROUNDTRIP
360
262
  0
DICTIONARY
  5
25F
330
3C
100
AcDbDictionary
280
     1
281
     1
  3
ACAD_XREC_ROUNDTRIP
360
260
  0
DICTIONARY
  5
263
330
3E
100
AcDbDictionary
280
     1
281
     1
  3
ACAD_XREC_ROUNDTRIP
360
264
  0
DICTIONARY
  5
247
330
2F
100
AcDbDictionary
280
     1
281
     1
  3
ACAD_XREC_ROUNDTRIP
360
248
  0
DICTIONARY
  5
24B
330
31
100
AcDbDictionary
280
     1
281
     1
  3
ACAD_XREC_ROUNDTRIP
360
24C
  0
DICTIONARY
  5
249
330
30
100
AcDbDictionary
280
     1
281
     1
  3
ACAD_XREC_ROUNDTRIP
360
24A
  0
DICTIONARY
  5
24D
330
32
100
AcDbDictionary
280
     1
281
     1
  3
ACAD_XREC_ROUNDTRIP
360
24E
  0
DICTIONARY
  5
255
330
36
100
AcDbDictionary
280
     1
281
     1
  3
ACAD_XREC_ROUNDTRIP
360
256
  0
DICTIONARY
  5
25D
330
3A
100
AcDbDictionary
280
     1
281
     1
  3
ACAD_XREC_ROUNDTRIP
360
25E
  0
DICTIONARY
  5
251
330
34
100
AcDbDictionary
280
     1
281
     1
  3
ACAD_XREC_ROUNDTRIP
360
252
  0
DICTIONARY
  5
253
330
35
100
AcDbDictionary
280
     1
281
     1
  3
ACAD_XREC_ROUNDTRIP
360
254
  0
DICTIONARY
  5
25B
330
39
100
AcDbDictionary
280
     1
281
     1
  3
ACAD_XREC_ROUNDTRIP
360
25C
  0
DICTIONARY
  5
23F
330
2B
100
AcDbDictionary
280
     1
281
     1
  3
ACAD_XREC_ROUNDTRIP
360
240
  0
DICTIONARY
  5
241
330
2C
100
AcDbDictionary
280
     1
281
     1
  3
ACAD_XREC_ROUNDTRIP
360
242
  0
DICTIONARY
  5
243
330
2D
100
AcDbDictionary
280
     1
281
     1
  3
ACAD_XREC_ROUNDTRIP
360
244
  0
DICTIONARY
  5
245
330
2E
100
AcDbDictionary
280
     1
281
     1
  3
ACAD_XREC_ROUNDTRIP
360
246
  0
DICTIONARY
  5
259
330
38
100
AcDbDictionary
280
     1
281
     1
  3
ACAD_XREC_ROUNDTRIP
360
25A
  0
DICTIONARY
  5
24F
330
33
100
AcDbDictionary
280
     1
281
     1
  3
ACAD_XREC_ROUNDTRIP
360
250
  0
DICTIONARY
  5
257
330
37
100
AcDbDictionary
280
     1
281
     1
  3
ACAD_XREC_ROUNDTRIP
360
258
  0
XRECORD
  5
262
102
{ACAD_REACTORS
330
261
102
}
330
261
100
AcDbXrecord
280
     1
102
MATERIAL
148
0.0
149
0.0
149
0.0
 93
        0
 94
      127
282
     0
 72
     1
 77
     1
171
     1
175
     1
179
     1
273
     0
  0
XRECORD
  5
260
102
{ACAD_REACTORS
330
25F
102
}
330
25F
100
AcDbXrecord
280
     1
102
MATERIAL
148
0.0
149
0.0
149
0.0
 93
        0
 94
      127
282
     0
 72
     1
 77
     1
171
     1
175
     1
179
     1
273
     0
  0
XRECORD
  5
264
102
{ACAD_REACTORS
330
263
102
}
330
263
100
AcDbXrecord
280
     1
102
MATERIAL
148
0.0
149
0.0
149
0.0
 93
        0
 94
      127
282
     0
 72
     1
 77
     1
171
     1
175
     1
179
     1
273
     0
  0
XRECORD
  5
248
102
{ACAD_REACTORS
330
247
102
}
330
247
100
AcDbXrecord
280
     1
102
RTVSPropertyOp0
 70
     1
102
RTVSPropertyOp1
 70
     1
102
RTVSPropertyOp2
 70
     1
102
RTVSPropertyOp3
 70
     1
102
RTVSPropertyOp4
 70
     1
102
RTVSPropertyOp5
 70
     1
102
RTVSPropertyOp6
 70
     1
102
RTVSPropertyOp7
 70
     1
102
RTVSPropertyOp8
 70
     1
102
RTVSPropertyOp9
 70
     1
102
RTVSPropertyOp10
 70
     1
102
RTVSPropertyOp11
 70
     1
102
RTVSPropertyOp12
 70
     1
102
RTVSPropertyOp13
 70
     1
102
RTVSPropertyOp14
 70
     1
102
RTVSPropertyOp15
 70
     1
102
RTVSPropertyOp16
 70
     1
102
RTVSPropertyOp17
 70
     1
102
RTVSPropertyOp18
 70
     1
102
RTVSPropertyOp19
 70
     1
102
RTVSPropertyOp20
 70
     1
102
RTVSPropertyOp21
 70
     1
102
RTVSPropertyOp22
 70
     1
102
RTVSPropertyOp23
 70
     1
102
RTVSPropertyOp24
 70
     1
102
RTVSPropertyOp25
 70
     1
102
RTVSPropertyOp26
 70
     1
102
RTVSPropertyOp27
 70
     1
102
RTVSPropertyOp28
 70
     1
102
RTVSPropertyOp29
 70
     1
102
RTVSPropertyOp30
 70
     1
102
RTVSPropertyOp31
 70
     1
102
RTVSPropertyOp32
 70
     1
  0
XRECORD
  5
24C
102
{ACAD_REACTORS
330
24B
102
}
330
24B
100
AcDbXrecord
280
     1
102
RTVSPropertyOp0
 70
     1
102
RTVSPropertyOp1
 70
     1
102
RTVSPropertyOp2
 70
     1
102
RTVSPropertyOp3
 70
     1
102
RTVSPropertyOp4
 70
     1
102
RTVSPropertyOp5
 70
     1
102
RTVSPropertyOp6
 70
     1
102
RTVSPropertyOp7
 70
     1
102
RTVSPropertyOp8
 70
     1
102
RTVSPropertyOp9
 70
     1
102
RTVSPropertyOp10
 70
     1
102
RTVSPropertyOp11
 70
     1
102
RTVSPropertyOp12
 70
     1
102
RTVSPropertyOp13
 70
     1
102
RTVSPropertyOp14
 70
     1
102
RTVSPropertyOp15
 70
     1
102
RTVSPropertyOp16
 70
     1
102
RTVSPropertyOp17
 70
     1
102
RTVSPropertyOp18
 70
     1
102
RTVSPropertyOp19
 70
     1
102
RTVSPropertyOp20
 70
     1
102
RTVSPropertyOp21
 70
     1
102
RTVSPropertyOp22
 70
     1
102
RTVSPropertyOp23
 70
     1
102
RTVSPropertyOp24
 70
     1
102
RTVSPropertyOp25
 70
     1
102
RTVSPropertyOp26
 70
     1
102
RTVSPropertyOp27
 70
     1
102
RTVSPropertyOp28
 70
     1
102
RTVSPropertyOp29
 70
     1
102
RTVSPropertyOp30
 70
     1
102
RTVSPropertyOp31
 70
     1
102
RTVSPropertyOp32
 70
     1
  0
XRECORD
  5
24A
102
{ACAD_REACTORS
330
249
102
}
330
249
100
AcDbXrecord
280
     1
102
RTVSPropertyOp0
 70
     1
102
RTVSPropertyOp1
 70
     1
102
RTVSPropertyOp2
 70
     1
102
RTVSPropertyOp3
 70
     1
102
RTVSPropertyOp4
 70
     1
102
RTVSPropertyOp5
 70
     1
102
RTVSPropertyOp6
 70
     1
102
RTVSPropertyOp7
 70
     1
102
RTVSPropertyOp8
 70
     1
102
RTVSPropertyOp9
 70
     1
102
RTVSPropertyOp10
 70
     1
102
RTVSPropertyOp11
 70
     1
102
RTVSPropertyOp12
 70
     1
102
RTVSPropertyOp13
 70
     1
102
RTVSPropertyOp14
 70
     1
102
RTVSPropertyOp15
 70
     1
102
RTVSPropertyOp16
 70
     1
102
RTVSPropertyOp17
 70
     1
102
RTVSPropertyOp18
 70
     1
102
RTVSPropertyOp19
 70
     1
102
RTVSPropertyOp20
 70
     1
102
RTVSPropertyOp21
 70
     1
102
RTVSPropertyOp22
 70
     1
102
RTVSPropertyOp23
 70
     1
102
RTVSPropertyOp24
 70
     1
102
RTVSPropertyOp25
 70
     1
102
RTVSPropertyOp26
 70
     1
102
RTVSPropertyOp27
 70
     1
102
RTVSPropertyOp28
 70
     1
102
RTVSPropertyOp29
 70
     1
102
RTVSPropertyOp30
 70
     1
102
RTVSPropertyOp31
 70
     1
102
RTVSPropertyOp32
 70
     1
  0
XRECORD
  5
24E
102
{ACAD_REACTORS
330
24D
102
}
330
24D
100
AcDbXrecord
280
     1
102
RTVSPropertyOp0
 70
     1
102
RTVSPropertyOp1
 70
     1
102
RTVSPropertyOp2
 70
     1
102
RTVSPropertyOp3
 70
     1
102
RTVSPropertyOp4
 70
     1
102
RTVSPropertyOp5
 70
     1
102
RTVSPropertyOp6
 70
     1
102
RTVSPropertyOp7
 70
     1
102
RTVSPropertyOp8
 70
     1
102
RTVSPropertyOp9
 70
     1
102
RTVSPropertyOp10
 70
     1
102
RTVSPropertyOp11
 70
     1
102
RTVSPropertyOp12
 70
     1
102
RTVSPropertyOp13
 70
     1
102
RTVSPropertyOp14
 70
     1
102
RTVSPropertyOp15
 70
     1
102
RTVSPropertyOp16
 70
     1
102
RTVSPropertyOp17
 70
     1
102
RTVSPropertyOp18
 70
     1
102
RTVSPropertyOp19
 70
     1
102
RTVSPropertyOp20
 70
     1
102
RTVSPropertyOp21
 70
     1
102
RTVSPropertyOp22
 70
     1
102
RTVSPropertyOp23
 70
     1
102
RTVSPropertyOp24
 70
     1
102
RTVSPropertyOp25
 70
     1
102
RTVSPropertyOp26
 70
     1
102
RTVSPropertyOp27
 70
     1
102
RTVSPropertyOp28
 70
     1
102
RTVSPropertyOp29
 70
     1
102
RTVSPropertyOp30
 70
     1
102
RTVSPropertyOp31
 70
     1
102
RTVSPropertyOp32
 70
     1
  0
XRECORD
  5
256
102
{ACAD_REACTORS
330
255
102
}
330
255
100
AcDbXrecord
280
     1
102
RTVSPropertyOp0
 70
     1
102
RTVSPropertyOp1
 70
     1
102
RTVSPropertyOp2
 70
     1
102
RTVSPropertyOp3
 70
     1
102
RTVSPropertyOp4
 70
     1
102
RTVSPropertyOp5
 70
     1
102
RTVSPropertyOp6
 70
     1
102
RTVSPropertyOp7
 70
     1
102
RTVSPropertyOp8
 70
     1
102
RTVSPropertyOp9
 70
     1
102
RTVSPropertyOp10
 70
     1
102
RTVSPropertyOp11
 70
     1
102
RTVSPropertyOp12
 70
     1
102
RTVSPropertyOp13
 70
     1
102
RTVSPropertyOp14
 70
     1
102
RTVSPropertyOp15
 70
     1
102
RTVSPropertyOp16
 70
     1
102
RTVSPropertyOp17
 70
     1
102
RTVSPropertyOp18
 70
     1
102
RTVSPropertyOp19
 70
     1
102
RTVSPropertyOp20
 70
     1
102
RTVSPropertyOp21
 70
     1
102
RTVSPropertyOp22
 70
     1
102
RTVSPropertyOp23
 70
     1
102
RTVSPropertyOp24
 70
     1
102
RTVSPropertyOp25
 70
     1
102
RTVSPropertyOp26
 70
     1
102
RTVSPropertyOp27
 70
     1
102
RTVSPropertyOp28
 70
     1
102
RTVSPropertyOp29
 70
     1
102
RTVSPropertyOp30
 70
     1
102
RTVSPropertyOp31
 70
     1
102
RTVSPropertyOp32
 70
     1
  0
XRECORD
  5
25E
102
{ACAD_REACTORS
330
25D
102
}
330
25D
100
AcDbXrecord
280
     1
102
RTVSPropertyOp0
 70
     1
102
RTVSPropertyOp1
 70
     1
102
RTVSPropertyOp2
 70
     1
102
RTVSPropertyOp3
 70
     1
102
RTVSPropertyOp4
 70
     1
102
RTVSPropertyOp5
 70
     1
102
RTVSPropertyOp6
 70
     1
102
RTVSPropertyOp7
 70
     1
102
RTVSPropertyOp8
 70
     1
102
RTVSPropertyOp9
 70
     1
102
RTVSPropertyOp10
 70
     1
102
RTVSPropertyOp11
 70
     1
102
RTVSPropertyOp12
 70
     1
102
RTVSPropertyOp13
 70
     1
102
RTVSPropertyOp14
 70
     1
102
RTVSPropertyOp15
 70
     1
102
RTVSPropertyOp16
 70
     1
102
RTVSPropertyOp17
 70
     1
102
RTVSPropertyOp18
 70
     1
102
RTVSPropertyOp19
 70
     1
102
RTVSPropertyOp20
 70
     1
102
RTVSPropertyOp21
 70
     1
102
RTVSPropertyOp22
 70
     1
102
RTVSPropertyOp23
 70
     1
102
RTVSPropertyOp24
 70
     1
102
RTVSPropertyOp25
 70
     1
102
RTVSPropertyOp26
 70
     1
102
RTVSPropertyOp27
 70
     1
102
RTVSPropertyOp28
 70
     1
102
RTVSPropertyOp29
 70
     1
102
RTVSPropertyOp30
 70
     1
102
RTVSPropertyOp31
 70
     1
102
RTVSPropertyOp32
 70
     1
  0
XRECORD
  5
252
102
{ACAD_REACTORS
330
251
102
}
330
251
100
AcDbXrecord
280
     1
102
RTVSPropertyOp0
 70
     1
102
RTVSPropertyOp1
 70
     1
102
RTVSPropertyOp2
 70
     1
102
RTVSPropertyOp3
 70
     1
102
RTVSPropertyOp4
 70
     1
102
RTVSPropertyOp5
 70
     1
102
RTVSPropertyOp6
 70
     1
102
RTVSPropertyOp7
 70
     1
102
RTVSPropertyOp8
 70
     1
102
RTVSPropertyOp9
 70
     1
102
RTVSPropertyOp10
 70
     1
102
RTVSPropertyOp11
 70
     1
102
RTVSPropertyOp12
 70
     1
102
RTVSPropertyOp13
 70
     1
102
RTVSPropertyOp14
 70
     1
102
RTVSPropertyOp15
 70
     1
102
RTVSPropertyOp16
 70
     1
102
RTVSPropertyOp17
 70
     1
102
RTVSPropertyOp18
 70
     1
102
RTVSPropertyOp19
 70
     1
102
RTVSPropertyOp20
 70
     1
102
RTVSPropertyOp21
 70
     1
102
RTVSPropertyOp22
 70
     1
102
RTVSPropertyOp23
 70
     1
102
RTVSPropertyOp24
 70
     1
102
RTVSPropertyOp25
 70
     1
102
RTVSPropertyOp26
 70
     1
102
RTVSPropertyOp27
 70
     1
102
RTVSPropertyOp28
 70
     1
102
RTVSPropertyOp29
 70
     1
102
RTVSPropertyOp30
 70
     1
102
RTVSPropertyOp31
 70
     1
102
RTVSPropertyOp32
 70
     1
  0
XRECORD
  5
254
102
{ACAD_REACTORS
330
253
102
}
330
253
100
AcDbXrecord
280
     1
102
RTVSPropertyOp0
 70
     1
102
RTVSPropertyOp1
 70
     1
102
RTVSPropertyOp2
 70
     1
102
RTVSPropertyOp3
 70
     1
102
RTVSPropertyOp4
 70
     1
102
RTVSPropertyOp5
 70
     1
102
RTVSPropertyOp6
 70
     1
102
RTVSPropertyOp7
 70
     1
102
RTVSPropertyOp8
 70
     1
102
RTVSPropertyOp9
 70
     1
102
RTVSPropertyOp10
 70
     1
102
RTVSPropertyOp11
 70
     1
102
RTVSPropertyOp12
 70
     1
102
RTVSPropertyOp13
 70
     1
102
RTVSPropertyOp14
 70
     1
102
RTVSPropertyOp15
 70
     1
102
RTVSPropertyOp16
 70
     1
102
RTVSPropertyOp17
 70
     1
102
RTVSPropertyOp18
 70
     1
102
RTVSPropertyOp19
 70
     1
102
RTVSPropertyOp20
 70
     1
102
RTVSPropertyOp21
 70
     1
102
RTVSPropertyOp22
 70
     1
102
RTVSPropertyOp23
 70
     1
102
RTVSPropertyOp24
 70
     1
102
RTVSPropertyOp25
 70
     1
102
RTVSPropertyOp26
 70
     1
102
RTVSPropertyOp27
 70
     1
102
RTVSPropertyOp28
 70
     1
102
RTVSPropertyOp29
 70
     1
102
RTVSPropertyOp30
 70
     1
102
RTVSPropertyOp31
 70
     1
102
RTVSPropertyOp32
 70
     1
  0
XRECORD
  5
25C
102
{ACAD_REACTORS
330
25B
102
}
330
25B
100
AcDbXrecord
280
     1
102
RTVSPropertyOp0
 70
     1
102
RTVSPropertyOp1
 70
     1
102
RTVSPropertyOp2
 70
     1
102
RTVSPropertyOp3
 70
     1
102
RTVSPropertyOp4
 70
     1
102
RTVSPropertyOp5
 70
     1
102
RTVSPropertyOp6
 70
     1
102
RTVSPropertyOp7
 70
     1
102
RTVSPropertyOp8
 70
     1
102
RTVSPropertyOp9
 70
     1
102
RTVSPropertyOp10
 70
     1
102
RTVSPropertyOp11
 70
     1
102
RTVSPropertyOp12
 70
     1
102
RTVSPropertyOp13
 70
     1
102
RTVSPropertyOp14
 70
     1
102
RTVSPropertyOp15
 70
     1
102
RTVSPropertyOp16
 70
     1
102
RTVSPropertyOp17
 70
     1
102
RTVSPropertyOp18
 70
     1
102
RTVSPropertyOp19
 70
     1
102
RTVSPropertyOp20
 70
     1
102
RTVSPropertyOp21
 70
     1
102
RTVSPropertyOp22
 70
     1
102
RTVSPropertyOp23
 70
     1
102
RTVSPropertyOp24
 70
     1
102
RTVSPropertyOp25
 70
     1
102
RTVSPropertyOp26
 70
     1
102
RTVSPropertyOp27
 70
     1
102
RTVSPropertyOp28
 70
     1
102
RTVSPropertyOp29
 70
     1
102
RTVSPropertyOp30
 70
     1
102
RTVSPropertyOp31
 70
     1
102
RTVSPropertyOp32
 70
     1
  0
XRECORD
  5
240
102
{ACAD_REACTORS
330
23F
102
}
330
23F
100
AcDbXrecord
280
     1
102
RTVSPropertyOp0
 70
     1
102
RTVSPropertyOp1
 70
     1
102
RTVSPropertyOp2
 70
     1
102
RTVSPropertyOp3
 70
     1
102
RTVSPropertyOp4
 70
     1
102
RTVSPropertyOp5
 70
     1
102
RTVSPropertyOp6
 70
     1
102
RTVSPropertyOp7
 70
     1
102
RTVSPropertyOp8
 70
     1
102
RTVSPropertyOp9
 70
     1
102
RTVSPropertyOp10
 70
     1
102
RTVSPropertyOp11
 70
     1
102
RTVSPropertyOp12
 70
     1
102
RTVSPropertyOp13
 70
     1
102
RTVSPropertyOp14
 70
     1
102
RTVSPropertyOp15
 70
     1
102
RTVSPropertyOp16
 70
     1
102
RTVSPropertyOp17
 70
     1
102
RTVSPropertyOp18
 70
     1
102
RTVSPropertyOp19
 70
     1
102
RTVSPropertyOp20
 70
     1
102
RTVSPropertyOp21
 70
     1
102
RTVSPropertyOp22
 70
     1
102
RTVSPropertyOp23
 70
     1
102
RTVSPropertyOp24
 70
     1
102
RTVSPropertyOp25
 70
     1
102
RTVSPropertyOp26
 70
     1
102
RTVSPropertyOp27
 70
     1
102
RTVSPropertyOp28
 70
     1
102
RTVSPropertyOp29
 70
     1
102
RTVSPropertyOp30
 70
     1
102
RTVSPropertyOp31
 70
     1
102
RTVSPropertyOp32
 70
     1
  0
XRECORD
  5
242
102
{ACAD_REACTORS
330
241
102
}
330
241
100
AcDbXrecord
280
     1
102
RTVSPropertyOp0
 70
     1
102
RTVSPropertyOp1
 70
     1
102
RTVSPropertyOp2
 70
     1
102
RTVSPropertyOp3
 70
     1
102
RTVSPropertyOp4
 70
     1
102
RTVSPropertyOp5
 70
     1
102
RTVSPropertyOp6
 70
     1
102
RTVSPropertyOp7
 70
     1
102
RTVSPropertyOp8
 70
     1
102
RTVSPropertyOp9
 70
     1
102
RTVSPropertyOp10
 70
     1
102
RTVSPropertyOp11
 70
     1
102
RTVSPropertyOp12
 70
     1
102
RTVSPropertyOp13
 70
     1
102
RTVSPropertyOp14
 70
     1
102
RTVSPropertyOp15
 70
     1
102
RTVSPropertyOp16
 70
     1
102
RTVSPropertyOp17
 70
     1
102
RTVSPropertyOp18
 70
     1
102
RTVSPropertyOp19
 70
     1
102
RTVSPropertyOp20
 70
     1
102
RTVSPropertyOp21
 70
     1
102
RTVSPropertyOp22
 70
     1
102
RTVSPropertyOp23
 70
     1
102
RTVSPropertyOp24
 70
     1
102
RTVSPropertyOp25
 70
     1
102
RTVSPropertyOp26
 70
     1
102
RTVSPropertyOp27
 70
     1
102
RTVSPropertyOp28
 70
     1
102
RTVSPropertyOp29
 70
     1
102
RTVSPropertyOp30
 70
     1
102
RTVSPropertyOp31
 70
     1
102
RTVSPropertyOp32
 70
     1
  0
XRECORD
  5
244
102
{ACAD_REACTORS
330
243
102
}
330
243
100
AcDbXrecord
280
     1
102
RTVSPropertyOp0
 70
     1
102
RTVSPropertyOp1
 70
     1
102
RTVSPropertyOp2
 70
     1
102
RTVSPropertyOp3
 70
     1
102
RTVSPropertyOp4
 70
     1
102
RTVSPropertyOp5
 70
     1
102
RTVSPropertyOp6
 70
     1
102
RTVSPropertyOp7
 70
     1
102
RTVSPropertyOp8
 70
     1
102
RTVSPropertyOp9
 70
     1
102
RTVSPropertyOp10
 70
     1
102
RTVSPropertyOp11
 70
     1
102
RTVSPropertyOp12
 70
     1
102
RTVSPropertyOp13
 70
     1
102
RTVSPropertyOp14
 70
     1
102
RTVSPropertyOp15
 70
     1
102
RTVSPropertyOp16
 70
     1
102
RTVSPropertyOp17
 70
     1
102
RTVSPropertyOp18
 70
     1
102
RTVSPropertyOp19
 70
     1
102
RTVSPropertyOp20
 70
     1
102
RTVSPropertyOp21
 70
     1
102
RTVSPropertyOp22
 70
     1
102
RTVSPropertyOp23
 70
     1
102
RTVSPropertyOp24
 70
     1
102
RTVSPropertyOp25
 70
     1
102
RTVSPropertyOp26
 70
     1
102
RTVSPropertyOp27
 70
     1
102
RTVSPropertyOp28
 70
     1
102
RTVSPropertyOp29
 70
     1
102
RTVSPropertyOp30
 70
     1
102
RTVSPropertyOp31
 70
     1
102
RTVSPropertyOp32
 70
     1
  0
XRECORD
  5
246
102
{ACAD_REACTORS
330
245
102
}
330
245
100
AcDbXrecord
280
     1
102
RTVSPropertyOp0
 70
     1
102
RTVSPropertyOp1
 70
     1
102
RTVSPropertyOp2
 70
     1
102
RTVSPropertyOp3
 70
     1
102
RTVSPropertyOp4
 70
     1
102
RTVSPropertyOp5
 70
     1
102
RTVSPropertyOp6
 70
     1
102
RTVSPropertyOp7
 70
     1
102
RTVSPropertyOp8
 70
     1
102
RTVSPropertyOp9
 70
     1
102
RTVSPropertyOp10
 70
     1
102
RTVSPropertyOp11
 70
     1
102
RTVSPropertyOp12
 70
     1
102
RTVSPropertyOp13
 70
     1
102
RTVSPropertyOp14
 70
     1
102
RTVSPropertyOp15
 70
     1
102
RTVSPropertyOp16
 70
     1
102
RTVSPropertyOp17
 70
     1
102
RTVSPropertyOp18
 70
     1
102
RTVSPropertyOp19
 70
     1
102
RTVSPropertyOp20
 70
     1
102
RTVSPropertyOp21
 70
     1
102
RTVSPropertyOp22
 70
     1
102
RTVSPropertyOp23
 70
     1
102
RTVSPropertyOp24
 70
     1
102
RTVSPropertyOp25
 70
     1
102
RTVSPropertyOp26
 70
     1
102
RTVSPropertyOp27
 70
     1
102
RTVSPropertyOp28
 70
     1
102
RTVSPropertyOp29
 70
     1
102
RTVSPropertyOp30
 70
     1
102
RTVSPropertyOp31
 70
     1
102
RTVSPropertyOp32
 70
     1
  0
XRECORD
  5
25A
102
{ACAD_REACTORS
330
259
102
}
330
259
100
AcDbXrecord
280
     1
102
RTVSPropertyOp0
 70
     1
102
RTVSPropertyOp1
 70
     1
102
RTVSPropertyOp2
 70
     1
102
RTVSPropertyOp3
 70
     1
102
RTVSPropertyOp4
 70
     1
102
RTVSPropertyOp5
 70
     1
102
RTVSPropertyOp6
 70
     1
102
RTVSPropertyOp7
 70
     1
102
RTVSPropertyOp8
 70
     1
102
RTVSPropertyOp9
 70
     1
102
RTVSPropertyOp10
 70
     1
102
RTVSPropertyOp11
 70
     1
102
RTVSPropertyOp12
 70
     1
102
RTVSPropertyOp13
 70
     1
102
RTVSPropertyOp14
 70
     1
102
RTVSPropertyOp15
 70
     1
102
RTVSPropertyOp16
 70
     1
102
RTVSPropertyOp17
 70
     1
102
RTVSPropertyOp18
 70
     1
102
RTVSPropertyOp19
 70
     1
102
RTVSPropertyOp20
 70
     1
102
RTVSPropertyOp21
 70
     1
102
RTVSPropertyOp22
 70
     1
102
RTVSPropertyOp23
 70
     1
102
RTVSPropertyOp24
 70
     1
102
RTVSPropertyOp25
 70
     1
102
RTVSPropertyOp26
 70
     1
102
RTVSPropertyOp27
 70
     1
102
RTVSPropertyOp28
 70
     1
102
RTVSPropertyOp29
 70
     1
102
RTVSPropertyOp30
 70
     1
102
RTVSPropertyOp31
 70
     1
102
RTVSPropertyOp32
 70
     1
  0
XRECORD
  5
250
102
{ACAD_REACTORS
330
24F
102
}
330
24F
100
AcDbXrecord
280
     1
102
RTVSPropertyOp0
 70
     1
102
RTVSPropertyOp1
 70
     1
102
RTVSPropertyOp2
 70
     1
102
RTVSPropertyOp3
 70
     1
102
RTVSPropertyOp4
 70
     1
102
RTVSPropertyOp5
 70
     1
102
RTVSPropertyOp6
 70
     1
102
RTVSPropertyOp7
 70
     1
102
RTVSPropertyOp8
 70
     1
102
RTVSPropertyOp9
 70
     1
102
RTVSPropertyOp10
 70
     1
102
RTVSPropertyOp11
 70
     1
102
RTVSPropertyOp12
 70
     1
102
RTVSPropertyOp13
 70
     1
102
RTVSPropertyOp14
 70
     1
102
RTVSPropertyOp15
 70
     1
102
RTVSPropertyOp16
 70
     1
102
RTVSPropertyOp17
 70
     1
102
RTVSPropertyOp18
 70
     1
102
RTVSPropertyOp19
 70
     1
102
RTVSPropertyOp20
 70
     1
102
RTVSPropertyOp21
 70
     1
102
RTVSPropertyOp22
 70
     1
102
RTVSPropertyOp23
 70
     1
102
RTVSPropertyOp24
 70
     1
102
RTVSPropertyOp25
 70
     1
102
RTVSPropertyOp26
 70
     1
102
RTVSPropertyOp27
 70
     1
102
RTVSPropertyOp28
 70
     1
102
RTVSPropertyOp29
 70
     1
102
RTVSPropertyOp30
 70
     1
102
RTVSPropertyOp31
 70
     1
102
RTVSPropertyOp32
 70
     1
  0
XRECORD
  5
258
102
{ACAD_REACTORS
330
257
102
}
330
257
100
AcDbXrecord
280
     1
102
RTVSPropertyOp0
 70
     1
102
RTVSPropertyOp1
 70
     1
102
RTVSPropertyOp2
 70
     1
102
RTVSPropertyOp3
 70
     1
102
RTVSPropertyOp4
 70
     1
102
RTVSPropertyOp5
 70
     1
102
RTVSPropertyOp6
 70
     1
102
RTVSPropertyOp7
 70
     1
102
RTVSPropertyOp8
 70
     1
102
RTVSPropertyOp9
 70
     1
102
RTVSPropertyOp10
 70
     1
102
RTVSPropertyOp11
 70
     1
102
RTVSPropertyOp12
 70
     1
102
RTVSPropertyOp13
 70
     1
102
RTVSPropertyOp14
 70
     1
102
RTVSPropertyOp15
 70
     1
102
RTVSPropertyOp16
 70
     1
102
RTVSPropertyOp17
 70
     1
102
RTVSPropertyOp18
 70
     1
102
RTVSPropertyOp19
 70
     1
102
RTVSPropertyOp20
 70
     1
102
RTVSPropertyOp21
 70
     1
102
RTVSPropertyOp22
 70
     1
102
RTVSPropertyOp23
 70
     1
102
RTVSPropertyOp24
 70
     1
102
RTVSPropertyOp25
 70
     1
102
RTVSPropertyOp26
 70
     1
102
RTVSPropertyOp27
 70
     1
102
RTVSPropertyOp28
 70
     1
102
RTVSPropertyOp29
 70
     1
102
RTVSPropertyOp30
 70
     1
102
RTVSPropertyOp31
 70
     1
102
RTVSPropertyOp32
 70
     1
  0
ENDSEC
  0
EOF
