  0
SECTION
  2
HEADER
  9
$ACADVER
  1
AC1018
  9
$ACADMAINTVER
 70
     0
  9
$DWGCODEPAGE
  3
ANSI_1252
  9
$INSBASE
 10
0.0
 20
0.0
 30
0.0
  9
$EXTMIN
 10
-238.7500007990565
 20
5.27511395893936
 30
0.0
  9
$EXTMAX
 10
58.2499992009416
 20
215.2751139589395
 30
0.0
  9
$LIMMIN
 10
0.0
 20
0.0
  9
$LIMMAX
 10
12.0
 20
9.0
  9
$ORTHOMODE
 70
     0
  9
$REGENMODE
 70
     1
  9
$FILLMODE
 70
     1
  9
$QTEXTMODE
 70
     0
  9
$MIRRTEXT
 70
     1
  9
$LTSCALE
 40
1.0
  9
$ATTMODE
 70
     1
  9
$TEXTSIZE
 40
0.2
  9
$TRACEWID
 40
0.05
  9
$TEXTSTYLE
  7
Standard
  9
$CLAYER
  8
0
  9
$CELTYPE
  6
ByLayer
  9
$CECOLOR
 62
   256
  9
$CELTSCALE
 40
1.0
  9
$DISPSILH
 70
     0
  9
$DIMSCALE
 40
1.0
  9
$DIMASZ
 40
0.18
  9
$DIMEXO
 40
0.0625
  9
$DIMDLI
 40
0.38
  9
$DIMRND
 40
0.0
  9
$DIMDLE
 40
0.0
  9
$DIMEXE
 40
0.18
  9
$DIMTP
 40
0.0
  9
$DIMTM
 40
0.0
  9
$DIMTXT
 40
0.18
  9
$DIMCEN
 40
0.09
  9
$DIMTSZ
 40
0.0
  9
$DIMTOL
 70
     0
  9
$DIMLIM
 70
     0
  9
$DIMTIH
 70
     1
  9
$DIMTOH
 70
     1
  9
$DIMSE1
 70
     0
  9
$DIMSE2
 70
     0
  9
$DIMTAD
 70
     0
  9
$DIMZIN
 70
     0
  9
$DIMBLK
  1

  9
$DIMASO
 70
     1
  9
$DIMSHO
 70
     1
  9
$DIMPOST
  1

  9
$DIMAPOST
  1

  9
$DIMALT
 70
     0
  9
$DIMALTD
 70
     2
  9
$DIMALTF
 40
25.4
  9
$DIMLFAC
 40
1.0
  9
$DIMTOFL
 70
     0
  9
$DIMTVP
 40
0.0
  9
$DIMTIX
 70
     0
  9
$DIMSOXD
 70
     0
  9
$DIMSAH
 70
     0
  9
$DIMBLK1
  1

  9
$DIMBLK2
  1

  9
$DIMSTYLE
  2
Standard
  9
$DIMCLRD
 70
     0
  9
$DIMCLRE
 70
     0
  9
$DIMCLRT
 70
     0
  9
$DIMTFAC
 40
1.0
  9
$DIMGAP
 40
0.09
  9
$DIMJUST
 70
     0
  9
$DIMSD1
 70
     0
  9
$DIMSD2
 70
     0
  9
$DIMTOLJ
 70
     1
  9
$DIMTZIN
 70
     0
  9
$DIMALTZ
 70
     0
  9
$DIMALTTZ
 70
     0
  9
$DIMUPT
 70
     0
  9
$DIMDEC
 70
     4
  9
$DIMTDEC
 70
     4
  9
$DIMALTU
 70
     2
  9
$DIMALTTD
 70
     2
  9
$DIMTXSTY
  7
Standard
  9
$DIMAUNIT
 70
     0
  9
$DIMADEC
 70
     0
  9
$DIMALTRND
 40
0.0
  9
$DIMAZIN
 70
     0
  9
$DIMDSEP
 70
    46
  9
$DIMATFIT
 70
     3
  9
$DIMFRAC
 70
     0
  9
$DIMLDRBLK
  1

  9
$DIMLUNIT
 70
     2
  9
$DIMLWD
 70
    -2
  9
$DIMLWE
 70
    -2
  9
$DIMTMOVE
 70
     0
  9
$LUNITS
 70
     2
  9
$LUPREC
 70
     4
  9
$SKETCHINC
 40
0.1
  9
$FILLETRAD
 40
0.5
  9
$AUNITS
 70
     0
  9
$AUPREC
 70
     0
  9
$MENU
  1
.
  9
$ELEVATION
 40
0.0
  9
$PELEVATION
 40
0.0
  9
$THICKNESS
 40
0.0
  9
$LIMCHECK
 70
     0
  9
$CHAMFERA
 40
0.5
  9
$CHAMFERB
 40
0.5
  9
$CHAMFERC
 40
1.0
  9
$CHAMFERD
 40
0.0
  9
$SKPOLY
 70
     0
  9
$TDCREATE
 40
2458161.618329896
  9
$TDUCREATE
 40
2458161.576663229
  9
$TDUPDATE
 40
2458161.61833044
  9
$TDUUPDATE
 40
2458161.576663773
  9
$TDINDWG
 40
0.0000000116
  9
$TDUSRTIMER
 40
0.0000000116
  9
$USRTIMER
 70
     1
  9
$ANGBASE
 50
0.0
  9
$ANGDIR
 70
     0
  9
$PDMODE
 70
     0
  9
$PDSIZE
 40
0.0
  9
$PLINEWID
 40
0.0
  9
$SPLFRAME
 70
     0
  9
$SPLINETYPE
 70
     6
  9
$SPLINESEGS
 70
     8
  9
$HANDSEED
  5
24B
  9
$SURFTAB1
 70
     6
  9
$SURFTAB2
 70
     6
  9
$SURFTYPE
 70
     6
  9
$SURFU
 70
     6
  9
$SURFV
 70
     6
  9
$UCSBASE
  2

  9
$UCSNAME
  2

  9
$UCSORG
 10
0.0
 20
0.0
 30
0.0
  9
$UCSXDIR
 10
1.0
 20
0.0
 30
0.0
  9
$UCSYDIR
 10
0.0
 20
1.0
 30
0.0
  9
$UCSORTHOREF
  2

  9
$UCSORTHOVIEW
 70
     0
  9
$UCSORGTOP
 10
0.0
 20
0.0
 30
0.0
  9
$UCSORGBOTTOM
 10
0.0
 20
0.0
 30
0.0
  9
$UCSORGLEFT
 10
0.0
 20
0.0
 30
0.0
  9
$UCSORGRIGHT
 10
0.0
 20
0.0
 30
0.0
  9
$UCSORGFRONT
 10
0.0
 20
0.0
 30
0.0
  9
$UCSORGBACK
 10
0.0
 20
0.0
 30
0.0
  9
$PUCSBASE
  2

  9
$PUCSNAME
  2

  9
$PUCSORG
 10
0.0
 20
0.0
 30
0.0
  9
$PUCSXDIR
 10
1.0
 20
0.0
 30
0.0
  9
$PUCSYDIR
 10
0.0
 20
1.0
 30
0.0
  9
$PUCSORTHOREF
  2

  9
$PUCSORTHOVIEW
 70
     0
  9
$PUCSORGTOP
 10
0.0
 20
0.0
 30
0.0
  9
$PUCSORGBOTTOM
 10
0.0
 20
0.0
 30
0.0
  9
$PUCSORGLEFT
 10
0.0
 20
0.0
 30
0.0
  9
$PUCSORGRIGHT
 10
0.0
 20
0.0
 30
0.0
  9
$PUCSORGFRONT
 10
0.0
 20
0.0
 30
0.0
  9
$PUCSORGBACK
 10
0.0
 20
0.0
 30
0.0
  9
$USERI1
 70
     0
  9
$USERI2
 70
     0
  9
$USERI3
 70
     0
  9
$USERI4
 70
     0
  9
$USERI5
 70
     0
  9
$USERR1
 40
18.1
  9
$USERR2
 40
0.0
  9
$USERR3
 40
0.0
  9
$USERR4
 40
0.0
  9
$USERR5
 40
0.0
  9
$WORLDVIEW
 70
     1
  9
$SHADEDGE
 70
     3
  9
$SHADEDIF
 70
    70
  9
$TILEMODE
 70
     1
  9
$MAXACTVP
 70
    64
  9
$PINSBASE
 10
0.0
 20
0.0
 30
0.0
  9
$PLIMCHECK
 70
     0
  9
$PEXTMIN
 10
1.00000000000000E+20
 20
1.00000000000000E+20
 30
1.00000000000000E+20
  9
$PEXTMAX
 10
-1.00000000000000E+20
 20
-1.00000000000000E+20
 30
-1.00000000000000E+20
  9
$PLIMMIN
 10
0.0
 20
0.0
  9
$PLIMMAX
 10
12.0
 20
9.0
  9
$UNITMODE
 70
     0
  9
$VISRETAIN
 70
     1
  9
$PLINEGEN
 70
     0
  9
$PSLTSCALE
 70
     1
  9
$TREEDEPTH
 70
  3020
  9
$CMLSTYLE
  2
Standard
  9
$CMLJUST
 70
     0
  9
$CMLSCALE
 40
1.0
  9
$PROXYGRAPHICS
 70
     1
  9
$MEASUREMENT
 70
     1
  9
$CELWEIGHT
370
    -1
  9
$ENDCAPS
280
     0
  9
$JOINSTYLE
280
     0
  9
$LWDISPLAY
290
     0
  9
$INSUNITS
 70
     4
  9
$HYPERLINKBASE
  1

  9
$STYLESHEET
  1

  9
$XEDIT
290
     1
  9
$CEPSNTYPE
380
     0
  9
$PSTYLEMODE
290
     1
  9
$FINGERPRINTGUID
  2
{21673CA8-6394-451D-BEDD-3B6DE943E6DD}
  9
$VERSIONGUID
  2
{FAEB1C32-E019-11D5-929B-00C0DF256EC4}
  9
$EXTNAMES
290
     1
  9
$PSVPSCALE
 40
0.0
  9
$OLESTARTUP
290
     0
  9
$SORTENTS
280
   127
  9
$INDEXCTL
280
     0
  9
$HIDETEXT
280
     1
  9
$XCLIPFRAME
290
     0
  9
$HALOGAP
280
     0
  9
$OBSCOLOR
 70
   257
  9
$OBSLTYPE
280
     0
  9
$INTERSECTIONDISPLAY
280
     0
  9
$INTERSECTIONCOLOR
 70
   257
  9
$DIMASSOC
280
     2
  9
$PROJECTNAME
  1

  0
ENDSEC
  0
SECTION
  2
CLASSES
  0
CLASS
  1
ACDBDICTIONARYWDFLT
  2
AcDbDictionaryWithDefault
  3
ObjectDBX Classes
 90
        0
 91
        4
280
     0
281
     0
  0
CLASS
  1
VISUALSTYLE
  2
AcDbVisualStyle
  3
ObjectDBX Classes
 90
     4095
 91
        4
280
     0
281
     0
  0
CLASS
  1
MATERIAL
  2
AcDbMaterial
  3
ObjectDBX Classes
 90
     1153
 91
        4
280
     0
281
     0
  0
ENDSEC
  0
SECTION
  2
TABLES
  0
TABLE
  2
VPORT
  5
8
330
0
100
AcDbSymbolTable
 70
     1
  0
VPORT
  5
29
330
8
100
AcDbSymbolTableRecord
100
AcDbViewportTableRecord
  2
*Active
 70
     0
 10
0.0
 20
0.0
 11
1.0
 21
1.0
 12
-90.25000079905745
 22
110.2751139589394
 13
0.0
 23
0.0
 14
0.5
 24
0.5
 15
0.5
 25
0.5
 16
0.0
 26
0.0
 36
1.0
 17
0.0
 27
0.0
 37
0.0
 40
231.0000000000002
 41
1.60267857142857
 42
50.0
 43
0.0
 44
0.0
 50
0.0
 51
0.0
 71
     0
 72
   100
 73
     1
 74
     3
 75
     0
 76
     0
 77
     0
 78
     0
281
     0
 65
     1
110
0.0
120
0.0
130
0.0
111
1.0
121
0.0
131
0.0
112
0.0
122
1.0
132
0.0
 79
     0
146
0.0
  0
ENDTAB
  0
TABLE
  2
LTYPE
  5
5
330
0
100
AcDbSymbolTable
 70
     8
  0
LTYPE
  5
14
330
5
100
AcDbSymbolTableRecord
100
AcDbLinetypeTableRecord
  2
ByBlock
 70
     0
  3

 72
    65
 73
     0
 40
0.0
  0
LTYPE
  5
15
330
5
100
AcDbSymbolTableRecord
100
AcDbLinetypeTableRecord
  2
ByLayer
 70
     0
  3

 72
    65
 73
     0
 40
0.0
  0
LTYPE
  5
16
330
5
100
AcDbSymbolTableRecord
100
AcDbLinetypeTableRecord
  2
Continuous
 70
     0
  3
Solid line
 72
    65
 73
     0
 40
0.0
  0
LTYPE
  5
3F
330
5
100
AcDbSymbolTableRecord
100
AcDbLinetypeTableRecord
  2
DASHED
 70
     0
  3
Dashed
 72
    65
 73
     2
 40
15.0
 49
7.0
 74
     0
 49
-8.0
 74
     0
  0
LTYPE
  5
40
330
5
100
AcDbSymbolTableRecord
100
AcDbLinetypeTableRecord
  2
DOTTED
 70
     0
  3
Dotted
 72
    65
 73
     2
 40
1.0
 49
0.0
 74
     0
 49
-1.0
 74
     0
  0
LTYPE
  5
41
330
5
100
AcDbSymbolTableRecord
100
AcDbLinetypeTableRecord
  2
DOT_CENTER
 70
     0
  3
Dot_Center
 72
    65
 73
     4
 40
14.0
 49
12.0
 74
     0
 49
-1.0
 74
     0
 49
0.0
 74
     0
 49
-1.0
 74
     0
  0
LTYPE
  5
42
330
5
100
AcDbSymbolTableRecord
100
AcDbLinetypeTableRecord
  2
LONG_DASHED
 70
     0
  3
Long_Dashed
 72
    65
 73
     2
 40
15.0
 49
10.0
 74
     0
 49
-5.0
 74
     0
  0
LTYPE
  5
43
330
5
100
AcDbSymbolTableRecord
100
AcDbLinetypeTableRecord
  2
DASH_CENTER
 70
     0
  3
Dash_Center
 72
    65
 73
     4
 40
14.0
 49
11.0
 74
     0
 49
-1.0
 74
     0
 49
1.0
 74
     0
 49
-1.0
 74
     0
  0
LTYPE
  5
44
330
5
100
AcDbSymbolTableRecord
100
AcDbLinetypeTableRecord
  2
PHANTOM
 70
     0
  3
Phantom
 72
    65
 73
     6
 40
13.0
 49
10.0
 74
     0
 49
-1.0
 74
     0
 49
0.0
 74
     0
 49
-1.0
 74
     0
 49
0.0
 74
     0
 49
-1.0
 74
     0
  0
LTYPE
  5
45
330
5
100
AcDbSymbolTableRecord
100
AcDbLinetypeTableRecord
  2
CENTER_DASH_DASH
 70
     0
  3
Center_Dash_Dash
 72
    65
 73
     6
 40
14.0
 49
9.0
 74
     0
 49
-1.0
 74
     0
 49
1.0
 74
     0
 49
-1.0
 74
     0
 49
1.0
 74
     0
 49
-1.0
 74
     0
  0
ENDTAB
  0
TABLE
  2
LAYER
  5
2
330
0
100
AcDbSymbolTable
 70
     2
  0
LAYER
  5
10
330
2
100
AcDbSymbolTableRecord
100
AcDbLayerTableRecord
  2
0
 70
     0
 62
     7
  6
Continuous
370
    -3
390
F
  0
LAYER
  5
46
330
2
100
AcDbSymbolTableRecord
100
AcDbLayerTableRecord
  2
1
 70
     0
 62
     7
  6
Continuous
370
    -3
390
F
  0
ENDTAB
  0
TABLE
  2
STYLE
  5
3
330
0
100
AcDbSymbolTable
 70
     5
  0
STYLE
  5
11
330
3
100
AcDbSymbolTableRecord
100
AcDbTextStyleTableRecord
  2
Standard
 70
     0
 40
0.0
 41
1.0
 50
0.0
 71
     0
 42
0.2
  3
txt
  4

  0
STYLE
  5
AA
330
3
100
AcDbSymbolTableRecord
100
AcDbTextStyleTableRecord
  2
CONVERTER_11
 70
     0
 40
0.0
 41
0.9
 50
0.0
 71
     0
 42
0.2
  3
txt.shx
  4

  0
STYLE
  5
1E6
330
3
100
AcDbSymbolTableRecord
100
AcDbTextStyleTableRecord
  2
CONVERTER_12
 70
     0
 40
0.0
 41
0.81
 50
0.0
 71
     0
 42
0.2
  3
txt.shx
  4

  0
STYLE
  5
1FC
330
3
100
AcDbSymbolTableRecord
100
AcDbTextStyleTableRecord
  2
CONVERTER_13
 70
     0
 40
0.0
 41
0.72
 50
0.0
 71
     0
 42
0.2
  3
txt.shx
  4

  0
STYLE
  5
1FF
330
3
100
AcDbSymbolTableRecord
100
AcDbTextStyleTableRecord
  2
CONVERTER_14
 70
     0
 40
0.0
 41
0.855
 50
0.0
 71
     0
 42
0.2
  3
txt.shx
  4

  0
ENDTAB
  0
TABLE
  2
VIEW
  5
6
330
0
100
AcDbSymbolTable
 70
     0
  0
ENDTAB
  0
TABLE
  2
UCS
  5
7
330
0
100
AcDbSymbolTable
 70
     0
  0
ENDTAB
  0
TABLE
  2
APPID
  5
9
330
0
100
AcDbSymbolTable
 70
     1
  0
APPID
  5
12
330
9
100
AcDbSymbolTableRecord
100
AcDbRegAppTableRecord
  2
ACAD
 70
     0
  0
ENDTAB
  0
TABLE
  2
DIMSTYLE
  5
A
330
0
100
AcDbSymbolTable
 70
     4
100
AcDbDimStyleTable
  0
DIMSTYLE
105
27
330
A
100
AcDbSymbolTableRecord
100
AcDbDimStyleTableRecord
  2
Standard
 70
     0
178
     0
340
11
  0
DIMSTYLE
105
AE
102
{ACAD_REACTORS
330
AF
102
}
330
A
100
AcDbSymbolTableRecord
100
AcDbDimStyleTableRecord
  2
ME10_DIM_10
 70
     0
 41
3.5
 42
0.0
 44
1.5
 73
     0
 74
     0
 77
     1
 78
     8
140
3.5
147
1.5
172
     1
173
     1
174
     1
175
     1
176
     2
177
     2
271
     2
178
     3
271
     2
340
AA
  0
DIMSTYLE
105
DD
102
{ACAD_REACTORS
330
DE
102
}
330
A
100
AcDbSymbolTableRecord
100
AcDbDimStyleTableRecord
  2
ME10_DIM_11
 70
     0
 41
3.5
 42
0.0
 44
1.5
 73
     0
 74
     0
 77
     1
 78
     8
140
3.5
147
1.5
172
     1
173
     1
174
     1
175
     1
176
     2
177
     2
271
     2
178
     3
271
     2
340
AA
  0
DIMSTYLE
105
E8
102
{ACAD_REACTORS
330
E9
102
}
330
A
100
AcDbSymbolTableRecord
100
AcDbDimStyleTableRecord
  2
ME10_DIM_12
 70
     0
 41
3.5
 42
0.0
 44
1.5
 73
     0
 74
     0
 77
     1
 78
     8
140
3.5
147
1.5
172
     1
173
     1
174
     1
175
     1
176
     2
177
     2
271
     2
178
     3
271
     2
340
AA
  0
ENDTAB
  0
TABLE
  2
BLOCK_RECORD
  5
1
330
0
100
AcDbSymbolTable
 70
    20
  0
BLOCK_RECORD
  5
1F
330
1
100
AcDbSymbolTableRecord
100
AcDbBlockTableRecord
  2
*Model_Space
340
22
  0
BLOCK_RECORD
  5
1B
330
1
100
AcDbSymbolTableRecord
100
AcDbBlockTableRecord
  2
*Paper_Space
340
1E
  0
BLOCK_RECORD
  5
23
330
1
100
AcDbSymbolTableRecord
100
AcDbBlockTableRecord
  2
*Paper_Space0
340
26
  0
BLOCK_RECORD
  5
47
330
1
100
AcDbSymbolTableRecord
100
AcDbBlockTableRecord
  2
D_URTK_SS-select__1
340
0
102
{BLKREFS
331
4B
102
}
  0
BLOCK_RECORD
  5
4A
330
1
100
AcDbSymbolTableRecord
100
AcDbBlockTableRecord
  2
AllgSicht1
340
0
102
{BLKREFS
331
7D
102
}
  0
BLOCK_RECORD
  5
4E
330
1
100
AcDbSymbolTableRecord
100
AcDbBlockTableRecord
  2
D_URTK_SS-select__2
340
0
102
{BLKREFS
331
52
102
}
  0
BLOCK_RECORD
  5
51
330
1
100
AcDbSymbolTableRecord
100
AcDbBlockTableRecord
  2
Drfsicht1
340
0
102
{BLKREFS
331
7E
102
}
  0
BLOCK_RECORD
  5
55
330
1
100
AcDbSymbolTableRecord
100
AcDbBlockTableRecord
  2
D_URTK_SS-select__3
340
0
102
{BLKREFS
331
59
102
}
  0
BLOCK_RECORD
  5
58
330
1
100
AcDbSymbolTableRecord
100
AcDbBlockTableRecord
  2
Rckans1
340
0
102
{BLKREFS
331
7F
102
}
  0
BLOCK_RECORD
  5
5C
330
1
100
AcDbSymbolTableRecord
100
AcDbBlockTableRecord
  2
D_URTK_SS-select__4
340
0
102
{BLKREFS
331
60
102
}
  0
BLOCK_RECORD
  5
5F
330
1
100
AcDbSymbolTableRecord
100
AcDbBlockTableRecord
  2
SA_Links1
340
0
102
{BLKREFS
331
80
102
}
  0
BLOCK_RECORD
  5
63
330
1
100
AcDbSymbolTableRecord
100
AcDbBlockTableRecord
  2
D_URTK_SS-select__5
340
0
102
{BLKREFS
331
67
102
}
  0
BLOCK_RECORD
  5
66
330
1
100
AcDbSymbolTableRecord
100
AcDbBlockTableRecord
  2
SA_Rechts1
340
0
102
{BLKREFS
331
81
102
}
  0
BLOCK_RECORD
  5
6A
330
1
100
AcDbSymbolTableRecord
100
AcDbBlockTableRecord
  2
D_URTK_SS-select__6
340
0
102
{BLKREFS
331
6E
102
}
  0
BLOCK_RECORD
  5
6D
330
1
100
AcDbSymbolTableRecord
100
AcDbBlockTableRecord
  2
Vordans1
340
0
102
{BLKREFS
331
82
102
}
  0
BLOCK_RECORD
  5
71
330
1
100
AcDbSymbolTableRecord
100
AcDbBlockTableRecord
  2
_rahmen
340
0
102
{BLKREFS
331
78
102
}
  0
BLOCK_RECORD
  5
74
330
1
100
AcDbSymbolTableRecord
100
AcDbBlockTableRecord
  2
_punkt
340
0
102
{BLKREFS
331
79
102
}
  0
BLOCK_RECORD
  5
77
330
1
100
AcDbSymbolTableRecord
100
AcDbBlockTableRecord
  2
A4I_CS
340
0
102
{BLKREFS
331
83
102
}
  0
BLOCK_RECORD
  5
7C
330
1
100
AcDbSymbolTableRecord
100
AcDbBlockTableRecord
  2
1
340
0
102
{BLKREFS
331
86
102
}
  0
BLOCK_RECORD
  5
A2
330
1
100
AcDbSymbolTableRecord
100
AcDbBlockTableRecord
  2
*D17
340
0
  0
BLOCK_RECORD
  5
D4
330
1
100
AcDbSymbolTableRecord
100
AcDbBlockTableRecord
  2
*D18
340
0
  0
BLOCK_RECORD
  5
DF
330
1
100
AcDbSymbolTableRecord
100
AcDbBlockTableRecord
  2
*D19
340
0
  0
ENDTAB
  0
ENDSEC
  0
SECTION
  2
BLOCKS
  0
BLOCK
  5
20
330
1F
100
AcDbEntity
  8
0
100
AcDbBlockBegin
  2
*Model_Space
 70
     0
 10
0.0
 20
0.0
 30
0.0
  3
*Model_Space
  1

  0
ENDBLK
  5
21
330
1F
100
AcDbEntity
  8
0
100
AcDbBlockEnd
  0
BLOCK
  5
1C
330
1B
100
AcDbEntity
 67
     1
  8
0
100
AcDbBlockBegin
  2
*Paper_Space
 70
     0
 10
0.0
 20
0.0
 30
0.0
  3
*Paper_Space
  1

  0
ENDBLK
  5
1D
330
1B
100
AcDbEntity
 67
     1
  8
0
100
AcDbBlockEnd
  0
BLOCK
  5
24
330
23
100
AcDbEntity
  8
0
100
AcDbBlockBegin
  2
*Paper_Space0
 70
     0
 10
0.0
 20
0.0
 30
0.0
  3
*Paper_Space0
  1

  0
ENDBLK
  5
25
330
23
100
AcDbEntity
  8
0
100
AcDbBlockEnd
  0
BLOCK
  5
48
330
47
100
AcDbEntity
  8
0
100
AcDbBlockBegin
  2
D_URTK_SS-select__1
 70
     0
 10
-2.71521694393951
 20
42.21105684603189
 30
0.0
  3
D_URTK_SS-select__1
  1

  0
LINE
  5
87
330
47
100
AcDbEntity
  8
0
  6
Continuous
 62
     7
100
AcDbLine
 10
46.21521836988129
 20
42.21105684603189
 30
0.0
 11
46.71521836988129
 21
42.64406954792411
 31
0.0
  0
LINE
  5
88
330
47
100
AcDbEntity
  8
0
  6
Continuous
 62
     7
100
AcDbLine
 10
46.71521836988129
 20
58.8697737034403
 30
0.0
 11
46.71521836988129
 21
42.64406954792411
 31
0.0
  0
LINE
  5
89
330
47
100
AcDbEntity
  8
0
  6
Continuous
 62
     7
100
AcDbLine
 10
46.71521836988129
 20
58.8697737034403
 30
0.0
 11
46.21521836988129
 21
58.43676100154809
 31
0.0
  0
LINE
  5
8A
330
47
100
AcDbEntity
  8
0
  6
Continuous
 62
     7
100
AcDbLine
 10
39.9602202203626
 20
67.57477185295895
 30
0.0
 11
39.4602202203626
 21
67.14175915106672
 31
0.0
  0
LINE
  5
8B
330
47
100
AcDbEntity
  8
0
  6
Continuous
 62
     7
100
AcDbLine
 10
39.4602202203626
 20
67.14175915106672
 30
0.0
 11
46.21521836988129
 21
58.43676100154809
 31
0.0
  0
LINE
  5
8C
330
47
100
AcDbEntity
  8
0
  6
Continuous
 62
     7
100
AcDbLine
 10
39.9602202203626
 20
67.57477185295895
 30
0.0
 11
46.71521836988129
 21
58.8697737034403
 31
0.0
  0
LINE
  5
8D
330
47
100
AcDbEntity
  8
0
  6
Continuous
 62
     7
100
AcDbLine
 10
-2.21521694393951
 20
72.9947737034403
 30
0.0
 11
-2.71521694393951
 21
72.56176100154808
 31
0.0
  0
LINE
  5
8E
330
47
100
AcDbEntity
  8
0
  6
Continuous
 62
     7
100
AcDbLine
 10
-2.71521694393951
 20
72.56176100154808
 30
0.0
 11
4.03978120557909
 21
77.36675915106672
 31
0.0
  0
LINE
  5
8F
330
47
100
AcDbEntity
  8
0
  6
Continuous
 62
     7
100
AcDbLine
 10
4.03978120557909
 20
77.36675915106672
 30
0.0
 11
39.4602202203626
 21
67.14175915106672
 31
0.0
  0
LINE
  5
90
330
47
100
AcDbEntity
  8
0
  6
Continuous
 62
     7
100
AcDbLine
 10
-2.71521694393951
 20
56.33605684603187
 30
0.0
 11
-2.71521694393951
 21
72.56176100154808
 31
0.0
  0
LINE
  5
91
330
47
100
AcDbEntity
  8
0
  6
Continuous
 62
     7
100
AcDbLine
 10
38.89730370790269
 20
42.36272752207487
 30
0.0
 11
46.21521836988129
 21
42.21105684603189
 31
0.0
  0
LINE
  5
92
330
47
100
AcDbEntity
  8
0
  6
Continuous
 62
     7
100
AcDbLine
 10
38.89730370790269
 20
42.36272752207487
 30
0.0
 11
4.60269771803898
 21
52.26272752207486
 31
0.0
  0
LINE
  5
93
330
47
100
AcDbEntity
  8
0
  6
Continuous
 62
     7
100
AcDbLine
 10
46.21521836988129
 20
58.43676100154809
 30
0.0
 11
46.21521836988129
 21
42.21105684603189
 31
0.0
  0
LINE
  5
94
330
47
100
AcDbEntity
  8
0
  6
Continuous
 62
     7
100
AcDbLine
 10
4.53978120557909
 20
77.79977185295894
 30
0.0
 11
4.03978120557909
 21
77.36675915106672
 31
0.0
  0
LINE
  5
95
330
47
100
AcDbEntity
  8
0
  6
Continuous
 62
     7
100
AcDbLine
 10
-2.21521694393951
 20
72.9947737034403
 30
0.0
 11
4.53978120557909
 21
77.79977185295894
 31
0.0
  0
LINE
  5
96
330
47
100
AcDbEntity
  8
0
  6
Continuous
 62
     7
100
AcDbLine
 10
-2.71521694393951
 20
56.33605684603187
 30
0.0
 11
4.60269771803898
 21
52.26272752207486
 31
0.0
  0
LINE
  5
97
330
47
100
AcDbEntity
  8
0
  6
Continuous
 62
     7
100
AcDbLine
 10
4.53978120557909
 20
77.79977185295894
 30
0.0
 11
39.9602202203626
 21
67.57477185295895
 31
0.0
  0
ENDBLK
  5
49
330
47
100
AcDbEntity
  8
0
100
AcDbBlockEnd
  0
BLOCK
  5
4C
330
4A
100
AcDbEntity
  8
0
100
AcDbBlockBegin
  2
AllgSicht1
 70
     0
 10
22.0000000000004
 20
60.0
 30
0.0
  3
AllgSicht1
  1

  0
INSERT
  5
4B
330
4A
100
AcDbEntity
  8
0
100
AcDbBlockReference
  2
D_URTK_SS-select__1
 10
-2.71521694393951
 20
42.21105684603189
 30
0.0
  0
ENDBLK
  5
4D
330
4A
100
AcDbEntity
  8
0
100
AcDbBlockEnd
  0
BLOCK
  5
4F
330
4E
100
AcDbEntity
  8
0
100
AcDbBlockBegin
  2
D_URTK_SS-select__2
 70
     0
 10
-159.2499991767355
 20
79.50000000001498
 30
0.0
  3
D_URTK_SS-select__2
  1

  0
LINE
  5
98
330
4E
100
AcDbEntity
  8
0
  6
Continuous
 62
     7
100
AcDbLine
 10
-102.7499991767354
 20
80.50000000001498
 30
0.0
 11
-102.7499991767354
 21
79.50000000001498
 31
0.0
  0
LINE
  5
99
330
4E
100
AcDbEntity
  8
0
  6
Continuous
 62
     7
100
AcDbLine
 10
-110.5499991767354
 20
79.50000000001498
 30
0.0
 11
-102.7499991767354
 21
79.50000000001498
 31
0.0
  0
LINE
  5
9A
330
4E
100
AcDbEntity
  8
0
  6
Continuous
 62
     7
100
AcDbLine
 10
-110.5499991767354
 20
80.50000000001498
 30
0.0
 11
-102.7499991767354
 21
80.50000000001498
 31
0.0
  0
LINE
  5
9B
330
4E
100
AcDbEntity
  8
0
  6
Continuous
 62
     7
100
AcDbLine
 10
-159.2499991767355
 20
79.50000000001498
 30
0.0
 11
-151.4499991767355
 21
79.50000000001498
 31
0.0
  0
LINE
  5
9C
330
4E
100
AcDbEntity
  8
0
  6
Continuous
 62
     7
100
AcDbLine
 10
-159.2499991767355
 20
80.50000000001498
 30
0.0
 11
-159.2499991767355
 21
79.50000000001498
 31
0.0
  0
LINE
  5
9D
330
4E
100
AcDbEntity
  8
0
  6
Continuous
 62
     7
100
AcDbLine
 10
-159.2499991767355
 20
80.50000000001498
 30
0.0
 11
-151.4499991767355
 21
80.50000000001498
 31
0.0
  0
LINE
  5
9E
330
4E
100
AcDbEntity
  8
0
  6
Continuous
 62
     7
100
AcDbLine
 10
-110.5499991767354
 20
80.50000000001498
 30
0.0
 11
-110.5499991767354
 21
79.50000000001498
 31
0.0
  0
LINE
  5
9F
330
4E
100
AcDbEntity
  8
0
  6
Continuous
 62
     7
100
AcDbLine
 10
-151.4499991767355
 20
80.50000000001498
 30
0.0
 11
-110.5499991767354
 21
80.50000000001498
 31
0.0
  0
LINE
  5
A0
330
4E
100
AcDbEntity
  8
0
  6
Continuous
 62
     7
100
AcDbLine
 10
-151.4499991767355
 20
80.50000000001498
 30
0.0
 11
-151.4499991767355
 21
79.50000000001498
 31
0.0
  0
LINE
  5
A1
330
4E
100
AcDbEntity
  8
0
  6
Continuous
 62
     7
100
AcDbLine
 10
-151.4499991767355
 20
79.50000000001498
 30
0.0
 11
-110.5499991767354
 21
79.50000000001498
 31
0.0
  0
ENDBLK
  5
50
330
4E
100
AcDbEntity
  8
0
100
AcDbBlockEnd
  0
BLOCK
  5
53
330
51
100
AcDbEntity
  8
0
100
AcDbBlockBegin
  2
Drfsicht1
 70
     0
 10
-131.0
 20
80.00000000000998
 30
0.0
  3
Drfsicht1
  1

  0
INSERT
  5
52
330
51
100
AcDbEntity
  8
0
100
AcDbBlockReference
  2
D_URTK_SS-select__2
 10
-159.2499991767355
 20
79.50000000001498
 30
0.0
  0
DIMENSION
  5
AF
330
51
100
AcDbEntity
  8
1
100
AcDbDimension
  2
*D17
 10
-169.2499991767355
 20
80.50000000001498
 30
0.0
 11
-172.4999991767355
 21
86.94459492049077
 31
0.0
 70
    32
  1
<>
 71
     5
 42
-1.0
 53
90.0
  3
ME10_DIM_10
100
AcDbAlignedDimension
 13
-159.2499991767355
 23
79.50000000001498
 33
0.0
 14
-159.2499991767355
 24
80.50000000001498
 34
0.0
 50
90.0
100
AcDbRotatedDimension
  0
ENDBLK
  5
54
330
51
100
AcDbEntity
  8
0
100
AcDbBlockEnd
  0
BLOCK
  5
56
330
55
100
AcDbEntity
  8
0
100
AcDbBlockBegin
  2
D_URTK_SS-select__3
 70
     0
 10
-49.7500023729852
 20
118.4999999721965
 30
0.0
  3
D_URTK_SS-select__3
  1

  0
LINE
  5
B0
330
55
100
AcDbEntity
  8
0
  6
Continuous
 62
     7
100
AcDbLine
 10
-41.30000237298518
 20
118.4999999721965
 30
0.0
 11
-1.70000237298519
 21
118.4999999721965
 31
0.0
  0
LINE
  5
B1
330
55
100
AcDbEntity
  8
0
  6
Continuous
 62
     7
100
AcDbLine
 10
-49.75000237298519
 20
120.7641706482395
 30
0.0
 11
-41.30000237298518
 21
118.4999999721965
 31
0.0
  0
LINE
  5
B2
330
55
100
AcDbEntity
  8
0
  6
Continuous
 62
     7
100
AcDbLine
 10
-49.7500023729852
 20
139.4999999721965
 30
0.0
 11
-49.75000237298519
 21
120.7641706482395
 31
0.0
  0
LINE
  5
B3
330
55
100
AcDbEntity
  8
0
  6
Continuous
 62
     7
100
AcDbLine
 10
-41.9500023729852
 20
147.2999999721965
 30
0.0
 11
-49.7500023729852
 21
139.4999999721965
 31
0.0
  0
LINE
  5
B4
330
55
100
AcDbEntity
  8
0
  6
Continuous
 62
     7
100
AcDbLine
 10
-1.0500023729852
 20
147.2999999721965
 30
0.0
 11
-41.9500023729852
 21
147.2999999721965
 31
0.0
  0
LINE
  5
B5
330
55
100
AcDbEntity
  8
0
  6
Continuous
 62
     7
100
AcDbLine
 10
-1.70000237298519
 20
118.4999999721965
 30
0.0
 11
6.74999762701482
 21
120.7641706482395
 31
0.0
  0
LINE
  5
B6
330
55
100
AcDbEntity
  8
0
  6
Continuous
 62
     7
100
AcDbLine
 10
6.74999762701482
 20
120.7641706482395
 30
0.0
 11
6.74999762701482
 21
139.4999999721965
 31
0.0
  0
LINE
  5
B7
330
55
100
AcDbEntity
  8
0
  6
Continuous
 62
     7
100
AcDbLine
 10
6.74999762701482
 20
139.4999999721965
 30
0.0
 11
-1.0500023729852
 21
147.2999999721965
 31
0.0
  0
ENDBLK
  5
57
330
55
100
AcDbEntity
  8
0
100
AcDbBlockEnd
  0
BLOCK
  5
5A
330
58
100
AcDbEntity
  8
0
100
AcDbBlockBegin
  2
Rckans1
 70
     0
 10
-21.50000154972065
 20
132.9000000953674
 30
0.0
  3
Rckans1
  1

  0
INSERT
  5
59
330
58
100
AcDbEntity
  8
0
100
AcDbBlockReference
  2
D_URTK_SS-select__3
 10
-49.7500023729852
 20
118.4999999721965
 30
0.0
  0
ENDBLK
  5
5B
330
58
100
AcDbEntity
  8
0
100
AcDbBlockEnd
  0
BLOCK
  5
5D
330
5C
100
AcDbEntity
  8
0
100
AcDbBlockBegin
  2
D_URTK_SS-select__4
 70
     0
 10
-72.25000077487044
 20
118.4999999721965
 30
0.0
  3
D_URTK_SS-select__4
  1

  0
LINE
  5
B8
330
5C
100
AcDbEntity
  8
0
  6
Continuous
 62
     7
100
AcDbLine
 10
-71.25000077487044
 20
120.7641706482394
 30
0.0
 11
-71.25000077487044
 21
118.4999999721965
 31
0.0
  0
LINE
  5
B9
330
5C
100
AcDbEntity
  8
0
  6
Continuous
 62
     7
100
AcDbLine
 10
-72.25000077487044
 20
118.4999999721965
 30
0.0
 11
-71.25000077487044
 21
118.4999999721965
 31
0.0
  0
LINE
  5
BA
330
5C
100
AcDbEntity
  8
0
  6
Continuous
 62
     7
100
AcDbLine
 10
-72.25000077487044
 20
118.4999999721965
 30
0.0
 11
-72.25000077487044
 21
120.7641706482394
 31
0.0
  0
LINE
  5
BB
330
5C
100
AcDbEntity
  8
0
  6
Continuous
 62
     7
100
AcDbLine
 10
-71.25000077487044
 20
139.4999999721965
 30
0.0
 11
-71.25000077487044
 21
147.2999999721965
 31
0.0
  0
LINE
  5
BC
330
5C
100
AcDbEntity
  8
0
  6
Continuous
 62
     7
100
AcDbLine
 10
-71.25000077487044
 20
120.7641706482394
 30
0.0
 11
-71.25000077487044
 21
139.4999999721965
 31
0.0
  0
LINE
  5
BD
330
5C
100
AcDbEntity
  8
0
  6
Continuous
 62
     7
100
AcDbLine
 10
-72.25000077487044
 20
139.4999999721965
 30
0.0
 11
-72.25000077487044
 21
147.2999999721965
 31
0.0
  0
LINE
  5
BE
330
5C
100
AcDbEntity
  8
0
  6
Continuous
 62
     7
100
AcDbLine
 10
-72.25000077487044
 20
147.2999999721965
 30
0.0
 11
-71.25000077487044
 21
147.2999999721965
 31
0.0
  0
LINE
  5
BF
330
5C
100
AcDbEntity
  8
0
  6
Continuous
 62
     7
100
AcDbLine
 10
-71.25000077487044
 20
120.7641706482394
 30
0.0
 11
-72.25000077487044
 21
120.7641706482394
 31
0.0
  0
LINE
  5
C0
330
5C
100
AcDbEntity
  8
0
  6
Continuous
 62
     7
100
AcDbLine
 10
-72.25000077487044
 20
139.4999999721965
 30
0.0
 11
-71.25000077487044
 21
139.4999999721965
 31
0.0
  0
LINE
  5
C1
330
5C
100
AcDbEntity
  8
0
  6
Continuous
 62
     7
100
AcDbLine
 10
-72.25000077487044
 20
120.7641706482394
 30
0.0
 11
-72.25000077487044
 21
139.4999999721965
 31
0.0
  0
ENDBLK
  5
5E
330
5C
100
AcDbEntity
  8
0
100
AcDbBlockEnd
  0
BLOCK
  5
61
330
5F
100
AcDbEntity
  8
0
100
AcDbBlockBegin
  2
SA_Links1
 70
     0
 10
-71.75000077486544
 20
132.9000000953674
 30
0.0
  3
SA_Links1
  1

  0
INSERT
  5
60
330
5F
100
AcDbEntity
  8
0
100
AcDbBlockReference
  2
D_URTK_SS-select__4
 10
-72.25000077487044
 20
118.4999999721965
 30
0.0
  0
ENDBLK
  5
62
330
5F
100
AcDbEntity
  8
0
100
AcDbBlockEnd
  0
BLOCK
  5
64
330
63
100
AcDbEntity
  8
0
100
AcDbBlockBegin
  2
D_URTK_SS-select__5
 70
     0
 10
-199.7499992251248
 20
118.4999999721965
 30
0.0
  3
D_URTK_SS-select__5
  1

  0
LINE
  5
C2
330
63
100
AcDbEntity
  8
0
  6
Continuous
 62
     7
100
AcDbLine
 10
-199.7499992251248
 20
118.4999999721965
 30
0.0
 11
-199.7499992251248
 21
120.7641706482395
 31
0.0
  0
LINE
  5
C3
330
63
100
AcDbEntity
  8
0
  6
Continuous
 62
     7
100
AcDbLine
 10
-199.7499992251248
 20
147.2999999721965
 30
0.0
 11
-199.7499992251248
 21
139.4999999721965
 31
0.0
  0
LINE
  5
C4
330
63
100
AcDbEntity
  8
0
  6
Continuous
 62
     7
100
AcDbLine
 10
-199.7499992251248
 20
139.4999999721965
 30
0.0
 11
-199.7499992251248
 21
120.7641706482395
 31
0.0
  0
LINE
  5
C5
330
63
100
AcDbEntity
  8
0
  6
Continuous
 62
     7
100
AcDbLine
 10
-198.7499992251248
 20
118.4999999721965
 30
0.0
 11
-199.7499992251248
 21
118.4999999721965
 31
0.0
  0
LINE
  5
C6
330
63
100
AcDbEntity
  8
0
  6
Continuous
 62
     7
100
AcDbLine
 10
-199.7499992251248
 20
120.7641706482395
 30
0.0
 11
-198.7499992251248
 21
120.7641706482395
 31
0.0
  0
LINE
  5
C7
330
63
100
AcDbEntity
  8
0
  6
Continuous
 62
     7
100
AcDbLine
 10
-198.7499992251248
 20
120.7641706482395
 30
0.0
 11
-198.7499992251248
 21
118.4999999721965
 31
0.0
  0
LINE
  5
C8
330
63
100
AcDbEntity
  8
0
  6
Continuous
 62
     7
100
AcDbLine
 10
-198.7499992251248
 20
139.4999999721965
 30
0.0
 11
-199.7499992251248
 21
139.4999999721965
 31
0.0
  0
LINE
  5
C9
330
63
100
AcDbEntity
  8
0
  6
Continuous
 62
     7
100
AcDbLine
 10
-198.7499992251248
 20
147.2999999721965
 30
0.0
 11
-198.7499992251248
 21
139.4999999721965
 31
0.0
  0
LINE
  5
CA
330
63
100
AcDbEntity
  8
0
  6
Continuous
 62
     7
100
AcDbLine
 10
-198.7499992251248
 20
147.2999999721965
 30
0.0
 11
-199.7499992251248
 21
147.2999999721965
 31
0.0
  0
LINE
  5
CB
330
63
100
AcDbEntity
  8
0
  6
Continuous
 62
     7
100
AcDbLine
 10
-198.7499992251248
 20
139.4999999721965
 30
0.0
 11
-198.7499992251248
 21
120.7641706482395
 31
0.0
  0
ENDBLK
  5
65
330
63
100
AcDbEntity
  8
0
100
AcDbBlockEnd
  0
BLOCK
  5
68
330
66
100
AcDbEntity
  8
0
100
AcDbBlockBegin
  2
SA_Rechts1
 70
     0
 10
-199.2499992251298
 20
132.9000000953674
 30
0.0
  3
SA_Rechts1
  1

  0
INSERT
  5
67
330
66
100
AcDbEntity
  8
0
100
AcDbBlockReference
  2
D_URTK_SS-select__5
 10
-199.7499992251248
 20
118.4999999721965
 30
0.0
  0
ENDBLK
  5
69
330
66
100
AcDbEntity
  8
0
100
AcDbBlockEnd
  0
BLOCK
  5
6B
330
6A
100
AcDbEntity
  8
0
100
AcDbBlockBegin
  2
D_URTK_SS-select__6
 70
     0
 10
-159.2499991767355
 20
118.4999999721965
 30
0.0
  3
D_URTK_SS-select__6
  1

  0
LINE
  5
CC
330
6A
100
AcDbEntity
  8
0
  6
Continuous
 62
     7
100
AcDbLine
 10
-159.2499991767355
 20
120.7641706482394
 30
0.0
 11
-159.2499991767355
 21
139.4999999721965
 31
0.0
  0
LINE
  5
CD
330
6A
100
AcDbEntity
  8
0
  6
Continuous
 62
     7
100
AcDbLine
 10
-110.5499991767355
 20
147.2999999721965
 30
0.0
 11
-102.7499991767355
 21
139.4999999721965
 31
0.0
  0
LINE
  5
CE
330
6A
100
AcDbEntity
  8
0
  6
Continuous
 62
     7
100
AcDbLine
 10
-151.4499991767355
 20
147.2999999721965
 30
0.0
 11
-110.5499991767355
 21
147.2999999721965
 31
0.0
  0
LINE
  5
CF
330
6A
100
AcDbEntity
  8
0
  6
Continuous
 62
     7
100
AcDbLine
 10
-111.1999991767355
 20
118.4999999721965
 30
0.0
 11
-102.7499991767355
 21
120.7641706482394
 31
0.0
  0
LINE
  5
D0
330
6A
100
AcDbEntity
  8
0
  6
Continuous
 62
     7
100
AcDbLine
 10
-102.7499991767355
 20
139.4999999721965
 30
0.0
 11
-102.7499991767355
 21
120.7641706482394
 31
0.0
  0
LINE
  5
D1
330
6A
100
AcDbEntity
  8
0
  6
Continuous
 62
     7
100
AcDbLine
 10
-159.2499991767355
 20
120.7641706482394
 30
0.0
 11
-150.7999991767355
 21
118.4999999721965
 31
0.0
  0
LINE
  5
D2
330
6A
100
AcDbEntity
  8
0
  6
Continuous
 62
     7
100
AcDbLine
 10
-111.1999991767355
 20
118.4999999721965
 30
0.0
 11
-150.7999991767355
 21
118.4999999721965
 31
0.0
  0
LINE
  5
D3
330
6A
100
AcDbEntity
  8
0
  6
Continuous
 62
     7
100
AcDbLine
 10
-159.2499991767355
 20
139.4999999721965
 30
0.0
 11
-151.4499991767355
 21
147.2999999721965
 31
0.0
  0
ENDBLK
  5
6C
330
6A
100
AcDbEntity
  8
0
100
AcDbBlockEnd
  0
BLOCK
  5
6F
330
6D
100
AcDbEntity
  8
0
100
AcDbBlockBegin
  2
Vordans1
 70
     0
 10
-131.0
 20
132.9000000953674
 30
0.0
  3
Vordans1
  1

  0
INSERT
  5
6E
330
6D
100
AcDbEntity
  8
0
100
AcDbBlockReference
  2
D_URTK_SS-select__6
 10
-159.2499991767355
 20
118.4999999721965
 30
0.0
  0
DIMENSION
  5
DE
330
6D
100
AcDbEntity
  8
1
100
AcDbDimension
  2
*D18
 10
-159.2499991767355
 20
108.0172649475466
 30
0.0
 11
-129.858717752246
 21
111.4422649475466
 31
0.0
 70
    32
  1
<>
 71
     5
 42
-1.0
 53
0.00013888888889
  3
ME10_DIM_11
100
AcDbAlignedDimension
 13
-102.7499991767355
 23
120.7641706482394
 33
0.0
 14
-159.2499991767355
 24
120.7641706482394
 34
0.0
100
AcDbRotatedDimension
  0
DIMENSION
  5
E9
330
6D
100
AcDbEntity
  8
1
100
AcDbDimension
  2
*D19
 10
-166.501941217162
 20
147.2999999721965
 30
0.0
 11
-169.926941217162
 21
131.705028592961
 31
0.0
 70
    32
  1
<>
 71
     5
 42
-1.0
 53
90.0
  3
ME10_DIM_12
100
AcDbAlignedDimension
 13
-150.7999991767355
 23
118.4999999721965
 33
0.0
 14
-151.4499991767355
 24
147.2999999721965
 34
0.0
 50
90.0
100
AcDbRotatedDimension
  0
ENDBLK
  5
70
330
6D
100
AcDbEntity
  8
0
100
AcDbBlockEnd
  0
BLOCK
  5
72
330
71
100
AcDbEntity
  8
0
100
AcDbBlockBegin
  2
_rahmen
 70
     0
 10
53.24999920094261
 20
5.27511395893936
 30
0.0
  3
_rahmen
  1

  0
LINE
  5
EA
330
71
100
AcDbEntity
  8
1
  6
Continuous
 62
     6
100
AcDbLine
 10
-76.2948053258074
 20
35.77511395893947
 30
0.0
 11
53.2499992009443
 21
35.77511395893947
 31
0.0
  0
LINE
  5
EB
330
71
100
AcDbEntity
  8
1
  6
Continuous
 62
     7
100
AcDbLine
 10
-58.09480532580739
 20
14.52511395893947
 30
0.0
 11
-39.89480532580748
 21
14.52511395893947
 31
0.0
  0
LINE
  5
EC
330
71
100
AcDbEntity
  8
1
  6
Continuous
 62
     6
100
AcDbLine
 10
-58.09480532580739
 20
10.27511395893947
 30
0.0
 11
-76.2948053258074
 21
10.27511395893936
 31
0.0
  0
LINE
  5
ED
330
71
100
AcDbEntity
  8
1
  6
Continuous
 62
     7
100
AcDbLine
 10
-58.09480532580739
 20
14.52511395893947
 30
0.0
 11
-58.09480532580739
 21
10.27511395893947
 31
0.0
  0
LINE
  5
EE
330
71
100
AcDbEntity
  8
1
  6
Continuous
 62
     7
100
AcDbLine
 10
-39.89480532580748
 20
14.52511395893947
 30
0.0
 11
-39.89480532580748
 21
10.27511395893936
 31
0.0
  0
LINE
  5
EF
330
71
100
AcDbEntity
  8
1
  6
Continuous
 62
     7
100
AcDbLine
 10
-76.2948053258074
 20
14.52511395893936
 30
0.0
 11
-76.2948053258074
 21
10.27511395893936
 31
0.0
  0
LINE
  5
F0
330
71
100
AcDbEntity
  8
1
  6
Continuous
 62
     7
100
AcDbLine
 10
-76.2948053258074
 20
14.52511395893936
 30
0.0
 11
-58.09480532580739
 21
14.52511395893947
 31
0.0
  0
LINE
  5
F1
330
71
100
AcDbEntity
  8
1
  6
Continuous
 62
     2
100
AcDbLine
 10
-67.0581504392448
 20
33.90011395893939
 30
0.0
 11
-67.0581504392448
 21
28.90011395893939
 31
0.0
  0
LINE
  5
F2
330
71
100
AcDbEntity
  8
1
  6
Continuous
 62
     2
100
AcDbLine
 10
-67.0581504392448
 20
28.90011395893939
 30
0.0
 11
-72.0581504392448
 21
30.15011395893939
 31
0.0
  0
LINE
  5
F3
330
71
100
AcDbEntity
  8
1
  6
Continuous
 62
     2
100
AcDbLine
 10
-72.0581504392448
 20
30.15011395893939
 30
0.0
 11
-72.0581504392448
 21
32.65011395893939
 31
0.0
  0
LINE
  5
F4
330
71
100
AcDbEntity
  8
1
  6
Continuous
 62
     2
100
AcDbLine
 10
-72.0581504392448
 20
32.65011395893939
 30
0.0
 11
-67.0581504392448
 21
33.90011395893939
 31
0.0
  0
LINE
  5
F5
330
71
100
AcDbEntity
  8
1
  6
Continuous
 62
     6
100
AcDbLine
 10
-198.7500007990556
 20
10.27511395893947
 30
0.0
 11
-233.7500007990555
 21
10.27511395893947
 31
0.0
  0
LINE
  5
F6
330
71
100
AcDbEntity
  8
1
  6
Continuous
 62
     6
100
AcDbLine
 10
53.2499992009443
 20
27.27511395893947
 30
0.0
 11
53.2499992009439
 21
18.77511395893947
 31
0.0
  0
LINE
  5
F7
330
71
100
AcDbEntity
  8
1
  6
Continuous
 62
     6
100
AcDbLine
 10
-39.89480532580748
 20
10.27511395893936
 30
0.0
 11
-40.2500007990574
 21
10.27511395893947
 31
0.0
  0
LINE
  5
F8
330
71
100
AcDbEntity
  8
1
  6
Continuous
 62
     6
100
AcDbLine
 10
-192.5500007990576
 20
10.27511395893936
 30
0.0
 11
-198.7500007990556
 21
10.27511395893947
 31
0.0
  0
LINE
  5
F9
330
71
100
AcDbEntity
  8
1
  6
Continuous
 62
     7
100
AcDbLine
 10
-39.89480532580748
 20
27.27511395893947
 30
0.0
 11
-39.89480532580748
 21
14.52511395893947
 31
0.0
  0
LINE
  5
FA
330
71
100
AcDbEntity
  8
1
  6
Continuous
 62
     7
100
AcDbLine
 10
-76.2948053258074
 20
27.27511395893947
 30
0.0
 11
-76.2948053258074
 21
14.52511395893936
 31
0.0
  0
LINE
  5
FB
330
71
100
AcDbEntity
  8
1
  6
Continuous
 62
     6
100
AcDbLine
 10
-90.25000079905737
 20
10.27511395893947
 30
0.0
 11
-140.2500007990576
 21
10.27511395893947
 31
0.0
  0
LINE
  5
FC
330
71
100
AcDbEntity
  8
1
  6
Continuous
 62
     6
100
AcDbLine
 10
-192.5500007990576
 20
10.27511395893936
 30
0.0
 11
-190.2500007990574
 21
10.27511395893947
 31
0.0
  0
LINE
  5
FD
330
71
100
AcDbEntity
  8
1
  6
Continuous
 62
     6
100
AcDbLine
 10
-39.89480532580748
 20
10.27511395893936
 30
0.0
 11
9.7499992009426
 21
10.27511395893947
 31
0.0
  0
LINE
  5
FE
330
71
100
AcDbEntity
  8
1
  6
Continuous
 62
     6
100
AcDbLine
 10
53.24999920094261
 20
10.27511395893947
 30
0.0
 11
53.2499992009439
 21
18.77511395893947
 31
0.0
  0
LINE
  5
FF
330
71
100
AcDbEntity
  8
1
  6
Continuous
 62
     2
100
AcDbLine
 10
-238.7500007990565
 20
10.27511395893947
 30
0.0
 11
-238.7500007990565
 21
5.27511395893936
 31
0.0
  0
LINE
  5
100
330
71
100
AcDbEntity
  8
1
  6
Continuous
 62
     2
100
AcDbLine
 10
-233.7500007990555
 20
10.27511395893947
 30
0.0
 11
-238.7500007990565
 21
10.27511395893947
 31
0.0
  0
LINE
  5
101
330
71
100
AcDbEntity
  8
1
  6
Continuous
 62
     2
100
AcDbLine
 10
-233.7500007990555
 20
5.27511395893936
 30
0.0
 11
-190.2500007990574
 21
5.27511395893936
 31
0.0
  0
LINE
  5
102
330
71
100
AcDbEntity
  8
1
  6
Continuous
 62
     2
100
AcDbLine
 10
-233.7500007990555
 20
10.27511395893947
 30
0.0
 11
-233.7500007990555
 21
5.27511395893936
 31
0.0
  0
LINE
  5
103
330
71
100
AcDbEntity
  8
1
  6
Continuous
 62
     2
100
AcDbLine
 10
9.7499992009426
 20
5.27511395893936
 30
0.0
 11
-40.2500007990574
 21
5.27511395893936
 31
0.0
  0
LINE
  5
104
330
71
100
AcDbEntity
  8
1
  6
Continuous
 62
     2
100
AcDbLine
 10
9.7499992009426
 20
5.27511395893936
 30
0.0
 11
9.7499992009426
 21
10.27511395893947
 31
0.0
  0
LINE
  5
105
330
71
100
AcDbEntity
  8
1
  6
Continuous
 62
     2
100
AcDbLine
 10
-40.2500007990574
 20
5.27511395893936
 30
0.0
 11
-40.2500007990574
 21
10.27511395893947
 31
0.0
  0
LINE
  5
106
330
71
100
AcDbEntity
  8
1
  6
Continuous
 62
     2
100
AcDbLine
 10
-90.25000079905737
 20
5.27511395893936
 30
0.0
 11
-40.2500007990574
 21
5.27511395893936
 31
0.0
  0
LINE
  5
107
330
71
100
AcDbEntity
  8
1
  6
Continuous
 62
     2
100
AcDbLine
 10
-90.25000079905737
 20
5.27511395893936
 30
0.0
 11
-90.25000079905737
 21
10.27511395893947
 31
0.0
  0
LINE
  5
108
330
71
100
AcDbEntity
  8
1
  6
Continuous
 62
     2
100
AcDbLine
 10
-140.2500007990576
 20
5.27511395893936
 30
0.0
 11
-90.25000079905737
 21
5.27511395893936
 31
0.0
  0
LINE
  5
109
330
71
100
AcDbEntity
  8
1
  6
Continuous
 62
     2
100
AcDbLine
 10
-140.2500007990576
 20
5.27511395893936
 30
0.0
 11
-140.2500007990576
 21
10.27511395893947
 31
0.0
  0
LINE
  5
10A
330
71
100
AcDbEntity
  8
1
  6
Continuous
 62
     2
100
AcDbLine
 10
-190.2500007990574
 20
5.27511395893936
 30
0.0
 11
-140.2500007990576
 21
5.27511395893936
 31
0.0
  0
LINE
  5
10B
330
71
100
AcDbEntity
  8
1
  6
Continuous
 62
     2
100
AcDbLine
 10
-190.2500007990574
 20
5.27511395893936
 30
0.0
 11
-190.2500007990574
 21
10.27511395893947
 31
0.0
  0
LINE
  5
10C
330
71
100
AcDbEntity
  8
1
  6
Continuous
 62
     6
100
AcDbLine
 10
-233.7500007990557
 20
60.27511395893959
 30
0.0
 11
-233.7500007990555
 21
10.27511395893947
 31
0.0
  0
LINE
  5
10D
330
71
100
AcDbEntity
  8
1
  6
Continuous
 62
     2
100
AcDbLine
 10
-238.7500007990565
 20
60.27511395893959
 30
0.0
 11
-238.7500007990565
 21
10.27511395893947
 31
0.0
  0
LINE
  5
10E
330
71
100
AcDbEntity
  8
1
  6
Continuous
 62
     2
100
AcDbLine
 10
-238.7500007990565
 20
60.27511395893959
 30
0.0
 11
-233.7500007990557
 21
60.27511395893959
 31
0.0
  0
LINE
  5
10F
330
71
100
AcDbEntity
  8
1
  6
Continuous
 62
     6
100
AcDbLine
 10
-233.7500007990559
 20
110.2751139589394
 30
0.0
 11
-233.7500007990557
 21
60.27511395893959
 31
0.0
  0
LINE
  5
110
330
71
100
AcDbEntity
  8
1
  6
Continuous
 62
     2
100
AcDbLine
 10
-238.7500007990565
 20
110.2751139589394
 30
0.0
 11
-238.7500007990565
 21
60.27511395893959
 31
0.0
  0
LINE
  5
111
330
71
100
AcDbEntity
  8
1
  6
Continuous
 62
     2
100
AcDbLine
 10
-238.7500007990565
 20
110.2751139589394
 30
0.0
 11
-233.7500007990559
 21
110.2751139589394
 31
0.0
  0
LINE
  5
112
330
71
100
AcDbEntity
  8
1
  6
Continuous
 62
     6
100
AcDbLine
 10
-233.7500007990564
 20
160.2751139589395
 30
0.0
 11
-233.7500007990559
 21
110.2751139589394
 31
0.0
  0
LINE
  5
113
330
71
100
AcDbEntity
  8
1
  6
Continuous
 62
     2
100
AcDbLine
 10
-238.7500007990565
 20
160.2751139589395
 30
0.0
 11
-238.7500007990565
 21
110.2751139589394
 31
0.0
  0
LINE
  5
114
330
71
100
AcDbEntity
  8
1
  6
Continuous
 62
     2
100
AcDbLine
 10
-238.7500007990565
 20
160.2751139589395
 30
0.0
 11
-233.7500007990564
 21
160.2751139589395
 31
0.0
  0
LINE
  5
115
330
71
100
AcDbEntity
  8
1
  6
Continuous
 62
     6
100
AcDbLine
 10
-233.7500007990565
 20
195.2751139589395
 30
0.0
 11
-233.7500007990564
 21
160.2751139589395
 31
0.0
  0
LINE
  5
116
330
71
100
AcDbEntity
  8
1
  6
Continuous
 62
     2
100
AcDbLine
 10
-238.7500007990565
 20
215.2751139589395
 30
0.0
 11
-238.7500007990565
 21
160.2751139589395
 31
0.0
  0
LINE
  5
117
330
71
100
AcDbEntity
  8
1
  6
Continuous
 62
     2
100
AcDbLine
 10
-238.7500007990565
 20
5.27511395893936
 30
0.0
 11
-233.7500007990555
 21
5.27511395893936
 31
0.0
  0
LINE
  5
118
330
71
100
AcDbEntity
  8
1
  6
Continuous
 62
     2
100
AcDbLine
 10
-90.25000079905737
 20
215.2751139589395
 30
0.0
 11
-90.25000079905737
 21
206.0664221142382
 31
0.0
  0
LINE
  5
119
330
71
100
AcDbEntity
  8
1
  6
Continuous
 62
     2
100
AcDbLine
 10
-90.25000079905737
 20
215.2751139589395
 30
0.0
 11
-238.7500007990565
 21
215.2751139589395
 31
0.0
  0
LINE
  5
11A
330
71
100
AcDbEntity
  8
1
  6
Continuous
 62
     2
100
AcDbLine
 10
58.2499992009416
 20
10.27511395893947
 30
0.0
 11
58.2499992009416
 21
60.27511395893959
 31
0.0
  0
LINE
  5
11B
330
71
100
AcDbEntity
  8
1
  6
Continuous
 62
     2
100
AcDbLine
 10
58.2499992009416
 20
160.2751139589395
 30
0.0
 11
58.2499992009416
 21
215.2751139589395
 31
0.0
  0
LINE
  5
11C
330
71
100
AcDbEntity
  8
1
  6
Continuous
 62
     6
100
AcDbLine
 10
53.2499992009418
 20
160.2751139589395
 30
0.0
 11
53.2499992009416
 21
195.2751139589395
 31
0.0
  0
LINE
  5
11D
330
71
100
AcDbEntity
  8
1
  6
Continuous
 62
     2
100
AcDbLine
 10
53.2499992009418
 20
160.2751139589395
 30
0.0
 11
58.2499992009416
 21
160.2751139589395
 31
0.0
  0
LINE
  5
11E
330
71
100
AcDbEntity
  8
1
  6
Continuous
 62
     2
100
AcDbLine
 10
58.2499992009416
 20
110.2751139589394
 30
0.0
 11
58.2499992009416
 21
160.2751139589395
 31
0.0
  0
LINE
  5
11F
330
71
100
AcDbEntity
  8
1
  6
Continuous
 62
     6
100
AcDbLine
 10
53.24999920094301
 20
110.2751139589394
 30
0.0
 11
53.2499992009418
 21
160.2751139589395
 31
0.0
  0
LINE
  5
120
330
71
100
AcDbEntity
  8
1
  6
Continuous
 62
     2
100
AcDbLine
 10
53.24999920094301
 20
110.2751139589394
 30
0.0
 11
58.2499992009416
 21
110.2751139589394
 31
0.0
  0
LINE
  5
121
330
71
100
AcDbEntity
  8
1
  6
Continuous
 62
     2
100
AcDbLine
 10
58.2499992009416
 20
60.27511395893959
 30
0.0
 11
58.2499992009416
 21
110.2751139589394
 31
0.0
  0
LINE
  5
122
330
71
100
AcDbEntity
  8
1
  6
Continuous
 62
     6
100
AcDbLine
 10
53.24999920094351
 20
60.27511395893959
 30
0.0
 11
53.24999920094301
 21
110.2751139589394
 31
0.0
  0
LINE
  5
123
330
71
100
AcDbEntity
  8
1
  6
Continuous
 62
     2
100
AcDbLine
 10
53.24999920094351
 20
60.27511395893959
 30
0.0
 11
58.2499992009416
 21
60.27511395893959
 31
0.0
  0
LINE
  5
124
330
71
100
AcDbEntity
  8
1
  6
Continuous
 62
     6
100
AcDbLine
 10
53.2499992009416
 20
195.2751139589395
 30
0.0
 11
-233.7500007990565
 21
195.2751139589395
 31
0.0
  0
LINE
  5
125
330
71
100
AcDbEntity
  8
1
  6
Continuous
 62
     2
100
AcDbLine
 10
58.2499992009416
 20
215.2751139589395
 30
0.0
 11
-90.25000079905737
 21
215.2751139589395
 31
0.0
  0
LINE
  5
126
330
71
100
AcDbEntity
  8
1
  6
Continuous
 62
     6
100
AcDbLine
 10
53.2499992009443
 20
27.27511395893947
 30
0.0
 11
53.24999920094351
 21
60.27511395893959
 31
0.0
  0
LINE
  5
127
330
71
100
AcDbEntity
  8
1
  6
Continuous
 62
     2
100
AcDbLine
 10
53.24999920094261
 20
5.27511395893936
 30
0.0
 11
9.7499992009426
 21
5.27511395893936
 31
0.0
  0
LINE
  5
128
330
71
100
AcDbEntity
  8
1
  6
Continuous
 62
     2
100
AcDbLine
 10
58.2499992009416
 20
5.27511395893936
 30
0.0
 11
53.24999920094261
 21
5.27511395893936
 31
0.0
  0
LINE
  5
129
330
71
100
AcDbEntity
  8
1
  6
Continuous
 62
     2
100
AcDbLine
 10
58.2499992009416
 20
5.27511395893936
 30
0.0
 11
58.2499992009416
 21
10.27511395893947
 31
0.0
  0
LINE
  5
12A
330
71
100
AcDbEntity
  8
1
  6
Continuous
 62
     6
100
AcDbLine
 10
-76.2948053258074
 20
27.27511395893947
 30
0.0
 11
-39.89480532580748
 21
27.27511395893947
 31
0.0
  0
LINE
  5
12B
330
71
100
AcDbEntity
  8
1
  6
Continuous
 62
     2
100
AcDbLine
 10
53.24999920094261
 20
10.27511395893947
 30
0.0
 11
53.24999920094261
 21
5.27511395893936
 31
0.0
  0
LINE
  5
12C
330
71
100
AcDbEntity
  8
1
  6
Continuous
 62
     2
100
AcDbLine
 10
53.24999920094261
 20
10.27511395893947
 30
0.0
 11
58.2499992009416
 21
10.27511395893947
 31
0.0
  0
LINE
  5
12D
330
71
100
AcDbEntity
  8
1
  6
Continuous
 62
     6
100
AcDbLine
 10
-40.2500007990574
 20
10.27511395893947
 30
0.0
 11
-58.09480532580739
 21
10.27511395893947
 31
0.0
  0
LINE
  5
12E
330
71
100
AcDbEntity
  8
1
  6
Continuous
 62
     6
100
AcDbLine
 10
9.7499992009426
 20
10.27511395893947
 30
0.0
 11
53.24999920094261
 21
10.27511395893947
 31
0.0
  0
LINE
  5
12F
330
71
100
AcDbEntity
  8
1
  6
Continuous
 62
     6
100
AcDbLine
 10
-140.2500007990576
 20
10.27511395893947
 30
0.0
 11
-145.2948053258074
 21
10.27511395893947
 31
0.0
  0
LINE
  5
130
330
71
100
AcDbEntity
  8
1
  6
Continuous
 62
     6
100
AcDbLine
 10
-90.25000079905737
 20
10.27511395893947
 30
0.0
 11
-76.2948053258074
 21
10.27511395893936
 31
0.0
  0
LINE
  5
131
102
{ACAD_REACTORS
330
21B
330
21C
102
}
330
71
100
AcDbEntity
  8
0
  6
Continuous
 62
     2
100
AcDbLine
 10
-68.7801793836606
 20
22.34762871515159
 30
0.0
 11
-68.7801793836606
 21
22.95316400365837
 31
0.0
  0
LINE
  5
132
102
{ACAD_REACTORS
330
21B
330
21C
102
}
330
71
100
AcDbEntity
  8
0
  6
Continuous
 62
     2
100
AcDbLine
 10
-68.7801793836606
 20
19.54749410852028
 30
0.0
 11
-68.7801793836606
 21
20.12934551521536
 31
0.0
  0
LINE
  5
133
102
{ACAD_REACTORS
330
21D
330
21E
102
}
330
71
100
AcDbEntity
  8
0
  6
Continuous
 62
     2
100
AcDbLine
 10
-46.15069294818139
 20
19.83715817664327
 30
0.0
 11
-46.15069294818139
 21
17.56861395895578
 31
0.0
  0
LINE
  5
134
102
{ACAD_REACTORS
330
21D
330
21E
102
}
330
71
100
AcDbEntity
  8
0
  6
Continuous
 62
     2
100
AcDbLine
 10
-47.53174672716898
 20
20.62242348276638
 30
0.0
 11
-44.1468012085403
 21
20.62242348276686
 31
0.0
  0
LINE
  5
135
102
{ACAD_REACTORS
330
21D
330
21E
102
}
330
71
100
AcDbEntity
  8
0
  6
Continuous
 62
     2
100
AcDbLine
 10
-44.1468012085403
 20
19.83715817664327
 30
0.0
 11
-44.1468012085403
 21
20.62242348276686
 31
0.0
  0
LINE
  5
136
102
{ACAD_REACTORS
330
21D
330
21E
102
}
330
71
100
AcDbEntity
  8
0
  6
Continuous
 62
     2
100
AcDbLine
 10
-44.95790024601368
 20
19.83715817664327
 30
0.0
 11
-44.1468012085403
 21
19.83715817664327
 31
0.0
  0
LINE
  5
137
102
{ACAD_REACTORS
330
21D
330
21E
102
}
330
71
100
AcDbEntity
  8
0
  6
Continuous
 62
     2
100
AcDbLine
 10
-44.95790024601368
 20
17.56861395895578
 30
0.0
 11
-44.95790024601368
 21
19.83715817664327
 31
0.0
  0
LINE
  5
138
102
{ACAD_REACTORS
330
21D
330
21E
102
}
330
71
100
AcDbEntity
  8
0
  6
Continuous
 62
     2
100
AcDbLine
 10
-46.15069294818139
 20
17.56861395895578
 30
0.0
 11
-44.95790024601368
 21
17.56861395895578
 31
0.0
  0
LINE
  5
139
102
{ACAD_REACTORS
330
213
330
214
102
}
330
71
100
AcDbEntity
  8
0
  6
Continuous
 62
     2
100
AcDbLine
 10
-46.84728388624589
 20
23.98161395894127
 30
0.0
 11
-48.25000810399519
 21
23.98161395894127
 31
0.0
  0
LINE
  5
13A
102
{ACAD_REACTORS
330
213
330
214
102
}
330
71
100
AcDbEntity
  8
0
  6
Continuous
 62
     2
100
AcDbLine
 10
-46.84728388624589
 20
23.98161395894127
 30
0.0
 11
-46.24611636435409
 21
23.30179063738578
 31
0.0
  0
LINE
  5
13B
102
{ACAD_REACTORS
330
213
330
214
102
}
330
71
100
AcDbEntity
  8
0
  6
Continuous
 62
     2
100
AcDbLine
 10
-46.24611636435409
 20
23.30179063738578
 30
0.0
 11
-45.6449488424613
 21
23.98161395894127
 31
0.0
  0
LINE
  5
13C
102
{ACAD_REACTORS
330
213
330
214
102
}
330
71
100
AcDbEntity
  8
0
  6
Continuous
 62
     2
100
AcDbLine
 10
-45.5447542554806
 20
22.50866342890507
 30
0.0
 11
-44.24222462471408
 21
23.98161395894127
 31
0.0
  0
LINE
  5
13D
102
{ACAD_REACTORS
330
213
330
214
102
}
330
71
100
AcDbEntity
  8
0
  6
Continuous
 62
     2
100
AcDbLine
 10
-45.5447542554806
 20
22.50866342890507
 30
0.0
 11
-44.1468012085403
 21
20.92780443513007
 31
0.0
  0
LINE
  5
13E
102
{ACAD_REACTORS
330
213
330
214
102
}
330
71
100
AcDbEntity
  8
0
  6
Continuous
 62
     2
100
AcDbLine
 10
-45.5495254262886
 20
20.92780443513007
 30
0.0
 11
-44.1468012085403
 21
20.92780443513007
 31
0.0
  0
LINE
  5
13F
102
{ACAD_REACTORS
330
213
330
214
102
}
330
71
100
AcDbEntity
  8
0
  6
Continuous
 62
     2
100
AcDbLine
 10
-46.24611636435409
 20
21.71553622042379
 30
0.0
 11
-45.5495254262886
 21
20.92780443513007
 31
0.0
  0
LINE
  5
140
102
{ACAD_REACTORS
330
211
330
212
102
}
330
71
100
AcDbEntity
  8
0
  6
Continuous
 62
     2
100
AcDbLine
 10
-49.70521520063778
 20
23.98161395894127
 30
0.0
 11
-48.46471079038489
 21
23.98161395894127
 31
0.0
  0
LINE
  5
141
102
{ACAD_REACTORS
330
211
330
212
102
}
330
71
100
AcDbEntity
  8
0
  6
Continuous
 62
     2
100
AcDbLine
 10
-48.46471079038489
 20
23.98161395894127
 30
0.0
 11
-48.46471079038489
 21
20.92780443513007
 31
0.0
  0
LINE
  5
142
102
{ACAD_REACTORS
330
211
330
212
102
}
330
71
100
AcDbEntity
  8
0
  6
Continuous
 62
     2
100
AcDbLine
 10
-49.70521520063778
 20
20.92780443513007
 30
0.0
 11
-49.70521520063778
 21
23.98161395894127
 31
0.0
  0
LINE
  5
143
102
{ACAD_REACTORS
330
20F
330
210
102
}
330
71
100
AcDbEntity
  8
0
  6
Continuous
 62
     2
100
AcDbLine
 10
-51.17352528317539
 20
18.79013776848026
 30
0.0
 11
-50.87336004598299
 21
19.55795273446697
 31
0.0
  0
LINE
  5
144
102
{ACAD_REACTORS
330
20F
330
210
102
}
330
71
100
AcDbEntity
  8
0
  6
Continuous
 62
     2
100
AcDbLine
 10
-51.65106088779621
 20
17.56861395895578
 30
0.0
 11
-51.4395808343204
 21
18.10957450317366
 31
0.0
  0
LINE
  5
145
102
{ACAD_REACTORS
330
20F
330
210
102
}
330
71
100
AcDbEntity
  8
0
  6
Continuous
 62
     2
100
AcDbLine
 10
-51.49361225110988
 20
20.62242348276686
 30
0.0
 11
-52.89156529804919
 21
17.56861395895578
 31
0.0
  0
LINE
  5
146
102
{ACAD_REACTORS
330
20F
330
210
102
}
330
71
100
AcDbEntity
  8
0
  6
Continuous
 62
     2
100
AcDbLine
 10
-48.85515479391688
 20
17.56861395895578
 30
0.0
 11
-50.0956592041708
 21
17.56861395895578
 31
0.0
  0
LINE
  5
147
102
{ACAD_REACTORS
330
20F
330
210
102
}
330
71
100
AcDbEntity
  8
0
  6
Continuous
 62
     2
100
AcDbLine
 10
-51.4395808343204
 20
18.10957450317366
 30
0.0
 11
-50.30713925764658
 21
18.10957450317366
 31
0.0
  0
LINE
  5
148
102
{ACAD_REACTORS
330
20D
330
20E
102
}
330
71
100
AcDbEntity
  8
0
  6
Continuous
 62
     2
100
AcDbLine
 10
-55.0490774372314
 20
19.83715817664327
 30
0.0
 11
-54.2379783997568
 21
19.83715817664327
 31
0.0
  0
LINE
  5
149
102
{ACAD_REACTORS
330
20D
330
20E
102
}
330
71
100
AcDbEntity
  8
0
  6
Continuous
 62
     2
100
AcDbLine
 10
-52.23408666011778
 20
20.62242348276686
 30
0.0
 11
-55.0490774372314
 21
20.62242348276686
 31
0.0
  0
LINE
  5
14A
102
{ACAD_REACTORS
330
20D
330
20E
102
}
330
71
100
AcDbEntity
  8
0
  6
Continuous
 62
     2
100
AcDbLine
 10
-52.23408666011778
 20
19.83715817664327
 30
0.0
 11
-52.23408666011778
 21
20.62242348276686
 31
0.0
  0
LINE
  5
14B
102
{ACAD_REACTORS
330
20D
330
20E
102
}
330
71
100
AcDbEntity
  8
0
  6
Continuous
 62
     2
100
AcDbLine
 10
-53.04518569759028
 20
19.83715817664327
 30
0.0
 11
-52.23408666011778
 21
19.83715817664327
 31
0.0
  0
LINE
  5
14C
102
{ACAD_REACTORS
330
20D
330
20E
102
}
330
71
100
AcDbEntity
  8
0
  6
Continuous
 62
     2
100
AcDbLine
 10
-53.04518569759028
 20
17.56861395895578
 30
0.0
 11
-53.04518569759028
 21
19.83715817664327
 31
0.0
  0
LINE
  5
14D
102
{ACAD_REACTORS
330
20B
330
20C
102
}
330
71
100
AcDbEntity
  8
0
  6
Continuous
 62
     2
100
AcDbLine
 10
-52.37707085349229
 20
20.92780443513007
 30
0.0
 11
-52.37707085349229
 21
22.23657994533477
 31
0.0
  0
LINE
  5
14E
102
{ACAD_REACTORS
330
20B
330
20C
102
}
330
71
100
AcDbEntity
  8
0
  6
Continuous
 62
     2
100
AcDbLine
 10
-53.5698635556588
 20
23.98161395894127
 30
0.0
 11
-53.5698635556588
 21
20.92780443513007
 31
0.0
  0
LINE
  5
14F
102
{ACAD_REACTORS
330
20B
330
20C
102
}
330
71
100
AcDbEntity
  8
0
  6
Continuous
 62
     2
100
AcDbLine
 10
-52.37707085349229
 20
23.98161395894127
 30
0.0
 11
-53.5698635556588
 21
23.98161395894127
 31
0.0
  0
LINE
  5
150
102
{ACAD_REACTORS
330
20B
330
20C
102
}
330
71
100
AcDbEntity
  8
0
  6
Continuous
 62
     2
100
AcDbLine
 10
-51.13656644323828
 20
23.98161395894127
 30
0.0
 11
-51.13656644323828
 21
22.67283844873609
 31
0.0
  0
LINE
  5
151
102
{ACAD_REACTORS
330
209
330
20A
102
}
330
71
100
AcDbEntity
  8
0
  6
Continuous
 62
     2
100
AcDbLine
 10
-58.81830237607849
 20
20.62242348276686
 30
0.0
 11
-58.81830237607849
 21
17.56861395895578
 31
0.0
  0
LINE
  5
152
102
{ACAD_REACTORS
330
209
330
20A
102
}
330
71
100
AcDbEntity
  8
0
  6
Continuous
 62
     2
100
AcDbLine
 10
-57.6255096739109
 20
20.62242348276686
 30
0.0
 11
-58.81830237607849
 21
20.62242348276686
 31
0.0
  0
LINE
  5
153
102
{ACAD_REACTORS
330
209
330
20A
102
}
330
71
100
AcDbEntity
  8
0
  6
Continuous
 62
     2
100
AcDbLine
 10
-56.385005263658
 20
17.56861395895578
 30
0.0
 11
-55.1922125614916
 21
17.56861395895578
 31
0.0
  0
LINE
  5
154
102
{ACAD_REACTORS
330
209
330
20A
102
}
330
71
100
AcDbEntity
  8
0
  6
Continuous
 62
     2
100
AcDbLine
 10
-58.81830237607849
 20
17.56861395895578
 30
0.0
 11
-57.6255096739109
 21
17.56861395895578
 31
0.0
  0
LINE
  5
155
102
{ACAD_REACTORS
330
219
330
21A
102
}
330
71
100
AcDbEntity
  8
0
  6
Continuous
 62
     2
100
AcDbLine
 10
-55.14434992251938
 20
22.80371599975658
 30
0.0
 11
-55.14434992251938
 21
23.28360035349829
 31
0.0
  0
LINE
  5
156
102
{ACAD_REACTORS
330
219
330
21A
102
}
330
71
100
AcDbEntity
  8
0
  6
Continuous
 62
     2
100
AcDbLine
 10
-53.8084220960917
 20
22.80371599975658
 30
0.0
 11
-55.14434992251938
 21
22.80371599975658
 31
0.0
  0
LINE
  5
157
102
{ACAD_REACTORS
330
219
330
21A
102
}
330
71
100
AcDbEntity
  8
0
  6
Continuous
 62
     2
100
AcDbLine
 10
-53.8084220960917
 20
22.10570239431428
 30
0.0
 11
-53.8084220960917
 21
22.80371599975658
 31
0.0
  0
LINE
  5
158
102
{ACAD_REACTORS
330
219
330
21A
102
}
330
71
100
AcDbEntity
  8
0
  6
Continuous
 62
     2
100
AcDbLine
 10
-55.14434992251938
 20
22.10570239431428
 30
0.0
 11
-53.8084220960917
 21
22.10570239431428
 31
0.0
  0
LINE
  5
159
102
{ACAD_REACTORS
330
207
330
208
102
}
330
71
100
AcDbEntity
  8
0
  6
Continuous
 62
     2
100
AcDbLine
 10
-58.6273046128463
 20
23.98161395894127
 30
0.0
 11
-58.6273046128463
 21
20.92780443513007
 31
0.0
  0
LINE
  5
15A
102
{ACAD_REACTORS
330
207
330
208
102
}
330
71
100
AcDbEntity
  8
0
  6
Continuous
 62
     2
100
AcDbLine
 10
-58.6273046128463
 20
20.92780443513007
 30
0.0
 11
-59.8200973150127
 21
20.92780443513007
 31
0.0
  0
LINE
  5
15B
102
{ACAD_REACTORS
330
207
330
208
102
}
330
71
100
AcDbEntity
  8
0
  6
Continuous
 62
     2
100
AcDbLine
 10
-59.8200973150127
 20
20.92780443513007
 30
0.0
 11
-59.8200973150127
 21
22.06207654397389
 31
0.0
  0
LINE
  5
15C
102
{ACAD_REACTORS
330
207
330
208
102
}
330
71
100
AcDbEntity
  8
0
  6
Continuous
 62
     2
100
AcDbLine
 10
-60.86975489292018
 20
20.92780443513007
 30
0.0
 11
-62.06254759508678
 21
20.92780443513007
 31
0.0
  0
LINE
  5
15D
102
{ACAD_REACTORS
330
207
330
208
102
}
330
71
100
AcDbEntity
  8
0
  6
Continuous
 62
     2
100
AcDbLine
 10
-62.06254759508678
 20
23.98161395894127
 30
0.0
 11
-60.86975489292018
 21
23.98161395894127
 31
0.0
  0
LINE
  5
15E
102
{ACAD_REACTORS
330
207
330
208
102
}
330
71
100
AcDbEntity
  8
0
  6
Continuous
 62
     2
100
AcDbLine
 10
-60.86975489292018
 20
23.98161395894127
 30
0.0
 11
-60.86975489292018
 21
22.91278062560667
 31
0.0
  0
LINE
  5
15F
102
{ACAD_REACTORS
330
207
330
208
102
}
330
71
100
AcDbEntity
  8
0
  6
Continuous
 62
     2
100
AcDbLine
 10
-60.86975489292018
 20
22.91278062560667
 30
0.0
 11
-59.8200973150127
 21
22.91278062560667
 31
0.0
  0
LINE
  5
160
102
{ACAD_REACTORS
330
215
330
216
102
}
330
71
100
AcDbEntity
  8
0
  6
Continuous
 62
     2
100
AcDbLine
 10
-64.01872762664038
 20
23.31850811350117
 30
0.0
 11
-63.70143256509849
 21
23.31850811350117
 31
0.0
  0
LINE
  5
161
102
{ACAD_REACTORS
330
215
330
216
102
}
330
71
100
AcDbEntity
  8
0
  6
Continuous
 62
     2
100
AcDbLine
 10
-64.01872762664038
 20
22.61278046415896
 30
0.0
 11
-63.70143256509849
 21
22.61278046415896
 31
0.0
  0
LINE
  5
162
102
{ACAD_REACTORS
330
215
330
216
102
}
330
71
100
AcDbEntity
  8
0
  6
Continuous
 62
     2
100
AcDbLine
 10
-65.2592320368945
 20
23.98161395894127
 30
0.0
 11
-65.2592320368945
 21
20.92780443513007
 31
0.0
  0
LINE
  5
163
102
{ACAD_REACTORS
330
215
330
216
102
}
330
71
100
AcDbEntity
  8
0
  6
Continuous
 62
     2
100
AcDbLine
 10
-65.2592320368945
 20
23.98161395894127
 30
0.0
 11
-63.2599600388601
 21
23.98161395894127
 31
0.0
  0
LINE
  5
164
102
{ACAD_REACTORS
330
215
330
216
102
}
330
71
100
AcDbEntity
  8
0
  6
Continuous
 62
     2
100
AcDbLine
 10
-64.01872762664038
 20
21.87088267627388
 30
0.0
 11
-63.2599600388601
 21
21.87088267627388
 31
0.0
  0
LINE
  5
165
102
{ACAD_REACTORS
330
21B
330
21C
102
}
330
71
100
AcDbEntity
  8
0
  6
Continuous
 62
     2
100
AcDbLine
 10
-71.35572807019119
 20
22.95334148030648
 30
0.0
 11
-71.35572807019119
 21
18.59688643758938
 31
0.0
  0
LINE
  5
166
102
{ACAD_REACTORS
330
21B
330
21C
102
}
330
71
100
AcDbEntity
  8
0
  6
Continuous
 62
     2
100
AcDbLine
 10
-71.04001114711551
 20
23.26905840338267
 30
0.0
 11
-69.56417788610588
 21
23.26905840338267
 31
0.0
  0
LINE
  5
167
102
{ACAD_REACTORS
330
21B
330
21C
102
}
330
71
100
AcDbEntity
  8
0
  6
Continuous
 62
     2
100
AcDbLine
 10
-69.24846096302929
 20
22.34931686124597
 30
0.0
 11
-69.24846096302929
 21
22.95334148030648
 31
0.0
  0
LINE
  5
168
102
{ACAD_REACTORS
330
21B
330
21C
102
}
330
71
100
AcDbEntity
  8
0
  6
Continuous
 62
     2
100
AcDbLine
 10
-69.24846096302929
 20
18.59688643758938
 30
0.0
 11
-69.24846096302929
 21
20.12765736912098
 31
0.0
  0
LINE
  5
169
102
{ACAD_REACTORS
330
21B
330
21C
102
}
330
71
100
AcDbEntity
  8
0
  6
Continuous
 62
     2
100
AcDbLine
 10
-66.16059373314519
 20
17.56861395895578
 30
0.0
 11
-71.633905823862
 21
17.56861395895578
 31
0.0
  0
LINE
  5
16A
102
{ACAD_REACTORS
330
21B
330
21C
102
}
330
71
100
AcDbEntity
  8
0
  6
Continuous
 62
     2
100
AcDbLine
 10
-65.7363491177613
 20
23.55736934353928
 30
0.0
 11
-65.7363491177613
 21
17.99285857433907
 31
0.0
  0
LINE
  5
16B
102
{ACAD_REACTORS
330
21B
330
21C
102
}
330
71
100
AcDbEntity
  8
0
  6
Continuous
 62
     2
100
AcDbLine
 10
-71.633905823862
 20
23.98161395892308
 30
0.0
 11
-66.16059373314519
 21
23.98161395892308
 31
0.0
  0
LINE
  5
16C
102
{ACAD_REACTORS
330
21B
330
21C
102
}
330
71
100
AcDbEntity
  8
0
  6
Continuous
 62
     2
100
AcDbLine
 10
-72.0581504392448
 20
23.55736934353928
 30
0.0
 11
-72.0581504392448
 21
17.99285857433907
 31
0.0
  0
LINE
  5
16D
102
{ACAD_REACTORS
330
21B
330
21C
102
}
330
71
100
AcDbEntity
  8
0
  6
Continuous
 62
     2
100
AcDbLine
 10
-69.56417788610588
 20
18.28116951451267
 30
0.0
 11
-71.04001114711551
 21
18.28116951451267
 31
0.0
  0
LINE
  5
16E
102
{ACAD_REACTORS
330
215
330
216
102
}
330
71
100
AcDbEntity
  8
0
  6
Continuous
 62
     2
100
AcDbLine
 10
-64.01872762664038
 20
20.92780443513007
 30
0.0
 11
-64.01872762664038
 21
21.87088267627388
 31
0.0
  0
LINE
  5
16F
102
{ACAD_REACTORS
330
215
330
216
102
}
330
71
100
AcDbEntity
  8
0
  6
Continuous
 62
     2
100
AcDbLine
 10
-65.2592320368945
 20
20.92780443513007
 30
0.0
 11
-64.01872762664038
 21
20.92780443513007
 31
0.0
  0
LINE
  5
170
102
{ACAD_REACTORS
330
215
330
216
102
}
330
71
100
AcDbEntity
  8
0
  6
Continuous
 62
     2
100
AcDbLine
 10
-64.01872762664038
 20
22.61278046415896
 30
0.0
 11
-64.01872762664038
 21
23.31850811350117
 31
0.0
  0
LINE
  5
171
102
{ACAD_REACTORS
330
207
330
208
102
}
330
71
100
AcDbEntity
  8
0
  6
Continuous
 62
     2
100
AcDbLine
 10
-62.06254759508678
 20
23.98161395894127
 30
0.0
 11
-62.06254759508678
 21
20.92780443513007
 31
0.0
  0
LINE
  5
172
102
{ACAD_REACTORS
330
207
330
208
102
}
330
71
100
AcDbEntity
  8
0
  6
Continuous
 62
     2
100
AcDbLine
 10
-60.86975489292018
 20
22.06207654397389
 30
0.0
 11
-60.86975489292018
 21
20.92780443513007
 31
0.0
  0
LINE
  5
173
102
{ACAD_REACTORS
330
207
330
208
102
}
330
71
100
AcDbEntity
  8
0
  6
Continuous
 62
     2
100
AcDbLine
 10
-59.8200973150127
 20
22.06207654397389
 30
0.0
 11
-60.86975489292018
 21
22.06207654397389
 31
0.0
  0
LINE
  5
174
102
{ACAD_REACTORS
330
207
330
208
102
}
330
71
100
AcDbEntity
  8
0
  6
Continuous
 62
     2
100
AcDbLine
 10
-59.8200973150127
 20
23.98161395894127
 30
0.0
 11
-58.6273046128463
 21
23.98161395894127
 31
0.0
  0
LINE
  5
175
102
{ACAD_REACTORS
330
207
330
208
102
}
330
71
100
AcDbEntity
  8
0
  6
Continuous
 62
     2
100
AcDbLine
 10
-59.8200973150127
 20
22.91278062560667
 30
0.0
 11
-59.8200973150127
 21
23.98161395894127
 31
0.0
  0
LINE
  5
176
102
{ACAD_REACTORS
330
219
330
21A
102
}
330
71
100
AcDbEntity
  8
0
  6
Continuous
 62
     2
100
AcDbLine
 10
-53.8084220960917
 20
23.28360035349829
 30
0.0
 11
-53.8084220960917
 21
23.98161395894127
 31
0.0
  0
LINE
  5
177
102
{ACAD_REACTORS
330
219
330
21A
102
}
330
71
100
AcDbEntity
  8
0
  6
Continuous
 62
     2
100
AcDbLine
 10
-56.9587418198727
 20
23.98161395894127
 30
0.0
 11
-53.8084220960917
 21
23.98161395894127
 31
0.0
  0
LINE
  5
178
102
{ACAD_REACTORS
330
219
330
21A
102
}
330
71
100
AcDbEntity
  8
0
  6
Continuous
 62
     2
100
AcDbLine
 10
-56.9587418198727
 20
20.92780443513007
 30
0.0
 11
-53.8084220960917
 21
20.92780443513007
 31
0.0
  0
LINE
  5
179
102
{ACAD_REACTORS
330
219
330
21A
102
}
330
71
100
AcDbEntity
  8
0
  6
Continuous
 62
     2
100
AcDbLine
 10
-53.8084220960917
 20
20.92780443513007
 30
0.0
 11
-53.8084220960917
 21
21.62581804057257
 31
0.0
  0
LINE
  5
17A
102
{ACAD_REACTORS
330
219
330
21A
102
}
330
71
100
AcDbEntity
  8
0
  6
Continuous
 62
     2
100
AcDbLine
 10
-53.8084220960917
 20
21.62581804057257
 30
0.0
 11
-55.14434992251938
 21
21.62581804057257
 31
0.0
  0
LINE
  5
17B
102
{ACAD_REACTORS
330
219
330
21A
102
}
330
71
100
AcDbEntity
  8
0
  6
Continuous
 62
     2
100
AcDbLine
 10
-55.14434992251938
 20
21.62581804057257
 30
0.0
 11
-55.14434992251938
 21
22.10570239431428
 31
0.0
  0
LINE
  5
17C
102
{ACAD_REACTORS
330
219
330
21A
102
}
330
71
100
AcDbEntity
  8
0
  6
Continuous
 62
     2
100
AcDbLine
 10
-55.14434992251938
 20
23.28360035349829
 30
0.0
 11
-53.8084220960917
 21
23.28360035349829
 31
0.0
  0
LINE
  5
17D
102
{ACAD_REACTORS
330
209
330
20A
102
}
330
71
100
AcDbEntity
  8
0
  6
Continuous
 62
     2
100
AcDbLine
 10
-57.6255096739109
 20
17.56861395895578
 30
0.0
 11
-57.6255096739109
 21
18.87738946916036
 31
0.0
  0
LINE
  5
17E
102
{ACAD_REACTORS
330
209
330
20A
102
}
330
71
100
AcDbEntity
  8
0
  6
Continuous
 62
     2
100
AcDbLine
 10
-57.6255096739109
 20
18.87738946916036
 30
0.0
 11
-56.385005263658
 21
17.56861395895578
 31
0.0
  0
LINE
  5
17F
102
{ACAD_REACTORS
330
209
330
20A
102
}
330
71
100
AcDbEntity
  8
0
  6
Continuous
 62
     2
100
AcDbLine
 10
-55.1922125614916
 20
17.56861395895578
 30
0.0
 11
-55.1922125614916
 21
20.62242348276686
 31
0.0
  0
LINE
  5
180
102
{ACAD_REACTORS
330
209
330
20A
102
}
330
71
100
AcDbEntity
  8
0
  6
Continuous
 62
     2
100
AcDbLine
 10
-55.1922125614916
 20
20.62242348276686
 30
0.0
 11
-56.385005263658
 21
20.62242348276686
 31
0.0
  0
LINE
  5
181
102
{ACAD_REACTORS
330
209
330
20A
102
}
330
71
100
AcDbEntity
  8
0
  6
Continuous
 62
     2
100
AcDbLine
 10
-56.385005263658
 20
20.62242348276686
 30
0.0
 11
-56.385005263658
 21
19.31364797256177
 31
0.0
  0
LINE
  5
182
102
{ACAD_REACTORS
330
209
330
20A
102
}
330
71
100
AcDbEntity
  8
0
  6
Continuous
 62
     2
100
AcDbLine
 10
-56.385005263658
 20
19.31364797256177
 30
0.0
 11
-57.6255096739109
 21
20.62242348276686
 31
0.0
  0
LINE
  5
183
102
{ACAD_REACTORS
330
20B
330
20C
102
}
330
71
100
AcDbEntity
  8
0
  6
Continuous
 62
     2
100
AcDbLine
 10
-52.37707085349229
 20
22.23657994533477
 30
0.0
 11
-51.13656644323828
 21
20.92780443513007
 31
0.0
  0
LINE
  5
184
102
{ACAD_REACTORS
330
20B
330
20C
102
}
330
71
100
AcDbEntity
  8
0
  6
Continuous
 62
     2
100
AcDbLine
 10
-51.13656644323828
 20
20.92780443513007
 30
0.0
 11
-49.94377374107168
 21
20.92780443513007
 31
0.0
  0
LINE
  5
185
102
{ACAD_REACTORS
330
20B
330
20C
102
}
330
71
100
AcDbEntity
  8
0
  6
Continuous
 62
     2
100
AcDbLine
 10
-49.94377374107168
 20
20.92780443513007
 30
0.0
 11
-49.94377374107168
 21
23.98161395894127
 31
0.0
  0
LINE
  5
186
102
{ACAD_REACTORS
330
20B
330
20C
102
}
330
71
100
AcDbEntity
  8
0
  6
Continuous
 62
     2
100
AcDbLine
 10
-49.94377374107168
 20
23.98161395894127
 30
0.0
 11
-51.13656644323828
 21
23.98161395894127
 31
0.0
  0
LINE
  5
187
102
{ACAD_REACTORS
330
20B
330
20C
102
}
330
71
100
AcDbEntity
  8
0
  6
Continuous
 62
     2
100
AcDbLine
 10
-51.13656644323828
 20
22.67283844873609
 30
0.0
 11
-52.37707085349229
 21
23.98161395894127
 31
0.0
  0
LINE
  5
188
102
{ACAD_REACTORS
330
20B
330
20C
102
}
330
71
100
AcDbEntity
  8
0
  6
Continuous
 62
     2
100
AcDbLine
 10
-53.5698635556588
 20
20.92780443513007
 30
0.0
 11
-52.37707085349229
 21
20.92780443513007
 31
0.0
  0
LINE
  5
189
102
{ACAD_REACTORS
330
20D
330
20E
102
}
330
71
100
AcDbEntity
  8
0
  6
Continuous
 62
     2
100
AcDbLine
 10
-55.0490774372314
 20
20.62242348276686
 30
0.0
 11
-55.0490774372314
 21
19.83715817664327
 31
0.0
  0
LINE
  5
18A
102
{ACAD_REACTORS
330
20D
330
20E
102
}
330
71
100
AcDbEntity
  8
0
  6
Continuous
 62
     2
100
AcDbLine
 10
-54.2379783997568
 20
19.83715817664327
 30
0.0
 11
-54.2379783997568
 21
17.56861395895578
 31
0.0
  0
LINE
  5
18B
102
{ACAD_REACTORS
330
20D
330
20E
102
}
330
71
100
AcDbEntity
  8
0
  6
Continuous
 62
     2
100
AcDbLine
 10
-54.2379783997568
 20
17.56861395895578
 30
0.0
 11
-53.04518569759028
 21
17.56861395895578
 31
0.0
  0
LINE
  5
18C
102
{ACAD_REACTORS
330
20F
330
210
102
}
330
71
100
AcDbEntity
  8
0
  6
Continuous
 62
     2
100
AcDbLine
 10
-50.0956592041708
 20
17.56861395895578
 30
0.0
 11
-50.30713925764658
 21
18.10957450317366
 31
0.0
  0
LINE
  5
18D
102
{ACAD_REACTORS
330
20F
330
210
102
}
330
71
100
AcDbEntity
  8
0
  6
Continuous
 62
     2
100
AcDbLine
 10
-50.25310784085718
 20
20.62242348276686
 30
0.0
 11
-48.85515479391688
 21
17.56861395895578
 31
0.0
  0
LINE
  5
18E
102
{ACAD_REACTORS
330
20F
330
210
102
}
330
71
100
AcDbEntity
  8
0
  6
Continuous
 62
     2
100
AcDbLine
 10
-51.49361225110988
 20
20.62242348276686
 30
0.0
 11
-50.25310784085718
 21
20.62242348276686
 31
0.0
  0
LINE
  5
18F
102
{ACAD_REACTORS
330
20F
330
210
102
}
330
71
100
AcDbEntity
  8
0
  6
Continuous
 62
     2
100
AcDbLine
 10
-52.89156529804919
 20
17.56861395895578
 30
0.0
 11
-51.65106088779621
 21
17.56861395895578
 31
0.0
  0
LINE
  5
190
102
{ACAD_REACTORS
330
20F
330
210
102
}
330
71
100
AcDbEntity
  8
0
  6
Continuous
 62
     2
100
AcDbLine
 10
-51.17352528317539
 20
18.79013776848026
 30
0.0
 11
-50.57319480879289
 21
18.79013776848026
 31
0.0
  0
LINE
  5
191
102
{ACAD_REACTORS
330
20F
330
210
102
}
330
71
100
AcDbEntity
  8
0
  6
Continuous
 62
     2
100
AcDbLine
 10
-50.57319480879289
 20
18.79013776848026
 30
0.0
 11
-50.87336004598299
 21
19.55795273446697
 31
0.0
  0
LINE
  5
192
102
{ACAD_REACTORS
330
211
330
212
102
}
330
71
100
AcDbEntity
  8
0
  6
Continuous
 62
     2
100
AcDbLine
 10
-48.46471079038489
 20
20.92780443513007
 30
0.0
 11
-49.70521520063778
 21
20.92780443513007
 31
0.0
  0
LINE
  5
193
102
{ACAD_REACTORS
330
213
330
214
102
}
330
71
100
AcDbEntity
  8
0
  6
Continuous
 62
     2
100
AcDbLine
 10
-46.94270730241979
 20
20.92780443513007
 30
0.0
 11
-48.34543152016801
 21
20.92780443513007
 31
0.0
  0
LINE
  5
194
102
{ACAD_REACTORS
330
213
330
214
102
}
330
71
100
AcDbEntity
  8
0
  6
Continuous
 62
     2
100
AcDbLine
 10
-46.94270730241979
 20
20.92780443513007
 30
0.0
 11
-46.24611636435409
 21
21.71553622042379
 31
0.0
  0
LINE
  5
195
102
{ACAD_REACTORS
330
213
330
214
102
}
330
71
100
AcDbEntity
  8
0
  6
Continuous
 62
     2
100
AcDbLine
 10
-45.6449488424613
 20
23.98161395894127
 30
0.0
 11
-44.24222462471408
 21
23.98161395894127
 31
0.0
  0
LINE
  5
196
102
{ACAD_REACTORS
330
213
330
214
102
}
330
71
100
AcDbEntity
  8
0
  6
Continuous
 62
     2
100
AcDbLine
 10
-48.25000810399519
 20
23.98161395894127
 30
0.0
 11
-46.9474784732277
 21
22.50866342890507
 31
0.0
  0
LINE
  5
197
102
{ACAD_REACTORS
330
213
330
214
102
}
330
71
100
AcDbEntity
  8
0
  6
Continuous
 62
     2
100
AcDbLine
 10
-48.34543152016801
 20
20.92780443513007
 30
0.0
 11
-46.9474784732277
 21
22.50866342890507
 31
0.0
  0
LINE
  5
198
102
{ACAD_REACTORS
330
21D
330
21E
102
}
330
71
100
AcDbEntity
  8
0
  6
Continuous
 62
     2
100
AcDbLine
 10
-46.48467490478808
 20
18.61563436711938
 30
0.0
 11
-46.48467490478808
 21
17.74311736031606
 31
0.0
  0
LINE
  5
199
102
{ACAD_REACTORS
330
21D
330
21E
102
}
330
71
100
AcDbEntity
  8
0
  6
Continuous
 62
     2
100
AcDbLine
 10
-47.25433224774949
 20
19.83715817664327
 30
0.0
 11
-46.15069294818139
 21
19.83715817664327
 31
0.0
  0
LINE
  5
19A
102
{ACAD_REACTORS
330
21F
330
220
102
}
330
71
100
AcDbEntity
  8
0
  6
Continuous
 62
     2
100
AcDbLine
 10
-62.58737638404
 20
18.61563436711987
 30
0.0
 11
-62.58737638404
 21
17.74311736031666
 31
0.0
  0
LINE
  5
19B
102
{ACAD_REACTORS
330
21F
330
220
102
}
330
71
100
AcDbEntity
  8
0
  6
Continuous
 62
     2
100
AcDbLine
 10
-62.58737638404
 20
19.57540307460278
 30
0.0
 11
-62.58737638404
 21
20.44792008140607
 31
0.0
  0
LINE
  5
19C
330
71
100
AcDbEntity
  8
1
  6
Continuous
 62
     7
100
AcDbLine
 10
53.2499992009439
 20
18.77511395893947
 30
0.0
 11
-39.89480532580748
 21
18.77511395893947
 31
0.0
  0
LINE
  5
19D
330
71
100
AcDbEntity
  8
1
  6
Continuous
 62
     6
100
AcDbLine
 10
-145.2948053258074
 20
10.27511395893947
 30
0.0
 11
-190.2500007990574
 21
10.27511395893947
 31
0.0
  0
LINE
  5
19E
330
71
100
AcDbEntity
  8
1
  6
Continuous
 62
     7
100
AcDbLine
 10
44.3315909192651
 20
35.77511395893947
 30
0.0
 11
44.3315909192651
 21
27.27511395893947
 31
0.0
  0
LINE
  5
19F
330
71
100
AcDbEntity
  8
1
  6
Continuous
 62
     7
100
AcDbLine
 10
17.83159091926549
 20
35.77511395893947
 30
0.0
 11
17.83159091926549
 21
27.27511395893947
 31
0.0
  0
LINE
  5
1A0
330
71
100
AcDbEntity
  8
1
  6
Continuous
 62
     7
100
AcDbLine
 10
-39.89480532580748
 20
27.27511395893947
 30
0.0
 11
-39.89480532580748
 21
35.77511395893947
 31
0.0
  0
LINE
  5
1A1
330
71
100
AcDbEntity
  8
1
  6
Continuous
 62
     7
100
AcDbLine
 10
-76.2948053258074
 20
27.27511395893947
 30
0.0
 11
-76.2948053258074
 21
35.77511395893947
 31
0.0
  0
LINE
  5
1A2
330
71
100
AcDbEntity
  8
1
  6
Continuous
 62
     6
100
AcDbLine
 10
-39.89480532580748
 20
27.27511395893947
 30
0.0
 11
53.2499992009443
 21
27.27511395893947
 31
0.0
  0
LINE
  5
1A3
330
71
100
AcDbEntity
  8
1
  6
Continuous
 62
     7
100
AcDbLine
 10
-11.99480532580739
 20
18.77511395893939
 30
0.0
 11
-11.99480532580739
 21
27.27511395893947
 31
0.0
  0
LINE
  5
1A4
330
71
100
AcDbEntity
  8
1
  6
PHANTOM
 62
     2
100
AcDbLine
 10
-60.8081504392448
 20
31.40011395893939
 30
0.0
 11
-66.3081504392448
 21
31.40011395893939
 31
0.0
  0
LINE
  5
1A5
330
71
100
AcDbEntity
  8
1
  6
PHANTOM
 62
     2
100
AcDbLine
 10
-63.5581504392448
 20
34.15011395893939
 30
0.0
 11
-63.5581504392448
 21
28.65011395893939
 31
0.0
  0
LINE
  5
1A6
330
71
100
AcDbEntity
  8
1
  6
DOT_CENTER
 62
     2
100
AcDbLine
 10
-72.3081504392448
 20
31.40011395893939
 30
0.0
 11
-66.8081504392448
 21
31.40011395893939
 31
0.0
  0
ARC
  5
1A7
102
{ACAD_REACTORS
330
21F
330
220
102
}
330
71
100
AcDbEntity
  8
0
  6
Continuous
 62
     2
100
AcDbCircle
 10
-63.9233043011578
 20
15.78283777560517
 30
0.0
 40
4.852596863498075
100
AcDbArc
 50
74.02000874164742
 51
84.84185523037506
  0
ARC
  5
1A8
102
{ACAD_REACTORS
330
21F
330
220
102
}
330
71
100
AcDbEntity
  8
0
  6
Continuous
 62
     2
100
AcDbCircle
 10
-63.34726369240408
 20
18.93859813148947
 30
0.0
 40
0.9059297849853184
100
AcDbArc
 50
71.55192388185434
 51
113.3722778881295
  0
ARC
  5
1A9
102
{ACAD_REACTORS
330
21F
330
220
102
}
330
71
100
AcDbEntity
  8
0
  6
Continuous
 62
     2
100
AcDbCircle
 10
-63.50370372510611
 20
18.89044729152258
 30
0.0
 40
0.5115800601948096
100
AcDbArc
 50
208.5214732576952
 51
246.6277221118275
  0
ARC
  5
1AA
102
{ACAD_REACTORS
330
21F
330
220
102
}
330
71
100
AcDbEntity
  8
0
  6
Continuous
 62
     2
100
AcDbCircle
 10
-63.34726369240408
 20
19.25243931023258
 30
0.0
 40
0.9059297849849285
100
AcDbArc
 50
246.6277221118708
 51
288.4480761181575
  0
ARC
  5
1AB
102
{ACAD_REACTORS
330
21F
330
220
102
}
330
71
100
AcDbEntity
  8
0
  6
Continuous
 62
     2
100
AcDbCircle
 10
-63.76543142606488
 20
20.50598508626976
 30
0.0
 40
2.227384008972734
100
AcDbArc
 50
288.4480761181326
 51
301.9309089499593
  0
ARC
  5
1AC
102
{ACAD_REACTORS
330
21B
330
21C
102
}
330
71
100
AcDbEntity
  8
0
  6
Continuous
 62
     2
100
AcDbCircle
 10
-68.99050515867168
 20
21.23848711518377
 30
0.0
 40
0.9118481501444557
100
AcDbArc
 50
295.3740086781766
 51
64.62599132180766
  0
ARC
  5
1AD
102
{ACAD_REACTORS
330
21B
330
21C
102
}
330
71
100
AcDbEntity
  8
0
  6
Continuous
 62
     2
100
AcDbCircle
 10
-68.4644624605838
 20
22.95316400365837
 30
0.0
 40
0.3157169230760746
100
AcDbArc
 50
90.18896704254594
 51
180.0
  0
ARC
  5
1AE
102
{ACAD_REACTORS
330
21D
330
21E
102
}
330
71
100
AcDbEntity
  8
0
  6
Continuous
 62
     2
100
AcDbCircle
 10
-47.25433224774949
 20
18.88263516981718
 30
0.0
 40
0.9545230068260899
100
AcDbArc
 50
90.0
 51
109.3371432194321
  0
ARC
  5
1AF
102
{ACAD_REACTORS
330
21D
330
21E
102
}
330
71
100
AcDbEntity
  8
0
  6
Continuous
 62
     2
100
AcDbCircle
 10
-47.0236449877718
 20
19.09551872086107
 30
0.0
 40
0.9410597353348907
100
AcDbArc
 50
151.4785267423626
 51
208.5214732576695
  0
ARC
  5
1B0
102
{ACAD_REACTORS
330
21D
330
21E
102
}
330
71
100
AcDbEntity
  8
0
  6
Continuous
 62
     2
100
AcDbCircle
 10
-47.24456221315009
 20
19.25243931023258
 30
0.0
 40
0.9059297849852894
100
AcDbArc
 50
246.627722111818
 51
288.4480761180815
  0
ARC
  5
1B1
102
{ACAD_REACTORS
330
21D
330
21E
102
}
330
71
100
AcDbEntity
  8
0
  6
Continuous
 62
     2
100
AcDbCircle
 10
-47.66272994681199
 20
20.50598508626916
 30
0.0
 40
2.227384008972746
100
AcDbArc
 50
288.4480761181335
 51
301.9309089499397
  0
ARC
  5
1B2
102
{ACAD_REACTORS
330
21D
330
21E
102
}
330
71
100
AcDbEntity
  8
0
  6
Continuous
 62
     2
100
AcDbCircle
 10
-47.8206028219048
 20
22.40819966611747
 30
0.0
 40
4.852596863498825
100
AcDbArc
 50
275.1581447696364
 51
285.9799912583387
  0
ARC
  5
1B3
102
{ACAD_REACTORS
330
21D
330
21E
102
}
330
71
100
AcDbEntity
  8
0
  6
Continuous
 62
     2
100
AcDbCircle
 10
-47.53174672716898
 20
19.20830908289588
 30
0.0
 40
1.639695123940448
100
AcDbArc
 50
195.0618917771012
 51
275.1581447696765
  0
ARC
  5
1B4
102
{ACAD_REACTORS
330
215
330
216
102
}
330
71
100
AcDbEntity
  8
0
  6
Continuous
 62
     2
100
AcDbCircle
 10
-63.2599600388601
 20
22.92624831760759
 30
0.0
 40
1.055365641333712
100
AcDbArc
 50
270.0
 51
90.0
  0
ARC
  5
1B5
102
{ACAD_REACTORS
330
21B
330
21C
102
}
330
71
100
AcDbEntity
  8
0
  6
Continuous
 62
     2
100
AcDbCircle
 10
-71.04001114711551
 20
18.59688643758938
 30
0.0
 40
0.3157169230756836
100
AcDbArc
 50
180.0
 51
270.0
  0
ARC
  5
1B6
102
{ACAD_REACTORS
330
21B
330
21C
102
}
330
71
100
AcDbEntity
  8
0
  6
Continuous
 62
     2
100
AcDbCircle
 10
-69.56417788610588
 20
22.95334148030648
 30
0.0
 40
0.315716923076593
100
AcDbArc
 50
0.0
 51
90.0
  0
ARC
  5
1B7
102
{ACAD_REACTORS
330
21B
330
21C
102
}
330
71
100
AcDbEntity
  8
0
  6
Continuous
 62
     2
100
AcDbCircle
 10
-69.56417788610588
 20
22.34931686124597
 30
0.0
 40
0.3157169230761203
100
AcDbArc
 50
295.1944106485397
 51
0.0
  0
ARC
  5
1B8
102
{ACAD_REACTORS
330
21B
330
21C
102
}
330
71
100
AcDbEntity
  8
0
  6
Continuous
 62
     2
100
AcDbCircle
 10
-69.56417788610588
 20
18.59688643758938
 30
0.0
 40
0.3157169230767103
100
AcDbArc
 50
270.0
 51
0.0
  0
ARC
  5
1B9
102
{ACAD_REACTORS
330
21B
330
21C
102
}
330
71
100
AcDbEntity
  8
0
  6
Continuous
 62
     2
100
AcDbCircle
 10
-71.633905823862
 20
23.55736934353928
 30
0.0
 40
0.4242446153838024
100
AcDbArc
 50
90.0
 51
180.0
  0
ARC
  5
1BA
102
{ACAD_REACTORS
330
21B
330
21C
102
}
330
71
100
AcDbEntity
  8
0
  6
Continuous
 62
     2
100
AcDbCircle
 10
-66.16059373314519
 20
23.55736934353928
 30
0.0
 40
0.4242446153838841
100
AcDbArc
 50
0.0
 51
90.0
  0
ARC
  5
1BB
102
{ACAD_REACTORS
330
21B
330
21C
102
}
330
71
100
AcDbEntity
  8
0
  6
Continuous
 62
     2
100
AcDbCircle
 10
-66.16059373314519
 20
17.99285857433907
 30
0.0
 40
0.4242446153832908
100
AcDbArc
 50
270.0
 51
0.0
  0
ARC
  5
1BC
102
{ACAD_REACTORS
330
219
330
21A
102
}
330
71
100
AcDbEntity
  8
0
  6
Continuous
 62
     2
100
AcDbCircle
 10
-56.94220984605369
 20
22.45470919703539
 30
0.0
 40
0.7717997786796417
100
AcDbArc
 50
321.8795802028433
 51
38.12041979715916
  0
ARC
  5
1BD
102
{ACAD_REACTORS
330
219
330
21A
102
}
330
71
100
AcDbEntity
  8
0
  6
Continuous
 62
     2
100
AcDbCircle
 10
-56.7424698097075
 20
22.29797801891496
 30
0.0
 40
0.5179085730134393
100
AcDbArc
 50
218.1204197971514
 51
321.8795802028558
  0
ARC
  5
1BE
102
{ACAD_REACTORS
330
217
330
218
102
}
330
71
100
AcDbEntity
  8
0
  6
Continuous
 62
     2
100
AcDbCircle
 10
-60.4224773986677
 20
19.09551872086107
 30
0.0
 40
1.458034083652006
100
AcDbArc
 50
297.5481481757013
 51
62.45185182429856
  0
ARC
  5
1BF
102
{ACAD_REACTORS
330
217
330
218
102
}
330
71
100
AcDbEntity
  8
0
  6
Continuous
 62
     2
100
AcDbCircle
 10
-60.98435718233429
 20
19.09551872086107
 30
0.0
 40
1.458034083651484
100
AcDbArc
 50
117.5481481756626
 51
242.4518518243375
  0
ARC
  5
1C0
102
{ACAD_REACTORS
330
217
330
218
102
}
330
71
100
AcDbEntity
  8
0
  6
Continuous
 62
     2
100
AcDbCircle
 10
-60.70341729050099
 20
18.55694371055827
 30
0.0
 40
2.065479772208564
100
AcDbArc
 50
62.45185182430654
 51
117.5481481756666
  0
ARC
  5
1C1
102
{ACAD_REACTORS
330
217
330
218
102
}
330
71
100
AcDbEntity
  8
0
  6
Continuous
 62
     2
100
AcDbCircle
 10
-60.70341729050099
 20
19.63409373116437
 30
0.0
 40
2.065479772208509
100
AcDbArc
 50
242.45185182434
 51
297.5481481756869
  0
ARC
  5
1C2
102
{ACAD_REACTORS
330
219
330
21A
102
}
330
71
100
AcDbEntity
  8
0
  6
Continuous
 62
     2
100
AcDbCircle
 10
-56.5427297733612
 20
22.45470919703539
 30
0.0
 40
0.771799778679668
100
AcDbArc
 50
141.8795802028409
 51
218.1204197971566
  0
ARC
  5
1C3
102
{ACAD_REACTORS
330
219
330
21A
102
}
330
71
100
AcDbEntity
  8
0
  6
Continuous
 62
     2
100
AcDbCircle
 10
-56.7424698097075
 20
22.61144037515587
 30
0.0
 40
0.5179085730135166
100
AcDbArc
 50
38.12041979714321
 51
141.8795802028495
  0
ARC
  5
1C4
102
{ACAD_REACTORS
330
21B
330
21C
102
}
330
71
100
AcDbEntity
  8
0
  6
Continuous
 62
     2
100
AcDbCircle
 10
-71.633905823862
 20
17.99285857433907
 30
0.0
 40
0.4242446153828041
100
AcDbArc
 50
180.0
 51
270.0
  0
ARC
  5
1C5
102
{ACAD_REACTORS
330
21B
330
21C
102
}
330
71
100
AcDbEntity
  8
0
  6
Continuous
 62
     2
100
AcDbCircle
 10
-69.56417788610588
 20
20.12765736912098
 30
0.0
 40
0.315716923076593
100
AcDbArc
 50
0.0
 51
64.80558935146027
  0
ARC
  5
1C6
102
{ACAD_REACTORS
330
21B
330
21C
102
}
330
71
100
AcDbEntity
  8
0
  6
Continuous
 62
     2
100
AcDbCircle
 10
-69.0415934385309
 20
21.23848711518377
 30
0.0
 40
0.911897523557621
100
AcDbArc
 50
115.194410648528
 51
244.8055893514878
  0
ARC
  5
1C7
102
{ACAD_REACTORS
330
21B
330
21C
102
}
330
71
100
AcDbEntity
  8
0
  6
Continuous
 62
     2
100
AcDbCircle
 10
-71.04001114711551
 20
22.95334148030648
 30
0.0
 40
0.315716923076188
100
AcDbArc
 50
90.0
 51
180.0
  0
ARC
  5
1C8
102
{ACAD_REACTORS
330
215
330
216
102
}
330
71
100
AcDbEntity
  8
0
  6
Continuous
 62
     2
100
AcDbCircle
 10
-63.70143256509849
 20
22.96564428883008
 30
0.0
 40
0.3528638246711218
100
AcDbArc
 50
270.0
 51
90.0
  0
ARC
  5
1C9
102
{ACAD_REACTORS
330
219
330
21A
102
}
330
71
100
AcDbEntity
  8
0
  6
Continuous
 62
     2
100
AcDbCircle
 10
-56.9587418198727
 20
22.45470919703539
 30
0.0
 40
1.526904761905882
100
AcDbArc
 50
90.0
 51
270.0
  0
ARC
  5
1CA
102
{ACAD_REACTORS
330
21D
330
21E
102
}
330
71
100
AcDbEntity
  8
0
  6
Continuous
 62
     2
100
AcDbCircle
 10
-47.53174672716898
 20
18.98272835882617
 30
0.0
 40
1.639695123940211
100
AcDbArc
 50
90.0
 51
164.938108222895
  0
ARC
  5
1CB
102
{ACAD_REACTORS
330
21D
330
21E
102
}
330
71
100
AcDbEntity
  8
0
  6
Continuous
 62
     2
100
AcDbCircle
 10
-47.95087457063059
 20
19.09551872086107
 30
0.0
 40
1.205656168393002
100
AcDbArc
 50
164.9381082229028
 51
195.0618917770961
  0
ARC
  5
1CC
102
{ACAD_REACTORS
330
21D
330
21E
102
}
330
71
100
AcDbEntity
  8
0
  6
Continuous
 62
     2
100
AcDbCircle
 10
-47.40100224585319
 20
18.89044729152258
 30
0.0
 40
0.5115800601960215
100
AcDbArc
 50
208.5214732576866
 51
246.6277221118443
  0
ARC
  5
1CD
102
{ACAD_REACTORS
330
21D
330
21E
102
}
330
71
100
AcDbEntity
  8
0
  6
Continuous
 62
     2
100
AcDbCircle
 10
-47.40100224585319
 20
19.30059015020007
 30
0.0
 40
0.5115800601944109
100
AcDbArc
 50
109.3371432194854
 51
151.4785267424228
  0
ARC
  5
1CE
102
{ACAD_REACTORS
330
21B
330
21C
102
}
330
71
100
AcDbEntity
  8
0
  6
Continuous
 62
     2
100
AcDbCircle
 10
-68.4644624605838
 20
19.54749410852028
 30
0.0
 40
0.315716923076792
100
AcDbArc
 50
180.0
 51
269.8110329574542
  0
ARC
  5
1CF
102
{ACAD_REACTORS
330
21B
330
21C
102
}
330
71
100
AcDbEntity
  8
0
  6
Continuous
 62
     2
100
AcDbCircle
 10
-68.45884632527378
 20
21.25032905608927
 30
0.0
 40
2.018561131933269
100
AcDbArc
 50
269.8110329575858
 51
90.18896704241416
  0
ARC
  5
1D0
102
{ACAD_REACTORS
330
21B
330
21C
102
}
330
71
100
AcDbEntity
  8
0
  6
Continuous
 62
     2
100
AcDbCircle
 10
-68.4644624605838
 20
22.34762871515159
 30
0.0
 40
0.315716923076792
100
AcDbArc
 50
180.0
 51
244.6259913216482
  0
ARC
  5
1D1
102
{ACAD_REACTORS
330
21B
330
21C
102
}
330
71
100
AcDbEntity
  8
0
  6
Continuous
 62
     2
100
AcDbCircle
 10
-68.4644624605838
 20
20.12934551521536
 30
0.0
 40
0.315716923076536
100
AcDbArc
 50
115.3740086783516
 51
180.0
  0
ARC
  5
1D2
102
{ACAD_REACTORS
330
21F
330
220
102
}
330
71
100
AcDbEntity
  8
0
  6
Continuous
 62
     2
100
AcDbCircle
 10
-63.63444820642189
 20
18.98272835882617
 30
0.0
 40
1.639695123940506
100
AcDbArc
 50
84.84185523036261
 51
164.9381082228865
  0
ARC
  5
1D3
102
{ACAD_REACTORS
330
21F
330
220
102
}
330
71
100
AcDbEntity
  8
0
  6
Continuous
 62
     2
100
AcDbCircle
 10
-64.0535760498847
 20
19.09551872086107
 30
0.0
 40
1.205656168390944
100
AcDbArc
 50
164.9381082228765
 51
195.061891777095
  0
ARC
  5
1D4
102
{ACAD_REACTORS
330
21F
330
220
102
}
330
71
100
AcDbEntity
  8
0
  6
Continuous
 62
     2
100
AcDbCircle
 10
-63.63444820642189
 20
19.20830908289588
 30
0.0
 40
1.639695123939394
100
AcDbArc
 50
195.0618917770895
 51
275.1581447696393
  0
ARC
  5
1D5
102
{ACAD_REACTORS
330
21F
330
220
102
}
330
71
100
AcDbEntity
  8
0
  6
Continuous
 62
     2
100
AcDbCircle
 10
-63.9233043011578
 20
22.40819966611747
 30
0.0
 40
4.852596863498134
100
AcDbArc
 50
275.1581447696249
 51
285.9799912583529
  0
ARC
  5
1D6
102
{ACAD_REACTORS
330
21F
330
220
102
}
330
71
100
AcDbEntity
  8
0
  6
Continuous
 62
     2
100
AcDbCircle
 10
-63.1263464670258
 20
19.09551872086107
 30
0.0
 40
0.9410597353332607
100
AcDbArc
 50
151.4785267422671
 51
208.5214732577055
  0
ARC
  5
1D7
102
{ACAD_REACTORS
330
21F
330
220
102
}
330
71
100
AcDbEntity
  8
0
  6
Continuous
 62
     2
100
AcDbCircle
 10
-63.50370372510611
 20
19.30059015020007
 30
0.0
 40
0.5115800601948713
100
AcDbArc
 50
113.3722778881994
 51
151.4785267423048
  0
ARC
  5
1D8
102
{ACAD_REACTORS
330
21F
330
220
102
}
330
71
100
AcDbEntity
  8
0
  6
Continuous
 62
     2
100
AcDbCircle
 10
-63.76543142606488
 20
17.68505235545288
 30
0.0
 40
2.227384008973484
100
AcDbArc
 50
58.06909105004083
 51
71.55192388186742
  0
ARC
  5
1D9
102
{ACAD_REACTORS
330
217
330
218
102
}
330
71
100
AcDbEntity
  8
0
  6
Continuous
 62
     2
100
AcDbCircle
 10
-60.70341729050099
 20
19.25224989898157
 30
0.0
 40
0.5179085730132965
100
AcDbArc
 50
38.12041979714783
 51
141.8795802028595
  0
ARC
  5
1DA
102
{ACAD_REACTORS
330
217
330
218
102
}
330
71
100
AcDbEntity
  8
0
  6
Continuous
 62
     2
100
AcDbCircle
 10
-60.50367725415489
 20
19.09551872086107
 30
0.0
 40
0.7717997786794721
100
AcDbArc
 50
141.8795802028372
 51
218.120419797168
  0
ARC
  5
1DB
102
{ACAD_REACTORS
330
217
330
218
102
}
330
71
100
AcDbEntity
  8
0
  6
Continuous
 62
     2
100
AcDbCircle
 10
-60.70341729050099
 20
18.93878754274107
 30
0.0
 40
0.5179085730137466
100
AcDbArc
 50
218.1204197971922
 51
321.8795802028005
  0
ARC
  5
1DC
102
{ACAD_REACTORS
330
217
330
218
102
}
330
71
100
AcDbEntity
  8
0
  6
Continuous
 62
     2
100
AcDbCircle
 10
-60.90315732684741
 20
19.09551872086107
 30
0.0
 40
0.7717997786797003
100
AcDbArc
 50
321.879580202842
 51
38.12041979715276
  0
CIRCLE
  5
1DD
330
71
100
AcDbEntity
  8
1
  6
Continuous
 62
     2
100
AcDbCircle
 10
-63.5581504392448
 20
31.40011395893939
 30
0.0
 40
2.5
  0
CIRCLE
  5
1DE
330
71
100
AcDbEntity
  8
1
  6
Continuous
 62
     2
100
AcDbCircle
 10
-63.5581504392448
 20
31.40011395893939
 30
0.0
 40
1.249999999999915
  0
CIRCLE
  5
1DF
102
{ACAD_REACTORS
330
21B
330
21C
102
}
330
71
100
AcDbEntity
  8
0
  6
Continuous
 62
     2
100
AcDbCircle
 10
-69.01432017334449
 20
21.23848711518377
 30
0.0
 40
0.4709789327785074
  0
MTEXT
  5
1E0
330
71
100
AcDbEntity
  8
1
 62
     3
100
AcDbMText
 10
-233.7449330129856
 20
197.0664221142383
 30
0.0
 40
1.8
 41
0.0
 71
     7
 72
     1
  3
Weitergabe sowie Vervielf\U+00e4ltigung dieses Dokuments, Verwertung und \PMitteilung seines Inhalts sind verboten, soweit nicht ausdr\U+00fccklich gestattet. \PZuwiderhandlungen verpflichten zu Schadenersatz. Alle Rechte f\U+00fcr den Fall\Pder Pat
  1
ent-, Gebrauchsmuster- oder Designeintragung vorbehalten.
  7
CONVERTER_11
 73
     1
 44
0.99639855942377
  0
MTEXT
  5
1E1
330
71
100
AcDbEntity
  8
1
 62
     3
100
AcDbMText
 10
-50.8918231741975
 20
197.0664221142383
 30
0.0
 40
1.8
 41
0.0
 71
     7
 72
     1
  3
Transfer or duplication of this document as well as the utilisation or\Pcommunication of its content are not permitted unless express consent\Pis granted. Violations give rise to claims for damages. All rights reserved\Pin case of patent, utility mo
  1
del or design patent registrations.
  7
CONVERTER_11
 73
     1
 44
0.99639855942377
  0
TEXT
  5
1E2
330
71
100
AcDbEntity
  8
1
 62
     2
100
AcDbText
 10
-57.09480532580758
 20
11.51609674394786
 30
0.0
 40
1.8
  1
of
 41
0.9
  7
CONVERTER_11
100
AcDbText
  0
TEXT
  5
1E3
330
71
100
AcDbEntity
  8
1
 62
     2
100
AcDbText
 10
-75.2948053258074
 20
11.5160967439478
 30
0.0
 40
1.8
  1
page
 41
0.9
  7
CONVERTER_11
100
AcDbText
  0
TEXT
  5
1E4
330
71
100
AcDbEntity
  8
1
 62
     2
100
AcDbText
 10
-66.6485403554654
 20
11.47586530513746
 30
0.0
 40
1.8
  1
1
 41
0.9
  7
CONVERTER_11
100
AcDbText
  0
TEXT
  5
1E5
330
71
100
AcDbEntity
  8
1
 62
     2
100
AcDbText
 10
-51.8594965159939
 20
11.52511395893936
 30
0.0
 40
1.8
  1
1
 41
0.9
  7
CONVERTER_11
100
AcDbText
  0
MTEXT
  5
1E7
330
71
100
AcDbEntity
  8
1
 62
     7
100
AcDbMText
 10
6.6775969375681
 20
13.5251139589397
 30
0.0
 40
3.0
 41
0.0
 71
     5
 72
     1
  1
D-URTK/SS
  7
CONVERTER_12
 73
     1
 44
1.20048019207683
  0
MTEXT
  5
1E8
330
71
100
AcDbEntity
  8
1
 62
     2
100
AcDbMText
 10
-38.89480532580748
 20
17.77511395893947
 30
0.0
 40
1.8
 41
0.0
 71
     1
 72
     1
  1
description
  7
CONVERTER_11
 73
     1
 44
1.20048019207683
  0
MTEXT
  5
1E9
330
71
100
AcDbEntity
  8
1
 62
     3
100
AcDbMText
 10
-50.0948053258075
 20
31.40011395893947
 30
0.0
 40
2.5
 41
0.0
 71
     5
 72
     1
  1
DIN A4
  7
CONVERTER_11
 73
     1
 44
1.20048019207683
  0
MTEXT
  5
1EA
330
71
100
AcDbEntity
  8
1
 62
     7
100
AcDbMText
 10
-236.2500007990565
 20
32.77511395893947
 30
0.0
 40
3.5
 41
0.0
 71
     5
 72
     1
  1
D
  7
CONVERTER_11
 73
     1
 44
1.20048019207683
  0
MTEXT
  5
1EB
330
71
100
AcDbEntity
  8
1
 62
     7
100
AcDbMText
 10
-236.2500007990565
 20
85.27511395893947
 30
0.0
 40
3.5
 41
0.0
 71
     5
 72
     1
  1
C
  7
CONVERTER_11
 73
     1
 44
1.20048019207683
  0
MTEXT
  5
1EC
330
71
100
AcDbEntity
  8
1
 62
     7
100
AcDbMText
 10
-236.2500007990565
 20
135.2751139589395
 30
0.0
 40
3.5
 41
0.0
 71
     5
 72
     1
  1
B
  7
CONVERTER_11
 73
     1
 44
1.20048019207683
  0
MTEXT
  5
1ED
330
71
100
AcDbEntity
  8
1
 62
     7
100
AcDbMText
 10
-236.2500007990565
 20
187.7751139589395
 30
0.0
 40
3.5
 41
0.0
 71
     5
 72
     1
  1
A
  7
CONVERTER_11
 73
     1
 44
1.20048019207683
  0
MTEXT
  5
1EE
330
71
100
AcDbEntity
  8
1
 62
     7
100
AcDbMText
 10
33.9999992009418
 20
7.77511395893936
 30
0.0
 40
3.5
 41
0.0
 71
     5
 72
     1
  1
6
  7
CONVERTER_11
 73
     1
 44
1.20048019207683
  0
MTEXT
  5
1EF
330
71
100
AcDbEntity
  8
1
 62
     7
100
AcDbMText
 10
-15.2500007990574
 20
7.77511395893936
 30
0.0
 40
3.5
 41
0.0
 71
     5
 72
     1
  1
5
  7
CONVERTER_11
 73
     1
 44
1.20048019207683
  0
MTEXT
  5
1F0
330
71
100
AcDbEntity
  8
1
 62
     7
100
AcDbMText
 10
-65.25000079905749
 20
7.77511395893936
 30
0.0
 40
3.5
 41
0.0
 71
     5
 72
     1
  1
4
  7
CONVERTER_11
 73
     1
 44
1.20048019207683
  0
MTEXT
  5
1F1
330
71
100
AcDbEntity
  8
1
 62
     7
100
AcDbMText
 10
-115.2500007990574
 20
7.77511395893936
 30
0.0
 40
3.5
 41
0.0
 71
     5
 72
     1
  1
3
  7
CONVERTER_11
 73
     1
 44
1.20048019207683
  0
MTEXT
  5
1F2
330
71
100
AcDbEntity
  8
1
 62
     7
100
AcDbMText
 10
-165.2500007990574
 20
7.77511395893936
 30
0.0
 40
3.5
 41
0.0
 71
     5
 72
     1
  1
2
  7
CONVERTER_11
 73
     1
 44
1.20048019207683
  0
MTEXT
  5
1F3
330
71
100
AcDbEntity
  8
1
 62
     7
100
AcDbMText
 10
-214.500000799057
 20
7.77511395893936
 30
0.0
 40
3.5
 41
0.0
 71
     5
 72
     1
  1
1
  7
CONVERTER_11
 73
     1
 44
1.20048019207683
  0
MTEXT
  5
1F4
330
71
100
AcDbEntity
  8
1
 62
     7
100
AcDbMText
 10
55.7499992009416
 20
32.77511395893947
 30
0.0
 40
3.5
 41
0.0
 71
     5
 72
     1
  1
D
  7
CONVERTER_11
 73
     1
 44
1.20048019207683
  0
MTEXT
  5
1F5
330
71
100
AcDbEntity
  8
1
 62
     7
100
AcDbMText
 10
55.7499992009416
 20
135.2751139589414
 30
0.0
 40
3.5
 41
0.0
 71
     5
 72
     1
  1
B
  7
CONVERTER_11
 73
     1
 44
1.20048019207683
  0
MTEXT
  5
1F6
330
71
100
AcDbEntity
  8
1
 62
     7
100
AcDbMText
 10
55.7499992009416
 20
187.7751139589395
 30
0.0
 40
3.5
 41
0.0
 71
     5
 72
     1
  1
A
  7
CONVERTER_11
 73
     1
 44
1.20048019207683
  0
MTEXT
  5
1F7
330
71
100
AcDbEntity
  8
1
 62
     7
100
AcDbMText
 10
55.7499992009416
 20
85.27511395894138
 30
0.0
 40
3.5
 41
0.0
 71
     5
 72
     1
  1
C
  7
CONVERTER_11
 73
     1
 44
1.20048019207683
  0
MTEXT
  5
1F8
330
71
100
AcDbEntity
  8
1
 62
     2
100
AcDbMText
 10
-110.7328200508549
 20
23.02511395893939
 30
0.0
 40
2.0
 41
0.0
 71
     5
 72
     1
  1
General Information\P- Simplified representation\P- Document excluded from change process\P- Linear dimensions [mm]
  7
CONVERTER_11
 73
     1
 44
1.20048019207683
  0
TEXT
  5
1F9
330
71
100
AcDbEntity
  8
1
 62
     7
100
AcDbText
 10
-38.39480532580768
 20
20.07511395893937
 30
0.0
 40
2.5
  1
0321022
 41
0.81
  7
CONVERTER_12
100
AcDbText
  0
MTEXT
  5
1FA
330
71
100
AcDbEntity
  8
1
 62
     2
100
AcDbMText
 10
-38.7948053258074
 20
26.27511395893947
 30
0.0
 40
1.8
 41
0.0
 71
     1
 72
     1
  1
ident.-No.
  7
CONVERTER_11
 73
     1
 44
1.20048019207683
  0
MTEXT
  5
1FB
330
71
100
AcDbEntity
  8
1
 62
     2
100
AcDbMText
 10
45.43159091926532
 20
34.77511395893947
 30
0.0
 40
1.8
 41
0.0
 71
     1
 72
     1
  1
scale
  7
CONVERTER_11
 73
     1
 44
1.20048019207683
  0
MTEXT
  5
1FD
330
71
100
AcDbEntity
  8
1
 62
     3
100
AcDbMText
 10
48.79079506010491
 20
28.57511395893957
 30
0.0
 40
2.5
 41
0.0
 71
     8
 72
     1
  1
1:1
  7
CONVERTER_13
 73
     1
 44
1.32052821128451
  0
TEXT
  5
1FE
330
71
100
AcDbEntity
  8
1
 62
     7
100
AcDbText
 10
-38.7948053258074
 20
28.57511395893937
 30
0.0
 40
2.5
  1
00443845
 41
0.81
  7
CONVERTER_12
100
AcDbText
  0
MTEXT
  5
200
330
71
100
AcDbEntity
  8
1
 62
     2
100
AcDbMText
 10
-38.7948053258074
 20
34.77511395893947
 30
0.0
 40
1.8
 41
0.0
 71
     1
 72
     1
  1
document-No. / RI
  7
CONVERTER_14
 73
     1
 44
1.32052821128451
  0
TEXT
  5
201
330
71
100
AcDbEntity
  8
1
 62
     3
100
AcDbText
 10
-10.99480532580739
 20
20.07511395893937
 30
0.0
 40
2.5
  1
TECDOC 2D_Productdrawing
 41
0.81
  7
CONVERTER_12
100
AcDbText
  0
MTEXT
  5
202
330
71
100
AcDbEntity
  8
1
 62
     2
100
AcDbMText
 10
-10.99480532580739
 20
26.27511395893939
 30
0.0
 40
1.8
 41
0.0
 71
     1
 72
     1
  1
document-type
  7
CONVERTER_11
 73
     1
 44
1.20048019207683
  0
MTEXT
  5
203
330
71
100
AcDbEntity
  8
1
 62
     2
100
AcDbMText
 10
18.83159091926549
 20
34.77511395893939
 30
0.0
 40
1.8
 41
0.0
 71
     1
 72
     1
  1
date
  7
CONVERTER_11
 73
     1
 44
1.32052821128451
  0
TEXT
  5
204
330
71
100
AcDbEntity
  8
1
 62
     3
100
AcDbText
 10
18.83159091926549
 20
28.57511395893937
 30
0.0
 40
2.5
  1
11.02.2018
 41
0.81
  7
CONVERTER_12
100
AcDbText
  0
TEXT
  5
205
330
71
100
AcDbEntity
  8
1
 62
     7
100
AcDbText
 10
-18.7648931067516
 20
28.57511395893937
 30
0.0
 40
2.5
  1
00
 41
0.81
  7
CONVERTER_12
100
AcDbText
  0
TEXT
  5
206
330
71
100
AcDbEntity
  8
1
 62
     7
100
AcDbText
 10
-20.92125760379361
 20
28.57511395893937
 30
0.0
 40
2.5
  1
/
 41
0.9
  7
CONVERTER_11
100
AcDbText
  0
HATCH
  5
207
330
71
100
AcDbEntity
  8
1
  6
Continuous
 62
     2
100
AcDbHatch
 10
0.0
 20
0.0
 30
0.0
210
0.0
220
0.0
230
1.0
  2
_USER
 70
     0
 71
     1
 91
        1
 92
        1
 93
       12
 72
     1
 10
-58.6273046128463
 20
20.92780443513007
 11
-59.8200973150127
 21
20.92780443513007
 72
     1
 10
-59.8200973150127
 20
20.92780443513007
 11
-59.8200973150127
 21
22.06207654397389
 72
     1
 10
-59.8200973150127
 20
22.06207654397389
 11
-60.86975489292018
 21
22.06207654397389
 72
     1
 10
-60.86975489292018
 20
22.06207654397389
 11
-60.86975489292018
 21
20.92780443513007
 72
     1
 10
-60.86975489292018
 20
20.92780443513007
 11
-62.06254759508678
 21
20.92780443513007
 72
     1
 10
-62.06254759508678
 20
20.92780443513007
 11
-62.06254759508678
 21
23.98161395894127
 72
     1
 10
-62.06254759508678
 20
23.98161395894127
 11
-60.86975489292018
 21
23.98161395894127
 72
     1
 10
-60.86975489292018
 20
23.98161395894127
 11
-60.86975489292018
 21
22.91278062560667
 72
     1
 10
-60.86975489292018
 20
22.91278062560667
 11
-59.8200973150127
 21
22.91278062560667
 72
     1
 10
-59.8200973150127
 20
22.91278062560667
 11
-59.8200973150127
 21
23.98161395894127
 72
     1
 10
-59.8200973150127
 20
23.98161395894127
 11
-58.6273046128463
 21
23.98161395894127
 72
     1
 10
-58.6273046128463
 20
23.98161395894127
 11
-58.6273046128463
 21
20.92780443513007
 97
       12
330
174
330
175
330
15F
330
15E
330
15D
330
171
330
15C
330
172
330
173
330
15B
330
15A
330
159
 75
     1
 76
     0
 52
45.0
 41
0.1
 77
     0
 78
     1
 53
45.0
 43
0.0
 44
0.0
 45
-0.0707106781186548
 46
0.0707106781186548
 79
     0
 98
        1
 10
0.0
 20
0.0
  0
HATCH
  5
208
330
71
100
AcDbEntity
  8
1
  6
Continuous
 62
     2
100
AcDbHatch
 10
0.0
 20
0.0
 30
0.0
210
0.0
220
0.0
230
1.0
  2
_USER
 70
     0
 71
     1
 91
        1
 92
        1
 93
       12
 72
     1
 10
-58.6273046128463
 20
20.92780443513007
 11
-59.8200973150127
 21
20.92780443513007
 72
     1
 10
-59.8200973150127
 20
20.92780443513007
 11
-59.8200973150127
 21
22.06207654397389
 72
     1
 10
-59.8200973150127
 20
22.06207654397389
 11
-60.86975489292018
 21
22.06207654397389
 72
     1
 10
-60.86975489292018
 20
22.06207654397389
 11
-60.86975489292018
 21
20.92780443513007
 72
     1
 10
-60.86975489292018
 20
20.92780443513007
 11
-62.06254759508678
 21
20.92780443513007
 72
     1
 10
-62.06254759508678
 20
20.92780443513007
 11
-62.06254759508678
 21
23.98161395894127
 72
     1
 10
-62.06254759508678
 20
23.98161395894127
 11
-60.86975489292018
 21
23.98161395894127
 72
     1
 10
-60.86975489292018
 20
23.98161395894127
 11
-60.86975489292018
 21
22.91278062560667
 72
     1
 10
-60.86975489292018
 20
22.91278062560667
 11
-59.8200973150127
 21
22.91278062560667
 72
     1
 10
-59.8200973150127
 20
22.91278062560667
 11
-59.8200973150127
 21
23.98161395894127
 72
     1
 10
-59.8200973150127
 20
23.98161395894127
 11
-58.6273046128463
 21
23.98161395894127
 72
     1
 10
-58.6273046128463
 20
23.98161395894127
 11
-58.6273046128463
 21
20.92780443513007
 97
       12
330
174
330
175
330
15F
330
15E
330
15D
330
171
330
15C
330
172
330
173
330
15B
330
15A
330
159
 75
     1
 76
     0
 52
45.0
 41
0.1
 77
     0
 78
     1
 53
45.0
 43
0.0
 44
0.0
 45
-0.0707106781186548
 46
0.0707106781186548
 79
     0
 98
        1
 10
0.0
 20
0.0
  0
HATCH
  5
209
330
71
100
AcDbEntity
  8
1
  6
Continuous
 62
     2
100
AcDbHatch
 10
0.0
 20
0.0
 30
0.0
210
0.0
220
0.0
230
1.0
  2
_USER
 70
     0
 71
     1
 91
        1
 92
        1
 93
       10
 72
     1
 10
-56.385005263658
 20
19.31364797256177
 11
-57.6255096739109
 21
20.62242348276686
 72
     1
 10
-57.6255096739109
 20
20.62242348276686
 11
-58.81830237607849
 21
20.62242348276686
 72
     1
 10
-58.81830237607849
 20
20.62242348276686
 11
-58.81830237607849
 21
17.56861395895578
 72
     1
 10
-58.81830237607849
 20
17.56861395895578
 11
-57.6255096739109
 21
17.56861395895578
 72
     1
 10
-57.6255096739109
 20
17.56861395895578
 11
-57.6255096739109
 21
18.87738946916036
 72
     1
 10
-57.6255096739109
 20
18.87738946916036
 11
-56.385005263658
 21
17.56861395895578
 72
     1
 10
-56.385005263658
 20
17.56861395895578
 11
-55.1922125614916
 21
17.56861395895578
 72
     1
 10
-55.1922125614916
 20
17.56861395895578
 11
-55.1922125614916
 21
20.62242348276686
 72
     1
 10
-55.1922125614916
 20
20.62242348276686
 11
-56.385005263658
 21
20.62242348276686
 72
     1
 10
-56.385005263658
 20
20.62242348276686
 11
-56.385005263658
 21
19.31364797256177
 97
       10
330
182
330
152
330
151
330
154
330
17D
330
17E
330
153
330
17F
330
180
330
181
 75
     1
 76
     0
 52
45.0
 41
0.1
 77
     0
 78
     1
 53
45.0
 43
0.0
 44
0.0
 45
-0.0707106781186548
 46
0.0707106781186548
 79
     0
 98
        1
 10
0.0
 20
0.0
  0
HATCH
  5
20A
330
71
100
AcDbEntity
  8
1
  6
Continuous
 62
     2
100
AcDbHatch
 10
0.0
 20
0.0
 30
0.0
210
0.0
220
0.0
230
1.0
  2
_USER
 70
     0
 71
     1
 91
        1
 92
        1
 93
       10
 72
     1
 10
-56.385005263658
 20
19.31364797256177
 11
-57.6255096739109
 21
20.62242348276686
 72
     1
 10
-57.6255096739109
 20
20.62242348276686
 11
-58.81830237607849
 21
20.62242348276686
 72
     1
 10
-58.81830237607849
 20
20.62242348276686
 11
-58.81830237607849
 21
17.56861395895578
 72
     1
 10
-58.81830237607849
 20
17.56861395895578
 11
-57.6255096739109
 21
17.56861395895578
 72
     1
 10
-57.6255096739109
 20
17.56861395895578
 11
-57.6255096739109
 21
18.87738946916036
 72
     1
 10
-57.6255096739109
 20
18.87738946916036
 11
-56.385005263658
 21
17.56861395895578
 72
     1
 10
-56.385005263658
 20
17.56861395895578
 11
-55.1922125614916
 21
17.56861395895578
 72
     1
 10
-55.1922125614916
 20
17.56861395895578
 11
-55.1922125614916
 21
20.62242348276686
 72
     1
 10
-55.1922125614916
 20
20.62242348276686
 11
-56.385005263658
 21
20.62242348276686
 72
     1
 10
-56.385005263658
 20
20.62242348276686
 11
-56.385005263658
 21
19.31364797256177
 97
       10
330
182
330
152
330
151
330
154
330
17D
330
17E
330
153
330
17F
330
180
330
181
 75
     1
 76
     0
 52
45.0
 41
0.1
 77
     0
 78
     1
 53
45.0
 43
0.0
 44
0.0
 45
-0.0707106781186548
 46
0.0707106781186548
 79
     0
 98
        1
 10
0.0
 20
0.0
  0
HATCH
  5
20B
330
71
100
AcDbEntity
  8
1
  6
Continuous
 62
     2
100
AcDbHatch
 10
0.0
 20
0.0
 30
0.0
210
0.0
220
0.0
230
1.0
  2
_USER
 70
     0
 71
     1
 91
        1
 92
        1
 93
       10
 72
     1
 10
-51.13656644323828
 20
22.67283844873609
 11
-52.37707085349229
 21
23.98161395894127
 72
     1
 10
-52.37707085349229
 20
23.98161395894127
 11
-53.5698635556588
 21
23.98161395894127
 72
     1
 10
-53.5698635556588
 20
23.98161395894127
 11
-53.5698635556588
 21
20.92780443513007
 72
     1
 10
-53.5698635556588
 20
20.92780443513007
 11
-52.37707085349229
 21
20.92780443513007
 72
     1
 10
-52.37707085349229
 20
20.92780443513007
 11
-52.37707085349229
 21
22.23657994533477
 72
     1
 10
-52.37707085349229
 20
22.23657994533477
 11
-51.13656644323828
 21
20.92780443513007
 72
     1
 10
-51.13656644323828
 20
20.92780443513007
 11
-49.94377374107168
 21
20.92780443513007
 72
     1
 10
-49.94377374107168
 20
20.92780443513007
 11
-49.94377374107168
 21
23.98161395894127
 72
     1
 10
-49.94377374107168
 20
23.98161395894127
 11
-51.13656644323828
 21
23.98161395894127
 72
     1
 10
-51.13656644323828
 20
23.98161395894127
 11
-51.13656644323828
 21
22.67283844873609
 97
       10
330
187
330
14F
330
14E
330
188
330
14D
330
183
330
184
330
185
330
186
330
150
 75
     1
 76
     0
 52
45.0
 41
0.1
 77
     0
 78
     1
 53
45.0
 43
0.0
 44
0.0
 45
-0.0707106781186548
 46
0.0707106781186548
 79
     0
 98
        1
 10
0.0
 20
0.0
  0
HATCH
  5
20C
330
71
100
AcDbEntity
  8
1
  6
Continuous
 62
     2
100
AcDbHatch
 10
0.0
 20
0.0
 30
0.0
210
0.0
220
0.0
230
1.0
  2
_USER
 70
     0
 71
     1
 91
        1
 92
        1
 93
       10
 72
     1
 10
-51.13656644323828
 20
22.67283844873609
 11
-52.37707085349229
 21
23.98161395894127
 72
     1
 10
-52.37707085349229
 20
23.98161395894127
 11
-53.5698635556588
 21
23.98161395894127
 72
     1
 10
-53.5698635556588
 20
23.98161395894127
 11
-53.5698635556588
 21
20.92780443513007
 72
     1
 10
-53.5698635556588
 20
20.92780443513007
 11
-52.37707085349229
 21
20.92780443513007
 72
     1
 10
-52.37707085349229
 20
20.92780443513007
 11
-52.37707085349229
 21
22.23657994533477
 72
     1
 10
-52.37707085349229
 20
22.23657994533477
 11
-51.13656644323828
 21
20.92780443513007
 72
     1
 10
-51.13656644323828
 20
20.92780443513007
 11
-49.94377374107168
 21
20.92780443513007
 72
     1
 10
-49.94377374107168
 20
20.92780443513007
 11
-49.94377374107168
 21
23.98161395894127
 72
     1
 10
-49.94377374107168
 20
23.98161395894127
 11
-51.13656644323828
 21
23.98161395894127
 72
     1
 10
-51.13656644323828
 20
23.98161395894127
 11
-51.13656644323828
 21
22.67283844873609
 97
       10
330
187
330
14F
330
14E
330
188
330
14D
330
183
330
184
330
185
330
186
330
150
 75
     1
 76
     0
 52
45.0
 41
0.1
 77
     0
 78
     1
 53
45.0
 43
0.0
 44
0.0
 45
-0.0707106781186548
 46
0.0707106781186548
 79
     0
 98
        1
 10
0.0
 20
0.0
  0
HATCH
  5
20D
330
71
100
AcDbEntity
  8
1
  6
Continuous
 62
     2
100
AcDbHatch
 10
0.0
 20
0.0
 30
0.0
210
0.0
220
0.0
230
1.0
  2
_USER
 70
     0
 71
     1
 91
        1
 92
        1
 93
        8
 72
     1
 10
-52.23408666011778
 20
20.62242348276686
 11
-55.0490774372314
 21
20.62242348276686
 72
     1
 10
-55.0490774372314
 20
20.62242348276686
 11
-55.0490774372314
 21
19.83715817664327
 72
     1
 10
-55.0490774372314
 20
19.83715817664327
 11
-54.2379783997568
 21
19.83715817664327
 72
     1
 10
-54.2379783997568
 20
19.83715817664327
 11
-54.2379783997568
 21
17.56861395895578
 72
     1
 10
-54.2379783997568
 20
17.56861395895578
 11
-53.04518569759028
 21
17.56861395895578
 72
     1
 10
-53.04518569759028
 20
17.56861395895578
 11
-53.04518569759028
 21
19.83715817664327
 72
     1
 10
-53.04518569759028
 20
19.83715817664327
 11
-52.23408666011778
 21
19.83715817664327
 72
     1
 10
-52.23408666011778
 20
19.83715817664327
 11
-52.23408666011778
 21
20.62242348276686
 97
        8
330
149
330
189
330
148
330
18A
330
18B
330
14C
330
14B
330
14A
 75
     1
 76
     0
 52
45.0
 41
0.1
 77
     0
 78
     1
 53
45.0
 43
0.0
 44
0.0
 45
-0.0707106781186548
 46
0.0707106781186548
 79
     0
 98
        1
 10
0.0
 20
0.0
  0
HATCH
  5
20E
330
71
100
AcDbEntity
  8
1
  6
Continuous
 62
     2
100
AcDbHatch
 10
0.0
 20
0.0
 30
0.0
210
0.0
220
0.0
230
1.0
  2
_USER
 70
     0
 71
     1
 91
        1
 92
        1
 93
        8
 72
     1
 10
-52.23408666011778
 20
20.62242348276686
 11
-55.0490774372314
 21
20.62242348276686
 72
     1
 10
-55.0490774372314
 20
20.62242348276686
 11
-55.0490774372314
 21
19.83715817664327
 72
     1
 10
-55.0490774372314
 20
19.83715817664327
 11
-54.2379783997568
 21
19.83715817664327
 72
     1
 10
-54.2379783997568
 20
19.83715817664327
 11
-54.2379783997568
 21
17.56861395895578
 72
     1
 10
-54.2379783997568
 20
17.56861395895578
 11
-53.04518569759028
 21
17.56861395895578
 72
     1
 10
-53.04518569759028
 20
17.56861395895578
 11
-53.04518569759028
 21
19.83715817664327
 72
     1
 10
-53.04518569759028
 20
19.83715817664327
 11
-52.23408666011778
 21
19.83715817664327
 72
     1
 10
-52.23408666011778
 20
19.83715817664327
 11
-52.23408666011778
 21
20.62242348276686
 97
        8
330
149
330
189
330
148
330
18A
330
18B
330
14C
330
14B
330
14A
 75
     1
 76
     0
 52
45.0
 41
0.1
 77
     0
 78
     1
 53
45.0
 43
0.0
 44
0.0
 45
-0.0707106781186548
 46
0.0707106781186548
 79
     0
 98
        1
 10
0.0
 20
0.0
  0
HATCH
  5
20F
330
71
100
AcDbEntity
  8
1
  6
Continuous
 62
     2
100
AcDbHatch
 10
0.0
 20
0.0
 30
0.0
210
0.0
220
0.0
230
1.0
  2
_USER
 70
     0
 71
     1
 91
        2
 92
        1
 93
        8
 72
     1
 10
-50.0956592041708
 20
17.56861395895578
 11
-50.30713925764658
 21
18.10957450317366
 72
     1
 10
-50.30713925764658
 20
18.10957450317366
 11
-51.4395808343204
 21
18.10957450317366
 72
     1
 10
-51.4395808343204
 20
18.10957450317366
 11
-51.65106088779621
 21
17.56861395895578
 72
     1
 10
-51.65106088779621
 20
17.56861395895578
 11
-52.89156529804919
 21
17.56861395895578
 72
     1
 10
-52.89156529804919
 20
17.56861395895578
 11
-51.49361225110988
 21
20.62242348276686
 72
     1
 10
-51.49361225110988
 20
20.62242348276686
 11
-50.25310784085718
 21
20.62242348276686
 72
     1
 10
-50.25310784085718
 20
20.62242348276686
 11
-48.85515479391688
 21
17.56861395895578
 72
     1
 10
-48.85515479391688
 20
17.56861395895578
 11
-50.0956592041708
 21
17.56861395895578
 97
        8
330
18D
330
18E
330
145
330
18F
330
144
330
147
330
18C
330
146
 92
       16
 93
        3
 72
     1
 10
-51.17352528317539
 20
18.79013776848026
 11
-50.87336004598299
 21
19.55795273446697
 72
     1
 10
-50.87336004598299
 20
19.55795273446697
 11
-50.57319480879289
 21
18.79013776848026
 72
     1
 10
-50.57319480879289
 20
18.79013776848026
 11
-51.17352528317539
 21
18.79013776848026
 97
        3
330
143
330
191
330
190
 75
     1
 76
     0
 52
45.0
 41
0.1
 77
     0
 78
     1
 53
45.0
 43
0.0
 44
0.0
 45
-0.0707106781186548
 46
0.0707106781186548
 79
     0
 98
        1
 10
0.0
 20
0.0
  0
HATCH
  5
210
330
71
100
AcDbEntity
  8
1
  6
Continuous
 62
     2
100
AcDbHatch
 10
0.0
 20
0.0
 30
0.0
210
0.0
220
0.0
230
1.0
  2
_USER
 70
     0
 71
     1
 91
        2
 92
        1
 93
        8
 72
     1
 10
-50.0956592041708
 20
17.56861395895578
 11
-50.30713925764658
 21
18.10957450317366
 72
     1
 10
-50.30713925764658
 20
18.10957450317366
 11
-51.4395808343204
 21
18.10957450317366
 72
     1
 10
-51.4395808343204
 20
18.10957450317366
 11
-51.65106088779621
 21
17.56861395895578
 72
     1
 10
-51.65106088779621
 20
17.56861395895578
 11
-52.89156529804919
 21
17.56861395895578
 72
     1
 10
-52.89156529804919
 20
17.56861395895578
 11
-51.49361225110988
 21
20.62242348276686
 72
     1
 10
-51.49361225110988
 20
20.62242348276686
 11
-50.25310784085718
 21
20.62242348276686
 72
     1
 10
-50.25310784085718
 20
20.62242348276686
 11
-48.85515479391688
 21
17.56861395895578
 72
     1
 10
-48.85515479391688
 20
17.56861395895578
 11
-50.0956592041708
 21
17.56861395895578
 97
        8
330
18D
330
18E
330
145
330
18F
330
144
330
147
330
18C
330
146
 92
       16
 93
        3
 72
     1
 10
-51.17352528317539
 20
18.79013776848026
 11
-50.87336004598299
 21
19.55795273446697
 72
     1
 10
-50.87336004598299
 20
19.55795273446697
 11
-50.57319480879289
 21
18.79013776848026
 72
     1
 10
-50.57319480879289
 20
18.79013776848026
 11
-51.17352528317539
 21
18.79013776848026
 97
        3
330
143
330
191
330
190
 75
     1
 76
     0
 52
45.0
 41
0.1
 77
     0
 78
     1
 53
45.0
 43
0.0
 44
0.0
 45
-0.0707106781186548
 46
0.0707106781186548
 79
     0
 98
        1
 10
0.0
 20
0.0
  0
HATCH
  5
211
330
71
100
AcDbEntity
  8
1
  6
Continuous
 62
     2
100
AcDbHatch
 10
0.0
 20
0.0
 30
0.0
210
0.0
220
0.0
230
1.0
  2
_USER
 70
     0
 71
     1
 91
        1
 92
        1
 93
        4
 72
     1
 10
-48.46471079038489
 20
20.92780443513007
 11
-49.70521520063778
 21
20.92780443513007
 72
     1
 10
-49.70521520063778
 20
20.92780443513007
 11
-49.70521520063778
 21
23.98161395894127
 72
     1
 10
-49.70521520063778
 20
23.98161395894127
 11
-48.46471079038489
 21
23.98161395894127
 72
     1
 10
-48.46471079038489
 20
23.98161395894127
 11
-48.46471079038489
 21
20.92780443513007
 97
        4
330
140
330
142
330
192
330
141
 75
     1
 76
     0
 52
45.0
 41
0.1
 77
     0
 78
     1
 53
45.0
 43
0.0
 44
0.0
 45
-0.0707106781186548
 46
0.0707106781186548
 79
     0
 98
        1
 10
0.0
 20
0.0
  0
HATCH
  5
212
330
71
100
AcDbEntity
  8
1
  6
Continuous
 62
     2
100
AcDbHatch
 10
0.0
 20
0.0
 30
0.0
210
0.0
220
0.0
230
1.0
  2
_USER
 70
     0
 71
     1
 91
        1
 92
        1
 93
        4
 72
     1
 10
-48.46471079038489
 20
20.92780443513007
 11
-49.70521520063778
 21
20.92780443513007
 72
     1
 10
-49.70521520063778
 20
20.92780443513007
 11
-49.70521520063778
 21
23.98161395894127
 72
     1
 10
-49.70521520063778
 20
23.98161395894127
 11
-48.46471079038489
 21
23.98161395894127
 72
     1
 10
-48.46471079038489
 20
23.98161395894127
 11
-48.46471079038489
 21
20.92780443513007
 97
        4
330
140
330
142
330
192
330
141
 75
     1
 76
     0
 52
45.0
 41
0.1
 77
     0
 78
     1
 53
45.0
 43
0.0
 44
0.0
 45
-0.0707106781186548
 46
0.0707106781186548
 79
     0
 98
        1
 10
0.0
 20
0.0
  0
HATCH
  5
213
330
71
100
AcDbEntity
  8
1
  6
Continuous
 62
     2
100
AcDbHatch
 10
0.0
 20
0.0
 30
0.0
210
0.0
220
0.0
230
1.0
  2
_USER
 70
     0
 71
     1
 91
        1
 92
        1
 93
       12
 72
     1
 10
-44.24222462471408
 20
23.98161395894127
 11
-45.5447542554806
 21
22.50866342890507
 72
     1
 10
-45.5447542554806
 20
22.50866342890507
 11
-44.1468012085403
 21
20.92780443513007
 72
     1
 10
-44.1468012085403
 20
20.92780443513007
 11
-45.5495254262886
 21
20.92780443513007
 72
     1
 10
-45.5495254262886
 20
20.92780443513007
 11
-46.24611636435409
 21
21.71553622042379
 72
     1
 10
-46.24611636435409
 20
21.71553622042379
 11
-46.94270730241979
 21
20.92780443513007
 72
     1
 10
-46.94270730241979
 20
20.92780443513007
 11
-48.34543152016801
 21
20.92780443513007
 72
     1
 10
-48.34543152016801
 20
20.92780443513007
 11
-46.9474784732277
 21
22.50866342890507
 72
     1
 10
-46.9474784732277
 20
22.50866342890507
 11
-48.25000810399519
 21
23.98161395894127
 72
     1
 10
-48.25000810399519
 20
23.98161395894127
 11
-46.84728388624589
 21
23.98161395894127
 72
     1
 10
-46.84728388624589
 20
23.98161395894127
 11
-46.24611636435409
 21
23.30179063738578
 72
     1
 10
-46.24611636435409
 20
23.30179063738578
 11
-45.6449488424613
 21
23.98161395894127
 72
     1
 10
-45.6449488424613
 20
23.98161395894127
 11
-44.24222462471408
 21
23.98161395894127
 97
       12
330
13B
330
13A
330
139
330
196
330
197
330
193
330
194
330
13F
330
13E
330
13D
330
13C
330
195
 75
     1
 76
     0
 52
45.0
 41
0.1
 77
     0
 78
     1
 53
45.0
 43
0.0
 44
0.0
 45
-0.0707106781186548
 46
0.0707106781186548
 79
     0
 98
        1
 10
0.0
 20
0.0
  0
HATCH
  5
214
330
71
100
AcDbEntity
  8
1
  6
Continuous
 62
     2
100
AcDbHatch
 10
0.0
 20
0.0
 30
0.0
210
0.0
220
0.0
230
1.0
  2
_USER
 70
     0
 71
     1
 91
        1
 92
        1
 93
       12
 72
     1
 10
-44.24222462471408
 20
23.98161395894127
 11
-45.5447542554806
 21
22.50866342890507
 72
     1
 10
-45.5447542554806
 20
22.50866342890507
 11
-44.1468012085403
 21
20.92780443513007
 72
     1
 10
-44.1468012085403
 20
20.92780443513007
 11
-45.5495254262886
 21
20.92780443513007
 72
     1
 10
-45.5495254262886
 20
20.92780443513007
 11
-46.24611636435409
 21
21.71553622042379
 72
     1
 10
-46.24611636435409
 20
21.71553622042379
 11
-46.94270730241979
 21
20.92780443513007
 72
     1
 10
-46.94270730241979
 20
20.92780443513007
 11
-48.34543152016801
 21
20.92780443513007
 72
     1
 10
-48.34543152016801
 20
20.92780443513007
 11
-46.9474784732277
 21
22.50866342890507
 72
     1
 10
-46.9474784732277
 20
22.50866342890507
 11
-48.25000810399519
 21
23.98161395894127
 72
     1
 10
-48.25000810399519
 20
23.98161395894127
 11
-46.84728388624589
 21
23.98161395894127
 72
     1
 10
-46.84728388624589
 20
23.98161395894127
 11
-46.24611636435409
 21
23.30179063738578
 72
     1
 10
-46.24611636435409
 20
23.30179063738578
 11
-45.6449488424613
 21
23.98161395894127
 72
     1
 10
-45.6449488424613
 20
23.98161395894127
 11
-44.24222462471408
 21
23.98161395894127
 97
       12
330
13B
330
13A
330
139
330
196
330
197
330
193
330
194
330
13F
330
13E
330
13D
330
13C
330
195
 75
     1
 76
     0
 52
45.0
 41
0.1
 77
     0
 78
     1
 53
45.0
 43
0.0
 44
0.0
 45
-0.0707106781186548
 46
0.0707106781186548
 79
     0
 98
        1
 10
0.0
 20
0.0
  0
HATCH
  5
215
330
71
100
AcDbEntity
  8
1
  6
Continuous
 62
     2
100
AcDbHatch
 10
0.0
 20
0.0
 30
0.0
210
0.0
220
0.0
230
1.0
  2
_USER
 70
     0
 71
     1
 91
        2
 92
        1
 93
        6
 72
     1
 10
-63.2599600388601
 20
21.87088267627388
 11
-64.01872762664038
 21
21.87088267627388
 72
     1
 10
-64.01872762664038
 20
21.87088267627388
 11
-64.01872762664038
 21
20.92780443513007
 72
     1
 10
-64.01872762664038
 20
20.92780443513007
 11
-65.2592320368945
 21
20.92780443513007
 72
     1
 10
-65.2592320368945
 20
20.92780443513007
 11
-65.2592320368945
 21
23.98161395894127
 72
     1
 10
-65.2592320368945
 20
23.98161395894127
 11
-63.2599600388601
 21
23.98161395894127
 72
     2
 10
-63.2599600388601
 20
22.92624831760759
 40
1.055365641333712
 50
270.0
 51
450.0
 73
     0
 97
        6
330
163
330
162
330
16F
330
16E
330
164
330
1B4
 92
       16
 93
        4
 72
     2
 10
-63.70143256509849
 20
22.96564428883008
 40
0.3528638246711218
 50
270.0
 51
450.0
 73
     1
 72
     1
 10
-63.70143256509849
 20
23.31850811350117
 11
-64.01872762664038
 21
23.31850811350117
 72
     1
 10
-64.01872762664038
 20
23.31850811350117
 11
-64.01872762664038
 21
22.61278046415896
 72
     1
 10
-64.01872762664038
 20
22.61278046415896
 11
-63.70143256509849
 21
22.61278046415896
 97
        4
330
1C8
330
160
330
170
330
161
 75
     1
 76
     0
 52
45.0
 41
0.1
 77
     0
 78
     1
 53
45.0
 43
0.0
 44
0.0
 45
-0.0707106781186548
 46
0.0707106781186548
 79
     0
 98
        1
 10
0.0
 20
0.0
  0
HATCH
  5
216
330
71
100
AcDbEntity
  8
1
  6
Continuous
 62
     2
100
AcDbHatch
 10
0.0
 20
0.0
 30
0.0
210
0.0
220
0.0
230
1.0
  2
_USER
 70
     0
 71
     1
 91
        2
 92
        1
 93
        6
 72
     1
 10
-63.2599600388601
 20
21.87088267627388
 11
-64.01872762664038
 21
21.87088267627388
 72
     1
 10
-64.01872762664038
 20
21.87088267627388
 11
-64.01872762664038
 21
20.92780443513007
 72
     1
 10
-64.01872762664038
 20
20.92780443513007
 11
-65.2592320368945
 21
20.92780443513007
 72
     1
 10
-65.2592320368945
 20
20.92780443513007
 11
-65.2592320368945
 21
23.98161395894127
 72
     1
 10
-65.2592320368945
 20
23.98161395894127
 11
-63.2599600388601
 21
23.98161395894127
 72
     2
 10
-63.2599600388601
 20
22.92624831760759
 40
1.055365641333712
 50
270.0
 51
450.0
 73
     0
 97
        6
330
163
330
162
330
16F
330
16E
330
164
330
1B4
 92
       16
 93
        4
 72
     2
 10
-63.70143256509849
 20
22.96564428883008
 40
0.3528638246711218
 50
270.0
 51
450.0
 73
     1
 72
     1
 10
-63.70143256509849
 20
23.31850811350117
 11
-64.01872762664038
 21
23.31850811350117
 72
     1
 10
-64.01872762664038
 20
23.31850811350117
 11
-64.01872762664038
 21
22.61278046415896
 72
     1
 10
-64.01872762664038
 20
22.61278046415896
 11
-63.70143256509849
 21
22.61278046415896
 97
        4
330
1C8
330
160
330
170
330
161
 75
     1
 76
     0
 52
45.0
 41
0.1
 77
     0
 78
     1
 53
45.0
 43
0.0
 44
0.0
 45
-0.0707106781186548
 46
0.0707106781186548
 79
     0
 98
        1
 10
0.0
 20
0.0
  0
HATCH
  5
217
330
71
100
AcDbEntity
  8
1
  6
Continuous
 62
     2
100
AcDbHatch
 10
0.0
 20
0.0
 30
0.0
210
0.0
220
0.0
230
1.0
  2
_USER
 70
     0
 71
     1
 91
        2
 92
        1
 93
        4
 72
     2
 10
-60.70341729050099
 20
18.55694371055827
 40
2.065479772208564
 50
62.45185182430654
 51
117.5481481756666
 73
     1
 72
     2
 10
-60.98435718233429
 20
19.09551872086107
 40
1.458034083651484
 50
117.5481481756626
 51
242.4518518243375
 73
     1
 72
     2
 10
-60.70341729050099
 20
19.63409373116437
 40
2.065479772208509
 50
242.45185182434
 51
297.5481481756869
 73
     1
 72
     2
 10
-60.4224773986677
 20
19.09551872086107
 40
1.458034083652006
 50
297.5481481757013
 51
422.4518518242986
 73
     1
 97
        4
330
1C0
330
1BF
330
1C1
330
1BE
 92
       16
 93
        4
 72
     2
 10
-60.90315732684741
 20
19.09551872086107
 40
0.7717997786797003
 50
321.879580202842
 51
398.1204197971528
 73
     1
 72
     2
 10
-60.70341729050099
 20
19.25224989898157
 40
0.5179085730132965
 50
38.12041979714783
 51
141.8795802028595
 73
     1
 72
     2
 10
-60.50367725415489
 20
19.09551872086107
 40
0.7717997786794721
 50
141.8795802028372
 51
218.120419797168
 73
     1
 72
     2
 10
-60.70341729050099
 20
18.93878754274107
 40
0.5179085730137466
 50
218.1204197971922
 51
321.8795802028005
 73
     1
 97
        4
330
1DC
330
1D9
330
1DA
330
1DB
 75
     1
 76
     0
 52
45.0
 41
0.1
 77
     0
 78
     1
 53
45.0
 43
0.0
 44
0.0
 45
-0.0707106781186548
 46
0.0707106781186548
 79
     0
 98
        1
 10
0.0
 20
0.0
  0
HATCH
  5
218
330
71
100
AcDbEntity
  8
1
  6
Continuous
 62
     2
100
AcDbHatch
 10
0.0
 20
0.0
 30
0.0
210
0.0
220
0.0
230
1.0
  2
_USER
 70
     0
 71
     1
 91
        2
 92
        1
 93
        4
 72
     2
 10
-60.70341729050099
 20
18.55694371055827
 40
2.065479772208564
 50
62.45185182430654
 51
117.5481481756666
 73
     1
 72
     2
 10
-60.98435718233429
 20
19.09551872086107
 40
1.458034083651484
 50
117.5481481756626
 51
242.4518518243375
 73
     1
 72
     2
 10
-60.70341729050099
 20
19.63409373116437
 40
2.065479772208509
 50
242.45185182434
 51
297.5481481756869
 73
     1
 72
     2
 10
-60.4224773986677
 20
19.09551872086107
 40
1.458034083652006
 50
297.5481481757013
 51
422.4518518242986
 73
     1
 97
        4
330
1C0
330
1BF
330
1C1
330
1BE
 92
       16
 93
        4
 72
     2
 10
-60.90315732684741
 20
19.09551872086107
 40
0.7717997786797003
 50
321.879580202842
 51
398.1204197971528
 73
     1
 72
     2
 10
-60.70341729050099
 20
19.25224989898157
 40
0.5179085730132965
 50
38.12041979714783
 51
141.8795802028595
 73
     1
 72
     2
 10
-60.50367725415489
 20
19.09551872086107
 40
0.7717997786794721
 50
141.8795802028372
 51
218.120419797168
 73
     1
 72
     2
 10
-60.70341729050099
 20
18.93878754274107
 40
0.5179085730137466
 50
218.1204197971922
 51
321.8795802028005
 73
     1
 97
        4
330
1DC
330
1D9
330
1DA
330
1DB
 75
     1
 76
     0
 52
45.0
 41
0.1
 77
     0
 78
     1
 53
45.0
 43
0.0
 44
0.0
 45
-0.0707106781186548
 46
0.0707106781186548
 79
     0
 98
        1
 10
0.0
 20
0.0
  0
HATCH
  5
219
330
71
100
AcDbEntity
  8
1
  6
Continuous
 62
     2
100
AcDbHatch
 10
0.0
 20
0.0
 30
0.0
210
0.0
220
0.0
230
1.0
  2
_USER
 70
     0
 71
     1
 91
        2
 92
        1
 93
       12
 72
     1
 10
-53.8084220960917
 20
23.28360035349829
 11
-55.14434992251938
 21
23.28360035349829
 72
     1
 10
-55.14434992251938
 20
23.28360035349829
 11
-55.14434992251938
 21
22.80371599975658
 72
     1
 10
-55.14434992251938
 20
22.80371599975658
 11
-53.8084220960917
 21
22.80371599975658
 72
     1
 10
-53.8084220960917
 20
22.80371599975658
 11
-53.8084220960917
 21
22.10570239431428
 72
     1
 10
-53.8084220960917
 20
22.10570239431428
 11
-55.14434992251938
 21
22.10570239431428
 72
     1
 10
-55.14434992251938
 20
22.10570239431428
 11
-55.14434992251938
 21
21.62581804057257
 72
     1
 10
-55.14434992251938
 20
21.62581804057257
 11
-53.8084220960917
 21
21.62581804057257
 72
     1
 10
-53.8084220960917
 20
21.62581804057257
 11
-53.8084220960917
 21
20.92780443513007
 72
     1
 10
-53.8084220960917
 20
20.92780443513007
 11
-56.9587418198727
 21
20.92780443513007
 72
     2
 10
-56.9587418198727
 20
22.45470919703539
 40
1.526904761905882
 50
90.0
 51
270.0
 73
     0
 72
     1
 10
-56.9587418198727
 20
23.98161395894127
 11
-53.8084220960917
 21
23.98161395894127
 72
     1
 10
-53.8084220960917
 20
23.98161395894127
 11
-53.8084220960917
 21
23.28360035349829
 97
       12
330
177
330
1C9
330
178
330
179
330
17A
330
17B
330
158
330
157
330
156
330
155
330
17C
330
176
 92
       16
 93
        4
 72
     2
 10
-56.7424698097075
 20
22.61144037515587
 40
0.5179085730135166
 50
38.12041979714321
 51
141.8795802028495
 73
     1
 72
     2
 10
-56.5427297733612
 20
22.45470919703539
 40
0.771799778679668
 50
141.8795802028409
 51
218.1204197971566
 73
     1
 72
     2
 10
-56.7424698097075
 20
22.29797801891496
 40
0.5179085730134393
 50
218.1204197971514
 51
321.8795802028558
 73
     1
 72
     2
 10
-56.94220984605369
 20
22.45470919703539
 40
0.7717997786796417
 50
321.8795802028433
 51
398.1204197971591
 73
     1
 97
        4
330
1C3
330
1C2
330
1BD
330
1BC
 75
     1
 76
     0
 52
45.0
 41
0.1
 77
     0
 78
     1
 53
45.0
 43
0.0
 44
0.0
 45
-0.0707106781186548
 46
0.0707106781186548
 79
     0
 98
        1
 10
0.0
 20
0.0
  0
HATCH
  5
21A
330
71
100
AcDbEntity
  8
1
  6
Continuous
 62
     2
100
AcDbHatch
 10
0.0
 20
0.0
 30
0.0
210
0.0
220
0.0
230
1.0
  2
_USER
 70
     0
 71
     1
 91
        2
 92
        1
 93
       12
 72
     1
 10
-53.8084220960917
 20
23.28360035349829
 11
-55.14434992251938
 21
23.28360035349829
 72
     1
 10
-55.14434992251938
 20
23.28360035349829
 11
-55.14434992251938
 21
22.80371599975658
 72
     1
 10
-55.14434992251938
 20
22.80371599975658
 11
-53.8084220960917
 21
22.80371599975658
 72
     1
 10
-53.8084220960917
 20
22.80371599975658
 11
-53.8084220960917
 21
22.10570239431428
 72
     1
 10
-53.8084220960917
 20
22.10570239431428
 11
-55.14434992251938
 21
22.10570239431428
 72
     1
 10
-55.14434992251938
 20
22.10570239431428
 11
-55.14434992251938
 21
21.62581804057257
 72
     1
 10
-55.14434992251938
 20
21.62581804057257
 11
-53.8084220960917
 21
21.62581804057257
 72
     1
 10
-53.8084220960917
 20
21.62581804057257
 11
-53.8084220960917
 21
20.92780443513007
 72
     1
 10
-53.8084220960917
 20
20.92780443513007
 11
-56.9587418198727
 21
20.92780443513007
 72
     2
 10
-56.9587418198727
 20
22.45470919703539
 40
1.526904761905882
 50
90.0
 51
270.0
 73
     0
 72
     1
 10
-56.9587418198727
 20
23.98161395894127
 11
-53.8084220960917
 21
23.98161395894127
 72
     1
 10
-53.8084220960917
 20
23.98161395894127
 11
-53.8084220960917
 21
23.28360035349829
 97
       12
330
177
330
1C9
330
178
330
179
330
17A
330
17B
330
158
330
157
330
156
330
155
330
17C
330
176
 92
       16
 93
        4
 72
     2
 10
-56.7424698097075
 20
22.61144037515587
 40
0.5179085730135166
 50
38.12041979714321
 51
141.8795802028495
 73
     1
 72
     2
 10
-56.5427297733612
 20
22.45470919703539
 40
0.771799778679668
 50
141.8795802028409
 51
218.1204197971566
 73
     1
 72
     2
 10
-56.7424698097075
 20
22.29797801891496
 40
0.5179085730134393
 50
218.1204197971514
 51
321.8795802028558
 73
     1
 72
     2
 10
-56.94220984605369
 20
22.45470919703539
 40
0.7717997786796417
 50
321.8795802028433
 51
398.1204197971591
 73
     1
 97
        4
330
1C3
330
1C2
330
1BD
330
1BC
 75
     1
 76
     0
 52
45.0
 41
0.1
 77
     0
 78
     1
 53
45.0
 43
0.0
 44
0.0
 45
-0.0707106781186548
 46
0.0707106781186548
 79
     0
 98
        1
 10
0.0
 20
0.0
  0
HATCH
  5
21B
330
71
100
AcDbEntity
  8
1
  6
Continuous
 62
     2
100
AcDbHatch
 10
0.0
 20
0.0
 30
0.0
210
0.0
220
0.0
230
1.0
  2
_USER
 70
     0
 71
     1
 91
        4
 92
        1
 93
        8
 72
     1
 10
-65.7363491177613
 20
23.55736934353928
 11
-65.7363491177613
 21
17.99285857433907
 72
     2
 10
-66.16059373314519
 20
17.99285857433907
 40
0.4242446153832908
 50
0.0
 51
90.0
 73
     0
 72
     1
 10
-66.16059373314519
 20
17.56861395895578
 11
-71.633905823862
 21
17.56861395895578
 72
     2
 10
-71.633905823862
 20
17.99285857433907
 40
0.4242446153828041
 50
90.0
 51
180.0
 73
     0
 72
     1
 10
-72.0581504392448
 20
17.99285857433907
 11
-72.0581504392448
 21
23.55736934353928
 72
     2
 10
-71.633905823862
 20
23.55736934353928
 40
0.4242446153838024
 50
180.0
 51
270.0
 73
     0
 72
     1
 10
-71.633905823862
 20
23.98161395892308
 11
-66.16059373314519
 21
23.98161395892308
 72
     2
 10
-66.16059373314519
 20
23.55736934353928
 40
0.4242446153838841
 50
270.0
 51
360.0
 73
     0
 97
        8
330
16B
330
1B9
330
16C
330
1C4
330
169
330
1BB
330
16A
330
1BA
 92
       16
 93
        1
 72
     2
 10
-69.01432017334449
 20
21.23848711518377
 40
0.4709789327785074
 50
0.0
 51
360.0
 73
     1
 97
        1
330
1DF
 92
       16
 93
        8
 72
     2
 10
-68.4644624605838
 20
20.12934551521536
 40
0.315716923076536
 50
115.3740086783516
 51
180.0
 73
     1
 72
     1
 10
-68.7801793836606
 20
20.12934551521536
 11
-68.7801793836606
 21
19.54749410852028
 72
     2
 10
-68.4644624605838
 20
19.54749410852028
 40
0.315716923076792
 50
180.0
 51
269.8110329574542
 73
     1
 72
     2
 10
-68.45884632527378
 20
21.25032905608927
 40
2.018561131933269
 50
269.8110329575858
 51
450.1889670424142
 73
     1
 72
     2
 10
-68.4644624605838
 20
22.95316400365837
 40
0.3157169230760746
 50
90.18896704254594
 51
180.0
 73
     1
 72
     1
 10
-68.7801793836606
 20
22.95316400365837
 11
-68.7801793836606
 21
22.34762871515159
 72
     2
 10
-68.4644624605838
 20
22.34762871515159
 40
0.315716923076792
 50
180.0
 51
244.6259913216482
 73
     1
 72
     2
 10
-68.99050515867168
 20
21.23848711518377
 40
0.9118481501444557
 50
295.3740086781924
 51
424.6259913218234
 73
     0
 97
        8
330
1D1
330
132
330
1CE
330
1CF
330
1AD
330
131
330
1D0
330
1AC
 92
       16
 93
       12
 72
     2
 10
-71.04001114711551
 20
18.59688643758938
 40
0.3157169230756836
 50
180.0
 51
270.0
 73
     1
 72
     1
 10
-71.04001114711551
 20
18.28116951451267
 11
-69.56417788610588
 21
18.28116951451267
 72
     2
 10
-69.56417788610588
 20
18.59688643758938
 40
0.3157169230767103
 50
270.0
 51
360.0
 73
     1
 72
     1
 10
-69.24846096302929
 20
18.59688643758938
 11
-69.24846096302929
 21
20.12765736912098
 72
     2
 10
-69.56417788610588
 20
20.12765736912098
 40
0.315716923076593
 50
0.0
 51
64.80558935146027
 73
     1
 72
     2
 10
-69.0415934385309
 20
21.23848711518377
 40
0.911897523557621
 50
115.1944106485122
 51
244.805589351472
 73
     0
 72
     2
 10
-69.56417788610588
 20
22.34931686124597
 40
0.3157169230761203
 50
295.1944106485397
 51
360.0
 73
     1
 72
     1
 10
-69.24846096302929
 20
22.34931686124597
 11
-69.24846096302929
 21
22.95334148030648
 72
     2
 10
-69.56417788610588
 20
22.95334148030648
 40
0.315716923076593
 50
0.0
 51
90.0
 73
     1
 72
     1
 10
-69.56417788610588
 20
23.26905840338267
 11
-71.04001114711551
 21
23.26905840338267
 72
     2
 10
-71.04001114711551
 20
22.95334148030648
 40
0.315716923076188
 50
90.0
 51
180.0
 73
     1
 72
     1
 10
-71.35572807019119
 20
22.95334148030648
 11
-71.35572807019119
 21
18.59688643758938
 97
       12
330
1B5
330
16D
330
1B8
330
168
330
1C5
330
1C6
330
1B7
330
167
330
1B6
330
166
330
1C7
330
165
 75
     1
 76
     0
 52
45.0
 41
0.1
 77
     0
 78
     1
 53
45.0
 43
0.0
 44
0.0
 45
-0.0707106781186548
 46
0.0707106781186548
 79
     0
 98
        1
 10
0.0
 20
0.0
  0
HATCH
  5
21C
330
71
100
AcDbEntity
  8
1
  6
Continuous
 62
     2
100
AcDbHatch
 10
0.0
 20
0.0
 30
0.0
210
0.0
220
0.0
230
1.0
  2
_USER
 70
     0
 71
     1
 91
        4
 92
        1
 93
        8
 72
     1
 10
-65.7363491177613
 20
23.55736934353928
 11
-65.7363491177613
 21
17.99285857433907
 72
     2
 10
-66.16059373314519
 20
17.99285857433907
 40
0.4242446153832908
 50
0.0
 51
90.0
 73
     0
 72
     1
 10
-66.16059373314519
 20
17.56861395895578
 11
-71.633905823862
 21
17.56861395895578
 72
     2
 10
-71.633905823862
 20
17.99285857433907
 40
0.4242446153828041
 50
90.0
 51
180.0
 73
     0
 72
     1
 10
-72.0581504392448
 20
17.99285857433907
 11
-72.0581504392448
 21
23.55736934353928
 72
     2
 10
-71.633905823862
 20
23.55736934353928
 40
0.4242446153838024
 50
180.0
 51
270.0
 73
     0
 72
     1
 10
-71.633905823862
 20
23.98161395892308
 11
-66.16059373314519
 21
23.98161395892308
 72
     2
 10
-66.16059373314519
 20
23.55736934353928
 40
0.4242446153838841
 50
270.0
 51
360.0
 73
     0
 97
        8
330
16B
330
1B9
330
16C
330
1C4
330
169
330
1BB
330
16A
330
1BA
 92
       16
 93
        1
 72
     2
 10
-69.01432017334449
 20
21.23848711518377
 40
0.4709789327785074
 50
0.0
 51
360.0
 73
     1
 97
        1
330
1DF
 92
       16
 93
        8
 72
     2
 10
-68.4644624605838
 20
20.12934551521536
 40
0.315716923076536
 50
115.3740086783516
 51
180.0
 73
     1
 72
     1
 10
-68.7801793836606
 20
20.12934551521536
 11
-68.7801793836606
 21
19.54749410852028
 72
     2
 10
-68.4644624605838
 20
19.54749410852028
 40
0.315716923076792
 50
180.0
 51
269.8110329574542
 73
     1
 72
     2
 10
-68.45884632527378
 20
21.25032905608927
 40
2.018561131933269
 50
269.8110329575858
 51
450.1889670424142
 73
     1
 72
     2
 10
-68.4644624605838
 20
22.95316400365837
 40
0.3157169230760746
 50
90.18896704254594
 51
180.0
 73
     1
 72
     1
 10
-68.7801793836606
 20
22.95316400365837
 11
-68.7801793836606
 21
22.34762871515159
 72
     2
 10
-68.4644624605838
 20
22.34762871515159
 40
0.315716923076792
 50
180.0
 51
244.6259913216482
 73
     1
 72
     2
 10
-68.99050515867168
 20
21.23848711518377
 40
0.9118481501444557
 50
295.3740086781924
 51
424.6259913218234
 73
     0
 97
        8
330
1D1
330
132
330
1CE
330
1CF
330
1AD
330
131
330
1D0
330
1AC
 92
       16
 93
       12
 72
     2
 10
-71.04001114711551
 20
18.59688643758938
 40
0.3157169230756836
 50
180.0
 51
270.0
 73
     1
 72
     1
 10
-71.04001114711551
 20
18.28116951451267
 11
-69.56417788610588
 21
18.28116951451267
 72
     2
 10
-69.56417788610588
 20
18.59688643758938
 40
0.3157169230767103
 50
270.0
 51
360.0
 73
     1
 72
     1
 10
-69.24846096302929
 20
18.59688643758938
 11
-69.24846096302929
 21
20.12765736912098
 72
     2
 10
-69.56417788610588
 20
20.12765736912098
 40
0.315716923076593
 50
0.0
 51
64.80558935146027
 73
     1
 72
     2
 10
-69.0415934385309
 20
21.23848711518377
 40
0.911897523557621
 50
115.1944106485122
 51
244.805589351472
 73
     0
 72
     2
 10
-69.56417788610588
 20
22.34931686124597
 40
0.3157169230761203
 50
295.1944106485397
 51
360.0
 73
     1
 72
     1
 10
-69.24846096302929
 20
22.34931686124597
 11
-69.24846096302929
 21
22.95334148030648
 72
     2
 10
-69.56417788610588
 20
22.95334148030648
 40
0.315716923076593
 50
0.0
 51
90.0
 73
     1
 72
     1
 10
-69.56417788610588
 20
23.26905840338267
 11
-71.04001114711551
 21
23.26905840338267
 72
     2
 10
-71.04001114711551
 20
22.95334148030648
 40
0.315716923076188
 50
90.0
 51
180.0
 73
     1
 72
     1
 10
-71.35572807019119
 20
22.95334148030648
 11
-71.35572807019119
 21
18.59688643758938
 97
       12
330
1B5
330
16D
330
1B8
330
168
330
1C5
330
1C6
330
1B7
330
167
330
1B6
330
166
330
1C7
330
165
 75
     1
 76
     0
 52
45.0
 41
0.1
 77
     0
 78
     1
 53
45.0
 43
0.0
 44
0.0
 45
-0.0707106781186548
 46
0.0707106781186548
 79
     0
 98
        1
 10
0.0
 20
0.0
  0
HATCH
  5
21D
330
71
100
AcDbEntity
  8
1
  6
Continuous
 62
     2
100
AcDbHatch
 10
0.0
 20
0.0
 30
0.0
210
0.0
220
0.0
230
1.0
  2
_USER
 70
     0
 71
     1
 91
        1
 92
        1
 93
       18
 72
     1
 10
-44.1468012085403
 20
19.83715817664327
 11
-44.95790024601368
 21
19.83715817664327
 72
     1
 10
-44.95790024601368
 20
19.83715817664327
 11
-44.95790024601368
 21
17.56861395895578
 72
     1
 10
-44.95790024601368
 20
17.56861395895578
 11
-46.15069294818139
 21
17.56861395895578
 72
     1
 10
-46.15069294818139
 20
17.56861395895578
 11
-46.15069294818139
 21
19.83715817664327
 72
     1
 10
-46.15069294818139
 20
19.83715817664327
 11
-47.25433224774949
 21
19.83715817664327
 72
     2
 10
-47.25433224774949
 20
18.88263516981718
 40
0.9545230068260899
 50
90.0
 51
109.3371432194321
 73
     1
 72
     2
 10
-47.40100224585319
 20
19.30059015020007
 40
0.5115800601944109
 50
109.3371432194854
 51
151.4785267424228
 73
     1
 72
     2
 10
-47.0236449877718
 20
19.09551872086107
 40
0.9410597353348907
 50
151.4785267423626
 51
208.5214732576695
 73
     1
 72
     2
 10
-47.40100224585319
 20
18.89044729152258
 40
0.5115800601960215
 50
208.5214732576866
 51
246.6277221118443
 73
     1
 72
     2
 10
-47.24456221315009
 20
19.25243931023258
 40
0.9059297849852894
 50
246.627722111818
 51
288.4480761180815
 73
     1
 72
     2
 10
-47.66272994681199
 20
20.50598508626916
 40
2.227384008972746
 50
288.4480761181335
 51
301.9309089499397
 73
     1
 72
     1
 10
-46.48467490478808
 20
18.61563436711938
 11
-46.48467490478808
 21
17.74311736031606
 72
     2
 10
-47.8206028219048
 20
22.40819966611747
 40
4.852596863498825
 50
74.02000874166129
 51
84.8418552303636
 73
     0
 72
     2
 10
-47.53174672716898
 20
19.20830908289588
 40
1.639695123940448
 50
84.84185523032356
 51
164.9381082228988
 73
     0
 72
     2
 10
-47.95087457063059
 20
19.09551872086107
 40
1.205656168393002
 50
164.9381082229039
 51
195.0618917770972
 73
     0
 72
     2
 10
-47.53174672716898
 20
18.98272835882617
 40
1.639695123940211
 50
195.061891777105
 51
270.0
 73
     0
 72
     1
 10
-47.53174672716898
 20
20.62242348276638
 11
-44.1468012085403
 21
20.62242348276686
 72
     1
 10
-44.1468012085403
 20
20.62242348276686
 11
-44.1468012085403
 21
19.83715817664327
 97
       18
330
134
330
1CA
330
1CB
330
1B3
330
1B2
330
198
330
1B1
330
1B0
330
1CC
330
1AF
330
1CD
330
1AE
330
199
330
133
330
138
330
137
330
136
330
135
 75
     1
 76
     0
 52
45.0
 41
0.1
 77
     0
 78
     1
 53
45.0
 43
0.0
 44
0.0
 45
-0.0707106781186548
 46
0.0707106781186548
 79
     0
 98
        1
 10
0.0
 20
0.0
  0
HATCH
  5
21E
330
71
100
AcDbEntity
  8
1
  6
Continuous
 62
     2
100
AcDbHatch
 10
0.0
 20
0.0
 30
0.0
210
0.0
220
0.0
230
1.0
  2
_USER
 70
     0
 71
     1
 91
        1
 92
        1
 93
       18
 72
     1
 10
-44.1468012085403
 20
19.83715817664327
 11
-44.95790024601368
 21
19.83715817664327
 72
     1
 10
-44.95790024601368
 20
19.83715817664327
 11
-44.95790024601368
 21
17.56861395895578
 72
     1
 10
-44.95790024601368
 20
17.56861395895578
 11
-46.15069294818139
 21
17.56861395895578
 72
     1
 10
-46.15069294818139
 20
17.56861395895578
 11
-46.15069294818139
 21
19.83715817664327
 72
     1
 10
-46.15069294818139
 20
19.83715817664327
 11
-47.25433224774949
 21
19.83715817664327
 72
     2
 10
-47.25433224774949
 20
18.88263516981718
 40
0.9545230068260899
 50
90.0
 51
109.3371432194321
 73
     1
 72
     2
 10
-47.40100224585319
 20
19.30059015020007
 40
0.5115800601944109
 50
109.3371432194854
 51
151.4785267424228
 73
     1
 72
     2
 10
-47.0236449877718
 20
19.09551872086107
 40
0.9410597353348907
 50
151.4785267423626
 51
208.5214732576695
 73
     1
 72
     2
 10
-47.40100224585319
 20
18.89044729152258
 40
0.5115800601960215
 50
208.5214732576866
 51
246.6277221118443
 73
     1
 72
     2
 10
-47.24456221315009
 20
19.25243931023258
 40
0.9059297849852894
 50
246.627722111818
 51
288.4480761180815
 73
     1
 72
     2
 10
-47.66272994681199
 20
20.50598508626916
 40
2.227384008972746
 50
288.4480761181335
 51
301.9309089499397
 73
     1
 72
     1
 10
-46.48467490478808
 20
18.61563436711938
 11
-46.48467490478808
 21
17.74311736031606
 72
     2
 10
-47.8206028219048
 20
22.40819966611747
 40
4.852596863498825
 50
74.02000874166129
 51
84.8418552303636
 73
     0
 72
     2
 10
-47.53174672716898
 20
19.20830908289588
 40
1.639695123940448
 50
84.84185523032356
 51
164.9381082228988
 73
     0
 72
     2
 10
-47.95087457063059
 20
19.09551872086107
 40
1.205656168393002
 50
164.9381082229039
 51
195.0618917770972
 73
     0
 72
     2
 10
-47.53174672716898
 20
18.98272835882617
 40
1.639695123940211
 50
195.061891777105
 51
270.0
 73
     0
 72
     1
 10
-47.53174672716898
 20
20.62242348276638
 11
-44.1468012085403
 21
20.62242348276686
 72
     1
 10
-44.1468012085403
 20
20.62242348276686
 11
-44.1468012085403
 21
19.83715817664327
 97
       18
330
134
330
1CA
330
1CB
330
1B3
330
1B2
330
198
330
1B1
330
1B0
330
1CC
330
1AF
330
1CD
330
1AE
330
199
330
133
330
138
330
137
330
136
330
135
 75
     1
 76
     0
 52
45.0
 41
0.1
 77
     0
 78
     1
 53
45.0
 43
0.0
 44
0.0
 45
-0.0707106781186548
 46
0.0707106781186548
 79
     0
 98
        1
 10
0.0
 20
0.0
  0
HATCH
  5
21F
330
71
100
AcDbEntity
  8
1
  6
Continuous
 62
     2
100
AcDbHatch
 10
0.0
 20
0.0
 30
0.0
210
0.0
220
0.0
230
1.0
  2
_USER
 70
     0
 71
     1
 91
        1
 92
        1
 93
       14
 72
     2
 10
-63.63444820642189
 20
18.98272835882617
 40
1.639695123940506
 50
84.84185523036261
 51
164.9381082228865
 73
     1
 72
     2
 10
-64.0535760498847
 20
19.09551872086107
 40
1.205656168390944
 50
164.9381082228765
 51
195.061891777095
 73
     1
 72
     2
 10
-63.63444820642189
 20
19.20830908289588
 40
1.639695123939394
 50
195.0618917770895
 51
275.1581447696393
 73
     1
 72
     2
 10
-63.9233043011578
 20
22.40819966611747
 40
4.852596863498134
 50
275.1581447696249
 51
285.9799912583529
 73
     1
 72
     1
 10
-62.58737638404
 20
17.74311736031666
 11
-62.58737638404
 21
18.61563436711987
 72
     2
 10
-63.76543142606488
 20
20.50598508626976
 40
2.227384008972734
 50
58.06909105004065
 51
71.55192388186738
 73
     0
 72
     2
 10
-63.34726369240408
 20
19.25243931023258
 40
0.9059297849849285
 50
71.5519238818425
 51
113.3722778881292
 73
     0
 72
     2
 10
-63.50370372510611
 20
18.89044729152258
 40
0.5115800601948096
 50
113.3722778881725
 51
151.4785267423048
 73
     0
 72
     2
 10
-63.1263464670258
 20
19.09551872086107
 40
0.9410597353332607
 50
151.4785267422945
 51
208.5214732577329
 73
     0
 72
     2
 10
-63.50370372510611
 20
19.30059015020007
 40
0.5115800601948713
 50
208.5214732576952
 51
246.6277221118006
 73
     0
 72
     2
 10
-63.34726369240408
 20
18.93859813148947
 40
0.9059297849853184
 50
246.6277221118705
 51
288.4480761181457
 73
     0
 72
     2
 10
-63.76543142606488
 20
17.68505235545288
 40
2.227384008973484
 50
288.4480761181326
 51
301.9309089499591
 73
     0
 72
     1
 10
-62.58737638404
 20
19.57540307460278
 11
-62.58737638404
 21
20.44792008140607
 72
     2
 10
-63.9233043011578
 20
15.78283777560517
 40
4.852596863498075
 50
74.02000874164742
 51
84.84185523037506
 73
     1
 97
       14
330
1D2
330
1D3
330
1D4
330
1D5
330
19A
330
1AB
330
1AA
330
1A9
330
1D6
330
1D7
330
1A8
330
1D8
330
19B
330
1A7
 75
     1
 76
     0
 52
45.0
 41
0.1
 77
     0
 78
     1
 53
45.0
 43
0.0
 44
0.0
 45
-0.0707106781186548
 46
0.0707106781186548
 79
     0
 98
        1
 10
0.0
 20
0.0
  0
HATCH
  5
220
330
71
100
AcDbEntity
  8
1
  6
Continuous
 62
     2
100
AcDbHatch
 10
0.0
 20
0.0
 30
0.0
210
0.0
220
0.0
230
1.0
  2
_USER
 70
     0
 71
     1
 91
        1
 92
        1
 93
       14
 72
     2
 10
-63.63444820642189
 20
18.98272835882617
 40
1.639695123940506
 50
84.84185523036261
 51
164.9381082228865
 73
     1
 72
     2
 10
-64.0535760498847
 20
19.09551872086107
 40
1.205656168390944
 50
164.9381082228765
 51
195.061891777095
 73
     1
 72
     2
 10
-63.63444820642189
 20
19.20830908289588
 40
1.639695123939394
 50
195.0618917770895
 51
275.1581447696393
 73
     1
 72
     2
 10
-63.9233043011578
 20
22.40819966611747
 40
4.852596863498134
 50
275.1581447696249
 51
285.9799912583529
 73
     1
 72
     1
 10
-62.58737638404
 20
17.74311736031666
 11
-62.58737638404
 21
18.61563436711987
 72
     2
 10
-63.76543142606488
 20
20.50598508626976
 40
2.227384008972734
 50
58.06909105004065
 51
71.55192388186738
 73
     0
 72
     2
 10
-63.34726369240408
 20
19.25243931023258
 40
0.9059297849849285
 50
71.5519238818425
 51
113.3722778881292
 73
     0
 72
     2
 10
-63.50370372510611
 20
18.89044729152258
 40
0.5115800601948096
 50
113.3722778881725
 51
151.4785267423048
 73
     0
 72
     2
 10
-63.1263464670258
 20
19.09551872086107
 40
0.9410597353332607
 50
151.4785267422945
 51
208.5214732577329
 73
     0
 72
     2
 10
-63.50370372510611
 20
19.30059015020007
 40
0.5115800601948713
 50
208.5214732576952
 51
246.6277221118006
 73
     0
 72
     2
 10
-63.34726369240408
 20
18.93859813148947
 40
0.9059297849853184
 50
246.6277221118705
 51
288.4480761181457
 73
     0
 72
     2
 10
-63.76543142606488
 20
17.68505235545288
 40
2.227384008973484
 50
288.4480761181326
 51
301.9309089499591
 73
     0
 72
     1
 10
-62.58737638404
 20
19.57540307460278
 11
-62.58737638404
 21
20.44792008140607
 72
     2
 10
-63.9233043011578
 20
15.78283777560517
 40
4.852596863498075
 50
74.02000874164742
 51
84.84185523037506
 73
     1
 97
       14
330
1D2
330
1D3
330
1D4
330
1D5
330
19A
330
1AB
330
1AA
330
1A9
330
1D6
330
1D7
330
1A8
330
1D8
330
19B
330
1A7
 75
     1
 76
     0
 52
45.0
 41
0.1
 77
     0
 78
     1
 53
45.0
 43
0.0
 44
0.0
 45
-0.0707106781186548
 46
0.0707106781186548
 79
     0
 98
        1
 10
0.0
 20
0.0
  0
ENDBLK
  5
73
330
71
100
AcDbEntity
  8
0
100
AcDbBlockEnd
  0
BLOCK
  5
75
330
74
100
AcDbEntity
  8
0
100
AcDbBlockBegin
  2
_punkt
 70
     0
 10
53.24999920094261
 20
10.27511395893947
 30
0.0
  3
_punkt
  1

  0
LINE
  5
221
330
74
100
AcDbEntity
  8
1
  6
Continuous
 62
     2
100
AcDbLine
 10
53.24999920094261
 20
10.27511395893947
 30
0.0
 11
58.2499992009416
 21
10.27511395893947
 31
0.0
  0
LINE
  5
222
330
74
100
AcDbEntity
  8
1
  6
Continuous
 62
     2
100
AcDbLine
 10
53.24999920094261
 20
10.27511395893947
 30
0.0
 11
53.24999920094261
 21
5.27511395893936
 31
0.0
  0
ENDBLK
  5
76
330
74
100
AcDbEntity
  8
0
100
AcDbBlockEnd
  0
BLOCK
  5
7A
330
77
100
AcDbEntity
  8
0
100
AcDbBlockBegin
  2
A4I_CS
 70
     0
 10
53.24999920094261
 20
5.27511395893936
 30
0.0
  3
A4I_CS
  1

  0
INSERT
  5
78
330
77
100
AcDbEntity
  8
1
100
AcDbBlockReference
  2
_rahmen
 10
53.24999920094261
 20
5.27511395893936
 30
0.0
  0
INSERT
  5
79
330
77
100
AcDbEntity
  8
1
100
AcDbBlockReference
  2
_punkt
 10
53.24999920094261
 20
10.27511395893947
 30
0.0
  0
ENDBLK
  5
7B
330
77
100
AcDbEntity
  8
0
100
AcDbBlockEnd
  0
BLOCK
  5
84
330
7C
100
AcDbEntity
  8
0
100
AcDbBlockBegin
  2
1
 70
     0
 10
0.0
 20
0.0
 30
0.0
  3
1
  1

  0
INSERT
  5
7D
330
7C
100
AcDbEntity
  8
0
100
AcDbBlockReference
  2
AllgSicht1
 10
22.0000000000004
 20
60.0
 30
0.0
  0
INSERT
  5
7E
330
7C
100
AcDbEntity
  8
0
100
AcDbBlockReference
  2
Drfsicht1
 10
-131.0
 20
80.00000000000998
 30
0.0
  0
INSERT
  5
7F
330
7C
100
AcDbEntity
  8
0
100
AcDbBlockReference
  2
Rckans1
 10
-21.50000154972065
 20
132.9000000953674
 30
0.0
  0
INSERT
  5
80
330
7C
100
AcDbEntity
  8
0
100
AcDbBlockReference
  2
SA_Links1
 10
-71.75000077486544
 20
132.9000000953674
 30
0.0
  0
INSERT
  5
81
330
7C
100
AcDbEntity
  8
0
100
AcDbBlockReference
  2
SA_Rechts1
 10
-199.2499992251298
 20
132.9000000953674
 30
0.0
  0
INSERT
  5
82
330
7C
100
AcDbEntity
  8
0
100
AcDbBlockReference
  2
Vordans1
 10
-131.0
 20
132.9000000953674
 30
0.0
  0
INSERT
  5
83
330
7C
100
AcDbEntity
  8
0
100
AcDbBlockReference
  2
A4I_CS
 10
53.24999920094261
 20
5.27511395893936
 30
0.0
  0
ENDBLK
  5
85
330
7C
100
AcDbEntity
  8
0
100
AcDbBlockEnd
  0
BLOCK
  5
AC
330
A2
100
AcDbEntity
  8
0
100
AcDbBlockBegin
  2
*D17
 70
     1
 10
0.0
 20
0.0
 30
0.0
  3
*D17
  1

  0
LINE
  5
A3
330
A2
100
AcDbEntity
  8
1
  6
Continuous
 62
     2
100
AcDbLine
 10
-169.2499991767355
 20
87.50000000001498
 30
0.0
 11
-169.2499991767355
 21
80.50000000001498
 31
0.0
  0
LINE
  5
A4
330
A2
100
AcDbEntity
  8
1
  6
Continuous
 62
     2
100
AcDbLine
 10
-169.2499991767355
 20
80.50000000001498
 30
0.0
 11
-169.2499991767355
 21
79.50000000001498
 31
0.0
  0
LINE
  5
A5
330
A2
100
AcDbEntity
  8
1
  6
Continuous
 62
     2
100
AcDbLine
 10
-169.2499991767355
 20
79.50000000001498
 30
0.0
 11
-169.2499991767355
 21
72.50000000001498
 31
0.0
  0
LINE
  5
A6
330
A2
100
AcDbEntity
  8
1
  6
Continuous
 62
     2
100
AcDbLine
 10
-159.2499991767355
 20
80.50000000001498
 30
0.0
 11
-170.7499991767355
 21
80.50000000001498
 31
0.0
  0
LINE
  5
A7
330
A2
100
AcDbEntity
  8
1
  6
Continuous
 62
     2
100
AcDbLine
 10
-159.2499991767355
 20
79.50000000001498
 30
0.0
 11
-170.7499991767355
 21
79.50000000001498
 31
0.0
  0
SOLID
  5
A8
330
A2
100
AcDbEntity
  8
1
 62
     2
100
AcDbTrace
 10
-169.7107829182914
 20
84.00000000001498
 30
0.0
 11
-168.7892154351796
 21
84.00000000001498
 31
0.0
 12
-169.2499991767355
 22
80.50000000001498
 32
0.0
 13
-169.2499991767355
 23
80.50000000001498
 33
0.0
  0
SOLID
  5
A9
330
A2
100
AcDbEntity
  8
1
 62
     2
100
AcDbTrace
 10
-168.7892154351796
 20
76.00000000001498
 30
0.0
 11
-169.7107829182914
 21
76.00000000001498
 31
0.0
 12
-169.2499991767355
 22
79.50000000001498
 32
0.0
 13
-169.2499991767355
 23
79.50000000001498
 33
0.0
  0
MTEXT
  5
AB
330
A2
100
AcDbEntity
  8
1
 62
     3
100
AcDbMText
 10
-170.7499991767355
 20
86.41959492049077
 30
0.0
 40
3.5
 41
0.0
 71
     7
 72
     1
  1
1
  7
CONVERTER_11
 11
0.0
 21
1.0
 31
0.0
 73
     1
 44
0.60024009603842
  0
ENDBLK
  5
AD
330
A2
100
AcDbEntity
  8
0
100
AcDbBlockEnd
  0
BLOCK
  5
DB
330
D4
100
AcDbEntity
  8
0
100
AcDbBlockBegin
  2
*D18
 70
     1
 10
0.0
 20
0.0
 30
0.0
  3
*D18
  1

  0
LINE
  5
D5
330
D4
100
AcDbEntity
  8
1
  6
Continuous
 62
     2
100
AcDbLine
 10
-159.2499991767355
 20
108.0172649475466
 30
0.0
 11
-102.7499991767355
 21
108.0172649475466
 31
0.0
  0
LINE
  5
D6
330
D4
100
AcDbEntity
  8
1
  6
Continuous
 62
     2
100
AcDbLine
 10
-159.2499991767355
 20
120.7641706482394
 30
0.0
 11
-159.2499991767355
 21
106.5172649475466
 31
0.0
  0
LINE
  5
D7
330
D4
100
AcDbEntity
  8
1
  6
Continuous
 62
     2
100
AcDbLine
 10
-102.7499991767355
 20
120.7641706482394
 30
0.0
 11
-102.7499991767355
 21
106.5172649475466
 31
0.0
  0
SOLID
  5
D8
330
D4
100
AcDbEntity
  8
1
 62
     2
100
AcDbTrace
 10
-155.7499991767355
 20
108.4780486891025
 30
0.0
 11
-155.7499991767355
 21
107.5564812059907
 31
0.0
 12
-159.2499991767355
 22
108.0172649475466
 32
0.0
 13
-159.2499991767355
 23
108.0172649475466
 33
0.0
  0
SOLID
  5
D9
330
D4
100
AcDbEntity
  8
1
 62
     2
100
AcDbTrace
 10
-106.2499991767355
 20
107.5564812059907
 30
0.0
 11
-106.2499991767355
 21
108.4780486891025
 31
0.0
 12
-102.7499991767355
 22
108.0172649475466
 32
0.0
 13
-102.7499991767355
 23
108.0172649475466
 33
0.0
  0
MTEXT
  5
DA
330
D4
100
AcDbEntity
  8
1
 62
     3
100
AcDbMText
 10
-134.671217752246
 20
109.8672649475466
 30
0.0
 40
3.5
 41
0.0
 71
     7
 72
     1
  1
56,5
  7
CONVERTER_11
 11
0.9999999999970619
 21
2.424068405545306E-6
 31
0.0
 73
     1
 44
0.60024009603842
  0
ENDBLK
  5
DC
330
D4
100
AcDbEntity
  8
0
100
AcDbBlockEnd
  0
BLOCK
  5
E6
330
DF
100
AcDbEntity
  8
0
100
AcDbBlockBegin
  2
*D19
 70
     1
 10
0.0
 20
0.0
 30
0.0
  3
*D19
  1

  0
LINE
  5
E0
330
DF
100
AcDbEntity
  8
1
  6
Continuous
 62
     2
100
AcDbLine
 10
-166.501941217162
 20
147.2999999721965
 30
0.0
 11
-166.501941217162
 21
118.4999999721965
 31
0.0
  0
LINE
  5
E1
330
DF
100
AcDbEntity
  8
1
  6
Continuous
 62
     2
100
AcDbLine
 10
-151.4499991767355
 20
147.2999999721965
 30
0.0
 11
-168.001941217162
 21
147.2999999721965
 31
0.0
  0
LINE
  5
E2
330
DF
100
AcDbEntity
  8
1
  6
Continuous
 62
     2
100
AcDbLine
 10
-150.7999991767355
 20
118.4999999721965
 30
0.0
 11
-168.001941217162
 21
118.4999999721965
 31
0.0
  0
SOLID
  5
E3
330
DF
100
AcDbEntity
  8
1
 62
     2
100
AcDbTrace
 10
-166.0411574756061
 20
143.7999999721965
 30
0.0
 11
-166.9627249587179
 21
143.7999999721965
 31
0.0
 12
-166.501941217162
 22
147.2999999721965
 32
0.0
 13
-166.501941217162
 23
147.2999999721965
 33
0.0
  0
SOLID
  5
E4
330
DF
100
AcDbEntity
  8
1
 62
     2
100
AcDbTrace
 10
-166.9627249587179
 20
121.9999999721965
 30
0.0
 11
-166.0411574756061
 21
121.9999999721965
 31
0.0
 12
-166.501941217162
 22
118.4999999721965
 32
0.0
 13
-166.501941217162
 23
118.4999999721965
 33
0.0
  0
MTEXT
  5
E5
330
DF
100
AcDbEntity
  8
1
 62
     3
100
AcDbMText
 10
-168.351941217162
 20
126.892528592961
 30
0.0
 40
3.5
 41
0.0
 71
     7
 72
     1
  1
28,8
  7
CONVERTER_11
 11
0.0
 21
1.0
 31
0.0
 73
     1
 44
0.60024009603842
  0
ENDBLK
  5
E7
330
DF
100
AcDbEntity
  8
0
100
AcDbBlockEnd
  0
ENDSEC
  0
SECTION
  2
ENTITIES
  0
INSERT
  5
86
330
1F
100
AcDbEntity
  8
1
100
AcDbBlockReference
  2
1
 10
0.0
 20
0.0
 30
0.0
  0
ENDSEC
  0
SECTION
  2
OBJECTS
  0
DICTIONARY
  5
C
330
0
100
AcDbDictionary
281
     1
  3
ACAD_GROUP
350
D
  3
ACAD_LAYOUT
350
1A
  3
ACAD_MATERIAL
350
3B
  3
ACAD_MLEADERSTYLE
350
24A
  3
ACAD_MLINESTYLE
350
17
  3
ACAD_PLOTSETTINGS
350
19
  3
ACAD_PLOTSTYLENAME
350
E
  3
ACAD_TABLESTYLE
350
249
  3
ACAD_VISUALSTYLE
350
2A
  0
DICTIONARY
  5
D
102
{ACAD_REACTORS
330
C
102
}
330
C
100
AcDbDictionary
281
     1
  0
DICTIONARY
  5
1A
102
{ACAD_REACTORS
330
C
102
}
330
C
100
AcDbDictionary
281
     1
  3
Layout1
350
1E
  3
Layout2
350
26
  3
Model
350
22
  0
DICTIONARY
  5
3B
102
{ACAD_REACTORS
330
C
102
}
330
C
100
AcDbDictionary
281
     1
  3
ByBlock
350
3D
  3
ByLayer
350
3C
  3
Global
350
3E
  0
DICTIONARY
  5
24A
102
{ACAD_REACTORS
330
C
102
}
330
C
100
AcDbDictionary
281
     1
  0
DICTIONARY
  5
17
102
{ACAD_REACTORS
330
C
102
}
330
C
100
AcDbDictionary
281
     1
  3
Standard
350
18
  0
DICTIONARY
  5
19
102
{ACAD_REACTORS
330
C
102
}
330
C
100
AcDbDictionary
281
     1
  0
ACDBDICTIONARYWDFLT
  5
E
102
{ACAD_REACTORS
330
C
102
}
330
C
100
AcDbDictionary
281
     1
  3
Normal
350
F
100
AcDbDictionaryWithDefault
340
F
  0
DICTIONARY
  5
249
102
{ACAD_REACTORS
330
C
102
}
330
C
100
AcDbDictionary
281
     1
  0
DICTIONARY
  5
2A
102
{ACAD_REACTORS
330
C
102
}
330
C
100
AcDbDictionary
281
     1
  3
2dWireframe
350
2F
  3
3D Hidden
350
31
  3
3dWireframe
350
30
  3
Basic
350
32
  3
Brighten
350
36
  3
ColorChange
350
3A
  3
Conceptual
350
34
  3
Dim
350
35
  3
Facepattern
350
39
  3
Flat
350
2B
  3
FlatWithEdges
350
2C
  3
Gouraud
350
2D
  3
GouraudWithEdges
350
2E
  3
Linepattern
350
38
  3
Realistic
350
33
  3
Thicken
350
37
  0
LAYOUT
  5
1E
102
{ACAD_REACTORS
330
1A
102
}
330
1A
100
AcDbPlotSettings
  1

  2
none_device
  4

  6

 40
0.0
 41
0.0
 42
0.0
 43
0.0
 44
0.0
 45
0.0
 46
0.0
 47
0.0
 48
0.0
 49
0.0
140
0.0
141
0.0
142
1.0
143
1.0
 70
   688
 72
     0
 73
     0
 74
     5
  7

 75
    16
 76
     0
 77
     2
 78
   300
147
1.0
148
0.0
149
0.0
100
AcDbLayout
  1
Layout1
 70
     1
 71
     1
 10
0.0
 20
0.0
 11
12.0
 21
9.0
 12
0.0
 22
0.0
 32
0.0
 14
1.00000000000000E+20
 24
1.00000000000000E+20
 34
1.00000000000000E+20
 15
-1.00000000000000E+20
 25
-1.00000000000000E+20
 35
-1.00000000000000E+20
146
0.0
 13
0.0
 23
0.0
 33
0.0
 16
1.0
 26
0.0
 36
0.0
 17
0.0
 27
1.0
 37
0.0
 76
     0
330
1B
  0
LAYOUT
  5
26
102
{ACAD_REACTORS
330
1A
102
}
330
1A
100
AcDbPlotSettings
  1

  2
none_device
  4

  6

 40
0.0
 41
0.0
 42
0.0
 43
0.0
 44
0.0
 45
0.0
 46
0.0
 47
0.0
 48
0.0
 49
0.0
140
0.0
141
0.0
142
1.0
143
1.0
 70
   688
 72
     0
 73
     0
 74
     5
  7

 75
    16
 76
     0
 77
     2
 78
   300
147
1.0
148
0.0
149
0.0
100
AcDbLayout
  1
Layout2
 70
     1
 71
     2
 10
0.0
 20
0.0
 11
0.0
 21
0.0
 12
0.0
 22
0.0
 32
0.0
 14
0.0
 24
0.0
 34
0.0
 15
0.0
 25
0.0
 35
0.0
146
0.0
 13
0.0
 23
0.0
 33
0.0
 16
1.0
 26
0.0
 36
0.0
 17
0.0
 27
1.0
 37
0.0
 76
     0
330
23
  0
LAYOUT
  5
22
102
{ACAD_REACTORS
330
1A
102
}
330
1A
100
AcDbPlotSettings
  1

  2
none_device
  4

  6

 40
0.0
 41
0.0
 42
0.0
 43
0.0
 44
0.0
 45
0.0
 46
0.0
 47
0.0
 48
0.0
 49
0.0
140
0.0
141
0.0
142
1.0
143
1.0
 70
  1712
 72
     0
 73
     0
 74
     0
  7

 75
     0
 76
     0
 77
     2
 78
   300
147
1.0
148
0.0
149
0.0
100
AcDbLayout
  1
Model
 70
     1
 71
     0
 10
0.0
 20
0.0
 11
12.0
 21
9.0
 12
0.0
 22
0.0
 32
0.0
 14
-238.7500007990565
 24
5.27511395893936
 34
0.0
 15
58.2499992009416
 25
215.2751139589395
 35
0.0
146
0.0
 13
0.0
 23
0.0
 33
0.0
 16
1.0
 26
0.0
 36
0.0
 17
0.0
 27
1.0
 37
0.0
 76
     0
330
1F
331
29
  0
MATERIAL
  5
3D
102
{ACAD_REACTORS
330
3B
102
}
102
{ACAD_XDICTIONARY
360
245
102
}
330
3B
100
AcDbMaterial
  1
ByBlock
  0
MATERIAL
  5
3C
102
{ACAD_REACTORS
330
3B
102
}
102
{ACAD_XDICTIONARY
360
243
102
}
330
3B
100
AcDbMaterial
  1
ByLayer
  0
MATERIAL
  5
3E
102
{ACAD_REACTORS
330
3B
102
}
102
{ACAD_XDICTIONARY
360
247
102
}
330
3B
100
AcDbMaterial
  1
Global
  0
MLINESTYLE
  5
18
102
{ACAD_REACTORS
330
17
102
}
330
17
100
AcDbMlineStyle
  2
Standard
 70
     0
  3

 62
   256
 51
90.0
 52
90.0
 71
     2
 49
0.5
 62
   256
  6
BYLAYER
 49
-0.5
 62
   256
  6
BYLAYER
  0
ACDBPLACEHOLDER
  5
F
102
{ACAD_REACTORS
330
E
102
}
330
E
  0
VISUALSTYLE
  5
2F
102
{ACAD_REACTORS
330
2A
102
}
102
{ACAD_XDICTIONARY
360
22B
102
}
330
2A
100
AcDbVisualStyle
  2
2dWireframe
 70
     4
 71
     0
 72
     2
 73
     0
 90
        0
 40
-0.6
 41
-30.0
 62
     5
 63
     7
421
 16777215
 74
     1
 91
        4
 64
     7
 65
   257
 75
     1
175
     1
 42
1.0
 92
        0
 66
   257
 43
1.0
 76
     1
 77
     6
 78
     2
 67
     7
 79
     5
170
     0
171
     0
290
     0
174
     0
 93
        1
 44
0.0
173
     0
291
     0
 45
0.0
1001
ACAD
1000
AcDbSavedByObjectVersion
1070
     0
  0
VISUALSTYLE
  5
31
102
{ACAD_REACTORS
330
2A
102
}
102
{ACAD_XDICTIONARY
360
22F
102
}
330
2A
100
AcDbVisualStyle
  2
3D Hidden
 70
     6
 71
     1
 72
     2
 73
     2
 90
        0
 40
-0.6
 41
-30.0
 62
     5
 63
     7
421
 16777215
 74
     2
 91
        2
 64
     7
 65
   257
 75
     2
175
     1
 42
40.0
 92
        0
 66
   257
 43
1.0
 76
     1
 77
     6
 78
     2
 67
     7
 79
     3
170
     0
171
     0
290
     0
174
     0
 93
        1
 44
0.0
173
     0
291
     0
 45
0.0
1001
ACAD
1000
AcDbSavedByObjectVersion
1070
     0
  0
VISUALSTYLE
  5
30
102
{ACAD_REACTORS
330
2A
102
}
102
{ACAD_XDICTIONARY
360
22D
102
}
330
2A
100
AcDbVisualStyle
  2
3dWireframe
 70
     5
 71
     0
 72
     2
 73
     0
 90
        0
 40
-0.6
 41
-30.0
 62
     5
 63
     7
421
 16777215
 74
     1
 91
        4
 64
     7
 65
   257
 75
     1
175
     1
 42
1.0
 92
        0
 66
   257
 43
1.0
 76
     1
 77
     6
 78
     2
 67
     7
 79
     5
170
     0
171
     0
290
     0
174
     0
 93
        1
 44
0.0
173
     0
291
     0
 45
0.0
1001
ACAD
1000
AcDbSavedByObjectVersion
1070
     0
  0
VISUALSTYLE
  5
32
102
{ACAD_REACTORS
330
2A
102
}
102
{ACAD_XDICTIONARY
360
231
102
}
330
2A
100
AcDbVisualStyle
  2
Basic
 70
     7
 71
     1
 72
     0
 73
     1
 90
        0
 40
-0.6
 41
-30.0
 62
     5
 63
     7
421
 16777215
 74
     0
 91
        4
 64
     7
 65
   257
 75
     1
175
     1
 42
1.0
 92
        8
 66
     7
 43
1.0
 76
     1
 77
     6
 78
     2
 67
     7
 79
     5
170
     0
171
     0
290
     0
174
     0
 93
        1
 44
0.0
173
     0
291
     1
 45
0.0
1001
ACAD
1000
AcDbSavedByObjectVersion
1070
     0
  0
VISUALSTYLE
  5
36
102
{ACAD_REACTORS
330
2A
102
}
102
{ACAD_XDICTIONARY
360
239
102
}
330
2A
100
AcDbVisualStyle
  2
Brighten
 70
    12
 71
     2
 72
     2
 73
     0
 90
        0
 40
-0.6
 41
-30.0
 62
     5
 63
     7
421
 16777215
 74
     1
 91
        4
 64
     7
 65
   257
 75
     1
175
     1
 42
1.0
 92
        8
 66
     7
 43
1.0
 76
     1
 77
     6
 78
     2
 67
     7
 79
     5
170
     0
171
     0
290
     0
174
     0
 93
        1
 44
50.0
173
     0
291
     1
 45
0.0
1001
ACAD
1000
AcDbSavedByObjectVersion
1070
     0
  0
VISUALSTYLE
  5
3A
102
{ACAD_REACTORS
330
2A
102
}
102
{ACAD_XDICTIONARY
360
241
102
}
330
2A
100
AcDbVisualStyle
  2
ColorChange
 70
    16
 71
     2
 72
     2
 73
     3
 90
        0
 40
-0.6
 41
-30.0
 62
     5
 63
     8
421
  8421504
 74
     1
 91
        4
 64
     7
 65
   257
 75
     1
175
     1
 42
1.0
 92
        8
 66
     8
424
  8421504
 43
1.0
 76
     1
 77
     6
 78
     2
 67
     7
 79
     5
170
     0
171
     0
290
     0
174
     0
 93
        1
 44
0.0
173
     0
291
     1
 45
0.0
1001
ACAD
1000
AcDbSavedByObjectVersion
1070
     0
  0
VISUALSTYLE
  5
34
102
{ACAD_REACTORS
330
2A
102
}
102
{ACAD_XDICTIONARY
360
235
102
}
330
2A
100
AcDbVisualStyle
  2
Conceptual
 70
     9
 71
     3
 72
     2
 73
     0
 90
        0
 40
-0.6
 41
-30.0
 62
     5
 63
     7
421
 16777215
 74
     2
 91
        2
 64
     7
 65
   257
 75
     1
175
     1
 42
40.0
 92
        8
 66
     7
 43
1.0
 76
     1
 77
     6
 78
     2
 67
     7
 79
     3
170
     0
171
     0
290
     0
174
     0
 93
        1
 44
0.0
173
     0
291
     0
 45
0.0
1001
ACAD
1000
AcDbSavedByObjectVersion
1070
     0
  0
VISUALSTYLE
  5
35
102
{ACAD_REACTORS
330
2A
102
}
102
{ACAD_XDICTIONARY
360
237
102
}
330
2A
100
AcDbVisualStyle
  2
Dim
 70
    11
 71
     2
 72
     2
 73
     0
 90
        0
 40
-0.6
 41
-30.0
 62
     5
 63
     7
421
 16777215
 74
     1
 91
        4
 64
     7
 65
   257
 75
     1
175
     1
 42
1.0
 92
        8
 66
     7
 43
1.0
 76
     1
 77
     6
 78
     2
 67
     7
 79
     5
170
     0
171
     0
290
     0
174
     0
 93
        1
 44
-50.0
173
     0
291
     1
 45
0.0
1001
ACAD
1000
AcDbSavedByObjectVersion
1070
     0
  0
VISUALSTYLE
  5
39
102
{ACAD_REACTORS
330
2A
102
}
102
{ACAD_XDICTIONARY
360
23F
102
}
330
2A
100
AcDbVisualStyle
  2
Facepattern
 70
    15
 71
     2
 72
     2
 73
     0
 90
        0
 40
-0.6
 41
-30.0
 62
     5
 63
     7
421
 16777215
 74
     1
 91
        4
 64
     7
 65
   257
 75
     1
175
     1
 42
1.0
 92
        8
 66
     7
 43
1.0
 76
     1
 77
     6
 78
     2
 67
     7
 79
     5
170
     0
171
     0
290
     0
174
     0
 93
        1
 44
0.0
173
     0
291
     1
 45
0.0
1001
ACAD
1000
AcDbSavedByObjectVersion
1070
     0
  0
VISUALSTYLE
  5
2B
102
{ACAD_REACTORS
330
2A
102
}
102
{ACAD_XDICTIONARY
360
223
102
}
330
2A
100
AcDbVisualStyle
  2
Flat
 70
     0
 71
     2
 72
     1
 73
     1
 90
        2
 40
-0.6
 41
30.0
 62
     5
 63
     7
421
 16777215
 74
     0
 91
        4
 64
     7
 65
   257
 75
     1
175
     1
 42
1.0
 92
        8
 66
     7
 43
1.0
 76
     1
 77
     6
 78
     2
 67
     7
 79
     5
170
     0
171
     0
290
     0
174
     0
 93
       13
 44
0.0
173
     0
291
     1
 45
0.0
1001
ACAD
1000
AcDbSavedByObjectVersion
1070
     0
  0
VISUALSTYLE
  5
2C
102
{ACAD_REACTORS
330
2A
102
}
102
{ACAD_XDICTIONARY
360
225
102
}
330
2A
100
AcDbVisualStyle
  2
FlatWithEdges
 70
     1
 71
     2
 72
     1
 73
     1
 90
        2
 40
-0.6
 41
30.0
 62
     5
 63
     7
421
 16777215
 74
     1
 91
        4
 64
     7
 65
   257
 75
     1
175
     1
 42
1.0
 92
        0
 66
   257
 43
1.0
 76
     1
 77
     6
 78
     2
 67
     7
 79
     5
170
     0
171
     0
290
     0
174
     0
 93
       13
 44
0.0
173
     0
291
     1
 45
0.0
1001
ACAD
1000
AcDbSavedByObjectVersion
1070
     0
  0
VISUALSTYLE
  5
2D
102
{ACAD_REACTORS
330
2A
102
}
102
{ACAD_XDICTIONARY
360
227
102
}
330
2A
100
AcDbVisualStyle
  2
Gouraud
 70
     2
 71
     2
 72
     2
 73
     1
 90
        2
 40
-0.6
 41
30.0
 62
     5
 63
     7
421
 16777215
 74
     0
 91
        4
 64
     7
 65
   257
 75
     1
175
     1
 42
1.0
 92
        0
 66
     7
 43
1.0
 76
     1
 77
     6
 78
     2
 67
     7
 79
     5
170
     0
171
     0
290
     0
174
     0
 93
       13
 44
0.0
173
     0
291
     1
 45
0.0
1001
ACAD
1000
AcDbSavedByObjectVersion
1070
     0
  0
VISUALSTYLE
  5
2E
102
{ACAD_REACTORS
330
2A
102
}
102
{ACAD_XDICTIONARY
360
229
102
}
330
2A
100
AcDbVisualStyle
  2
GouraudWithEdges
 70
     3
 71
     2
 72
     2
 73
     1
 90
        2
 40
-0.6
 41
30.0
 62
     5
 63
     7
421
 16777215
 74
     1
 91
        4
 64
     7
 65
   257
 75
     1
175
     1
 42
1.0
 92
        0
 66
   257
 43
1.0
 76
     1
 77
     6
 78
     2
 67
     7
 79
     5
170
     0
171
     0
290
     0
174
     0
 93
       13
 44
0.0
173
     0
291
     1
 45
0.0
1001
ACAD
1000
AcDbSavedByObjectVersion
1070
     0
  0
VISUALSTYLE
  5
38
102
{ACAD_REACTORS
330
2A
102
}
102
{ACAD_XDICTIONARY
360
23D
102
}
330
2A
100
AcDbVisualStyle
  2
Linepattern
 70
    14
 71
     2
 72
     2
 73
     0
 90
        0
 40
-0.6
 41
-30.0
 62
     5
 63
     7
421
 16777215
 74
     1
 91
        4
 64
     7
 65
   257
 75
     7
175
     7
 42
1.0
 92
        8
 66
     7
 43
1.0
 76
     1
 77
     6
 78
     2
 67
     7
 79
     5
170
     0
171
     0
290
     0
174
     0
 93
        1
 44
0.0
173
     0
291
     1
 45
0.0
1001
ACAD
1000
AcDbSavedByObjectVersion
1070
     0
  0
VISUALSTYLE
  5
33
102
{ACAD_REACTORS
330
2A
102
}
102
{ACAD_XDICTIONARY
360
233
102
}
330
2A
100
AcDbVisualStyle
  2
Realistic
 70
     8
 71
     2
 72
     2
 73
     0
 90
        0
 40
-0.6
 41
-30.0
 62
     5
 63
     7
421
 16777215
 74
     1
 91
        0
 64
     7
 65
   257
 75
     1
175
     1
 42
1.0
 92
        8
 66
     8
424
  7895160
 43
1.0
 76
     1
 77
     6
 78
     2
 67
     7
 79
     5
170
     0
171
     0
290
     0
174
     0
 93
       13
 44
0.0
173
     0
291
     0
 45
0.0
1001
ACAD
1000
AcDbSavedByObjectVersion
1070
     0
  0
VISUALSTYLE
  5
37
102
{ACAD_REACTORS
330
2A
102
}
102
{ACAD_XDICTIONARY
360
23B
102
}
330
2A
100
AcDbVisualStyle
  2
Thicken
 70
    13
 71
     2
 72
     2
 73
     0
 90
        0
 40
-0.6
 41
-30.0
 62
     5
 63
     7
421
 16777215
 74
     1
 91
        4
 64
     7
 65
   257
 75
     1
175
     1
 42
1.0
 92
       12
 66
     7
 43
1.0
 76
     1
 77
     6
 78
     2
 67
     7
 79
     5
170
     0
171
     0
290
     0
174
     0
 93
        1
 44
0.0
173
     0
291
     1
 45
0.0
1001
ACAD
1000
AcDbSavedByObjectVersion
1070
     0
  0
DICTIONARY
  5
245
330
3D
100
AcDbDictionary
280
     1
281
     1
  3
ACAD_XREC_ROUNDTRIP
360
246
  0
DICTIONARY
  5
243
330
3C
100
AcDbDictionary
280
     1
281
     1
  3
ACAD_XREC_ROUNDTRIP
360
244
  0
DICTIONARY
  5
247
330
3E
100
AcDbDictionary
280
     1
281
     1
  3
ACAD_XREC_ROUNDTRIP
360
248
  0
DICTIONARY
  5
22B
330
2F
100
AcDbDictionary
280
     1
281
     1
  3
ACAD_XREC_ROUNDTRIP
360
22C
  0
DICTIONARY
  5
22F
330
31
100
AcDbDictionary
280
     1
281
     1
  3
ACAD_XREC_ROUNDTRIP
360
230
  0
DICTIONARY
  5
22D
330
30
100
AcDbDictionary
280
     1
281
     1
  3
ACAD_XREC_ROUNDTRIP
360
22E
  0
DICTIONARY
  5
231
330
32
100
AcDbDictionary
280
     1
281
     1
  3
ACAD_XREC_ROUNDTRIP
360
232
  0
DICTIONARY
  5
239
330
36
100
AcDbDictionary
280
     1
281
     1
  3
ACAD_XREC_ROUNDTRIP
360
23A
  0
DICTIONARY
  5
241
330
3A
100
AcDbDictionary
280
     1
281
     1
  3
ACAD_XREC_ROUNDTRIP
360
242
  0
DICTIONARY
  5
235
330
34
100
AcDbDictionary
280
     1
281
     1
  3
ACAD_XREC_ROUNDTRIP
360
236
  0
DICTIONARY
  5
237
330
35
100
AcDbDictionary
280
     1
281
     1
  3
ACAD_XREC_ROUNDTRIP
360
238
  0
DICTIONARY
  5
23F
330
39
100
AcDbDictionary
280
     1
281
     1
  3
ACAD_XREC_ROUNDTRIP
360
240
  0
DICTIONARY
  5
223
330
2B
100
AcDbDictionary
280
     1
281
     1
  3
ACAD_XREC_ROUNDTRIP
360
224
  0
DICTIONARY
  5
225
330
2C
100
AcDbDictionary
280
     1
281
     1
  3
ACAD_XREC_ROUNDTRIP
360
226
  0
DICTIONARY
  5
227
330
2D
100
AcDbDictionary
280
     1
281
     1
  3
ACAD_XREC_ROUNDTRIP
360
228
  0
DICTIONARY
  5
229
330
2E
100
AcDbDictionary
280
     1
281
     1
  3
ACAD_XREC_ROUNDTRIP
360
22A
  0
DICTIONARY
  5
23D
330
38
100
AcDbDictionary
280
     1
281
     1
  3
ACAD_XREC_ROUNDTRIP
360
23E
  0
DICTIONARY
  5
233
330
33
100
AcDbDictionary
280
     1
281
     1
  3
ACAD_XREC_ROUNDTRIP
360
234
  0
DICTIONARY
  5
23B
330
37
100
AcDbDictionary
280
     1
281
     1
  3
ACAD_XREC_ROUNDTRIP
360
23C
  0
XRECORD
  5
246
102
{ACAD_REACTORS
330
245
102
}
330
245
100
AcDbXrecord
280
     1
102
MATERIAL
148
0.0
149
0.0
149
0.0
 93
        0
 94
      127
282
     0
 72
     1
 77
     1
171
     1
175
     1
179
     1
273
     0
  0
XRECORD
  5
244
102
{ACAD_REACTORS
330
243
102
}
330
243
100
AcDbXrecord
280
     1
102
MATERIAL
148
0.0
149
0.0
149
0.0
 93
        0
 94
      127
282
     0
 72
     1
 77
     1
171
     1
175
     1
179
     1
273
     0
  0
XRECORD
  5
248
102
{ACAD_REACTORS
330
247
102
}
330
247
100
AcDbXrecord
280
     1
102
MATERIAL
148
0.0
149
0.0
149
0.0
 93
        0
 94
      127
282
     0
 72
     1
 77
     1
171
     1
175
     1
179
     1
273
     0
  0
XRECORD
  5
22C
102
{ACAD_REACTORS
330
22B
102
}
330
22B
100
AcDbXrecord
280
     1
102
RTVSPropertyOp0
 70
     1
102
RTVSPropertyOp1
 70
     1
102
RTVSPropertyOp2
 70
     1
102
RTVSPropertyOp3
 70
     1
102
RTVSPropertyOp4
 70
     1
102
RTVSPropertyOp5
 70
     1
102
RTVSPropertyOp6
 70
     1
102
RTVSPropertyOp7
 70
     1
102
RTVSPropertyOp8
 70
     1
102
RTVSPropertyOp9
 70
     1
102
RTVSPropertyOp10
 70
     1
102
RTVSPropertyOp11
 70
     1
102
RTVSPropertyOp12
 70
     1
102
RTVSPropertyOp13
 70
     1
102
RTVSPropertyOp14
 70
     1
102
RTVSPropertyOp15
 70
     1
102
RTVSPropertyOp16
 70
     1
102
RTVSPropertyOp17
 70
     1
102
RTVSPropertyOp18
 70
     1
102
RTVSPropertyOp19
 70
     1
102
RTVSPropertyOp20
 70
     1
102
RTVSPropertyOp21
 70
     1
102
RTVSPropertyOp22
 70
     1
102
RTVSPropertyOp23
 70
     1
102
RTVSPropertyOp24
 70
     1
102
RTVSPropertyOp25
 70
     1
102
RTVSPropertyOp26
 70
     1
102
RTVSPropertyOp27
 70
     1
102
RTVSPropertyOp28
 70
     1
102
RTVSPropertyOp29
 70
     1
102
RTVSPropertyOp30
 70
     1
102
RTVSPropertyOp31
 70
     1
102
RTVSPropertyOp32
 70
     1
  0
XRECORD
  5
230
102
{ACAD_REACTORS
330
22F
102
}
330
22F
100
AcDbXrecord
280
     1
102
RTVSPropertyOp0
 70
     1
102
RTVSPropertyOp1
 70
     1
102
RTVSPropertyOp2
 70
     1
102
RTVSPropertyOp3
 70
     1
102
RTVSPropertyOp4
 70
     1
102
RTVSPropertyOp5
 70
     1
102
RTVSPropertyOp6
 70
     1
102
RTVSPropertyOp7
 70
     1
102
RTVSPropertyOp8
 70
     1
102
RTVSPropertyOp9
 70
     1
102
RTVSPropertyOp10
 70
     1
102
RTVSPropertyOp11
 70
     1
102
RTVSPropertyOp12
 70
     1
102
RTVSPropertyOp13
 70
     1
102
RTVSPropertyOp14
 70
     1
102
RTVSPropertyOp15
 70
     1
102
RTVSPropertyOp16
 70
     1
102
RTVSPropertyOp17
 70
     1
102
RTVSPropertyOp18
 70
     1
102
RTVSPropertyOp19
 70
     1
102
RTVSPropertyOp20
 70
     1
102
RTVSPropertyOp21
 70
     1
102
RTVSPropertyOp22
 70
     1
102
RTVSPropertyOp23
 70
     1
102
RTVSPropertyOp24
 70
     1
102
RTVSPropertyOp25
 70
     1
102
RTVSPropertyOp26
 70
     1
102
RTVSPropertyOp27
 70
     1
102
RTVSPropertyOp28
 70
     1
102
RTVSPropertyOp29
 70
     1
102
RTVSPropertyOp30
 70
     1
102
RTVSPropertyOp31
 70
     1
102
RTVSPropertyOp32
 70
     1
  0
XRECORD
  5
22E
102
{ACAD_REACTORS
330
22D
102
}
330
22D
100
AcDbXrecord
280
     1
102
RTVSPropertyOp0
 70
     1
102
RTVSPropertyOp1
 70
     1
102
RTVSPropertyOp2
 70
     1
102
RTVSPropertyOp3
 70
     1
102
RTVSPropertyOp4
 70
     1
102
RTVSPropertyOp5
 70
     1
102
RTVSPropertyOp6
 70
     1
102
RTVSPropertyOp7
 70
     1
102
RTVSPropertyOp8
 70
     1
102
RTVSPropertyOp9
 70
     1
102
RTVSPropertyOp10
 70
     1
102
RTVSPropertyOp11
 70
     1
102
RTVSPropertyOp12
 70
     1
102
RTVSPropertyOp13
 70
     1
102
RTVSPropertyOp14
 70
     1
102
RTVSPropertyOp15
 70
     1
102
RTVSPropertyOp16
 70
     1
102
RTVSPropertyOp17
 70
     1
102
RTVSPropertyOp18
 70
     1
102
RTVSPropertyOp19
 70
     1
102
RTVSPropertyOp20
 70
     1
102
RTVSPropertyOp21
 70
     1
102
RTVSPropertyOp22
 70
     1
102
RTVSPropertyOp23
 70
     1
102
RTVSPropertyOp24
 70
     1
102
RTVSPropertyOp25
 70
     1
102
RTVSPropertyOp26
 70
     1
102
RTVSPropertyOp27
 70
     1
102
RTVSPropertyOp28
 70
     1
102
RTVSPropertyOp29
 70
     1
102
RTVSPropertyOp30
 70
     1
102
RTVSPropertyOp31
 70
     1
102
RTVSPropertyOp32
 70
     1
  0
XRECORD
  5
232
102
{ACAD_REACTORS
330
231
102
}
330
231
100
AcDbXrecord
280
     1
102
RTVSPropertyOp0
 70
     1
102
RTVSPropertyOp1
 70
     1
102
RTVSPropertyOp2
 70
     1
102
RTVSPropertyOp3
 70
     1
102
RTVSPropertyOp4
 70
     1
102
RTVSPropertyOp5
 70
     1
102
RTVSPropertyOp6
 70
     1
102
RTVSPropertyOp7
 70
     1
102
RTVSPropertyOp8
 70
     1
102
RTVSPropertyOp9
 70
     1
102
RTVSPropertyOp10
 70
     1
102
RTVSPropertyOp11
 70
     1
102
RTVSPropertyOp12
 70
     1
102
RTVSPropertyOp13
 70
     1
102
RTVSPropertyOp14
 70
     1
102
RTVSPropertyOp15
 70
     1
102
RTVSPropertyOp16
 70
     1
102
RTVSPropertyOp17
 70
     1
102
RTVSPropertyOp18
 70
     1
102
RTVSPropertyOp19
 70
     1
102
RTVSPropertyOp20
 70
     1
102
RTVSPropertyOp21
 70
     1
102
RTVSPropertyOp22
 70
     1
102
RTVSPropertyOp23
 70
     1
102
RTVSPropertyOp24
 70
     1
102
RTVSPropertyOp25
 70
     1
102
RTVSPropertyOp26
 70
     1
102
RTVSPropertyOp27
 70
     1
102
RTVSPropertyOp28
 70
     1
102
RTVSPropertyOp29
 70
     1
102
RTVSPropertyOp30
 70
     1
102
RTVSPropertyOp31
 70
     1
102
RTVSPropertyOp32
 70
     1
  0
XRECORD
  5
23A
102
{ACAD_REACTORS
330
239
102
}
330
239
100
AcDbXrecord
280
     1
102
RTVSPropertyOp0
 70
     1
102
RTVSPropertyOp1
 70
     1
102
RTVSPropertyOp2
 70
     1
102
RTVSPropertyOp3
 70
     1
102
RTVSPropertyOp4
 70
     1
102
RTVSPropertyOp5
 70
     1
102
RTVSPropertyOp6
 70
     1
102
RTVSPropertyOp7
 70
     1
102
RTVSPropertyOp8
 70
     1
102
RTVSPropertyOp9
 70
     1
102
RTVSPropertyOp10
 70
     1
102
RTVSPropertyOp11
 70
     1
102
RTVSPropertyOp12
 70
     1
102
RTVSPropertyOp13
 70
     1
102
RTVSPropertyOp14
 70
     1
102
RTVSPropertyOp15
 70
     1
102
RTVSPropertyOp16
 70
     1
102
RTVSPropertyOp17
 70
     1
102
RTVSPropertyOp18
 70
     1
102
RTVSPropertyOp19
 70
     1
102
RTVSPropertyOp20
 70
     1
102
RTVSPropertyOp21
 70
     1
102
RTVSPropertyOp22
 70
     1
102
RTVSPropertyOp23
 70
     1
102
RTVSPropertyOp24
 70
     1
102
RTVSPropertyOp25
 70
     1
102
RTVSPropertyOp26
 70
     1
102
RTVSPropertyOp27
 70
     1
102
RTVSPropertyOp28
 70
     1
102
RTVSPropertyOp29
 70
     1
102
RTVSPropertyOp30
 70
     1
102
RTVSPropertyOp31
 70
     1
102
RTVSPropertyOp32
 70
     1
  0
XRECORD
  5
242
102
{ACAD_REACTORS
330
241
102
}
330
241
100
AcDbXrecord
280
     1
102
RTVSPropertyOp0
 70
     1
102
RTVSPropertyOp1
 70
     1
102
RTVSPropertyOp2
 70
     1
102
RTVSPropertyOp3
 70
     1
102
RTVSPropertyOp4
 70
     1
102
RTVSPropertyOp5
 70
     1
102
RTVSPropertyOp6
 70
     1
102
RTVSPropertyOp7
 70
     1
102
RTVSPropertyOp8
 70
     1
102
RTVSPropertyOp9
 70
     1
102
RTVSPropertyOp10
 70
     1
102
RTVSPropertyOp11
 70
     1
102
RTVSPropertyOp12
 70
     1
102
RTVSPropertyOp13
 70
     1
102
RTVSPropertyOp14
 70
     1
102
RTVSPropertyOp15
 70
     1
102
RTVSPropertyOp16
 70
     1
102
RTVSPropertyOp17
 70
     1
102
RTVSPropertyOp18
 70
     1
102
RTVSPropertyOp19
 70
     1
102
RTVSPropertyOp20
 70
     1
102
RTVSPropertyOp21
 70
     1
102
RTVSPropertyOp22
 70
     1
102
RTVSPropertyOp23
 70
     1
102
RTVSPropertyOp24
 70
     1
102
RTVSPropertyOp25
 70
     1
102
RTVSPropertyOp26
 70
     1
102
RTVSPropertyOp27
 70
     1
102
RTVSPropertyOp28
 70
     1
102
RTVSPropertyOp29
 70
     1
102
RTVSPropertyOp30
 70
     1
102
RTVSPropertyOp31
 70
     1
102
RTVSPropertyOp32
 70
     1
  0
XRECORD
  5
236
102
{ACAD_REACTORS
330
235
102
}
330
235
100
AcDbXrecord
280
     1
102
RTVSPropertyOp0
 70
     1
102
RTVSPropertyOp1
 70
     1
102
RTVSPropertyOp2
 70
     1
102
RTVSPropertyOp3
 70
     1
102
RTVSPropertyOp4
 70
     1
102
RTVSPropertyOp5
 70
     1
102
RTVSPropertyOp6
 70
     1
102
RTVSPropertyOp7
 70
     1
102
RTVSPropertyOp8
 70
     1
102
RTVSPropertyOp9
 70
     1
102
RTVSPropertyOp10
 70
     1
102
RTVSPropertyOp11
 70
     1
102
RTVSPropertyOp12
 70
     1
102
RTVSPropertyOp13
 70
     1
102
RTVSPropertyOp14
 70
     1
102
RTVSPropertyOp15
 70
     1
102
RTVSPropertyOp16
 70
     1
102
RTVSPropertyOp17
 70
     1
102
RTVSPropertyOp18
 70
     1
102
RTVSPropertyOp19
 70
     1
102
RTVSPropertyOp20
 70
     1
102
RTVSPropertyOp21
 70
     1
102
RTVSPropertyOp22
 70
     1
102
RTVSPropertyOp23
 70
     1
102
RTVSPropertyOp24
 70
     1
102
RTVSPropertyOp25
 70
     1
102
RTVSPropertyOp26
 70
     1
102
RTVSPropertyOp27
 70
     1
102
RTVSPropertyOp28
 70
     1
102
RTVSPropertyOp29
 70
     1
102
RTVSPropertyOp30
 70
     1
102
RTVSPropertyOp31
 70
     1
102
RTVSPropertyOp32
 70
     1
  0
XRECORD
  5
238
102
{ACAD_REACTORS
330
237
102
}
330
237
100
AcDbXrecord
280
     1
102
RTVSPropertyOp0
 70
     1
102
RTVSPropertyOp1
 70
     1
102
RTVSPropertyOp2
 70
     1
102
RTVSPropertyOp3
 70
     1
102
RTVSPropertyOp4
 70
     1
102
RTVSPropertyOp5
 70
     1
102
RTVSPropertyOp6
 70
     1
102
RTVSPropertyOp7
 70
     1
102
RTVSPropertyOp8
 70
     1
102
RTVSPropertyOp9
 70
     1
102
RTVSPropertyOp10
 70
     1
102
RTVSPropertyOp11
 70
     1
102
RTVSPropertyOp12
 70
     1
102
RTVSPropertyOp13
 70
     1
102
RTVSPropertyOp14
 70
     1
102
RTVSPropertyOp15
 70
     1
102
RTVSPropertyOp16
 70
     1
102
RTVSPropertyOp17
 70
     1
102
RTVSPropertyOp18
 70
     1
102
RTVSPropertyOp19
 70
     1
102
RTVSPropertyOp20
 70
     1
102
RTVSPropertyOp21
 70
     1
102
RTVSPropertyOp22
 70
     1
102
RTVSPropertyOp23
 70
     1
102
RTVSPropertyOp24
 70
     1
102
RTVSPropertyOp25
 70
     1
102
RTVSPropertyOp26
 70
     1
102
RTVSPropertyOp27
 70
     1
102
RTVSPropertyOp28
 70
     1
102
RTVSPropertyOp29
 70
     1
102
RTVSPropertyOp30
 70
     1
102
RTVSPropertyOp31
 70
     1
102
RTVSPropertyOp32
 70
     1
  0
XRECORD
  5
240
102
{ACAD_REACTORS
330
23F
102
}
330
23F
100
AcDbXrecord
280
     1
102
RTVSPropertyOp0
 70
     1
102
RTVSPropertyOp1
 70
     1
102
RTVSPropertyOp2
 70
     1
102
RTVSPropertyOp3
 70
     1
102
RTVSPropertyOp4
 70
     1
102
RTVSPropertyOp5
 70
     1
102
RTVSPropertyOp6
 70
     1
102
RTVSPropertyOp7
 70
     1
102
RTVSPropertyOp8
 70
     1
102
RTVSPropertyOp9
 70
     1
102
RTVSPropertyOp10
 70
     1
102
RTVSPropertyOp11
 70
     1
102
RTVSPropertyOp12
 70
     1
102
RTVSPropertyOp13
 70
     1
102
RTVSPropertyOp14
 70
     1
102
RTVSPropertyOp15
 70
     1
102
RTVSPropertyOp16
 70
     1
102
RTVSPropertyOp17
 70
     1
102
RTVSPropertyOp18
 70
     1
102
RTVSPropertyOp19
 70
     1
102
RTVSPropertyOp20
 70
     1
102
RTVSPropertyOp21
 70
     1
102
RTVSPropertyOp22
 70
     1
102
RTVSPropertyOp23
 70
     1
102
RTVSPropertyOp24
 70
     1
102
RTVSPropertyOp25
 70
     1
102
RTVSPropertyOp26
 70
     1
102
RTVSPropertyOp27
 70
     1
102
RTVSPropertyOp28
 70
     1
102
RTVSPropertyOp29
 70
     1
102
RTVSPropertyOp30
 70
     1
102
RTVSPropertyOp31
 70
     1
102
RTVSPropertyOp32
 70
     1
  0
XRECORD
  5
224
102
{ACAD_REACTORS
330
223
102
}
330
223
100
AcDbXrecord
280
     1
102
RTVSPropertyOp0
 70
     1
102
RTVSPropertyOp1
 70
     1
102
RTVSPropertyOp2
 70
     1
102
RTVSPropertyOp3
 70
     1
102
RTVSPropertyOp4
 70
     1
102
RTVSPropertyOp5
 70
     1
102
RTVSPropertyOp6
 70
     1
102
RTVSPropertyOp7
 70
     1
102
RTVSPropertyOp8
 70
     1
102
RTVSPropertyOp9
 70
     1
102
RTVSPropertyOp10
 70
     1
102
RTVSPropertyOp11
 70
     1
102
RTVSPropertyOp12
 70
     1
102
RTVSPropertyOp13
 70
     1
102
RTVSPropertyOp14
 70
     1
102
RTVSPropertyOp15
 70
     1
102
RTVSPropertyOp16
 70
     1
102
RTVSPropertyOp17
 70
     1
102
RTVSPropertyOp18
 70
     1
102
RTVSPropertyOp19
 70
     1
102
RTVSPropertyOp20
 70
     1
102
RTVSPropertyOp21
 70
     1
102
RTVSPropertyOp22
 70
     1
102
RTVSPropertyOp23
 70
     1
102
RTVSPropertyOp24
 70
     1
102
RTVSPropertyOp25
 70
     1
102
RTVSPropertyOp26
 70
     1
102
RTVSPropertyOp27
 70
     1
102
RTVSPropertyOp28
 70
     1
102
RTVSPropertyOp29
 70
     1
102
RTVSPropertyOp30
 70
     1
102
RTVSPropertyOp31
 70
     1
102
RTVSPropertyOp32
 70
     1
  0
XRECORD
  5
226
102
{ACAD_REACTORS
330
225
102
}
330
225
100
AcDbXrecord
280
     1
102
RTVSPropertyOp0
 70
     1
102
RTVSPropertyOp1
 70
     1
102
RTVSPropertyOp2
 70
     1
102
RTVSPropertyOp3
 70
     1
102
RTVSPropertyOp4
 70
     1
102
RTVSPropertyOp5
 70
     1
102
RTVSPropertyOp6
 70
     1
102
RTVSPropertyOp7
 70
     1
102
RTVSPropertyOp8
 70
     1
102
RTVSPropertyOp9
 70
     1
102
RTVSPropertyOp10
 70
     1
102
RTVSPropertyOp11
 70
     1
102
RTVSPropertyOp12
 70
     1
102
RTVSPropertyOp13
 70
     1
102
RTVSPropertyOp14
 70
     1
102
RTVSPropertyOp15
 70
     1
102
RTVSPropertyOp16
 70
     1
102
RTVSPropertyOp17
 70
     1
102
RTVSPropertyOp18
 70
     1
102
RTVSPropertyOp19
 70
     1
102
RTVSPropertyOp20
 70
     1
102
RTVSPropertyOp21
 70
     1
102
RTVSPropertyOp22
 70
     1
102
RTVSPropertyOp23
 70
     1
102
RTVSPropertyOp24
 70
     1
102
RTVSPropertyOp25
 70
     1
102
RTVSPropertyOp26
 70
     1
102
RTVSPropertyOp27
 70
     1
102
RTVSPropertyOp28
 70
     1
102
RTVSPropertyOp29
 70
     1
102
RTVSPropertyOp30
 70
     1
102
RTVSPropertyOp31
 70
     1
102
RTVSPropertyOp32
 70
     1
  0
XRECORD
  5
228
102
{ACAD_REACTORS
330
227
102
}
330
227
100
AcDbXrecord
280
     1
102
RTVSPropertyOp0
 70
     1
102
RTVSPropertyOp1
 70
     1
102
RTVSPropertyOp2
 70
     1
102
RTVSPropertyOp3
 70
     1
102
RTVSPropertyOp4
 70
     1
102
RTVSPropertyOp5
 70
     1
102
RTVSPropertyOp6
 70
     1
102
RTVSPropertyOp7
 70
     1
102
RTVSPropertyOp8
 70
     1
102
RTVSPropertyOp9
 70
     1
102
RTVSPropertyOp10
 70
     1
102
RTVSPropertyOp11
 70
     1
102
RTVSPropertyOp12
 70
     1
102
RTVSPropertyOp13
 70
     1
102
RTVSPropertyOp14
 70
     1
102
RTVSPropertyOp15
 70
     1
102
RTVSPropertyOp16
 70
     1
102
RTVSPropertyOp17
 70
     1
102
RTVSPropertyOp18
 70
     1
102
RTVSPropertyOp19
 70
     1
102
RTVSPropertyOp20
 70
     1
102
RTVSPropertyOp21
 70
     1
102
RTVSPropertyOp22
 70
     1
102
RTVSPropertyOp23
 70
     1
102
RTVSPropertyOp24
 70
     1
102
RTVSPropertyOp25
 70
     1
102
RTVSPropertyOp26
 70
     1
102
RTVSPropertyOp27
 70
     1
102
RTVSPropertyOp28
 70
     1
102
RTVSPropertyOp29
 70
     1
102
RTVSPropertyOp30
 70
     1
102
RTVSPropertyOp31
 70
     1
102
RTVSPropertyOp32
 70
     1
  0
XRECORD
  5
22A
102
{ACAD_REACTORS
330
229
102
}
330
229
100
AcDbXrecord
280
     1
102
RTVSPropertyOp0
 70
     1
102
RTVSPropertyOp1
 70
     1
102
RTVSPropertyOp2
 70
     1
102
RTVSPropertyOp3
 70
     1
102
RTVSPropertyOp4
 70
     1
102
RTVSPropertyOp5
 70
     1
102
RTVSPropertyOp6
 70
     1
102
RTVSPropertyOp7
 70
     1
102
RTVSPropertyOp8
 70
     1
102
RTVSPropertyOp9
 70
     1
102
RTVSPropertyOp10
 70
     1
102
RTVSPropertyOp11
 70
     1
102
RTVSPropertyOp12
 70
     1
102
RTVSPropertyOp13
 70
     1
102
RTVSPropertyOp14
 70
     1
102
RTVSPropertyOp15
 70
     1
102
RTVSPropertyOp16
 70
     1
102
RTVSPropertyOp17
 70
     1
102
RTVSPropertyOp18
 70
     1
102
RTVSPropertyOp19
 70
     1
102
RTVSPropertyOp20
 70
     1
102
RTVSPropertyOp21
 70
     1
102
RTVSPropertyOp22
 70
     1
102
RTVSPropertyOp23
 70
     1
102
RTVSPropertyOp24
 70
     1
102
RTVSPropertyOp25
 70
     1
102
RTVSPropertyOp26
 70
     1
102
RTVSPropertyOp27
 70
     1
102
RTVSPropertyOp28
 70
     1
102
RTVSPropertyOp29
 70
     1
102
RTVSPropertyOp30
 70
     1
102
RTVSPropertyOp31
 70
     1
102
RTVSPropertyOp32
 70
     1
  0
XRECORD
  5
23E
102
{ACAD_REACTORS
330
23D
102
}
330
23D
100
AcDbXrecord
280
     1
102
RTVSPropertyOp0
 70
     1
102
RTVSPropertyOp1
 70
     1
102
RTVSPropertyOp2
 70
     1
102
RTVSPropertyOp3
 70
     1
102
RTVSPropertyOp4
 70
     1
102
RTVSPropertyOp5
 70
     1
102
RTVSPropertyOp6
 70
     1
102
RTVSPropertyOp7
 70
     1
102
RTVSPropertyOp8
 70
     1
102
RTVSPropertyOp9
 70
     1
102
RTVSPropertyOp10
 70
     1
102
RTVSPropertyOp11
 70
     1
102
RTVSPropertyOp12
 70
     1
102
RTVSPropertyOp13
 70
     1
102
RTVSPropertyOp14
 70
     1
102
RTVSPropertyOp15
 70
     1
102
RTVSPropertyOp16
 70
     1
102
RTVSPropertyOp17
 70
     1
102
RTVSPropertyOp18
 70
     1
102
RTVSPropertyOp19
 70
     1
102
RTVSPropertyOp20
 70
     1
102
RTVSPropertyOp21
 70
     1
102
RTVSPropertyOp22
 70
     1
102
RTVSPropertyOp23
 70
     1
102
RTVSPropertyOp24
 70
     1
102
RTVSPropertyOp25
 70
     1
102
RTVSPropertyOp26
 70
     1
102
RTVSPropertyOp27
 70
     1
102
RTVSPropertyOp28
 70
     1
102
RTVSPropertyOp29
 70
     1
102
RTVSPropertyOp30
 70
     1
102
RTVSPropertyOp31
 70
     1
102
RTVSPropertyOp32
 70
     1
  0
XRECORD
  5
234
102
{ACAD_REACTORS
330
233
102
}
330
233
100
AcDbXrecord
280
     1
102
RTVSPropertyOp0
 70
     1
102
RTVSPropertyOp1
 70
     1
102
RTVSPropertyOp2
 70
     1
102
RTVSPropertyOp3
 70
     1
102
RTVSPropertyOp4
 70
     1
102
RTVSPropertyOp5
 70
     1
102
RTVSPropertyOp6
 70
     1
102
RTVSPropertyOp7
 70
     1
102
RTVSPropertyOp8
 70
     1
102
RTVSPropertyOp9
 70
     1
102
RTVSPropertyOp10
 70
     1
102
RTVSPropertyOp11
 70
     1
102
RTVSPropertyOp12
 70
     1
102
RTVSPropertyOp13
 70
     1
102
RTVSPropertyOp14
 70
     1
102
RTVSPropertyOp15
 70
     1
102
RTVSPropertyOp16
 70
     1
102
RTVSPropertyOp17
 70
     1
102
RTVSPropertyOp18
 70
     1
102
RTVSPropertyOp19
 70
     1
102
RTVSPropertyOp20
 70
     1
102
RTVSPropertyOp21
 70
     1
102
RTVSPropertyOp22
 70
     1
102
RTVSPropertyOp23
 70
     1
102
RTVSPropertyOp24
 70
     1
102
RTVSPropertyOp25
 70
     1
102
RTVSPropertyOp26
 70
     1
102
RTVSPropertyOp27
 70
     1
102
RTVSPropertyOp28
 70
     1
102
RTVSPropertyOp29
 70
     1
102
RTVSPropertyOp30
 70
     1
102
RTVSPropertyOp31
 70
     1
102
RTVSPropertyOp32
 70
     1
  0
XRECORD
  5
23C
102
{ACAD_REACTORS
330
23B
102
}
330
23B
100
AcDbXrecord
280
     1
102
RTVSPropertyOp0
 70
     1
102
RTVSPropertyOp1
 70
     1
102
RTVSPropertyOp2
 70
     1
102
RTVSPropertyOp3
 70
     1
102
RTVSPropertyOp4
 70
     1
102
RTVSPropertyOp5
 70
     1
102
RTVSPropertyOp6
 70
     1
102
RTVSPropertyOp7
 70
     1
102
RTVSPropertyOp8
 70
     1
102
RTVSPropertyOp9
 70
     1
102
RTVSPropertyOp10
 70
     1
102
RTVSPropertyOp11
 70
     1
102
RTVSPropertyOp12
 70
     1
102
RTVSPropertyOp13
 70
     1
102
RTVSPropertyOp14
 70
     1
102
RTVSPropertyOp15
 70
     1
102
RTVSPropertyOp16
 70
     1
102
RTVSPropertyOp17
 70
     1
102
RTVSPropertyOp18
 70
     1
102
RTVSPropertyOp19
 70
     1
102
RTVSPropertyOp20
 70
     1
102
RTVSPropertyOp21
 70
     1
102
RTVSPropertyOp22
 70
     1
102
RTVSPropertyOp23
 70
     1
102
RTVSPropertyOp24
 70
     1
102
RTVSPropertyOp25
 70
     1
102
RTVSPropertyOp26
 70
     1
102
RTVSPropertyOp27
 70
     1
102
RTVSPropertyOp28
 70
     1
102
RTVSPropertyOp29
 70
     1
102
RTVSPropertyOp30
 70
     1
102
RTVSPropertyOp31
 70
     1
102
RTVSPropertyOp32
 70
     1
  0
ENDSEC
  0
EOF
