  0
SECTION
  2
HEADER
  9
$ACADVER
  1
AC1018
  9
$ACADMAINTVER
 70
     0
  9
$DWGCODEPAGE
  3
ANSI_1252
  9
$INSBASE
 10
0.0
 20
0.0
 30
0.0
  9
$EXTMIN
 10
-242.9260139793488
 20
3.45530179772618
 30
0.0
  9
$EXTMAX
 10
54.07398602064927
 20
213.4553017977263
 30
0.0
  9
$LIMMIN
 10
0.0
 20
0.0
  9
$LIMMAX
 10
12.0
 20
9.0
  9
$ORTHOMODE
 70
     0
  9
$REGENMODE
 70
     1
  9
$FILLMODE
 70
     1
  9
$QTEXTMODE
 70
     0
  9
$MIRRTEXT
 70
     1
  9
$LTSCALE
 40
1.0
  9
$ATTMODE
 70
     1
  9
$TEXTSIZE
 40
0.2
  9
$TRACEWID
 40
0.05
  9
$TEXTSTYLE
  7
Standard
  9
$CLAYER
  8
0
  9
$CELTYPE
  6
ByLayer
  9
$CECOLOR
 62
   256
  9
$CELTSCALE
 40
1.0
  9
$DISPSILH
 70
     0
  9
$DIMSCALE
 40
1.0
  9
$DIMASZ
 40
0.18
  9
$DIMEXO
 40
0.0625
  9
$DIMDLI
 40
0.38
  9
$DIMRND
 40
0.0
  9
$DIMDLE
 40
0.0
  9
$DIMEXE
 40
0.18
  9
$DIMTP
 40
0.0
  9
$DIMTM
 40
0.0
  9
$DIMTXT
 40
0.18
  9
$DIMCEN
 40
0.09
  9
$DIMTSZ
 40
0.0
  9
$DIMTOL
 70
     0
  9
$DIMLIM
 70
     0
  9
$DIMTIH
 70
     1
  9
$DIMTOH
 70
     1
  9
$DIMSE1
 70
     0
  9
$DIMSE2
 70
     0
  9
$DIMTAD
 70
     0
  9
$DIMZIN
 70
     0
  9
$DIMBLK
  1

  9
$DIMASO
 70
     1
  9
$DIMSHO
 70
     1
  9
$DIMPOST
  1

  9
$DIMAPOST
  1

  9
$DIMALT
 70
     0
  9
$DIMALTD
 70
     2
  9
$DIMALTF
 40
25.4
  9
$DIMLFAC
 40
1.0
  9
$DIMTOFL
 70
     0
  9
$DIMTVP
 40
0.0
  9
$DIMTIX
 70
     0
  9
$DIMSOXD
 70
     0
  9
$DIMSAH
 70
     0
  9
$DIMBLK1
  1

  9
$DIMBLK2
  1

  9
$DIMSTYLE
  2
Standard
  9
$DIMCLRD
 70
     0
  9
$DIMCLRE
 70
     0
  9
$DIMCLRT
 70
     0
  9
$DIMTFAC
 40
1.0
  9
$DIMGAP
 40
0.09
  9
$DIMJUST
 70
     0
  9
$DIMSD1
 70
     0
  9
$DIMSD2
 70
     0
  9
$DIMTOLJ
 70
     1
  9
$DIMTZIN
 70
     0
  9
$DIMALTZ
 70
     0
  9
$DIMALTTZ
 70
     0
  9
$DIMUPT
 70
     0
  9
$DIMDEC
 70
     4
  9
$DIMTDEC
 70
     4
  9
$DIMALTU
 70
     2
  9
$DIMALTTD
 70
     2
  9
$DIMTXSTY
  7
Standard
  9
$DIMAUNIT
 70
     0
  9
$DIMADEC
 70
     0
  9
$DIMALTRND
 40
0.0
  9
$DIMAZIN
 70
     0
  9
$DIMDSEP
 70
    46
  9
$DIMATFIT
 70
     3
  9
$DIMFRAC
 70
     0
  9
$DIMLDRBLK
  1

  9
$DIMLUNIT
 70
     2
  9
$DIMLWD
 70
    -2
  9
$DIMLWE
 70
    -2
  9
$DIMTMOVE
 70
     0
  9
$LUNITS
 70
     2
  9
$LUPREC
 70
     4
  9
$SKETCHINC
 40
0.1
  9
$FILLETRAD
 40
0.5
  9
$AUNITS
 70
     0
  9
$AUPREC
 70
     0
  9
$MENU
  1
.
  9
$ELEVATION
 40
0.0
  9
$PELEVATION
 40
0.0
  9
$THICKNESS
 40
0.0
  9
$LIMCHECK
 70
     0
  9
$CHAMFERA
 40
0.5
  9
$CHAMFERB
 40
0.5
  9
$CHAMFERC
 40
1.0
  9
$CHAMFERD
 40
0.0
  9
$SKPOLY
 70
     0
  9
$TDCREATE
 40
2458125.439000463
  9
$TDUCREATE
 40
2458125.397333796
  9
$TDUPDATE
 40
2458125.439000995
  9
$TDUUPDATE
 40
2458125.397334329
  9
$TDINDWG
 40
0.0000000116
  9
$TDUSRTIMER
 40
0.0000000116
  9
$USRTIMER
 70
     1
  9
$ANGBASE
 50
0.0
  9
$ANGDIR
 70
     0
  9
$PDMODE
 70
     0
  9
$PDSIZE
 40
0.0
  9
$PLINEWID
 40
0.0
  9
$SPLFRAME
 70
     0
  9
$SPLINETYPE
 70
     6
  9
$SPLINESEGS
 70
     8
  9
$HANDSEED
  5
2D2
  9
$SURFTAB1
 70
     6
  9
$SURFTAB2
 70
     6
  9
$SURFTYPE
 70
     6
  9
$SURFU
 70
     6
  9
$SURFV
 70
     6
  9
$UCSBASE
  2

  9
$UCSNAME
  2

  9
$UCSORG
 10
0.0
 20
0.0
 30
0.0
  9
$UCSXDIR
 10
1.0
 20
0.0
 30
0.0
  9
$UCSYDIR
 10
0.0
 20
1.0
 30
0.0
  9
$UCSORTHOREF
  2

  9
$UCSORTHOVIEW
 70
     0
  9
$UCSORGTOP
 10
0.0
 20
0.0
 30
0.0
  9
$UCSORGBOTTOM
 10
0.0
 20
0.0
 30
0.0
  9
$UCSORGLEFT
 10
0.0
 20
0.0
 30
0.0
  9
$UCSORGRIGHT
 10
0.0
 20
0.0
 30
0.0
  9
$UCSORGFRONT
 10
0.0
 20
0.0
 30
0.0
  9
$UCSORGBACK
 10
0.0
 20
0.0
 30
0.0
  9
$PUCSBASE
  2

  9
$PUCSNAME
  2

  9
$PUCSORG
 10
0.0
 20
0.0
 30
0.0
  9
$PUCSXDIR
 10
1.0
 20
0.0
 30
0.0
  9
$PUCSYDIR
 10
0.0
 20
1.0
 30
0.0
  9
$PUCSORTHOREF
  2

  9
$PUCSORTHOVIEW
 70
     0
  9
$PUCSORGTOP
 10
0.0
 20
0.0
 30
0.0
  9
$PUCSORGBOTTOM
 10
0.0
 20
0.0
 30
0.0
  9
$PUCSORGLEFT
 10
0.0
 20
0.0
 30
0.0
  9
$PUCSORGRIGHT
 10
0.0
 20
0.0
 30
0.0
  9
$PUCSORGFRONT
 10
0.0
 20
0.0
 30
0.0
  9
$PUCSORGBACK
 10
0.0
 20
0.0
 30
0.0
  9
$USERI1
 70
     0
  9
$USERI2
 70
     0
  9
$USERI3
 70
     0
  9
$USERI4
 70
     0
  9
$USERI5
 70
     0
  9
$USERR1
 40
18.1
  9
$USERR2
 40
0.0
  9
$USERR3
 40
0.0
  9
$USERR4
 40
0.0
  9
$USERR5
 40
0.0
  9
$WORLDVIEW
 70
     1
  9
$SHADEDGE
 70
     3
  9
$SHADEDIF
 70
    70
  9
$TILEMODE
 70
     1
  9
$MAXACTVP
 70
    64
  9
$PINSBASE
 10
0.0
 20
0.0
 30
0.0
  9
$PLIMCHECK
 70
     0
  9
$PEXTMIN
 10
1.00000000000000E+20
 20
1.00000000000000E+20
 30
1.00000000000000E+20
  9
$PEXTMAX
 10
-1.00000000000000E+20
 20
-1.00000000000000E+20
 30
-1.00000000000000E+20
  9
$PLIMMIN
 10
0.0
 20
0.0
  9
$PLIMMAX
 10
12.0
 20
9.0
  9
$UNITMODE
 70
     0
  9
$VISRETAIN
 70
     1
  9
$PLINEGEN
 70
     0
  9
$PSLTSCALE
 70
     1
  9
$TREEDEPTH
 70
  3020
  9
$CMLSTYLE
  2
Standard
  9
$CMLJUST
 70
     0
  9
$CMLSCALE
 40
1.0
  9
$PROXYGRAPHICS
 70
     1
  9
$MEASUREMENT
 70
     1
  9
$CELWEIGHT
370
    -1
  9
$ENDCAPS
280
     0
  9
$JOINSTYLE
280
     0
  9
$LWDISPLAY
290
     0
  9
$INSUNITS
 70
     4
  9
$HYPERLINKBASE
  1

  9
$STYLESHEET
  1

  9
$XEDIT
290
     1
  9
$CEPSNTYPE
380
     0
  9
$PSTYLEMODE
290
     1
  9
$FINGERPRINTGUID
  2
{D5893CDD-6F95-44E7-9B09-5D2761FB7D02}
  9
$VERSIONGUID
  2
{FAEB1C32-E019-11D5-929B-00C0DF256EC4}
  9
$EXTNAMES
290
     1
  9
$PSVPSCALE
 40
0.0
  9
$OLESTARTUP
290
     0
  9
$SORTENTS
280
   127
  9
$INDEXCTL
280
     0
  9
$HIDETEXT
280
     1
  9
$XCLIPFRAME
290
     0
  9
$HALOGAP
280
     0
  9
$OBSCOLOR
 70
   257
  9
$OBSLTYPE
280
     0
  9
$INTERSECTIONDISPLAY
280
     0
  9
$INTERSECTIONCOLOR
 70
   257
  9
$DIMASSOC
280
     2
  9
$PROJECTNAME
  1

  0
ENDSEC
  0
SECTION
  2
CLASSES
  0
CLASS
  1
ACDBDICTIONARYWDFLT
  2
AcDbDictionaryWithDefault
  3
ObjectDBX Classes
 90
        0
 91
        4
280
     0
281
     0
  0
CLASS
  1
VISUALSTYLE
  2
AcDbVisualStyle
  3
ObjectDBX Classes
 90
     4095
 91
        4
280
     0
281
     0
  0
CLASS
  1
MATERIAL
  2
AcDbMaterial
  3
ObjectDBX Classes
 90
     1153
 91
        4
280
     0
281
     0
  0
ENDSEC
  0
SECTION
  2
TABLES
  0
TABLE
  2
VPORT
  5
8
330
0
100
AcDbSymbolTable
 70
     1
  0
VPORT
  5
29
330
8
100
AcDbSymbolTableRecord
100
AcDbViewportTableRecord
  2
*Active
 70
     0
 10
0.0
 20
0.0
 11
1.0
 21
1.0
 12
-94.42601397934976
 22
108.4553017977262
 13
0.0
 23
0.0
 14
0.5
 24
0.5
 15
0.5
 25
0.5
 16
0.0
 26
0.0
 36
1.0
 17
0.0
 27
0.0
 37
0.0
 40
231.0000000000001
 41
1.60267857142857
 42
50.0
 43
0.0
 44
0.0
 50
0.0
 51
0.0
 71
     0
 72
   100
 73
     1
 74
     3
 75
     0
 76
     0
 77
     0
 78
     0
281
     0
 65
     1
110
0.0
120
0.0
130
0.0
111
1.0
121
0.0
131
0.0
112
0.0
122
1.0
132
0.0
 79
     0
146
0.0
  0
ENDTAB
  0
TABLE
  2
LTYPE
  5
5
330
0
100
AcDbSymbolTable
 70
     8
  0
LTYPE
  5
14
330
5
100
AcDbSymbolTableRecord
100
AcDbLinetypeTableRecord
  2
ByBlock
 70
     0
  3

 72
    65
 73
     0
 40
0.0
  0
LTYPE
  5
15
330
5
100
AcDbSymbolTableRecord
100
AcDbLinetypeTableRecord
  2
ByLayer
 70
     0
  3

 72
    65
 73
     0
 40
0.0
  0
LTYPE
  5
16
330
5
100
AcDbSymbolTableRecord
100
AcDbLinetypeTableRecord
  2
Continuous
 70
     0
  3
Solid line
 72
    65
 73
     0
 40
0.0
  0
LTYPE
  5
3F
330
5
100
AcDbSymbolTableRecord
100
AcDbLinetypeTableRecord
  2
DASHED
 70
     0
  3
Dashed
 72
    65
 73
     2
 40
15.0
 49
7.0
 74
     0
 49
-8.0
 74
     0
  0
LTYPE
  5
40
330
5
100
AcDbSymbolTableRecord
100
AcDbLinetypeTableRecord
  2
DOTTED
 70
     0
  3
Dotted
 72
    65
 73
     2
 40
1.0
 49
0.0
 74
     0
 49
-1.0
 74
     0
  0
LTYPE
  5
41
330
5
100
AcDbSymbolTableRecord
100
AcDbLinetypeTableRecord
  2
DOT_CENTER
 70
     0
  3
Dot_Center
 72
    65
 73
     4
 40
14.0
 49
12.0
 74
     0
 49
-1.0
 74
     0
 49
0.0
 74
     0
 49
-1.0
 74
     0
  0
LTYPE
  5
42
330
5
100
AcDbSymbolTableRecord
100
AcDbLinetypeTableRecord
  2
LONG_DASHED
 70
     0
  3
Long_Dashed
 72
    65
 73
     2
 40
15.0
 49
10.0
 74
     0
 49
-5.0
 74
     0
  0
LTYPE
  5
43
330
5
100
AcDbSymbolTableRecord
100
AcDbLinetypeTableRecord
  2
DASH_CENTER
 70
     0
  3
Dash_Center
 72
    65
 73
     4
 40
14.0
 49
11.0
 74
     0
 49
-1.0
 74
     0
 49
1.0
 74
     0
 49
-1.0
 74
     0
  0
LTYPE
  5
44
330
5
100
AcDbSymbolTableRecord
100
AcDbLinetypeTableRecord
  2
PHANTOM
 70
     0
  3
Phantom
 72
    65
 73
     6
 40
13.0
 49
10.0
 74
     0
 49
-1.0
 74
     0
 49
0.0
 74
     0
 49
-1.0
 74
     0
 49
0.0
 74
     0
 49
-1.0
 74
     0
  0
LTYPE
  5
45
330
5
100
AcDbSymbolTableRecord
100
AcDbLinetypeTableRecord
  2
CENTER_DASH_DASH
 70
     0
  3
Center_Dash_Dash
 72
    65
 73
     6
 40
14.0
 49
9.0
 74
     0
 49
-1.0
 74
     0
 49
1.0
 74
     0
 49
-1.0
 74
     0
 49
1.0
 74
     0
 49
-1.0
 74
     0
  0
ENDTAB
  0
TABLE
  2
LAYER
  5
2
330
0
100
AcDbSymbolTable
 70
     2
  0
LAYER
  5
10
330
2
100
AcDbSymbolTableRecord
100
AcDbLayerTableRecord
  2
0
 70
     0
 62
     7
  6
Continuous
370
    -3
390
F
  0
LAYER
  5
46
330
2
100
AcDbSymbolTableRecord
100
AcDbLayerTableRecord
  2
1
 70
     0
 62
     7
  6
Continuous
370
    -3
390
F
  0
ENDTAB
  0
TABLE
  2
STYLE
  5
3
330
0
100
AcDbSymbolTable
 70
     5
  0
STYLE
  5
11
330
3
100
AcDbSymbolTableRecord
100
AcDbTextStyleTableRecord
  2
Standard
 70
     0
 40
0.0
 41
1.0
 50
0.0
 71
     0
 42
0.2
  3
txt
  4

  0
STYLE
  5
17D
330
3
100
AcDbSymbolTableRecord
100
AcDbTextStyleTableRecord
  2
CONVERTER_11
 70
     0
 40
0.0
 41
0.9
 50
0.0
 71
     0
 42
0.2
  3
txt.shx
  4

  0
STYLE
  5
17F
330
3
100
AcDbSymbolTableRecord
100
AcDbTextStyleTableRecord
  2
CONVERTER_12
 70
     0
 40
0.0
 41
0.81
 50
0.0
 71
     0
 42
0.2
  3
txt.shx
  4

  0
STYLE
  5
185
330
3
100
AcDbSymbolTableRecord
100
AcDbTextStyleTableRecord
  2
CONVERTER_13
 70
     0
 40
0.0
 41
0.855
 50
0.0
 71
     0
 42
0.2
  3
txt.shx
  4

  0
STYLE
  5
188
330
3
100
AcDbSymbolTableRecord
100
AcDbTextStyleTableRecord
  2
CONVERTER_14
 70
     0
 40
0.0
 41
0.72
 50
0.0
 71
     0
 42
0.2
  3
txt.shx
  4

  0
ENDTAB
  0
TABLE
  2
VIEW
  5
6
330
0
100
AcDbSymbolTable
 70
     0
  0
ENDTAB
  0
TABLE
  2
UCS
  5
7
330
0
100
AcDbSymbolTable
 70
     0
  0
ENDTAB
  0
TABLE
  2
APPID
  5
9
330
0
100
AcDbSymbolTable
 70
     1
  0
APPID
  5
12
330
9
100
AcDbSymbolTableRecord
100
AcDbRegAppTableRecord
  2
ACAD
 70
     0
  0
ENDTAB
  0
TABLE
  2
DIMSTYLE
  5
A
330
0
100
AcDbSymbolTable
 70
     4
100
AcDbDimStyleTable
  0
DIMSTYLE
105
27
330
A
100
AcDbSymbolTableRecord
100
AcDbDimStyleTableRecord
  2
Standard
 70
     0
178
     0
340
11
  0
DIMSTYLE
105
21B
102
{ACAD_REACTORS
330
21C
102
}
330
A
100
AcDbSymbolTableRecord
100
AcDbDimStyleTableRecord
  2
ME10_DIM_10
 70
     0
 41
1.75
 42
0.0
 44
0.75
 73
     0
 74
     0
 77
     1
 78
     8
140
1.75
147
0.75
172
     1
173
     1
174
     1
175
     1
176
     2
177
     2
178
     3
340
17D
  0
DIMSTYLE
105
293
102
{ACAD_REACTORS
330
294
102
}
330
A
100
AcDbSymbolTableRecord
100
AcDbDimStyleTableRecord
  2
ME10_DIM_11
 70
     0
 41
1.75
 42
0.0
 44
0.75
 73
     0
 74
     0
 77
     1
 78
     8
140
1.75
147
0.75
172
     1
173
     1
174
     1
175
     1
176
     2
177
     2
178
     3
340
17D
  0
DIMSTYLE
105
29E
102
{ACAD_REACTORS
330
29F
102
}
330
A
100
AcDbSymbolTableRecord
100
AcDbDimStyleTableRecord
  2
ME10_DIM_12
 70
     0
 41
1.75
 42
0.0
 44
0.75
 73
     0
 74
     0
 77
     1
 78
     8
140
1.75
147
0.75
172
     1
173
     1
174
     1
175
     1
176
     2
177
     2
178
     3
340
17D
  0
ENDTAB
  0
TABLE
  2
BLOCK_RECORD
  5
1
330
0
100
AcDbSymbolTable
 70
    21
  0
BLOCK_RECORD
  5
1F
330
1
100
AcDbSymbolTableRecord
100
AcDbBlockTableRecord
  2
*Model_Space
340
22
  0
BLOCK_RECORD
  5
1B
330
1
100
AcDbSymbolTableRecord
100
AcDbBlockTableRecord
  2
*Paper_Space
340
1E
  0
BLOCK_RECORD
  5
23
330
1
100
AcDbSymbolTableRecord
100
AcDbBlockTableRecord
  2
*Paper_Space0
340
26
  0
BLOCK_RECORD
  5
47
330
1
100
AcDbSymbolTableRecord
100
AcDbBlockTableRecord
  2
_rahmen
340
0
102
{BLKREFS
331
4E
102
}
  0
BLOCK_RECORD
  5
4A
330
1
100
AcDbSymbolTableRecord
100
AcDbBlockTableRecord
  2
_punkt
340
0
102
{BLKREFS
331
4F
102
}
  0
BLOCK_RECORD
  5
4D
330
1
100
AcDbSymbolTableRecord
100
AcDbBlockTableRecord
  2
A4I_CS
340
0
102
{BLKREFS
331
7D
102
}
  0
BLOCK_RECORD
  5
52
330
1
100
AcDbSymbolTableRecord
100
AcDbBlockTableRecord
  2
S-URTK_SP-select__1
340
0
102
{BLKREFS
331
56
102
}
  0
BLOCK_RECORD
  5
55
330
1
100
AcDbSymbolTableRecord
100
AcDbBlockTableRecord
  2
AllgSicht1
340
0
102
{BLKREFS
331
7E
102
}
  0
BLOCK_RECORD
  5
59
330
1
100
AcDbSymbolTableRecord
100
AcDbBlockTableRecord
  2
S-URTK_SP-select__2
340
0
102
{BLKREFS
331
5D
102
}
  0
BLOCK_RECORD
  5
5C
330
1
100
AcDbSymbolTableRecord
100
AcDbBlockTableRecord
  2
Drfsicht1
340
0
102
{BLKREFS
331
7F
102
}
  0
BLOCK_RECORD
  5
60
330
1
100
AcDbSymbolTableRecord
100
AcDbBlockTableRecord
  2
S-URTK_SP-select__3
340
0
102
{BLKREFS
331
64
102
}
  0
BLOCK_RECORD
  5
63
330
1
100
AcDbSymbolTableRecord
100
AcDbBlockTableRecord
  2
Rckans1
340
0
102
{BLKREFS
331
80
102
}
  0
BLOCK_RECORD
  5
67
330
1
100
AcDbSymbolTableRecord
100
AcDbBlockTableRecord
  2
S-URTK_SP-select__4
340
0
102
{BLKREFS
331
6B
102
}
  0
BLOCK_RECORD
  5
6A
330
1
100
AcDbSymbolTableRecord
100
AcDbBlockTableRecord
  2
SA_Links1
340
0
102
{BLKREFS
331
81
102
}
  0
BLOCK_RECORD
  5
6E
330
1
100
AcDbSymbolTableRecord
100
AcDbBlockTableRecord
  2
S-URTK_SP-select__5
340
0
102
{BLKREFS
331
72
102
}
  0
BLOCK_RECORD
  5
71
330
1
100
AcDbSymbolTableRecord
100
AcDbBlockTableRecord
  2
SA_Rechts1
340
0
102
{BLKREFS
331
82
102
}
  0
BLOCK_RECORD
  5
75
330
1
100
AcDbSymbolTableRecord
100
AcDbBlockTableRecord
  2
S-URTK_SP-select__6
340
0
102
{BLKREFS
331
79
102
}
  0
BLOCK_RECORD
  5
78
330
1
100
AcDbSymbolTableRecord
100
AcDbBlockTableRecord
  2
Vordans1
340
0
102
{BLKREFS
331
83
102
}
  0
BLOCK_RECORD
  5
7C
330
1
100
AcDbSymbolTableRecord
100
AcDbBlockTableRecord
  2
1
340
0
102
{BLKREFS
331
86
102
}
  0
BLOCK_RECORD
  5
211
330
1
100
AcDbSymbolTableRecord
100
AcDbBlockTableRecord
  2
*D17
340
0
  0
BLOCK_RECORD
  5
28A
330
1
100
AcDbSymbolTableRecord
100
AcDbBlockTableRecord
  2
*D18
340
0
  0
BLOCK_RECORD
  5
295
330
1
100
AcDbSymbolTableRecord
100
AcDbBlockTableRecord
  2
*D19
340
0
  0
BLOCK_RECORD
  5
2A0
330
1
100
AcDbSymbolTableRecord
100
AcDbBlockTableRecord
  2
*D20
340
0
102
{BLKREFS
331
2A9
102
}
  0
ENDTAB
  0
ENDSEC
  0
SECTION
  2
BLOCKS
  0
BLOCK
  5
20
330
1F
100
AcDbEntity
  8
0
100
AcDbBlockBegin
  2
*Model_Space
 70
     0
 10
0.0
 20
0.0
 30
0.0
  3
*Model_Space
  1

  0
ENDBLK
  5
21
330
1F
100
AcDbEntity
  8
0
100
AcDbBlockEnd
  0
BLOCK
  5
1C
330
1B
100
AcDbEntity
 67
     1
  8
0
100
AcDbBlockBegin
  2
*Paper_Space
 70
     0
 10
0.0
 20
0.0
 30
0.0
  3
*Paper_Space
  1

  0
ENDBLK
  5
1D
330
1B
100
AcDbEntity
 67
     1
  8
0
100
AcDbBlockEnd
  0
BLOCK
  5
24
330
23
100
AcDbEntity
  8
0
100
AcDbBlockBegin
  2
*Paper_Space0
 70
     0
 10
0.0
 20
0.0
 30
0.0
  3
*Paper_Space0
  1

  0
ENDBLK
  5
25
330
23
100
AcDbEntity
  8
0
100
AcDbBlockEnd
  0
BLOCK
  5
48
330
47
100
AcDbEntity
  8
0
100
AcDbBlockBegin
  2
_rahmen
 70
     0
 10
49.07398602065028
 20
3.45530179772618
 30
0.0
  3
_rahmen
  1

  0
LINE
  5
87
330
47
100
AcDbEntity
  8
1
  6
DOT_CENTER
 62
     2
100
AcDbLine
 10
-76.48416361953713
 20
29.58030179772621
 30
0.0
 11
-70.98416361953713
 21
29.58030179772621
 31
0.0
  0
LINE
  5
88
330
47
100
AcDbEntity
  8
1
  6
PHANTOM
 62
     2
100
AcDbLine
 10
-67.73416361953713
 20
32.33030179772621
 30
0.0
 11
-67.73416361953713
 21
26.83030179772621
 31
0.0
  0
LINE
  5
89
330
47
100
AcDbEntity
  8
1
  6
PHANTOM
 62
     2
100
AcDbLine
 10
-64.98416361953713
 20
29.58030179772621
 30
0.0
 11
-70.48416361953713
 21
29.58030179772621
 31
0.0
  0
LINE
  5
8A
330
47
100
AcDbEntity
  8
1
  6
Continuous
 62
     7
100
AcDbLine
 10
-16.17081850609972
 20
16.95530179772621
 30
0.0
 11
-16.17081850609972
 21
25.45530179772629
 31
0.0
  0
LINE
  5
8B
330
47
100
AcDbEntity
  8
1
  6
Continuous
 62
     6
100
AcDbLine
 10
-44.07081850609981
 20
25.45530179772629
 30
0.0
 11
49.07398602065197
 21
25.45530179772629
 31
0.0
  0
LINE
  5
8C
330
47
100
AcDbEntity
  8
1
  6
Continuous
 62
     7
100
AcDbLine
 10
-80.47081850609973
 20
25.45530179772629
 30
0.0
 11
-80.47081850609973
 21
33.95530179772629
 31
0.0
  0
LINE
  5
8D
330
47
100
AcDbEntity
  8
1
  6
Continuous
 62
     7
100
AcDbLine
 10
-44.07081850609981
 20
25.45530179772629
 30
0.0
 11
-44.07081850609981
 21
33.95530179772629
 31
0.0
  0
LINE
  5
8E
330
47
100
AcDbEntity
  8
1
  6
Continuous
 62
     7
100
AcDbLine
 10
13.65557773897317
 20
33.95530179772629
 30
0.0
 11
13.65557773897317
 21
25.45530179772629
 31
0.0
  0
LINE
  5
8F
330
47
100
AcDbEntity
  8
1
  6
Continuous
 62
     7
100
AcDbLine
 10
40.15557773897277
 20
33.95530179772629
 30
0.0
 11
40.15557773897277
 21
25.45530179772629
 31
0.0
  0
LINE
  5
90
330
47
100
AcDbEntity
  8
1
  6
Continuous
 62
     6
100
AcDbLine
 10
-149.4708185060997
 20
8.45530179772629
 30
0.0
 11
-194.4260139793497
 21
8.45530179772629
 31
0.0
  0
LINE
  5
91
330
47
100
AcDbEntity
  8
1
  6
Continuous
 62
     7
100
AcDbLine
 10
49.07398602065157
 20
16.95530179772629
 30
0.0
 11
-44.07081850609981
 21
16.95530179772629
 31
0.0
  0
LINE
  5
92
102
{ACAD_REACTORS
330
1A5
330
1A6
102
}
330
47
100
AcDbEntity
  8
0
  6
Continuous
 62
     2
100
AcDbLine
 10
-66.76338956433233
 20
17.7555909133896
 30
0.0
 11
-66.76338956433233
 21
18.62810792019289
 31
0.0
  0
LINE
  5
93
102
{ACAD_REACTORS
330
1A5
330
1A6
102
}
330
47
100
AcDbEntity
  8
0
  6
Continuous
 62
     2
100
AcDbLine
 10
-66.76338956433233
 20
16.79582220590669
 30
0.0
 11
-66.76338956433233
 21
15.92330519910348
 31
0.0
  0
LINE
  5
94
102
{ACAD_REACTORS
330
1A7
330
1A8
102
}
330
47
100
AcDbEntity
  8
0
  6
Continuous
 62
     2
100
AcDbLine
 10
-51.43034542804182
 20
18.01734601543009
 30
0.0
 11
-50.32670612847372
 21
18.01734601543009
 31
0.0
  0
LINE
  5
95
102
{ACAD_REACTORS
330
1A7
330
1A8
102
}
330
47
100
AcDbEntity
  8
0
  6
Continuous
 62
     2
100
AcDbLine
 10
-50.66068808508041
 20
16.79582220590621
 30
0.0
 11
-50.66068808508041
 21
15.92330519910288
 31
0.0
  0
LINE
  5
96
102
{ACAD_REACTORS
330
1B1
330
1B2
102
}
330
47
100
AcDbEntity
  8
0
  6
Continuous
 62
     2
100
AcDbLine
 10
-52.52144470046034
 20
19.10799227391689
 30
0.0
 11
-51.12349165352003
 21
20.68885126769189
 31
0.0
  0
LINE
  5
97
102
{ACAD_REACTORS
330
1B1
330
1B2
102
}
330
47
100
AcDbEntity
  8
0
  6
Continuous
 62
     2
100
AcDbLine
 10
-52.42602128428752
 20
22.16180179772809
 30
0.0
 11
-51.12349165352003
 21
20.68885126769189
 31
0.0
  0
LINE
  5
98
102
{ACAD_REACTORS
330
1B1
330
1B2
102
}
330
47
100
AcDbEntity
  8
0
  6
Continuous
 62
     2
100
AcDbLine
 10
-49.82096202275363
 20
22.16180179772809
 30
0.0
 11
-48.41823780500641
 21
22.16180179772809
 31
0.0
  0
LINE
  5
99
102
{ACAD_REACTORS
330
1B1
330
1B2
102
}
330
47
100
AcDbEntity
  8
0
  6
Continuous
 62
     2
100
AcDbLine
 10
-51.11872048271212
 20
19.10799227391689
 30
0.0
 11
-50.42212954464642
 21
19.89572405921061
 31
0.0
  0
LINE
  5
9A
102
{ACAD_REACTORS
330
1B1
330
1B2
102
}
330
47
100
AcDbEntity
  8
0
  6
Continuous
 62
     2
100
AcDbLine
 10
-51.11872048271212
 20
19.10799227391689
 30
0.0
 11
-52.52144470046034
 21
19.10799227391689
 31
0.0
  0
LINE
  5
9B
102
{ACAD_REACTORS
330
1B3
330
1B4
102
}
330
47
100
AcDbEntity
  8
0
  6
Continuous
 62
     2
100
AcDbLine
 10
-52.64072397067722
 20
19.10799227391689
 30
0.0
 11
-53.88122838093011
 21
19.10799227391689
 31
0.0
  0
LINE
  5
9C
102
{ACAD_REACTORS
330
1B5
330
1B6
102
}
330
47
100
AcDbEntity
  8
0
  6
Continuous
 62
     2
100
AcDbLine
 10
-54.74920798908522
 20
16.97032560726709
 30
0.0
 11
-55.04937322627532
 21
17.73814057325379
 31
0.0
  0
LINE
  5
9D
102
{ACAD_REACTORS
330
1B5
330
1B6
102
}
330
47
100
AcDbEntity
  8
0
  6
Continuous
 62
     2
100
AcDbLine
 10
-55.34953846346772
 20
16.97032560726709
 30
0.0
 11
-54.74920798908522
 21
16.97032560726709
 31
0.0
  0
LINE
  5
9E
102
{ACAD_REACTORS
330
1B5
330
1B6
102
}
330
47
100
AcDbEntity
  8
0
  6
Continuous
 62
     2
100
AcDbLine
 10
-57.06757847834152
 20
15.7488017977426
 30
0.0
 11
-55.82707406808854
 21
15.7488017977426
 31
0.0
  0
LINE
  5
9F
102
{ACAD_REACTORS
330
1B5
330
1B6
102
}
330
47
100
AcDbEntity
  8
0
  6
Continuous
 62
     2
100
AcDbLine
 10
-55.66962543140221
 20
18.80261132155368
 30
0.0
 11
-54.42912102114951
 21
18.80261132155368
 31
0.0
  0
LINE
  5
A0
102
{ACAD_REACTORS
330
1B5
330
1B6
102
}
330
47
100
AcDbEntity
  8
0
  6
Continuous
 62
     2
100
AcDbLine
 10
-54.42912102114951
 20
18.80261132155368
 30
0.0
 11
-53.03116797420921
 21
15.7488017977426
 31
0.0
  0
LINE
  5
A1
102
{ACAD_REACTORS
330
1B5
330
1B6
102
}
330
47
100
AcDbEntity
  8
0
  6
Continuous
 62
     2
100
AcDbLine
 10
-54.27167238446313
 20
15.7488017977426
 30
0.0
 11
-54.48315243793891
 21
16.28976234196048
 31
0.0
  0
LINE
  5
A2
102
{ACAD_REACTORS
330
1B7
330
1B8
102
}
330
47
100
AcDbEntity
  8
0
  6
Continuous
 62
     2
100
AcDbLine
 10
-58.41399158004913
 20
15.7488017977426
 30
0.0
 11
-57.22119887788261
 21
15.7488017977426
 31
0.0
  0
LINE
  5
A3
102
{ACAD_REACTORS
330
1B7
330
1B8
102
}
330
47
100
AcDbEntity
  8
0
  6
Continuous
 62
     2
100
AcDbLine
 10
-58.41399158004913
 20
18.01734601543009
 30
0.0
 11
-58.41399158004913
 21
15.7488017977426
 31
0.0
  0
LINE
  5
A4
102
{ACAD_REACTORS
330
1B7
330
1B8
102
}
330
47
100
AcDbEntity
  8
0
  6
Continuous
 62
     2
100
AcDbLine
 10
-59.22509061752373
 20
18.80261132155368
 30
0.0
 11
-59.22509061752373
 21
18.01734601543009
 31
0.0
  0
LINE
  5
A5
102
{ACAD_REACTORS
330
1B9
330
1BA
102
}
330
47
100
AcDbEntity
  8
0
  6
Continuous
 62
     2
100
AcDbLine
 10
-57.74587673595113
 20
19.10799227391689
 30
0.0
 11
-56.55308403378461
 21
19.10799227391689
 31
0.0
  0
LINE
  5
A6
102
{ACAD_REACTORS
330
1B9
330
1BA
102
}
330
47
100
AcDbEntity
  8
0
  6
Continuous
 62
     2
100
AcDbLine
 10
-55.31257962353061
 20
20.85302628752291
 30
0.0
 11
-56.55308403378461
 21
22.16180179772809
 31
0.0
  0
LINE
  5
A7
102
{ACAD_REACTORS
330
1B9
330
1BA
102
}
330
47
100
AcDbEntity
  8
0
  6
Continuous
 62
     2
100
AcDbLine
 10
-54.11978692136401
 20
22.16180179772809
 30
0.0
 11
-55.31257962353061
 21
22.16180179772809
 31
0.0
  0
LINE
  5
A8
102
{ACAD_REACTORS
330
1B9
330
1BA
102
}
330
47
100
AcDbEntity
  8
0
  6
Continuous
 62
     2
100
AcDbLine
 10
-54.11978692136401
 20
19.10799227391689
 30
0.0
 11
-54.11978692136401
 21
22.16180179772809
 31
0.0
  0
LINE
  5
A9
102
{ACAD_REACTORS
330
1B9
330
1BA
102
}
330
47
100
AcDbEntity
  8
0
  6
Continuous
 62
     2
100
AcDbLine
 10
-55.31257962353061
 20
19.10799227391689
 30
0.0
 11
-54.11978692136401
 21
19.10799227391689
 31
0.0
  0
LINE
  5
AA
102
{ACAD_REACTORS
330
1B9
330
1BA
102
}
330
47
100
AcDbEntity
  8
0
  6
Continuous
 62
     2
100
AcDbLine
 10
-56.55308403378461
 20
20.41676778412159
 30
0.0
 11
-55.31257962353061
 21
19.10799227391689
 31
0.0
  0
LINE
  5
AB
102
{ACAD_REACTORS
330
1BB
330
1BC
102
}
330
47
100
AcDbEntity
  8
0
  6
Continuous
 62
     2
100
AcDbLine
 10
-60.56101844395033
 20
17.49383581134859
 30
0.0
 11
-61.80152285420323
 21
18.80261132155368
 31
0.0
  0
LINE
  5
AC
102
{ACAD_REACTORS
330
1BB
330
1BC
102
}
330
47
100
AcDbEntity
  8
0
  6
Continuous
 62
     2
100
AcDbLine
 10
-60.56101844395033
 20
18.80261132155368
 30
0.0
 11
-60.56101844395033
 21
17.49383581134859
 31
0.0
  0
LINE
  5
AD
102
{ACAD_REACTORS
330
1BB
330
1BC
102
}
330
47
100
AcDbEntity
  8
0
  6
Continuous
 62
     2
100
AcDbLine
 10
-59.36822574178393
 20
18.80261132155368
 30
0.0
 11
-60.56101844395033
 21
18.80261132155368
 31
0.0
  0
LINE
  5
AE
102
{ACAD_REACTORS
330
1BB
330
1BC
102
}
330
47
100
AcDbEntity
  8
0
  6
Continuous
 62
     2
100
AcDbLine
 10
-59.36822574178393
 20
15.7488017977426
 30
0.0
 11
-59.36822574178393
 21
18.80261132155368
 31
0.0
  0
LINE
  5
AF
102
{ACAD_REACTORS
330
1BB
330
1BC
102
}
330
47
100
AcDbEntity
  8
0
  6
Continuous
 62
     2
100
AcDbLine
 10
-61.80152285420323
 20
17.05757730794718
 30
0.0
 11
-60.56101844395033
 21
15.7488017977426
 31
0.0
  0
LINE
  5
B0
102
{ACAD_REACTORS
330
1BB
330
1BC
102
}
330
47
100
AcDbEntity
  8
0
  6
Continuous
 62
     2
100
AcDbLine
 10
-61.80152285420323
 20
15.7488017977426
 30
0.0
 11
-61.80152285420323
 21
17.05757730794718
 31
0.0
  0
LINE
  5
B1
102
{ACAD_REACTORS
330
1AB
330
1AC
102
}
330
47
100
AcDbEntity
  8
0
  6
Continuous
 62
     2
100
AcDbLine
 10
-59.32036310281171
 20
21.46378819228511
 30
0.0
 11
-57.98443527638403
 21
21.46378819228511
 31
0.0
  0
LINE
  5
B2
102
{ACAD_REACTORS
330
1AB
330
1AC
102
}
330
47
100
AcDbEntity
  8
0
  6
Continuous
 62
     2
100
AcDbLine
 10
-59.32036310281171
 20
19.80600587935939
 30
0.0
 11
-59.32036310281171
 21
20.2858902331011
 31
0.0
  0
LINE
  5
B3
102
{ACAD_REACTORS
330
1AB
330
1AC
102
}
330
47
100
AcDbEntity
  8
0
  6
Continuous
 62
     2
100
AcDbLine
 10
-57.98443527638403
 20
19.80600587935939
 30
0.0
 11
-59.32036310281171
 21
19.80600587935939
 31
0.0
  0
LINE
  5
B4
102
{ACAD_REACTORS
330
1AB
330
1AC
102
}
330
47
100
AcDbEntity
  8
0
  6
Continuous
 62
     2
100
AcDbLine
 10
-57.98443527638403
 20
19.10799227391689
 30
0.0
 11
-57.98443527638403
 21
19.80600587935939
 31
0.0
  0
LINE
  5
B5
102
{ACAD_REACTORS
330
1AB
330
1AC
102
}
330
47
100
AcDbEntity
  8
0
  6
Continuous
 62
     2
100
AcDbLine
 10
-61.13475500016503
 20
19.10799227391689
 30
0.0
 11
-57.98443527638403
 21
19.10799227391689
 31
0.0
  0
LINE
  5
B6
102
{ACAD_REACTORS
330
1AB
330
1AC
102
}
330
47
100
AcDbEntity
  8
0
  6
Continuous
 62
     2
100
AcDbLine
 10
-61.13475500016503
 20
22.16180179772809
 30
0.0
 11
-57.98443527638403
 21
22.16180179772809
 31
0.0
  0
LINE
  5
B7
102
{ACAD_REACTORS
330
1AB
330
1AC
102
}
330
47
100
AcDbEntity
  8
0
  6
Continuous
 62
     2
100
AcDbLine
 10
-57.98443527638403
 20
21.46378819228511
 30
0.0
 11
-57.98443527638403
 21
22.16180179772809
 31
0.0
  0
LINE
  5
B8
102
{ACAD_REACTORS
330
1BD
330
1BE
102
}
330
47
100
AcDbEntity
  8
0
  6
Continuous
 62
     2
100
AcDbLine
 10
-63.99611049530503
 20
21.09296846439349
 30
0.0
 11
-63.99611049530503
 21
22.16180179772809
 31
0.0
  0
LINE
  5
B9
102
{ACAD_REACTORS
330
1BD
330
1BE
102
}
330
47
100
AcDbEntity
  8
0
  6
Continuous
 62
     2
100
AcDbLine
 10
-63.99611049530503
 20
22.16180179772809
 30
0.0
 11
-62.80331779313863
 21
22.16180179772809
 31
0.0
  0
LINE
  5
BA
102
{ACAD_REACTORS
330
1BD
330
1BE
102
}
330
47
100
AcDbEntity
  8
0
  6
Continuous
 62
     2
100
AcDbLine
 10
-63.99611049530503
 20
20.24226438276071
 30
0.0
 11
-65.04576807321251
 21
20.24226438276071
 31
0.0
  0
LINE
  5
BB
102
{ACAD_REACTORS
330
1BD
330
1BE
102
}
330
47
100
AcDbEntity
  8
0
  6
Continuous
 62
     2
100
AcDbLine
 10
-65.04576807321251
 20
20.24226438276071
 30
0.0
 11
-65.04576807321251
 21
19.10799227391689
 31
0.0
  0
LINE
  5
BC
102
{ACAD_REACTORS
330
1BD
330
1BE
102
}
330
47
100
AcDbEntity
  8
0
  6
Continuous
 62
     2
100
AcDbLine
 10
-66.23856077537911
 20
22.16180179772809
 30
0.0
 11
-66.23856077537911
 21
19.10799227391689
 31
0.0
  0
LINE
  5
BD
102
{ACAD_REACTORS
330
1AF
330
1B0
102
}
330
47
100
AcDbEntity
  8
0
  6
Continuous
 62
     2
100
AcDbLine
 10
-68.19474080693271
 20
20.79296830294578
 30
0.0
 11
-68.19474080693271
 21
21.49869595228799
 31
0.0
  0
LINE
  5
BE
102
{ACAD_REACTORS
330
1AF
330
1B0
102
}
330
47
100
AcDbEntity
  8
0
  6
Continuous
 62
     2
100
AcDbLine
 10
-69.43524521718683
 20
19.10799227391689
 30
0.0
 11
-68.19474080693271
 21
19.10799227391689
 31
0.0
  0
LINE
  5
BF
102
{ACAD_REACTORS
330
1AF
330
1B0
102
}
330
47
100
AcDbEntity
  8
0
  6
Continuous
 62
     2
100
AcDbLine
 10
-68.19474080693271
 20
19.10799227391689
 30
0.0
 11
-68.19474080693271
 21
20.0510705150607
 31
0.0
  0
LINE
  5
C0
102
{ACAD_REACTORS
330
1A9
330
1AA
102
}
330
47
100
AcDbEntity
  8
0
  6
Continuous
 62
     2
100
AcDbLine
 10
-73.74019106639821
 20
16.46135735329949
 30
0.0
 11
-75.21602432740784
 21
16.46135735329949
 31
0.0
  0
LINE
  5
C1
102
{ACAD_REACTORS
330
1A9
330
1AA
102
}
330
47
100
AcDbEntity
  8
0
  6
Continuous
 62
     2
100
AcDbLine
 10
-76.23416361953713
 20
21.7375571823261
 30
0.0
 11
-76.23416361953713
 21
16.17304641312589
 31
0.0
  0
LINE
  5
C2
102
{ACAD_REACTORS
330
1A9
330
1AA
102
}
330
47
100
AcDbEntity
  8
0
  6
Continuous
 62
     2
100
AcDbLine
 10
-75.80991900415432
 20
22.1618017977099
 30
0.0
 11
-70.33660691343752
 21
22.1618017977099
 31
0.0
  0
LINE
  5
C3
102
{ACAD_REACTORS
330
1A9
330
1AA
102
}
330
47
100
AcDbEntity
  8
0
  6
Continuous
 62
     2
100
AcDbLine
 10
-69.91236229805364
 20
21.7375571823261
 30
0.0
 11
-69.91236229805364
 21
16.17304641312589
 31
0.0
  0
LINE
  5
C4
102
{ACAD_REACTORS
330
1A9
330
1AA
102
}
330
47
100
AcDbEntity
  8
0
  6
Continuous
 62
     2
100
AcDbLine
 10
-70.33660691343752
 20
15.7488017977426
 30
0.0
 11
-75.80991900415432
 21
15.7488017977426
 31
0.0
  0
LINE
  5
C5
102
{ACAD_REACTORS
330
1A9
330
1AA
102
}
330
47
100
AcDbEntity
  8
0
  6
Continuous
 62
     2
100
AcDbLine
 10
-73.42447414332162
 20
16.7770742763762
 30
0.0
 11
-73.42447414332162
 21
18.3078452079078
 31
0.0
  0
LINE
  5
C6
102
{ACAD_REACTORS
330
1A9
330
1AA
102
}
330
47
100
AcDbEntity
  8
0
  6
Continuous
 62
     2
100
AcDbLine
 10
-73.42447414332162
 20
20.52950470003279
 30
0.0
 11
-73.42447414332162
 21
21.1335293190933
 31
0.0
  0
LINE
  5
C7
102
{ACAD_REACTORS
330
1A9
330
1AA
102
}
330
47
100
AcDbEntity
  8
0
  6
Continuous
 62
     2
100
AcDbLine
 10
-75.21602432740784
 20
21.44924624216949
 30
0.0
 11
-73.74019106639821
 21
21.44924624216949
 31
0.0
  0
LINE
  5
C8
102
{ACAD_REACTORS
330
1A9
330
1AA
102
}
330
47
100
AcDbEntity
  8
0
  6
Continuous
 62
     2
100
AcDbLine
 10
-75.53174125048352
 20
21.1335293190933
 30
0.0
 11
-75.53174125048352
 21
16.7770742763762
 31
0.0
  0
LINE
  5
C9
102
{ACAD_REACTORS
330
1AF
330
1B0
102
}
330
47
100
AcDbEntity
  8
0
  6
Continuous
 62
     2
100
AcDbLine
 10
-68.19474080693271
 20
20.0510705150607
 30
0.0
 11
-67.43597321915243
 21
20.0510705150607
 31
0.0
  0
LINE
  5
CA
102
{ACAD_REACTORS
330
1AF
330
1B0
102
}
330
47
100
AcDbEntity
  8
0
  6
Continuous
 62
     2
100
AcDbLine
 10
-69.43524521718683
 20
22.16180179772809
 30
0.0
 11
-67.43597321915243
 21
22.16180179772809
 31
0.0
  0
LINE
  5
CB
102
{ACAD_REACTORS
330
1AF
330
1B0
102
}
330
47
100
AcDbEntity
  8
0
  6
Continuous
 62
     2
100
AcDbLine
 10
-69.43524521718683
 20
22.16180179772809
 30
0.0
 11
-69.43524521718683
 21
19.10799227391689
 31
0.0
  0
LINE
  5
CC
102
{ACAD_REACTORS
330
1AF
330
1B0
102
}
330
47
100
AcDbEntity
  8
0
  6
Continuous
 62
     2
100
AcDbLine
 10
-68.19474080693271
 20
20.79296830294578
 30
0.0
 11
-67.87744574539082
 21
20.79296830294578
 31
0.0
  0
LINE
  5
CD
102
{ACAD_REACTORS
330
1AF
330
1B0
102
}
330
47
100
AcDbEntity
  8
0
  6
Continuous
 62
     2
100
AcDbLine
 10
-68.19474080693271
 20
21.49869595228799
 30
0.0
 11
-67.87744574539082
 21
21.49869595228799
 31
0.0
  0
LINE
  5
CE
102
{ACAD_REACTORS
330
1BD
330
1BE
102
}
330
47
100
AcDbEntity
  8
0
  6
Continuous
 62
     2
100
AcDbLine
 10
-65.04576807321251
 20
21.09296846439349
 30
0.0
 11
-63.99611049530503
 21
21.09296846439349
 31
0.0
  0
LINE
  5
CF
102
{ACAD_REACTORS
330
1BD
330
1BE
102
}
330
47
100
AcDbEntity
  8
0
  6
Continuous
 62
     2
100
AcDbLine
 10
-65.04576807321251
 20
22.16180179772809
 30
0.0
 11
-65.04576807321251
 21
21.09296846439349
 31
0.0
  0
LINE
  5
D0
102
{ACAD_REACTORS
330
1BD
330
1BE
102
}
330
47
100
AcDbEntity
  8
0
  6
Continuous
 62
     2
100
AcDbLine
 10
-66.23856077537911
 20
22.16180179772809
 30
0.0
 11
-65.04576807321251
 21
22.16180179772809
 31
0.0
  0
LINE
  5
D1
102
{ACAD_REACTORS
330
1BD
330
1BE
102
}
330
47
100
AcDbEntity
  8
0
  6
Continuous
 62
     2
100
AcDbLine
 10
-65.04576807321251
 20
19.10799227391689
 30
0.0
 11
-66.23856077537911
 21
19.10799227391689
 31
0.0
  0
LINE
  5
D2
102
{ACAD_REACTORS
330
1BD
330
1BE
102
}
330
47
100
AcDbEntity
  8
0
  6
Continuous
 62
     2
100
AcDbLine
 10
-63.99611049530503
 20
19.10799227391689
 30
0.0
 11
-63.99611049530503
 21
20.24226438276071
 31
0.0
  0
LINE
  5
D3
102
{ACAD_REACTORS
330
1BD
330
1BE
102
}
330
47
100
AcDbEntity
  8
0
  6
Continuous
 62
     2
100
AcDbLine
 10
-62.80331779313863
 20
19.10799227391689
 30
0.0
 11
-63.99611049530503
 21
19.10799227391689
 31
0.0
  0
LINE
  5
D4
102
{ACAD_REACTORS
330
1BD
330
1BE
102
}
330
47
100
AcDbEntity
  8
0
  6
Continuous
 62
     2
100
AcDbLine
 10
-62.80331779313863
 20
22.16180179772809
 30
0.0
 11
-62.80331779313863
 21
19.10799227391689
 31
0.0
  0
LINE
  5
D5
102
{ACAD_REACTORS
330
1AB
330
1AC
102
}
330
47
100
AcDbEntity
  8
0
  6
Continuous
 62
     2
100
AcDbLine
 10
-59.32036310281171
 20
20.2858902331011
 30
0.0
 11
-57.98443527638403
 21
20.2858902331011
 31
0.0
  0
LINE
  5
D6
102
{ACAD_REACTORS
330
1AB
330
1AC
102
}
330
47
100
AcDbEntity
  8
0
  6
Continuous
 62
     2
100
AcDbLine
 10
-57.98443527638403
 20
20.2858902331011
 30
0.0
 11
-57.98443527638403
 21
20.9839038385434
 31
0.0
  0
LINE
  5
D7
102
{ACAD_REACTORS
330
1AB
330
1AC
102
}
330
47
100
AcDbEntity
  8
0
  6
Continuous
 62
     2
100
AcDbLine
 10
-57.98443527638403
 20
20.9839038385434
 30
0.0
 11
-59.32036310281171
 21
20.9839038385434
 31
0.0
  0
LINE
  5
D8
102
{ACAD_REACTORS
330
1AB
330
1AC
102
}
330
47
100
AcDbEntity
  8
0
  6
Continuous
 62
     2
100
AcDbLine
 10
-59.32036310281171
 20
20.9839038385434
 30
0.0
 11
-59.32036310281171
 21
21.46378819228511
 31
0.0
  0
LINE
  5
D9
102
{ACAD_REACTORS
330
1BB
330
1BC
102
}
330
47
100
AcDbEntity
  8
0
  6
Continuous
 62
     2
100
AcDbLine
 10
-62.99431555637082
 20
15.7488017977426
 30
0.0
 11
-61.80152285420323
 21
15.7488017977426
 31
0.0
  0
LINE
  5
DA
102
{ACAD_REACTORS
330
1BB
330
1BC
102
}
330
47
100
AcDbEntity
  8
0
  6
Continuous
 62
     2
100
AcDbLine
 10
-60.56101844395033
 20
15.7488017977426
 30
0.0
 11
-59.36822574178393
 21
15.7488017977426
 31
0.0
  0
LINE
  5
DB
102
{ACAD_REACTORS
330
1BB
330
1BC
102
}
330
47
100
AcDbEntity
  8
0
  6
Continuous
 62
     2
100
AcDbLine
 10
-61.80152285420323
 20
18.80261132155368
 30
0.0
 11
-62.99431555637082
 21
18.80261132155368
 31
0.0
  0
LINE
  5
DC
102
{ACAD_REACTORS
330
1BB
330
1BC
102
}
330
47
100
AcDbEntity
  8
0
  6
Continuous
 62
     2
100
AcDbLine
 10
-62.99431555637082
 20
18.80261132155368
 30
0.0
 11
-62.99431555637082
 21
15.7488017977426
 31
0.0
  0
LINE
  5
DD
102
{ACAD_REACTORS
330
1B9
330
1BA
102
}
330
47
100
AcDbEntity
  8
0
  6
Continuous
 62
     2
100
AcDbLine
 10
-55.31257962353061
 20
22.16180179772809
 30
0.0
 11
-55.31257962353061
 21
20.85302628752291
 31
0.0
  0
LINE
  5
DE
102
{ACAD_REACTORS
330
1B9
330
1BA
102
}
330
47
100
AcDbEntity
  8
0
  6
Continuous
 62
     2
100
AcDbLine
 10
-56.55308403378461
 20
22.16180179772809
 30
0.0
 11
-57.74587673595113
 21
22.16180179772809
 31
0.0
  0
LINE
  5
DF
102
{ACAD_REACTORS
330
1B9
330
1BA
102
}
330
47
100
AcDbEntity
  8
0
  6
Continuous
 62
     2
100
AcDbLine
 10
-57.74587673595113
 20
22.16180179772809
 30
0.0
 11
-57.74587673595113
 21
19.10799227391689
 31
0.0
  0
LINE
  5
E0
102
{ACAD_REACTORS
330
1B9
330
1BA
102
}
330
47
100
AcDbEntity
  8
0
  6
Continuous
 62
     2
100
AcDbLine
 10
-56.55308403378461
 20
19.10799227391689
 30
0.0
 11
-56.55308403378461
 21
20.41676778412159
 31
0.0
  0
LINE
  5
E1
102
{ACAD_REACTORS
330
1B7
330
1B8
102
}
330
47
100
AcDbEntity
  8
0
  6
Continuous
 62
     2
100
AcDbLine
 10
-57.22119887788261
 20
15.7488017977426
 30
0.0
 11
-57.22119887788261
 21
18.01734601543009
 31
0.0
  0
LINE
  5
E2
102
{ACAD_REACTORS
330
1B7
330
1B8
102
}
330
47
100
AcDbEntity
  8
0
  6
Continuous
 62
     2
100
AcDbLine
 10
-57.22119887788261
 20
18.01734601543009
 30
0.0
 11
-56.41009984041011
 21
18.01734601543009
 31
0.0
  0
LINE
  5
E3
102
{ACAD_REACTORS
330
1B7
330
1B8
102
}
330
47
100
AcDbEntity
  8
0
  6
Continuous
 62
     2
100
AcDbLine
 10
-56.41009984041011
 20
18.01734601543009
 30
0.0
 11
-56.41009984041011
 21
18.80261132155368
 31
0.0
  0
LINE
  5
E4
102
{ACAD_REACTORS
330
1B7
330
1B8
102
}
330
47
100
AcDbEntity
  8
0
  6
Continuous
 62
     2
100
AcDbLine
 10
-56.41009984041011
 20
18.80261132155368
 30
0.0
 11
-59.22509061752373
 21
18.80261132155368
 31
0.0
  0
LINE
  5
E5
102
{ACAD_REACTORS
330
1B7
330
1B8
102
}
330
47
100
AcDbEntity
  8
0
  6
Continuous
 62
     2
100
AcDbLine
 10
-59.22509061752373
 20
18.01734601543009
 30
0.0
 11
-58.41399158004913
 21
18.01734601543009
 31
0.0
  0
LINE
  5
E6
102
{ACAD_REACTORS
330
1B5
330
1B6
102
}
330
47
100
AcDbEntity
  8
0
  6
Continuous
 62
     2
100
AcDbLine
 10
-55.61559401461273
 20
16.28976234196048
 30
0.0
 11
-54.48315243793891
 21
16.28976234196048
 31
0.0
  0
LINE
  5
E7
102
{ACAD_REACTORS
330
1B5
330
1B6
102
}
330
47
100
AcDbEntity
  8
0
  6
Continuous
 62
     2
100
AcDbLine
 10
-53.03116797420921
 20
15.7488017977426
 30
0.0
 11
-54.27167238446313
 21
15.7488017977426
 31
0.0
  0
LINE
  5
E8
102
{ACAD_REACTORS
330
1B5
330
1B6
102
}
330
47
100
AcDbEntity
  8
0
  6
Continuous
 62
     2
100
AcDbLine
 10
-55.66962543140221
 20
18.80261132155368
 30
0.0
 11
-57.06757847834152
 21
15.7488017977426
 31
0.0
  0
LINE
  5
E9
102
{ACAD_REACTORS
330
1B5
330
1B6
102
}
330
47
100
AcDbEntity
  8
0
  6
Continuous
 62
     2
100
AcDbLine
 10
-55.82707406808854
 20
15.7488017977426
 30
0.0
 11
-55.61559401461273
 21
16.28976234196048
 31
0.0
  0
LINE
  5
EA
102
{ACAD_REACTORS
330
1B5
330
1B6
102
}
330
47
100
AcDbEntity
  8
0
  6
Continuous
 62
     2
100
AcDbLine
 10
-55.34953846346772
 20
16.97032560726709
 30
0.0
 11
-55.04937322627532
 21
17.73814057325379
 31
0.0
  0
LINE
  5
EB
102
{ACAD_REACTORS
330
1B3
330
1B4
102
}
330
47
100
AcDbEntity
  8
0
  6
Continuous
 62
     2
100
AcDbLine
 10
-53.88122838093011
 20
19.10799227391689
 30
0.0
 11
-53.88122838093011
 21
22.16180179772809
 31
0.0
  0
LINE
  5
EC
102
{ACAD_REACTORS
330
1B3
330
1B4
102
}
330
47
100
AcDbEntity
  8
0
  6
Continuous
 62
     2
100
AcDbLine
 10
-52.64072397067722
 20
22.16180179772809
 30
0.0
 11
-52.64072397067722
 21
19.10799227391689
 31
0.0
  0
LINE
  5
ED
102
{ACAD_REACTORS
330
1B3
330
1B4
102
}
330
47
100
AcDbEntity
  8
0
  6
Continuous
 62
     2
100
AcDbLine
 10
-53.88122838093011
 20
22.16180179772809
 30
0.0
 11
-52.64072397067722
 21
22.16180179772809
 31
0.0
  0
LINE
  5
EE
102
{ACAD_REACTORS
330
1B1
330
1B2
102
}
330
47
100
AcDbEntity
  8
0
  6
Continuous
 62
     2
100
AcDbLine
 10
-50.42212954464642
 20
19.89572405921061
 30
0.0
 11
-49.72553860658093
 21
19.10799227391689
 31
0.0
  0
LINE
  5
EF
102
{ACAD_REACTORS
330
1B1
330
1B2
102
}
330
47
100
AcDbEntity
  8
0
  6
Continuous
 62
     2
100
AcDbLine
 10
-49.72553860658093
 20
19.10799227391689
 30
0.0
 11
-48.32281438883263
 21
19.10799227391689
 31
0.0
  0
LINE
  5
F0
102
{ACAD_REACTORS
330
1B1
330
1B2
102
}
330
47
100
AcDbEntity
  8
0
  6
Continuous
 62
     2
100
AcDbLine
 10
-49.72076743577293
 20
20.68885126769189
 30
0.0
 11
-48.32281438883263
 21
19.10799227391689
 31
0.0
  0
LINE
  5
F1
102
{ACAD_REACTORS
330
1B1
330
1B2
102
}
330
47
100
AcDbEntity
  8
0
  6
Continuous
 62
     2
100
AcDbLine
 10
-49.72076743577293
 20
20.68885126769189
 30
0.0
 11
-48.41823780500641
 21
22.16180179772809
 31
0.0
  0
LINE
  5
F2
102
{ACAD_REACTORS
330
1B1
330
1B2
102
}
330
47
100
AcDbEntity
  8
0
  6
Continuous
 62
     2
100
AcDbLine
 10
-50.42212954464642
 20
21.4819784761726
 30
0.0
 11
-49.82096202275363
 21
22.16180179772809
 31
0.0
  0
LINE
  5
F3
102
{ACAD_REACTORS
330
1B1
330
1B2
102
}
330
47
100
AcDbEntity
  8
0
  6
Continuous
 62
     2
100
AcDbLine
 10
-51.02329706653822
 20
22.16180179772809
 30
0.0
 11
-50.42212954464642
 21
21.4819784761726
 31
0.0
  0
LINE
  5
F4
102
{ACAD_REACTORS
330
1B1
330
1B2
102
}
330
47
100
AcDbEntity
  8
0
  6
Continuous
 62
     2
100
AcDbLine
 10
-51.02329706653822
 20
22.16180179772809
 30
0.0
 11
-52.42602128428752
 21
22.16180179772809
 31
0.0
  0
LINE
  5
F5
102
{ACAD_REACTORS
330
1A7
330
1A8
102
}
330
47
100
AcDbEntity
  8
0
  6
Continuous
 62
     2
100
AcDbLine
 10
-50.32670612847372
 20
15.7488017977426
 30
0.0
 11
-49.13391342630601
 21
15.7488017977426
 31
0.0
  0
LINE
  5
F6
102
{ACAD_REACTORS
330
1A7
330
1A8
102
}
330
47
100
AcDbEntity
  8
0
  6
Continuous
 62
     2
100
AcDbLine
 10
-49.13391342630601
 20
15.7488017977426
 30
0.0
 11
-49.13391342630601
 21
18.01734601543009
 31
0.0
  0
LINE
  5
F7
102
{ACAD_REACTORS
330
1A7
330
1A8
102
}
330
47
100
AcDbEntity
  8
0
  6
Continuous
 62
     2
100
AcDbLine
 10
-49.13391342630601
 20
18.01734601543009
 30
0.0
 11
-48.32281438883263
 21
18.01734601543009
 31
0.0
  0
LINE
  5
F8
102
{ACAD_REACTORS
330
1A7
330
1A8
102
}
330
47
100
AcDbEntity
  8
0
  6
Continuous
 62
     2
100
AcDbLine
 10
-48.32281438883263
 20
18.01734601543009
 30
0.0
 11
-48.32281438883263
 21
18.80261132155368
 31
0.0
  0
LINE
  5
F9
102
{ACAD_REACTORS
330
1A7
330
1A8
102
}
330
47
100
AcDbEntity
  8
0
  6
Continuous
 62
     2
100
AcDbLine
 10
-51.70775990746131
 20
18.8026113215532
 30
0.0
 11
-48.32281438883263
 21
18.80261132155368
 31
0.0
  0
LINE
  5
FA
102
{ACAD_REACTORS
330
1A7
330
1A8
102
}
330
47
100
AcDbEntity
  8
0
  6
Continuous
 62
     2
100
AcDbLine
 10
-50.32670612847372
 20
18.01734601543009
 30
0.0
 11
-50.32670612847372
 21
15.7488017977426
 31
0.0
  0
LINE
  5
FB
102
{ACAD_REACTORS
330
1A9
330
1AA
102
}
330
47
100
AcDbEntity
  8
0
  6
Continuous
 62
     2
100
AcDbLine
 10
-72.95619256395292
 20
17.7276819473071
 30
0.0
 11
-72.95619256395292
 21
18.30953335400218
 31
0.0
  0
LINE
  5
FC
102
{ACAD_REACTORS
330
1A9
330
1AA
102
}
330
47
100
AcDbEntity
  8
0
  6
Continuous
 62
     2
100
AcDbLine
 10
-72.95619256395292
 20
20.52781655393841
 30
0.0
 11
-72.95619256395292
 21
21.13335184244519
 31
0.0
  0
LINE
  5
FD
330
47
100
AcDbEntity
  8
1
  6
Continuous
 62
     6
100
AcDbLine
 10
-94.4260139793497
 20
8.45530179772629
 30
0.0
 11
-80.47081850609973
 21
8.45530179772618
 31
0.0
  0
LINE
  5
FE
330
47
100
AcDbEntity
  8
1
  6
Continuous
 62
     6
100
AcDbLine
 10
-144.4260139793499
 20
8.45530179772629
 30
0.0
 11
-149.4708185060997
 21
8.45530179772629
 31
0.0
  0
LINE
  5
FF
330
47
100
AcDbEntity
  8
1
  6
Continuous
 62
     6
100
AcDbLine
 10
5.57398602065027
 20
8.45530179772629
 30
0.0
 11
49.07398602065028
 21
8.45530179772629
 31
0.0
  0
LINE
  5
100
330
47
100
AcDbEntity
  8
1
  6
Continuous
 62
     6
100
AcDbLine
 10
-44.42601397934973
 20
8.45530179772629
 30
0.0
 11
-62.27081850609972
 21
8.45530179772629
 31
0.0
  0
LINE
  5
101
330
47
100
AcDbEntity
  8
1
  6
Continuous
 62
     2
100
AcDbLine
 10
49.07398602065028
 20
8.45530179772629
 30
0.0
 11
54.07398602064927
 21
8.45530179772629
 31
0.0
  0
LINE
  5
102
330
47
100
AcDbEntity
  8
1
  6
Continuous
 62
     2
100
AcDbLine
 10
49.07398602065028
 20
8.45530179772629
 30
0.0
 11
49.07398602065028
 21
3.45530179772618
 31
0.0
  0
LINE
  5
103
330
47
100
AcDbEntity
  8
1
  6
Continuous
 62
     6
100
AcDbLine
 10
-80.47081850609973
 20
25.45530179772629
 30
0.0
 11
-44.07081850609981
 21
25.45530179772629
 31
0.0
  0
LINE
  5
104
330
47
100
AcDbEntity
  8
1
  6
Continuous
 62
     2
100
AcDbLine
 10
54.07398602064927
 20
3.45530179772618
 30
0.0
 11
54.07398602064927
 21
8.45530179772629
 31
0.0
  0
LINE
  5
105
330
47
100
AcDbEntity
  8
1
  6
Continuous
 62
     2
100
AcDbLine
 10
54.07398602064927
 20
3.45530179772618
 30
0.0
 11
49.07398602065028
 21
3.45530179772618
 31
0.0
  0
LINE
  5
106
330
47
100
AcDbEntity
  8
1
  6
Continuous
 62
     2
100
AcDbLine
 10
49.07398602065028
 20
3.45530179772618
 30
0.0
 11
5.57398602065027
 21
3.45530179772618
 31
0.0
  0
LINE
  5
107
330
47
100
AcDbEntity
  8
1
  6
Continuous
 62
     6
100
AcDbLine
 10
49.07398602065197
 20
25.45530179772629
 30
0.0
 11
49.07398602065118
 21
58.45530179772641
 31
0.0
  0
LINE
  5
108
330
47
100
AcDbEntity
  8
1
  6
Continuous
 62
     2
100
AcDbLine
 10
54.07398602064927
 20
213.4553017977263
 30
0.0
 11
-94.4260139793497
 21
213.4553017977263
 31
0.0
  0
LINE
  5
109
330
47
100
AcDbEntity
  8
1
  6
Continuous
 62
     6
100
AcDbLine
 10
49.07398602064927
 20
193.4553017977263
 30
0.0
 11
-237.9260139793488
 21
193.4553017977263
 31
0.0
  0
LINE
  5
10A
330
47
100
AcDbEntity
  8
1
  6
Continuous
 62
     2
100
AcDbLine
 10
49.07398602065118
 20
58.45530179772641
 30
0.0
 11
54.07398602064927
 21
58.45530179772641
 31
0.0
  0
LINE
  5
10B
330
47
100
AcDbEntity
  8
1
  6
Continuous
 62
     6
100
AcDbLine
 10
49.07398602065118
 20
58.45530179772641
 30
0.0
 11
49.07398602065068
 21
108.4553017977262
 31
0.0
  0
LINE
  5
10C
330
47
100
AcDbEntity
  8
1
  6
Continuous
 62
     2
100
AcDbLine
 10
54.07398602064927
 20
58.45530179772641
 30
0.0
 11
54.07398602064927
 21
108.4553017977262
 31
0.0
  0
LINE
  5
10D
330
47
100
AcDbEntity
  8
1
  6
Continuous
 62
     2
100
AcDbLine
 10
49.07398602065068
 20
108.4553017977262
 30
0.0
 11
54.07398602064927
 21
108.4553017977262
 31
0.0
  0
LINE
  5
10E
330
47
100
AcDbEntity
  8
1
  6
Continuous
 62
     6
100
AcDbLine
 10
49.07398602065068
 20
108.4553017977262
 30
0.0
 11
49.07398602064947
 21
158.4553017977263
 31
0.0
  0
LINE
  5
10F
330
47
100
AcDbEntity
  8
1
  6
Continuous
 62
     2
100
AcDbLine
 10
54.07398602064927
 20
108.4553017977262
 30
0.0
 11
54.07398602064927
 21
158.4553017977263
 31
0.0
  0
LINE
  5
110
330
47
100
AcDbEntity
  8
1
  6
Continuous
 62
     2
100
AcDbLine
 10
49.07398602064947
 20
158.4553017977263
 30
0.0
 11
54.07398602064927
 21
158.4553017977263
 31
0.0
  0
LINE
  5
111
330
47
100
AcDbEntity
  8
1
  6
Continuous
 62
     6
100
AcDbLine
 10
49.07398602064947
 20
158.4553017977263
 30
0.0
 11
49.07398602064927
 21
193.4553017977263
 31
0.0
  0
LINE
  5
112
330
47
100
AcDbEntity
  8
1
  6
Continuous
 62
     2
100
AcDbLine
 10
54.07398602064927
 20
158.4553017977263
 30
0.0
 11
54.07398602064927
 21
213.4553017977263
 31
0.0
  0
LINE
  5
113
330
47
100
AcDbEntity
  8
1
  6
Continuous
 62
     2
100
AcDbLine
 10
54.07398602064927
 20
8.45530179772629
 30
0.0
 11
54.07398602064927
 21
58.45530179772641
 31
0.0
  0
LINE
  5
114
330
47
100
AcDbEntity
  8
1
  6
Continuous
 62
     2
100
AcDbLine
 10
-94.4260139793497
 20
213.4553017977263
 30
0.0
 11
-242.9260139793488
 21
213.4553017977263
 31
0.0
  0
LINE
  5
115
330
47
100
AcDbEntity
  8
1
  6
Continuous
 62
     2
100
AcDbLine
 10
-94.4260139793497
 20
213.4553017977263
 30
0.0
 11
-94.4260139793497
 21
204.246609953025
 31
0.0
  0
LINE
  5
116
330
47
100
AcDbEntity
  8
1
  6
Continuous
 62
     2
100
AcDbLine
 10
-242.9260139793488
 20
3.45530179772618
 30
0.0
 11
-237.9260139793478
 21
3.45530179772618
 31
0.0
  0
LINE
  5
117
330
47
100
AcDbEntity
  8
1
  6
Continuous
 62
     2
100
AcDbLine
 10
-242.9260139793488
 20
213.4553017977263
 30
0.0
 11
-242.9260139793488
 21
158.4553017977263
 31
0.0
  0
LINE
  5
118
330
47
100
AcDbEntity
  8
1
  6
Continuous
 62
     6
100
AcDbLine
 10
-237.9260139793488
 20
193.4553017977263
 30
0.0
 11
-237.9260139793487
 21
158.4553017977263
 31
0.0
  0
LINE
  5
119
330
47
100
AcDbEntity
  8
1
  6
Continuous
 62
     2
100
AcDbLine
 10
-242.9260139793488
 20
158.4553017977263
 30
0.0
 11
-237.9260139793487
 21
158.4553017977263
 31
0.0
  0
LINE
  5
11A
330
47
100
AcDbEntity
  8
1
  6
Continuous
 62
     2
100
AcDbLine
 10
-242.9260139793488
 20
158.4553017977263
 30
0.0
 11
-242.9260139793488
 21
108.4553017977262
 31
0.0
  0
LINE
  5
11B
330
47
100
AcDbEntity
  8
1
  6
Continuous
 62
     6
100
AcDbLine
 10
-237.9260139793487
 20
158.4553017977263
 30
0.0
 11
-237.9260139793482
 21
108.4553017977262
 31
0.0
  0
LINE
  5
11C
330
47
100
AcDbEntity
  8
1
  6
Continuous
 62
     2
100
AcDbLine
 10
-242.9260139793488
 20
108.4553017977262
 30
0.0
 11
-237.9260139793482
 21
108.4553017977262
 31
0.0
  0
LINE
  5
11D
330
47
100
AcDbEntity
  8
1
  6
Continuous
 62
     2
100
AcDbLine
 10
-242.9260139793488
 20
108.4553017977262
 30
0.0
 11
-242.9260139793488
 21
58.45530179772641
 31
0.0
  0
LINE
  5
11E
330
47
100
AcDbEntity
  8
1
  6
Continuous
 62
     6
100
AcDbLine
 10
-237.9260139793482
 20
108.4553017977262
 30
0.0
 11
-237.926013979348
 21
58.45530179772641
 31
0.0
  0
LINE
  5
11F
330
47
100
AcDbEntity
  8
1
  6
Continuous
 62
     2
100
AcDbLine
 10
-242.9260139793488
 20
58.45530179772641
 30
0.0
 11
-237.926013979348
 21
58.45530179772641
 31
0.0
  0
LINE
  5
120
330
47
100
AcDbEntity
  8
1
  6
Continuous
 62
     2
100
AcDbLine
 10
-242.9260139793488
 20
58.45530179772641
 30
0.0
 11
-242.9260139793488
 21
8.45530179772629
 31
0.0
  0
LINE
  5
121
330
47
100
AcDbEntity
  8
1
  6
Continuous
 62
     6
100
AcDbLine
 10
-237.926013979348
 20
58.45530179772641
 30
0.0
 11
-237.9260139793478
 21
8.45530179772629
 31
0.0
  0
LINE
  5
122
330
47
100
AcDbEntity
  8
1
  6
Continuous
 62
     2
100
AcDbLine
 10
-194.4260139793497
 20
3.45530179772618
 30
0.0
 11
-194.4260139793497
 21
8.45530179772629
 31
0.0
  0
LINE
  5
123
330
47
100
AcDbEntity
  8
1
  6
Continuous
 62
     2
100
AcDbLine
 10
-194.4260139793497
 20
3.45530179772618
 30
0.0
 11
-144.4260139793499
 21
3.45530179772618
 31
0.0
  0
LINE
  5
124
330
47
100
AcDbEntity
  8
1
  6
Continuous
 62
     2
100
AcDbLine
 10
-144.4260139793499
 20
3.45530179772618
 30
0.0
 11
-144.4260139793499
 21
8.45530179772629
 31
0.0
  0
LINE
  5
125
330
47
100
AcDbEntity
  8
1
  6
Continuous
 62
     2
100
AcDbLine
 10
-144.4260139793499
 20
3.45530179772618
 30
0.0
 11
-94.4260139793497
 21
3.45530179772618
 31
0.0
  0
LINE
  5
126
330
47
100
AcDbEntity
  8
1
  6
Continuous
 62
     2
100
AcDbLine
 10
-94.4260139793497
 20
3.45530179772618
 30
0.0
 11
-94.4260139793497
 21
8.45530179772629
 31
0.0
  0
LINE
  5
127
330
47
100
AcDbEntity
  8
1
  6
Continuous
 62
     2
100
AcDbLine
 10
-94.4260139793497
 20
3.45530179772618
 30
0.0
 11
-44.42601397934973
 21
3.45530179772618
 31
0.0
  0
LINE
  5
128
330
47
100
AcDbEntity
  8
1
  6
Continuous
 62
     2
100
AcDbLine
 10
-44.42601397934973
 20
3.45530179772618
 30
0.0
 11
-44.42601397934973
 21
8.45530179772629
 31
0.0
  0
LINE
  5
129
330
47
100
AcDbEntity
  8
1
  6
Continuous
 62
     2
100
AcDbLine
 10
5.57398602065027
 20
3.45530179772618
 30
0.0
 11
5.57398602065027
 21
8.45530179772629
 31
0.0
  0
LINE
  5
12A
330
47
100
AcDbEntity
  8
1
  6
Continuous
 62
     2
100
AcDbLine
 10
5.57398602065027
 20
3.45530179772618
 30
0.0
 11
-44.42601397934973
 21
3.45530179772618
 31
0.0
  0
LINE
  5
12B
330
47
100
AcDbEntity
  8
1
  6
Continuous
 62
     2
100
AcDbLine
 10
-237.9260139793478
 20
8.45530179772629
 30
0.0
 11
-237.9260139793478
 21
3.45530179772618
 31
0.0
  0
LINE
  5
12C
330
47
100
AcDbEntity
  8
1
  6
Continuous
 62
     2
100
AcDbLine
 10
-237.9260139793478
 20
3.45530179772618
 30
0.0
 11
-194.4260139793497
 21
3.45530179772618
 31
0.0
  0
LINE
  5
12D
330
47
100
AcDbEntity
  8
1
  6
Continuous
 62
     2
100
AcDbLine
 10
-237.9260139793478
 20
8.45530179772629
 30
0.0
 11
-242.9260139793488
 21
8.45530179772629
 31
0.0
  0
LINE
  5
12E
330
47
100
AcDbEntity
  8
1
  6
Continuous
 62
     2
100
AcDbLine
 10
-242.9260139793488
 20
8.45530179772629
 30
0.0
 11
-242.9260139793488
 21
3.45530179772618
 31
0.0
  0
LINE
  5
12F
330
47
100
AcDbEntity
  8
1
  6
Continuous
 62
     6
100
AcDbLine
 10
49.07398602065028
 20
8.45530179772629
 30
0.0
 11
49.07398602065157
 21
16.95530179772629
 31
0.0
  0
LINE
  5
130
330
47
100
AcDbEntity
  8
1
  6
Continuous
 62
     6
100
AcDbLine
 10
-44.07081850609981
 20
8.45530179772618
 30
0.0
 11
5.57398602065027
 21
8.45530179772629
 31
0.0
  0
LINE
  5
131
330
47
100
AcDbEntity
  8
1
  6
Continuous
 62
     6
100
AcDbLine
 10
-196.7260139793499
 20
8.45530179772618
 30
0.0
 11
-194.4260139793497
 21
8.45530179772629
 31
0.0
  0
LINE
  5
132
330
47
100
AcDbEntity
  8
1
  6
Continuous
 62
     6
100
AcDbLine
 10
-94.4260139793497
 20
8.45530179772629
 30
0.0
 11
-144.4260139793499
 21
8.45530179772629
 31
0.0
  0
LINE
  5
133
330
47
100
AcDbEntity
  8
1
  6
Continuous
 62
     7
100
AcDbLine
 10
-80.47081850609973
 20
25.45530179772629
 30
0.0
 11
-80.47081850609973
 21
12.70530179772618
 31
0.0
  0
LINE
  5
134
330
47
100
AcDbEntity
  8
1
  6
Continuous
 62
     7
100
AcDbLine
 10
-44.07081850609981
 20
25.45530179772629
 30
0.0
 11
-44.07081850609981
 21
12.70530179772629
 31
0.0
  0
LINE
  5
135
330
47
100
AcDbEntity
  8
1
  6
Continuous
 62
     6
100
AcDbLine
 10
-196.7260139793499
 20
8.45530179772618
 30
0.0
 11
-202.9260139793479
 21
8.45530179772629
 31
0.0
  0
LINE
  5
136
330
47
100
AcDbEntity
  8
1
  6
Continuous
 62
     6
100
AcDbLine
 10
-44.07081850609981
 20
8.45530179772618
 30
0.0
 11
-44.42601397934973
 21
8.45530179772629
 31
0.0
  0
LINE
  5
137
330
47
100
AcDbEntity
  8
1
  6
Continuous
 62
     6
100
AcDbLine
 10
49.07398602065197
 20
25.45530179772629
 30
0.0
 11
49.07398602065157
 21
16.95530179772629
 31
0.0
  0
LINE
  5
138
330
47
100
AcDbEntity
  8
1
  6
Continuous
 62
     6
100
AcDbLine
 10
-202.9260139793479
 20
8.45530179772629
 30
0.0
 11
-237.9260139793478
 21
8.45530179772629
 31
0.0
  0
LINE
  5
139
330
47
100
AcDbEntity
  8
1
  6
Continuous
 62
     2
100
AcDbLine
 10
-76.23416361953713
 20
30.83030179772621
 30
0.0
 11
-71.23416361953713
 21
32.08030179772621
 31
0.0
  0
LINE
  5
13A
330
47
100
AcDbEntity
  8
1
  6
Continuous
 62
     2
100
AcDbLine
 10
-76.23416361953713
 20
28.33030179772621
 30
0.0
 11
-76.23416361953713
 21
30.83030179772621
 31
0.0
  0
LINE
  5
13B
330
47
100
AcDbEntity
  8
1
  6
Continuous
 62
     2
100
AcDbLine
 10
-71.23416361953713
 20
27.08030179772621
 30
0.0
 11
-76.23416361953713
 21
28.33030179772621
 31
0.0
  0
LINE
  5
13C
330
47
100
AcDbEntity
  8
1
  6
Continuous
 62
     2
100
AcDbLine
 10
-71.23416361953713
 20
32.08030179772621
 30
0.0
 11
-71.23416361953713
 21
27.08030179772621
 31
0.0
  0
LINE
  5
13D
330
47
100
AcDbEntity
  8
1
  6
Continuous
 62
     7
100
AcDbLine
 10
-80.47081850609973
 20
12.70530179772618
 30
0.0
 11
-62.27081850609972
 21
12.70530179772629
 31
0.0
  0
LINE
  5
13E
330
47
100
AcDbEntity
  8
1
  6
Continuous
 62
     7
100
AcDbLine
 10
-80.47081850609973
 20
12.70530179772618
 30
0.0
 11
-80.47081850609973
 21
8.45530179772618
 31
0.0
  0
LINE
  5
13F
330
47
100
AcDbEntity
  8
1
  6
Continuous
 62
     7
100
AcDbLine
 10
-44.07081850609981
 20
12.70530179772629
 30
0.0
 11
-44.07081850609981
 21
8.45530179772618
 31
0.0
  0
LINE
  5
140
330
47
100
AcDbEntity
  8
1
  6
Continuous
 62
     7
100
AcDbLine
 10
-62.27081850609972
 20
12.70530179772629
 30
0.0
 11
-62.27081850609972
 21
8.45530179772629
 31
0.0
  0
LINE
  5
141
330
47
100
AcDbEntity
  8
1
  6
Continuous
 62
     6
100
AcDbLine
 10
-62.27081850609972
 20
8.45530179772629
 30
0.0
 11
-80.47081850609973
 21
8.45530179772618
 31
0.0
  0
LINE
  5
142
330
47
100
AcDbEntity
  8
1
  6
Continuous
 62
     7
100
AcDbLine
 10
-62.27081850609972
 20
12.70530179772629
 30
0.0
 11
-44.07081850609981
 21
12.70530179772629
 31
0.0
  0
LINE
  5
143
330
47
100
AcDbEntity
  8
1
  6
Continuous
 62
     6
100
AcDbLine
 10
-80.47081850609973
 20
33.95530179772629
 30
0.0
 11
49.07398602065197
 21
33.95530179772629
 31
0.0
  0
ARC
  5
144
102
{ACAD_REACTORS
330
1AD
330
1AE
102
}
330
47
100
AcDbEntity
  8
0
  6
Continuous
 62
     2
100
AcDbCircle
 10
-65.07917050713974
 20
17.27570655964789
 30
0.0
 40
0.7717997786796947
100
AcDbArc
 50
321.8795802028417
 51
38.12041979715308
  0
ARC
  5
145
102
{ACAD_REACTORS
330
1AD
330
1AE
102
}
330
47
100
AcDbEntity
  8
0
  6
Continuous
 62
     2
100
AcDbCircle
 10
-64.87943047079332
 20
17.11897538152789
 30
0.0
 40
0.5179085730137332
100
AcDbArc
 50
218.1204197971929
 51
321.8795802028013
  0
ARC
  5
146
102
{ACAD_REACTORS
330
1AD
330
1AE
102
}
330
47
100
AcDbEntity
  8
0
  6
Continuous
 62
     2
100
AcDbCircle
 10
-64.67969043444722
 20
17.27570655964789
 30
0.0
 40
0.771799778679461
100
AcDbArc
 50
141.8795802028365
 51
218.1204197971687
  0
ARC
  5
147
102
{ACAD_REACTORS
330
1AD
330
1AE
102
}
330
47
100
AcDbEntity
  8
0
  6
Continuous
 62
     2
100
AcDbCircle
 10
-64.87943047079332
 20
17.4324377377684
 30
0.0
 40
0.5179085730132976
100
AcDbArc
 50
38.12041979714672
 51
141.8795802028591
  0
ARC
  5
148
102
{ACAD_REACTORS
330
1A5
330
1A6
102
}
330
47
100
AcDbEntity
  8
0
  6
Continuous
 62
     2
100
AcDbCircle
 10
-67.94144460635721
 20
15.8652401942397
 30
0.0
 40
2.227384008973484
100
AcDbArc
 50
58.06909105004083
 51
71.55192388186722
  0
ARC
  5
149
102
{ACAD_REACTORS
330
1A5
330
1A6
102
}
330
47
100
AcDbEntity
  8
0
  6
Continuous
 62
     2
100
AcDbCircle
 10
-67.67971690539844
 20
17.48077798898689
 30
0.0
 40
0.5115800601948779
100
AcDbArc
 50
113.3722778881992
 51
151.4785267423044
  0
ARC
  5
14A
102
{ACAD_REACTORS
330
1A5
330
1A6
102
}
330
47
100
AcDbEntity
  8
0
  6
Continuous
 62
     2
100
AcDbCircle
 10
-67.30235964731813
 20
17.27570655964789
 30
0.0
 40
0.9410597353332545
100
AcDbArc
 50
151.4785267422669
 51
208.5214732577059
  0
ARC
  5
14B
102
{ACAD_REACTORS
330
1A5
330
1A6
102
}
330
47
100
AcDbEntity
  8
0
  6
Continuous
 62
     2
100
AcDbCircle
 10
-68.09931748145013
 20
20.58838750490429
 30
0.0
 40
4.852596863498134
100
AcDbArc
 50
275.1581447696249
 51
285.9799912583529
  0
ARC
  5
14C
102
{ACAD_REACTORS
330
1A5
330
1A6
102
}
330
47
100
AcDbEntity
  8
0
  6
Continuous
 62
     2
100
AcDbCircle
 10
-67.81046138671422
 20
17.3884969216827
 30
0.0
 40
1.639695123939387
100
AcDbArc
 50
195.0618917770896
 51
275.1581447696395
  0
ARC
  5
14D
102
{ACAD_REACTORS
330
1A5
330
1A6
102
}
330
47
100
AcDbEntity
  8
0
  6
Continuous
 62
     2
100
AcDbCircle
 10
-68.22958923017703
 20
17.27570655964789
 30
0.0
 40
1.205656168390943
100
AcDbArc
 50
164.9381082228766
 51
195.061891777095
  0
ARC
  5
14E
102
{ACAD_REACTORS
330
1A5
330
1A6
102
}
330
47
100
AcDbEntity
  8
0
  6
Continuous
 62
     2
100
AcDbCircle
 10
-67.81046138671422
 20
17.16291619761299
 30
0.0
 40
1.639695123940507
100
AcDbArc
 50
84.84185523036236
 51
164.9381082228866
  0
ARC
  5
14F
102
{ACAD_REACTORS
330
1A9
330
1AA
102
}
330
47
100
AcDbEntity
  8
0
  6
Continuous
 62
     2
100
AcDbCircle
 10
-72.64047564087613
 20
18.30953335400218
 30
0.0
 40
0.3157169230765328
100
AcDbArc
 50
115.3740086783519
 51
180.0
  0
ARC
  5
150
102
{ACAD_REACTORS
330
1A9
330
1AA
102
}
330
47
100
AcDbEntity
  8
0
  6
Continuous
 62
     2
100
AcDbCircle
 10
-72.64047564087613
 20
20.52781655393841
 30
0.0
 40
0.315716923076792
100
AcDbArc
 50
180.0
 51
244.6259913216484
  0
ARC
  5
151
102
{ACAD_REACTORS
330
1A9
330
1AA
102
}
330
47
100
AcDbEntity
  8
0
  6
Continuous
 62
     2
100
AcDbCircle
 10
-72.63485950556611
 20
19.43051689487609
 30
0.0
 40
2.018561131933266
100
AcDbArc
 50
269.8110329575858
 51
90.18896704241416
  0
ARC
  5
152
102
{ACAD_REACTORS
330
1A9
330
1AA
102
}
330
47
100
AcDbEntity
  8
0
  6
Continuous
 62
     2
100
AcDbCircle
 10
-72.64047564087613
 20
17.7276819473071
 30
0.0
 40
0.315716923076792
100
AcDbArc
 50
180.0
 51
269.8110329574542
  0
ARC
  5
153
102
{ACAD_REACTORS
330
1A7
330
1A8
102
}
330
47
100
AcDbEntity
  8
0
  6
Continuous
 62
     2
100
AcDbCircle
 10
-51.57701542614552
 20
17.48077798898689
 30
0.0
 40
0.5115800601944076
100
AcDbArc
 50
109.3371432194856
 51
151.4785267424228
  0
ARC
  5
154
102
{ACAD_REACTORS
330
1A7
330
1A8
102
}
330
47
100
AcDbEntity
  8
0
  6
Continuous
 62
     2
100
AcDbCircle
 10
-51.57701542614552
 20
17.0706351303094
 30
0.0
 40
0.5115800601960215
100
AcDbArc
 50
208.5214732576866
 51
246.6277221118445
  0
ARC
  5
155
102
{ACAD_REACTORS
330
1A7
330
1A8
102
}
330
47
100
AcDbEntity
  8
0
  6
Continuous
 62
     2
100
AcDbCircle
 10
-52.12688775092292
 20
17.27570655964789
 30
0.0
 40
1.205656168393001
100
AcDbArc
 50
164.938108222903
 51
195.0618917770962
  0
ARC
  5
156
102
{ACAD_REACTORS
330
1A7
330
1A8
102
}
330
47
100
AcDbEntity
  8
0
  6
Continuous
 62
     2
100
AcDbCircle
 10
-51.70775990746131
 20
17.16291619761299
 30
0.0
 40
1.639695123940211
100
AcDbArc
 50
90.0
 51
164.9381082228951
  0
ARC
  5
157
102
{ACAD_REACTORS
330
1AB
330
1AC
102
}
330
47
100
AcDbEntity
  8
0
  6
Continuous
 62
     2
100
AcDbCircle
 10
-61.13475500016503
 20
20.63489703582221
 30
0.0
 40
1.526904761905879
100
AcDbArc
 50
90.0
 51
270.0
  0
ARC
  5
158
102
{ACAD_REACTORS
330
1AF
330
1B0
102
}
330
47
100
AcDbEntity
  8
0
  6
Continuous
 62
     2
100
AcDbCircle
 10
-67.87744574539082
 20
21.1458321276169
 30
0.0
 40
0.3528638246711182
100
AcDbArc
 50
270.0
 51
90.0
  0
ARC
  5
159
102
{ACAD_REACTORS
330
1A9
330
1AA
102
}
330
47
100
AcDbEntity
  8
0
  6
Continuous
 62
     2
100
AcDbCircle
 10
-75.21602432740784
 20
21.1335293190933
 30
0.0
 40
0.3157169230761916
100
AcDbArc
 50
90.0
 51
180.0
  0
ARC
  5
15A
102
{ACAD_REACTORS
330
1A9
330
1AA
102
}
330
47
100
AcDbEntity
  8
0
  6
Continuous
 62
     2
100
AcDbCircle
 10
-73.21760661882323
 20
19.41867495397059
 30
0.0
 40
0.9118975235576178
100
AcDbArc
 50
115.1944106485281
 51
244.8055893514878
  0
ARC
  5
15B
102
{ACAD_REACTORS
330
1A9
330
1AA
102
}
330
47
100
AcDbEntity
  8
0
  6
Continuous
 62
     2
100
AcDbCircle
 10
-73.74019106639821
 20
18.3078452079078
 30
0.0
 40
0.315716923076593
100
AcDbArc
 50
0.0
 51
64.80558935146027
  0
ARC
  5
15C
102
{ACAD_REACTORS
330
1A9
330
1AA
102
}
330
47
100
AcDbEntity
  8
0
  6
Continuous
 62
     2
100
AcDbCircle
 10
-75.80991900415432
 20
16.17304641312589
 30
0.0
 40
0.4242446153828041
100
AcDbArc
 50
180.0
 51
270.0
  0
ARC
  5
15D
102
{ACAD_REACTORS
330
1AB
330
1AC
102
}
330
47
100
AcDbEntity
  8
0
  6
Continuous
 62
     2
100
AcDbCircle
 10
-60.91848298999983
 20
20.79162821394269
 30
0.0
 40
0.517908573013521
100
AcDbArc
 50
38.12041979714382
 51
141.8795802028489
  0
ARC
  5
15E
102
{ACAD_REACTORS
330
1AB
330
1AC
102
}
330
47
100
AcDbEntity
  8
0
  6
Continuous
 62
     2
100
AcDbCircle
 10
-60.71874295365353
 20
20.63489703582221
 30
0.0
 40
0.7717997786796724
100
AcDbArc
 50
141.8795802028404
 51
218.1204197971566
  0
ARC
  5
15F
102
{ACAD_REACTORS
330
1AD
330
1AE
102
}
330
47
100
AcDbEntity
  8
0
  6
Continuous
 62
     2
100
AcDbCircle
 10
-64.87943047079332
 20
17.81428156995119
 30
0.0
 40
2.065479772208507
100
AcDbArc
 50
242.4518518243402
 51
297.5481481756871
  0
ARC
  5
160
102
{ACAD_REACTORS
330
1AD
330
1AE
102
}
330
47
100
AcDbEntity
  8
0
  6
Continuous
 62
     2
100
AcDbCircle
 10
-64.87943047079332
 20
16.73713154934509
 30
0.0
 40
2.065479772208574
100
AcDbArc
 50
62.45185182430646
 51
117.5481481756663
  0
ARC
  5
161
102
{ACAD_REACTORS
330
1AD
330
1AE
102
}
330
47
100
AcDbEntity
  8
0
  6
Continuous
 62
     2
100
AcDbCircle
 10
-65.16037036262662
 20
17.27570655964789
 30
0.0
 40
1.45803408365149
100
AcDbArc
 50
117.5481481756624
 51
242.4518518243376
  0
ARC
  5
162
102
{ACAD_REACTORS
330
1AD
330
1AE
102
}
330
47
100
AcDbEntity
  8
0
  6
Continuous
 62
     2
100
AcDbCircle
 10
-64.59849057896002
 20
17.27570655964789
 30
0.0
 40
1.458034083652004
100
AcDbArc
 50
297.548148175701
 51
62.45185182429896
  0
ARC
  5
163
102
{ACAD_REACTORS
330
1AB
330
1AC
102
}
330
47
100
AcDbEntity
  8
0
  6
Continuous
 62
     2
100
AcDbCircle
 10
-60.91848298999983
 20
20.47816585770178
 30
0.0
 40
0.5179085730134372
100
AcDbArc
 50
218.1204197971511
 51
321.8795802028562
  0
ARC
  5
164
102
{ACAD_REACTORS
330
1AB
330
1AC
102
}
330
47
100
AcDbEntity
  8
0
  6
Continuous
 62
     2
100
AcDbCircle
 10
-61.11822302634602
 20
20.63489703582221
 30
0.0
 40
0.7717997786796417
100
AcDbArc
 50
321.8795802028433
 51
38.12041979715956
  0
ARC
  5
165
102
{ACAD_REACTORS
330
1A9
330
1AA
102
}
330
47
100
AcDbEntity
  8
0
  6
Continuous
 62
     2
100
AcDbCircle
 10
-70.33660691343752
 20
16.17304641312589
 30
0.0
 40
0.4242446153832891
100
AcDbArc
 50
270.0
 51
0.0
  0
ARC
  5
166
102
{ACAD_REACTORS
330
1A9
330
1AA
102
}
330
47
100
AcDbEntity
  8
0
  6
Continuous
 62
     2
100
AcDbCircle
 10
-70.33660691343752
 20
21.7375571823261
 30
0.0
 40
0.4242446153838841
100
AcDbArc
 50
0.0
 51
90.0
  0
ARC
  5
167
102
{ACAD_REACTORS
330
1A9
330
1AA
102
}
330
47
100
AcDbEntity
  8
0
  6
Continuous
 62
     2
100
AcDbCircle
 10
-75.80991900415432
 20
21.7375571823261
 30
0.0
 40
0.4242446153837989
100
AcDbArc
 50
90.0
 51
180.0
  0
ARC
  5
168
102
{ACAD_REACTORS
330
1A9
330
1AA
102
}
330
47
100
AcDbEntity
  8
0
  6
Continuous
 62
     2
100
AcDbCircle
 10
-73.74019106639821
 20
16.7770742763762
 30
0.0
 40
0.3157169230767103
100
AcDbArc
 50
270.0
 51
0.0
  0
ARC
  5
169
102
{ACAD_REACTORS
330
1A9
330
1AA
102
}
330
47
100
AcDbEntity
  8
0
  6
Continuous
 62
     2
100
AcDbCircle
 10
-73.74019106639821
 20
20.52950470003279
 30
0.0
 40
0.3157169230761203
100
AcDbArc
 50
295.1944106485397
 51
0.0
  0
ARC
  5
16A
102
{ACAD_REACTORS
330
1A9
330
1AA
102
}
330
47
100
AcDbEntity
  8
0
  6
Continuous
 62
     2
100
AcDbCircle
 10
-73.74019106639821
 20
21.1335293190933
 30
0.0
 40
0.315716923076593
100
AcDbArc
 50
0.0
 51
90.0
  0
ARC
  5
16B
102
{ACAD_REACTORS
330
1A9
330
1AA
102
}
330
47
100
AcDbEntity
  8
0
  6
Continuous
 62
     2
100
AcDbCircle
 10
-75.21602432740784
 20
16.7770742763762
 30
0.0
 40
0.3157169230756836
100
AcDbArc
 50
180.0
 51
270.0
  0
ARC
  5
16C
102
{ACAD_REACTORS
330
1AF
330
1B0
102
}
330
47
100
AcDbEntity
  8
0
  6
Continuous
 62
     2
100
AcDbCircle
 10
-67.43597321915243
 20
21.10643615639441
 30
0.0
 40
1.055365641333708
100
AcDbArc
 50
270.0
 51
90.0
  0
ARC
  5
16D
102
{ACAD_REACTORS
330
1A7
330
1A8
102
}
330
47
100
AcDbEntity
  8
0
  6
Continuous
 62
     2
100
AcDbCircle
 10
-51.70775990746131
 20
17.3884969216827
 30
0.0
 40
1.639695123940449
100
AcDbArc
 50
195.0618917771013
 51
275.1581447696765
  0
ARC
  5
16E
102
{ACAD_REACTORS
330
1A7
330
1A8
102
}
330
47
100
AcDbEntity
  8
0
  6
Continuous
 62
     2
100
AcDbCircle
 10
-51.99661600219713
 20
20.58838750490429
 30
0.0
 40
4.852596863498825
100
AcDbArc
 50
275.1581447696364
 51
285.9799912583387
  0
ARC
  5
16F
102
{ACAD_REACTORS
330
1A7
330
1A8
102
}
330
47
100
AcDbEntity
  8
0
  6
Continuous
 62
     2
100
AcDbCircle
 10
-51.83874312710432
 20
18.68617292505599
 30
0.0
 40
2.227384008972746
100
AcDbArc
 50
288.4480761181335
 51
301.9309089499397
  0
ARC
  5
170
102
{ACAD_REACTORS
330
1A7
330
1A8
102
}
330
47
100
AcDbEntity
  8
0
  6
Continuous
 62
     2
100
AcDbCircle
 10
-51.42057539344242
 20
17.4326271490194
 30
0.0
 40
0.9059297849852894
100
AcDbArc
 50
246.627722111818
 51
288.4480761180817
  0
ARC
  5
171
102
{ACAD_REACTORS
330
1A7
330
1A8
102
}
330
47
100
AcDbEntity
  8
0
  6
Continuous
 62
     2
100
AcDbCircle
 10
-51.19965816806413
 20
17.27570655964789
 30
0.0
 40
0.9410597353348907
100
AcDbArc
 50
151.4785267423626
 51
208.5214732576695
  0
ARC
  5
172
102
{ACAD_REACTORS
330
1A7
330
1A8
102
}
330
47
100
AcDbEntity
  8
0
  6
Continuous
 62
     2
100
AcDbCircle
 10
-51.43034542804182
 20
17.062823008604
 30
0.0
 40
0.9545230068260899
100
AcDbArc
 50
90.0
 51
109.3371432194321
  0
ARC
  5
173
102
{ACAD_REACTORS
330
1A9
330
1AA
102
}
330
47
100
AcDbEntity
  8
0
  6
Continuous
 62
     2
100
AcDbCircle
 10
-72.64047564087613
 20
21.13335184244519
 30
0.0
 40
0.3157169230760746
100
AcDbArc
 50
90.18896704254594
 51
180.0
  0
ARC
  5
174
102
{ACAD_REACTORS
330
1A9
330
1AA
102
}
330
47
100
AcDbEntity
  8
0
  6
Continuous
 62
     2
100
AcDbCircle
 10
-73.16651833896401
 20
19.41867495397059
 30
0.0
 40
0.911848150144459
100
AcDbArc
 50
295.3740086781764
 51
64.62599132180755
  0
ARC
  5
175
102
{ACAD_REACTORS
330
1A5
330
1A6
102
}
330
47
100
AcDbEntity
  8
0
  6
Continuous
 62
     2
100
AcDbCircle
 10
-67.94144460635721
 20
18.68617292505658
 30
0.0
 40
2.22738400897274
100
AcDbArc
 50
288.4480761181328
 51
301.9309089499593
  0
ARC
  5
176
102
{ACAD_REACTORS
330
1A5
330
1A6
102
}
330
47
100
AcDbEntity
  8
0
  6
Continuous
 62
     2
100
AcDbCircle
 10
-67.52327687269641
 20
17.4326271490194
 30
0.0
 40
0.9059297849849257
100
AcDbArc
 50
246.6277221118712
 51
288.4480761181583
  0
ARC
  5
177
102
{ACAD_REACTORS
330
1A5
330
1A6
102
}
330
47
100
AcDbEntity
  8
0
  6
Continuous
 62
     2
100
AcDbCircle
 10
-67.67971690539844
 20
17.0706351303094
 30
0.0
 40
0.5115800601948051
100
AcDbArc
 50
208.5214732576959
 51
246.6277221118277
  0
ARC
  5
178
102
{ACAD_REACTORS
330
1A5
330
1A6
102
}
330
47
100
AcDbEntity
  8
0
  6
Continuous
 62
     2
100
AcDbCircle
 10
-67.52327687269641
 20
17.11878597027629
 30
0.0
 40
0.9059297849853228
100
AcDbArc
 50
71.55192388185348
 51
113.3722778881288
  0
ARC
  5
179
102
{ACAD_REACTORS
330
1A5
330
1A6
102
}
330
47
100
AcDbEntity
  8
0
  6
Continuous
 62
     2
100
AcDbCircle
 10
-68.09931748145013
 20
13.963025614392
 30
0.0
 40
4.852596863498063
100
AcDbArc
 50
74.02000874164737
 51
84.84185523037506
  0
CIRCLE
  5
17A
102
{ACAD_REACTORS
330
1A9
330
1AA
102
}
330
47
100
AcDbEntity
  8
0
  6
Continuous
 62
     2
100
AcDbCircle
 10
-73.19033335363682
 20
19.41867495397059
 30
0.0
 40
0.4709789327785074
  0
CIRCLE
  5
17B
330
47
100
AcDbEntity
  8
1
  6
Continuous
 62
     2
100
AcDbCircle
 10
-67.73416361953713
 20
29.58030179772621
 30
0.0
 40
1.249999999999915
  0
CIRCLE
  5
17C
330
47
100
AcDbEntity
  8
1
  6
Continuous
 62
     2
100
AcDbCircle
 10
-67.73416361953713
 20
29.58030179772621
 30
0.0
 40
2.5
  0
TEXT
  5
17E
330
47
100
AcDbEntity
  8
1
 62
     7
100
AcDbText
 10
-25.09727078408594
 20
26.75530179772619
 30
0.0
 40
2.5
  1
/
 41
0.9
  7
CONVERTER_11
100
AcDbText
  0
TEXT
  5
180
330
47
100
AcDbEntity
  8
1
 62
     7
100
AcDbText
 10
-22.94090628704393
 20
26.75530179772619
 30
0.0
 40
2.5
  1
01
 41
0.81
  7
CONVERTER_12
100
AcDbText
  0
TEXT
  5
181
330
47
100
AcDbEntity
  8
1
 62
     3
100
AcDbText
 10
14.65557773897317
 20
26.75530179772619
 30
0.0
 40
2.5
  1
06.01.2018
 41
0.81
  7
CONVERTER_12
100
AcDbText
  0
MTEXT
  5
182
330
47
100
AcDbEntity
  8
1
 62
     2
100
AcDbMText
 10
14.65557773897317
 20
32.95530179772621
 30
0.0
 40
1.8
 41
0.0
 71
     1
 72
     1
  1
date
  7
CONVERTER_11
 73
     1
 44
1.32052821128451
  0
MTEXT
  5
183
330
47
100
AcDbEntity
  8
1
 62
     2
100
AcDbMText
 10
-15.17081850609972
 20
24.45530179772621
 30
0.0
 40
1.8
 41
0.0
 71
     1
 72
     1
  1
document-type
  7
CONVERTER_11
 73
     1
 44
1.20048019207683
  0
TEXT
  5
184
330
47
100
AcDbEntity
  8
1
 62
     3
100
AcDbText
 10
-15.17081850609972
 20
18.25530179772619
 30
0.0
 40
2.5
  1
TECDOC 2D_Productdrawing
 41
0.81
  7
CONVERTER_12
100
AcDbText
  0
MTEXT
  5
186
330
47
100
AcDbEntity
  8
1
 62
     2
100
AcDbMText
 10
-42.97081850609973
 20
32.95530179772629
 30
0.0
 40
1.8
 41
0.0
 71
     1
 72
     1
  1
document-No. / RI
  7
CONVERTER_13
 73
     1
 44
1.32052821128451
  0
TEXT
  5
187
330
47
100
AcDbEntity
  8
1
 62
     7
100
AcDbText
 10
-42.97081850609973
 20
26.75530179772619
 30
0.0
 40
2.5
  1
00528726
 41
0.81
  7
CONVERTER_12
100
AcDbText
  0
MTEXT
  5
189
330
47
100
AcDbEntity
  8
1
 62
     3
100
AcDbMText
 10
44.61478187981258
 20
26.75530179772639
 30
0.0
 40
2.5
 41
0.0
 71
     8
 72
     1
  1
2:1
  7
CONVERTER_14
 73
     1
 44
1.32052821128451
  0
MTEXT
  5
18A
330
47
100
AcDbEntity
  8
1
 62
     2
100
AcDbMText
 10
41.25557773897299
 20
32.95530179772629
 30
0.0
 40
1.8
 41
0.0
 71
     1
 72
     1
  1
scale
  7
CONVERTER_11
 73
     1
 44
1.20048019207683
  0
MTEXT
  5
18B
330
47
100
AcDbEntity
  8
1
 62
     2
100
AcDbMText
 10
-42.97081850609973
 20
24.45530179772629
 30
0.0
 40
1.8
 41
0.0
 71
     1
 72
     1
  1
ident.-No.
  7
CONVERTER_11
 73
     1
 44
1.20048019207683
  0
TEXT
  5
18C
330
47
100
AcDbEntity
  8
1
 62
     7
100
AcDbText
 10
-42.57081850610001
 20
18.25530179772619
 30
0.0
 40
2.5
  1
0311155
 41
0.81
  7
CONVERTER_12
100
AcDbText
  0
MTEXT
  5
18D
330
47
100
AcDbEntity
  8
1
 62
     2
100
AcDbMText
 10
-114.9088332311472
 20
21.20530179772621
 30
0.0
 40
2.0
 41
0.0
 71
     5
 72
     1
  1
General Information\P- Simplified representation\P- Document excluded from change process\P- Linear dimensions [mm]
  7
CONVERTER_11
 73
     1
 44
1.20048019207683
  0
MTEXT
  5
18E
330
47
100
AcDbEntity
  8
1
 62
     7
100
AcDbMText
 10
51.57398602064927
 20
83.4553017977282
 30
0.0
 40
3.5
 41
0.0
 71
     5
 72
     1
  1
C
  7
CONVERTER_11
 73
     1
 44
1.20048019207683
  0
MTEXT
  5
18F
330
47
100
AcDbEntity
  8
1
 62
     7
100
AcDbMText
 10
51.57398602064927
 20
185.9553017977263
 30
0.0
 40
3.5
 41
0.0
 71
     5
 72
     1
  1
A
  7
CONVERTER_11
 73
     1
 44
1.20048019207683
  0
MTEXT
  5
190
330
47
100
AcDbEntity
  8
1
 62
     7
100
AcDbMText
 10
51.57398602064927
 20
133.4553017977282
 30
0.0
 40
3.5
 41
0.0
 71
     5
 72
     1
  1
B
  7
CONVERTER_11
 73
     1
 44
1.20048019207683
  0
MTEXT
  5
191
330
47
100
AcDbEntity
  8
1
 62
     7
100
AcDbMText
 10
51.57398602064927
 20
30.95530179772629
 30
0.0
 40
3.5
 41
0.0
 71
     5
 72
     1
  1
D
  7
CONVERTER_11
 73
     1
 44
1.20048019207683
  0
MTEXT
  5
192
330
47
100
AcDbEntity
  8
1
 62
     7
100
AcDbMText
 10
-218.6760139793493
 20
5.95530179772618
 30
0.0
 40
3.5
 41
0.0
 71
     5
 72
     1
  1
1
  7
CONVERTER_11
 73
     1
 44
1.20048019207683
  0
MTEXT
  5
193
330
47
100
AcDbEntity
  8
1
 62
     7
100
AcDbMText
 10
-169.4260139793497
 20
5.95530179772618
 30
0.0
 40
3.5
 41
0.0
 71
     5
 72
     1
  1
2
  7
CONVERTER_11
 73
     1
 44
1.20048019207683
  0
MTEXT
  5
194
330
47
100
AcDbEntity
  8
1
 62
     7
100
AcDbMText
 10
-119.4260139793497
 20
5.95530179772618
 30
0.0
 40
3.5
 41
0.0
 71
     5
 72
     1
  1
3
  7
CONVERTER_11
 73
     1
 44
1.20048019207683
  0
MTEXT
  5
195
330
47
100
AcDbEntity
  8
1
 62
     7
100
AcDbMText
 10
-69.42601397934982
 20
5.95530179772618
 30
0.0
 40
3.5
 41
0.0
 71
     5
 72
     1
  1
4
  7
CONVERTER_11
 73
     1
 44
1.20048019207683
  0
MTEXT
  5
196
330
47
100
AcDbEntity
  8
1
 62
     7
100
AcDbMText
 10
-19.42601397934973
 20
5.95530179772618
 30
0.0
 40
3.5
 41
0.0
 71
     5
 72
     1
  1
5
  7
CONVERTER_11
 73
     1
 44
1.20048019207683
  0
MTEXT
  5
197
330
47
100
AcDbEntity
  8
1
 62
     7
100
AcDbMText
 10
29.82398602064947
 20
5.95530179772618
 30
0.0
 40
3.5
 41
0.0
 71
     5
 72
     1
  1
6
  7
CONVERTER_11
 73
     1
 44
1.20048019207683
  0
MTEXT
  5
198
330
47
100
AcDbEntity
  8
1
 62
     7
100
AcDbMText
 10
-240.4260139793488
 20
185.9553017977263
 30
0.0
 40
3.5
 41
0.0
 71
     5
 72
     1
  1
A
  7
CONVERTER_11
 73
     1
 44
1.20048019207683
  0
MTEXT
  5
199
330
47
100
AcDbEntity
  8
1
 62
     7
100
AcDbMText
 10
-240.4260139793488
 20
133.4553017977263
 30
0.0
 40
3.5
 41
0.0
 71
     5
 72
     1
  1
B
  7
CONVERTER_11
 73
     1
 44
1.20048019207683
  0
MTEXT
  5
19A
330
47
100
AcDbEntity
  8
1
 62
     7
100
AcDbMText
 10
-240.4260139793488
 20
83.45530179772629
 30
0.0
 40
3.5
 41
0.0
 71
     5
 72
     1
  1
C
  7
CONVERTER_11
 73
     1
 44
1.20048019207683
  0
MTEXT
  5
19B
330
47
100
AcDbEntity
  8
1
 62
     7
100
AcDbMText
 10
-240.4260139793488
 20
30.95530179772629
 30
0.0
 40
3.5
 41
0.0
 71
     5
 72
     1
  1
D
  7
CONVERTER_11
 73
     1
 44
1.20048019207683
  0
MTEXT
  5
19C
330
47
100
AcDbEntity
  8
1
 62
     3
100
AcDbMText
 10
-54.27081850609983
 20
29.58030179772629
 30
0.0
 40
2.5
 41
0.0
 71
     5
 72
     1
  1
DIN A4
  7
CONVERTER_11
 73
     1
 44
1.20048019207683
  0
MTEXT
  5
19D
330
47
100
AcDbEntity
  8
1
 62
     2
100
AcDbMText
 10
-43.07081850609981
 20
15.95530179772629
 30
0.0
 40
1.8
 41
0.0
 71
     1
 72
     1
  1
description
  7
CONVERTER_11
 73
     1
 44
1.20048019207683
  0
MTEXT
  5
19E
330
47
100
AcDbEntity
  8
1
 62
     7
100
AcDbMText
 10
2.50158375727577
 20
11.70530179772652
 30
0.0
 40
3.0
 41
0.0
 71
     5
 72
     1
  1
S-URTK/SP
  7
CONVERTER_12
 73
     1
 44
1.20048019207683
  0
TEXT
  5
19F
330
47
100
AcDbEntity
  8
1
 62
     2
100
AcDbText
 10
-56.03550969628623
 20
9.70530179772618
 30
0.0
 40
1.8
  1
1
 41
0.9
  7
CONVERTER_11
100
AcDbText
  0
TEXT
  5
1A0
330
47
100
AcDbEntity
  8
1
 62
     2
100
AcDbText
 10
-70.82455353575773
 20
9.65605314392428
 30
0.0
 40
1.8
  1
1
 41
0.9
  7
CONVERTER_11
100
AcDbText
  0
TEXT
  5
1A1
330
47
100
AcDbEntity
  8
1
 62
     2
100
AcDbText
 10
-79.47081850609973
 20
9.69628458273462
 30
0.0
 40
1.8
  1
page
 41
0.9
  7
CONVERTER_11
100
AcDbText
  0
TEXT
  5
1A2
330
47
100
AcDbEntity
  8
1
 62
     2
100
AcDbText
 10
-61.27081850609991
 20
9.69628458273468
 30
0.0
 40
1.8
  1
of
 41
0.9
  7
CONVERTER_11
100
AcDbText
  0
MTEXT
  5
1A3
330
47
100
AcDbEntity
  8
1
 62
     3
100
AcDbMText
 10
-55.06783635448983
 20
195.2466099530251
 30
0.0
 40
1.8
 41
0.0
 71
     7
 72
     1
  3
Transfer or duplication of this document as well as the utilisation or\Pcommunication of its content are not permitted unless express consent\Pis granted. Violations give rise to claims for damages. All rights reserved\Pin case of patent, utility mo
  1
del or design patent registrations.
  7
CONVERTER_11
 73
     1
 44
0.99639855942377
  0
MTEXT
  5
1A4
330
47
100
AcDbEntity
  8
1
 62
     3
100
AcDbMText
 10
-237.9209461932779
 20
195.2466099530251
 30
0.0
 40
1.8
 41
0.0
 71
     7
 72
     1
  3
Weitergabe sowie Vervielf\U+00e4ltigung dieses Dokuments, Verwertung und \PMitteilung seines Inhalts sind verboten, soweit nicht ausdr\U+00fccklich gestattet. \PZuwiderhandlungen verpflichten zu Schadenersatz. Alle Rechte f\U+00fcr den Fall\Pder Pat
  1
ent-, Gebrauchsmuster- oder Designeintragung vorbehalten.
  7
CONVERTER_11
 73
     1
 44
0.99639855942377
  0
HATCH
  5
1A5
330
47
100
AcDbEntity
  8
1
  6
Continuous
 62
     2
100
AcDbHatch
 10
0.0
 20
0.0
 30
0.0
210
0.0
220
0.0
230
1.0
  2
_USER
 70
     0
 71
     1
 91
        1
 92
        1
 93
       14
 72
     2
 10
-68.22958923017703
 20
17.27570655964789
 40
1.205656168390943
 50
164.9381082228766
 51
195.061891777095
 73
     1
 72
     2
 10
-67.81046138671422
 20
17.3884969216827
 40
1.639695123939387
 50
195.0618917770896
 51
275.1581447696395
 73
     1
 72
     2
 10
-68.09931748145013
 20
20.58838750490429
 40
4.852596863498134
 50
275.1581447696249
 51
285.9799912583529
 73
     1
 72
     1
 10
-66.76338956433233
 20
15.92330519910348
 11
-66.76338956433233
 21
16.79582220590669
 72
     2
 10
-67.94144460635721
 20
18.68617292505658
 40
2.22738400897274
 50
58.0690910500407
 51
71.55192388186722
 73
     0
 72
     2
 10
-67.52327687269641
 20
17.4326271490194
 40
0.9059297849849257
 50
71.55192388184167
 51
113.3722778881288
 73
     0
 72
     2
 10
-67.67971690539844
 20
17.0706351303094
 40
0.5115800601948051
 50
113.3722778881723
 51
151.4785267423041
 73
     0
 72
     2
 10
-67.30235964731813
 20
17.27570655964789
 40
0.9410597353332545
 50
151.4785267422941
 51
208.5214732577331
 73
     0
 72
     2
 10
-67.67971690539844
 20
17.48077798898689
 40
0.5115800601948779
 50
208.5214732576956
 51
246.6277221118009
 73
     0
 72
     2
 10
-67.52327687269641
 20
17.11878597027629
 40
0.9059297849853228
 50
246.6277221118712
 51
288.4480761181465
 73
     0
 72
     2
 10
-67.94144460635721
 20
15.8652401942397
 40
2.227384008973484
 50
288.4480761181328
 51
301.9309089499591
 73
     0
 72
     1
 10
-66.76338956433233
 20
17.7555909133896
 11
-66.76338956433233
 21
18.62810792019289
 72
     2
 10
-68.09931748145013
 20
13.963025614392
 40
4.852596863498063
 50
74.02000874164737
 51
84.84185523037506
 73
     1
 72
     2
 10
-67.81046138671422
 20
17.16291619761299
 40
1.639695123940507
 50
84.84185523036236
 51
164.9381082228866
 73
     1
 97
       14
330
179
330
92
330
148
330
178
330
149
330
14A
330
177
330
176
330
175
330
93
330
14B
330
14C
330
14D
330
14E
 75
     1
 76
     0
 52
45.0
 41
0.1
 77
     0
 78
     1
 53
45.0
 43
0.0
 44
0.0
 45
-0.0707106781186548
 46
0.0707106781186548
 79
     0
 98
        1
 10
0.0
 20
0.0
  0
HATCH
  5
1A6
330
47
100
AcDbEntity
  8
1
  6
Continuous
 62
     2
100
AcDbHatch
 10
0.0
 20
0.0
 30
0.0
210
0.0
220
0.0
230
1.0
  2
_USER
 70
     0
 71
     1
 91
        1
 92
        1
 93
       14
 72
     2
 10
-68.22958923017703
 20
17.27570655964789
 40
1.205656168390943
 50
164.9381082228766
 51
195.061891777095
 73
     1
 72
     2
 10
-67.81046138671422
 20
17.3884969216827
 40
1.639695123939387
 50
195.0618917770896
 51
275.1581447696395
 73
     1
 72
     2
 10
-68.09931748145013
 20
20.58838750490429
 40
4.852596863498134
 50
275.1581447696249
 51
285.9799912583529
 73
     1
 72
     1
 10
-66.76338956433233
 20
15.92330519910348
 11
-66.76338956433233
 21
16.79582220590669
 72
     2
 10
-67.94144460635721
 20
18.68617292505658
 40
2.22738400897274
 50
58.0690910500407
 51
71.55192388186722
 73
     0
 72
     2
 10
-67.52327687269641
 20
17.4326271490194
 40
0.9059297849849257
 50
71.55192388184167
 51
113.3722778881288
 73
     0
 72
     2
 10
-67.67971690539844
 20
17.0706351303094
 40
0.5115800601948051
 50
113.3722778881723
 51
151.4785267423041
 73
     0
 72
     2
 10
-67.30235964731813
 20
17.27570655964789
 40
0.9410597353332545
 50
151.4785267422941
 51
208.5214732577331
 73
     0
 72
     2
 10
-67.67971690539844
 20
17.48077798898689
 40
0.5115800601948779
 50
208.5214732576956
 51
246.6277221118009
 73
     0
 72
     2
 10
-67.52327687269641
 20
17.11878597027629
 40
0.9059297849853228
 50
246.6277221118712
 51
288.4480761181465
 73
     0
 72
     2
 10
-67.94144460635721
 20
15.8652401942397
 40
2.227384008973484
 50
288.4480761181328
 51
301.9309089499591
 73
     0
 72
     1
 10
-66.76338956433233
 20
17.7555909133896
 11
-66.76338956433233
 21
18.62810792019289
 72
     2
 10
-68.09931748145013
 20
13.963025614392
 40
4.852596863498063
 50
74.02000874164737
 51
84.84185523037506
 73
     1
 72
     2
 10
-67.81046138671422
 20
17.16291619761299
 40
1.639695123940507
 50
84.84185523036236
 51
164.9381082228866
 73
     1
 97
       14
330
179
330
92
330
148
330
178
330
149
330
14A
330
177
330
176
330
175
330
93
330
14B
330
14C
330
14D
330
14E
 75
     1
 76
     0
 52
45.0
 41
0.1
 77
     0
 78
     1
 53
45.0
 43
0.0
 44
0.0
 45
-0.0707106781186548
 46
0.0707106781186548
 79
     0
 98
        1
 10
0.0
 20
0.0
  0
HATCH
  5
1A7
330
47
100
AcDbEntity
  8
1
  6
Continuous
 62
     2
100
AcDbHatch
 10
0.0
 20
0.0
 30
0.0
210
0.0
220
0.0
230
1.0
  2
_USER
 70
     0
 71
     1
 91
        1
 92
        1
 93
       18
 72
     2
 10
-51.70775990746131
 20
17.16291619761299
 40
1.639695123940211
 50
90.0
 51
164.9381082228951
 73
     1
 72
     2
 10
-52.12688775092292
 20
17.27570655964789
 40
1.205656168393001
 50
164.938108222903
 51
195.0618917770962
 73
     1
 72
     2
 10
-51.70775990746131
 20
17.3884969216827
 40
1.639695123940449
 50
195.0618917771013
 51
275.1581447696765
 73
     1
 72
     2
 10
-51.99661600219713
 20
20.58838750490429
 40
4.852596863498825
 50
275.1581447696364
 51
285.9799912583387
 73
     1
 72
     1
 10
-50.66068808508041
 20
15.92330519910288
 11
-50.66068808508041
 21
16.79582220590621
 72
     2
 10
-51.83874312710432
 20
18.68617292505599
 40
2.227384008972746
 50
58.06909105006029
 51
71.55192388186651
 73
     0
 72
     2
 10
-51.42057539344242
 20
17.4326271490194
 40
0.9059297849852894
 50
71.55192388191827
 51
113.372277888182
 73
     0
 72
     2
 10
-51.57701542614552
 20
17.0706351303094
 40
0.5115800601960215
 50
113.3722778881555
 51
151.4785267423134
 73
     0
 72
     2
 10
-51.19965816806413
 20
17.27570655964789
 40
0.9410597353348907
 50
151.4785267423305
 51
208.5214732576374
 73
     0
 72
     2
 10
-51.57701542614552
 20
17.48077798898689
 40
0.5115800601944076
 50
208.5214732575772
 51
250.6628567805145
 73
     0
 72
     2
 10
-51.43034542804182
 20
17.062823008604
 40
0.9545230068260899
 50
250.6628567805679
 51
270.0
 73
     0
 72
     1
 10
-51.43034542804182
 20
18.01734601543009
 11
-50.32670612847372
 21
18.01734601543009
 72
     1
 10
-50.32670612847372
 20
18.01734601543009
 11
-50.32670612847372
 21
15.7488017977426
 72
     1
 10
-50.32670612847372
 20
15.7488017977426
 11
-49.13391342630601
 21
15.7488017977426
 72
     1
 10
-49.13391342630601
 20
15.7488017977426
 11
-49.13391342630601
 21
18.01734601543009
 72
     1
 10
-49.13391342630601
 20
18.01734601543009
 11
-48.32281438883263
 21
18.01734601543009
 72
     1
 10
-48.32281438883263
 20
18.01734601543009
 11
-48.32281438883263
 21
18.80261132155368
 72
     1
 10
-48.32281438883263
 20
18.80261132155368
 11
-51.70775990746131
 21
18.8026113215532
 97
       18
330
F8
330
F7
330
F6
330
F5
330
FA
330
94
330
172
330
153
330
171
330
154
330
170
330
16F
330
95
330
16E
330
16D
330
155
330
156
330
F9
 75
     1
 76
     0
 52
45.0
 41
0.1
 77
     0
 78
     1
 53
45.0
 43
0.0
 44
0.0
 45
-0.0707106781186548
 46
0.0707106781186548
 79
     0
 98
        1
 10
0.0
 20
0.0
  0
HATCH
  5
1A8
330
47
100
AcDbEntity
  8
1
  6
Continuous
 62
     2
100
AcDbHatch
 10
0.0
 20
0.0
 30
0.0
210
0.0
220
0.0
230
1.0
  2
_USER
 70
     0
 71
     1
 91
        1
 92
        1
 93
       18
 72
     2
 10
-51.70775990746131
 20
17.16291619761299
 40
1.639695123940211
 50
90.0
 51
164.9381082228951
 73
     1
 72
     2
 10
-52.12688775092292
 20
17.27570655964789
 40
1.205656168393001
 50
164.938108222903
 51
195.0618917770962
 73
     1
 72
     2
 10
-51.70775990746131
 20
17.3884969216827
 40
1.639695123940449
 50
195.0618917771013
 51
275.1581447696765
 73
     1
 72
     2
 10
-51.99661600219713
 20
20.58838750490429
 40
4.852596863498825
 50
275.1581447696364
 51
285.9799912583387
 73
     1
 72
     1
 10
-50.66068808508041
 20
15.92330519910288
 11
-50.66068808508041
 21
16.79582220590621
 72
     2
 10
-51.83874312710432
 20
18.68617292505599
 40
2.227384008972746
 50
58.06909105006029
 51
71.55192388186651
 73
     0
 72
     2
 10
-51.42057539344242
 20
17.4326271490194
 40
0.9059297849852894
 50
71.55192388191827
 51
113.372277888182
 73
     0
 72
     2
 10
-51.57701542614552
 20
17.0706351303094
 40
0.5115800601960215
 50
113.3722778881555
 51
151.4785267423134
 73
     0
 72
     2
 10
-51.19965816806413
 20
17.27570655964789
 40
0.9410597353348907
 50
151.4785267423305
 51
208.5214732576374
 73
     0
 72
     2
 10
-51.57701542614552
 20
17.48077798898689
 40
0.5115800601944076
 50
208.5214732575772
 51
250.6628567805145
 73
     0
 72
     2
 10
-51.43034542804182
 20
17.062823008604
 40
0.9545230068260899
 50
250.6628567805679
 51
270.0
 73
     0
 72
     1
 10
-51.43034542804182
 20
18.01734601543009
 11
-50.32670612847372
 21
18.01734601543009
 72
     1
 10
-50.32670612847372
 20
18.01734601543009
 11
-50.32670612847372
 21
15.7488017977426
 72
     1
 10
-50.32670612847372
 20
15.7488017977426
 11
-49.13391342630601
 21
15.7488017977426
 72
     1
 10
-49.13391342630601
 20
15.7488017977426
 11
-49.13391342630601
 21
18.01734601543009
 72
     1
 10
-49.13391342630601
 20
18.01734601543009
 11
-48.32281438883263
 21
18.01734601543009
 72
     1
 10
-48.32281438883263
 20
18.01734601543009
 11
-48.32281438883263
 21
18.80261132155368
 72
     1
 10
-48.32281438883263
 20
18.80261132155368
 11
-51.70775990746131
 21
18.8026113215532
 97
       18
330
F8
330
F7
330
F6
330
F5
330
FA
330
94
330
172
330
153
330
171
330
154
330
170
330
16F
330
95
330
16E
330
16D
330
155
330
156
330
F9
 75
     1
 76
     0
 52
45.0
 41
0.1
 77
     0
 78
     1
 53
45.0
 43
0.0
 44
0.0
 45
-0.0707106781186548
 46
0.0707106781186548
 79
     0
 98
        1
 10
0.0
 20
0.0
  0
HATCH
  5
1A9
330
47
100
AcDbEntity
  8
1
  6
Continuous
 62
     2
100
AcDbHatch
 10
0.0
 20
0.0
 30
0.0
210
0.0
220
0.0
230
1.0
  2
_USER
 70
     0
 71
     1
 91
        4
 92
        1
 93
        8
 72
     2
 10
-75.80991900415432
 20
21.7375571823261
 40
0.4242446153837989
 50
90.0
 51
180.0
 73
     1
 72
     1
 10
-76.23416361953713
 20
21.7375571823261
 11
-76.23416361953713
 21
16.17304641312589
 72
     2
 10
-75.80991900415432
 20
16.17304641312589
 40
0.4242446153828041
 50
180.0
 51
270.0
 73
     1
 72
     1
 10
-75.80991900415432
 20
15.7488017977426
 11
-70.33660691343752
 21
15.7488017977426
 72
     2
 10
-70.33660691343752
 20
16.17304641312589
 40
0.4242446153832891
 50
270.0
 51
360.0
 73
     1
 72
     1
 10
-69.91236229805364
 20
16.17304641312589
 11
-69.91236229805364
 21
21.7375571823261
 72
     2
 10
-70.33660691343752
 20
21.7375571823261
 40
0.4242446153838841
 50
0.0
 51
90.0
 73
     1
 72
     1
 10
-70.33660691343752
 20
22.1618017977099
 11
-75.80991900415432
 21
22.1618017977099
 97
        8
330
166
330
C3
330
165
330
C4
330
15C
330
C1
330
167
330
C2
 92
       16
 93
        1
 72
     2
 10
-73.19033335363682
 20
19.41867495397059
 40
0.4709789327785074
 50
0.0
 51
360.0
 73
     1
 97
        1
330
17A
 92
       16
 93
        8
 72
     2
 10
-73.16651833896401
 20
19.41867495397059
 40
0.911848150144459
 50
295.3740086781764
 51
424.6259913218075
 73
     1
 72
     2
 10
-72.64047564087613
 20
20.52781655393841
 40
0.315716923076792
 50
115.3740086783516
 51
180.0
 73
     0
 72
     1
 10
-72.95619256395292
 20
20.52781655393841
 11
-72.95619256395292
 21
21.13335184244519
 72
     2
 10
-72.64047564087613
 20
21.13335184244519
 40
0.3157169230760746
 50
180.0
 51
269.8110329574541
 73
     0
 72
     2
 10
-72.63485950556611
 20
19.43051689487609
 40
2.018561131933266
 50
269.8110329575858
 51
450.1889670424142
 73
     0
 72
     2
 10
-72.64047564087613
 20
17.7276819473071
 40
0.315716923076792
 50
90.18896704254585
 51
180.0
 73
     0
 72
     1
 10
-72.95619256395292
 20
17.7276819473071
 11
-72.95619256395292
 21
18.30953335400218
 72
     2
 10
-72.64047564087613
 20
18.30953335400218
 40
0.3157169230765328
 50
180.0
 51
244.6259913216482
 73
     0
 97
        8
330
174
330
150
330
FC
330
173
330
151
330
152
330
FB
330
14F
 92
       16
 93
       12
 72
     1
 10
-75.21602432740784
 20
16.46135735329949
 11
-73.74019106639821
 21
16.46135735329949
 72
     2
 10
-73.74019106639821
 20
16.7770742763762
 40
0.3157169230767103
 50
270.0
 51
360.0
 73
     1
 72
     1
 10
-73.42447414332162
 20
16.7770742763762
 11
-73.42447414332162
 21
18.3078452079078
 72
     2
 10
-73.74019106639821
 20
18.3078452079078
 40
0.315716923076593
 50
0.0
 51
64.80558935146027
 73
     1
 72
     2
 10
-73.21760661882323
 20
19.41867495397059
 40
0.9118975235576178
 50
115.1944106485122
 51
244.8055893514719
 73
     0
 72
     2
 10
-73.74019106639821
 20
20.52950470003279
 40
0.3157169230761203
 50
295.1944106485397
 51
360.0
 73
     1
 72
     1
 10
-73.42447414332162
 20
20.52950470003279
 11
-73.42447414332162
 21
21.1335293190933
 72
     2
 10
-73.74019106639821
 20
21.1335293190933
 40
0.315716923076593
 50
0.0
 51
90.0
 73
     1
 72
     1
 10
-73.74019106639821
 20
21.44924624216949
 11
-75.21602432740784
 21
21.44924624216949
 72
     2
 10
-75.21602432740784
 20
21.1335293190933
 40
0.3157169230761916
 50
90.0
 51
180.0
 73
     1
 72
     1
 10
-75.53174125048352
 20
21.1335293190933
 11
-75.53174125048352
 21
16.7770742763762
 72
     2
 10
-75.21602432740784
 20
16.7770742763762
 40
0.3157169230756836
 50
180.0
 51
270.0
 73
     1
 97
       12
330
C8
330
159
330
C7
330
16A
330
C6
330
169
330
15A
330
15B
330
C5
330
168
330
C0
330
16B
 75
     1
 76
     0
 52
45.0
 41
0.1
 77
     0
 78
     1
 53
45.0
 43
0.0
 44
0.0
 45
-0.0707106781186548
 46
0.0707106781186548
 79
     0
 98
        1
 10
0.0
 20
0.0
  0
HATCH
  5
1AA
330
47
100
AcDbEntity
  8
1
  6
Continuous
 62
     2
100
AcDbHatch
 10
0.0
 20
0.0
 30
0.0
210
0.0
220
0.0
230
1.0
  2
_USER
 70
     0
 71
     1
 91
        4
 92
        1
 93
        8
 72
     2
 10
-75.80991900415432
 20
21.7375571823261
 40
0.4242446153837989
 50
90.0
 51
180.0
 73
     1
 72
     1
 10
-76.23416361953713
 20
21.7375571823261
 11
-76.23416361953713
 21
16.17304641312589
 72
     2
 10
-75.80991900415432
 20
16.17304641312589
 40
0.4242446153828041
 50
180.0
 51
270.0
 73
     1
 72
     1
 10
-75.80991900415432
 20
15.7488017977426
 11
-70.33660691343752
 21
15.7488017977426
 72
     2
 10
-70.33660691343752
 20
16.17304641312589
 40
0.4242446153832891
 50
270.0
 51
360.0
 73
     1
 72
     1
 10
-69.91236229805364
 20
16.17304641312589
 11
-69.91236229805364
 21
21.7375571823261
 72
     2
 10
-70.33660691343752
 20
21.7375571823261
 40
0.4242446153838841
 50
0.0
 51
90.0
 73
     1
 72
     1
 10
-70.33660691343752
 20
22.1618017977099
 11
-75.80991900415432
 21
22.1618017977099
 97
        8
330
166
330
C3
330
165
330
C4
330
15C
330
C1
330
167
330
C2
 92
       16
 93
        1
 72
     2
 10
-73.19033335363682
 20
19.41867495397059
 40
0.4709789327785074
 50
0.0
 51
360.0
 73
     1
 97
        1
330
17A
 92
       16
 93
        8
 72
     2
 10
-73.16651833896401
 20
19.41867495397059
 40
0.911848150144459
 50
295.3740086781764
 51
424.6259913218075
 73
     1
 72
     2
 10
-72.64047564087613
 20
20.52781655393841
 40
0.315716923076792
 50
115.3740086783516
 51
180.0
 73
     0
 72
     1
 10
-72.95619256395292
 20
20.52781655393841
 11
-72.95619256395292
 21
21.13335184244519
 72
     2
 10
-72.64047564087613
 20
21.13335184244519
 40
0.3157169230760746
 50
180.0
 51
269.8110329574541
 73
     0
 72
     2
 10
-72.63485950556611
 20
19.43051689487609
 40
2.018561131933266
 50
269.8110329575858
 51
450.1889670424142
 73
     0
 72
     2
 10
-72.64047564087613
 20
17.7276819473071
 40
0.315716923076792
 50
90.18896704254585
 51
180.0
 73
     0
 72
     1
 10
-72.95619256395292
 20
17.7276819473071
 11
-72.95619256395292
 21
18.30953335400218
 72
     2
 10
-72.64047564087613
 20
18.30953335400218
 40
0.3157169230765328
 50
180.0
 51
244.6259913216482
 73
     0
 97
        8
330
174
330
150
330
FC
330
173
330
151
330
152
330
FB
330
14F
 92
       16
 93
       12
 72
     1
 10
-75.21602432740784
 20
16.46135735329949
 11
-73.74019106639821
 21
16.46135735329949
 72
     2
 10
-73.74019106639821
 20
16.7770742763762
 40
0.3157169230767103
 50
270.0
 51
360.0
 73
     1
 72
     1
 10
-73.42447414332162
 20
16.7770742763762
 11
-73.42447414332162
 21
18.3078452079078
 72
     2
 10
-73.74019106639821
 20
18.3078452079078
 40
0.315716923076593
 50
0.0
 51
64.80558935146027
 73
     1
 72
     2
 10
-73.21760661882323
 20
19.41867495397059
 40
0.9118975235576178
 50
115.1944106485122
 51
244.8055893514719
 73
     0
 72
     2
 10
-73.74019106639821
 20
20.52950470003279
 40
0.3157169230761203
 50
295.1944106485397
 51
360.0
 73
     1
 72
     1
 10
-73.42447414332162
 20
20.52950470003279
 11
-73.42447414332162
 21
21.1335293190933
 72
     2
 10
-73.74019106639821
 20
21.1335293190933
 40
0.315716923076593
 50
0.0
 51
90.0
 73
     1
 72
     1
 10
-73.74019106639821
 20
21.44924624216949
 11
-75.21602432740784
 21
21.44924624216949
 72
     2
 10
-75.21602432740784
 20
21.1335293190933
 40
0.3157169230761916
 50
90.0
 51
180.0
 73
     1
 72
     1
 10
-75.53174125048352
 20
21.1335293190933
 11
-75.53174125048352
 21
16.7770742763762
 72
     2
 10
-75.21602432740784
 20
16.7770742763762
 40
0.3157169230756836
 50
180.0
 51
270.0
 73
     1
 97
       12
330
C8
330
159
330
C7
330
16A
330
C6
330
169
330
15A
330
15B
330
C5
330
168
330
C0
330
16B
 75
     1
 76
     0
 52
45.0
 41
0.1
 77
     0
 78
     1
 53
45.0
 43
0.0
 44
0.0
 45
-0.0707106781186548
 46
0.0707106781186548
 79
     0
 98
        1
 10
0.0
 20
0.0
  0
HATCH
  5
1AB
330
47
100
AcDbEntity
  8
1
  6
Continuous
 62
     2
100
AcDbHatch
 10
0.0
 20
0.0
 30
0.0
210
0.0
220
0.0
230
1.0
  2
_USER
 70
     0
 71
     1
 91
        2
 92
        1
 93
       12
 72
     2
 10
-61.13475500016503
 20
20.63489703582221
 40
1.526904761905879
 50
90.0
 51
270.0
 73
     1
 72
     1
 10
-61.13475500016503
 20
19.10799227391689
 11
-57.98443527638403
 21
19.10799227391689
 72
     1
 10
-57.98443527638403
 20
19.10799227391689
 11
-57.98443527638403
 21
19.80600587935939
 72
     1
 10
-57.98443527638403
 20
19.80600587935939
 11
-59.32036310281171
 21
19.80600587935939
 72
     1
 10
-59.32036310281171
 20
19.80600587935939
 11
-59.32036310281171
 21
20.2858902331011
 72
     1
 10
-59.32036310281171
 20
20.2858902331011
 11
-57.98443527638403
 21
20.2858902331011
 72
     1
 10
-57.98443527638403
 20
20.2858902331011
 11
-57.98443527638403
 21
20.9839038385434
 72
     1
 10
-57.98443527638403
 20
20.9839038385434
 11
-59.32036310281171
 21
20.9839038385434
 72
     1
 10
-59.32036310281171
 20
20.9839038385434
 11
-59.32036310281171
 21
21.46378819228511
 72
     1
 10
-59.32036310281171
 20
21.46378819228511
 11
-57.98443527638403
 21
21.46378819228511
 72
     1
 10
-57.98443527638403
 20
21.46378819228511
 11
-57.98443527638403
 21
22.16180179772809
 72
     1
 10
-57.98443527638403
 20
22.16180179772809
 11
-61.13475500016503
 21
22.16180179772809
 97
       12
330
B7
330
B1
330
D8
330
D7
330
D6
330
D5
330
B2
330
B3
330
B4
330
B5
330
157
330
B6
 92
       16
 93
        4
 72
     2
 10
-60.71874295365353
 20
20.63489703582221
 40
0.7717997786796724
 50
141.8795802028404
 51
218.1204197971566
 73
     1
 72
     2
 10
-60.91848298999983
 20
20.47816585770178
 40
0.5179085730134372
 50
218.1204197971511
 51
321.8795802028562
 73
     1
 72
     2
 10
-61.11822302634602
 20
20.63489703582221
 40
0.7717997786796417
 50
321.8795802028433
 51
398.1204197971596
 73
     1
 72
     2
 10
-60.91848298999983
 20
20.79162821394269
 40
0.517908573013521
 50
38.12041979714382
 51
141.8795802028489
 73
     1
 97
        4
330
164
330
163
330
15E
330
15D
 75
     1
 76
     0
 52
45.0
 41
0.1
 77
     0
 78
     1
 53
45.0
 43
0.0
 44
0.0
 45
-0.0707106781186548
 46
0.0707106781186548
 79
     0
 98
        1
 10
0.0
 20
0.0
  0
HATCH
  5
1AC
330
47
100
AcDbEntity
  8
1
  6
Continuous
 62
     2
100
AcDbHatch
 10
0.0
 20
0.0
 30
0.0
210
0.0
220
0.0
230
1.0
  2
_USER
 70
     0
 71
     1
 91
        2
 92
        1
 93
       12
 72
     2
 10
-61.13475500016503
 20
20.63489703582221
 40
1.526904761905879
 50
90.0
 51
270.0
 73
     1
 72
     1
 10
-61.13475500016503
 20
19.10799227391689
 11
-57.98443527638403
 21
19.10799227391689
 72
     1
 10
-57.98443527638403
 20
19.10799227391689
 11
-57.98443527638403
 21
19.80600587935939
 72
     1
 10
-57.98443527638403
 20
19.80600587935939
 11
-59.32036310281171
 21
19.80600587935939
 72
     1
 10
-59.32036310281171
 20
19.80600587935939
 11
-59.32036310281171
 21
20.2858902331011
 72
     1
 10
-59.32036310281171
 20
20.2858902331011
 11
-57.98443527638403
 21
20.2858902331011
 72
     1
 10
-57.98443527638403
 20
20.2858902331011
 11
-57.98443527638403
 21
20.9839038385434
 72
     1
 10
-57.98443527638403
 20
20.9839038385434
 11
-59.32036310281171
 21
20.9839038385434
 72
     1
 10
-59.32036310281171
 20
20.9839038385434
 11
-59.32036310281171
 21
21.46378819228511
 72
     1
 10
-59.32036310281171
 20
21.46378819228511
 11
-57.98443527638403
 21
21.46378819228511
 72
     1
 10
-57.98443527638403
 20
21.46378819228511
 11
-57.98443527638403
 21
22.16180179772809
 72
     1
 10
-57.98443527638403
 20
22.16180179772809
 11
-61.13475500016503
 21
22.16180179772809
 97
       12
330
B7
330
B1
330
D8
330
D7
330
D6
330
D5
330
B2
330
B3
330
B4
330
B5
330
157
330
B6
 92
       16
 93
        4
 72
     2
 10
-60.71874295365353
 20
20.63489703582221
 40
0.7717997786796724
 50
141.8795802028404
 51
218.1204197971566
 73
     1
 72
     2
 10
-60.91848298999983
 20
20.47816585770178
 40
0.5179085730134372
 50
218.1204197971511
 51
321.8795802028562
 73
     1
 72
     2
 10
-61.11822302634602
 20
20.63489703582221
 40
0.7717997786796417
 50
321.8795802028433
 51
398.1204197971596
 73
     1
 72
     2
 10
-60.91848298999983
 20
20.79162821394269
 40
0.517908573013521
 50
38.12041979714382
 51
141.8795802028489
 73
     1
 97
        4
330
164
330
163
330
15E
330
15D
 75
     1
 76
     0
 52
45.0
 41
0.1
 77
     0
 78
     1
 53
45.0
 43
0.0
 44
0.0
 45
-0.0707106781186548
 46
0.0707106781186548
 79
     0
 98
        1
 10
0.0
 20
0.0
  0
HATCH
  5
1AD
330
47
100
AcDbEntity
  8
1
  6
Continuous
 62
     2
100
AcDbHatch
 10
0.0
 20
0.0
 30
0.0
210
0.0
220
0.0
230
1.0
  2
_USER
 70
     0
 71
     1
 91
        2
 92
        1
 93
        4
 72
     2
 10
-65.16037036262662
 20
17.27570655964789
 40
1.45803408365149
 50
117.5481481756624
 51
242.4518518243376
 73
     1
 72
     2
 10
-64.87943047079332
 20
17.81428156995119
 40
2.065479772208507
 50
242.4518518243402
 51
297.5481481756871
 73
     1
 72
     2
 10
-64.59849057896002
 20
17.27570655964789
 40
1.458034083652004
 50
297.548148175701
 51
422.451851824299
 73
     1
 72
     2
 10
-64.87943047079332
 20
16.73713154934509
 40
2.065479772208574
 50
62.45185182430646
 51
117.5481481756663
 73
     1
 97
        4
330
162
330
15F
330
161
330
160
 92
       16
 93
        4
 72
     2
 10
-64.87943047079332
 20
17.4324377377684
 40
0.5179085730132976
 50
38.12041979714672
 51
141.8795802028591
 73
     1
 72
     2
 10
-64.67969043444722
 20
17.27570655964789
 40
0.771799778679461
 50
141.8795802028365
 51
218.1204197971687
 73
     1
 72
     2
 10
-64.87943047079332
 20
17.11897538152789
 40
0.5179085730137332
 50
218.1204197971929
 51
321.8795802028013
 73
     1
 72
     2
 10
-65.07917050713974
 20
17.27570655964789
 40
0.7717997786796947
 50
321.8795802028417
 51
398.120419797153
 73
     1
 97
        4
330
145
330
146
330
147
330
144
 75
     1
 76
     0
 52
45.0
 41
0.1
 77
     0
 78
     1
 53
45.0
 43
0.0
 44
0.0
 45
-0.0707106781186548
 46
0.0707106781186548
 79
     0
 98
        1
 10
0.0
 20
0.0
  0
HATCH
  5
1AE
330
47
100
AcDbEntity
  8
1
  6
Continuous
 62
     2
100
AcDbHatch
 10
0.0
 20
0.0
 30
0.0
210
0.0
220
0.0
230
1.0
  2
_USER
 70
     0
 71
     1
 91
        2
 92
        1
 93
        4
 72
     2
 10
-65.16037036262662
 20
17.27570655964789
 40
1.45803408365149
 50
117.5481481756624
 51
242.4518518243376
 73
     1
 72
     2
 10
-64.87943047079332
 20
17.81428156995119
 40
2.065479772208507
 50
242.4518518243402
 51
297.5481481756871
 73
     1
 72
     2
 10
-64.59849057896002
 20
17.27570655964789
 40
1.458034083652004
 50
297.548148175701
 51
422.451851824299
 73
     1
 72
     2
 10
-64.87943047079332
 20
16.73713154934509
 40
2.065479772208574
 50
62.45185182430646
 51
117.5481481756663
 73
     1
 97
        4
330
162
330
15F
330
161
330
160
 92
       16
 93
        4
 72
     2
 10
-64.87943047079332
 20
17.4324377377684
 40
0.5179085730132976
 50
38.12041979714672
 51
141.8795802028591
 73
     1
 72
     2
 10
-64.67969043444722
 20
17.27570655964789
 40
0.771799778679461
 50
141.8795802028365
 51
218.1204197971687
 73
     1
 72
     2
 10
-64.87943047079332
 20
17.11897538152789
 40
0.5179085730137332
 50
218.1204197971929
 51
321.8795802028013
 73
     1
 72
     2
 10
-65.07917050713974
 20
17.27570655964789
 40
0.7717997786796947
 50
321.8795802028417
 51
398.120419797153
 73
     1
 97
        4
330
145
330
146
330
147
330
144
 75
     1
 76
     0
 52
45.0
 41
0.1
 77
     0
 78
     1
 53
45.0
 43
0.0
 44
0.0
 45
-0.0707106781186548
 46
0.0707106781186548
 79
     0
 98
        1
 10
0.0
 20
0.0
  0
HATCH
  5
1AF
330
47
100
AcDbEntity
  8
1
  6
Continuous
 62
     2
100
AcDbHatch
 10
0.0
 20
0.0
 30
0.0
210
0.0
220
0.0
230
1.0
  2
_USER
 70
     0
 71
     1
 91
        2
 92
        1
 93
        6
 72
     1
 10
-69.43524521718683
 20
22.16180179772809
 11
-69.43524521718683
 21
19.10799227391689
 72
     1
 10
-69.43524521718683
 20
19.10799227391689
 11
-68.19474080693271
 21
19.10799227391689
 72
     1
 10
-68.19474080693271
 20
19.10799227391689
 11
-68.19474080693271
 21
20.0510705150607
 72
     1
 10
-68.19474080693271
 20
20.0510705150607
 11
-67.43597321915243
 21
20.0510705150607
 72
     2
 10
-67.43597321915243
 20
21.10643615639441
 40
1.055365641333708
 50
270.0
 51
450.0
 73
     1
 72
     1
 10
-67.43597321915243
 20
22.16180179772809
 11
-69.43524521718683
 21
22.16180179772809
 97
        6
330
16C
330
C9
330
BF
330
BE
330
CB
330
CA
 92
       16
 93
        4
 72
     1
 10
-67.87744574539082
 20
21.49869595228799
 11
-68.19474080693271
 21
21.49869595228799
 72
     1
 10
-68.19474080693271
 20
21.49869595228799
 11
-68.19474080693271
 21
20.79296830294578
 72
     1
 10
-68.19474080693271
 20
20.79296830294578
 11
-67.87744574539082
 21
20.79296830294578
 72
     2
 10
-67.87744574539082
 20
21.1458321276169
 40
0.3528638246711182
 50
270.0
 51
450.0
 73
     1
 97
        4
330
CC
330
BD
330
CD
330
158
 75
     1
 76
     0
 52
45.0
 41
0.1
 77
     0
 78
     1
 53
45.0
 43
0.0
 44
0.0
 45
-0.0707106781186548
 46
0.0707106781186548
 79
     0
 98
        1
 10
0.0
 20
0.0
  0
HATCH
  5
1B0
330
47
100
AcDbEntity
  8
1
  6
Continuous
 62
     2
100
AcDbHatch
 10
0.0
 20
0.0
 30
0.0
210
0.0
220
0.0
230
1.0
  2
_USER
 70
     0
 71
     1
 91
        2
 92
        1
 93
        6
 72
     1
 10
-69.43524521718683
 20
22.16180179772809
 11
-69.43524521718683
 21
19.10799227391689
 72
     1
 10
-69.43524521718683
 20
19.10799227391689
 11
-68.19474080693271
 21
19.10799227391689
 72
     1
 10
-68.19474080693271
 20
19.10799227391689
 11
-68.19474080693271
 21
20.0510705150607
 72
     1
 10
-68.19474080693271
 20
20.0510705150607
 11
-67.43597321915243
 21
20.0510705150607
 72
     2
 10
-67.43597321915243
 20
21.10643615639441
 40
1.055365641333708
 50
270.0
 51
450.0
 73
     1
 72
     1
 10
-67.43597321915243
 20
22.16180179772809
 11
-69.43524521718683
 21
22.16180179772809
 97
        6
330
16C
330
C9
330
BF
330
BE
330
CB
330
CA
 92
       16
 93
        4
 72
     1
 10
-67.87744574539082
 20
21.49869595228799
 11
-68.19474080693271
 21
21.49869595228799
 72
     1
 10
-68.19474080693271
 20
21.49869595228799
 11
-68.19474080693271
 21
20.79296830294578
 72
     1
 10
-68.19474080693271
 20
20.79296830294578
 11
-67.87744574539082
 21
20.79296830294578
 72
     2
 10
-67.87744574539082
 20
21.1458321276169
 40
0.3528638246711182
 50
270.0
 51
450.0
 73
     1
 97
        4
330
CC
330
BD
330
CD
330
158
 75
     1
 76
     0
 52
45.0
 41
0.1
 77
     0
 78
     1
 53
45.0
 43
0.0
 44
0.0
 45
-0.0707106781186548
 46
0.0707106781186548
 79
     0
 98
        1
 10
0.0
 20
0.0
  0
HATCH
  5
1B1
330
47
100
AcDbEntity
  8
1
  6
Continuous
 62
     2
100
AcDbHatch
 10
0.0
 20
0.0
 30
0.0
210
0.0
220
0.0
230
1.0
  2
_USER
 70
     0
 71
     1
 91
        1
 92
        1
 93
       12
 72
     1
 10
-49.82096202275363
 20
22.16180179772809
 11
-48.41823780500641
 21
22.16180179772809
 72
     1
 10
-48.41823780500641
 20
22.16180179772809
 11
-49.72076743577293
 21
20.68885126769189
 72
     1
 10
-49.72076743577293
 20
20.68885126769189
 11
-48.32281438883263
 21
19.10799227391689
 72
     1
 10
-48.32281438883263
 20
19.10799227391689
 11
-49.72553860658093
 21
19.10799227391689
 72
     1
 10
-49.72553860658093
 20
19.10799227391689
 11
-50.42212954464642
 21
19.89572405921061
 72
     1
 10
-50.42212954464642
 20
19.89572405921061
 11
-51.11872048271212
 21
19.10799227391689
 72
     1
 10
-51.11872048271212
 20
19.10799227391689
 11
-52.52144470046034
 21
19.10799227391689
 72
     1
 10
-52.52144470046034
 20
19.10799227391689
 11
-51.12349165352003
 21
20.68885126769189
 72
     1
 10
-51.12349165352003
 20
20.68885126769189
 11
-52.42602128428752
 21
22.16180179772809
 72
     1
 10
-52.42602128428752
 20
22.16180179772809
 11
-51.02329706653822
 21
22.16180179772809
 72
     1
 10
-51.02329706653822
 20
22.16180179772809
 11
-50.42212954464642
 21
21.4819784761726
 72
     1
 10
-50.42212954464642
 20
21.4819784761726
 11
-49.82096202275363
 21
22.16180179772809
 97
       12
330
98
330
F1
330
F0
330
EF
330
EE
330
99
330
9A
330
96
330
97
330
F4
330
F3
330
F2
 75
     1
 76
     0
 52
45.0
 41
0.1
 77
     0
 78
     1
 53
45.0
 43
0.0
 44
0.0
 45
-0.0707106781186548
 46
0.0707106781186548
 79
     0
 98
        1
 10
0.0
 20
0.0
  0
HATCH
  5
1B2
330
47
100
AcDbEntity
  8
1
  6
Continuous
 62
     2
100
AcDbHatch
 10
0.0
 20
0.0
 30
0.0
210
0.0
220
0.0
230
1.0
  2
_USER
 70
     0
 71
     1
 91
        1
 92
        1
 93
       12
 72
     1
 10
-49.82096202275363
 20
22.16180179772809
 11
-48.41823780500641
 21
22.16180179772809
 72
     1
 10
-48.41823780500641
 20
22.16180179772809
 11
-49.72076743577293
 21
20.68885126769189
 72
     1
 10
-49.72076743577293
 20
20.68885126769189
 11
-48.32281438883263
 21
19.10799227391689
 72
     1
 10
-48.32281438883263
 20
19.10799227391689
 11
-49.72553860658093
 21
19.10799227391689
 72
     1
 10
-49.72553860658093
 20
19.10799227391689
 11
-50.42212954464642
 21
19.89572405921061
 72
     1
 10
-50.42212954464642
 20
19.89572405921061
 11
-51.11872048271212
 21
19.10799227391689
 72
     1
 10
-51.11872048271212
 20
19.10799227391689
 11
-52.52144470046034
 21
19.10799227391689
 72
     1
 10
-52.52144470046034
 20
19.10799227391689
 11
-51.12349165352003
 21
20.68885126769189
 72
     1
 10
-51.12349165352003
 20
20.68885126769189
 11
-52.42602128428752
 21
22.16180179772809
 72
     1
 10
-52.42602128428752
 20
22.16180179772809
 11
-51.02329706653822
 21
22.16180179772809
 72
     1
 10
-51.02329706653822
 20
22.16180179772809
 11
-50.42212954464642
 21
21.4819784761726
 72
     1
 10
-50.42212954464642
 20
21.4819784761726
 11
-49.82096202275363
 21
22.16180179772809
 97
       12
330
98
330
F1
330
F0
330
EF
330
EE
330
99
330
9A
330
96
330
97
330
F4
330
F3
330
F2
 75
     1
 76
     0
 52
45.0
 41
0.1
 77
     0
 78
     1
 53
45.0
 43
0.0
 44
0.0
 45
-0.0707106781186548
 46
0.0707106781186548
 79
     0
 98
        1
 10
0.0
 20
0.0
  0
HATCH
  5
1B3
330
47
100
AcDbEntity
  8
1
  6
Continuous
 62
     2
100
AcDbHatch
 10
0.0
 20
0.0
 30
0.0
210
0.0
220
0.0
230
1.0
  2
_USER
 70
     0
 71
     1
 91
        1
 92
        1
 93
        4
 72
     1
 10
-52.64072397067722
 20
22.16180179772809
 11
-52.64072397067722
 21
19.10799227391689
 72
     1
 10
-52.64072397067722
 20
19.10799227391689
 11
-53.88122838093011
 21
19.10799227391689
 72
     1
 10
-53.88122838093011
 20
19.10799227391689
 11
-53.88122838093011
 21
22.16180179772809
 72
     1
 10
-53.88122838093011
 20
22.16180179772809
 11
-52.64072397067722
 21
22.16180179772809
 97
        4
330
EC
330
9B
330
EB
330
ED
 75
     1
 76
     0
 52
45.0
 41
0.1
 77
     0
 78
     1
 53
45.0
 43
0.0
 44
0.0
 45
-0.0707106781186548
 46
0.0707106781186548
 79
     0
 98
        1
 10
0.0
 20
0.0
  0
HATCH
  5
1B4
330
47
100
AcDbEntity
  8
1
  6
Continuous
 62
     2
100
AcDbHatch
 10
0.0
 20
0.0
 30
0.0
210
0.0
220
0.0
230
1.0
  2
_USER
 70
     0
 71
     1
 91
        1
 92
        1
 93
        4
 72
     1
 10
-52.64072397067722
 20
22.16180179772809
 11
-52.64072397067722
 21
19.10799227391689
 72
     1
 10
-52.64072397067722
 20
19.10799227391689
 11
-53.88122838093011
 21
19.10799227391689
 72
     1
 10
-53.88122838093011
 20
19.10799227391689
 11
-53.88122838093011
 21
22.16180179772809
 72
     1
 10
-53.88122838093011
 20
22.16180179772809
 11
-52.64072397067722
 21
22.16180179772809
 97
        4
330
EC
330
9B
330
EB
330
ED
 75
     1
 76
     0
 52
45.0
 41
0.1
 77
     0
 78
     1
 53
45.0
 43
0.0
 44
0.0
 45
-0.0707106781186548
 46
0.0707106781186548
 79
     0
 98
        1
 10
0.0
 20
0.0
  0
HATCH
  5
1B5
330
47
100
AcDbEntity
  8
1
  6
Continuous
 62
     2
100
AcDbHatch
 10
0.0
 20
0.0
 30
0.0
210
0.0
220
0.0
230
1.0
  2
_USER
 70
     0
 71
     1
 91
        2
 92
        1
 93
        8
 72
     1
 10
-53.03116797420921
 20
15.7488017977426
 11
-54.27167238446313
 21
15.7488017977426
 72
     1
 10
-54.27167238446313
 20
15.7488017977426
 11
-54.48315243793891
 21
16.28976234196048
 72
     1
 10
-54.48315243793891
 20
16.28976234196048
 11
-55.61559401461273
 21
16.28976234196048
 72
     1
 10
-55.61559401461273
 20
16.28976234196048
 11
-55.82707406808854
 21
15.7488017977426
 72
     1
 10
-55.82707406808854
 20
15.7488017977426
 11
-57.06757847834152
 21
15.7488017977426
 72
     1
 10
-57.06757847834152
 20
15.7488017977426
 11
-55.66962543140221
 21
18.80261132155368
 72
     1
 10
-55.66962543140221
 20
18.80261132155368
 11
-54.42912102114951
 21
18.80261132155368
 72
     1
 10
-54.42912102114951
 20
18.80261132155368
 11
-53.03116797420921
 21
15.7488017977426
 97
        8
330
E7
330
A1
330
E6
330
E9
330
9E
330
E8
330
9F
330
A0
 92
       16
 93
        3
 72
     1
 10
-55.34953846346772
 20
16.97032560726709
 11
-54.74920798908522
 21
16.97032560726709
 72
     1
 10
-54.74920798908522
 20
16.97032560726709
 11
-55.04937322627532
 21
17.73814057325379
 72
     1
 10
-55.04937322627532
 20
17.73814057325379
 11
-55.34953846346772
 21
16.97032560726709
 97
        3
330
9D
330
9C
330
EA
 75
     1
 76
     0
 52
45.0
 41
0.1
 77
     0
 78
     1
 53
45.0
 43
0.0
 44
0.0
 45
-0.0707106781186548
 46
0.0707106781186548
 79
     0
 98
        1
 10
0.0
 20
0.0
  0
HATCH
  5
1B6
330
47
100
AcDbEntity
  8
1
  6
Continuous
 62
     2
100
AcDbHatch
 10
0.0
 20
0.0
 30
0.0
210
0.0
220
0.0
230
1.0
  2
_USER
 70
     0
 71
     1
 91
        2
 92
        1
 93
        8
 72
     1
 10
-53.03116797420921
 20
15.7488017977426
 11
-54.27167238446313
 21
15.7488017977426
 72
     1
 10
-54.27167238446313
 20
15.7488017977426
 11
-54.48315243793891
 21
16.28976234196048
 72
     1
 10
-54.48315243793891
 20
16.28976234196048
 11
-55.61559401461273
 21
16.28976234196048
 72
     1
 10
-55.61559401461273
 20
16.28976234196048
 11
-55.82707406808854
 21
15.7488017977426
 72
     1
 10
-55.82707406808854
 20
15.7488017977426
 11
-57.06757847834152
 21
15.7488017977426
 72
     1
 10
-57.06757847834152
 20
15.7488017977426
 11
-55.66962543140221
 21
18.80261132155368
 72
     1
 10
-55.66962543140221
 20
18.80261132155368
 11
-54.42912102114951
 21
18.80261132155368
 72
     1
 10
-54.42912102114951
 20
18.80261132155368
 11
-53.03116797420921
 21
15.7488017977426
 97
        8
330
E7
330
A1
330
E6
330
E9
330
9E
330
E8
330
9F
330
A0
 92
       16
 93
        3
 72
     1
 10
-55.34953846346772
 20
16.97032560726709
 11
-54.74920798908522
 21
16.97032560726709
 72
     1
 10
-54.74920798908522
 20
16.97032560726709
 11
-55.04937322627532
 21
17.73814057325379
 72
     1
 10
-55.04937322627532
 20
17.73814057325379
 11
-55.34953846346772
 21
16.97032560726709
 97
        3
330
9D
330
9C
330
EA
 75
     1
 76
     0
 52
45.0
 41
0.1
 77
     0
 78
     1
 53
45.0
 43
0.0
 44
0.0
 45
-0.0707106781186548
 46
0.0707106781186548
 79
     0
 98
        1
 10
0.0
 20
0.0
  0
HATCH
  5
1B7
330
47
100
AcDbEntity
  8
1
  6
Continuous
 62
     2
100
AcDbHatch
 10
0.0
 20
0.0
 30
0.0
210
0.0
220
0.0
230
1.0
  2
_USER
 70
     0
 71
     1
 91
        1
 92
        1
 93
        8
 72
     1
 10
-59.22509061752373
 20
18.80261132155368
 11
-59.22509061752373
 21
18.01734601543009
 72
     1
 10
-59.22509061752373
 20
18.01734601543009
 11
-58.41399158004913
 21
18.01734601543009
 72
     1
 10
-58.41399158004913
 20
18.01734601543009
 11
-58.41399158004913
 21
15.7488017977426
 72
     1
 10
-58.41399158004913
 20
15.7488017977426
 11
-57.22119887788261
 21
15.7488017977426
 72
     1
 10
-57.22119887788261
 20
15.7488017977426
 11
-57.22119887788261
 21
18.01734601543009
 72
     1
 10
-57.22119887788261
 20
18.01734601543009
 11
-56.41009984041011
 21
18.01734601543009
 72
     1
 10
-56.41009984041011
 20
18.01734601543009
 11
-56.41009984041011
 21
18.80261132155368
 72
     1
 10
-56.41009984041011
 20
18.80261132155368
 11
-59.22509061752373
 21
18.80261132155368
 97
        8
330
E3
330
E2
330
E1
330
A2
330
A3
330
E5
330
A4
330
E4
 75
     1
 76
     0
 52
45.0
 41
0.1
 77
     0
 78
     1
 53
45.0
 43
0.0
 44
0.0
 45
-0.0707106781186548
 46
0.0707106781186548
 79
     0
 98
        1
 10
0.0
 20
0.0
  0
HATCH
  5
1B8
330
47
100
AcDbEntity
  8
1
  6
Continuous
 62
     2
100
AcDbHatch
 10
0.0
 20
0.0
 30
0.0
210
0.0
220
0.0
230
1.0
  2
_USER
 70
     0
 71
     1
 91
        1
 92
        1
 93
        8
 72
     1
 10
-59.22509061752373
 20
18.80261132155368
 11
-59.22509061752373
 21
18.01734601543009
 72
     1
 10
-59.22509061752373
 20
18.01734601543009
 11
-58.41399158004913
 21
18.01734601543009
 72
     1
 10
-58.41399158004913
 20
18.01734601543009
 11
-58.41399158004913
 21
15.7488017977426
 72
     1
 10
-58.41399158004913
 20
15.7488017977426
 11
-57.22119887788261
 21
15.7488017977426
 72
     1
 10
-57.22119887788261
 20
15.7488017977426
 11
-57.22119887788261
 21
18.01734601543009
 72
     1
 10
-57.22119887788261
 20
18.01734601543009
 11
-56.41009984041011
 21
18.01734601543009
 72
     1
 10
-56.41009984041011
 20
18.01734601543009
 11
-56.41009984041011
 21
18.80261132155368
 72
     1
 10
-56.41009984041011
 20
18.80261132155368
 11
-59.22509061752373
 21
18.80261132155368
 97
        8
330
E3
330
E2
330
E1
330
A2
330
A3
330
E5
330
A4
330
E4
 75
     1
 76
     0
 52
45.0
 41
0.1
 77
     0
 78
     1
 53
45.0
 43
0.0
 44
0.0
 45
-0.0707106781186548
 46
0.0707106781186548
 79
     0
 98
        1
 10
0.0
 20
0.0
  0
HATCH
  5
1B9
330
47
100
AcDbEntity
  8
1
  6
Continuous
 62
     2
100
AcDbHatch
 10
0.0
 20
0.0
 30
0.0
210
0.0
220
0.0
230
1.0
  2
_USER
 70
     0
 71
     1
 91
        1
 92
        1
 93
       10
 72
     1
 10
-56.55308403378461
 20
22.16180179772809
 11
-57.74587673595113
 21
22.16180179772809
 72
     1
 10
-57.74587673595113
 20
22.16180179772809
 11
-57.74587673595113
 21
19.10799227391689
 72
     1
 10
-57.74587673595113
 20
19.10799227391689
 11
-56.55308403378461
 21
19.10799227391689
 72
     1
 10
-56.55308403378461
 20
19.10799227391689
 11
-56.55308403378461
 21
20.41676778412159
 72
     1
 10
-56.55308403378461
 20
20.41676778412159
 11
-55.31257962353061
 21
19.10799227391689
 72
     1
 10
-55.31257962353061
 20
19.10799227391689
 11
-54.11978692136401
 21
19.10799227391689
 72
     1
 10
-54.11978692136401
 20
19.10799227391689
 11
-54.11978692136401
 21
22.16180179772809
 72
     1
 10
-54.11978692136401
 20
22.16180179772809
 11
-55.31257962353061
 21
22.16180179772809
 72
     1
 10
-55.31257962353061
 20
22.16180179772809
 11
-55.31257962353061
 21
20.85302628752291
 72
     1
 10
-55.31257962353061
 20
20.85302628752291
 11
-56.55308403378461
 21
22.16180179772809
 97
       10
330
DD
330
A7
330
A8
330
A9
330
AA
330
E0
330
A5
330
DF
330
DE
330
A6
 75
     1
 76
     0
 52
45.0
 41
0.1
 77
     0
 78
     1
 53
45.0
 43
0.0
 44
0.0
 45
-0.0707106781186548
 46
0.0707106781186548
 79
     0
 98
        1
 10
0.0
 20
0.0
  0
HATCH
  5
1BA
330
47
100
AcDbEntity
  8
1
  6
Continuous
 62
     2
100
AcDbHatch
 10
0.0
 20
0.0
 30
0.0
210
0.0
220
0.0
230
1.0
  2
_USER
 70
     0
 71
     1
 91
        1
 92
        1
 93
       10
 72
     1
 10
-56.55308403378461
 20
22.16180179772809
 11
-57.74587673595113
 21
22.16180179772809
 72
     1
 10
-57.74587673595113
 20
22.16180179772809
 11
-57.74587673595113
 21
19.10799227391689
 72
     1
 10
-57.74587673595113
 20
19.10799227391689
 11
-56.55308403378461
 21
19.10799227391689
 72
     1
 10
-56.55308403378461
 20
19.10799227391689
 11
-56.55308403378461
 21
20.41676778412159
 72
     1
 10
-56.55308403378461
 20
20.41676778412159
 11
-55.31257962353061
 21
19.10799227391689
 72
     1
 10
-55.31257962353061
 20
19.10799227391689
 11
-54.11978692136401
 21
19.10799227391689
 72
     1
 10
-54.11978692136401
 20
19.10799227391689
 11
-54.11978692136401
 21
22.16180179772809
 72
     1
 10
-54.11978692136401
 20
22.16180179772809
 11
-55.31257962353061
 21
22.16180179772809
 72
     1
 10
-55.31257962353061
 20
22.16180179772809
 11
-55.31257962353061
 21
20.85302628752291
 72
     1
 10
-55.31257962353061
 20
20.85302628752291
 11
-56.55308403378461
 21
22.16180179772809
 97
       10
330
DD
330
A7
330
A8
330
A9
330
AA
330
E0
330
A5
330
DF
330
DE
330
A6
 75
     1
 76
     0
 52
45.0
 41
0.1
 77
     0
 78
     1
 53
45.0
 43
0.0
 44
0.0
 45
-0.0707106781186548
 46
0.0707106781186548
 79
     0
 98
        1
 10
0.0
 20
0.0
  0
HATCH
  5
1BB
330
47
100
AcDbEntity
  8
1
  6
Continuous
 62
     2
100
AcDbHatch
 10
0.0
 20
0.0
 30
0.0
210
0.0
220
0.0
230
1.0
  2
_USER
 70
     0
 71
     1
 91
        1
 92
        1
 93
       10
 72
     1
 10
-61.80152285420323
 20
18.80261132155368
 11
-62.99431555637082
 21
18.80261132155368
 72
     1
 10
-62.99431555637082
 20
18.80261132155368
 11
-62.99431555637082
 21
15.7488017977426
 72
     1
 10
-62.99431555637082
 20
15.7488017977426
 11
-61.80152285420323
 21
15.7488017977426
 72
     1
 10
-61.80152285420323
 20
15.7488017977426
 11
-61.80152285420323
 21
17.05757730794718
 72
     1
 10
-61.80152285420323
 20
17.05757730794718
 11
-60.56101844395033
 21
15.7488017977426
 72
     1
 10
-60.56101844395033
 20
15.7488017977426
 11
-59.36822574178393
 21
15.7488017977426
 72
     1
 10
-59.36822574178393
 20
15.7488017977426
 11
-59.36822574178393
 21
18.80261132155368
 72
     1
 10
-59.36822574178393
 20
18.80261132155368
 11
-60.56101844395033
 21
18.80261132155368
 72
     1
 10
-60.56101844395033
 20
18.80261132155368
 11
-60.56101844395033
 21
17.49383581134859
 72
     1
 10
-60.56101844395033
 20
17.49383581134859
 11
-61.80152285420323
 21
18.80261132155368
 97
       10
330
AC
330
AD
330
AE
330
DA
330
AF
330
B0
330
D9
330
DC
330
DB
330
AB
 75
     1
 76
     0
 52
45.0
 41
0.1
 77
     0
 78
     1
 53
45.0
 43
0.0
 44
0.0
 45
-0.0707106781186548
 46
0.0707106781186548
 79
     0
 98
        1
 10
0.0
 20
0.0
  0
HATCH
  5
1BC
330
47
100
AcDbEntity
  8
1
  6
Continuous
 62
     2
100
AcDbHatch
 10
0.0
 20
0.0
 30
0.0
210
0.0
220
0.0
230
1.0
  2
_USER
 70
     0
 71
     1
 91
        1
 92
        1
 93
       10
 72
     1
 10
-61.80152285420323
 20
18.80261132155368
 11
-62.99431555637082
 21
18.80261132155368
 72
     1
 10
-62.99431555637082
 20
18.80261132155368
 11
-62.99431555637082
 21
15.7488017977426
 72
     1
 10
-62.99431555637082
 20
15.7488017977426
 11
-61.80152285420323
 21
15.7488017977426
 72
     1
 10
-61.80152285420323
 20
15.7488017977426
 11
-61.80152285420323
 21
17.05757730794718
 72
     1
 10
-61.80152285420323
 20
17.05757730794718
 11
-60.56101844395033
 21
15.7488017977426
 72
     1
 10
-60.56101844395033
 20
15.7488017977426
 11
-59.36822574178393
 21
15.7488017977426
 72
     1
 10
-59.36822574178393
 20
15.7488017977426
 11
-59.36822574178393
 21
18.80261132155368
 72
     1
 10
-59.36822574178393
 20
18.80261132155368
 11
-60.56101844395033
 21
18.80261132155368
 72
     1
 10
-60.56101844395033
 20
18.80261132155368
 11
-60.56101844395033
 21
17.49383581134859
 72
     1
 10
-60.56101844395033
 20
17.49383581134859
 11
-61.80152285420323
 21
18.80261132155368
 97
       10
330
AC
330
AD
330
AE
330
DA
330
AF
330
B0
330
D9
330
DC
330
DB
330
AB
 75
     1
 76
     0
 52
45.0
 41
0.1
 77
     0
 78
     1
 53
45.0
 43
0.0
 44
0.0
 45
-0.0707106781186548
 46
0.0707106781186548
 79
     0
 98
        1
 10
0.0
 20
0.0
  0
HATCH
  5
1BD
330
47
100
AcDbEntity
  8
1
  6
Continuous
 62
     2
100
AcDbHatch
 10
0.0
 20
0.0
 30
0.0
210
0.0
220
0.0
230
1.0
  2
_USER
 70
     0
 71
     1
 91
        1
 92
        1
 93
       12
 72
     1
 10
-62.80331779313863
 20
22.16180179772809
 11
-62.80331779313863
 21
19.10799227391689
 72
     1
 10
-62.80331779313863
 20
19.10799227391689
 11
-63.99611049530503
 21
19.10799227391689
 72
     1
 10
-63.99611049530503
 20
19.10799227391689
 11
-63.99611049530503
 21
20.24226438276071
 72
     1
 10
-63.99611049530503
 20
20.24226438276071
 11
-65.04576807321251
 21
20.24226438276071
 72
     1
 10
-65.04576807321251
 20
20.24226438276071
 11
-65.04576807321251
 21
19.10799227391689
 72
     1
 10
-65.04576807321251
 20
19.10799227391689
 11
-66.23856077537911
 21
19.10799227391689
 72
     1
 10
-66.23856077537911
 20
19.10799227391689
 11
-66.23856077537911
 21
22.16180179772809
 72
     1
 10
-66.23856077537911
 20
22.16180179772809
 11
-65.04576807321251
 21
22.16180179772809
 72
     1
 10
-65.04576807321251
 20
22.16180179772809
 11
-65.04576807321251
 21
21.09296846439349
 72
     1
 10
-65.04576807321251
 20
21.09296846439349
 11
-63.99611049530503
 21
21.09296846439349
 72
     1
 10
-63.99611049530503
 20
21.09296846439349
 11
-63.99611049530503
 21
22.16180179772809
 72
     1
 10
-63.99611049530503
 20
22.16180179772809
 11
-62.80331779313863
 21
22.16180179772809
 97
       12
330
D4
330
D3
330
D2
330
BA
330
BB
330
D1
330
BC
330
D0
330
CF
330
CE
330
B8
330
B9
 75
     1
 76
     0
 52
45.0
 41
0.1
 77
     0
 78
     1
 53
45.0
 43
0.0
 44
0.0
 45
-0.0707106781186548
 46
0.0707106781186548
 79
     0
 98
        1
 10
0.0
 20
0.0
  0
HATCH
  5
1BE
330
47
100
AcDbEntity
  8
1
  6
Continuous
 62
     2
100
AcDbHatch
 10
0.0
 20
0.0
 30
0.0
210
0.0
220
0.0
230
1.0
  2
_USER
 70
     0
 71
     1
 91
        1
 92
        1
 93
       12
 72
     1
 10
-62.80331779313863
 20
22.16180179772809
 11
-62.80331779313863
 21
19.10799227391689
 72
     1
 10
-62.80331779313863
 20
19.10799227391689
 11
-63.99611049530503
 21
19.10799227391689
 72
     1
 10
-63.99611049530503
 20
19.10799227391689
 11
-63.99611049530503
 21
20.24226438276071
 72
     1
 10
-63.99611049530503
 20
20.24226438276071
 11
-65.04576807321251
 21
20.24226438276071
 72
     1
 10
-65.04576807321251
 20
20.24226438276071
 11
-65.04576807321251
 21
19.10799227391689
 72
     1
 10
-65.04576807321251
 20
19.10799227391689
 11
-66.23856077537911
 21
19.10799227391689
 72
     1
 10
-66.23856077537911
 20
19.10799227391689
 11
-66.23856077537911
 21
22.16180179772809
 72
     1
 10
-66.23856077537911
 20
22.16180179772809
 11
-65.04576807321251
 21
22.16180179772809
 72
     1
 10
-65.04576807321251
 20
22.16180179772809
 11
-65.04576807321251
 21
21.09296846439349
 72
     1
 10
-65.04576807321251
 20
21.09296846439349
 11
-63.99611049530503
 21
21.09296846439349
 72
     1
 10
-63.99611049530503
 20
21.09296846439349
 11
-63.99611049530503
 21
22.16180179772809
 72
     1
 10
-63.99611049530503
 20
22.16180179772809
 11
-62.80331779313863
 21
22.16180179772809
 97
       12
330
D4
330
D3
330
D2
330
BA
330
BB
330
D1
330
BC
330
D0
330
CF
330
CE
330
B8
330
B9
 75
     1
 76
     0
 52
45.0
 41
0.1
 77
     0
 78
     1
 53
45.0
 43
0.0
 44
0.0
 45
-0.0707106781186548
 46
0.0707106781186548
 79
     0
 98
        1
 10
0.0
 20
0.0
  0
ENDBLK
  5
49
330
47
100
AcDbEntity
  8
0
100
AcDbBlockEnd
  0
BLOCK
  5
4B
330
4A
100
AcDbEntity
  8
0
100
AcDbBlockBegin
  2
_punkt
 70
     0
 10
49.07398602065028
 20
8.45530179772629
 30
0.0
  3
_punkt
  1

  0
LINE
  5
1BF
330
4A
100
AcDbEntity
  8
1
  6
Continuous
 62
     2
100
AcDbLine
 10
49.07398602065028
 20
8.45530179772629
 30
0.0
 11
49.07398602065028
 21
3.45530179772618
 31
0.0
  0
LINE
  5
1C0
330
4A
100
AcDbEntity
  8
1
  6
Continuous
 62
     2
100
AcDbLine
 10
49.07398602065028
 20
8.45530179772629
 30
0.0
 11
54.07398602064927
 21
8.45530179772629
 31
0.0
  0
ENDBLK
  5
4C
330
4A
100
AcDbEntity
  8
0
100
AcDbBlockEnd
  0
BLOCK
  5
50
330
4D
100
AcDbEntity
  8
0
100
AcDbBlockBegin
  2
A4I_CS
 70
     0
 10
49.07398602065028
 20
3.45530179772618
 30
0.0
  3
A4I_CS
  1

  0
INSERT
  5
4E
330
4D
100
AcDbEntity
  8
1
100
AcDbBlockReference
  2
_rahmen
 10
49.07398602065028
 20
3.45530179772618
 30
0.0
  0
INSERT
  5
4F
330
4D
100
AcDbEntity
  8
1
100
AcDbBlockReference
  2
_punkt
 10
49.07398602065028
 20
8.45530179772629
 30
0.0
  0
ENDBLK
  5
51
330
4D
100
AcDbEntity
  8
0
100
AcDbBlockEnd
  0
BLOCK
  5
53
330
52
100
AcDbEntity
  8
0
100
AcDbBlockBegin
  2
S-URTK_SP-select__1
 70
     0
 10
-1.16038634087512
 20
28.17602799247391
 30
0.0
  3
S-URTK_SP-select__1
  1

  0
LINE
  5
1C1
330
52
100
AcDbEntity
  8
0
  6
Continuous
 62
     7
100
AcDbLine
 10
-0.85595965247926
 20
45.43802078069226
 30
0.0
 11
10.05596043520467
 21
42.28802078069303
 31
0.0
  0
LINE
  5
1C2
330
52
100
AcDbEntity
  8
0
  6
Continuous
 62
     7
100
AcDbLine
 10
-0.24974186982949
 20
36.60276674284789
 30
0.0
 11
2.2617318011454
 21
35.87776674284788
 31
0.0
  0
LINE
  5
1C3
330
52
100
AcDbEntity
  8
0
  6
Continuous
 62
     7
100
AcDbLine
 10
-0.24974186982949
 20
36.60276674284789
 30
0.0
 11
-0.24974186982999
 21
43.5742712433126
 31
0.0
  0
LINE
  5
1C4
330
52
100
AcDbEntity
  8
0
  6
Continuous
 62
     7
100
AcDbLine
 10
-0.62246600342522
 20
43.68186743274492
 30
0.0
 11
-0.24974186982999
 21
43.5742712433126
 31
0.0
  0
LINE
  5
1C5
330
52
100
AcDbEntity
  8
0
  6
Continuous
 62
     7
100
AcDbLine
 10
2.2617318011454
 20
35.87776674284788
 30
0.0
 11
2.26173180114521
 21
38.47584295420127
 31
0.0
  0
LINE
  5
1C6
330
52
100
AcDbEntity
  8
0
  6
Continuous
 62
     7
100
AcDbLine
 10
-1.1474660034253
 20
44.74274855238084
 30
0.0
 11
-0.62246600342522
 21
43.68186743274492
 31
0.0
  0
LINE
  5
1C7
330
52
100
AcDbEntity
  8
0
  6
Continuous
 62
     7
100
AcDbLine
 10
0.80988051103656
 20
36.29688010943168
 30
0.0
 11
1.4364791120631
 21
28.67602799247405
 31
0.0
  0
LINE
  5
1C8
330
52
100
AcDbEntity
  8
0
  6
Continuous
 62
     7
100
AcDbLine
 10
3.1685299196329
 20
28.17602799247391
 30
0.0
 11
2.91173180114539
 21
36.44068325530778
 31
0.0
  0
LINE
  5
1C9
330
52
100
AcDbEntity
  8
0
  6
Continuous
 62
     7
100
AcDbLine
 10
2.2617318011454
 20
35.87776674284788
 30
0.0
 11
2.91173180114539
 21
36.44068325530778
 31
0.0
  0
LINE
  5
1CA
330
52
100
AcDbEntity
  8
0
  6
Continuous
 62
     7
100
AcDbLine
 10
5.28301309325493
 20
43.95452713163878
 30
0.0
 11
7.58301309325493
 21
45.94638556034299
 31
0.0
  0
LINE
  5
1CB
330
52
100
AcDbEntity
  8
0
  6
Continuous
 62
     7
100
AcDbLine
 10
-1.13793137049613
 20
44.83999208207732
 30
0.0
 11
-0.85595965247925
 21
45.08418675302868
 31
0.0
  0
LINE
  5
1CC
330
52
100
AcDbEntity
  8
0
  6
Continuous
 62
     2
100
AcDbLine
 10
-1.07246600342532
 20
44.8510017278539
 30
0.0
 11
-0.85595965247925
 21
45.0385017278539
 31
0.0
  0
LINE
  5
1CD
330
52
100
AcDbEntity
  8
0
  6
Continuous
 62
     7
100
AcDbLine
 10
-0.85595965247921
 20
44.78850172785391
 30
0.0
 11
-1.07246600342532
 21
44.8510017278539
 31
0.0
  0
LINE
  5
1CE
330
52
100
AcDbEntity
  8
0
  6
Continuous
 62
     7
100
AcDbLine
 10
5.28301309325493
 20
43.95452713163878
 30
0.0
 11
4.4169876894705
 21
44.20452713163873
 31
0.0
  0
LINE
  5
1CF
330
52
100
AcDbEntity
  8
0
  6
Continuous
 62
     7
100
AcDbLine
 10
4.6000003913632
 20
37.80084295420144
 30
0.0
 11
7.30000039136333
 21
40.13911154441956
 31
0.0
  0
LINE
  5
1D0
330
52
100
AcDbEntity
  8
0
  6
Continuous
 62
     7
100
AcDbLine
 10
4.6000003913632
 20
37.80084295420144
 30
0.0
 11
2.26173180114521
 21
38.47584295420127
 31
0.0
  0
LINE
  5
1D1
330
52
100
AcDbEntity
  8
0
  6
Continuous
 62
     7
100
AcDbLine
 10
9.23323630160962
 20
40.83677124331327
 30
0.0
 11
9.23323630160971
 21
39.58103440782579
 31
0.0
  0
LINE
  5
1D2
330
52
100
AcDbEntity
  8
0
  6
Continuous
 62
     7
100
AcDbLine
 10
4.6000003913632
 20
37.80084295420144
 30
0.0
 11
4.60000039136297
 21
40.91853440782546
 31
0.0
  0
LINE
  5
1D3
330
52
100
AcDbEntity
  8
0
  6
Continuous
 62
     7
100
AcDbLine
 10
9.23323630160962
 20
40.83677124331327
 30
0.0
 11
9.8224667861509
 21
40.66667505388099
 31
0.0
  0
LINE
  5
1D4
330
52
100
AcDbEntity
  8
0
  6
Continuous
 62
     7
100
AcDbLine
 10
4.60000039136297
 20
40.91853440782546
 30
0.0
 11
9.23323630160971
 21
39.58103440782579
 31
0.0
  0
LINE
  5
1D5
330
52
100
AcDbEntity
  8
0
  6
Continuous
 62
     7
100
AcDbLine
 10
9.23323630160971
 20
39.58103440782579
 30
0.0
 11
12.03323630160971
 21
42.00590553842222
 31
0.0
  0
LINE
  5
1D6
330
52
100
AcDbEntity
  8
0
  6
Continuous
 62
     7
100
AcDbLine
 10
12.85596043520467
 20
44.71289191128946
 30
0.0
 11
10.05596043520467
 21
42.28802078069303
 31
0.0
  0
LINE
  5
1D7
330
52
100
AcDbEntity
  8
0
  6
Continuous
 62
     7
100
AcDbLine
 10
10.05596043520472
 20
41.63850172785469
 30
0.0
 11
12.85596043520472
 21
44.06337285845112
 31
0.0
  0
LINE
  5
1D8
330
52
100
AcDbEntity
  8
0
  6
Continuous
 62
     2
100
AcDbLine
 10
10.27246678615084
 20
41.57600172785469
 30
0.0
 11
13.07246678615083
 21
44.00087285845112
 31
0.0
  0
LINE
  5
1D9
330
52
100
AcDbEntity
  8
0
  6
Continuous
 62
     2
100
AcDbLine
 10
10.34746678615083
 20
41.42444728219243
 30
0.0
 11
13.14746678615082
 21
43.84931841278885
 31
0.0
  0
LINE
  5
1DA
330
52
100
AcDbEntity
  8
0
  6
Continuous
 62
     7
100
AcDbLine
 10
12.6224667861509
 20
43.09154618447742
 30
0.0
 11
9.8224667861509
 21
40.66667505388099
 31
0.0
  0
LINE
  5
1DB
330
52
100
AcDbEntity
  8
0
  6
Continuous
 62
     7
100
AcDbLine
 10
10.05596043520467
 20
42.28802078069303
 30
0.0
 11
10.05596043520472
 21
41.63850172785469
 31
0.0
  0
LINE
  5
1DC
330
52
100
AcDbEntity
  8
0
  6
Continuous
 62
     7
100
AcDbLine
 10
10.27246678615084
 20
41.57600172785469
 30
0.0
 11
10.05596043520472
 21
41.63850172785469
 31
0.0
  0
LINE
  5
1DD
330
52
100
AcDbEntity
  8
0
  6
Continuous
 62
     7
100
AcDbLine
 10
9.8224667861509
 20
40.66667505388099
 30
0.0
 11
10.34746678615083
 21
41.42444728219243
 31
0.0
  0
LINE
  5
1DE
330
52
100
AcDbEntity
  8
0
  6
Continuous
 62
     7
100
AcDbLine
 10
12.03323630160966
 20
42.58125761618051
 30
0.0
 11
12.03323630160971
 21
42.00590553842222
 31
0.0
  0
LINE
  5
1DF
330
52
100
AcDbEntity
  8
0
  6
Continuous
 62
     7
100
AcDbLine
 10
12.6224667861509
 20
43.09154618447742
 30
0.0
 11
13.14746678615082
 21
43.84931841278885
 31
0.0
  0
LINE
  5
1E0
330
52
100
AcDbEntity
  8
0
  6
Continuous
 62
     7
100
AcDbLine
 10
13.07246678615083
 20
44.00087285845112
 30
0.0
 11
12.85596043520472
 21
44.06337285845112
 31
0.0
  0
LINE
  5
1E1
330
52
100
AcDbEntity
  8
0
  6
Continuous
 62
     7
100
AcDbLine
 10
12.85596043520472
 20
44.06337285845112
 30
0.0
 11
12.85596043520467
 21
44.71289191128946
 31
0.0
  0
LINE
  5
1E2
330
52
100
AcDbEntity
  8
0
  6
Continuous
 62
     7
100
AcDbLine
 10
5.28301309325493
 20
43.95452713163878
 30
0.0
 11
5.50173475206944
 21
48.47407266345255
 31
0.0
  0
LINE
  5
1E3
330
52
100
AcDbEntity
  8
0
  6
Continuous
 62
     7
100
AcDbLine
 10
5.50173475206944
 20
48.47407266345255
 30
0.0
 11
4.63570934828499
 21
48.72407266345249
 31
0.0
  0
LINE
  5
1E4
330
52
100
AcDbEntity
  8
0
  6
Continuous
 62
     7
100
AcDbLine
 10
4.41173180114539
 20
37.73972136098443
 30
0.0
 11
4.1549336826591
 21
29.03027870964316
 31
0.0
  0
LINE
  5
1E5
330
52
100
AcDbEntity
  8
0
  6
Continuous
 62
     7
100
AcDbLine
 10
4.4169876894705
 20
44.20452713163873
 30
0.0
 11
4.63570934828499
 21
48.72407266345249
 31
0.0
  0
LINE
  5
1E6
330
52
100
AcDbEntity
  8
0
  6
Continuous
 62
     7
100
AcDbLine
 10
7.56752849832338
 20
46.23953071246381
 30
0.0
 11
12.85596043520467
 21
44.71289191128946
 31
0.0
  0
LINE
  5
1E7
330
52
100
AcDbEntity
  8
0
  6
Continuous
 62
     7
100
AcDbLine
 10
-0.85595965247921
 20
44.78850172785391
 30
0.0
 11
-0.85595965247926
 21
45.43802078069226
 31
0.0
  0
LINE
  5
1E8
330
52
100
AcDbEntity
  8
0
  6
Continuous
 62
     7
100
AcDbLine
 10
1.94404034752074
 20
47.86289191128869
 30
0.0
 11
-0.85595965247926
 21
45.43802078069226
 31
0.0
  0
LINE
  5
1E9
330
52
100
AcDbEntity
  8
0
  6
Continuous
 62
     7
100
AcDbLine
 10
1.94404034752074
 20
47.86289191128869
 30
0.0
 11
4.55752166436847
 21
47.10844484038684
 31
0.0
  0
LINE
  5
1EA
330
52
100
AcDbEntity
  8
0
  6
Continuous
 62
     7
100
AcDbLine
 10
1.4364791120631
 20
28.67602799247405
 30
0.0
 11
3.1685299196329
 21
28.17602799247391
 31
0.0
  0
LINE
  5
1EB
330
52
100
AcDbEntity
  8
0
  6
Continuous
 62
     7
100
AcDbLine
 10
4.1549336826591
 20
29.03027870964316
 30
0.0
 11
3.1685299196329
 21
28.17602799247391
 31
0.0
  0
LINE
  5
1EC
330
52
100
AcDbEntity
  8
0
  6
Continuous
 62
     7
100
AcDbLine
 10
7.36429143443981
 20
50.08709406637377
 30
0.0
 11
7.58301309325493
 21
45.94638556034299
 31
0.0
  0
LINE
  5
1ED
330
52
100
AcDbEntity
  8
0
  6
Continuous
 62
     7
100
AcDbLine
 10
4.63570934828499
 20
48.72407266345249
 30
0.0
 11
6.49826603065537
 21
50.33709406637371
 31
0.0
  0
LINE
  5
1EE
330
52
100
AcDbEntity
  8
0
  6
Continuous
 62
     7
100
AcDbLine
 10
5.50173475206944
 20
48.47407266345255
 30
0.0
 11
7.36429143443981
 21
50.08709406637377
 31
0.0
  0
LINE
  5
1EF
330
52
100
AcDbEntity
  8
0
  6
Continuous
 62
     7
100
AcDbLine
 10
4.41173180114539
 20
37.73972136098443
 30
0.0
 11
4.51173180114553
 21
37.82632390136301
 31
0.0
  0
LINE
  5
1F0
330
52
100
AcDbEntity
  8
0
  6
Continuous
 62
     7
100
AcDbLine
 10
6.49826603065537
 20
50.33709406637371
 30
0.0
 11
7.36429143443981
 21
50.08709406637377
 31
0.0
  0
SPLINE
  5
1F1
330
52
100
AcDbEntity
  8
0
  6
Continuous
 62
     7
100
AcDbSpline
210
0.0
220
0.0
230
1.0
 70
     8
 71
     3
 72
    11
 73
     7
 74
     5
 42
0.000000001
 43
0.0000000001
 44
0.00000001
 40
0.0
 40
0.0
 40
0.0
 40
0.0
 40
0.0292900347346481
 40
0.0564302099876139
 40
0.0812722477838757
 40
0.1045919462765713
 40
0.1045919462765713
 40
0.1045919462765713
 40
0.1045919462765713
 10
-1.147466003425304
 20
44.74274855238084
 30
0.0
 10
-1.151228143666879
 20
44.7518311706767
 30
0.0
 10
-1.15847627313548
 20
44.76932975645799
 30
0.0
 10
-1.160017972195164
 20
44.79675870177002
 30
0.0
 10
-1.154091343127822
 20
44.82202541812266
 30
0.0
 10
-1.143203312270078
 20
44.83413074217852
 30
0.0
 10
-1.137931370496126
 20
44.83999208207732
 30
0.0
 11
-1.147466003425304
 21
44.74274855238084
 31
0.0
 11
-1.157088081960046
 21
44.77041300104614
 31
0.0
 11
-1.158677527583841
 21
44.79750659683658
 31
0.0
 11
-1.152083226006072
 21
44.82145742637443
 31
0.0
 11
-1.137931370496126
 21
44.83999208207732
 31
0.0
  0
SPLINE
  5
1F2
330
52
100
AcDbEntity
  8
0
  6
Continuous
 62
     7
100
AcDbSpline
210
0.0
220
0.0
230
1.0
 70
     8
 71
     3
 72
     9
 73
     5
 74
     3
 42
0.000000001
 43
0.0000000001
 44
0.00000001
 40
0.0
 40
0.0
 40
0.0
 40
0.0
 40
0.0324507552109522
 40
0.0685280822223689
 40
0.0685280822223689
 40
0.0685280822223689
 40
0.0685280822223689
 10
-1.137931370496126
 20
44.83999208207732
 30
0.0
 10
-1.128333234188346
 20
44.8457665437534
 30
0.0
 10
-1.108064304718432
 20
44.85796078071822
 30
0.0
 10
-1.084743490903347
 20
44.85340183994128
 30
0.0
 10
-1.072466003425316
 20
44.8510017278539
 30
0.0
 11
-1.137931370496126
 21
44.83999208207732
 31
0.0
 11
-1.108452604125566
 21
44.85355873267017
 31
0.0
 11
-1.072466003425316
 21
44.8510017278539
 31
0.0
  0
SPLINE
  5
1F3
330
52
100
AcDbEntity
  8
0
  6
Continuous
 62
     7
100
AcDbSpline
210
0.0
220
0.0
230
1.0
 70
     8
 71
     3
 72
    13
 73
     9
 74
     7
 42
0.000000001
 43
0.0000000001
 44
0.00000001
 40
0.0
 40
0.0
 40
0.0
 40
0.0
 40
0.0326655310335272
 40
0.0671227350492842
 40
0.1016615014401295
 40
0.1345444100467587
 40
0.1646210911604106
 40
0.1919262641763254
 40
0.1919262641763254
 40
0.1919262641763254
 40
0.1919262641763254
 10
10.27246678615084
 20
41.57600172785469
 30
0.0
 10
10.28265877262602
 20
41.57196213377379
 30
0.0
 10
10.30360175996815
 20
41.56366136436354
 30
0.0
 10
10.32920629299609
 20
41.54050802738222
 30
0.0
 10
10.34863778778739
 20
41.5122390125093
 30
0.0
 10
10.35904012930787
 20
41.48116416942198
 30
0.0
 10
10.36033550454835
 20
41.45001708573833
 30
0.0
 10
10.35161598067472
 20
41.43269161180319
 30
0.0
 10
10.34746678615083
 20
41.42444728219243
 30
0.0
 11
10.27246678615084
 21
41.57600172785469
 31
0.0
 11
10.30208655502076
 21
41.56222834285068
 31
0.0
 11
10.32813382607346
 21
41.53967089205099
 31
0.0
 11
10.34746667371932
 21
41.51104979011468
 31
0.0
 11
10.35775363934608
 21
41.47981736696899
 31
0.0
 11
10.35775351149369
 21
41.44974067978454
 31
0.0
 11
10.34746678615083
 21
41.42444728219243
 31
0.0
  0
SPLINE
  5
1F4
330
52
100
AcDbEntity
  8
0
  6
Continuous
 62
     7
100
AcDbSpline
210
0.0
220
0.0
230
1.0
 70
     8
 71
     3
 72
    13
 73
     9
 74
     7
 42
0.000000001
 43
0.0000000001
 44
0.00000001
 40
0.0
 40
0.0
 40
0.0
 40
0.0
 40
0.0326655310335429
 40
0.0671227350493026
 40
0.1016615014401361
 40
0.134544410046772
 40
0.164621091160431
 40
0.1919262641763518
 40
0.1919262641763518
 40
0.1919262641763518
 40
0.1919262641763518
 10
13.07246678615083
 20
44.00087285845112
 30
0.0
 10
13.08265877262602
 20
43.99683326437022
 30
0.0
 10
13.10360175996815
 20
43.98853249495995
 30
0.0
 10
13.12920629299609
 20
43.96537915797863
 30
0.0
 10
13.1486377877874
 20
43.93711014310572
 30
0.0
 10
13.15904012930787
 20
43.9060353000184
 30
0.0
 10
13.16033550454836
 20
43.87488821633476
 30
0.0
 10
13.15161598067472
 20
43.85756274239959
 30
0.0
 10
13.14746678615082
 20
43.84931841278885
 30
0.0
 11
13.07246678615083
 21
44.00087285845112
 31
0.0
 11
13.10208655502076
 21
43.9870994734471
 31
0.0
 11
13.12813382607347
 21
43.96454202264741
 31
0.0
 11
13.14746667371933
 21
43.93592092071111
 31
0.0
 11
13.15775363934608
 21
43.90468849756542
 31
0.0
 11
13.1577535114937
 21
43.87461181038096
 31
0.0
 11
13.14746678615082
 21
43.84931841278885
 31
0.0
  0
ENDBLK
  5
54
330
52
100
AcDbEntity
  8
0
100
AcDbBlockEnd
  0
BLOCK
  5
57
330
55
100
AcDbEntity
  8
0
100
AcDbBlockBegin
  2
AllgSicht1
 70
     0
 10
6.00000000000301
 20
36.499999999946
 30
0.0
  3
AllgSicht1
  1

  0
INSERT
  5
56
330
55
100
AcDbEntity
  8
0
100
AcDbBlockReference
  2
S-URTK_SP-select__1
 10
-1.16038634087512
 20
28.17602799247391
 30
0.0
  0
MTEXT
  5
1F5
330
55
100
AcDbEntity
  8
1
 62
     6
100
AcDbMText
 10
6.00000000000296
 20
22.55321763950451
 30
0.0
 40
2.5
 41
0.0
 71
     2
 72
     1
  1
 
  7
CONVERTER_11
 73
     1
 44
1.32052821128451
  0
ENDBLK
  5
58
330
55
100
AcDbEntity
  8
0
100
AcDbBlockEnd
  0
BLOCK
  5
5A
330
59
100
AcDbEntity
  8
0
100
AcDbBlockBegin
  2
S-URTK_SP-select__2
 70
     0
 10
-65.09999823912764
 20
41.50208280151924
 30
0.0
  3
S-URTK_SP-select__2
  1

  0
LINE
  5
1F6
330
59
100
AcDbEntity
  8
0
  6
Continuous
 62
     7
100
AcDbLine
 10
-64.74999823912765
 20
47.10208280151923
 30
0.0
 11
-52.14999823912765
 21
47.10208280151923
 31
0.0
  0
LINE
  5
1F7
330
59
100
AcDbEntity
  8
0
  6
Continuous
 62
     7
100
AcDbLine
 10
-64.74999823912765
 20
47.10208280151923
 30
0.0
 11
-64.74999823912765
 21
41.50208280151924
 31
0.0
  0
LINE
  5
1F8
330
59
100
AcDbEntity
  8
0
  6
Continuous
 62
     2
100
AcDbLine
 10
-64.99999823912765
 20
41.50208280151924
 30
0.0
 11
-64.99999823912765
 21
47.10208280151923
 31
0.0
  0
LINE
  5
1F9
330
59
100
AcDbEntity
  8
0
  6
Continuous
 62
     7
100
AcDbLine
 10
-58.94999823912806
 20
46.16463948388962
 30
0.0
 11
-57.94999823912806
 21
46.16463948388962
 31
0.0
  0
LINE
  5
1FA
330
59
100
AcDbEntity
  8
0
  6
Continuous
 62
     7
100
AcDbLine
 10
-58.94999823912769
 20
46.60208280151923
 30
0.0
 11
-57.94999823912769
 21
46.60208280151923
 31
0.0
  0
LINE
  5
1FB
330
59
100
AcDbEntity
  8
0
  6
Continuous
 62
     7
100
AcDbLine
 10
-51.89999823912765
 20
47.10208280151923
 30
0.0
 11
-52.14999823912765
 21
47.10208280151923
 31
0.0
  0
LINE
  5
1FC
330
59
100
AcDbEntity
  8
0
  6
Continuous
 62
     7
100
AcDbLine
 10
-57.94999823912806
 20
46.16463948388962
 30
0.0
 11
-57.94999823912769
 21
46.60208280151923
 31
0.0
  0
LINE
  5
1FD
330
59
100
AcDbEntity
  8
0
  6
Continuous
 62
     7
100
AcDbLine
 10
-58.94999823912769
 20
42.00208280151924
 30
0.0
 11
-58.94999823912806
 21
42.43952611914885
 31
0.0
  0
LINE
  5
1FE
330
59
100
AcDbEntity
  8
0
  6
Continuous
 62
     7
100
AcDbLine
 10
-57.94999823912806
 20
42.43952611914885
 30
0.0
 11
-58.94999823912806
 21
42.43952611914885
 31
0.0
  0
LINE
  5
1FF
330
59
100
AcDbEntity
  8
0
  6
Continuous
 62
     7
100
AcDbLine
 10
-57.94999823912769
 20
42.00208280151924
 30
0.0
 11
-58.94999823912769
 21
42.00208280151924
 31
0.0
  0
LINE
  5
200
330
59
100
AcDbEntity
  8
0
  6
Continuous
 62
     7
100
AcDbLine
 10
-64.74999823912765
 20
41.50208280151924
 30
0.0
 11
-64.99999823912765
 21
41.50208280151924
 31
0.0
  0
LINE
  5
201
330
59
100
AcDbEntity
  8
0
  6
Continuous
 62
     7
100
AcDbLine
 10
-57.94999823912769
 20
42.00208280151924
 30
0.0
 11
-57.94999823912806
 21
42.43952611914885
 31
0.0
  0
LINE
  5
202
330
59
100
AcDbEntity
  8
0
  6
Continuous
 62
     7
100
AcDbLine
 10
-65.09999823912764
 20
41.50208280151924
 30
0.0
 11
-65.09999823912764
 21
47.10208280151923
 31
0.0
  0
LINE
  5
203
330
59
100
AcDbEntity
  8
0
  6
Continuous
 62
     7
100
AcDbLine
 10
-64.74999823912765
 20
41.50208280151924
 30
0.0
 11
-52.14999823912765
 21
41.50208280151924
 31
0.0
  0
LINE
  5
204
330
59
100
AcDbEntity
  8
0
  6
Continuous
 62
     7
100
AcDbLine
 10
-65.09999823912764
 20
41.50208280151924
 30
0.0
 11
-64.99999823912765
 21
41.50208280151924
 31
0.0
  0
LINE
  5
205
330
59
100
AcDbEntity
  8
0
  6
Continuous
 62
     7
100
AcDbLine
 10
-51.79999823912764
 20
41.50208280151924
 30
0.0
 11
-51.79999823912764
 21
47.10208280151923
 31
0.0
  0
LINE
  5
206
330
59
100
AcDbEntity
  8
0
  6
Continuous
 62
     7
100
AcDbLine
 10
-57.94999823912806
 20
42.43952611914885
 30
0.0
 11
-57.94999823912806
 21
46.16463948388962
 31
0.0
  0
LINE
  5
207
330
59
100
AcDbEntity
  8
0
  6
Continuous
 62
     7
100
AcDbLine
 10
-51.89999823912765
 20
47.10208280151923
 30
0.0
 11
-51.79999823912764
 21
47.10208280151923
 31
0.0
  0
LINE
  5
208
330
59
100
AcDbEntity
  8
0
  6
Continuous
 62
     7
100
AcDbLine
 10
-51.89999823912765
 20
41.50208280151924
 30
0.0
 11
-51.79999823912764
 21
41.50208280151924
 31
0.0
  0
LINE
  5
209
330
59
100
AcDbEntity
  8
0
  6
Continuous
 62
     7
100
AcDbLine
 10
-52.14999823912765
 20
47.10208280151923
 30
0.0
 11
-52.14999823912765
 21
41.50208280151924
 31
0.0
  0
LINE
  5
20A
330
59
100
AcDbEntity
  8
0
  6
Continuous
 62
     7
100
AcDbLine
 10
-51.89999823912765
 20
41.50208280151924
 30
0.0
 11
-52.14999823912765
 21
41.50208280151924
 31
0.0
  0
LINE
  5
20B
330
59
100
AcDbEntity
  8
0
  6
Continuous
 62
     2
100
AcDbLine
 10
-51.89999823912765
 20
41.50208280151924
 30
0.0
 11
-51.89999823912765
 21
47.10208280151923
 31
0.0
  0
LINE
  5
20C
330
59
100
AcDbEntity
  8
0
  6
Continuous
 62
     7
100
AcDbLine
 10
-58.94999823912806
 20
42.43952611914885
 30
0.0
 11
-58.94999823912806
 21
46.16463948388962
 31
0.0
  0
LINE
  5
20D
330
59
100
AcDbEntity
  8
0
  6
Continuous
 62
     7
100
AcDbLine
 10
-58.94999823912806
 20
46.16463948388962
 30
0.0
 11
-58.94999823912769
 21
46.60208280151923
 31
0.0
  0
LINE
  5
20E
330
59
100
AcDbEntity
  8
0
  6
Continuous
 62
     7
100
AcDbLine
 10
-65.09999823912764
 20
47.10208280151923
 30
0.0
 11
-64.99999823912765
 21
47.10208280151923
 31
0.0
  0
LINE
  5
20F
330
59
100
AcDbEntity
  8
0
  6
Continuous
 62
     7
100
AcDbLine
 10
-64.74999823912765
 20
47.10208280151923
 30
0.0
 11
-64.99999823912765
 21
47.10208280151923
 31
0.0
  0
ENDBLK
  5
5B
330
59
100
AcDbEntity
  8
0
100
AcDbBlockEnd
  0
BLOCK
  5
5E
330
5C
100
AcDbEntity
  8
0
100
AcDbBlockBegin
  2
Drfsicht1
 70
     0
 10
-58.44999866349786
 20
44.30208275383051
 30
0.0
  3
Drfsicht1
  1

  0
INSERT
  5
5D
330
5C
100
AcDbEntity
  8
0
100
AcDbBlockReference
  2
S-URTK_SP-select__2
 10
-65.09999823912764
 20
41.50208280151924
 30
0.0
  0
MTEXT
  5
210
330
5C
100
AcDbEntity
  8
1
 62
     6
100
AcDbMText
 10
-58.44999866349792
 20
39.00208280151412
 30
0.0
 40
2.5
 41
0.0
 71
     2
 72
     1
  1
 
  7
CONVERTER_11
 73
     1
 44
1.32052821128451
  0
DIMENSION
  5
21C
330
5C
100
AcDbEntity
  8
1
100
AcDbDimension
  2
*D17
 10
-70.09999823912764
 20
41.50208280151924
 30
0.0
 11
-71.81249823912765
 21
37.9817738606125
 31
0.0
 70
    33
  1
<>
 71
     5
 42
-1.0
 53
90.0
  3
ME10_DIM_10
100
AcDbAlignedDimension
 13
-65.09999823912764
 23
47.10208280151923
 33
0.0
 14
-65.09999823912764
 24
41.50208280151924
 34
0.0
  0
ENDBLK
  5
5F
330
5C
100
AcDbEntity
  8
0
100
AcDbBlockEnd
  0
BLOCK
  5
61
330
60
100
AcDbEntity
  8
0
100
AcDbBlockBegin
  2
S-URTK_SP-select__3
 70
     0
 10
-20.20000176087226
 20
62.10208415822148
 30
0.0
  3
S-URTK_SP-select__3
  1

  0
LINE
  5
21D
330
60
100
AcDbEntity
  8
0
  6
Continuous
 62
     7
100
AcDbLine
 10
-8.85000176087261
 20
62.10208415822148
 30
0.0
 11
-8.35000176087259
 21
71.90208415822147
 31
0.0
  0
LINE
  5
21E
330
60
100
AcDbEntity
  8
0
  6
Continuous
 62
     7
100
AcDbLine
 10
-7.95000176087295
 20
71.90208415822147
 30
0.0
 11
-8.35000176087259
 21
71.90208415822147
 31
0.0
  0
LINE
  5
21F
330
60
100
AcDbEntity
  8
0
  6
Continuous
 62
     7
100
AcDbLine
 10
-8.35000176087259
 20
71.90208415822147
 30
0.0
 11
-10.85000176087297
 21
71.90208415822147
 31
0.0
  0
LINE
  5
220
330
60
100
AcDbEntity
  8
0
  6
Continuous
 62
     7
100
AcDbLine
 10
-8.85000176087261
 20
62.10208415822148
 30
0.0
 11
-10.85000176087366
 21
62.10208415822162
 31
0.0
  0
LINE
  5
221
330
60
100
AcDbEntity
  8
0
  6
Continuous
 62
     7
100
AcDbLine
 10
-10.85000176087297
 20
71.90208415822147
 30
0.0
 11
-10.85000176087275
 21
74.9020841582215
 31
0.0
  0
LINE
  5
222
330
60
100
AcDbEntity
  8
0
  6
Continuous
 62
     7
100
AcDbLine
 10
-10.85000176087297
 20
71.90208415822147
 30
0.0
 11
-10.85000176087366
 21
62.10208415822162
 31
0.0
  0
LINE
  5
223
330
60
100
AcDbEntity
  8
0
  6
Continuous
 62
     7
100
AcDbLine
 10
-20.10000176087225
 20
81.15208415822212
 30
0.0
 11
-19.85000176087225
 21
81.15208415822212
 31
0.0
  0
LINE
  5
224
330
60
100
AcDbEntity
  8
0
  6
Continuous
 62
     7
100
AcDbLine
 10
-7.25000176087225
 20
81.15208415822123
 30
0.0
 11
-7.00000176087225
 21
81.15208415822121
 31
0.0
  0
LINE
  5
225
330
60
100
AcDbEntity
  8
0
  6
Continuous
 62
     7
100
AcDbLine
 10
-7.25000176087219
 20
81.90208415822123
 30
0.0
 11
-13.05000176087219
 21
81.90208415822165
 31
0.0
  0
LINE
  5
226
330
60
100
AcDbEntity
  8
0
  6
Continuous
 62
     7
100
AcDbLine
 10
-14.05000176087219
 20
81.90208415822173
 30
0.0
 11
-19.85000176087219
 21
81.90208415822212
 31
0.0
  0
LINE
  5
227
330
60
100
AcDbEntity
  8
0
  6
Continuous
 62
     7
100
AcDbLine
 10
-13.05000176087219
 20
81.90208415822165
 30
0.0
 11
-14.05000176087219
 21
81.90208415822173
 31
0.0
  0
LINE
  5
228
330
60
100
AcDbEntity
  8
0
  6
Continuous
 62
     7
100
AcDbLine
 10
-7.25000176087219
 20
81.90208415822123
 30
0.0
 11
-7.25000176087225
 21
81.15208415822123
 31
0.0
  0
LINE
  5
229
330
60
100
AcDbEntity
  8
0
  6
Continuous
 62
     7
100
AcDbLine
 10
-6.91339922049381
 20
81.00208415822124
 30
0.0
 11
-7.51961700314302
 21
79.95208415822125
 31
0.0
  0
LINE
  5
22A
330
60
100
AcDbEntity
  8
0
  6
Continuous
 62
     7
100
AcDbLine
 10
-7.51961700314302
 20
79.95208415822125
 30
0.0
 11
-7.95000176087238
 21
79.9520841582213
 31
0.0
  0
LINE
  5
22B
330
60
100
AcDbEntity
  8
0
  6
Continuous
 62
     7
100
AcDbLine
 10
-18.90000176087239
 20
79.95208415822205
 30
0.0
 11
-19.58038651860167
 21
79.9520841582221
 31
0.0
  0
LINE
  5
22C
330
60
100
AcDbEntity
  8
0
  6
Continuous
 62
     7
100
AcDbLine
 10
-19.58038651860167
 20
79.9520841582221
 30
0.0
 11
-20.18660430125068
 21
81.00208415822215
 31
0.0
  0
LINE
  5
22D
330
60
100
AcDbEntity
  8
0
  6
Continuous
 62
     7
100
AcDbLine
 10
-7.95000176087295
 20
71.90208415822147
 30
0.0
 11
-7.95000176087238
 21
79.9520841582213
 31
0.0
  0
LINE
  5
22E
330
60
100
AcDbEntity
  8
0
  6
Continuous
 62
     7
100
AcDbLine
 10
-13.55000176087276
 20
74.9020841582217
 30
0.0
 11
-10.85000176087275
 21
74.9020841582215
 31
0.0
  0
LINE
  5
22F
330
60
100
AcDbEntity
  8
0
  6
Continuous
 62
     7
100
AcDbLine
 10
-13.55000176087276
 20
74.9020841582217
 30
0.0
 11
-13.5500017608725
 21
78.50208415822166
 31
0.0
  0
LINE
  5
230
330
60
100
AcDbEntity
  8
0
  6
Continuous
 62
     7
100
AcDbLine
 10
-18.90000176087239
 20
79.95208415822205
 30
0.0
 11
-18.90000176087249
 21
78.50208415822205
 31
0.0
  0
LINE
  5
231
330
60
100
AcDbEntity
  8
0
  6
Continuous
 62
     7
100
AcDbLine
 10
-13.5500017608725
 20
78.50208415822166
 30
0.0
 11
-18.90000176087249
 21
78.50208415822205
 31
0.0
  0
LINE
  5
232
330
60
100
AcDbEntity
  8
0
  6
Continuous
 62
     7
100
AcDbLine
 10
-13.05000176087184
 20
86.90208415822163
 30
0.0
 11
-13.05000176087219
 21
81.90208415822165
 31
0.0
  0
LINE
  5
233
330
60
100
AcDbEntity
  8
0
  6
Continuous
 62
     7
100
AcDbLine
 10
-14.05000176087184
 20
86.9020841582217
 30
0.0
 11
-14.05000176087219
 21
81.90208415822173
 31
0.0
  0
LINE
  5
234
330
60
100
AcDbEntity
  8
0
  6
Continuous
 62
     7
100
AcDbLine
 10
-19.85000176087225
 20
81.15208415822212
 30
0.0
 11
-19.85000176087219
 21
81.90208415822212
 31
0.0
  0
LINE
  5
235
330
60
100
AcDbEntity
  8
0
  6
Continuous
 62
     7
100
AcDbLine
 10
-13.05000176087184
 20
86.90208415822163
 30
0.0
 11
-14.05000176087184
 21
86.9020841582217
 31
0.0
  0
ARC
  5
236
330
60
100
AcDbEntity
  8
0
  6
Continuous
 62
     7
100
AcDbCircle
 10
-7.00000176087225
 20
81.05208415822122
 30
0.0
 40
0.0999999999999857
100
AcDbArc
 50
330.0000000000065
 51
90.0
  0
ARC
  5
237
330
60
100
AcDbEntity
  8
0
  6
Continuous
 62
     7
100
AcDbCircle
 10
-20.10000176087226
 20
81.05208415822213
 30
0.0
 40
0.0999999999999943
100
AcDbArc
 50
89.99999999999389
 51
209.9999999999988
  0
ENDBLK
  5
62
330
60
100
AcDbEntity
  8
0
100
AcDbBlockEnd
  0
BLOCK
  5
65
330
63
100
AcDbEntity
  8
0
100
AcDbBlockBegin
  2
Rckans1
 70
     0
 10
-13.55000133650204
 20
71.99999999993516
 30
0.0
  3
Rckans1
  1

  0
INSERT
  5
64
330
63
100
AcDbEntity
  8
0
100
AcDbBlockReference
  2
S-URTK_SP-select__3
 10
-20.20000176087226
 20
62.10208415822148
 30
0.0
  0
MTEXT
  5
238
330
63
100
AcDbEntity
  8
1
 62
     6
100
AcDbMText
 10
-13.55000133650208
 20
59.60208320611173
 30
0.0
 40
2.5
 41
0.0
 71
     2
 72
     1
  1
 
  7
CONVERTER_11
 73
     1
 44
1.32052821128451
  0
ENDBLK
  5
66
330
63
100
AcDbEntity
  8
0
100
AcDbBlockEnd
  0
BLOCK
  5
68
330
67
100
AcDbEntity
  8
0
100
AcDbBlockBegin
  2
S-URTK_SP-select__4
 70
     0
 10
-37.9295898533912
 20
62.10208415812393
 30
0.0
  3
S-URTK_SP-select__4
  1

  0
LINE
  5
239
330
67
100
AcDbEntity
  8
0
  6
Continuous
 62
     7
100
AcDbLine
 10
-36.1159936164174
 20
62.10208415812395
 30
0.0
 11
-36.6295898533912
 21
71.90208415812394
 31
0.0
  0
LINE
  5
23A
330
67
100
AcDbEntity
  8
0
  6
Continuous
 62
     2
100
AcDbLine
 10
-32.3295898533912
 20
81.00208415812368
 30
0.0
 11
-37.9295898533912
 21
81.00208415812371
 31
0.0
  0
LINE
  5
23B
330
67
100
AcDbEntity
  8
0
  6
Continuous
 62
     7
100
AcDbLine
 10
-32.3295898533912
 20
81.1520841581237
 30
0.0
 11
-37.9295898533912
 21
81.1520841581237
 31
0.0
  0
LINE
  5
23C
330
67
100
AcDbEntity
  8
0
  6
Continuous
 62
     7
100
AcDbLine
 10
-32.3295898533912
 20
71.90208415812394
 30
0.0
 11
-32.3295898533912
 21
79.95208415812374
 31
0.0
  0
LINE
  5
23D
330
67
100
AcDbEntity
  8
0
  6
Continuous
 62
     7
100
AcDbLine
 10
-32.3295898533912
 20
81.00208415812368
 30
0.0
 11
-32.3295898533912
 21
79.95208415812374
 31
0.0
  0
LINE
  5
23E
330
67
100
AcDbEntity
  8
0
  6
Continuous
 62
     7
100
AcDbLine
 10
-32.3295898533912
 20
81.00208415812368
 30
0.0
 11
-32.3295898533912
 21
81.1520841581237
 31
0.0
  0
LINE
  5
23F
330
67
100
AcDbEntity
  8
0
  6
Continuous
 62
     7
100
AcDbLine
 10
-33.6295898533912
 20
71.90208415812393
 30
0.0
 11
-36.6295898533912
 21
71.90208415812394
 31
0.0
  0
LINE
  5
240
330
67
100
AcDbEntity
  8
0
  6
Continuous
 62
     7
100
AcDbLine
 10
-36.6295898533912
 20
71.90208415812394
 30
0.0
 11
-37.9295898533912
 21
71.90208415812394
 31
0.0
  0
LINE
  5
241
330
67
100
AcDbEntity
  8
0
  6
Continuous
 62
     7
100
AcDbLine
 10
-32.3295898533912
 20
71.90208415812394
 30
0.0
 11
-33.6295898533912
 21
71.90208415812393
 31
0.0
  0
LINE
  5
242
330
67
100
AcDbEntity
  8
0
  6
Continuous
 62
     7
100
AcDbLine
 10
-37.42958985339119
 20
81.90208415812413
 30
0.0
 11
-32.8295898533912
 21
81.90208415812413
 31
0.0
  0
LINE
  5
243
330
67
100
AcDbEntity
  8
0
  6
Continuous
 62
     7
100
AcDbLine
 10
-32.8295898533912
 20
81.90208415812413
 30
0.0
 11
-32.3295898533912
 21
81.9020841581237
 31
0.0
  0
LINE
  5
244
330
67
100
AcDbEntity
  8
0
  6
Continuous
 62
     7
100
AcDbLine
 10
-37.9295898533912
 20
81.9020841581237
 30
0.0
 11
-37.42958985339119
 21
81.90208415812413
 31
0.0
  0
LINE
  5
245
330
67
100
AcDbEntity
  8
0
  6
Continuous
 62
     7
100
AcDbLine
 10
-32.8295898533912
 20
81.90208415812413
 30
0.0
 11
-33.26703317102082
 21
86.9020841581241
 31
0.0
  0
LINE
  5
246
330
67
100
AcDbEntity
  8
0
  6
Continuous
 62
     7
100
AcDbLine
 10
-32.3295898533912
 20
81.1520841581237
 30
0.0
 11
-32.3295898533912
 21
81.9020841581237
 31
0.0
  0
LINE
  5
247
330
67
100
AcDbEntity
  8
0
  6
Continuous
 62
     7
100
AcDbLine
 10
-33.6295898533912
 20
71.90208415812393
 30
0.0
 11
-34.143186090365
 21
62.10208415812393
 31
0.0
  0
LINE
  5
248
330
67
100
AcDbEntity
  8
0
  6
Continuous
 62
     7
100
AcDbLine
 10
-34.143186090365
 20
62.10208415812393
 30
0.0
 11
-36.1159936164174
 21
62.10208415812395
 31
0.0
  0
LINE
  5
249
330
67
100
AcDbEntity
  8
0
  6
Continuous
 62
     7
100
AcDbLine
 10
-32.3295898533912
 20
79.95208415812374
 30
0.0
 11
-37.9295898533912
 21
79.95208415812374
 31
0.0
  0
LINE
  5
24A
330
67
100
AcDbEntity
  8
0
  6
Continuous
 62
     7
100
AcDbLine
 10
-37.9295898533912
 20
71.90208415812394
 30
0.0
 11
-37.9295898533912
 21
79.95208415812374
 31
0.0
  0
LINE
  5
24B
330
67
100
AcDbEntity
  8
0
  6
Continuous
 62
     7
100
AcDbLine
 10
-37.9295898533912
 20
81.00208415812371
 30
0.0
 11
-37.9295898533912
 21
79.95208415812374
 31
0.0
  0
LINE
  5
24C
330
67
100
AcDbEntity
  8
0
  6
Continuous
 62
     7
100
AcDbLine
 10
-37.9295898533912
 20
81.00208415812371
 30
0.0
 11
-37.9295898533912
 21
81.1520841581237
 31
0.0
  0
LINE
  5
24D
330
67
100
AcDbEntity
  8
0
  6
Continuous
 62
     7
100
AcDbLine
 10
-36.99214653576158
 20
86.9020841581241
 30
0.0
 11
-37.42958985339119
 21
81.90208415812413
 31
0.0
  0
LINE
  5
24E
330
67
100
AcDbEntity
  8
0
  6
Continuous
 62
     7
100
AcDbLine
 10
-37.9295898533912
 20
81.9020841581237
 30
0.0
 11
-37.9295898533912
 21
81.1520841581237
 31
0.0
  0
LINE
  5
24F
330
67
100
AcDbEntity
  8
0
  6
Continuous
 62
     7
100
AcDbLine
 10
-33.26703317102082
 20
86.9020841581241
 30
0.0
 11
-36.99214653576158
 21
86.9020841581241
 31
0.0
  0
ENDBLK
  5
69
330
67
100
AcDbEntity
  8
0
100
AcDbBlockEnd
  0
BLOCK
  5
6C
330
6A
100
AcDbEntity
  8
0
100
AcDbBlockBegin
  2
SA_Links1
 70
     0
 10
-35.12958980570248
 20
71.99999999983763
 30
0.0
  3
SA_Links1
  1

  0
INSERT
  5
6B
330
6A
100
AcDbEntity
  8
0
100
AcDbBlockReference
  2
S-URTK_SP-select__4
 10
-37.9295898533912
 20
62.10208415812393
 30
0.0
  0
MTEXT
  5
250
330
6A
100
AcDbEntity
  8
1
 62
     6
100
AcDbMText
 10
-35.12958980570248
 20
59.60208320601419
 30
0.0
 40
2.5
 41
0.0
 71
     2
 72
     1
  1
 
  7
CONVERTER_11
 73
     1
 44
1.32052821128451
  0
ENDBLK
  5
6D
330
6A
100
AcDbEntity
  8
0
100
AcDbBlockEnd
  0
BLOCK
  5
6F
330
6E
100
AcDbEntity
  8
0
100
AcDbBlockBegin
  2
S-URTK_SP-select__5
 70
     0
 10
-89.58581252272948
 20
62.10208415822143
 30
0.0
  3
S-URTK_SP-select__5
  1

  0
LINE
  5
251
330
6E
100
AcDbEntity
  8
0
  6
Continuous
 62
     7
100
AcDbLine
 10
-87.77221628575568
 20
62.10208415822143
 30
0.0
 11
-88.28581252272947
 21
71.9020841582213
 31
0.0
  0
LINE
  5
252
330
6E
100
AcDbEntity
  8
0
  6
Continuous
 62
     7
100
AcDbLine
 10
-89.58581252272948
 20
74.90208415822131
 30
0.0
 11
-89.58581252272948
 21
78.50208415822186
 31
0.0
  0
LINE
  5
253
330
6E
100
AcDbEntity
  8
0
  6
Continuous
 62
     7
100
AcDbLine
 10
-89.58581252272948
 20
79.95208415822194
 30
0.0
 11
-89.58581252272948
 21
78.50208415822186
 31
0.0
  0
LINE
  5
254
330
6E
100
AcDbEntity
  8
0
  6
Continuous
 62
     7
100
AcDbLine
 10
-85.79940875970328
 20
62.10208415822143
 30
0.0
 11
-87.77221628575568
 21
62.10208415822143
 31
0.0
  0
LINE
  5
255
330
6E
100
AcDbEntity
  8
0
  6
Continuous
 62
     7
100
AcDbLine
 10
-89.58581252272948
 20
71.9020841582213
 30
0.0
 11
-88.28581252272947
 21
71.9020841582213
 31
0.0
  0
LINE
  5
256
330
6E
100
AcDbEntity
  8
0
  6
Continuous
 62
     7
100
AcDbLine
 10
-89.58581252272948
 20
71.9020841582213
 30
0.0
 11
-89.58581252272948
 21
74.90208415822131
 31
0.0
  0
LINE
  5
257
330
6E
100
AcDbEntity
  8
0
  6
Continuous
 62
     7
100
AcDbLine
 10
-85.28581252272949
 20
71.9020841582213
 30
0.0
 11
-85.79940875970328
 21
62.10208415822143
 31
0.0
  0
LINE
  5
258
330
6E
100
AcDbEntity
  8
0
  6
Continuous
 62
     7
100
AcDbLine
 10
-85.28581252272949
 20
71.9020841582213
 30
0.0
 11
-83.98581252272949
 21
71.9020841582213
 31
0.0
  0
LINE
  5
259
330
6E
100
AcDbEntity
  8
0
  6
Continuous
 62
     2
100
AcDbLine
 10
-89.58581252272948
 20
81.00208415822196
 30
0.0
 11
-83.98581252272949
 21
81.00208415822196
 31
0.0
  0
LINE
  5
25A
330
6E
100
AcDbEntity
  8
0
  6
Continuous
 62
     7
100
AcDbLine
 10
-84.48581252272949
 20
81.90208415822154
 30
0.0
 11
-89.08581252272948
 21
81.90208415822154
 31
0.0
  0
LINE
  5
25B
330
6E
100
AcDbEntity
  8
0
  6
Continuous
 62
     7
100
AcDbLine
 10
-89.08581252272948
 20
81.90208415822154
 30
0.0
 11
-89.58581252272948
 21
81.90208415822195
 31
0.0
  0
LINE
  5
25C
330
6E
100
AcDbEntity
  8
0
  6
Continuous
 62
     7
100
AcDbLine
 10
-83.98581252272949
 20
81.90208415822195
 30
0.0
 11
-84.48581252272949
 21
81.90208415822154
 31
0.0
  0
LINE
  5
25D
330
6E
100
AcDbEntity
  8
0
  6
Continuous
 62
     7
100
AcDbLine
 10
-89.58581252272948
 20
74.90208415822131
 30
0.0
 11
-83.98581252272949
 21
74.90208415822131
 31
0.0
  0
LINE
  5
25E
330
6E
100
AcDbEntity
  8
0
  6
Continuous
 62
     7
100
AcDbLine
 10
-89.58581252272948
 20
78.50208415822186
 30
0.0
 11
-83.98581252272949
 21
78.50208415822186
 31
0.0
  0
LINE
  5
25F
330
6E
100
AcDbEntity
  8
0
  6
Continuous
 62
     7
100
AcDbLine
 10
-89.58581252272948
 20
81.15208415822195
 30
0.0
 11
-83.98581252272949
 21
81.15208415822195
 31
0.0
  0
LINE
  5
260
330
6E
100
AcDbEntity
  8
0
  6
Continuous
 62
     7
100
AcDbLine
 10
-84.9232558403591
 20
86.90208415822153
 30
0.0
 11
-84.48581252272949
 21
81.90208415822154
 31
0.0
  0
LINE
  5
261
330
6E
100
AcDbEntity
  8
0
  6
Continuous
 62
     7
100
AcDbLine
 10
-83.98581252272949
 20
81.15208415822195
 30
0.0
 11
-83.98581252272949
 21
81.90208415822195
 31
0.0
  0
LINE
  5
262
330
6E
100
AcDbEntity
  8
0
  6
Continuous
 62
     7
100
AcDbLine
 10
-83.98581252272949
 20
81.15208415822195
 30
0.0
 11
-83.98581252272949
 21
81.00208415822196
 31
0.0
  0
LINE
  5
263
330
6E
100
AcDbEntity
  8
0
  6
Continuous
 62
     7
100
AcDbLine
 10
-83.98581252272949
 20
74.90208415822131
 30
0.0
 11
-83.98581252272949
 21
78.50208415822186
 31
0.0
  0
LINE
  5
264
330
6E
100
AcDbEntity
  8
0
  6
Continuous
 62
     7
100
AcDbLine
 10
-83.98581252272949
 20
79.95208415822194
 30
0.0
 11
-83.98581252272949
 21
78.50208415822186
 31
0.0
  0
LINE
  5
265
330
6E
100
AcDbEntity
  8
0
  6
Continuous
 62
     7
100
AcDbLine
 10
-83.98581252272949
 20
71.9020841582213
 30
0.0
 11
-83.98581252272949
 21
74.90208415822131
 31
0.0
  0
LINE
  5
266
330
6E
100
AcDbEntity
  8
0
  6
Continuous
 62
     7
100
AcDbLine
 10
-83.98581252272949
 20
79.95208415822194
 30
0.0
 11
-89.58581252272948
 21
79.95208415822194
 31
0.0
  0
LINE
  5
267
330
6E
100
AcDbEntity
  8
0
  6
Continuous
 62
     7
100
AcDbLine
 10
-89.58581252272948
 20
79.95208415822194
 30
0.0
 11
-89.58581252272948
 21
81.00208415822196
 31
0.0
  0
LINE
  5
268
330
6E
100
AcDbEntity
  8
0
  6
Continuous
 62
     7
100
AcDbLine
 10
-83.98581252272949
 20
79.95208415822194
 30
0.0
 11
-83.98581252272949
 21
81.00208415822196
 31
0.0
  0
LINE
  5
269
330
6E
100
AcDbEntity
  8
0
  6
Continuous
 62
     7
100
AcDbLine
 10
-88.64836920509987
 20
86.90208415822153
 30
0.0
 11
-84.9232558403591
 21
86.90208415822153
 31
0.0
  0
LINE
  5
26A
330
6E
100
AcDbEntity
  8
0
  6
Continuous
 62
     7
100
AcDbLine
 10
-89.08581252272948
 20
81.90208415822154
 30
0.0
 11
-88.64836920509987
 21
86.90208415822153
 31
0.0
  0
LINE
  5
26B
330
6E
100
AcDbEntity
  8
0
  6
Continuous
 62
     7
100
AcDbLine
 10
-89.58581252272948
 20
81.90208415822195
 30
0.0
 11
-89.58581252272948
 21
81.15208415822195
 31
0.0
  0
LINE
  5
26C
330
6E
100
AcDbEntity
  8
0
  6
Continuous
 62
     7
100
AcDbLine
 10
-89.58581252272948
 20
81.15208415822195
 30
0.0
 11
-89.58581252272948
 21
81.00208415822196
 31
0.0
  0
ENDBLK
  5
70
330
6E
100
AcDbEntity
  8
0
100
AcDbBlockEnd
  0
BLOCK
  5
73
330
71
100
AcDbEntity
  8
0
100
AcDbBlockBegin
  2
SA_Rechts1
 70
     0
 10
-86.7858125704182
 20
71.99999999993497
 30
0.0
  3
SA_Rechts1
  1

  0
INSERT
  5
72
330
71
100
AcDbEntity
  8
0
100
AcDbBlockReference
  2
S-URTK_SP-select__5
 10
-89.58581252272948
 20
62.10208415822143
 30
0.0
  0
MTEXT
  5
26D
330
71
100
AcDbEntity
  8
1
 62
     6
100
AcDbMText
 10
-86.7858125704182
 20
59.60208320611173
 30
0.0
 40
2.5
 41
0.0
 71
     2
 72
     1
  1
 
  7
CONVERTER_11
 73
     1
 44
1.32052821128451
  0
ENDBLK
  5
74
330
71
100
AcDbEntity
  8
0
100
AcDbBlockEnd
  0
BLOCK
  5
76
330
75
100
AcDbEntity
  8
0
100
AcDbBlockBegin
  2
S-URTK_SP-select__6
 70
     0
 10
-65.09999823912764
 20
62.10208415822129
 30
0.0
  3
S-URTK_SP-select__6
  1

  0
LINE
  5
26E
330
75
100
AcDbEntity
  8
0
  6
Continuous
 62
     7
100
AcDbLine
 10
-63.64999823912729
 20
71.90208415822129
 30
0.0
 11
-63.14999823912729
 21
62.10208415822129
 31
0.0
  0
LINE
  5
26F
330
75
100
AcDbEntity
  8
0
  6
Continuous
 62
     7
100
AcDbLine
 10
-53.09999823912751
 20
79.95208415822188
 30
0.0
 11
-52.41961348139822
 21
79.95208415822194
 31
0.0
  0
LINE
  5
270
330
75
100
AcDbEntity
  8
0
  6
Continuous
 62
     7
100
AcDbLine
 10
-58.4499982391274
 20
78.50208415822149
 30
0.0
 11
-53.09999823912741
 21
78.50208415822186
 31
0.0
  0
LINE
  5
271
330
75
100
AcDbEntity
  8
0
  6
Continuous
 62
     7
100
AcDbLine
 10
-53.09999823912751
 20
79.95208415822188
 30
0.0
 11
-53.09999823912741
 21
78.50208415822186
 31
0.0
  0
LINE
  5
272
330
75
100
AcDbEntity
  8
0
  6
Continuous
 62
     7
100
AcDbLine
 10
-58.44999823912714
 20
74.90208415822151
 30
0.0
 11
-61.14999823912714
 21
74.90208415822131
 31
0.0
  0
LINE
  5
273
330
75
100
AcDbEntity
  8
0
  6
Continuous
 62
     7
100
AcDbLine
 10
-58.44999823912714
 20
74.90208415822151
 30
0.0
 11
-58.4499982391274
 21
78.50208415822149
 31
0.0
  0
LINE
  5
274
330
75
100
AcDbEntity
  8
0
  6
Continuous
 62
     7
100
AcDbLine
 10
-61.14999823912623
 20
62.10208415822143
 30
0.0
 11
-61.14999823912693
 21
71.9020841582213
 31
0.0
  0
LINE
  5
275
330
75
100
AcDbEntity
  8
0
  6
Continuous
 62
     7
100
AcDbLine
 10
-61.14999823912693
 20
71.9020841582213
 30
0.0
 11
-61.14999823912714
 21
74.90208415822131
 31
0.0
  0
LINE
  5
276
330
75
100
AcDbEntity
  8
0
  6
Continuous
 62
     7
100
AcDbLine
 10
-64.04999823912695
 20
71.9020841582213
 30
0.0
 11
-64.04999823912752
 21
79.95208415822111
 31
0.0
  0
LINE
  5
277
330
75
100
AcDbEntity
  8
0
  6
Continuous
 62
     7
100
AcDbLine
 10
-64.48038299685686
 20
79.95208415822108
 30
0.0
 11
-64.04999823912752
 21
79.95208415822111
 31
0.0
  0
LINE
  5
278
330
75
100
AcDbEntity
  8
0
  6
Continuous
 62
     7
100
AcDbLine
 10
-63.64999823912729
 20
71.90208415822129
 30
0.0
 11
-61.14999823912693
 21
71.9020841582213
 31
0.0
  0
LINE
  5
279
330
75
100
AcDbEntity
  8
0
  6
Continuous
 62
     7
100
AcDbLine
 10
-64.04999823912695
 20
71.9020841582213
 30
0.0
 11
-63.64999823912729
 21
71.90208415822129
 31
0.0
  0
LINE
  5
27A
330
75
100
AcDbEntity
  8
0
  6
Continuous
 62
     7
100
AcDbLine
 10
-63.14999823912729
 20
62.10208415822129
 30
0.0
 11
-61.14999823912623
 21
62.10208415822143
 31
0.0
  0
LINE
  5
27B
330
75
100
AcDbEntity
  8
0
  6
Continuous
 62
     7
100
AcDbLine
 10
-51.89999823912765
 20
81.15208415822195
 30
0.0
 11
-52.14999823912765
 21
81.15208415822195
 31
0.0
  0
LINE
  5
27C
330
75
100
AcDbEntity
  8
0
  6
Continuous
 62
     7
100
AcDbLine
 10
-65.08660077950609
 20
81.00208415822104
 30
0.0
 11
-64.48038299685686
 21
79.95208415822108
 31
0.0
  0
LINE
  5
27D
330
75
100
AcDbEntity
  8
0
  6
Continuous
 62
     7
100
AcDbLine
 10
-57.94999823912769
 20
81.90208415822154
 30
0.0
 11
-52.14999823912771
 21
81.90208415822195
 31
0.0
  0
LINE
  5
27E
330
75
100
AcDbEntity
  8
0
  6
Continuous
 62
     7
100
AcDbLine
 10
-64.7499982391277
 20
81.90208415822106
 30
0.0
 11
-58.94999823912769
 21
81.90208415822147
 31
0.0
  0
LINE
  5
27F
330
75
100
AcDbEntity
  8
0
  6
Continuous
 62
     7
100
AcDbLine
 10
-58.94999823912769
 20
81.90208415822147
 30
0.0
 11
-57.94999823912769
 21
81.90208415822154
 31
0.0
  0
LINE
  5
280
330
75
100
AcDbEntity
  8
0
  6
Continuous
 62
     7
100
AcDbLine
 10
-57.94999823912769
 20
81.90208415822154
 30
0.0
 11
-57.94999823912806
 21
86.90208415822153
 31
0.0
  0
LINE
  5
281
330
75
100
AcDbEntity
  8
0
  6
Continuous
 62
     7
100
AcDbLine
 10
-52.14999823912771
 20
81.90208415822195
 30
0.0
 11
-52.14999823912765
 21
81.15208415822195
 31
0.0
  0
LINE
  5
282
330
75
100
AcDbEntity
  8
0
  6
Continuous
 62
     7
100
AcDbLine
 10
-57.94999823912806
 20
86.90208415822153
 30
0.0
 11
-58.94999823912806
 21
86.90208415822146
 31
0.0
  0
LINE
  5
283
330
75
100
AcDbEntity
  8
0
  6
Continuous
 62
     7
100
AcDbLine
 10
-64.74999823912765
 20
81.15208415822106
 30
0.0
 11
-64.99999823912765
 21
81.15208415822104
 31
0.0
  0
LINE
  5
284
330
75
100
AcDbEntity
  8
0
  6
Continuous
 62
     7
100
AcDbLine
 10
-52.41961348139822
 20
79.95208415822194
 30
0.0
 11
-51.8133956987492
 21
81.00208415822196
 31
0.0
  0
LINE
  5
285
330
75
100
AcDbEntity
  8
0
  6
Continuous
 62
     7
100
AcDbLine
 10
-58.94999823912769
 20
81.90208415822147
 30
0.0
 11
-58.94999823912806
 21
86.90208415822146
 31
0.0
  0
LINE
  5
286
330
75
100
AcDbEntity
  8
0
  6
Continuous
 62
     7
100
AcDbLine
 10
-64.74999823912765
 20
81.15208415822106
 30
0.0
 11
-64.7499982391277
 21
81.90208415822106
 31
0.0
  0
ARC
  5
287
330
75
100
AcDbEntity
  8
0
  6
Continuous
 62
     7
100
AcDbCircle
 10
-64.99999823912765
 20
81.05208415822105
 30
0.0
 40
0.0999999999999943
100
AcDbArc
 50
90.0
 51
210.0000000000078
  0
ARC
  5
288
330
75
100
AcDbEntity
  8
0
  6
Continuous
 62
     7
100
AcDbCircle
 10
-51.89999823912764
 20
81.05208415822196
 30
0.0
 40
0.0999999999999982
100
AcDbArc
 50
330.0000000000013
 51
90.00000000000408
  0
ENDBLK
  5
77
330
75
100
AcDbEntity
  8
0
100
AcDbBlockEnd
  0
BLOCK
  5
7A
330
78
100
AcDbEntity
  8
0
100
AcDbBlockBegin
  2
Vordans1
 70
     0
 10
-58.44999866349786
 20
71.99999999993497
 30
0.0
  3
Vordans1
  1

  0
INSERT
  5
79
330
78
100
AcDbEntity
  8
0
100
AcDbBlockReference
  2
S-URTK_SP-select__6
 10
-65.09999823912764
 20
62.10208415822129
 30
0.0
  0
MTEXT
  5
289
330
78
100
AcDbEntity
  8
1
 62
     6
100
AcDbMText
 10
-58.44999866349792
 20
59.60208320611173
 30
0.0
 40
2.5
 41
0.0
 71
     2
 72
     1
  1
 
  7
CONVERTER_11
 73
     1
 44
1.32052821128451
  0
DIMENSION
  5
294
330
78
100
AcDbEntity
  8
1
100
AcDbDimension
  2
*D18
 10
-73.59999823912764
 20
62.10208415822129
 30
0.0
 11
-75.31249823912765
 21
74.7899029739795
 31
0.0
 70
    32
  1
<>
 71
     5
 42
-1.0
 53
90.0
  3
ME10_DIM_11
100
AcDbAlignedDimension
 13
-57.94999823912806
 23
86.90208415822153
 33
0.0
 14
-63.14999823912729
 24
62.10208415822129
 34
0.0
 50
90.0
100
AcDbRotatedDimension
  0
DIMENSION
  5
29F
330
78
100
AcDbEntity
  8
1
100
AcDbDimension
  2
*D19
 10
-70.09999823912764
 20
62.10208415822129
 30
0.0
 11
-71.81249823912765
 21
73.509714985948
 31
0.0
 70
    32
  1
<>
 71
     5
 42
-1.0
 53
90.0
  3
ME10_DIM_12
100
AcDbAlignedDimension
 13
-64.7499982391277
 23
81.90208415822106
 33
0.0
 14
-63.14999823912729
 24
62.10208415822129
 34
0.0
 50
90.0
100
AcDbRotatedDimension
  0
INSERT
  5
2A9
330
78
100
AcDbEntity
  8
1
100
AcDbBlockReference
  2
*D20
 10
0.0
 20
0.0
 30
0.0
  0
ENDBLK
  5
7B
330
78
100
AcDbEntity
  8
0
100
AcDbBlockEnd
  0
BLOCK
  5
84
330
7C
100
AcDbEntity
  8
0
100
AcDbBlockBegin
  2
1
 70
     0
 10
0.0
 20
0.0
 30
0.0
  3
1
  1

  0
INSERT
  5
7D
330
7C
100
AcDbEntity
  8
0
100
AcDbBlockReference
  2
A4I_CS
 10
49.07398602065028
 20
3.45530179772618
 30
0.0
  0
INSERT
  5
7E
330
7C
100
AcDbEntity
  8
0
100
AcDbBlockReference
  2
AllgSicht1
 10
12.00000000000603
 20
72.999999999892
 30
0.0
 41
2.0
 42
2.0
 43
2.0
  0
INSERT
  5
7F
330
7C
100
AcDbEntity
  8
0
100
AcDbBlockReference
  2
Drfsicht1
 10
-116.8999973269957
 20
88.60416550766102
 30
0.0
 41
2.0
 42
2.0
 43
2.0
  0
INSERT
  5
80
330
7C
100
AcDbEntity
  8
0
100
AcDbBlockReference
  2
Rckans1
 10
-27.10000267300408
 20
143.9999999998703
 30
0.0
 41
2.0
 42
2.0
 43
2.0
  0
INSERT
  5
81
330
7C
100
AcDbEntity
  8
0
100
AcDbBlockReference
  2
SA_Links1
 10
-70.25917961140496
 20
143.9999999996753
 30
0.0
 41
2.0
 42
2.0
 43
2.0
  0
INSERT
  5
82
330
7C
100
AcDbEntity
  8
0
100
AcDbBlockReference
  2
SA_Rechts1
 10
-173.5716251408364
 20
143.9999999998699
 30
0.0
 41
2.0
 42
2.0
 43
2.0
  0
INSERT
  5
83
330
7C
100
AcDbEntity
  8
0
100
AcDbBlockReference
  2
Vordans1
 10
-116.8999973269957
 20
143.9999999998699
 30
0.0
 41
2.0
 42
2.0
 43
2.0
  0
ENDBLK
  5
85
330
7C
100
AcDbEntity
  8
0
100
AcDbBlockEnd
  0
BLOCK
  5
219
330
211
100
AcDbEntity
  8
0
100
AcDbBlockBegin
  2
*D17
 70
     1
 10
0.0
 20
0.0
 30
0.0
  3
*D17
  1

  0
LINE
  5
212
330
211
100
AcDbEntity
  8
1
  6
Continuous
 62
     2
100
AcDbLine
 10
-70.09999823912764
 20
41.50208280151924
 30
0.0
 11
-70.09999823912764
 21
47.10208280151923
 31
0.0
  0
LINE
  5
213
330
211
100
AcDbEntity
  8
1
  6
Continuous
 62
     2
100
AcDbLine
 10
-70.09999823912764
 20
36.3630238606125
 30
0.0
 11
-70.09999823912764
 21
41.50208280151924
 31
0.0
  0
LINE
  5
214
330
211
100
AcDbEntity
  8
1
  6
Continuous
 62
     2
100
AcDbLine
 10
-65.09999823912764
 20
47.10208280151923
 30
0.0
 11
-70.84999823912764
 21
47.10208280151923
 31
0.0
  0
LINE
  5
215
330
211
100
AcDbEntity
  8
1
  6
Continuous
 62
     2
100
AcDbLine
 10
-65.09999823912764
 20
41.50208280151924
 30
0.0
 11
-70.84999823912764
 21
41.50208280151924
 31
0.0
  0
SOLID
  5
216
330
211
100
AcDbEntity
  8
1
 62
     2
100
AcDbTrace
 10
-70.33039010990558
 20
43.25208280151924
 30
0.0
 11
-69.86960636834971
 21
43.25208280151924
 31
0.0
 12
-70.09999823912764
 22
41.50208280151924
 32
0.0
 13
-70.09999823912764
 23
41.50208280151924
 33
0.0
  0
SOLID
  5
217
330
211
100
AcDbEntity
  8
1
 62
     2
100
AcDbTrace
 10
-69.86960636834971
 20
45.35208280151923
 30
0.0
 11
-70.33039010990558
 21
45.35208280151923
 31
0.0
 12
-70.09999823912764
 22
47.10208280151923
 32
0.0
 13
-70.09999823912764
 23
47.10208280151923
 33
0.0
  0
MTEXT
  5
218
330
211
100
AcDbEntity
  8
1
 62
     3
100
AcDbMText
 10
-71.02499823912765
 20
36.3630238606125
 30
0.0
 40
1.75
 41
0.0
 71
     7
 72
     1
  1
5,6
  7
CONVERTER_11
 11
0.0
 21
1.0
 31
0.0
 73
     1
 44
0.60024009603842
  0
ENDBLK
  5
21A
330
211
100
AcDbEntity
  8
0
100
AcDbBlockEnd
  0
BLOCK
  5
291
330
28A
100
AcDbEntity
  8
0
100
AcDbBlockBegin
  2
*D18
 70
     1
 10
0.0
 20
0.0
 30
0.0
  3
*D18
  1

  0
LINE
  5
28B
330
28A
100
AcDbEntity
  8
1
  6
Continuous
 62
     2
100
AcDbLine
 10
-73.59999823912764
 20
62.10208415822129
 30
0.0
 11
-73.59999823912764
 21
86.90208415822153
 31
0.0
  0
LINE
  5
28C
330
28A
100
AcDbEntity
  8
1
  6
Continuous
 62
     2
100
AcDbLine
 10
-63.14999823912729
 20
62.10208415822129
 30
0.0
 11
-74.34999823912764
 21
62.10208415822129
 31
0.0
  0
LINE
  5
28D
330
28A
100
AcDbEntity
  8
1
  6
Continuous
 62
     2
100
AcDbLine
 10
-57.94999823912806
 20
86.90208415822153
 30
0.0
 11
-74.34999823912764
 21
86.90208415822153
 31
0.0
  0
SOLID
  5
28E
330
28A
100
AcDbEntity
  8
1
 62
     2
100
AcDbTrace
 10
-73.83039010990558
 20
63.85208415822129
 30
0.0
 11
-73.36960636834971
 21
63.85208415822129
 31
0.0
 12
-73.59999823912764
 22
62.10208415822129
 32
0.0
 13
-73.59999823912764
 23
62.10208415822129
 33
0.0
  0
SOLID
  5
28F
330
28A
100
AcDbEntity
  8
1
 62
     2
100
AcDbTrace
 10
-73.36960636834971
 20
85.15208415822153
 30
0.0
 11
-73.83039010990558
 21
85.15208415822153
 31
0.0
 12
-73.59999823912764
 22
86.90208415822153
 32
0.0
 13
-73.59999823912764
 23
86.90208415822153
 33
0.0
  0
MTEXT
  5
290
330
28A
100
AcDbEntity
  8
1
 62
     3
100
AcDbMText
 10
-74.52499823912765
 20
72.3836529739795
 30
0.0
 40
1.75
 41
0.0
 71
     7
 72
     1
  1
24,8
  7
CONVERTER_11
 11
0.0
 21
1.0
 31
0.0
 73
     1
 44
0.60024009603842
  0
ENDBLK
  5
292
330
28A
100
AcDbEntity
  8
0
100
AcDbBlockEnd
  0
BLOCK
  5
29C
330
295
100
AcDbEntity
  8
0
100
AcDbBlockBegin
  2
*D19
 70
     1
 10
0.0
 20
0.0
 30
0.0
  3
*D19
  1

  0
LINE
  5
296
330
295
100
AcDbEntity
  8
1
  6
Continuous
 62
     2
100
AcDbLine
 10
-70.09999823912764
 20
62.10208415822129
 30
0.0
 11
-70.09999823912764
 21
81.90208415822106
 31
0.0
  0
LINE
  5
297
330
295
100
AcDbEntity
  8
1
  6
Continuous
 62
     2
100
AcDbLine
 10
-63.14999823912729
 20
62.10208415822129
 30
0.0
 11
-70.84999823912764
 21
62.10208415822129
 31
0.0
  0
LINE
  5
298
330
295
100
AcDbEntity
  8
1
  6
Continuous
 62
     2
100
AcDbLine
 10
-64.7499982391277
 20
81.90208415822106
 30
0.0
 11
-70.84999823912764
 21
81.90208415822106
 31
0.0
  0
SOLID
  5
299
330
295
100
AcDbEntity
  8
1
 62
     2
100
AcDbTrace
 10
-70.33039010990558
 20
63.85208415822129
 30
0.0
 11
-69.86960636834971
 21
63.85208415822129
 31
0.0
 12
-70.09999823912764
 22
62.10208415822129
 32
0.0
 13
-70.09999823912764
 23
62.10208415822129
 33
0.0
  0
SOLID
  5
29A
330
295
100
AcDbEntity
  8
1
 62
     2
100
AcDbTrace
 10
-69.86960636834971
 20
80.15208415822106
 30
0.0
 11
-70.33039010990558
 21
80.15208415822106
 31
0.0
 12
-70.09999823912764
 22
81.90208415822106
 32
0.0
 13
-70.09999823912764
 23
81.90208415822106
 33
0.0
  0
MTEXT
  5
29B
330
295
100
AcDbEntity
  8
1
 62
     3
100
AcDbMText
 10
-71.02499823912765
 20
71.365964985948
 30
0.0
 40
1.75
 41
0.0
 71
     7
 72
     1
  1
19,8
  7
CONVERTER_11
 11
0.0
 21
1.0
 31
0.0
 73
     1
 44
0.60024009603842
  0
ENDBLK
  5
29D
330
295
100
AcDbEntity
  8
0
100
AcDbBlockEnd
  0
BLOCK
  5
2A7
330
2A0
100
AcDbEntity
  8
0
100
AcDbBlockBegin
  2
*D20
 70
     1
 10
0.0
 20
0.0
 30
0.0
  3
*D20
  1

  0
LINE
  5
2A1
330
2A0
100
AcDbEntity
  8
1
  6
Continuous
 62
     2
100
AcDbLine
 10
-65.09999823912764
 20
55.895295298811
 30
0.0
 11
-51.79999823912765
 21
55.895295298811
 31
0.0
  0
LINE
  5
2A2
330
2A0
100
AcDbEntity
  8
1
  6
Continuous
 62
     2
100
AcDbLine
 10
-51.79999823912765
 20
81.05208415822196
 30
0.0
 11
-51.79999823912765
 21
55.145295298811
 31
0.0
  0
LINE
  5
2A3
330
2A0
100
AcDbEntity
  8
1
  6
Continuous
 62
     2
100
AcDbLine
 10
-65.09999823912764
 20
81.05208415822105
 30
0.0
 11
-65.09999823912764
 21
55.145295298811
 31
0.0
  0
SOLID
  5
2A4
330
2A0
100
AcDbEntity
  8
1
 62
     2
100
AcDbTrace
 10
-63.34999823912764
 20
56.12568716958894
 30
0.0
 11
-63.34999823912764
 21
55.66490342803306
 31
0.0
 12
-65.09999823912764
 22
55.895295298811
 32
0.0
 13
-65.09999823912764
 23
55.895295298811
 33
0.0
  0
SOLID
  5
2A5
330
2A0
100
AcDbEntity
  8
1
 62
     2
100
AcDbTrace
 10
-53.54999823912765
 20
55.66490342803306
 30
0.0
 11
-53.54999823912765
 21
56.12568716958894
 31
0.0
 12
-51.79999823912765
 22
55.895295298811
 32
0.0
 13
-51.79999823912765
 23
55.895295298811
 33
0.0
  0
MTEXT
  5
2A6
330
2A0
100
AcDbEntity
  8
1
 62
     3
100
AcDbMText
 10
-61.0697470584645
 20
56.820295298811
 30
0.0
 40
1.75
 41
0.0
 71
     7
 72
     1
  1
13,3
  7
CONVERTER_11
 11
0.9999999999970619
 21
2.424068405545306E-6
 31
0.0
 73
     1
 44
0.60024009603842
  0
ENDBLK
  5
2A8
330
2A0
100
AcDbEntity
  8
0
100
AcDbBlockEnd
  0
ENDSEC
  0
SECTION
  2
ENTITIES
  0
INSERT
  5
86
330
1F
100
AcDbEntity
  8
1
100
AcDbBlockReference
  2
1
 10
0.0
 20
0.0
 30
0.0
  0
ENDSEC
  0
SECTION
  2
OBJECTS
  0
DICTIONARY
  5
C
330
0
100
AcDbDictionary
281
     1
  3
ACAD_GROUP
350
D
  3
ACAD_LAYOUT
350
1A
  3
ACAD_MATERIAL
350
3B
  3
ACAD_MLEADERSTYLE
350
2D1
  3
ACAD_MLINESTYLE
350
17
  3
ACAD_PLOTSETTINGS
350
19
  3
ACAD_PLOTSTYLENAME
350
E
  3
ACAD_TABLESTYLE
350
2D0
  3
ACAD_VISUALSTYLE
350
2A
  0
DICTIONARY
  5
D
102
{ACAD_REACTORS
330
C
102
}
330
C
100
AcDbDictionary
281
     1
  0
DICTIONARY
  5
1A
102
{ACAD_REACTORS
330
C
102
}
330
C
100
AcDbDictionary
281
     1
  3
Layout1
350
1E
  3
Layout2
350
26
  3
Model
350
22
  0
DICTIONARY
  5
3B
102
{ACAD_REACTORS
330
C
102
}
330
C
100
AcDbDictionary
281
     1
  3
ByBlock
350
3D
  3
ByLayer
350
3C
  3
Global
350
3E
  0
DICTIONARY
  5
2D1
102
{ACAD_REACTORS
330
C
102
}
330
C
100
AcDbDictionary
281
     1
  0
DICTIONARY
  5
17
102
{ACAD_REACTORS
330
C
102
}
330
C
100
AcDbDictionary
281
     1
  3
Standard
350
18
  0
DICTIONARY
  5
19
102
{ACAD_REACTORS
330
C
102
}
330
C
100
AcDbDictionary
281
     1
  0
ACDBDICTIONARYWDFLT
  5
E
102
{ACAD_REACTORS
330
C
102
}
330
C
100
AcDbDictionary
281
     1
  3
Normal
350
F
100
AcDbDictionaryWithDefault
340
F
  0
DICTIONARY
  5
2D0
102
{ACAD_REACTORS
330
C
102
}
330
C
100
AcDbDictionary
281
     1
  0
DICTIONARY
  5
2A
102
{ACAD_REACTORS
330
C
102
}
330
C
100
AcDbDictionary
281
     1
  3
2dWireframe
350
2F
  3
3D Hidden
350
31
  3
3dWireframe
350
30
  3
Basic
350
32
  3
Brighten
350
36
  3
ColorChange
350
3A
  3
Conceptual
350
34
  3
Dim
350
35
  3
Facepattern
350
39
  3
Flat
350
2B
  3
FlatWithEdges
350
2C
  3
Gouraud
350
2D
  3
GouraudWithEdges
350
2E
  3
Linepattern
350
38
  3
Realistic
350
33
  3
Thicken
350
37
  0
LAYOUT
  5
1E
102
{ACAD_REACTORS
330
1A
102
}
330
1A
100
AcDbPlotSettings
  1

  2
none_device
  4

  6

 40
0.0
 41
0.0
 42
0.0
 43
0.0
 44
0.0
 45
0.0
 46
0.0
 47
0.0
 48
0.0
 49
0.0
140
0.0
141
0.0
142
1.0
143
1.0
 70
   688
 72
     0
 73
     0
 74
     5
  7

 75
    16
 76
     0
 77
     2
 78
   300
147
1.0
148
0.0
149
0.0
100
AcDbLayout
  1
Layout1
 70
     1
 71
     1
 10
0.0
 20
0.0
 11
12.0
 21
9.0
 12
0.0
 22
0.0
 32
0.0
 14
1.00000000000000E+20
 24
1.00000000000000E+20
 34
1.00000000000000E+20
 15
-1.00000000000000E+20
 25
-1.00000000000000E+20
 35
-1.00000000000000E+20
146
0.0
 13
0.0
 23
0.0
 33
0.0
 16
1.0
 26
0.0
 36
0.0
 17
0.0
 27
1.0
 37
0.0
 76
     0
330
1B
  0
LAYOUT
  5
26
102
{ACAD_REACTORS
330
1A
102
}
330
1A
100
AcDbPlotSettings
  1

  2
none_device
  4

  6

 40
0.0
 41
0.0
 42
0.0
 43
0.0
 44
0.0
 45
0.0
 46
0.0
 47
0.0
 48
0.0
 49
0.0
140
0.0
141
0.0
142
1.0
143
1.0
 70
   688
 72
     0
 73
     0
 74
     5
  7

 75
    16
 76
     0
 77
     2
 78
   300
147
1.0
148
0.0
149
0.0
100
AcDbLayout
  1
Layout2
 70
     1
 71
     2
 10
0.0
 20
0.0
 11
0.0
 21
0.0
 12
0.0
 22
0.0
 32
0.0
 14
0.0
 24
0.0
 34
0.0
 15
0.0
 25
0.0
 35
0.0
146
0.0
 13
0.0
 23
0.0
 33
0.0
 16
1.0
 26
0.0
 36
0.0
 17
0.0
 27
1.0
 37
0.0
 76
     0
330
23
  0
LAYOUT
  5
22
102
{ACAD_REACTORS
330
1A
102
}
330
1A
100
AcDbPlotSettings
  1

  2
none_device
  4

  6

 40
0.0
 41
0.0
 42
0.0
 43
0.0
 44
0.0
 45
0.0
 46
0.0
 47
0.0
 48
0.0
 49
0.0
140
0.0
141
0.0
142
1.0
143
1.0
 70
  1712
 72
     0
 73
     0
 74
     0
  7

 75
     0
 76
     0
 77
     2
 78
   300
147
1.0
148
0.0
149
0.0
100
AcDbLayout
  1
Model
 70
     1
 71
     0
 10
0.0
 20
0.0
 11
12.0
 21
9.0
 12
0.0
 22
0.0
 32
0.0
 14
-242.9260139793488
 24
3.45530179772618
 34
0.0
 15
54.07398602064927
 25
213.4553017977263
 35
0.0
146
0.0
 13
0.0
 23
0.0
 33
0.0
 16
1.0
 26
0.0
 36
0.0
 17
0.0
 27
1.0
 37
0.0
 76
     0
330
1F
331
29
  0
MATERIAL
  5
3D
102
{ACAD_REACTORS
330
3B
102
}
102
{ACAD_XDICTIONARY
360
2CC
102
}
330
3B
100
AcDbMaterial
  1
ByBlock
  0
MATERIAL
  5
3C
102
{ACAD_REACTORS
330
3B
102
}
102
{ACAD_XDICTIONARY
360
2CA
102
}
330
3B
100
AcDbMaterial
  1
ByLayer
  0
MATERIAL
  5
3E
102
{ACAD_REACTORS
330
3B
102
}
102
{ACAD_XDICTIONARY
360
2CE
102
}
330
3B
100
AcDbMaterial
  1
Global
  0
MLINESTYLE
  5
18
102
{ACAD_REACTORS
330
17
102
}
330
17
100
AcDbMlineStyle
  2
Standard
 70
     0
  3

 62
   256
 51
90.0
 52
90.0
 71
     2
 49
0.5
 62
   256
  6
BYLAYER
 49
-0.5
 62
   256
  6
BYLAYER
  0
ACDBPLACEHOLDER
  5
F
102
{ACAD_REACTORS
330
E
102
}
330
E
  0
VISUALSTYLE
  5
2F
102
{ACAD_REACTORS
330
2A
102
}
102
{ACAD_XDICTIONARY
360
2B2
102
}
330
2A
100
AcDbVisualStyle
  2
2dWireframe
 70
     4
 71
     0
 72
     2
 73
     0
 90
        0
 40
-0.6
 41
-30.0
 62
     5
 63
     7
421
 16777215
 74
     1
 91
        4
 64
     7
 65
   257
 75
     1
175
     1
 42
1.0
 92
        0
 66
   257
 43
1.0
 76
     1
 77
     6
 78
     2
 67
     7
 79
     5
170
     0
171
     0
290
     0
174
     0
 93
        1
 44
0.0
173
     0
291
     0
 45
0.0
1001
ACAD
1000
AcDbSavedByObjectVersion
1070
     0
  0
VISUALSTYLE
  5
31
102
{ACAD_REACTORS
330
2A
102
}
102
{ACAD_XDICTIONARY
360
2B6
102
}
330
2A
100
AcDbVisualStyle
  2
3D Hidden
 70
     6
 71
     1
 72
     2
 73
     2
 90
        0
 40
-0.6
 41
-30.0
 62
     5
 63
     7
421
 16777215
 74
     2
 91
        2
 64
     7
 65
   257
 75
     2
175
     1
 42
40.0
 92
        0
 66
   257
 43
1.0
 76
     1
 77
     6
 78
     2
 67
     7
 79
     3
170
     0
171
     0
290
     0
174
     0
 93
        1
 44
0.0
173
     0
291
     0
 45
0.0
1001
ACAD
1000
AcDbSavedByObjectVersion
1070
     0
  0
VISUALSTYLE
  5
30
102
{ACAD_REACTORS
330
2A
102
}
102
{ACAD_XDICTIONARY
360
2B4
102
}
330
2A
100
AcDbVisualStyle
  2
3dWireframe
 70
     5
 71
     0
 72
     2
 73
     0
 90
        0
 40
-0.6
 41
-30.0
 62
     5
 63
     7
421
 16777215
 74
     1
 91
        4
 64
     7
 65
   257
 75
     1
175
     1
 42
1.0
 92
        0
 66
   257
 43
1.0
 76
     1
 77
     6
 78
     2
 67
     7
 79
     5
170
     0
171
     0
290
     0
174
     0
 93
        1
 44
0.0
173
     0
291
     0
 45
0.0
1001
ACAD
1000
AcDbSavedByObjectVersion
1070
     0
  0
VISUALSTYLE
  5
32
102
{ACAD_REACTORS
330
2A
102
}
102
{ACAD_XDICTIONARY
360
2B8
102
}
330
2A
100
AcDbVisualStyle
  2
Basic
 70
     7
 71
     1
 72
     0
 73
     1
 90
        0
 40
-0.6
 41
-30.0
 62
     5
 63
     7
421
 16777215
 74
     0
 91
        4
 64
     7
 65
   257
 75
     1
175
     1
 42
1.0
 92
        8
 66
     7
 43
1.0
 76
     1
 77
     6
 78
     2
 67
     7
 79
     5
170
     0
171
     0
290
     0
174
     0
 93
        1
 44
0.0
173
     0
291
     1
 45
0.0
1001
ACAD
1000
AcDbSavedByObjectVersion
1070
     0
  0
VISUALSTYLE
  5
36
102
{ACAD_REACTORS
330
2A
102
}
102
{ACAD_XDICTIONARY
360
2C0
102
}
330
2A
100
AcDbVisualStyle
  2
Brighten
 70
    12
 71
     2
 72
     2
 73
     0
 90
        0
 40
-0.6
 41
-30.0
 62
     5
 63
     7
421
 16777215
 74
     1
 91
        4
 64
     7
 65
   257
 75
     1
175
     1
 42
1.0
 92
        8
 66
     7
 43
1.0
 76
     1
 77
     6
 78
     2
 67
     7
 79
     5
170
     0
171
     0
290
     0
174
     0
 93
        1
 44
50.0
173
     0
291
     1
 45
0.0
1001
ACAD
1000
AcDbSavedByObjectVersion
1070
     0
  0
VISUALSTYLE
  5
3A
102
{ACAD_REACTORS
330
2A
102
}
102
{ACAD_XDICTIONARY
360
2C8
102
}
330
2A
100
AcDbVisualStyle
  2
ColorChange
 70
    16
 71
     2
 72
     2
 73
     3
 90
        0
 40
-0.6
 41
-30.0
 62
     5
 63
     8
421
  8421504
 74
     1
 91
        4
 64
     7
 65
   257
 75
     1
175
     1
 42
1.0
 92
        8
 66
     8
424
  8421504
 43
1.0
 76
     1
 77
     6
 78
     2
 67
     7
 79
     5
170
     0
171
     0
290
     0
174
     0
 93
        1
 44
0.0
173
     0
291
     1
 45
0.0
1001
ACAD
1000
AcDbSavedByObjectVersion
1070
     0
  0
VISUALSTYLE
  5
34
102
{ACAD_REACTORS
330
2A
102
}
102
{ACAD_XDICTIONARY
360
2BC
102
}
330
2A
100
AcDbVisualStyle
  2
Conceptual
 70
     9
 71
     3
 72
     2
 73
     0
 90
        0
 40
-0.6
 41
-30.0
 62
     5
 63
     7
421
 16777215
 74
     2
 91
        2
 64
     7
 65
   257
 75
     1
175
     1
 42
40.0
 92
        8
 66
     7
 43
1.0
 76
     1
 77
     6
 78
     2
 67
     7
 79
     3
170
     0
171
     0
290
     0
174
     0
 93
        1
 44
0.0
173
     0
291
     0
 45
0.0
1001
ACAD
1000
AcDbSavedByObjectVersion
1070
     0
  0
VISUALSTYLE
  5
35
102
{ACAD_REACTORS
330
2A
102
}
102
{ACAD_XDICTIONARY
360
2BE
102
}
330
2A
100
AcDbVisualStyle
  2
Dim
 70
    11
 71
     2
 72
     2
 73
     0
 90
        0
 40
-0.6
 41
-30.0
 62
     5
 63
     7
421
 16777215
 74
     1
 91
        4
 64
     7
 65
   257
 75
     1
175
     1
 42
1.0
 92
        8
 66
     7
 43
1.0
 76
     1
 77
     6
 78
     2
 67
     7
 79
     5
170
     0
171
     0
290
     0
174
     0
 93
        1
 44
-50.0
173
     0
291
     1
 45
0.0
1001
ACAD
1000
AcDbSavedByObjectVersion
1070
     0
  0
VISUALSTYLE
  5
39
102
{ACAD_REACTORS
330
2A
102
}
102
{ACAD_XDICTIONARY
360
2C6
102
}
330
2A
100
AcDbVisualStyle
  2
Facepattern
 70
    15
 71
     2
 72
     2
 73
     0
 90
        0
 40
-0.6
 41
-30.0
 62
     5
 63
     7
421
 16777215
 74
     1
 91
        4
 64
     7
 65
   257
 75
     1
175
     1
 42
1.0
 92
        8
 66
     7
 43
1.0
 76
     1
 77
     6
 78
     2
 67
     7
 79
     5
170
     0
171
     0
290
     0
174
     0
 93
        1
 44
0.0
173
     0
291
     1
 45
0.0
1001
ACAD
1000
AcDbSavedByObjectVersion
1070
     0
  0
VISUALSTYLE
  5
2B
102
{ACAD_REACTORS
330
2A
102
}
102
{ACAD_XDICTIONARY
360
2AA
102
}
330
2A
100
AcDbVisualStyle
  2
Flat
 70
     0
 71
     2
 72
     1
 73
     1
 90
        2
 40
-0.6
 41
30.0
 62
     5
 63
     7
421
 16777215
 74
     0
 91
        4
 64
     7
 65
   257
 75
     1
175
     1
 42
1.0
 92
        8
 66
     7
 43
1.0
 76
     1
 77
     6
 78
     2
 67
     7
 79
     5
170
     0
171
     0
290
     0
174
     0
 93
       13
 44
0.0
173
     0
291
     1
 45
0.0
1001
ACAD
1000
AcDbSavedByObjectVersion
1070
     0
  0
VISUALSTYLE
  5
2C
102
{ACAD_REACTORS
330
2A
102
}
102
{ACAD_XDICTIONARY
360
2AC
102
}
330
2A
100
AcDbVisualStyle
  2
FlatWithEdges
 70
     1
 71
     2
 72
     1
 73
     1
 90
        2
 40
-0.6
 41
30.0
 62
     5
 63
     7
421
 16777215
 74
     1
 91
        4
 64
     7
 65
   257
 75
     1
175
     1
 42
1.0
 92
        0
 66
   257
 43
1.0
 76
     1
 77
     6
 78
     2
 67
     7
 79
     5
170
     0
171
     0
290
     0
174
     0
 93
       13
 44
0.0
173
     0
291
     1
 45
0.0
1001
ACAD
1000
AcDbSavedByObjectVersion
1070
     0
  0
VISUALSTYLE
  5
2D
102
{ACAD_REACTORS
330
2A
102
}
102
{ACAD_XDICTIONARY
360
2AE
102
}
330
2A
100
AcDbVisualStyle
  2
Gouraud
 70
     2
 71
     2
 72
     2
 73
     1
 90
        2
 40
-0.6
 41
30.0
 62
     5
 63
     7
421
 16777215
 74
     0
 91
        4
 64
     7
 65
   257
 75
     1
175
     1
 42
1.0
 92
        0
 66
     7
 43
1.0
 76
     1
 77
     6
 78
     2
 67
     7
 79
     5
170
     0
171
     0
290
     0
174
     0
 93
       13
 44
0.0
173
     0
291
     1
 45
0.0
1001
ACAD
1000
AcDbSavedByObjectVersion
1070
     0
  0
VISUALSTYLE
  5
2E
102
{ACAD_REACTORS
330
2A
102
}
102
{ACAD_XDICTIONARY
360
2B0
102
}
330
2A
100
AcDbVisualStyle
  2
GouraudWithEdges
 70
     3
 71
     2
 72
     2
 73
     1
 90
        2
 40
-0.6
 41
30.0
 62
     5
 63
     7
421
 16777215
 74
     1
 91
        4
 64
     7
 65
   257
 75
     1
175
     1
 42
1.0
 92
        0
 66
   257
 43
1.0
 76
     1
 77
     6
 78
     2
 67
     7
 79
     5
170
     0
171
     0
290
     0
174
     0
 93
       13
 44
0.0
173
     0
291
     1
 45
0.0
1001
ACAD
1000
AcDbSavedByObjectVersion
1070
     0
  0
VISUALSTYLE
  5
38
102
{ACAD_REACTORS
330
2A
102
}
102
{ACAD_XDICTIONARY
360
2C4
102
}
330
2A
100
AcDbVisualStyle
  2
Linepattern
 70
    14
 71
     2
 72
     2
 73
     0
 90
        0
 40
-0.6
 41
-30.0
 62
     5
 63
     7
421
 16777215
 74
     1
 91
        4
 64
     7
 65
   257
 75
     7
175
     7
 42
1.0
 92
        8
 66
     7
 43
1.0
 76
     1
 77
     6
 78
     2
 67
     7
 79
     5
170
     0
171
     0
290
     0
174
     0
 93
        1
 44
0.0
173
     0
291
     1
 45
0.0
1001
ACAD
1000
AcDbSavedByObjectVersion
1070
     0
  0
VISUALSTYLE
  5
33
102
{ACAD_REACTORS
330
2A
102
}
102
{ACAD_XDICTIONARY
360
2BA
102
}
330
2A
100
AcDbVisualStyle
  2
Realistic
 70
     8
 71
     2
 72
     2
 73
     0
 90
        0
 40
-0.6
 41
-30.0
 62
     5
 63
     7
421
 16777215
 74
     1
 91
        0
 64
     7
 65
   257
 75
     1
175
     1
 42
1.0
 92
        8
 66
     8
424
  7895160
 43
1.0
 76
     1
 77
     6
 78
     2
 67
     7
 79
     5
170
     0
171
     0
290
     0
174
     0
 93
       13
 44
0.0
173
     0
291
     0
 45
0.0
1001
ACAD
1000
AcDbSavedByObjectVersion
1070
     0
  0
VISUALSTYLE
  5
37
102
{ACAD_REACTORS
330
2A
102
}
102
{ACAD_XDICTIONARY
360
2C2
102
}
330
2A
100
AcDbVisualStyle
  2
Thicken
 70
    13
 71
     2
 72
     2
 73
     0
 90
        0
 40
-0.6
 41
-30.0
 62
     5
 63
     7
421
 16777215
 74
     1
 91
        4
 64
     7
 65
   257
 75
     1
175
     1
 42
1.0
 92
       12
 66
     7
 43
1.0
 76
     1
 77
     6
 78
     2
 67
     7
 79
     5
170
     0
171
     0
290
     0
174
     0
 93
        1
 44
0.0
173
     0
291
     1
 45
0.0
1001
ACAD
1000
AcDbSavedByObjectVersion
1070
     0
  0
DICTIONARY
  5
2CC
330
3D
100
AcDbDictionary
280
     1
281
     1
  3
ACAD_XREC_ROUNDTRIP
360
2CD
  0
DICTIONARY
  5
2CA
330
3C
100
AcDbDictionary
280
     1
281
     1
  3
ACAD_XREC_ROUNDTRIP
360
2CB
  0
DICTIONARY
  5
2CE
330
3E
100
AcDbDictionary
280
     1
281
     1
  3
ACAD_XREC_ROUNDTRIP
360
2CF
  0
DICTIONARY
  5
2B2
330
2F
100
AcDbDictionary
280
     1
281
     1
  3
ACAD_XREC_ROUNDTRIP
360
2B3
  0
DICTIONARY
  5
2B6
330
31
100
AcDbDictionary
280
     1
281
     1
  3
ACAD_XREC_ROUNDTRIP
360
2B7
  0
DICTIONARY
  5
2B4
330
30
100
AcDbDictionary
280
     1
281
     1
  3
ACAD_XREC_ROUNDTRIP
360
2B5
  0
DICTIONARY
  5
2B8
330
32
100
AcDbDictionary
280
     1
281
     1
  3
ACAD_XREC_ROUNDTRIP
360
2B9
  0
DICTIONARY
  5
2C0
330
36
100
AcDbDictionary
280
     1
281
     1
  3
ACAD_XREC_ROUNDTRIP
360
2C1
  0
DICTIONARY
  5
2C8
330
3A
100
AcDbDictionary
280
     1
281
     1
  3
ACAD_XREC_ROUNDTRIP
360
2C9
  0
DICTIONARY
  5
2BC
330
34
100
AcDbDictionary
280
     1
281
     1
  3
ACAD_XREC_ROUNDTRIP
360
2BD
  0
DICTIONARY
  5
2BE
330
35
100
AcDbDictionary
280
     1
281
     1
  3
ACAD_XREC_ROUNDTRIP
360
2BF
  0
DICTIONARY
  5
2C6
330
39
100
AcDbDictionary
280
     1
281
     1
  3
ACAD_XREC_ROUNDTRIP
360
2C7
  0
DICTIONARY
  5
2AA
330
2B
100
AcDbDictionary
280
     1
281
     1
  3
ACAD_XREC_ROUNDTRIP
360
2AB
  0
DICTIONARY
  5
2AC
330
2C
100
AcDbDictionary
280
     1
281
     1
  3
ACAD_XREC_ROUNDTRIP
360
2AD
  0
DICTIONARY
  5
2AE
330
2D
100
AcDbDictionary
280
     1
281
     1
  3
ACAD_XREC_ROUNDTRIP
360
2AF
  0
DICTIONARY
  5
2B0
330
2E
100
AcDbDictionary
280
     1
281
     1
  3
ACAD_XREC_ROUNDTRIP
360
2B1
  0
DICTIONARY
  5
2C4
330
38
100
AcDbDictionary
280
     1
281
     1
  3
ACAD_XREC_ROUNDTRIP
360
2C5
  0
DICTIONARY
  5
2BA
330
33
100
AcDbDictionary
280
     1
281
     1
  3
ACAD_XREC_ROUNDTRIP
360
2BB
  0
DICTIONARY
  5
2C2
330
37
100
AcDbDictionary
280
     1
281
     1
  3
ACAD_XREC_ROUNDTRIP
360
2C3
  0
XRECORD
  5
2CD
102
{ACAD_REACTORS
330
2CC
102
}
330
2CC
100
AcDbXrecord
280
     1
102
MATERIAL
148
0.0
149
0.0
149
0.0
 93
        0
 94
      127
282
     0
 72
     1
 77
     1
171
     1
175
     1
179
     1
273
     0
  0
XRECORD
  5
2CB
102
{ACAD_REACTORS
330
2CA
102
}
330
2CA
100
AcDbXrecord
280
     1
102
MATERIAL
148
0.0
149
0.0
149
0.0
 93
        0
 94
      127
282
     0
 72
     1
 77
     1
171
     1
175
     1
179
     1
273
     0
  0
XRECORD
  5
2CF
102
{ACAD_REACTORS
330
2CE
102
}
330
2CE
100
AcDbXrecord
280
     1
102
MATERIAL
148
0.0
149
0.0
149
0.0
 93
        0
 94
      127
282
     0
 72
     1
 77
     1
171
     1
175
     1
179
     1
273
     0
  0
XRECORD
  5
2B3
102
{ACAD_REACTORS
330
2B2
102
}
330
2B2
100
AcDbXrecord
280
     1
102
RTVSPropertyOp0
 70
     1
102
RTVSPropertyOp1
 70
     1
102
RTVSPropertyOp2
 70
     1
102
RTVSPropertyOp3
 70
     1
102
RTVSPropertyOp4
 70
     1
102
RTVSPropertyOp5
 70
     1
102
RTVSPropertyOp6
 70
     1
102
RTVSPropertyOp7
 70
     1
102
RTVSPropertyOp8
 70
     1
102
RTVSPropertyOp9
 70
     1
102
RTVSPropertyOp10
 70
     1
102
RTVSPropertyOp11
 70
     1
102
RTVSPropertyOp12
 70
     1
102
RTVSPropertyOp13
 70
     1
102
RTVSPropertyOp14
 70
     1
102
RTVSPropertyOp15
 70
     1
102
RTVSPropertyOp16
 70
     1
102
RTVSPropertyOp17
 70
     1
102
RTVSPropertyOp18
 70
     1
102
RTVSPropertyOp19
 70
     1
102
RTVSPropertyOp20
 70
     1
102
RTVSPropertyOp21
 70
     1
102
RTVSPropertyOp22
 70
     1
102
RTVSPropertyOp23
 70
     1
102
RTVSPropertyOp24
 70
     1
102
RTVSPropertyOp25
 70
     1
102
RTVSPropertyOp26
 70
     1
102
RTVSPropertyOp27
 70
     1
102
RTVSPropertyOp28
 70
     1
102
RTVSPropertyOp29
 70
     1
102
RTVSPropertyOp30
 70
     1
102
RTVSPropertyOp31
 70
     1
102
RTVSPropertyOp32
 70
     1
  0
XRECORD
  5
2B7
102
{ACAD_REACTORS
330
2B6
102
}
330
2B6
100
AcDbXrecord
280
     1
102
RTVSPropertyOp0
 70
     1
102
RTVSPropertyOp1
 70
     1
102
RTVSPropertyOp2
 70
     1
102
RTVSPropertyOp3
 70
     1
102
RTVSPropertyOp4
 70
     1
102
RTVSPropertyOp5
 70
     1
102
RTVSPropertyOp6
 70
     1
102
RTVSPropertyOp7
 70
     1
102
RTVSPropertyOp8
 70
     1
102
RTVSPropertyOp9
 70
     1
102
RTVSPropertyOp10
 70
     1
102
RTVSPropertyOp11
 70
     1
102
RTVSPropertyOp12
 70
     1
102
RTVSPropertyOp13
 70
     1
102
RTVSPropertyOp14
 70
     1
102
RTVSPropertyOp15
 70
     1
102
RTVSPropertyOp16
 70
     1
102
RTVSPropertyOp17
 70
     1
102
RTVSPropertyOp18
 70
     1
102
RTVSPropertyOp19
 70
     1
102
RTVSPropertyOp20
 70
     1
102
RTVSPropertyOp21
 70
     1
102
RTVSPropertyOp22
 70
     1
102
RTVSPropertyOp23
 70
     1
102
RTVSPropertyOp24
 70
     1
102
RTVSPropertyOp25
 70
     1
102
RTVSPropertyOp26
 70
     1
102
RTVSPropertyOp27
 70
     1
102
RTVSPropertyOp28
 70
     1
102
RTVSPropertyOp29
 70
     1
102
RTVSPropertyOp30
 70
     1
102
RTVSPropertyOp31
 70
     1
102
RTVSPropertyOp32
 70
     1
  0
XRECORD
  5
2B5
102
{ACAD_REACTORS
330
2B4
102
}
330
2B4
100
AcDbXrecord
280
     1
102
RTVSPropertyOp0
 70
     1
102
RTVSPropertyOp1
 70
     1
102
RTVSPropertyOp2
 70
     1
102
RTVSPropertyOp3
 70
     1
102
RTVSPropertyOp4
 70
     1
102
RTVSPropertyOp5
 70
     1
102
RTVSPropertyOp6
 70
     1
102
RTVSPropertyOp7
 70
     1
102
RTVSPropertyOp8
 70
     1
102
RTVSPropertyOp9
 70
     1
102
RTVSPropertyOp10
 70
     1
102
RTVSPropertyOp11
 70
     1
102
RTVSPropertyOp12
 70
     1
102
RTVSPropertyOp13
 70
     1
102
RTVSPropertyOp14
 70
     1
102
RTVSPropertyOp15
 70
     1
102
RTVSPropertyOp16
 70
     1
102
RTVSPropertyOp17
 70
     1
102
RTVSPropertyOp18
 70
     1
102
RTVSPropertyOp19
 70
     1
102
RTVSPropertyOp20
 70
     1
102
RTVSPropertyOp21
 70
     1
102
RTVSPropertyOp22
 70
     1
102
RTVSPropertyOp23
 70
     1
102
RTVSPropertyOp24
 70
     1
102
RTVSPropertyOp25
 70
     1
102
RTVSPropertyOp26
 70
     1
102
RTVSPropertyOp27
 70
     1
102
RTVSPropertyOp28
 70
     1
102
RTVSPropertyOp29
 70
     1
102
RTVSPropertyOp30
 70
     1
102
RTVSPropertyOp31
 70
     1
102
RTVSPropertyOp32
 70
     1
  0
XRECORD
  5
2B9
102
{ACAD_REACTORS
330
2B8
102
}
330
2B8
100
AcDbXrecord
280
     1
102
RTVSPropertyOp0
 70
     1
102
RTVSPropertyOp1
 70
     1
102
RTVSPropertyOp2
 70
     1
102
RTVSPropertyOp3
 70
     1
102
RTVSPropertyOp4
 70
     1
102
RTVSPropertyOp5
 70
     1
102
RTVSPropertyOp6
 70
     1
102
RTVSPropertyOp7
 70
     1
102
RTVSPropertyOp8
 70
     1
102
RTVSPropertyOp9
 70
     1
102
RTVSPropertyOp10
 70
     1
102
RTVSPropertyOp11
 70
     1
102
RTVSPropertyOp12
 70
     1
102
RTVSPropertyOp13
 70
     1
102
RTVSPropertyOp14
 70
     1
102
RTVSPropertyOp15
 70
     1
102
RTVSPropertyOp16
 70
     1
102
RTVSPropertyOp17
 70
     1
102
RTVSPropertyOp18
 70
     1
102
RTVSPropertyOp19
 70
     1
102
RTVSPropertyOp20
 70
     1
102
RTVSPropertyOp21
 70
     1
102
RTVSPropertyOp22
 70
     1
102
RTVSPropertyOp23
 70
     1
102
RTVSPropertyOp24
 70
     1
102
RTVSPropertyOp25
 70
     1
102
RTVSPropertyOp26
 70
     1
102
RTVSPropertyOp27
 70
     1
102
RTVSPropertyOp28
 70
     1
102
RTVSPropertyOp29
 70
     1
102
RTVSPropertyOp30
 70
     1
102
RTVSPropertyOp31
 70
     1
102
RTVSPropertyOp32
 70
     1
  0
XRECORD
  5
2C1
102
{ACAD_REACTORS
330
2C0
102
}
330
2C0
100
AcDbXrecord
280
     1
102
RTVSPropertyOp0
 70
     1
102
RTVSPropertyOp1
 70
     1
102
RTVSPropertyOp2
 70
     1
102
RTVSPropertyOp3
 70
     1
102
RTVSPropertyOp4
 70
     1
102
RTVSPropertyOp5
 70
     1
102
RTVSPropertyOp6
 70
     1
102
RTVSPropertyOp7
 70
     1
102
RTVSPropertyOp8
 70
     1
102
RTVSPropertyOp9
 70
     1
102
RTVSPropertyOp10
 70
     1
102
RTVSPropertyOp11
 70
     1
102
RTVSPropertyOp12
 70
     1
102
RTVSPropertyOp13
 70
     1
102
RTVSPropertyOp14
 70
     1
102
RTVSPropertyOp15
 70
     1
102
RTVSPropertyOp16
 70
     1
102
RTVSPropertyOp17
 70
     1
102
RTVSPropertyOp18
 70
     1
102
RTVSPropertyOp19
 70
     1
102
RTVSPropertyOp20
 70
     1
102
RTVSPropertyOp21
 70
     1
102
RTVSPropertyOp22
 70
     1
102
RTVSPropertyOp23
 70
     1
102
RTVSPropertyOp24
 70
     1
102
RTVSPropertyOp25
 70
     1
102
RTVSPropertyOp26
 70
     1
102
RTVSPropertyOp27
 70
     1
102
RTVSPropertyOp28
 70
     1
102
RTVSPropertyOp29
 70
     1
102
RTVSPropertyOp30
 70
     1
102
RTVSPropertyOp31
 70
     1
102
RTVSPropertyOp32
 70
     1
  0
XRECORD
  5
2C9
102
{ACAD_REACTORS
330
2C8
102
}
330
2C8
100
AcDbXrecord
280
     1
102
RTVSPropertyOp0
 70
     1
102
RTVSPropertyOp1
 70
     1
102
RTVSPropertyOp2
 70
     1
102
RTVSPropertyOp3
 70
     1
102
RTVSPropertyOp4
 70
     1
102
RTVSPropertyOp5
 70
     1
102
RTVSPropertyOp6
 70
     1
102
RTVSPropertyOp7
 70
     1
102
RTVSPropertyOp8
 70
     1
102
RTVSPropertyOp9
 70
     1
102
RTVSPropertyOp10
 70
     1
102
RTVSPropertyOp11
 70
     1
102
RTVSPropertyOp12
 70
     1
102
RTVSPropertyOp13
 70
     1
102
RTVSPropertyOp14
 70
     1
102
RTVSPropertyOp15
 70
     1
102
RTVSPropertyOp16
 70
     1
102
RTVSPropertyOp17
 70
     1
102
RTVSPropertyOp18
 70
     1
102
RTVSPropertyOp19
 70
     1
102
RTVSPropertyOp20
 70
     1
102
RTVSPropertyOp21
 70
     1
102
RTVSPropertyOp22
 70
     1
102
RTVSPropertyOp23
 70
     1
102
RTVSPropertyOp24
 70
     1
102
RTVSPropertyOp25
 70
     1
102
RTVSPropertyOp26
 70
     1
102
RTVSPropertyOp27
 70
     1
102
RTVSPropertyOp28
 70
     1
102
RTVSPropertyOp29
 70
     1
102
RTVSPropertyOp30
 70
     1
102
RTVSPropertyOp31
 70
     1
102
RTVSPropertyOp32
 70
     1
  0
XRECORD
  5
2BD
102
{ACAD_REACTORS
330
2BC
102
}
330
2BC
100
AcDbXrecord
280
     1
102
RTVSPropertyOp0
 70
     1
102
RTVSPropertyOp1
 70
     1
102
RTVSPropertyOp2
 70
     1
102
RTVSPropertyOp3
 70
     1
102
RTVSPropertyOp4
 70
     1
102
RTVSPropertyOp5
 70
     1
102
RTVSPropertyOp6
 70
     1
102
RTVSPropertyOp7
 70
     1
102
RTVSPropertyOp8
 70
     1
102
RTVSPropertyOp9
 70
     1
102
RTVSPropertyOp10
 70
     1
102
RTVSPropertyOp11
 70
     1
102
RTVSPropertyOp12
 70
     1
102
RTVSPropertyOp13
 70
     1
102
RTVSPropertyOp14
 70
     1
102
RTVSPropertyOp15
 70
     1
102
RTVSPropertyOp16
 70
     1
102
RTVSPropertyOp17
 70
     1
102
RTVSPropertyOp18
 70
     1
102
RTVSPropertyOp19
 70
     1
102
RTVSPropertyOp20
 70
     1
102
RTVSPropertyOp21
 70
     1
102
RTVSPropertyOp22
 70
     1
102
RTVSPropertyOp23
 70
     1
102
RTVSPropertyOp24
 70
     1
102
RTVSPropertyOp25
 70
     1
102
RTVSPropertyOp26
 70
     1
102
RTVSPropertyOp27
 70
     1
102
RTVSPropertyOp28
 70
     1
102
RTVSPropertyOp29
 70
     1
102
RTVSPropertyOp30
 70
     1
102
RTVSPropertyOp31
 70
     1
102
RTVSPropertyOp32
 70
     1
  0
XRECORD
  5
2BF
102
{ACAD_REACTORS
330
2BE
102
}
330
2BE
100
AcDbXrecord
280
     1
102
RTVSPropertyOp0
 70
     1
102
RTVSPropertyOp1
 70
     1
102
RTVSPropertyOp2
 70
     1
102
RTVSPropertyOp3
 70
     1
102
RTVSPropertyOp4
 70
     1
102
RTVSPropertyOp5
 70
     1
102
RTVSPropertyOp6
 70
     1
102
RTVSPropertyOp7
 70
     1
102
RTVSPropertyOp8
 70
     1
102
RTVSPropertyOp9
 70
     1
102
RTVSPropertyOp10
 70
     1
102
RTVSPropertyOp11
 70
     1
102
RTVSPropertyOp12
 70
     1
102
RTVSPropertyOp13
 70
     1
102
RTVSPropertyOp14
 70
     1
102
RTVSPropertyOp15
 70
     1
102
RTVSPropertyOp16
 70
     1
102
RTVSPropertyOp17
 70
     1
102
RTVSPropertyOp18
 70
     1
102
RTVSPropertyOp19
 70
     1
102
RTVSPropertyOp20
 70
     1
102
RTVSPropertyOp21
 70
     1
102
RTVSPropertyOp22
 70
     1
102
RTVSPropertyOp23
 70
     1
102
RTVSPropertyOp24
 70
     1
102
RTVSPropertyOp25
 70
     1
102
RTVSPropertyOp26
 70
     1
102
RTVSPropertyOp27
 70
     1
102
RTVSPropertyOp28
 70
     1
102
RTVSPropertyOp29
 70
     1
102
RTVSPropertyOp30
 70
     1
102
RTVSPropertyOp31
 70
     1
102
RTVSPropertyOp32
 70
     1
  0
XRECORD
  5
2C7
102
{ACAD_REACTORS
330
2C6
102
}
330
2C6
100
AcDbXrecord
280
     1
102
RTVSPropertyOp0
 70
     1
102
RTVSPropertyOp1
 70
     1
102
RTVSPropertyOp2
 70
     1
102
RTVSPropertyOp3
 70
     1
102
RTVSPropertyOp4
 70
     1
102
RTVSPropertyOp5
 70
     1
102
RTVSPropertyOp6
 70
     1
102
RTVSPropertyOp7
 70
     1
102
RTVSPropertyOp8
 70
     1
102
RTVSPropertyOp9
 70
     1
102
RTVSPropertyOp10
 70
     1
102
RTVSPropertyOp11
 70
     1
102
RTVSPropertyOp12
 70
     1
102
RTVSPropertyOp13
 70
     1
102
RTVSPropertyOp14
 70
     1
102
RTVSPropertyOp15
 70
     1
102
RTVSPropertyOp16
 70
     1
102
RTVSPropertyOp17
 70
     1
102
RTVSPropertyOp18
 70
     1
102
RTVSPropertyOp19
 70
     1
102
RTVSPropertyOp20
 70
     1
102
RTVSPropertyOp21
 70
     1
102
RTVSPropertyOp22
 70
     1
102
RTVSPropertyOp23
 70
     1
102
RTVSPropertyOp24
 70
     1
102
RTVSPropertyOp25
 70
     1
102
RTVSPropertyOp26
 70
     1
102
RTVSPropertyOp27
 70
     1
102
RTVSPropertyOp28
 70
     1
102
RTVSPropertyOp29
 70
     1
102
RTVSPropertyOp30
 70
     1
102
RTVSPropertyOp31
 70
     1
102
RTVSPropertyOp32
 70
     1
  0
XRECORD
  5
2AB
102
{ACAD_REACTORS
330
2AA
102
}
330
2AA
100
AcDbXrecord
280
     1
102
RTVSPropertyOp0
 70
     1
102
RTVSPropertyOp1
 70
     1
102
RTVSPropertyOp2
 70
     1
102
RTVSPropertyOp3
 70
     1
102
RTVSPropertyOp4
 70
     1
102
RTVSPropertyOp5
 70
     1
102
RTVSPropertyOp6
 70
     1
102
RTVSPropertyOp7
 70
     1
102
RTVSPropertyOp8
 70
     1
102
RTVSPropertyOp9
 70
     1
102
RTVSPropertyOp10
 70
     1
102
RTVSPropertyOp11
 70
     1
102
RTVSPropertyOp12
 70
     1
102
RTVSPropertyOp13
 70
     1
102
RTVSPropertyOp14
 70
     1
102
RTVSPropertyOp15
 70
     1
102
RTVSPropertyOp16
 70
     1
102
RTVSPropertyOp17
 70
     1
102
RTVSPropertyOp18
 70
     1
102
RTVSPropertyOp19
 70
     1
102
RTVSPropertyOp20
 70
     1
102
RTVSPropertyOp21
 70
     1
102
RTVSPropertyOp22
 70
     1
102
RTVSPropertyOp23
 70
     1
102
RTVSPropertyOp24
 70
     1
102
RTVSPropertyOp25
 70
     1
102
RTVSPropertyOp26
 70
     1
102
RTVSPropertyOp27
 70
     1
102
RTVSPropertyOp28
 70
     1
102
RTVSPropertyOp29
 70
     1
102
RTVSPropertyOp30
 70
     1
102
RTVSPropertyOp31
 70
     1
102
RTVSPropertyOp32
 70
     1
  0
XRECORD
  5
2AD
102
{ACAD_REACTORS
330
2AC
102
}
330
2AC
100
AcDbXrecord
280
     1
102
RTVSPropertyOp0
 70
     1
102
RTVSPropertyOp1
 70
     1
102
RTVSPropertyOp2
 70
     1
102
RTVSPropertyOp3
 70
     1
102
RTVSPropertyOp4
 70
     1
102
RTVSPropertyOp5
 70
     1
102
RTVSPropertyOp6
 70
     1
102
RTVSPropertyOp7
 70
     1
102
RTVSPropertyOp8
 70
     1
102
RTVSPropertyOp9
 70
     1
102
RTVSPropertyOp10
 70
     1
102
RTVSPropertyOp11
 70
     1
102
RTVSPropertyOp12
 70
     1
102
RTVSPropertyOp13
 70
     1
102
RTVSPropertyOp14
 70
     1
102
RTVSPropertyOp15
 70
     1
102
RTVSPropertyOp16
 70
     1
102
RTVSPropertyOp17
 70
     1
102
RTVSPropertyOp18
 70
     1
102
RTVSPropertyOp19
 70
     1
102
RTVSPropertyOp20
 70
     1
102
RTVSPropertyOp21
 70
     1
102
RTVSPropertyOp22
 70
     1
102
RTVSPropertyOp23
 70
     1
102
RTVSPropertyOp24
 70
     1
102
RTVSPropertyOp25
 70
     1
102
RTVSPropertyOp26
 70
     1
102
RTVSPropertyOp27
 70
     1
102
RTVSPropertyOp28
 70
     1
102
RTVSPropertyOp29
 70
     1
102
RTVSPropertyOp30
 70
     1
102
RTVSPropertyOp31
 70
     1
102
RTVSPropertyOp32
 70
     1
  0
XRECORD
  5
2AF
102
{ACAD_REACTORS
330
2AE
102
}
330
2AE
100
AcDbXrecord
280
     1
102
RTVSPropertyOp0
 70
     1
102
RTVSPropertyOp1
 70
     1
102
RTVSPropertyOp2
 70
     1
102
RTVSPropertyOp3
 70
     1
102
RTVSPropertyOp4
 70
     1
102
RTVSPropertyOp5
 70
     1
102
RTVSPropertyOp6
 70
     1
102
RTVSPropertyOp7
 70
     1
102
RTVSPropertyOp8
 70
     1
102
RTVSPropertyOp9
 70
     1
102
RTVSPropertyOp10
 70
     1
102
RTVSPropertyOp11
 70
     1
102
RTVSPropertyOp12
 70
     1
102
RTVSPropertyOp13
 70
     1
102
RTVSPropertyOp14
 70
     1
102
RTVSPropertyOp15
 70
     1
102
RTVSPropertyOp16
 70
     1
102
RTVSPropertyOp17
 70
     1
102
RTVSPropertyOp18
 70
     1
102
RTVSPropertyOp19
 70
     1
102
RTVSPropertyOp20
 70
     1
102
RTVSPropertyOp21
 70
     1
102
RTVSPropertyOp22
 70
     1
102
RTVSPropertyOp23
 70
     1
102
RTVSPropertyOp24
 70
     1
102
RTVSPropertyOp25
 70
     1
102
RTVSPropertyOp26
 70
     1
102
RTVSPropertyOp27
 70
     1
102
RTVSPropertyOp28
 70
     1
102
RTVSPropertyOp29
 70
     1
102
RTVSPropertyOp30
 70
     1
102
RTVSPropertyOp31
 70
     1
102
RTVSPropertyOp32
 70
     1
  0
XRECORD
  5
2B1
102
{ACAD_REACTORS
330
2B0
102
}
330
2B0
100
AcDbXrecord
280
     1
102
RTVSPropertyOp0
 70
     1
102
RTVSPropertyOp1
 70
     1
102
RTVSPropertyOp2
 70
     1
102
RTVSPropertyOp3
 70
     1
102
RTVSPropertyOp4
 70
     1
102
RTVSPropertyOp5
 70
     1
102
RTVSPropertyOp6
 70
     1
102
RTVSPropertyOp7
 70
     1
102
RTVSPropertyOp8
 70
     1
102
RTVSPropertyOp9
 70
     1
102
RTVSPropertyOp10
 70
     1
102
RTVSPropertyOp11
 70
     1
102
RTVSPropertyOp12
 70
     1
102
RTVSPropertyOp13
 70
     1
102
RTVSPropertyOp14
 70
     1
102
RTVSPropertyOp15
 70
     1
102
RTVSPropertyOp16
 70
     1
102
RTVSPropertyOp17
 70
     1
102
RTVSPropertyOp18
 70
     1
102
RTVSPropertyOp19
 70
     1
102
RTVSPropertyOp20
 70
     1
102
RTVSPropertyOp21
 70
     1
102
RTVSPropertyOp22
 70
     1
102
RTVSPropertyOp23
 70
     1
102
RTVSPropertyOp24
 70
     1
102
RTVSPropertyOp25
 70
     1
102
RTVSPropertyOp26
 70
     1
102
RTVSPropertyOp27
 70
     1
102
RTVSPropertyOp28
 70
     1
102
RTVSPropertyOp29
 70
     1
102
RTVSPropertyOp30
 70
     1
102
RTVSPropertyOp31
 70
     1
102
RTVSPropertyOp32
 70
     1
  0
XRECORD
  5
2C5
102
{ACAD_REACTORS
330
2C4
102
}
330
2C4
100
AcDbXrecord
280
     1
102
RTVSPropertyOp0
 70
     1
102
RTVSPropertyOp1
 70
     1
102
RTVSPropertyOp2
 70
     1
102
RTVSPropertyOp3
 70
     1
102
RTVSPropertyOp4
 70
     1
102
RTVSPropertyOp5
 70
     1
102
RTVSPropertyOp6
 70
     1
102
RTVSPropertyOp7
 70
     1
102
RTVSPropertyOp8
 70
     1
102
RTVSPropertyOp9
 70
     1
102
RTVSPropertyOp10
 70
     1
102
RTVSPropertyOp11
 70
     1
102
RTVSPropertyOp12
 70
     1
102
RTVSPropertyOp13
 70
     1
102
RTVSPropertyOp14
 70
     1
102
RTVSPropertyOp15
 70
     1
102
RTVSPropertyOp16
 70
     1
102
RTVSPropertyOp17
 70
     1
102
RTVSPropertyOp18
 70
     1
102
RTVSPropertyOp19
 70
     1
102
RTVSPropertyOp20
 70
     1
102
RTVSPropertyOp21
 70
     1
102
RTVSPropertyOp22
 70
     1
102
RTVSPropertyOp23
 70
     1
102
RTVSPropertyOp24
 70
     1
102
RTVSPropertyOp25
 70
     1
102
RTVSPropertyOp26
 70
     1
102
RTVSPropertyOp27
 70
     1
102
RTVSPropertyOp28
 70
     1
102
RTVSPropertyOp29
 70
     1
102
RTVSPropertyOp30
 70
     1
102
RTVSPropertyOp31
 70
     1
102
RTVSPropertyOp32
 70
     1
  0
XRECORD
  5
2BB
102
{ACAD_REACTORS
330
2BA
102
}
330
2BA
100
AcDbXrecord
280
     1
102
RTVSPropertyOp0
 70
     1
102
RTVSPropertyOp1
 70
     1
102
RTVSPropertyOp2
 70
     1
102
RTVSPropertyOp3
 70
     1
102
RTVSPropertyOp4
 70
     1
102
RTVSPropertyOp5
 70
     1
102
RTVSPropertyOp6
 70
     1
102
RTVSPropertyOp7
 70
     1
102
RTVSPropertyOp8
 70
     1
102
RTVSPropertyOp9
 70
     1
102
RTVSPropertyOp10
 70
     1
102
RTVSPropertyOp11
 70
     1
102
RTVSPropertyOp12
 70
     1
102
RTVSPropertyOp13
 70
     1
102
RTVSPropertyOp14
 70
     1
102
RTVSPropertyOp15
 70
     1
102
RTVSPropertyOp16
 70
     1
102
RTVSPropertyOp17
 70
     1
102
RTVSPropertyOp18
 70
     1
102
RTVSPropertyOp19
 70
     1
102
RTVSPropertyOp20
 70
     1
102
RTVSPropertyOp21
 70
     1
102
RTVSPropertyOp22
 70
     1
102
RTVSPropertyOp23
 70
     1
102
RTVSPropertyOp24
 70
     1
102
RTVSPropertyOp25
 70
     1
102
RTVSPropertyOp26
 70
     1
102
RTVSPropertyOp27
 70
     1
102
RTVSPropertyOp28
 70
     1
102
RTVSPropertyOp29
 70
     1
102
RTVSPropertyOp30
 70
     1
102
RTVSPropertyOp31
 70
     1
102
RTVSPropertyOp32
 70
     1
  0
XRECORD
  5
2C3
102
{ACAD_REACTORS
330
2C2
102
}
330
2C2
100
AcDbXrecord
280
     1
102
RTVSPropertyOp0
 70
     1
102
RTVSPropertyOp1
 70
     1
102
RTVSPropertyOp2
 70
     1
102
RTVSPropertyOp3
 70
     1
102
RTVSPropertyOp4
 70
     1
102
RTVSPropertyOp5
 70
     1
102
RTVSPropertyOp6
 70
     1
102
RTVSPropertyOp7
 70
     1
102
RTVSPropertyOp8
 70
     1
102
RTVSPropertyOp9
 70
     1
102
RTVSPropertyOp10
 70
     1
102
RTVSPropertyOp11
 70
     1
102
RTVSPropertyOp12
 70
     1
102
RTVSPropertyOp13
 70
     1
102
RTVSPropertyOp14
 70
     1
102
RTVSPropertyOp15
 70
     1
102
RTVSPropertyOp16
 70
     1
102
RTVSPropertyOp17
 70
     1
102
RTVSPropertyOp18
 70
     1
102
RTVSPropertyOp19
 70
     1
102
RTVSPropertyOp20
 70
     1
102
RTVSPropertyOp21
 70
     1
102
RTVSPropertyOp22
 70
     1
102
RTVSPropertyOp23
 70
     1
102
RTVSPropertyOp24
 70
     1
102
RTVSPropertyOp25
 70
     1
102
RTVSPropertyOp26
 70
     1
102
RTVSPropertyOp27
 70
     1
102
RTVSPropertyOp28
 70
     1
102
RTVSPropertyOp29
 70
     1
102
RTVSPropertyOp30
 70
     1
102
RTVSPropertyOp31
 70
     1
102
RTVSPropertyOp32
 70
     1
  0
ENDSEC
  0
EOF
