  0
SECTION
  2
HEADER
  9
$ACADVER
  1
AC1018
  9
$ACADMAINTVER
 70
     0
  9
$DWGCODEPAGE
  3
ANSI_1252
  9
$INSBASE
 10
0.0
 20
0.0
 30
0.0
  9
$EXTMIN
 10
-243.2500000000014
 20
-7.95004088443398
 30
0.0
  9
$EXTMAX
 10
53.7499999999967
 20
202.0499591155661
 30
0.0
  9
$LIMMIN
 10
0.0
 20
0.0
  9
$LIMMAX
 10
12.0
 20
9.0
  9
$ORTHOMODE
 70
     0
  9
$REGENMODE
 70
     1
  9
$FILLMODE
 70
     1
  9
$QTEXTMODE
 70
     0
  9
$MIRRTEXT
 70
     1
  9
$LTSCALE
 40
1.0
  9
$ATTMODE
 70
     1
  9
$TEXTSIZE
 40
0.2
  9
$TRACEWID
 40
0.05
  9
$TEXTSTYLE
  7
Standard
  9
$CLAYER
  8
0
  9
$CELTYPE
  6
ByLayer
  9
$CECOLOR
 62
   256
  9
$CELTSCALE
 40
1.0
  9
$DISPSILH
 70
     0
  9
$DIMSCALE
 40
1.0
  9
$DIMASZ
 40
0.18
  9
$DIMEXO
 40
0.0625
  9
$DIMDLI
 40
0.38
  9
$DIMRND
 40
0.0
  9
$DIMDLE
 40
0.0
  9
$DIMEXE
 40
0.18
  9
$DIMTP
 40
0.0
  9
$DIMTM
 40
0.0
  9
$DIMTXT
 40
0.18
  9
$DIMCEN
 40
0.09
  9
$DIMTSZ
 40
0.0
  9
$DIMTOL
 70
     0
  9
$DIMLIM
 70
     0
  9
$DIMTIH
 70
     1
  9
$DIMTOH
 70
     1
  9
$DIMSE1
 70
     0
  9
$DIMSE2
 70
     0
  9
$DIMTAD
 70
     0
  9
$DIMZIN
 70
     0
  9
$DIMBLK
  1

  9
$DIMASO
 70
     1
  9
$DIMSHO
 70
     1
  9
$DIMPOST
  1

  9
$DIMAPOST
  1

  9
$DIMALT
 70
     0
  9
$DIMALTD
 70
     2
  9
$DIMALTF
 40
25.4
  9
$DIMLFAC
 40
1.0
  9
$DIMTOFL
 70
     0
  9
$DIMTVP
 40
0.0
  9
$DIMTIX
 70
     0
  9
$DIMSOXD
 70
     0
  9
$DIMSAH
 70
     0
  9
$DIMBLK1
  1

  9
$DIMBLK2
  1

  9
$DIMSTYLE
  2
Standard
  9
$DIMCLRD
 70
     0
  9
$DIMCLRE
 70
     0
  9
$DIMCLRT
 70
     0
  9
$DIMTFAC
 40
1.0
  9
$DIMGAP
 40
0.09
  9
$DIMJUST
 70
     0
  9
$DIMSD1
 70
     0
  9
$DIMSD2
 70
     0
  9
$DIMTOLJ
 70
     1
  9
$DIMTZIN
 70
     0
  9
$DIMALTZ
 70
     0
  9
$DIMALTTZ
 70
     0
  9
$DIMUPT
 70
     0
  9
$DIMDEC
 70
     4
  9
$DIMTDEC
 70
     4
  9
$DIMALTU
 70
     2
  9
$DIMALTTD
 70
     2
  9
$DIMTXSTY
  7
Standard
  9
$DIMAUNIT
 70
     0
  9
$DIMADEC
 70
     0
  9
$DIMALTRND
 40
0.0
  9
$DIMAZIN
 70
     0
  9
$DIMDSEP
 70
    46
  9
$DIMATFIT
 70
     3
  9
$DIMFRAC
 70
     0
  9
$DIMLDRBLK
  1

  9
$DIMLUNIT
 70
     2
  9
$DIMLWD
 70
    -2
  9
$DIMLWE
 70
    -2
  9
$DIMTMOVE
 70
     0
  9
$LUNITS
 70
     2
  9
$LUPREC
 70
     4
  9
$SKETCHINC
 40
0.1
  9
$FILLETRAD
 40
0.5
  9
$AUNITS
 70
     0
  9
$AUPREC
 70
     0
  9
$MENU
  1
.
  9
$ELEVATION
 40
0.0
  9
$PELEVATION
 40
0.0
  9
$THICKNESS
 40
0.0
  9
$LIMCHECK
 70
     0
  9
$CHAMFERA
 40
0.5
  9
$CHAMFERB
 40
0.5
  9
$CHAMFERC
 40
1.0
  9
$CHAMFERD
 40
0.0
  9
$SKPOLY
 70
     0
  9
$TDCREATE
 40
2458137.677431852
  9
$TDUCREATE
 40
2458137.635765185
  9
$TDUPDATE
 40
2458137.677432396
  9
$TDUUPDATE
 40
2458137.635765729
  9
$TDINDWG
 40
0.0000000116
  9
$TDUSRTIMER
 40
0.0000000116
  9
$USRTIMER
 70
     1
  9
$ANGBASE
 50
0.0
  9
$ANGDIR
 70
     0
  9
$PDMODE
 70
     0
  9
$PDSIZE
 40
0.0
  9
$PLINEWID
 40
0.0
  9
$SPLFRAME
 70
     0
  9
$SPLINETYPE
 70
     6
  9
$SPLINESEGS
 70
     8
  9
$HANDSEED
  5
34E
  9
$SURFTAB1
 70
     6
  9
$SURFTAB2
 70
     6
  9
$SURFTYPE
 70
     6
  9
$SURFU
 70
     6
  9
$SURFV
 70
     6
  9
$UCSBASE
  2

  9
$UCSNAME
  2

  9
$UCSORG
 10
0.0
 20
0.0
 30
0.0
  9
$UCSXDIR
 10
1.0
 20
0.0
 30
0.0
  9
$UCSYDIR
 10
0.0
 20
1.0
 30
0.0
  9
$UCSORTHOREF
  2

  9
$UCSORTHOVIEW
 70
     0
  9
$UCSORGTOP
 10
0.0
 20
0.0
 30
0.0
  9
$UCSORGBOTTOM
 10
0.0
 20
0.0
 30
0.0
  9
$UCSORGLEFT
 10
0.0
 20
0.0
 30
0.0
  9
$UCSORGRIGHT
 10
0.0
 20
0.0
 30
0.0
  9
$UCSORGFRONT
 10
0.0
 20
0.0
 30
0.0
  9
$UCSORGBACK
 10
0.0
 20
0.0
 30
0.0
  9
$PUCSBASE
  2

  9
$PUCSNAME
  2

  9
$PUCSORG
 10
0.0
 20
0.0
 30
0.0
  9
$PUCSXDIR
 10
1.0
 20
0.0
 30
0.0
  9
$PUCSYDIR
 10
0.0
 20
1.0
 30
0.0
  9
$PUCSORTHOREF
  2

  9
$PUCSORTHOVIEW
 70
     0
  9
$PUCSORGTOP
 10
0.0
 20
0.0
 30
0.0
  9
$PUCSORGBOTTOM
 10
0.0
 20
0.0
 30
0.0
  9
$PUCSORGLEFT
 10
0.0
 20
0.0
 30
0.0
  9
$PUCSORGRIGHT
 10
0.0
 20
0.0
 30
0.0
  9
$PUCSORGFRONT
 10
0.0
 20
0.0
 30
0.0
  9
$PUCSORGBACK
 10
0.0
 20
0.0
 30
0.0
  9
$USERI1
 70
     0
  9
$USERI2
 70
     0
  9
$USERI3
 70
     0
  9
$USERI4
 70
     0
  9
$USERI5
 70
     0
  9
$USERR1
 40
18.1
  9
$USERR2
 40
0.0
  9
$USERR3
 40
0.0
  9
$USERR4
 40
0.0
  9
$USERR5
 40
0.0
  9
$WORLDVIEW
 70
     1
  9
$SHADEDGE
 70
     3
  9
$SHADEDIF
 70
    70
  9
$TILEMODE
 70
     1
  9
$MAXACTVP
 70
    64
  9
$PINSBASE
 10
0.0
 20
0.0
 30
0.0
  9
$PLIMCHECK
 70
     0
  9
$PEXTMIN
 10
1.00000000000000E+20
 20
1.00000000000000E+20
 30
1.00000000000000E+20
  9
$PEXTMAX
 10
-1.00000000000000E+20
 20
-1.00000000000000E+20
 30
-1.00000000000000E+20
  9
$PLIMMIN
 10
0.0
 20
0.0
  9
$PLIMMAX
 10
12.0
 20
9.0
  9
$UNITMODE
 70
     0
  9
$VISRETAIN
 70
     1
  9
$PLINEGEN
 70
     0
  9
$PSLTSCALE
 70
     1
  9
$TREEDEPTH
 70
  3020
  9
$CMLSTYLE
  2
Standard
  9
$CMLJUST
 70
     0
  9
$CMLSCALE
 40
1.0
  9
$PROXYGRAPHICS
 70
     1
  9
$MEASUREMENT
 70
     1
  9
$CELWEIGHT
370
    -1
  9
$ENDCAPS
280
     0
  9
$JOINSTYLE
280
     0
  9
$LWDISPLAY
290
     0
  9
$INSUNITS
 70
     4
  9
$HYPERLINKBASE
  1

  9
$STYLESHEET
  1

  9
$XEDIT
290
     1
  9
$CEPSNTYPE
380
     0
  9
$PSTYLEMODE
290
     1
  9
$FINGERPRINTGUID
  2
{B86B90B0-9674-495A-AE7B-A8416646D0C9}
  9
$VERSIONGUID
  2
{FAEB1C32-E019-11D5-929B-00C0DF256EC4}
  9
$EXTNAMES
290
     1
  9
$PSVPSCALE
 40
0.0
  9
$OLESTARTUP
290
     0
  9
$SORTENTS
280
   127
  9
$INDEXCTL
280
     0
  9
$HIDETEXT
280
     1
  9
$XCLIPFRAME
290
     0
  9
$HALOGAP
280
     0
  9
$OBSCOLOR
 70
   257
  9
$OBSLTYPE
280
     0
  9
$INTERSECTIONDISPLAY
280
     0
  9
$INTERSECTIONCOLOR
 70
   257
  9
$DIMASSOC
280
     2
  9
$PROJECTNAME
  1

  0
ENDSEC
  0
SECTION
  2
CLASSES
  0
CLASS
  1
ACDBDICTIONARYWDFLT
  2
AcDbDictionaryWithDefault
  3
ObjectDBX Classes
 90
        0
 91
        4
280
     0
281
     0
  0
CLASS
  1
VISUALSTYLE
  2
AcDbVisualStyle
  3
ObjectDBX Classes
 90
     4095
 91
        4
280
     0
281
     0
  0
CLASS
  1
MATERIAL
  2
AcDbMaterial
  3
ObjectDBX Classes
 90
     1153
 91
        4
280
     0
281
     0
  0
ENDSEC
  0
SECTION
  2
TABLES
  0
TABLE
  2
VPORT
  5
8
330
0
100
AcDbSymbolTable
 70
     1
  0
VPORT
  5
29
330
8
100
AcDbSymbolTableRecord
100
AcDbViewportTableRecord
  2
*Active
 70
     0
 10
0.0
 20
0.0
 11
1.0
 21
1.0
 12
-94.75000000000234
 22
97.04995911556607
 13
0.0
 23
0.0
 14
0.5
 24
0.5
 15
0.5
 25
0.5
 16
0.0
 26
0.0
 36
1.0
 17
0.0
 27
0.0
 37
0.0
 40
231.0000000000001
 41
1.60267857142857
 42
50.0
 43
0.0
 44
0.0
 50
0.0
 51
0.0
 71
     0
 72
   100
 73
     1
 74
     3
 75
     0
 76
     0
 77
     0
 78
     0
281
     0
 65
     1
110
0.0
120
0.0
130
0.0
111
1.0
121
0.0
131
0.0
112
0.0
122
1.0
132
0.0
 79
     0
146
0.0
  0
ENDTAB
  0
TABLE
  2
LTYPE
  5
5
330
0
100
AcDbSymbolTable
 70
     8
  0
LTYPE
  5
14
330
5
100
AcDbSymbolTableRecord
100
AcDbLinetypeTableRecord
  2
ByBlock
 70
     0
  3

 72
    65
 73
     0
 40
0.0
  0
LTYPE
  5
15
330
5
100
AcDbSymbolTableRecord
100
AcDbLinetypeTableRecord
  2
ByLayer
 70
     0
  3

 72
    65
 73
     0
 40
0.0
  0
LTYPE
  5
16
330
5
100
AcDbSymbolTableRecord
100
AcDbLinetypeTableRecord
  2
Continuous
 70
     0
  3
Solid line
 72
    65
 73
     0
 40
0.0
  0
LTYPE
  5
3F
330
5
100
AcDbSymbolTableRecord
100
AcDbLinetypeTableRecord
  2
DASHED
 70
     0
  3
Dashed
 72
    65
 73
     2
 40
15.0
 49
7.0
 74
     0
 49
-8.0
 74
     0
  0
LTYPE
  5
40
330
5
100
AcDbSymbolTableRecord
100
AcDbLinetypeTableRecord
  2
DOTTED
 70
     0
  3
Dotted
 72
    65
 73
     2
 40
1.0
 49
0.0
 74
     0
 49
-1.0
 74
     0
  0
LTYPE
  5
41
330
5
100
AcDbSymbolTableRecord
100
AcDbLinetypeTableRecord
  2
DOT_CENTER
 70
     0
  3
Dot_Center
 72
    65
 73
     4
 40
14.0
 49
12.0
 74
     0
 49
-1.0
 74
     0
 49
0.0
 74
     0
 49
-1.0
 74
     0
  0
LTYPE
  5
42
330
5
100
AcDbSymbolTableRecord
100
AcDbLinetypeTableRecord
  2
LONG_DASHED
 70
     0
  3
Long_Dashed
 72
    65
 73
     2
 40
15.0
 49
10.0
 74
     0
 49
-5.0
 74
     0
  0
LTYPE
  5
43
330
5
100
AcDbSymbolTableRecord
100
AcDbLinetypeTableRecord
  2
DASH_CENTER
 70
     0
  3
Dash_Center
 72
    65
 73
     4
 40
14.0
 49
11.0
 74
     0
 49
-1.0
 74
     0
 49
1.0
 74
     0
 49
-1.0
 74
     0
  0
LTYPE
  5
44
330
5
100
AcDbSymbolTableRecord
100
AcDbLinetypeTableRecord
  2
PHANTOM
 70
     0
  3
Phantom
 72
    65
 73
     6
 40
13.0
 49
10.0
 74
     0
 49
-1.0
 74
     0
 49
0.0
 74
     0
 49
-1.0
 74
     0
 49
0.0
 74
     0
 49
-1.0
 74
     0
  0
LTYPE
  5
45
330
5
100
AcDbSymbolTableRecord
100
AcDbLinetypeTableRecord
  2
CENTER_DASH_DASH
 70
     0
  3
Center_Dash_Dash
 72
    65
 73
     6
 40
14.0
 49
9.0
 74
     0
 49
-1.0
 74
     0
 49
1.0
 74
     0
 49
-1.0
 74
     0
 49
1.0
 74
     0
 49
-1.0
 74
     0
  0
ENDTAB
  0
TABLE
  2
LAYER
  5
2
330
0
100
AcDbSymbolTable
 70
     2
  0
LAYER
  5
10
330
2
100
AcDbSymbolTableRecord
100
AcDbLayerTableRecord
  2
0
 70
     0
 62
     7
  6
Continuous
370
    -3
390
F
  0
LAYER
  5
46
330
2
100
AcDbSymbolTableRecord
100
AcDbLayerTableRecord
  2
1
 70
     0
 62
     7
  6
Continuous
370
    -3
390
F
  0
ENDTAB
  0
TABLE
  2
STYLE
  5
3
330
0
100
AcDbSymbolTable
 70
     5
  0
STYLE
  5
11
330
3
100
AcDbSymbolTableRecord
100
AcDbTextStyleTableRecord
  2
Standard
 70
     0
 40
0.0
 41
1.0
 50
0.0
 71
     0
 42
0.2
  3
txt
  4

  0
STYLE
  5
17D
330
3
100
AcDbSymbolTableRecord
100
AcDbTextStyleTableRecord
  2
CONVERTER_11
 70
     0
 40
0.0
 41
0.9
 50
0.0
 71
     0
 42
0.2
  3
txt.shx
  4

  0
STYLE
  5
184
330
3
100
AcDbSymbolTableRecord
100
AcDbTextStyleTableRecord
  2
CONVERTER_12
 70
     0
 40
0.0
 41
0.81
 50
0.0
 71
     0
 42
0.2
  3
txt.shx
  4

  0
STYLE
  5
19A
330
3
100
AcDbSymbolTableRecord
100
AcDbTextStyleTableRecord
  2
CONVERTER_13
 70
     0
 40
0.0
 41
0.72
 50
0.0
 71
     0
 42
0.2
  3
txt.shx
  4

  0
STYLE
  5
19D
330
3
100
AcDbSymbolTableRecord
100
AcDbTextStyleTableRecord
  2
CONVERTER_14
 70
     0
 40
0.0
 41
0.855
 50
0.0
 71
     0
 42
0.2
  3
txt.shx
  4

  0
ENDTAB
  0
TABLE
  2
VIEW
  5
6
330
0
100
AcDbSymbolTable
 70
     0
  0
ENDTAB
  0
TABLE
  2
UCS
  5
7
330
0
100
AcDbSymbolTable
 70
     0
  0
ENDTAB
  0
TABLE
  2
APPID
  5
9
330
0
100
AcDbSymbolTable
 70
     1
  0
APPID
  5
12
330
9
100
AcDbSymbolTableRecord
100
AcDbRegAppTableRecord
  2
ACAD
 70
     0
  0
ENDTAB
  0
TABLE
  2
DIMSTYLE
  5
A
330
0
100
AcDbSymbolTable
 70
     7
100
AcDbDimStyleTable
  0
DIMSTYLE
105
27
330
A
100
AcDbSymbolTableRecord
100
AcDbDimStyleTableRecord
  2
Standard
 70
     0
178
     0
340
11
  0
DIMSTYLE
105
248
102
{ACAD_REACTORS
330
249
102
}
330
A
100
AcDbSymbolTableRecord
100
AcDbDimStyleTableRecord
  2
ME10_DIM_10
 70
     0
 41
3.5
 42
0.0
 44
1.5
 73
     0
 74
     0
 77
     1
 78
     8
140
3.5
147
1.5
172
     1
173
     1
174
     1
175
     1
176
     2
177
     2
178
     3
340
17D
  0
DIMSTYLE
105
2F8
102
{ACAD_REACTORS
330
2F9
102
}
330
A
100
AcDbSymbolTableRecord
100
AcDbDimStyleTableRecord
  2
ME10_DIM_11
 70
     0
 41
3.5
 42
0.0
 44
2.0
 73
     0
 74
     0
 77
     1
 78
     8
140
3.5
147
2.0
172
     1
173
     1
174
     1
175
     1
176
     2
177
     2
178
     3
340
17D
  0
DIMSTYLE
105
303
102
{ACAD_REACTORS
330
304
102
}
330
A
100
AcDbSymbolTableRecord
100
AcDbDimStyleTableRecord
  2
ME10_DIM_12
 70
     0
 41
3.5
 42
0.0
 44
2.0
 73
     0
 74
     0
 77
     1
 78
     8
140
3.5
147
2.0
172
     1
173
     1
174
     1
175
     1
176
     2
177
     2
178
     3
340
17D
  0
DIMSTYLE
105
30E
102
{ACAD_REACTORS
330
30F
102
}
330
A
100
AcDbSymbolTableRecord
100
AcDbDimStyleTableRecord
  2
ME10_DIM_13
 70
     0
 41
3.5
 42
0.0
 44
2.0
 73
     0
 74
     0
 77
     1
 78
     8
140
3.5
147
2.0
172
     1
173
     1
174
     1
175
     1
176
     2
177
     2
178
     3
340
17D
  0
DIMSTYLE
105
319
102
{ACAD_REACTORS
330
31A
102
}
330
A
100
AcDbSymbolTableRecord
100
AcDbDimStyleTableRecord
  2
ME10_DIM_14
 70
     0
 41
3.5
 42
0.0
 44
1.5
 73
     0
 74
     0
 77
     1
 78
     8
140
3.5
147
1.5
172
     1
173
     1
174
     1
175
     1
176
     2
177
     2
178
     3
340
17D
  0
DIMSTYLE
105
324
102
{ACAD_REACTORS
330
325
102
}
330
A
100
AcDbSymbolTableRecord
100
AcDbDimStyleTableRecord
  2
ME10_DIM_15
 70
     0
 41
3.5
 42
0.0
 44
1.5
 73
     0
 74
     0
 77
     1
 78
     8
140
3.5
147
1.5
172
     1
173
     1
174
     1
175
     1
176
     2
177
     2
178
     3
340
17D
  0
ENDTAB
  0
TABLE
  2
BLOCK_RECORD
  5
1
330
0
100
AcDbSymbolTable
 70
    23
  0
BLOCK_RECORD
  5
1F
330
1
100
AcDbSymbolTableRecord
100
AcDbBlockTableRecord
  2
*Model_Space
340
22
  0
BLOCK_RECORD
  5
1B
330
1
100
AcDbSymbolTableRecord
100
AcDbBlockTableRecord
  2
*Paper_Space
340
1E
  0
BLOCK_RECORD
  5
23
330
1
100
AcDbSymbolTableRecord
100
AcDbBlockTableRecord
  2
*Paper_Space0
340
26
  0
BLOCK_RECORD
  5
47
330
1
100
AcDbSymbolTableRecord
100
AcDbBlockTableRecord
  2
_rahmen
340
0
102
{BLKREFS
331
4E
102
}
  0
BLOCK_RECORD
  5
4A
330
1
100
AcDbSymbolTableRecord
100
AcDbBlockTableRecord
  2
_punkt
340
0
102
{BLKREFS
331
4F
102
}
  0
BLOCK_RECORD
  5
4D
330
1
100
AcDbSymbolTableRecord
100
AcDbBlockTableRecord
  2
A4I_CS
340
0
102
{BLKREFS
331
7D
102
}
  0
BLOCK_RECORD
  5
52
330
1
100
AcDbSymbolTableRecord
100
AcDbBlockTableRecord
  2
ATP_URTK_SP-select__1
340
0
102
{BLKREFS
331
56
102
}
  0
BLOCK_RECORD
  5
55
330
1
100
AcDbSymbolTableRecord
100
AcDbBlockTableRecord
  2
AllgSicht1
340
0
102
{BLKREFS
331
7E
102
}
  0
BLOCK_RECORD
  5
59
330
1
100
AcDbSymbolTableRecord
100
AcDbBlockTableRecord
  2
ATP_URTK_SP-select__2
340
0
102
{BLKREFS
331
5D
102
}
  0
BLOCK_RECORD
  5
5C
330
1
100
AcDbSymbolTableRecord
100
AcDbBlockTableRecord
  2
Drfsicht1
340
0
102
{BLKREFS
331
7F
102
}
  0
BLOCK_RECORD
  5
60
330
1
100
AcDbSymbolTableRecord
100
AcDbBlockTableRecord
  2
ATP_URTK_SP-select__3
340
0
102
{BLKREFS
331
64
102
}
  0
BLOCK_RECORD
  5
63
330
1
100
AcDbSymbolTableRecord
100
AcDbBlockTableRecord
  2
Rckans1
340
0
102
{BLKREFS
331
80
102
}
  0
BLOCK_RECORD
  5
67
330
1
100
AcDbSymbolTableRecord
100
AcDbBlockTableRecord
  2
ATP_URTK_SP-select__4
340
0
102
{BLKREFS
331
6B
102
}
  0
BLOCK_RECORD
  5
6A
330
1
100
AcDbSymbolTableRecord
100
AcDbBlockTableRecord
  2
SA_Rechts1
340
0
102
{BLKREFS
331
81
102
}
  0
BLOCK_RECORD
  5
6E
330
1
100
AcDbSymbolTableRecord
100
AcDbBlockTableRecord
  2
ATP_URTK_SP-select__5
340
0
102
{BLKREFS
331
72
102
}
  0
BLOCK_RECORD
  5
71
330
1
100
AcDbSymbolTableRecord
100
AcDbBlockTableRecord
  2
SA_links1
340
0
102
{BLKREFS
331
82
102
}
  0
BLOCK_RECORD
  5
75
330
1
100
AcDbSymbolTableRecord
100
AcDbBlockTableRecord
  2
ATP_URTK_SP-select__6
340
0
102
{BLKREFS
331
79
102
}
  0
BLOCK_RECORD
  5
78
330
1
100
AcDbSymbolTableRecord
100
AcDbBlockTableRecord
  2
Vordans1
340
0
102
{BLKREFS
331
83
102
}
  0
BLOCK_RECORD
  5
7C
330
1
100
AcDbSymbolTableRecord
100
AcDbBlockTableRecord
  2
1
340
0
102
{BLKREFS
331
86
102
}
  0
BLOCK_RECORD
  5
23D
330
1
100
AcDbSymbolTableRecord
100
AcDbBlockTableRecord
  2
*D17
340
0
  0
BLOCK_RECORD
  5
2EF
330
1
100
AcDbSymbolTableRecord
100
AcDbBlockTableRecord
  2
*D18
340
0
  0
BLOCK_RECORD
  5
2FA
330
1
100
AcDbSymbolTableRecord
100
AcDbBlockTableRecord
  2
*D19
340
0
  0
BLOCK_RECORD
  5
305
330
1
100
AcDbSymbolTableRecord
100
AcDbBlockTableRecord
  2
*D20
340
0
  0
BLOCK_RECORD
  5
310
330
1
100
AcDbSymbolTableRecord
100
AcDbBlockTableRecord
  2
*D21
340
0
  0
BLOCK_RECORD
  5
31B
330
1
100
AcDbSymbolTableRecord
100
AcDbBlockTableRecord
  2
*D22
340
0
  0
ENDTAB
  0
ENDSEC
  0
SECTION
  2
BLOCKS
  0
BLOCK
  5
20
330
1F
100
AcDbEntity
  8
0
100
AcDbBlockBegin
  2
*Model_Space
 70
     0
 10
0.0
 20
0.0
 30
0.0
  3
*Model_Space
  1

  0
ENDBLK
  5
21
330
1F
100
AcDbEntity
  8
0
100
AcDbBlockEnd
  0
BLOCK
  5
1C
330
1B
100
AcDbEntity
 67
     1
  8
0
100
AcDbBlockBegin
  2
*Paper_Space
 70
     0
 10
0.0
 20
0.0
 30
0.0
  3
*Paper_Space
  1

  0
ENDBLK
  5
1D
330
1B
100
AcDbEntity
 67
     1
  8
0
100
AcDbBlockEnd
  0
BLOCK
  5
24
330
23
100
AcDbEntity
  8
0
100
AcDbBlockBegin
  2
*Paper_Space0
 70
     0
 10
0.0
 20
0.0
 30
0.0
  3
*Paper_Space0
  1

  0
ENDBLK
  5
25
330
23
100
AcDbEntity
  8
0
100
AcDbBlockEnd
  0
BLOCK
  5
48
330
47
100
AcDbEntity
  8
0
100
AcDbBlockBegin
  2
_rahmen
 70
     0
 10
48.74999999999771
 20
-7.95004088443398
 30
0.0
  3
_rahmen
  1

  0
LINE
  5
87
330
47
100
AcDbEntity
  8
1
  6
Continuous
 62
     6
100
AcDbLine
 10
-80.7948045267523
 20
22.54995911556614
 30
0.0
 11
48.7499999999994
 21
22.54995911556614
 31
0.0
  0
LINE
  5
88
330
47
100
AcDbEntity
  8
1
  6
Continuous
 62
     7
100
AcDbLine
 10
-62.59480452675228
 20
1.29995911556614
 30
0.0
 11
-44.39480452675238
 21
1.29995911556614
 31
0.0
  0
LINE
  5
89
330
47
100
AcDbEntity
  8
1
  6
Continuous
 62
     6
100
AcDbLine
 10
-62.59480452675228
 20
-2.95004088443386
 30
0.0
 11
-80.7948045267523
 21
-2.95004088443397
 31
0.0
  0
LINE
  5
8A
330
47
100
AcDbEntity
  8
1
  6
Continuous
 62
     7
100
AcDbLine
 10
-62.59480452675228
 20
1.29995911556614
 30
0.0
 11
-62.59480452675228
 21
-2.95004088443386
 31
0.0
  0
LINE
  5
8B
330
47
100
AcDbEntity
  8
1
  6
Continuous
 62
     7
100
AcDbLine
 10
-44.39480452675238
 20
1.29995911556614
 30
0.0
 11
-44.39480452675238
 21
-2.95004088443397
 31
0.0
  0
LINE
  5
8C
330
47
100
AcDbEntity
  8
1
  6
Continuous
 62
     7
100
AcDbLine
 10
-80.7948045267523
 20
1.29995911556603
 30
0.0
 11
-80.7948045267523
 21
-2.95004088443397
 31
0.0
  0
LINE
  5
8D
330
47
100
AcDbEntity
  8
1
  6
Continuous
 62
     7
100
AcDbLine
 10
-80.7948045267523
 20
1.29995911556603
 30
0.0
 11
-62.59480452675228
 21
1.29995911556614
 31
0.0
  0
LINE
  5
8E
330
47
100
AcDbEntity
  8
1
  6
Continuous
 62
     2
100
AcDbLine
 10
-71.5581496401897
 20
20.67495911556605
 30
0.0
 11
-71.5581496401897
 21
15.67495911556605
 31
0.0
  0
LINE
  5
8F
330
47
100
AcDbEntity
  8
1
  6
Continuous
 62
     2
100
AcDbLine
 10
-71.5581496401897
 20
15.67495911556605
 30
0.0
 11
-76.5581496401897
 21
16.92495911556605
 31
0.0
  0
LINE
  5
90
330
47
100
AcDbEntity
  8
1
  6
Continuous
 62
     2
100
AcDbLine
 10
-76.5581496401897
 20
16.92495911556605
 30
0.0
 11
-76.5581496401897
 21
19.42495911556605
 31
0.0
  0
LINE
  5
91
330
47
100
AcDbEntity
  8
1
  6
Continuous
 62
     2
100
AcDbLine
 10
-76.5581496401897
 20
19.42495911556605
 30
0.0
 11
-71.5581496401897
 21
20.67495911556605
 31
0.0
  0
LINE
  5
92
330
47
100
AcDbEntity
  8
1
  6
Continuous
 62
     6
100
AcDbLine
 10
-203.2500000000005
 20
-2.95004088443386
 30
0.0
 11
-238.2500000000004
 21
-2.95004088443386
 31
0.0
  0
LINE
  5
93
330
47
100
AcDbEntity
  8
1
  6
Continuous
 62
     6
100
AcDbLine
 10
48.7499999999994
 20
14.04995911556614
 30
0.0
 11
48.74999999999901
 21
5.54995911556614
 31
0.0
  0
LINE
  5
94
330
47
100
AcDbEntity
  8
1
  6
Continuous
 62
     6
100
AcDbLine
 10
-44.39480452675238
 20
-2.95004088443397
 30
0.0
 11
-44.7500000000023
 21
-2.95004088443386
 31
0.0
  0
LINE
  5
95
330
47
100
AcDbEntity
  8
1
  6
Continuous
 62
     6
100
AcDbLine
 10
-197.0500000000025
 20
-2.95004088443397
 30
0.0
 11
-203.2500000000005
 21
-2.95004088443386
 31
0.0
  0
LINE
  5
96
330
47
100
AcDbEntity
  8
1
  6
Continuous
 62
     7
100
AcDbLine
 10
-44.39480452675238
 20
14.04995911556614
 30
0.0
 11
-44.39480452675238
 21
1.29995911556614
 31
0.0
  0
LINE
  5
97
330
47
100
AcDbEntity
  8
1
  6
Continuous
 62
     7
100
AcDbLine
 10
-80.7948045267523
 20
14.04995911556614
 30
0.0
 11
-80.7948045267523
 21
1.29995911556603
 31
0.0
  0
LINE
  5
98
330
47
100
AcDbEntity
  8
1
  6
Continuous
 62
     6
100
AcDbLine
 10
-94.75000000000227
 20
-2.95004088443386
 30
0.0
 11
-144.7500000000025
 21
-2.95004088443386
 31
0.0
  0
LINE
  5
99
330
47
100
AcDbEntity
  8
1
  6
Continuous
 62
     6
100
AcDbLine
 10
-197.0500000000025
 20
-2.95004088443397
 30
0.0
 11
-194.7500000000023
 21
-2.95004088443386
 31
0.0
  0
LINE
  5
9A
330
47
100
AcDbEntity
  8
1
  6
Continuous
 62
     6
100
AcDbLine
 10
-44.39480452675238
 20
-2.95004088443397
 30
0.0
 11
5.2499999999977
 21
-2.95004088443386
 31
0.0
  0
LINE
  5
9B
330
47
100
AcDbEntity
  8
1
  6
Continuous
 62
     6
100
AcDbLine
 10
48.74999999999771
 20
-2.95004088443386
 30
0.0
 11
48.74999999999901
 21
5.54995911556614
 31
0.0
  0
LINE
  5
9C
330
47
100
AcDbEntity
  8
1
  6
Continuous
 62
     2
100
AcDbLine
 10
-243.2500000000014
 20
-2.95004088443386
 30
0.0
 11
-243.2500000000014
 21
-7.95004088443398
 31
0.0
  0
LINE
  5
9D
330
47
100
AcDbEntity
  8
1
  6
Continuous
 62
     2
100
AcDbLine
 10
-238.2500000000004
 20
-2.95004088443386
 30
0.0
 11
-243.2500000000014
 21
-2.95004088443386
 31
0.0
  0
LINE
  5
9E
330
47
100
AcDbEntity
  8
1
  6
Continuous
 62
     2
100
AcDbLine
 10
-238.2500000000004
 20
-7.95004088443398
 30
0.0
 11
-194.7500000000023
 21
-7.95004088443398
 31
0.0
  0
LINE
  5
9F
330
47
100
AcDbEntity
  8
1
  6
Continuous
 62
     2
100
AcDbLine
 10
-238.2500000000004
 20
-2.95004088443386
 30
0.0
 11
-238.2500000000004
 21
-7.95004088443398
 31
0.0
  0
LINE
  5
A0
330
47
100
AcDbEntity
  8
1
  6
Continuous
 62
     2
100
AcDbLine
 10
5.2499999999977
 20
-7.95004088443398
 30
0.0
 11
-44.7500000000023
 21
-7.95004088443398
 31
0.0
  0
LINE
  5
A1
330
47
100
AcDbEntity
  8
1
  6
Continuous
 62
     2
100
AcDbLine
 10
5.2499999999977
 20
-7.95004088443398
 30
0.0
 11
5.2499999999977
 21
-2.95004088443386
 31
0.0
  0
LINE
  5
A2
330
47
100
AcDbEntity
  8
1
  6
Continuous
 62
     2
100
AcDbLine
 10
-44.7500000000023
 20
-7.95004088443398
 30
0.0
 11
-44.7500000000023
 21
-2.95004088443386
 31
0.0
  0
LINE
  5
A3
330
47
100
AcDbEntity
  8
1
  6
Continuous
 62
     2
100
AcDbLine
 10
-94.75000000000227
 20
-7.95004088443398
 30
0.0
 11
-44.7500000000023
 21
-7.95004088443398
 31
0.0
  0
LINE
  5
A4
330
47
100
AcDbEntity
  8
1
  6
Continuous
 62
     2
100
AcDbLine
 10
-94.75000000000227
 20
-7.95004088443398
 30
0.0
 11
-94.75000000000227
 21
-2.95004088443386
 31
0.0
  0
LINE
  5
A5
330
47
100
AcDbEntity
  8
1
  6
Continuous
 62
     2
100
AcDbLine
 10
-144.7500000000025
 20
-7.95004088443398
 30
0.0
 11
-94.75000000000227
 21
-7.95004088443398
 31
0.0
  0
LINE
  5
A6
330
47
100
AcDbEntity
  8
1
  6
Continuous
 62
     2
100
AcDbLine
 10
-144.7500000000025
 20
-7.95004088443398
 30
0.0
 11
-144.7500000000025
 21
-2.95004088443386
 31
0.0
  0
LINE
  5
A7
330
47
100
AcDbEntity
  8
1
  6
Continuous
 62
     2
100
AcDbLine
 10
-194.7500000000023
 20
-7.95004088443398
 30
0.0
 11
-144.7500000000025
 21
-7.95004088443398
 31
0.0
  0
LINE
  5
A8
330
47
100
AcDbEntity
  8
1
  6
Continuous
 62
     2
100
AcDbLine
 10
-194.7500000000023
 20
-7.95004088443398
 30
0.0
 11
-194.7500000000023
 21
-2.95004088443386
 31
0.0
  0
LINE
  5
A9
330
47
100
AcDbEntity
  8
1
  6
Continuous
 62
     6
100
AcDbLine
 10
-238.2500000000006
 20
47.04995911556625
 30
0.0
 11
-238.2500000000004
 21
-2.95004088443386
 31
0.0
  0
LINE
  5
AA
330
47
100
AcDbEntity
  8
1
  6
Continuous
 62
     2
100
AcDbLine
 10
-243.2500000000014
 20
47.04995911556625
 30
0.0
 11
-243.2500000000014
 21
-2.95004088443386
 31
0.0
  0
LINE
  5
AB
330
47
100
AcDbEntity
  8
1
  6
Continuous
 62
     2
100
AcDbLine
 10
-243.2500000000014
 20
47.04995911556625
 30
0.0
 11
-238.2500000000006
 21
47.04995911556625
 31
0.0
  0
LINE
  5
AC
330
47
100
AcDbEntity
  8
1
  6
Continuous
 62
     6
100
AcDbLine
 10
-238.2500000000008
 20
97.04995911556605
 30
0.0
 11
-238.2500000000006
 21
47.04995911556625
 31
0.0
  0
LINE
  5
AD
330
47
100
AcDbEntity
  8
1
  6
Continuous
 62
     2
100
AcDbLine
 10
-243.2500000000014
 20
97.04995911556605
 30
0.0
 11
-243.2500000000014
 21
47.04995911556625
 31
0.0
  0
LINE
  5
AE
330
47
100
AcDbEntity
  8
1
  6
Continuous
 62
     2
100
AcDbLine
 10
-243.2500000000014
 20
97.04995911556605
 30
0.0
 11
-238.2500000000008
 21
97.04995911556605
 31
0.0
  0
LINE
  5
AF
330
47
100
AcDbEntity
  8
1
  6
Continuous
 62
     6
100
AcDbLine
 10
-238.2500000000013
 20
147.0499591155661
 30
0.0
 11
-238.2500000000008
 21
97.04995911556605
 31
0.0
  0
LINE
  5
B0
330
47
100
AcDbEntity
  8
1
  6
Continuous
 62
     2
100
AcDbLine
 10
-243.2500000000014
 20
147.0499591155661
 30
0.0
 11
-243.2500000000014
 21
97.04995911556605
 31
0.0
  0
LINE
  5
B1
330
47
100
AcDbEntity
  8
1
  6
Continuous
 62
     2
100
AcDbLine
 10
-243.2500000000014
 20
147.0499591155661
 30
0.0
 11
-238.2500000000013
 21
147.0499591155661
 31
0.0
  0
LINE
  5
B2
330
47
100
AcDbEntity
  8
1
  6
Continuous
 62
     6
100
AcDbLine
 10
-238.2500000000014
 20
182.0499591155661
 30
0.0
 11
-238.2500000000013
 21
147.0499591155661
 31
0.0
  0
LINE
  5
B3
330
47
100
AcDbEntity
  8
1
  6
Continuous
 62
     2
100
AcDbLine
 10
-243.2500000000014
 20
202.0499591155661
 30
0.0
 11
-243.2500000000014
 21
147.0499591155661
 31
0.0
  0
LINE
  5
B4
330
47
100
AcDbEntity
  8
1
  6
Continuous
 62
     2
100
AcDbLine
 10
-243.2500000000014
 20
-7.95004088443398
 30
0.0
 11
-238.2500000000004
 21
-7.95004088443398
 31
0.0
  0
LINE
  5
B5
330
47
100
AcDbEntity
  8
1
  6
Continuous
 62
     2
100
AcDbLine
 10
-94.75000000000227
 20
202.0499591155661
 30
0.0
 11
-94.75000000000227
 21
192.8412672708648
 31
0.0
  0
LINE
  5
B6
330
47
100
AcDbEntity
  8
1
  6
Continuous
 62
     2
100
AcDbLine
 10
-94.75000000000227
 20
202.0499591155661
 30
0.0
 11
-243.2500000000014
 21
202.0499591155661
 31
0.0
  0
LINE
  5
B7
330
47
100
AcDbEntity
  8
1
  6
Continuous
 62
     2
100
AcDbLine
 10
53.7499999999967
 20
-2.95004088443386
 30
0.0
 11
53.7499999999967
 21
47.04995911556625
 31
0.0
  0
LINE
  5
B8
330
47
100
AcDbEntity
  8
1
  6
Continuous
 62
     2
100
AcDbLine
 10
53.7499999999967
 20
147.0499591155661
 30
0.0
 11
53.7499999999967
 21
202.0499591155661
 31
0.0
  0
LINE
  5
B9
330
47
100
AcDbEntity
  8
1
  6
Continuous
 62
     6
100
AcDbLine
 10
48.7499999999969
 20
147.0499591155661
 30
0.0
 11
48.7499999999967
 21
182.0499591155661
 31
0.0
  0
LINE
  5
BA
330
47
100
AcDbEntity
  8
1
  6
Continuous
 62
     2
100
AcDbLine
 10
48.7499999999969
 20
147.0499591155661
 30
0.0
 11
53.7499999999967
 21
147.0499591155661
 31
0.0
  0
LINE
  5
BB
330
47
100
AcDbEntity
  8
1
  6
Continuous
 62
     2
100
AcDbLine
 10
53.7499999999967
 20
97.04995911556605
 30
0.0
 11
53.7499999999967
 21
147.0499591155661
 31
0.0
  0
LINE
  5
BC
330
47
100
AcDbEntity
  8
1
  6
Continuous
 62
     6
100
AcDbLine
 10
48.74999999999811
 20
97.04995911556605
 30
0.0
 11
48.7499999999969
 21
147.0499591155661
 31
0.0
  0
LINE
  5
BD
330
47
100
AcDbEntity
  8
1
  6
Continuous
 62
     2
100
AcDbLine
 10
48.74999999999811
 20
97.04995911556605
 30
0.0
 11
53.7499999999967
 21
97.04995911556605
 31
0.0
  0
LINE
  5
BE
330
47
100
AcDbEntity
  8
1
  6
Continuous
 62
     2
100
AcDbLine
 10
53.7499999999967
 20
47.04995911556625
 30
0.0
 11
53.7499999999967
 21
97.04995911556605
 31
0.0
  0
LINE
  5
BF
330
47
100
AcDbEntity
  8
1
  6
Continuous
 62
     6
100
AcDbLine
 10
48.74999999999861
 20
47.04995911556625
 30
0.0
 11
48.74999999999811
 21
97.04995911556605
 31
0.0
  0
LINE
  5
C0
330
47
100
AcDbEntity
  8
1
  6
Continuous
 62
     2
100
AcDbLine
 10
48.74999999999861
 20
47.04995911556625
 30
0.0
 11
53.7499999999967
 21
47.04995911556625
 31
0.0
  0
LINE
  5
C1
330
47
100
AcDbEntity
  8
1
  6
Continuous
 62
     6
100
AcDbLine
 10
48.7499999999967
 20
182.0499591155661
 30
0.0
 11
-238.2500000000014
 21
182.0499591155661
 31
0.0
  0
LINE
  5
C2
330
47
100
AcDbEntity
  8
1
  6
Continuous
 62
     2
100
AcDbLine
 10
53.7499999999967
 20
202.0499591155661
 30
0.0
 11
-94.75000000000227
 21
202.0499591155661
 31
0.0
  0
LINE
  5
C3
330
47
100
AcDbEntity
  8
1
  6
Continuous
 62
     6
100
AcDbLine
 10
48.7499999999994
 20
14.04995911556614
 30
0.0
 11
48.74999999999861
 21
47.04995911556625
 31
0.0
  0
LINE
  5
C4
330
47
100
AcDbEntity
  8
1
  6
Continuous
 62
     2
100
AcDbLine
 10
48.74999999999771
 20
-7.95004088443398
 30
0.0
 11
5.2499999999977
 21
-7.95004088443398
 31
0.0
  0
LINE
  5
C5
330
47
100
AcDbEntity
  8
1
  6
Continuous
 62
     2
100
AcDbLine
 10
53.7499999999967
 20
-7.95004088443398
 30
0.0
 11
48.74999999999771
 21
-7.95004088443398
 31
0.0
  0
LINE
  5
C6
330
47
100
AcDbEntity
  8
1
  6
Continuous
 62
     2
100
AcDbLine
 10
53.7499999999967
 20
-7.95004088443398
 30
0.0
 11
53.7499999999967
 21
-2.95004088443386
 31
0.0
  0
LINE
  5
C7
330
47
100
AcDbEntity
  8
1
  6
Continuous
 62
     6
100
AcDbLine
 10
-80.7948045267523
 20
14.04995911556614
 30
0.0
 11
-44.39480452675238
 21
14.04995911556614
 31
0.0
  0
LINE
  5
C8
330
47
100
AcDbEntity
  8
1
  6
Continuous
 62
     2
100
AcDbLine
 10
48.74999999999771
 20
-2.95004088443386
 30
0.0
 11
48.74999999999771
 21
-7.95004088443398
 31
0.0
  0
LINE
  5
C9
330
47
100
AcDbEntity
  8
1
  6
Continuous
 62
     2
100
AcDbLine
 10
48.74999999999771
 20
-2.95004088443386
 30
0.0
 11
53.7499999999967
 21
-2.95004088443386
 31
0.0
  0
LINE
  5
CA
330
47
100
AcDbEntity
  8
1
  6
Continuous
 62
     6
100
AcDbLine
 10
-44.7500000000023
 20
-2.95004088443386
 30
0.0
 11
-62.59480452675228
 21
-2.95004088443386
 31
0.0
  0
LINE
  5
CB
330
47
100
AcDbEntity
  8
1
  6
Continuous
 62
     6
100
AcDbLine
 10
5.2499999999977
 20
-2.95004088443386
 30
0.0
 11
48.74999999999771
 21
-2.95004088443386
 31
0.0
  0
LINE
  5
CC
330
47
100
AcDbEntity
  8
1
  6
Continuous
 62
     6
100
AcDbLine
 10
-144.7500000000025
 20
-2.95004088443386
 30
0.0
 11
-149.7948045267523
 21
-2.95004088443386
 31
0.0
  0
LINE
  5
CD
330
47
100
AcDbEntity
  8
1
  6
Continuous
 62
     6
100
AcDbLine
 10
-94.75000000000227
 20
-2.95004088443386
 30
0.0
 11
-80.7948045267523
 21
-2.95004088443397
 31
0.0
  0
LINE
  5
CE
102
{ACAD_REACTORS
330
1B9
330
1BA
102
}
330
47
100
AcDbEntity
  8
0
  6
Continuous
 62
     2
100
AcDbLine
 10
-73.2801785846055
 20
9.12247387177825
 30
0.0
 11
-73.2801785846055
 21
9.72800916028504
 31
0.0
  0
LINE
  5
CF
102
{ACAD_REACTORS
330
1B9
330
1BA
102
}
330
47
100
AcDbEntity
  8
0
  6
Continuous
 62
     2
100
AcDbLine
 10
-73.2801785846055
 20
6.32233926514695
 30
0.0
 11
-73.2801785846055
 21
6.90419067184203
 31
0.0
  0
LINE
  5
D0
102
{ACAD_REACTORS
330
1BB
330
1BC
102
}
330
47
100
AcDbEntity
  8
0
  6
Continuous
 62
     2
100
AcDbLine
 10
-50.65069214912629
 20
6.61200333326994
 30
0.0
 11
-50.65069214912629
 21
4.34345911558245
 31
0.0
  0
LINE
  5
D1
102
{ACAD_REACTORS
330
1BB
330
1BC
102
}
330
47
100
AcDbEntity
  8
0
  6
Continuous
 62
     2
100
AcDbLine
 10
-52.03174592811388
 20
7.39726863939305
 30
0.0
 11
-48.6468004094852
 21
7.39726863939353
 31
0.0
  0
LINE
  5
D2
102
{ACAD_REACTORS
330
1BB
330
1BC
102
}
330
47
100
AcDbEntity
  8
0
  6
Continuous
 62
     2
100
AcDbLine
 10
-48.6468004094852
 20
6.61200333326994
 30
0.0
 11
-48.6468004094852
 21
7.39726863939353
 31
0.0
  0
LINE
  5
D3
102
{ACAD_REACTORS
330
1BB
330
1BC
102
}
330
47
100
AcDbEntity
  8
0
  6
Continuous
 62
     2
100
AcDbLine
 10
-49.45789944695858
 20
6.61200333326994
 30
0.0
 11
-48.6468004094852
 21
6.61200333326994
 31
0.0
  0
LINE
  5
D4
102
{ACAD_REACTORS
330
1BB
330
1BC
102
}
330
47
100
AcDbEntity
  8
0
  6
Continuous
 62
     2
100
AcDbLine
 10
-49.45789944695858
 20
4.34345911558245
 30
0.0
 11
-49.45789944695858
 21
6.61200333326994
 31
0.0
  0
LINE
  5
D5
102
{ACAD_REACTORS
330
1BB
330
1BC
102
}
330
47
100
AcDbEntity
  8
0
  6
Continuous
 62
     2
100
AcDbLine
 10
-50.65069214912629
 20
4.34345911558245
 30
0.0
 11
-49.45789944695858
 21
4.34345911558245
 31
0.0
  0
LINE
  5
D6
102
{ACAD_REACTORS
330
1B1
330
1B2
102
}
330
47
100
AcDbEntity
  8
0
  6
Continuous
 62
     2
100
AcDbLine
 10
-51.34728308719079
 20
10.75645911556794
 30
0.0
 11
-52.75000730494008
 21
10.75645911556794
 31
0.0
  0
LINE
  5
D7
102
{ACAD_REACTORS
330
1B1
330
1B2
102
}
330
47
100
AcDbEntity
  8
0
  6
Continuous
 62
     2
100
AcDbLine
 10
-51.34728308719079
 20
10.75645911556794
 30
0.0
 11
-50.74611556529899
 21
10.07663579401245
 31
0.0
  0
LINE
  5
D8
102
{ACAD_REACTORS
330
1B1
330
1B2
102
}
330
47
100
AcDbEntity
  8
0
  6
Continuous
 62
     2
100
AcDbLine
 10
-50.74611556529899
 20
10.07663579401245
 30
0.0
 11
-50.1449480434062
 21
10.75645911556794
 31
0.0
  0
LINE
  5
D9
102
{ACAD_REACTORS
330
1B1
330
1B2
102
}
330
47
100
AcDbEntity
  8
0
  6
Continuous
 62
     2
100
AcDbLine
 10
-50.0447534564255
 20
9.28350858553173
 30
0.0
 11
-48.74222382565898
 21
10.75645911556794
 31
0.0
  0
LINE
  5
DA
102
{ACAD_REACTORS
330
1B1
330
1B2
102
}
330
47
100
AcDbEntity
  8
0
  6
Continuous
 62
     2
100
AcDbLine
 10
-50.0447534564255
 20
9.28350858553173
 30
0.0
 11
-48.6468004094852
 21
7.70264959175674
 31
0.0
  0
LINE
  5
DB
102
{ACAD_REACTORS
330
1B1
330
1B2
102
}
330
47
100
AcDbEntity
  8
0
  6
Continuous
 62
     2
100
AcDbLine
 10
-50.0495246272335
 20
7.70264959175674
 30
0.0
 11
-48.6468004094852
 21
7.70264959175674
 31
0.0
  0
LINE
  5
DC
102
{ACAD_REACTORS
330
1B1
330
1B2
102
}
330
47
100
AcDbEntity
  8
0
  6
Continuous
 62
     2
100
AcDbLine
 10
-50.74611556529899
 20
8.49038137705045
 30
0.0
 11
-50.0495246272335
 21
7.70264959175674
 31
0.0
  0
LINE
  5
DD
102
{ACAD_REACTORS
330
1AF
330
1B0
102
}
330
47
100
AcDbEntity
  8
0
  6
Continuous
 62
     2
100
AcDbLine
 10
-54.20521440158268
 20
10.75645911556794
 30
0.0
 11
-52.96470999132978
 21
10.75645911556794
 31
0.0
  0
LINE
  5
DE
102
{ACAD_REACTORS
330
1AF
330
1B0
102
}
330
47
100
AcDbEntity
  8
0
  6
Continuous
 62
     2
100
AcDbLine
 10
-52.96470999132978
 20
10.75645911556794
 30
0.0
 11
-52.96470999132978
 21
7.70264959175674
 31
0.0
  0
LINE
  5
DF
102
{ACAD_REACTORS
330
1AF
330
1B0
102
}
330
47
100
AcDbEntity
  8
0
  6
Continuous
 62
     2
100
AcDbLine
 10
-54.20521440158268
 20
7.70264959175674
 30
0.0
 11
-54.20521440158268
 21
10.75645911556794
 31
0.0
  0
LINE
  5
E0
102
{ACAD_REACTORS
330
1AD
330
1AE
102
}
330
47
100
AcDbEntity
  8
0
  6
Continuous
 62
     2
100
AcDbLine
 10
-55.67352448412029
 20
5.56498292510693
 30
0.0
 11
-55.37335924692789
 21
6.33279789109363
 31
0.0
  0
LINE
  5
E1
102
{ACAD_REACTORS
330
1AD
330
1AE
102
}
330
47
100
AcDbEntity
  8
0
  6
Continuous
 62
     2
100
AcDbLine
 10
-56.1510600887411
 20
4.34345911558245
 30
0.0
 11
-55.93958003526529
 21
4.88441965980033
 31
0.0
  0
LINE
  5
E2
102
{ACAD_REACTORS
330
1AD
330
1AE
102
}
330
47
100
AcDbEntity
  8
0
  6
Continuous
 62
     2
100
AcDbLine
 10
-55.99361145205478
 20
7.39726863939353
 30
0.0
 11
-57.39156449899409
 21
4.34345911558245
 31
0.0
  0
LINE
  5
E3
102
{ACAD_REACTORS
330
1AD
330
1AE
102
}
330
47
100
AcDbEntity
  8
0
  6
Continuous
 62
     2
100
AcDbLine
 10
-53.35515399486178
 20
4.34345911558245
 30
0.0
 11
-54.5956584051157
 21
4.34345911558245
 31
0.0
  0
LINE
  5
E4
102
{ACAD_REACTORS
330
1AD
330
1AE
102
}
330
47
100
AcDbEntity
  8
0
  6
Continuous
 62
     2
100
AcDbLine
 10
-55.93958003526529
 20
4.88441965980033
 30
0.0
 11
-54.80713845859148
 21
4.88441965980033
 31
0.0
  0
LINE
  5
E5
102
{ACAD_REACTORS
330
1AB
330
1AC
102
}
330
47
100
AcDbEntity
  8
0
  6
Continuous
 62
     2
100
AcDbLine
 10
-59.5490766381763
 20
6.61200333326994
 30
0.0
 11
-58.7379776007017
 21
6.61200333326994
 31
0.0
  0
LINE
  5
E6
102
{ACAD_REACTORS
330
1AB
330
1AC
102
}
330
47
100
AcDbEntity
  8
0
  6
Continuous
 62
     2
100
AcDbLine
 10
-56.73408586106268
 20
7.39726863939353
 30
0.0
 11
-59.5490766381763
 21
7.39726863939353
 31
0.0
  0
LINE
  5
E7
102
{ACAD_REACTORS
330
1AB
330
1AC
102
}
330
47
100
AcDbEntity
  8
0
  6
Continuous
 62
     2
100
AcDbLine
 10
-56.73408586106268
 20
6.61200333326994
 30
0.0
 11
-56.73408586106268
 21
7.39726863939353
 31
0.0
  0
LINE
  5
E8
102
{ACAD_REACTORS
330
1AB
330
1AC
102
}
330
47
100
AcDbEntity
  8
0
  6
Continuous
 62
     2
100
AcDbLine
 10
-57.54518489853518
 20
6.61200333326994
 30
0.0
 11
-56.73408586106268
 21
6.61200333326994
 31
0.0
  0
LINE
  5
E9
102
{ACAD_REACTORS
330
1AB
330
1AC
102
}
330
47
100
AcDbEntity
  8
0
  6
Continuous
 62
     2
100
AcDbLine
 10
-57.54518489853518
 20
4.34345911558245
 30
0.0
 11
-57.54518489853518
 21
6.61200333326994
 31
0.0
  0
LINE
  5
EA
102
{ACAD_REACTORS
330
1A9
330
1AA
102
}
330
47
100
AcDbEntity
  8
0
  6
Continuous
 62
     2
100
AcDbLine
 10
-56.87707005443718
 20
7.70264959175674
 30
0.0
 11
-56.87707005443718
 21
9.01142510196144
 31
0.0
  0
LINE
  5
EB
102
{ACAD_REACTORS
330
1A9
330
1AA
102
}
330
47
100
AcDbEntity
  8
0
  6
Continuous
 62
     2
100
AcDbLine
 10
-58.0698627566037
 20
10.75645911556794
 30
0.0
 11
-58.0698627566037
 21
7.70264959175674
 31
0.0
  0
LINE
  5
EC
102
{ACAD_REACTORS
330
1A9
330
1AA
102
}
330
47
100
AcDbEntity
  8
0
  6
Continuous
 62
     2
100
AcDbLine
 10
-56.87707005443718
 20
10.75645911556794
 30
0.0
 11
-58.0698627566037
 21
10.75645911556794
 31
0.0
  0
LINE
  5
ED
102
{ACAD_REACTORS
330
1A9
330
1AA
102
}
330
47
100
AcDbEntity
  8
0
  6
Continuous
 62
     2
100
AcDbLine
 10
-55.63656564418318
 20
10.75645911556794
 30
0.0
 11
-55.63656564418318
 21
9.44768360536276
 31
0.0
  0
LINE
  5
EE
102
{ACAD_REACTORS
330
1A7
330
1A8
102
}
330
47
100
AcDbEntity
  8
0
  6
Continuous
 62
     2
100
AcDbLine
 10
-63.31830157702339
 20
7.39726863939353
 30
0.0
 11
-63.31830157702339
 21
4.34345911558245
 31
0.0
  0
LINE
  5
EF
102
{ACAD_REACTORS
330
1A7
330
1A8
102
}
330
47
100
AcDbEntity
  8
0
  6
Continuous
 62
     2
100
AcDbLine
 10
-62.1255088748558
 20
7.39726863939353
 30
0.0
 11
-63.31830157702339
 21
7.39726863939353
 31
0.0
  0
LINE
  5
F0
102
{ACAD_REACTORS
330
1A7
330
1A8
102
}
330
47
100
AcDbEntity
  8
0
  6
Continuous
 62
     2
100
AcDbLine
 10
-60.8850044646029
 20
4.34345911558245
 30
0.0
 11
-59.6922117624365
 21
4.34345911558245
 31
0.0
  0
LINE
  5
F1
102
{ACAD_REACTORS
330
1A7
330
1A8
102
}
330
47
100
AcDbEntity
  8
0
  6
Continuous
 62
     2
100
AcDbLine
 10
-63.31830157702339
 20
4.34345911558245
 30
0.0
 11
-62.1255088748558
 21
4.34345911558245
 31
0.0
  0
LINE
  5
F2
102
{ACAD_REACTORS
330
1B7
330
1B8
102
}
330
47
100
AcDbEntity
  8
0
  6
Continuous
 62
     2
100
AcDbLine
 10
-59.64434912346428
 20
9.57856115638324
 30
0.0
 11
-59.64434912346428
 21
10.05844551012496
 31
0.0
  0
LINE
  5
F3
102
{ACAD_REACTORS
330
1B7
330
1B8
102
}
330
47
100
AcDbEntity
  8
0
  6
Continuous
 62
     2
100
AcDbLine
 10
-58.3084212970366
 20
9.57856115638324
 30
0.0
 11
-59.64434912346428
 21
9.57856115638324
 31
0.0
  0
LINE
  5
F4
102
{ACAD_REACTORS
330
1B7
330
1B8
102
}
330
47
100
AcDbEntity
  8
0
  6
Continuous
 62
     2
100
AcDbLine
 10
-58.3084212970366
 20
8.88054755094095
 30
0.0
 11
-58.3084212970366
 21
9.57856115638324
 31
0.0
  0
LINE
  5
F5
102
{ACAD_REACTORS
330
1B7
330
1B8
102
}
330
47
100
AcDbEntity
  8
0
  6
Continuous
 62
     2
100
AcDbLine
 10
-59.64434912346428
 20
8.88054755094095
 30
0.0
 11
-58.3084212970366
 21
8.88054755094095
 31
0.0
  0
LINE
  5
F6
102
{ACAD_REACTORS
330
1A5
330
1A6
102
}
330
47
100
AcDbEntity
  8
0
  6
Continuous
 62
     2
100
AcDbLine
 10
-63.1273038137912
 20
10.75645911556794
 30
0.0
 11
-63.1273038137912
 21
7.70264959175674
 31
0.0
  0
LINE
  5
F7
102
{ACAD_REACTORS
330
1A5
330
1A6
102
}
330
47
100
AcDbEntity
  8
0
  6
Continuous
 62
     2
100
AcDbLine
 10
-63.1273038137912
 20
7.70264959175674
 30
0.0
 11
-64.3200965159576
 21
7.70264959175674
 31
0.0
  0
LINE
  5
F8
102
{ACAD_REACTORS
330
1A5
330
1A6
102
}
330
47
100
AcDbEntity
  8
0
  6
Continuous
 62
     2
100
AcDbLine
 10
-64.3200965159576
 20
7.70264959175674
 30
0.0
 11
-64.3200965159576
 21
8.83692170060056
 31
0.0
  0
LINE
  5
F9
102
{ACAD_REACTORS
330
1A5
330
1A6
102
}
330
47
100
AcDbEntity
  8
0
  6
Continuous
 62
     2
100
AcDbLine
 10
-65.36975409386508
 20
7.70264959175674
 30
0.0
 11
-66.56254679603168
 21
7.70264959175674
 31
0.0
  0
LINE
  5
FA
102
{ACAD_REACTORS
330
1A5
330
1A6
102
}
330
47
100
AcDbEntity
  8
0
  6
Continuous
 62
     2
100
AcDbLine
 10
-66.56254679603168
 20
10.75645911556794
 30
0.0
 11
-65.36975409386508
 21
10.75645911556794
 31
0.0
  0
LINE
  5
FB
102
{ACAD_REACTORS
330
1A5
330
1A6
102
}
330
47
100
AcDbEntity
  8
0
  6
Continuous
 62
     2
100
AcDbLine
 10
-65.36975409386508
 20
10.75645911556794
 30
0.0
 11
-65.36975409386508
 21
9.68762578223334
 31
0.0
  0
LINE
  5
FC
102
{ACAD_REACTORS
330
1A5
330
1A6
102
}
330
47
100
AcDbEntity
  8
0
  6
Continuous
 62
     2
100
AcDbLine
 10
-65.36975409386508
 20
9.68762578223334
 30
0.0
 11
-64.3200965159576
 21
9.68762578223334
 31
0.0
  0
LINE
  5
FD
102
{ACAD_REACTORS
330
1B3
330
1B4
102
}
330
47
100
AcDbEntity
  8
0
  6
Continuous
 62
     2
100
AcDbLine
 10
-68.51872682758528
 20
10.09335327012784
 30
0.0
 11
-68.20143176604338
 21
10.09335327012784
 31
0.0
  0
LINE
  5
FE
102
{ACAD_REACTORS
330
1B3
330
1B4
102
}
330
47
100
AcDbEntity
  8
0
  6
Continuous
 62
     2
100
AcDbLine
 10
-68.51872682758528
 20
9.38762562078563
 30
0.0
 11
-68.20143176604338
 21
9.38762562078563
 31
0.0
  0
LINE
  5
FF
102
{ACAD_REACTORS
330
1B3
330
1B4
102
}
330
47
100
AcDbEntity
  8
0
  6
Continuous
 62
     2
100
AcDbLine
 10
-69.7592312378394
 20
10.75645911556794
 30
0.0
 11
-69.7592312378394
 21
7.70264959175674
 31
0.0
  0
LINE
  5
100
102
{ACAD_REACTORS
330
1B3
330
1B4
102
}
330
47
100
AcDbEntity
  8
0
  6
Continuous
 62
     2
100
AcDbLine
 10
-69.7592312378394
 20
10.75645911556794
 30
0.0
 11
-67.759959239805
 21
10.75645911556794
 31
0.0
  0
LINE
  5
101
102
{ACAD_REACTORS
330
1B3
330
1B4
102
}
330
47
100
AcDbEntity
  8
0
  6
Continuous
 62
     2
100
AcDbLine
 10
-68.51872682758528
 20
8.64572783290055
 30
0.0
 11
-67.759959239805
 21
8.64572783290055
 31
0.0
  0
LINE
  5
102
102
{ACAD_REACTORS
330
1B9
330
1BA
102
}
330
47
100
AcDbEntity
  8
0
  6
Continuous
 62
     2
100
AcDbLine
 10
-75.85572727113609
 20
9.72818663693315
 30
0.0
 11
-75.85572727113609
 21
5.37173159421604
 31
0.0
  0
LINE
  5
103
102
{ACAD_REACTORS
330
1B9
330
1BA
102
}
330
47
100
AcDbEntity
  8
0
  6
Continuous
 62
     2
100
AcDbLine
 10
-75.5400103480604
 20
10.04390356000934
 30
0.0
 11
-74.06417708705078
 21
10.04390356000934
 31
0.0
  0
LINE
  5
104
102
{ACAD_REACTORS
330
1B9
330
1BA
102
}
330
47
100
AcDbEntity
  8
0
  6
Continuous
 62
     2
100
AcDbLine
 10
-73.74846016397419
 20
9.12416201787264
 30
0.0
 11
-73.74846016397419
 21
9.72818663693315
 31
0.0
  0
LINE
  5
105
102
{ACAD_REACTORS
330
1B9
330
1BA
102
}
330
47
100
AcDbEntity
  8
0
  6
Continuous
 62
     2
100
AcDbLine
 10
-73.74846016397419
 20
5.37173159421604
 30
0.0
 11
-73.74846016397419
 21
6.90250252574765
 31
0.0
  0
LINE
  5
106
102
{ACAD_REACTORS
330
1B9
330
1BA
102
}
330
47
100
AcDbEntity
  8
0
  6
Continuous
 62
     2
100
AcDbLine
 10
-70.66059293409009
 20
4.34345911558245
 30
0.0
 11
-76.1339050248069
 21
4.34345911558245
 31
0.0
  0
LINE
  5
107
102
{ACAD_REACTORS
330
1B9
330
1BA
102
}
330
47
100
AcDbEntity
  8
0
  6
Continuous
 62
     2
100
AcDbLine
 10
-70.2363483187062
 20
10.33221450016595
 30
0.0
 11
-70.2363483187062
 21
4.76770373096574
 31
0.0
  0
LINE
  5
108
102
{ACAD_REACTORS
330
1B9
330
1BA
102
}
330
47
100
AcDbEntity
  8
0
  6
Continuous
 62
     2
100
AcDbLine
 10
-76.1339050248069
 20
10.75645911554975
 30
0.0
 11
-70.66059293409009
 21
10.75645911554975
 31
0.0
  0
LINE
  5
109
102
{ACAD_REACTORS
330
1B9
330
1BA
102
}
330
47
100
AcDbEntity
  8
0
  6
Continuous
 62
     2
100
AcDbLine
 10
-76.5581496401897
 20
10.33221450016595
 30
0.0
 11
-76.5581496401897
 21
4.76770373096574
 31
0.0
  0
LINE
  5
10A
102
{ACAD_REACTORS
330
1B9
330
1BA
102
}
330
47
100
AcDbEntity
  8
0
  6
Continuous
 62
     2
100
AcDbLine
 10
-74.06417708705078
 20
5.05601467113934
 30
0.0
 11
-75.5400103480604
 21
5.05601467113934
 31
0.0
  0
LINE
  5
10B
102
{ACAD_REACTORS
330
1B3
330
1B4
102
}
330
47
100
AcDbEntity
  8
0
  6
Continuous
 62
     2
100
AcDbLine
 10
-68.51872682758528
 20
7.70264959175674
 30
0.0
 11
-68.51872682758528
 21
8.64572783290055
 31
0.0
  0
LINE
  5
10C
102
{ACAD_REACTORS
330
1B3
330
1B4
102
}
330
47
100
AcDbEntity
  8
0
  6
Continuous
 62
     2
100
AcDbLine
 10
-69.7592312378394
 20
7.70264959175674
 30
0.0
 11
-68.51872682758528
 21
7.70264959175674
 31
0.0
  0
LINE
  5
10D
102
{ACAD_REACTORS
330
1B3
330
1B4
102
}
330
47
100
AcDbEntity
  8
0
  6
Continuous
 62
     2
100
AcDbLine
 10
-68.51872682758528
 20
9.38762562078563
 30
0.0
 11
-68.51872682758528
 21
10.09335327012784
 31
0.0
  0
LINE
  5
10E
102
{ACAD_REACTORS
330
1A5
330
1A6
102
}
330
47
100
AcDbEntity
  8
0
  6
Continuous
 62
     2
100
AcDbLine
 10
-66.56254679603168
 20
10.75645911556794
 30
0.0
 11
-66.56254679603168
 21
7.70264959175674
 31
0.0
  0
LINE
  5
10F
102
{ACAD_REACTORS
330
1A5
330
1A6
102
}
330
47
100
AcDbEntity
  8
0
  6
Continuous
 62
     2
100
AcDbLine
 10
-65.36975409386508
 20
8.83692170060056
 30
0.0
 11
-65.36975409386508
 21
7.70264959175674
 31
0.0
  0
LINE
  5
110
102
{ACAD_REACTORS
330
1A5
330
1A6
102
}
330
47
100
AcDbEntity
  8
0
  6
Continuous
 62
     2
100
AcDbLine
 10
-64.3200965159576
 20
8.83692170060056
 30
0.0
 11
-65.36975409386508
 21
8.83692170060056
 31
0.0
  0
LINE
  5
111
102
{ACAD_REACTORS
330
1A5
330
1A6
102
}
330
47
100
AcDbEntity
  8
0
  6
Continuous
 62
     2
100
AcDbLine
 10
-64.3200965159576
 20
10.75645911556794
 30
0.0
 11
-63.1273038137912
 21
10.75645911556794
 31
0.0
  0
LINE
  5
112
102
{ACAD_REACTORS
330
1A5
330
1A6
102
}
330
47
100
AcDbEntity
  8
0
  6
Continuous
 62
     2
100
AcDbLine
 10
-64.3200965159576
 20
9.68762578223334
 30
0.0
 11
-64.3200965159576
 21
10.75645911556794
 31
0.0
  0
LINE
  5
113
102
{ACAD_REACTORS
330
1B7
330
1B8
102
}
330
47
100
AcDbEntity
  8
0
  6
Continuous
 62
     2
100
AcDbLine
 10
-58.3084212970366
 20
10.05844551012496
 30
0.0
 11
-58.3084212970366
 21
10.75645911556794
 31
0.0
  0
LINE
  5
114
102
{ACAD_REACTORS
330
1B7
330
1B8
102
}
330
47
100
AcDbEntity
  8
0
  6
Continuous
 62
     2
100
AcDbLine
 10
-61.4587410208176
 20
10.75645911556794
 30
0.0
 11
-58.3084212970366
 21
10.75645911556794
 31
0.0
  0
LINE
  5
115
102
{ACAD_REACTORS
330
1B7
330
1B8
102
}
330
47
100
AcDbEntity
  8
0
  6
Continuous
 62
     2
100
AcDbLine
 10
-61.4587410208176
 20
7.70264959175674
 30
0.0
 11
-58.3084212970366
 21
7.70264959175674
 31
0.0
  0
LINE
  5
116
102
{ACAD_REACTORS
330
1B7
330
1B8
102
}
330
47
100
AcDbEntity
  8
0
  6
Continuous
 62
     2
100
AcDbLine
 10
-58.3084212970366
 20
7.70264959175674
 30
0.0
 11
-58.3084212970366
 21
8.40066319719924
 31
0.0
  0
LINE
  5
117
102
{ACAD_REACTORS
330
1B7
330
1B8
102
}
330
47
100
AcDbEntity
  8
0
  6
Continuous
 62
     2
100
AcDbLine
 10
-58.3084212970366
 20
8.40066319719924
 30
0.0
 11
-59.64434912346428
 21
8.40066319719924
 31
0.0
  0
LINE
  5
118
102
{ACAD_REACTORS
330
1B7
330
1B8
102
}
330
47
100
AcDbEntity
  8
0
  6
Continuous
 62
     2
100
AcDbLine
 10
-59.64434912346428
 20
8.40066319719924
 30
0.0
 11
-59.64434912346428
 21
8.88054755094095
 31
0.0
  0
LINE
  5
119
102
{ACAD_REACTORS
330
1B7
330
1B8
102
}
330
47
100
AcDbEntity
  8
0
  6
Continuous
 62
     2
100
AcDbLine
 10
-59.64434912346428
 20
10.05844551012496
 30
0.0
 11
-58.3084212970366
 21
10.05844551012496
 31
0.0
  0
LINE
  5
11A
102
{ACAD_REACTORS
330
1A7
330
1A8
102
}
330
47
100
AcDbEntity
  8
0
  6
Continuous
 62
     2
100
AcDbLine
 10
-62.1255088748558
 20
4.34345911558245
 30
0.0
 11
-62.1255088748558
 21
5.65223462578703
 31
0.0
  0
LINE
  5
11B
102
{ACAD_REACTORS
330
1A7
330
1A8
102
}
330
47
100
AcDbEntity
  8
0
  6
Continuous
 62
     2
100
AcDbLine
 10
-62.1255088748558
 20
5.65223462578703
 30
0.0
 11
-60.8850044646029
 21
4.34345911558245
 31
0.0
  0
LINE
  5
11C
102
{ACAD_REACTORS
330
1A7
330
1A8
102
}
330
47
100
AcDbEntity
  8
0
  6
Continuous
 62
     2
100
AcDbLine
 10
-59.6922117624365
 20
4.34345911558245
 30
0.0
 11
-59.6922117624365
 21
7.39726863939353
 31
0.0
  0
LINE
  5
11D
102
{ACAD_REACTORS
330
1A7
330
1A8
102
}
330
47
100
AcDbEntity
  8
0
  6
Continuous
 62
     2
100
AcDbLine
 10
-59.6922117624365
 20
7.39726863939353
 30
0.0
 11
-60.8850044646029
 21
7.39726863939353
 31
0.0
  0
LINE
  5
11E
102
{ACAD_REACTORS
330
1A7
330
1A8
102
}
330
47
100
AcDbEntity
  8
0
  6
Continuous
 62
     2
100
AcDbLine
 10
-60.8850044646029
 20
7.39726863939353
 30
0.0
 11
-60.8850044646029
 21
6.08849312918844
 31
0.0
  0
LINE
  5
11F
102
{ACAD_REACTORS
330
1A7
330
1A8
102
}
330
47
100
AcDbEntity
  8
0
  6
Continuous
 62
     2
100
AcDbLine
 10
-60.8850044646029
 20
6.08849312918844
 30
0.0
 11
-62.1255088748558
 21
7.39726863939353
 31
0.0
  0
LINE
  5
120
102
{ACAD_REACTORS
330
1A9
330
1AA
102
}
330
47
100
AcDbEntity
  8
0
  6
Continuous
 62
     2
100
AcDbLine
 10
-56.87707005443718
 20
9.01142510196144
 30
0.0
 11
-55.63656564418318
 21
7.70264959175674
 31
0.0
  0
LINE
  5
121
102
{ACAD_REACTORS
330
1A9
330
1AA
102
}
330
47
100
AcDbEntity
  8
0
  6
Continuous
 62
     2
100
AcDbLine
 10
-55.63656564418318
 20
7.70264959175674
 30
0.0
 11
-54.44377294201658
 21
7.70264959175674
 31
0.0
  0
LINE
  5
122
102
{ACAD_REACTORS
330
1A9
330
1AA
102
}
330
47
100
AcDbEntity
  8
0
  6
Continuous
 62
     2
100
AcDbLine
 10
-54.44377294201658
 20
7.70264959175674
 30
0.0
 11
-54.44377294201658
 21
10.75645911556794
 31
0.0
  0
LINE
  5
123
102
{ACAD_REACTORS
330
1A9
330
1AA
102
}
330
47
100
AcDbEntity
  8
0
  6
Continuous
 62
     2
100
AcDbLine
 10
-54.44377294201658
 20
10.75645911556794
 30
0.0
 11
-55.63656564418318
 21
10.75645911556794
 31
0.0
  0
LINE
  5
124
102
{ACAD_REACTORS
330
1A9
330
1AA
102
}
330
47
100
AcDbEntity
  8
0
  6
Continuous
 62
     2
100
AcDbLine
 10
-55.63656564418318
 20
9.44768360536276
 30
0.0
 11
-56.87707005443718
 21
10.75645911556794
 31
0.0
  0
LINE
  5
125
102
{ACAD_REACTORS
330
1A9
330
1AA
102
}
330
47
100
AcDbEntity
  8
0
  6
Continuous
 62
     2
100
AcDbLine
 10
-58.0698627566037
 20
7.70264959175674
 30
0.0
 11
-56.87707005443718
 21
7.70264959175674
 31
0.0
  0
LINE
  5
126
102
{ACAD_REACTORS
330
1AB
330
1AC
102
}
330
47
100
AcDbEntity
  8
0
  6
Continuous
 62
     2
100
AcDbLine
 10
-59.5490766381763
 20
7.39726863939353
 30
0.0
 11
-59.5490766381763
 21
6.61200333326994
 31
0.0
  0
LINE
  5
127
102
{ACAD_REACTORS
330
1AB
330
1AC
102
}
330
47
100
AcDbEntity
  8
0
  6
Continuous
 62
     2
100
AcDbLine
 10
-58.7379776007017
 20
6.61200333326994
 30
0.0
 11
-58.7379776007017
 21
4.34345911558245
 31
0.0
  0
LINE
  5
128
102
{ACAD_REACTORS
330
1AB
330
1AC
102
}
330
47
100
AcDbEntity
  8
0
  6
Continuous
 62
     2
100
AcDbLine
 10
-58.7379776007017
 20
4.34345911558245
 30
0.0
 11
-57.54518489853518
 21
4.34345911558245
 31
0.0
  0
LINE
  5
129
102
{ACAD_REACTORS
330
1AD
330
1AE
102
}
330
47
100
AcDbEntity
  8
0
  6
Continuous
 62
     2
100
AcDbLine
 10
-54.5956584051157
 20
4.34345911558245
 30
0.0
 11
-54.80713845859148
 21
4.88441965980033
 31
0.0
  0
LINE
  5
12A
102
{ACAD_REACTORS
330
1AD
330
1AE
102
}
330
47
100
AcDbEntity
  8
0
  6
Continuous
 62
     2
100
AcDbLine
 10
-54.75310704180208
 20
7.39726863939353
 30
0.0
 11
-53.35515399486178
 21
4.34345911558245
 31
0.0
  0
LINE
  5
12B
102
{ACAD_REACTORS
330
1AD
330
1AE
102
}
330
47
100
AcDbEntity
  8
0
  6
Continuous
 62
     2
100
AcDbLine
 10
-55.99361145205478
 20
7.39726863939353
 30
0.0
 11
-54.75310704180208
 21
7.39726863939353
 31
0.0
  0
LINE
  5
12C
102
{ACAD_REACTORS
330
1AD
330
1AE
102
}
330
47
100
AcDbEntity
  8
0
  6
Continuous
 62
     2
100
AcDbLine
 10
-57.39156449899409
 20
4.34345911558245
 30
0.0
 11
-56.1510600887411
 21
4.34345911558245
 31
0.0
  0
LINE
  5
12D
102
{ACAD_REACTORS
330
1AD
330
1AE
102
}
330
47
100
AcDbEntity
  8
0
  6
Continuous
 62
     2
100
AcDbLine
 10
-55.67352448412029
 20
5.56498292510693
 30
0.0
 11
-55.07319400973779
 21
5.56498292510693
 31
0.0
  0
LINE
  5
12E
102
{ACAD_REACTORS
330
1AD
330
1AE
102
}
330
47
100
AcDbEntity
  8
0
  6
Continuous
 62
     2
100
AcDbLine
 10
-55.07319400973779
 20
5.56498292510693
 30
0.0
 11
-55.37335924692789
 21
6.33279789109363
 31
0.0
  0
LINE
  5
12F
102
{ACAD_REACTORS
330
1AF
330
1B0
102
}
330
47
100
AcDbEntity
  8
0
  6
Continuous
 62
     2
100
AcDbLine
 10
-52.96470999132978
 20
7.70264959175674
 30
0.0
 11
-54.20521440158268
 21
7.70264959175674
 31
0.0
  0
LINE
  5
130
102
{ACAD_REACTORS
330
1B1
330
1B2
102
}
330
47
100
AcDbEntity
  8
0
  6
Continuous
 62
     2
100
AcDbLine
 10
-51.44270650336469
 20
7.70264959175674
 30
0.0
 11
-52.84543072111291
 21
7.70264959175674
 31
0.0
  0
LINE
  5
131
102
{ACAD_REACTORS
330
1B1
330
1B2
102
}
330
47
100
AcDbEntity
  8
0
  6
Continuous
 62
     2
100
AcDbLine
 10
-51.44270650336469
 20
7.70264959175674
 30
0.0
 11
-50.74611556529899
 21
8.49038137705045
 31
0.0
  0
LINE
  5
132
102
{ACAD_REACTORS
330
1B1
330
1B2
102
}
330
47
100
AcDbEntity
  8
0
  6
Continuous
 62
     2
100
AcDbLine
 10
-50.1449480434062
 20
10.75645911556794
 30
0.0
 11
-48.74222382565898
 21
10.75645911556794
 31
0.0
  0
LINE
  5
133
102
{ACAD_REACTORS
330
1B1
330
1B2
102
}
330
47
100
AcDbEntity
  8
0
  6
Continuous
 62
     2
100
AcDbLine
 10
-52.75000730494008
 20
10.75645911556794
 30
0.0
 11
-51.4474776741726
 21
9.28350858553173
 31
0.0
  0
LINE
  5
134
102
{ACAD_REACTORS
330
1B1
330
1B2
102
}
330
47
100
AcDbEntity
  8
0
  6
Continuous
 62
     2
100
AcDbLine
 10
-52.84543072111291
 20
7.70264959175674
 30
0.0
 11
-51.4474776741726
 21
9.28350858553173
 31
0.0
  0
LINE
  5
135
102
{ACAD_REACTORS
330
1BB
330
1BC
102
}
330
47
100
AcDbEntity
  8
0
  6
Continuous
 62
     2
100
AcDbLine
 10
-50.98467410573298
 20
5.39047952374605
 30
0.0
 11
-50.98467410573298
 21
4.51796251694273
 31
0.0
  0
LINE
  5
136
102
{ACAD_REACTORS
330
1BB
330
1BC
102
}
330
47
100
AcDbEntity
  8
0
  6
Continuous
 62
     2
100
AcDbLine
 10
-51.75433144869439
 20
6.61200333326994
 30
0.0
 11
-50.65069214912629
 21
6.61200333326994
 31
0.0
  0
LINE
  5
137
102
{ACAD_REACTORS
330
1BD
330
1BE
102
}
330
47
100
AcDbEntity
  8
0
  6
Continuous
 62
     2
100
AcDbLine
 10
-67.0873755849849
 20
5.39047952374654
 30
0.0
 11
-67.0873755849849
 21
4.51796251694333
 31
0.0
  0
LINE
  5
138
102
{ACAD_REACTORS
330
1BD
330
1BE
102
}
330
47
100
AcDbEntity
  8
0
  6
Continuous
 62
     2
100
AcDbLine
 10
-67.0873755849849
 20
6.35024823122944
 30
0.0
 11
-67.0873755849849
 21
7.22276523803274
 31
0.0
  0
LINE
  5
139
330
47
100
AcDbEntity
  8
1
  6
Continuous
 62
     7
100
AcDbLine
 10
48.74999999999901
 20
5.54995911556614
 30
0.0
 11
-44.39480452675238
 21
5.54995911556614
 31
0.0
  0
LINE
  5
13A
330
47
100
AcDbEntity
  8
1
  6
Continuous
 62
     6
100
AcDbLine
 10
-149.7948045267523
 20
-2.95004088443386
 30
0.0
 11
-194.7500000000023
 21
-2.95004088443386
 31
0.0
  0
LINE
  5
13B
330
47
100
AcDbEntity
  8
1
  6
Continuous
 62
     7
100
AcDbLine
 10
39.8315917183202
 20
22.54995911556614
 30
0.0
 11
39.8315917183202
 21
14.04995911556614
 31
0.0
  0
LINE
  5
13C
330
47
100
AcDbEntity
  8
1
  6
Continuous
 62
     7
100
AcDbLine
 10
13.3315917183206
 20
22.54995911556614
 30
0.0
 11
13.3315917183206
 21
14.04995911556614
 31
0.0
  0
LINE
  5
13D
330
47
100
AcDbEntity
  8
1
  6
Continuous
 62
     7
100
AcDbLine
 10
-44.39480452675238
 20
14.04995911556614
 30
0.0
 11
-44.39480452675238
 21
22.54995911556614
 31
0.0
  0
LINE
  5
13E
330
47
100
AcDbEntity
  8
1
  6
Continuous
 62
     7
100
AcDbLine
 10
-80.7948045267523
 20
14.04995911556614
 30
0.0
 11
-80.7948045267523
 21
22.54995911556614
 31
0.0
  0
LINE
  5
13F
330
47
100
AcDbEntity
  8
1
  6
Continuous
 62
     6
100
AcDbLine
 10
-44.39480452675238
 20
14.04995911556614
 30
0.0
 11
48.7499999999994
 21
14.04995911556614
 31
0.0
  0
LINE
  5
140
330
47
100
AcDbEntity
  8
1
  6
Continuous
 62
     7
100
AcDbLine
 10
-16.49480452675229
 20
5.54995911556605
 30
0.0
 11
-16.49480452675229
 21
14.04995911556614
 31
0.0
  0
LINE
  5
141
330
47
100
AcDbEntity
  8
1
  6
PHANTOM
 62
     2
100
AcDbLine
 10
-65.3081496401897
 20
18.17495911556605
 30
0.0
 11
-70.8081496401897
 21
18.17495911556605
 31
0.0
  0
LINE
  5
142
330
47
100
AcDbEntity
  8
1
  6
PHANTOM
 62
     2
100
AcDbLine
 10
-68.0581496401897
 20
20.92495911556605
 30
0.0
 11
-68.0581496401897
 21
15.42495911556605
 31
0.0
  0
LINE
  5
143
330
47
100
AcDbEntity
  8
1
  6
DOT_CENTER
 62
     2
100
AcDbLine
 10
-76.8081496401897
 20
18.17495911556605
 30
0.0
 11
-71.3081496401897
 21
18.17495911556605
 31
0.0
  0
ARC
  5
144
102
{ACAD_REACTORS
330
1BD
330
1BE
102
}
330
47
100
AcDbEntity
  8
0
  6
Continuous
 62
     2
100
AcDbCircle
 10
-68.4233035021027
 20
2.55768293223184
 30
0.0
 40
4.852596863498068
100
AcDbArc
 50
74.02000874164739
 51
84.84185523037506
  0
ARC
  5
145
102
{ACAD_REACTORS
330
1BD
330
1BE
102
}
330
47
100
AcDbEntity
  8
0
  6
Continuous
 62
     2
100
AcDbCircle
 10
-67.84726289334898
 20
5.71344328811614
 30
0.0
 40
0.9059297849853228
100
AcDbArc
 50
71.55192388185348
 51
113.372277888129
  0
ARC
  5
146
102
{ACAD_REACTORS
330
1BD
330
1BE
102
}
330
47
100
AcDbEntity
  8
0
  6
Continuous
 62
     2
100
AcDbCircle
 10
-68.003702926051
 20
5.66529244814924
 30
0.0
 40
0.5115800601948034
100
AcDbArc
 50
208.5214732576956
 51
246.6277221118274
  0
ARC
  5
147
102
{ACAD_REACTORS
330
1BD
330
1BE
102
}
330
47
100
AcDbEntity
  8
0
  6
Continuous
 62
     2
100
AcDbCircle
 10
-67.84726289334898
 20
6.02728446685924
 30
0.0
 40
0.9059297849849192
100
AcDbArc
 50
246.627722111871
 51
288.4480761181584
  0
ARC
  5
148
102
{ACAD_REACTORS
330
1BD
330
1BE
102
}
330
47
100
AcDbEntity
  8
0
  6
Continuous
 62
     2
100
AcDbCircle
 10
-68.26543062700978
 20
7.28083024289643
 30
0.0
 40
2.227384008972737
100
AcDbArc
 50
288.4480761181328
 51
301.9309089499593
  0
ARC
  5
149
102
{ACAD_REACTORS
330
1B9
330
1BA
102
}
330
47
100
AcDbEntity
  8
0
  6
Continuous
 62
     2
100
AcDbCircle
 10
-73.49050435961658
 20
8.01333227181044
 30
0.0
 40
0.911848150144459
100
AcDbArc
 50
295.3740086781764
 51
64.62599132180748
  0
ARC
  5
14A
102
{ACAD_REACTORS
330
1B9
330
1BA
102
}
330
47
100
AcDbEntity
  8
0
  6
Continuous
 62
     2
100
AcDbCircle
 10
-72.9644616615287
 20
9.72800916028504
 30
0.0
 40
0.3157169230760729
100
AcDbArc
 50
90.18896704254594
 51
180.0
  0
ARC
  5
14B
102
{ACAD_REACTORS
330
1BB
330
1BC
102
}
330
47
100
AcDbEntity
  8
0
  6
Continuous
 62
     2
100
AcDbCircle
 10
-51.75433144869439
 20
5.65748032644385
 30
0.0
 40
0.9545230068260935
100
AcDbArc
 50
90.0
 51
109.337143219432
  0
ARC
  5
14C
102
{ACAD_REACTORS
330
1BB
330
1BC
102
}
330
47
100
AcDbEntity
  8
0
  6
Continuous
 62
     2
100
AcDbCircle
 10
-51.5236441887167
 20
5.87036387748773
 30
0.0
 40
0.9410597353348924
100
AcDbArc
 50
151.4785267423624
 51
208.5214732576695
  0
ARC
  5
14D
102
{ACAD_REACTORS
330
1BB
330
1BC
102
}
330
47
100
AcDbEntity
  8
0
  6
Continuous
 62
     2
100
AcDbCircle
 10
-51.74456141409499
 20
6.02728446685924
 30
0.0
 40
0.9059297849852772
100
AcDbArc
 50
246.6277221118187
 51
288.4480761180817
  0
ARC
  5
14E
102
{ACAD_REACTORS
330
1BB
330
1BC
102
}
330
47
100
AcDbEntity
  8
0
  6
Continuous
 62
     2
100
AcDbCircle
 10
-52.16272914775689
 20
7.28083024289583
 30
0.0
 40
2.227384008972746
100
AcDbArc
 50
288.4480761181335
 51
301.9309089499397
  0
ARC
  5
14F
102
{ACAD_REACTORS
330
1BB
330
1BC
102
}
330
47
100
AcDbEntity
  8
0
  6
Continuous
 62
     2
100
AcDbCircle
 10
-52.3206020228497
 20
9.18304482274414
 30
0.0
 40
4.852596863498825
100
AcDbArc
 50
275.1581447696364
 51
285.9799912583387
  0
ARC
  5
150
102
{ACAD_REACTORS
330
1BB
330
1BC
102
}
330
47
100
AcDbEntity
  8
0
  6
Continuous
 62
     2
100
AcDbCircle
 10
-52.03174592811388
 20
5.98315423952255
 30
0.0
 40
1.639695123940448
100
AcDbArc
 50
195.0618917771012
 51
275.1581447696762
  0
ARC
  5
151
102
{ACAD_REACTORS
330
1B3
330
1B4
102
}
330
47
100
AcDbEntity
  8
0
  6
Continuous
 62
     2
100
AcDbCircle
 10
-67.759959239805
 20
9.70109347423426
 30
0.0
 40
1.055365641333708
100
AcDbArc
 50
270.0
 51
90.0
  0
ARC
  5
152
102
{ACAD_REACTORS
330
1B9
330
1BA
102
}
330
47
100
AcDbEntity
  8
0
  6
Continuous
 62
     2
100
AcDbCircle
 10
-75.5400103480604
 20
5.37173159421604
 30
0.0
 40
0.3157169230756836
100
AcDbArc
 50
180.0
 51
270.0
  0
ARC
  5
153
102
{ACAD_REACTORS
330
1B9
330
1BA
102
}
330
47
100
AcDbEntity
  8
0
  6
Continuous
 62
     2
100
AcDbCircle
 10
-74.06417708705078
 20
9.72818663693315
 30
0.0
 40
0.315716923076593
100
AcDbArc
 50
0.0
 51
90.0
  0
ARC
  5
154
102
{ACAD_REACTORS
330
1B9
330
1BA
102
}
330
47
100
AcDbEntity
  8
0
  6
Continuous
 62
     2
100
AcDbCircle
 10
-74.06417708705078
 20
9.12416201787264
 30
0.0
 40
0.3157169230761203
100
AcDbArc
 50
295.1944106485397
 51
0.0
  0
ARC
  5
155
102
{ACAD_REACTORS
330
1B9
330
1BA
102
}
330
47
100
AcDbEntity
  8
0
  6
Continuous
 62
     2
100
AcDbCircle
 10
-74.06417708705078
 20
5.37173159421604
 30
0.0
 40
0.3157169230767067
100
AcDbArc
 50
270.0
 51
0.0
  0
ARC
  5
156
102
{ACAD_REACTORS
330
1B9
330
1BA
102
}
330
47
100
AcDbEntity
  8
0
  6
Continuous
 62
     2
100
AcDbCircle
 10
-76.1339050248069
 20
10.33221450016595
 30
0.0
 40
0.4242446153838006
100
AcDbArc
 50
90.0
 51
180.0
  0
ARC
  5
157
102
{ACAD_REACTORS
330
1B9
330
1BA
102
}
330
47
100
AcDbEntity
  8
0
  6
Continuous
 62
     2
100
AcDbCircle
 10
-70.66059293409009
 20
10.33221450016595
 30
0.0
 40
0.4242446153838841
100
AcDbArc
 50
0.0
 51
90.0
  0
ARC
  5
158
102
{ACAD_REACTORS
330
1B9
330
1BA
102
}
330
47
100
AcDbEntity
  8
0
  6
Continuous
 62
     2
100
AcDbCircle
 10
-70.66059293409009
 20
4.76770373096574
 30
0.0
 40
0.4242446153832873
100
AcDbArc
 50
270.0
 51
0.0
  0
ARC
  5
159
102
{ACAD_REACTORS
330
1B7
330
1B8
102
}
330
47
100
AcDbEntity
  8
0
  6
Continuous
 62
     2
100
AcDbCircle
 10
-61.44220904699859
 20
9.22955435366205
 30
0.0
 40
0.7717997786796486
100
AcDbArc
 50
321.8795802028444
 51
38.12041979715892
  0
ARC
  5
15A
102
{ACAD_REACTORS
330
1B7
330
1B8
102
}
330
47
100
AcDbEntity
  8
0
  6
Continuous
 62
     2
100
AcDbCircle
 10
-61.2424690106524
 20
9.07282317554163
 30
0.0
 40
0.5179085730134372
100
AcDbArc
 50
218.1204197971511
 51
321.8795802028571
  0
ARC
  5
15B
102
{ACAD_REACTORS
330
1B5
330
1B6
102
}
330
47
100
AcDbEntity
  8
0
  6
Continuous
 62
     2
100
AcDbCircle
 10
-64.9224765996126
 20
5.87036387748773
 30
0.0
 40
1.458034083652003
100
AcDbArc
 50
297.548148175701
 51
62.45185182429896
  0
ARC
  5
15C
102
{ACAD_REACTORS
330
1B5
330
1B6
102
}
330
47
100
AcDbEntity
  8
0
  6
Continuous
 62
     2
100
AcDbCircle
 10
-65.48435638327919
 20
5.87036387748773
 30
0.0
 40
1.45803408365149
100
AcDbArc
 50
117.5481481756624
 51
242.4518518243375
  0
ARC
  5
15D
102
{ACAD_REACTORS
330
1B5
330
1B6
102
}
330
47
100
AcDbEntity
  8
0
  6
Continuous
 62
     2
100
AcDbCircle
 10
-65.20341649144589
 20
5.33178886718494
 30
0.0
 40
2.065479772208568
100
AcDbArc
 50
62.45185182430637
 51
117.5481481756664
  0
ARC
  5
15E
102
{ACAD_REACTORS
330
1B5
330
1B6
102
}
330
47
100
AcDbEntity
  8
0
  6
Continuous
 62
     2
100
AcDbCircle
 10
-65.20341649144589
 20
6.40893888779104
 30
0.0
 40
2.065479772208509
100
AcDbArc
 50
242.4518518243402
 51
297.5481481756871
  0
ARC
  5
15F
102
{ACAD_REACTORS
330
1B7
330
1B8
102
}
330
47
100
AcDbEntity
  8
0
  6
Continuous
 62
     2
100
AcDbCircle
 10
-61.0427289743061
 20
9.22955435366205
 30
0.0
 40
0.7717997786796724
100
AcDbArc
 50
141.8795802028404
 51
218.1204197971562
  0
ARC
  5
160
102
{ACAD_REACTORS
330
1B7
330
1B8
102
}
330
47
100
AcDbEntity
  8
0
  6
Continuous
 62
     2
100
AcDbCircle
 10
-61.2424690106524
 20
9.38628553178253
 30
0.0
 40
0.5179085730135321
100
AcDbArc
 50
38.12041979714286
 51
141.8795802028489
  0
ARC
  5
161
102
{ACAD_REACTORS
330
1B9
330
1BA
102
}
330
47
100
AcDbEntity
  8
0
  6
Continuous
 62
     2
100
AcDbCircle
 10
-76.1339050248069
 20
4.76770373096574
 30
0.0
 40
0.4242446153828041
100
AcDbArc
 50
180.0
 51
270.0
  0
ARC
  5
162
102
{ACAD_REACTORS
330
1B9
330
1BA
102
}
330
47
100
AcDbEntity
  8
0
  6
Continuous
 62
     2
100
AcDbCircle
 10
-74.06417708705078
 20
6.90250252574765
 30
0.0
 40
0.315716923076593
100
AcDbArc
 50
0.0
 51
64.80558935146027
  0
ARC
  5
163
102
{ACAD_REACTORS
330
1B9
330
1BA
102
}
330
47
100
AcDbEntity
  8
0
  6
Continuous
 62
     2
100
AcDbCircle
 10
-73.5415926394758
 20
8.01333227181044
 30
0.0
 40
0.9118975235576147
100
AcDbArc
 50
115.1944106485282
 51
244.8055893514878
  0
ARC
  5
164
102
{ACAD_REACTORS
330
1B9
330
1BA
102
}
330
47
100
AcDbEntity
  8
0
  6
Continuous
 62
     2
100
AcDbCircle
 10
-75.5400103480604
 20
9.72818663693315
 30
0.0
 40
0.3157169230761951
100
AcDbArc
 50
90.0
 51
180.0
  0
ARC
  5
165
102
{ACAD_REACTORS
330
1B3
330
1B4
102
}
330
47
100
AcDbEntity
  8
0
  6
Continuous
 62
     2
100
AcDbCircle
 10
-68.20143176604338
 20
9.74048944545675
 30
0.0
 40
0.3528638246711182
100
AcDbArc
 50
270.0
 51
90.0
  0
ARC
  5
166
102
{ACAD_REACTORS
330
1B7
330
1B8
102
}
330
47
100
AcDbEntity
  8
0
  6
Continuous
 62
     2
100
AcDbCircle
 10
-61.4587410208176
 20
9.22955435366205
 30
0.0
 40
1.526904761905888
100
AcDbArc
 50
90.0
 51
270.0
  0
ARC
  5
167
102
{ACAD_REACTORS
330
1BB
330
1BC
102
}
330
47
100
AcDbEntity
  8
0
  6
Continuous
 62
     2
100
AcDbCircle
 10
-52.03174592811388
 20
5.75757351545283
 30
0.0
 40
1.639695123940214
100
AcDbArc
 50
90.0
 51
164.9381082228949
  0
ARC
  5
168
102
{ACAD_REACTORS
330
1BB
330
1BC
102
}
330
47
100
AcDbEntity
  8
0
  6
Continuous
 62
     2
100
AcDbCircle
 10
-52.45087377157549
 20
5.87036387748773
 30
0.0
 40
1.205656168393002
100
AcDbArc
 50
164.9381082229028
 51
195.0618917770959
  0
ARC
  5
169
102
{ACAD_REACTORS
330
1BB
330
1BC
102
}
330
47
100
AcDbEntity
  8
0
  6
Continuous
 62
     2
100
AcDbCircle
 10
-51.90100144679809
 20
5.66529244814924
 30
0.0
 40
0.5115800601960215
100
AcDbArc
 50
208.5214732576866
 51
246.6277221118456
  0
ARC
  5
16A
102
{ACAD_REACTORS
330
1BB
330
1BC
102
}
330
47
100
AcDbEntity
  8
0
  6
Continuous
 62
     2
100
AcDbCircle
 10
-51.90100144679809
 20
6.07543530682673
 30
0.0
 40
0.5115800601944143
100
AcDbArc
 50
109.3371432194853
 51
151.4785267424225
  0
ARC
  5
16B
102
{ACAD_REACTORS
330
1B9
330
1BA
102
}
330
47
100
AcDbEntity
  8
0
  6
Continuous
 62
     2
100
AcDbCircle
 10
-72.9644616615287
 20
6.32233926514695
 30
0.0
 40
0.315716923076792
100
AcDbArc
 50
180.0
 51
269.8110329574542
  0
ARC
  5
16C
102
{ACAD_REACTORS
330
1B9
330
1BA
102
}
330
47
100
AcDbEntity
  8
0
  6
Continuous
 62
     2
100
AcDbCircle
 10
-72.95884552621868
 20
8.02517421271594
 30
0.0
 40
2.018561131933266
100
AcDbArc
 50
269.8110329575858
 51
90.18896704241416
  0
ARC
  5
16D
102
{ACAD_REACTORS
330
1B9
330
1BA
102
}
330
47
100
AcDbEntity
  8
0
  6
Continuous
 62
     2
100
AcDbCircle
 10
-72.9644616615287
 20
9.12247387177825
 30
0.0
 40
0.315716923076792
100
AcDbArc
 50
180.0
 51
244.6259913216482
  0
ARC
  5
16E
102
{ACAD_REACTORS
330
1B9
330
1BA
102
}
330
47
100
AcDbEntity
  8
0
  6
Continuous
 62
     2
100
AcDbCircle
 10
-72.9644616615287
 20
6.90419067184203
 30
0.0
 40
0.3157169230765328
100
AcDbArc
 50
115.3740086783519
 51
180.0
  0
ARC
  5
16F
102
{ACAD_REACTORS
330
1BD
330
1BE
102
}
330
47
100
AcDbEntity
  8
0
  6
Continuous
 62
     2
100
AcDbCircle
 10
-68.13444740736679
 20
5.75757351545283
 30
0.0
 40
1.639695123940507
100
AcDbArc
 50
84.84185523036236
 51
164.9381082228864
  0
ARC
  5
170
102
{ACAD_REACTORS
330
1BD
330
1BE
102
}
330
47
100
AcDbEntity
  8
0
  6
Continuous
 62
     2
100
AcDbCircle
 10
-68.5535752508296
 20
5.87036387748773
 30
0.0
 40
1.205656168390944
100
AcDbArc
 50
164.9381082228764
 51
195.0618917770948
  0
ARC
  5
171
102
{ACAD_REACTORS
330
1BD
330
1BE
102
}
330
47
100
AcDbEntity
  8
0
  6
Continuous
 62
     2
100
AcDbCircle
 10
-68.13444740736679
 20
5.98315423952255
 30
0.0
 40
1.639695123939387
100
AcDbArc
 50
195.0618917770896
 51
275.1581447696395
  0
ARC
  5
172
102
{ACAD_REACTORS
330
1BD
330
1BE
102
}
330
47
100
AcDbEntity
  8
0
  6
Continuous
 62
     2
100
AcDbCircle
 10
-68.4233035021027
 20
9.18304482274414
 30
0.0
 40
4.852596863498137
100
AcDbArc
 50
275.1581447696249
 51
285.9799912583529
  0
ARC
  5
173
102
{ACAD_REACTORS
330
1BD
330
1BE
102
}
330
47
100
AcDbEntity
  8
0
  6
Continuous
 62
     2
100
AcDbCircle
 10
-67.6263456679707
 20
5.87036387748773
 30
0.0
 40
0.9410597353332545
100
AcDbArc
 50
151.4785267422669
 51
208.5214732577057
  0
ARC
  5
174
102
{ACAD_REACTORS
330
1BD
330
1BE
102
}
330
47
100
AcDbEntity
  8
0
  6
Continuous
 62
     2
100
AcDbCircle
 10
-68.003702926051
 20
6.07543530682673
 30
0.0
 40
0.511580060194877
100
AcDbArc
 50
113.3722778881992
 51
151.4785267423045
  0
ARC
  5
175
102
{ACAD_REACTORS
330
1BD
330
1BE
102
}
330
47
100
AcDbEntity
  8
0
  6
Continuous
 62
     2
100
AcDbCircle
 10
-68.26543062700978
 20
4.45989751207955
 30
0.0
 40
2.227384008973478
100
AcDbArc
 50
58.06909105004071
 51
71.55192388186722
  0
ARC
  5
176
102
{ACAD_REACTORS
330
1B5
330
1B6
102
}
330
47
100
AcDbEntity
  8
0
  6
Continuous
 62
     2
100
AcDbCircle
 10
-65.20341649144589
 20
6.02709505560824
 30
0.0
 40
0.5179085730132993
100
AcDbArc
 50
38.12041979714695
 51
141.8795802028589
  0
ARC
  5
177
102
{ACAD_REACTORS
330
1B5
330
1B6
102
}
330
47
100
AcDbEntity
  8
0
  6
Continuous
 62
     2
100
AcDbCircle
 10
-65.0036764550998
 20
5.87036387748773
 30
0.0
 40
0.7717997786794633
100
AcDbArc
 50
141.8795802028363
 51
218.1204197971687
  0
ARC
  5
178
102
{ACAD_REACTORS
330
1B5
330
1B6
102
}
330
47
100
AcDbEntity
  8
0
  6
Continuous
 62
     2
100
AcDbCircle
 10
-65.20341649144589
 20
5.71363269936774
 30
0.0
 40
0.5179085730137354
100
AcDbArc
 50
218.1204197971931
 51
321.879580202801
  0
ARC
  5
179
102
{ACAD_REACTORS
330
1B5
330
1B6
102
}
330
47
100
AcDbEntity
  8
0
  6
Continuous
 62
     2
100
AcDbCircle
 10
-65.4031565277923
 20
5.87036387748773
 30
0.0
 40
0.7717997786796947
100
AcDbArc
 50
321.8795802028417
 51
38.12041979715329
  0
CIRCLE
  5
17A
330
47
100
AcDbEntity
  8
1
  6
Continuous
 62
     2
100
AcDbCircle
 10
-68.0581496401897
 20
18.17495911556605
 30
0.0
 40
2.5
  0
CIRCLE
  5
17B
330
47
100
AcDbEntity
  8
1
  6
Continuous
 62
     2
100
AcDbCircle
 10
-68.0581496401897
 20
18.17495911556605
 30
0.0
 40
1.249999999999915
  0
CIRCLE
  5
17C
102
{ACAD_REACTORS
330
1B9
330
1BA
102
}
330
47
100
AcDbEntity
  8
0
  6
Continuous
 62
     2
100
AcDbCircle
 10
-73.51431937428939
 20
8.01333227181044
 30
0.0
 40
0.4709789327785074
  0
MTEXT
  5
17E
330
47
100
AcDbEntity
  8
1
 62
     3
100
AcDbMText
 10
-238.2449322139305
 20
183.8412672708649
 30
0.0
 40
1.8
 41
0.0
 71
     7
 72
     1
  3
Weitergabe sowie Vervielf\U+00e4ltigung dieses Dokuments, Verwertung und \PMitteilung seines Inhalts sind verboten, soweit nicht ausdr\U+00fccklich gestattet. \PZuwiderhandlungen verpflichten zu Schadenersatz. Alle Rechte f\U+00fcr den Fall\Pder Pat
  1
ent-, Gebrauchsmuster- oder Designeintragung vorbehalten.
  7
CONVERTER_11
 73
     1
 44
0.99639855942377
  0
MTEXT
  5
17F
330
47
100
AcDbEntity
  8
1
 62
     3
100
AcDbMText
 10
-55.3918223751424
 20
183.8412672708649
 30
0.0
 40
1.8
 41
0.0
 71
     7
 72
     1
  3
Transfer or duplication of this document as well as the utilisation or\Pcommunication of its content are not permitted unless express consent\Pis granted. Violations give rise to claims for damages. All rights reserved\Pin case of patent, utility mo
  1
del or design patent registrations.
  7
CONVERTER_11
 73
     1
 44
0.99639855942377
  0
TEXT
  5
180
330
47
100
AcDbEntity
  8
1
 62
     2
100
AcDbText
 10
-61.59480452675248
 20
-1.70905809942548
 30
0.0
 40
1.8
  1
of
 41
0.9
  7
CONVERTER_11
100
AcDbText
  0
TEXT
  5
181
330
47
100
AcDbEntity
  8
1
 62
     2
100
AcDbText
 10
-79.7948045267523
 20
-1.70905809942553
 30
0.0
 40
1.8
  1
page
 41
0.9
  7
CONVERTER_11
100
AcDbText
  0
TEXT
  5
182
330
47
100
AcDbEntity
  8
1
 62
     2
100
AcDbText
 10
-71.1485395564103
 20
-1.74928953823587
 30
0.0
 40
1.8
  1
1
 41
0.9
  7
CONVERTER_11
100
AcDbText
  0
TEXT
  5
183
330
47
100
AcDbEntity
  8
1
 62
     2
100
AcDbText
 10
-56.3594957169388
 20
-1.70004088443397
 30
0.0
 40
1.8
  1
1
 41
0.9
  7
CONVERTER_11
100
AcDbText
  0
MTEXT
  5
185
330
47
100
AcDbEntity
  8
1
 62
     7
100
AcDbMText
 10
2.1775977366232
 20
0.29995911556637
 30
0.0
 40
3.0
 41
0.0
 71
     5
 72
     1
  1
ATP-URTK/SP
  7
CONVERTER_12
 73
     1
 44
1.20048019207683
  0
MTEXT
  5
186
330
47
100
AcDbEntity
  8
1
 62
     2
100
AcDbMText
 10
-43.39480452675238
 20
4.54995911556614
 30
0.0
 40
1.8
 41
0.0
 71
     1
 72
     1
  1
description
  7
CONVERTER_11
 73
     1
 44
1.20048019207683
  0
MTEXT
  5
187
330
47
100
AcDbEntity
  8
1
 62
     3
100
AcDbMText
 10
-54.5948045267524
 20
18.17495911556614
 30
0.0
 40
2.5
 41
0.0
 71
     5
 72
     1
  1
DIN A4
  7
CONVERTER_11
 73
     1
 44
1.20048019207683
  0
MTEXT
  5
188
330
47
100
AcDbEntity
  8
1
 62
     7
100
AcDbMText
 10
-240.7500000000014
 20
19.54995911556614
 30
0.0
 40
3.5
 41
0.0
 71
     5
 72
     1
  1
D
  7
CONVERTER_11
 73
     1
 44
1.20048019207683
  0
MTEXT
  5
189
330
47
100
AcDbEntity
  8
1
 62
     7
100
AcDbMText
 10
-240.7500000000014
 20
72.04995911556614
 30
0.0
 40
3.5
 41
0.0
 71
     5
 72
     1
  1
C
  7
CONVERTER_11
 73
     1
 44
1.20048019207683
  0
MTEXT
  5
18A
330
47
100
AcDbEntity
  8
1
 62
     7
100
AcDbMText
 10
-240.7500000000014
 20
122.0499591155661
 30
0.0
 40
3.5
 41
0.0
 71
     5
 72
     1
  1
B
  7
CONVERTER_11
 73
     1
 44
1.20048019207683
  0
MTEXT
  5
18B
330
47
100
AcDbEntity
  8
1
 62
     7
100
AcDbMText
 10
-240.7500000000014
 20
174.5499591155661
 30
0.0
 40
3.5
 41
0.0
 71
     5
 72
     1
  1
A
  7
CONVERTER_11
 73
     1
 44
1.20048019207683
  0
MTEXT
  5
18C
330
47
100
AcDbEntity
  8
1
 62
     7
100
AcDbMText
 10
29.4999999999969
 20
-5.45004088443398
 30
0.0
 40
3.5
 41
0.0
 71
     5
 72
     1
  1
6
  7
CONVERTER_11
 73
     1
 44
1.20048019207683
  0
MTEXT
  5
18D
330
47
100
AcDbEntity
  8
1
 62
     7
100
AcDbMText
 10
-19.7500000000023
 20
-5.45004088443398
 30
0.0
 40
3.5
 41
0.0
 71
     5
 72
     1
  1
5
  7
CONVERTER_11
 73
     1
 44
1.20048019207683
  0
MTEXT
  5
18E
330
47
100
AcDbEntity
  8
1
 62
     7
100
AcDbMText
 10
-69.75000000000239
 20
-5.45004088443398
 30
0.0
 40
3.5
 41
0.0
 71
     5
 72
     1
  1
4
  7
CONVERTER_11
 73
     1
 44
1.20048019207683
  0
MTEXT
  5
18F
330
47
100
AcDbEntity
  8
1
 62
     7
100
AcDbMText
 10
-119.7500000000023
 20
-5.45004088443398
 30
0.0
 40
3.5
 41
0.0
 71
     5
 72
     1
  1
3
  7
CONVERTER_11
 73
     1
 44
1.20048019207683
  0
MTEXT
  5
190
330
47
100
AcDbEntity
  8
1
 62
     7
100
AcDbMText
 10
-169.7500000000023
 20
-5.45004088443398
 30
0.0
 40
3.5
 41
0.0
 71
     5
 72
     1
  1
2
  7
CONVERTER_11
 73
     1
 44
1.20048019207683
  0
MTEXT
  5
191
330
47
100
AcDbEntity
  8
1
 62
     7
100
AcDbMText
 10
-219.0000000000019
 20
-5.45004088443398
 30
0.0
 40
3.5
 41
0.0
 71
     5
 72
     1
  1
1
  7
CONVERTER_11
 73
     1
 44
1.20048019207683
  0
MTEXT
  5
192
330
47
100
AcDbEntity
  8
1
 62
     7
100
AcDbMText
 10
51.2499999999967
 20
19.54995911556614
 30
0.0
 40
3.5
 41
0.0
 71
     5
 72
     1
  1
D
  7
CONVERTER_11
 73
     1
 44
1.20048019207683
  0
MTEXT
  5
193
330
47
100
AcDbEntity
  8
1
 62
     7
100
AcDbMText
 10
51.2499999999967
 20
122.049959115568
 30
0.0
 40
3.5
 41
0.0
 71
     5
 72
     1
  1
B
  7
CONVERTER_11
 73
     1
 44
1.20048019207683
  0
MTEXT
  5
194
330
47
100
AcDbEntity
  8
1
 62
     7
100
AcDbMText
 10
51.2499999999967
 20
174.5499591155661
 30
0.0
 40
3.5
 41
0.0
 71
     5
 72
     1
  1
A
  7
CONVERTER_11
 73
     1
 44
1.20048019207683
  0
MTEXT
  5
195
330
47
100
AcDbEntity
  8
1
 62
     7
100
AcDbMText
 10
51.2499999999967
 20
72.04995911556804
 30
0.0
 40
3.5
 41
0.0
 71
     5
 72
     1
  1
C
  7
CONVERTER_11
 73
     1
 44
1.20048019207683
  0
MTEXT
  5
196
330
47
100
AcDbEntity
  8
1
 62
     2
100
AcDbMText
 10
-115.2328192517998
 20
9.79995911556605
 30
0.0
 40
2.0
 41
0.0
 71
     5
 72
     1
  1
General Information\P- Simplified representation\P- Document excluded from change process\P- Linear dimensions [mm]
  7
CONVERTER_11
 73
     1
 44
1.20048019207683
  0
TEXT
  5
197
330
47
100
AcDbEntity
  8
1
 62
     7
100
AcDbText
 10
-42.89480452675258
 20
6.84995911556604
 30
0.0
 40
2.5
  1
0311139
 41
0.81
  7
CONVERTER_12
100
AcDbText
  0
MTEXT
  5
198
330
47
100
AcDbEntity
  8
1
 62
     2
100
AcDbMText
 10
-43.2948045267523
 20
13.04995911556614
 30
0.0
 40
1.8
 41
0.0
 71
     1
 72
     1
  1
ident.-No.
  7
CONVERTER_11
 73
     1
 44
1.20048019207683
  0
MTEXT
  5
199
330
47
100
AcDbEntity
  8
1
 62
     2
100
AcDbMText
 10
40.93159171832042
 20
21.54995911556614
 30
0.0
 40
1.8
 41
0.0
 71
     1
 72
     1
  1
scale
  7
CONVERTER_11
 73
     1
 44
1.20048019207683
  0
MTEXT
  5
19B
330
47
100
AcDbEntity
  8
1
 62
     3
100
AcDbMText
 10
44.29079585916001
 20
15.34995911556624
 30
0.0
 40
2.5
 41
0.0
 71
     8
 72
     1
  1
1:1
  7
CONVERTER_13
 73
     1
 44
1.32052821128451
  0
TEXT
  5
19C
330
47
100
AcDbEntity
  8
1
 62
     7
100
AcDbText
 10
-43.2948045267523
 20
15.34995911556604
 30
0.0
 40
2.5
  1
00443801
 41
0.81
  7
CONVERTER_12
100
AcDbText
  0
MTEXT
  5
19E
330
47
100
AcDbEntity
  8
1
 62
     2
100
AcDbMText
 10
-43.2948045267523
 20
21.54995911556614
 30
0.0
 40
1.8
 41
0.0
 71
     1
 72
     1
  1
document-No. / RI
  7
CONVERTER_14
 73
     1
 44
1.32052821128451
  0
TEXT
  5
19F
330
47
100
AcDbEntity
  8
1
 62
     3
100
AcDbText
 10
-15.49480452675229
 20
6.84995911556604
 30
0.0
 40
2.5
  1
 
 41
0.81
  7
CONVERTER_12
100
AcDbText
  0
MTEXT
  5
1A0
330
47
100
AcDbEntity
  8
1
 62
     2
100
AcDbMText
 10
-15.49480452675229
 20
13.04995911556605
 30
0.0
 40
1.8
 41
0.0
 71
     1
 72
     1
  1
document-type
  7
CONVERTER_11
 73
     1
 44
1.20048019207683
  0
MTEXT
  5
1A1
330
47
100
AcDbEntity
  8
1
 62
     2
100
AcDbMText
 10
14.3315917183206
 20
21.54995911556605
 30
0.0
 40
1.8
 41
0.0
 71
     1
 72
     1
  1
date
  7
CONVERTER_11
 73
     1
 44
1.32052821128451
  0
TEXT
  5
1A2
330
47
100
AcDbEntity
  8
1
 62
     3
100
AcDbText
 10
14.3315917183206
 20
15.34995911556604
 30
0.0
 40
2.5
  1
17.12.2017
 41
0.81
  7
CONVERTER_12
100
AcDbText
  0
TEXT
  5
1A3
330
47
100
AcDbEntity
  8
1
 62
     7
100
AcDbText
 10
-23.2648923076965
 20
15.34995911556604
 30
0.0
 40
2.5
  1
00
 41
0.81
  7
CONVERTER_12
100
AcDbText
  0
TEXT
  5
1A4
330
47
100
AcDbEntity
  8
1
 62
     7
100
AcDbText
 10
-25.42125680473851
 20
15.34995911556604
 30
0.0
 40
2.5
  1
/
 41
0.9
  7
CONVERTER_11
100
AcDbText
  0
HATCH
  5
1A5
330
47
100
AcDbEntity
  8
1
  6
Continuous
 62
     2
100
AcDbHatch
 10
0.0
 20
0.0
 30
0.0
210
0.0
220
0.0
230
1.0
  2
_USER
 70
     0
 71
     1
 91
        1
 92
        1
 93
       12
 72
     1
 10
-63.1273038137912
 20
7.702649591756739
 11
-64.3200965159576
 21
7.702649591756739
 72
     1
 10
-64.3200965159576
 20
7.702649591756739
 11
-64.3200965159576
 21
8.836921700600556
 72
     1
 10
-64.3200965159576
 20
8.836921700600556
 11
-65.36975409386508
 21
8.836921700600556
 72
     1
 10
-65.36975409386508
 20
8.836921700600556
 11
-65.36975409386508
 21
7.702649591756739
 72
     1
 10
-65.36975409386508
 20
7.702649591756739
 11
-66.56254679603168
 21
7.702649591756739
 72
     1
 10
-66.56254679603168
 20
7.702649591756739
 11
-66.56254679603168
 21
10.75645911556794
 72
     1
 10
-66.56254679603168
 20
10.75645911556794
 11
-65.36975409386508
 21
10.75645911556794
 72
     1
 10
-65.36975409386508
 20
10.75645911556794
 11
-65.36975409386508
 21
9.68762578223334
 72
     1
 10
-65.36975409386508
 20
9.68762578223334
 11
-64.3200965159576
 21
9.68762578223334
 72
     1
 10
-64.3200965159576
 20
9.68762578223334
 11
-64.3200965159576
 21
10.75645911556794
 72
     1
 10
-64.3200965159576
 20
10.75645911556794
 11
-63.1273038137912
 21
10.75645911556794
 72
     1
 10
-63.1273038137912
 20
10.75645911556794
 11
-63.1273038137912
 21
7.702649591756739
 97
       12
330
111
330
112
330
FC
330
FB
330
FA
330
10E
330
F9
330
10F
330
110
330
F8
330
F7
330
F6
 75
     1
 76
     0
 52
45.0
 41
0.1
 77
     0
 78
     1
 53
45.0
 43
0.0
 44
0.0
 45
-0.0707106781186548
 46
0.0707106781186548
 79
     0
 98
        1
 10
0.0
 20
0.0
  0
HATCH
  5
1A6
330
47
100
AcDbEntity
  8
1
  6
Continuous
 62
     2
100
AcDbHatch
 10
0.0
 20
0.0
 30
0.0
210
0.0
220
0.0
230
1.0
  2
_USER
 70
     0
 71
     1
 91
        1
 92
        1
 93
       12
 72
     1
 10
-63.1273038137912
 20
7.702649591756739
 11
-64.3200965159576
 21
7.702649591756739
 72
     1
 10
-64.3200965159576
 20
7.702649591756739
 11
-64.3200965159576
 21
8.836921700600556
 72
     1
 10
-64.3200965159576
 20
8.836921700600556
 11
-65.36975409386508
 21
8.836921700600556
 72
     1
 10
-65.36975409386508
 20
8.836921700600556
 11
-65.36975409386508
 21
7.702649591756739
 72
     1
 10
-65.36975409386508
 20
7.702649591756739
 11
-66.56254679603168
 21
7.702649591756739
 72
     1
 10
-66.56254679603168
 20
7.702649591756739
 11
-66.56254679603168
 21
10.75645911556794
 72
     1
 10
-66.56254679603168
 20
10.75645911556794
 11
-65.36975409386508
 21
10.75645911556794
 72
     1
 10
-65.36975409386508
 20
10.75645911556794
 11
-65.36975409386508
 21
9.68762578223334
 72
     1
 10
-65.36975409386508
 20
9.68762578223334
 11
-64.3200965159576
 21
9.68762578223334
 72
     1
 10
-64.3200965159576
 20
9.68762578223334
 11
-64.3200965159576
 21
10.75645911556794
 72
     1
 10
-64.3200965159576
 20
10.75645911556794
 11
-63.1273038137912
 21
10.75645911556794
 72
     1
 10
-63.1273038137912
 20
10.75645911556794
 11
-63.1273038137912
 21
7.702649591756739
 97
       12
330
111
330
112
330
FC
330
FB
330
FA
330
10E
330
F9
330
10F
330
110
330
F8
330
F7
330
F6
 75
     1
 76
     0
 52
45.0
 41
0.1
 77
     0
 78
     1
 53
45.0
 43
0.0
 44
0.0
 45
-0.0707106781186548
 46
0.0707106781186548
 79
     0
 98
        1
 10
0.0
 20
0.0
  0
HATCH
  5
1A7
330
47
100
AcDbEntity
  8
1
  6
Continuous
 62
     2
100
AcDbHatch
 10
0.0
 20
0.0
 30
0.0
210
0.0
220
0.0
230
1.0
  2
_USER
 70
     0
 71
     1
 91
        1
 92
        1
 93
       10
 72
     1
 10
-60.8850044646029
 20
6.088493129188436
 11
-62.1255088748558
 21
7.397268639393531
 72
     1
 10
-62.1255088748558
 20
7.397268639393531
 11
-63.31830157702339
 21
7.397268639393531
 72
     1
 10
-63.31830157702339
 20
7.397268639393531
 11
-63.31830157702339
 21
4.343459115582448
 72
     1
 10
-63.31830157702339
 20
4.343459115582448
 11
-62.1255088748558
 21
4.343459115582448
 72
     1
 10
-62.1255088748558
 20
4.343459115582448
 11
-62.1255088748558
 21
5.652234625787031
 72
     1
 10
-62.1255088748558
 20
5.652234625787031
 11
-60.8850044646029
 21
4.343459115582448
 72
     1
 10
-60.8850044646029
 20
4.343459115582448
 11
-59.6922117624365
 21
4.343459115582448
 72
     1
 10
-59.6922117624365
 20
4.343459115582448
 11
-59.6922117624365
 21
7.397268639393531
 72
     1
 10
-59.6922117624365
 20
7.397268639393531
 11
-60.8850044646029
 21
7.397268639393531
 72
     1
 10
-60.8850044646029
 20
7.397268639393531
 11
-60.8850044646029
 21
6.088493129188436
 97
       10
330
11F
330
EF
330
EE
330
F1
330
11A
330
11B
330
F0
330
11C
330
11D
330
11E
 75
     1
 76
     0
 52
45.0
 41
0.1
 77
     0
 78
     1
 53
45.0
 43
0.0
 44
0.0
 45
-0.0707106781186548
 46
0.0707106781186548
 79
     0
 98
        1
 10
0.0
 20
0.0
  0
HATCH
  5
1A8
330
47
100
AcDbEntity
  8
1
  6
Continuous
 62
     2
100
AcDbHatch
 10
0.0
 20
0.0
 30
0.0
210
0.0
220
0.0
230
1.0
  2
_USER
 70
     0
 71
     1
 91
        1
 92
        1
 93
       10
 72
     1
 10
-60.8850044646029
 20
6.088493129188436
 11
-62.1255088748558
 21
7.397268639393531
 72
     1
 10
-62.1255088748558
 20
7.397268639393531
 11
-63.31830157702339
 21
7.397268639393531
 72
     1
 10
-63.31830157702339
 20
7.397268639393531
 11
-63.31830157702339
 21
4.343459115582448
 72
     1
 10
-63.31830157702339
 20
4.343459115582448
 11
-62.1255088748558
 21
4.343459115582448
 72
     1
 10
-62.1255088748558
 20
4.343459115582448
 11
-62.1255088748558
 21
5.652234625787031
 72
     1
 10
-62.1255088748558
 20
5.652234625787031
 11
-60.8850044646029
 21
4.343459115582448
 72
     1
 10
-60.8850044646029
 20
4.343459115582448
 11
-59.6922117624365
 21
4.343459115582448
 72
     1
 10
-59.6922117624365
 20
4.343459115582448
 11
-59.6922117624365
 21
7.397268639393531
 72
     1
 10
-59.6922117624365
 20
7.397268639393531
 11
-60.8850044646029
 21
7.397268639393531
 72
     1
 10
-60.8850044646029
 20
7.397268639393531
 11
-60.8850044646029
 21
6.088493129188436
 97
       10
330
11F
330
EF
330
EE
330
F1
330
11A
330
11B
330
F0
330
11C
330
11D
330
11E
 75
     1
 76
     0
 52
45.0
 41
0.1
 77
     0
 78
     1
 53
45.0
 43
0.0
 44
0.0
 45
-0.0707106781186548
 46
0.0707106781186548
 79
     0
 98
        1
 10
0.0
 20
0.0
  0
HATCH
  5
1A9
330
47
100
AcDbEntity
  8
1
  6
Continuous
 62
     2
100
AcDbHatch
 10
0.0
 20
0.0
 30
0.0
210
0.0
220
0.0
230
1.0
  2
_USER
 70
     0
 71
     1
 91
        1
 92
        1
 93
       10
 72
     1
 10
-55.63656564418318
 20
9.447683605362755
 11
-56.87707005443718
 21
10.75645911556794
 72
     1
 10
-56.87707005443718
 20
10.75645911556794
 11
-58.0698627566037
 21
10.75645911556794
 72
     1
 10
-58.0698627566037
 20
10.75645911556794
 11
-58.0698627566037
 21
7.702649591756739
 72
     1
 10
-58.0698627566037
 20
7.702649591756739
 11
-56.87707005443718
 21
7.702649591756739
 72
     1
 10
-56.87707005443718
 20
7.702649591756739
 11
-56.87707005443718
 21
9.011425101961436
 72
     1
 10
-56.87707005443718
 20
9.011425101961436
 11
-55.63656564418318
 21
7.702649591756739
 72
     1
 10
-55.63656564418318
 20
7.702649591756739
 11
-54.44377294201658
 21
7.702649591756739
 72
     1
 10
-54.44377294201658
 20
7.702649591756739
 11
-54.44377294201658
 21
10.75645911556794
 72
     1
 10
-54.44377294201658
 20
10.75645911556794
 11
-55.63656564418318
 21
10.75645911556794
 72
     1
 10
-55.63656564418318
 20
10.75645911556794
 11
-55.63656564418318
 21
9.447683605362755
 97
       10
330
124
330
EC
330
EB
330
125
330
EA
330
120
330
121
330
122
330
123
330
ED
 75
     1
 76
     0
 52
45.0
 41
0.1
 77
     0
 78
     1
 53
45.0
 43
0.0
 44
0.0
 45
-0.0707106781186548
 46
0.0707106781186548
 79
     0
 98
        1
 10
0.0
 20
0.0
  0
HATCH
  5
1AA
330
47
100
AcDbEntity
  8
1
  6
Continuous
 62
     2
100
AcDbHatch
 10
0.0
 20
0.0
 30
0.0
210
0.0
220
0.0
230
1.0
  2
_USER
 70
     0
 71
     1
 91
        1
 92
        1
 93
       10
 72
     1
 10
-55.63656564418318
 20
9.447683605362755
 11
-56.87707005443718
 21
10.75645911556794
 72
     1
 10
-56.87707005443718
 20
10.75645911556794
 11
-58.0698627566037
 21
10.75645911556794
 72
     1
 10
-58.0698627566037
 20
10.75645911556794
 11
-58.0698627566037
 21
7.702649591756739
 72
     1
 10
-58.0698627566037
 20
7.702649591756739
 11
-56.87707005443718
 21
7.702649591756739
 72
     1
 10
-56.87707005443718
 20
7.702649591756739
 11
-56.87707005443718
 21
9.011425101961436
 72
     1
 10
-56.87707005443718
 20
9.011425101961436
 11
-55.63656564418318
 21
7.702649591756739
 72
     1
 10
-55.63656564418318
 20
7.702649591756739
 11
-54.44377294201658
 21
7.702649591756739
 72
     1
 10
-54.44377294201658
 20
7.702649591756739
 11
-54.44377294201658
 21
10.75645911556794
 72
     1
 10
-54.44377294201658
 20
10.75645911556794
 11
-55.63656564418318
 21
10.75645911556794
 72
     1
 10
-55.63656564418318
 20
10.75645911556794
 11
-55.63656564418318
 21
9.447683605362755
 97
       10
330
124
330
EC
330
EB
330
125
330
EA
330
120
330
121
330
122
330
123
330
ED
 75
     1
 76
     0
 52
45.0
 41
0.1
 77
     0
 78
     1
 53
45.0
 43
0.0
 44
0.0
 45
-0.0707106781186548
 46
0.0707106781186548
 79
     0
 98
        1
 10
0.0
 20
0.0
  0
HATCH
  5
1AB
330
47
100
AcDbEntity
  8
1
  6
Continuous
 62
     2
100
AcDbHatch
 10
0.0
 20
0.0
 30
0.0
210
0.0
220
0.0
230
1.0
  2
_USER
 70
     0
 71
     1
 91
        1
 92
        1
 93
        8
 72
     1
 10
-56.73408586106268
 20
7.397268639393531
 11
-59.5490766381763
 21
7.397268639393531
 72
     1
 10
-59.5490766381763
 20
7.397268639393531
 11
-59.5490766381763
 21
6.612003333269939
 72
     1
 10
-59.5490766381763
 20
6.612003333269939
 11
-58.7379776007017
 21
6.612003333269939
 72
     1
 10
-58.7379776007017
 20
6.612003333269939
 11
-58.7379776007017
 21
4.343459115582448
 72
     1
 10
-58.7379776007017
 20
4.343459115582448
 11
-57.54518489853518
 21
4.343459115582448
 72
     1
 10
-57.54518489853518
 20
4.343459115582448
 11
-57.54518489853518
 21
6.612003333269939
 72
     1
 10
-57.54518489853518
 20
6.612003333269939
 11
-56.73408586106268
 21
6.612003333269939
 72
     1
 10
-56.73408586106268
 20
6.612003333269939
 11
-56.73408586106268
 21
7.397268639393531
 97
        8
330
E6
330
126
330
E5
330
127
330
128
330
E9
330
E8
330
E7
 75
     1
 76
     0
 52
45.0
 41
0.1
 77
     0
 78
     1
 53
45.0
 43
0.0
 44
0.0
 45
-0.0707106781186548
 46
0.0707106781186548
 79
     0
 98
        1
 10
0.0
 20
0.0
  0
HATCH
  5
1AC
330
47
100
AcDbEntity
  8
1
  6
Continuous
 62
     2
100
AcDbHatch
 10
0.0
 20
0.0
 30
0.0
210
0.0
220
0.0
230
1.0
  2
_USER
 70
     0
 71
     1
 91
        1
 92
        1
 93
        8
 72
     1
 10
-56.73408586106268
 20
7.397268639393531
 11
-59.5490766381763
 21
7.397268639393531
 72
     1
 10
-59.5490766381763
 20
7.397268639393531
 11
-59.5490766381763
 21
6.612003333269939
 72
     1
 10
-59.5490766381763
 20
6.612003333269939
 11
-58.7379776007017
 21
6.612003333269939
 72
     1
 10
-58.7379776007017
 20
6.612003333269939
 11
-58.7379776007017
 21
4.343459115582448
 72
     1
 10
-58.7379776007017
 20
4.343459115582448
 11
-57.54518489853518
 21
4.343459115582448
 72
     1
 10
-57.54518489853518
 20
4.343459115582448
 11
-57.54518489853518
 21
6.612003333269939
 72
     1
 10
-57.54518489853518
 20
6.612003333269939
 11
-56.73408586106268
 21
6.612003333269939
 72
     1
 10
-56.73408586106268
 20
6.612003333269939
 11
-56.73408586106268
 21
7.397268639393531
 97
        8
330
E6
330
126
330
E5
330
127
330
128
330
E9
330
E8
330
E7
 75
     1
 76
     0
 52
45.0
 41
0.1
 77
     0
 78
     1
 53
45.0
 43
0.0
 44
0.0
 45
-0.0707106781186548
 46
0.0707106781186548
 79
     0
 98
        1
 10
0.0
 20
0.0
  0
HATCH
  5
1AD
330
47
100
AcDbEntity
  8
1
  6
Continuous
 62
     2
100
AcDbHatch
 10
0.0
 20
0.0
 30
0.0
210
0.0
220
0.0
230
1.0
  2
_USER
 70
     0
 71
     1
 91
        2
 92
        1
 93
        8
 72
     1
 10
-54.5956584051157
 20
4.343459115582448
 11
-54.80713845859148
 21
4.884419659800329
 72
     1
 10
-54.80713845859148
 20
4.884419659800329
 11
-55.93958003526529
 21
4.884419659800329
 72
     1
 10
-55.93958003526529
 20
4.884419659800329
 11
-56.1510600887411
 21
4.343459115582448
 72
     1
 10
-56.1510600887411
 20
4.343459115582448
 11
-57.39156449899409
 21
4.343459115582448
 72
     1
 10
-57.39156449899409
 20
4.343459115582448
 11
-55.99361145205478
 21
7.397268639393531
 72
     1
 10
-55.99361145205478
 20
7.397268639393531
 11
-54.75310704180208
 21
7.397268639393531
 72
     1
 10
-54.75310704180208
 20
7.397268639393531
 11
-53.35515399486178
 21
4.343459115582448
 72
     1
 10
-53.35515399486178
 20
4.343459115582448
 11
-54.5956584051157
 21
4.343459115582448
 97
        8
330
12A
330
12B
330
E2
330
12C
330
E1
330
E4
330
129
330
E3
 92
       16
 93
        3
 72
     1
 10
-55.67352448412029
 20
5.564982925106932
 11
-55.37335924692789
 21
6.332797891093634
 72
     1
 10
-55.37335924692789
 20
6.332797891093634
 11
-55.07319400973779
 21
5.564982925106932
 72
     1
 10
-55.07319400973779
 20
5.564982925106932
 11
-55.67352448412029
 21
5.564982925106932
 97
        3
330
E0
330
12E
330
12D
 75
     1
 76
     0
 52
45.0
 41
0.1
 77
     0
 78
     1
 53
45.0
 43
0.0
 44
0.0
 45
-0.0707106781186548
 46
0.0707106781186548
 79
     0
 98
        1
 10
0.0
 20
0.0
  0
HATCH
  5
1AE
330
47
100
AcDbEntity
  8
1
  6
Continuous
 62
     2
100
AcDbHatch
 10
0.0
 20
0.0
 30
0.0
210
0.0
220
0.0
230
1.0
  2
_USER
 70
     0
 71
     1
 91
        2
 92
        1
 93
        8
 72
     1
 10
-54.5956584051157
 20
4.343459115582448
 11
-54.80713845859148
 21
4.884419659800329
 72
     1
 10
-54.80713845859148
 20
4.884419659800329
 11
-55.93958003526529
 21
4.884419659800329
 72
     1
 10
-55.93958003526529
 20
4.884419659800329
 11
-56.1510600887411
 21
4.343459115582448
 72
     1
 10
-56.1510600887411
 20
4.343459115582448
 11
-57.39156449899409
 21
4.343459115582448
 72
     1
 10
-57.39156449899409
 20
4.343459115582448
 11
-55.99361145205478
 21
7.397268639393531
 72
     1
 10
-55.99361145205478
 20
7.397268639393531
 11
-54.75310704180208
 21
7.397268639393531
 72
     1
 10
-54.75310704180208
 20
7.397268639393531
 11
-53.35515399486178
 21
4.343459115582448
 72
     1
 10
-53.35515399486178
 20
4.343459115582448
 11
-54.5956584051157
 21
4.343459115582448
 97
        8
330
12A
330
12B
330
E2
330
12C
330
E1
330
E4
330
129
330
E3
 92
       16
 93
        3
 72
     1
 10
-55.67352448412029
 20
5.564982925106932
 11
-55.37335924692789
 21
6.332797891093634
 72
     1
 10
-55.37335924692789
 20
6.332797891093634
 11
-55.07319400973779
 21
5.564982925106932
 72
     1
 10
-55.07319400973779
 20
5.564982925106932
 11
-55.67352448412029
 21
5.564982925106932
 97
        3
330
E0
330
12E
330
12D
 75
     1
 76
     0
 52
45.0
 41
0.1
 77
     0
 78
     1
 53
45.0
 43
0.0
 44
0.0
 45
-0.0707106781186548
 46
0.0707106781186548
 79
     0
 98
        1
 10
0.0
 20
0.0
  0
HATCH
  5
1AF
330
47
100
AcDbEntity
  8
1
  6
Continuous
 62
     2
100
AcDbHatch
 10
0.0
 20
0.0
 30
0.0
210
0.0
220
0.0
230
1.0
  2
_USER
 70
     0
 71
     1
 91
        1
 92
        1
 93
        4
 72
     1
 10
-52.96470999132978
 20
7.702649591756739
 11
-54.20521440158268
 21
7.702649591756739
 72
     1
 10
-54.20521440158268
 20
7.702649591756739
 11
-54.20521440158268
 21
10.75645911556794
 72
     1
 10
-54.20521440158268
 20
10.75645911556794
 11
-52.96470999132978
 21
10.75645911556794
 72
     1
 10
-52.96470999132978
 20
10.75645911556794
 11
-52.96470999132978
 21
7.702649591756739
 97
        4
330
DD
330
DF
330
12F
330
DE
 75
     1
 76
     0
 52
45.0
 41
0.1
 77
     0
 78
     1
 53
45.0
 43
0.0
 44
0.0
 45
-0.0707106781186548
 46
0.0707106781186548
 79
     0
 98
        1
 10
0.0
 20
0.0
  0
HATCH
  5
1B0
330
47
100
AcDbEntity
  8
1
  6
Continuous
 62
     2
100
AcDbHatch
 10
0.0
 20
0.0
 30
0.0
210
0.0
220
0.0
230
1.0
  2
_USER
 70
     0
 71
     1
 91
        1
 92
        1
 93
        4
 72
     1
 10
-52.96470999132978
 20
7.702649591756739
 11
-54.20521440158268
 21
7.702649591756739
 72
     1
 10
-54.20521440158268
 20
7.702649591756739
 11
-54.20521440158268
 21
10.75645911556794
 72
     1
 10
-54.20521440158268
 20
10.75645911556794
 11
-52.96470999132978
 21
10.75645911556794
 72
     1
 10
-52.96470999132978
 20
10.75645911556794
 11
-52.96470999132978
 21
7.702649591756739
 97
        4
330
DD
330
DF
330
12F
330
DE
 75
     1
 76
     0
 52
45.0
 41
0.1
 77
     0
 78
     1
 53
45.0
 43
0.0
 44
0.0
 45
-0.0707106781186548
 46
0.0707106781186548
 79
     0
 98
        1
 10
0.0
 20
0.0
  0
HATCH
  5
1B1
330
47
100
AcDbEntity
  8
1
  6
Continuous
 62
     2
100
AcDbHatch
 10
0.0
 20
0.0
 30
0.0
210
0.0
220
0.0
230
1.0
  2
_USER
 70
     0
 71
     1
 91
        1
 92
        1
 93
       12
 72
     1
 10
-48.74222382565898
 20
10.75645911556794
 11
-50.0447534564255
 21
9.283508585531735
 72
     1
 10
-50.0447534564255
 20
9.283508585531735
 11
-48.6468004094852
 21
7.702649591756739
 72
     1
 10
-48.6468004094852
 20
7.702649591756739
 11
-50.0495246272335
 21
7.702649591756739
 72
     1
 10
-50.0495246272335
 20
7.702649591756739
 11
-50.74611556529899
 21
8.490381377050454
 72
     1
 10
-50.74611556529899
 20
8.490381377050454
 11
-51.44270650336469
 21
7.702649591756739
 72
     1
 10
-51.44270650336469
 20
7.702649591756739
 11
-52.84543072111291
 21
7.702649591756739
 72
     1
 10
-52.84543072111291
 20
7.702649591756739
 11
-51.4474776741726
 21
9.283508585531735
 72
     1
 10
-51.4474776741726
 20
9.283508585531735
 11
-52.75000730494008
 21
10.75645911556794
 72
     1
 10
-52.75000730494008
 20
10.75645911556794
 11
-51.34728308719079
 21
10.75645911556794
 72
     1
 10
-51.34728308719079
 20
10.75645911556794
 11
-50.74611556529899
 21
10.07663579401245
 72
     1
 10
-50.74611556529899
 20
10.07663579401245
 11
-50.1449480434062
 21
10.75645911556794
 72
     1
 10
-50.1449480434062
 20
10.75645911556794
 11
-48.74222382565898
 21
10.75645911556794
 97
       12
330
D8
330
D7
330
D6
330
133
330
134
330
130
330
131
330
DC
330
DB
330
DA
330
D9
330
132
 75
     1
 76
     0
 52
45.0
 41
0.1
 77
     0
 78
     1
 53
45.0
 43
0.0
 44
0.0
 45
-0.0707106781186548
 46
0.0707106781186548
 79
     0
 98
        1
 10
0.0
 20
0.0
  0
HATCH
  5
1B2
330
47
100
AcDbEntity
  8
1
  6
Continuous
 62
     2
100
AcDbHatch
 10
0.0
 20
0.0
 30
0.0
210
0.0
220
0.0
230
1.0
  2
_USER
 70
     0
 71
     1
 91
        1
 92
        1
 93
       12
 72
     1
 10
-48.74222382565898
 20
10.75645911556794
 11
-50.0447534564255
 21
9.283508585531735
 72
     1
 10
-50.0447534564255
 20
9.283508585531735
 11
-48.6468004094852
 21
7.702649591756739
 72
     1
 10
-48.6468004094852
 20
7.702649591756739
 11
-50.0495246272335
 21
7.702649591756739
 72
     1
 10
-50.0495246272335
 20
7.702649591756739
 11
-50.74611556529899
 21
8.490381377050454
 72
     1
 10
-50.74611556529899
 20
8.490381377050454
 11
-51.44270650336469
 21
7.702649591756739
 72
     1
 10
-51.44270650336469
 20
7.702649591756739
 11
-52.84543072111291
 21
7.702649591756739
 72
     1
 10
-52.84543072111291
 20
7.702649591756739
 11
-51.4474776741726
 21
9.283508585531735
 72
     1
 10
-51.4474776741726
 20
9.283508585531735
 11
-52.75000730494008
 21
10.75645911556794
 72
     1
 10
-52.75000730494008
 20
10.75645911556794
 11
-51.34728308719079
 21
10.75645911556794
 72
     1
 10
-51.34728308719079
 20
10.75645911556794
 11
-50.74611556529899
 21
10.07663579401245
 72
     1
 10
-50.74611556529899
 20
10.07663579401245
 11
-50.1449480434062
 21
10.75645911556794
 72
     1
 10
-50.1449480434062
 20
10.75645911556794
 11
-48.74222382565898
 21
10.75645911556794
 97
       12
330
D8
330
D7
330
D6
330
133
330
134
330
130
330
131
330
DC
330
DB
330
DA
330
D9
330
132
 75
     1
 76
     0
 52
45.0
 41
0.1
 77
     0
 78
     1
 53
45.0
 43
0.0
 44
0.0
 45
-0.0707106781186548
 46
0.0707106781186548
 79
     0
 98
        1
 10
0.0
 20
0.0
  0
HATCH
  5
1B3
330
47
100
AcDbEntity
  8
1
  6
Continuous
 62
     2
100
AcDbHatch
 10
0.0
 20
0.0
 30
0.0
210
0.0
220
0.0
230
1.0
  2
_USER
 70
     0
 71
     1
 91
        2
 92
        1
 93
        6
 72
     1
 10
-67.759959239805
 20
8.645727832900548
 11
-68.51872682758528
 21
8.645727832900548
 72
     1
 10
-68.51872682758528
 20
8.645727832900548
 11
-68.51872682758528
 21
7.702649591756739
 72
     1
 10
-68.51872682758528
 20
7.702649591756739
 11
-69.7592312378394
 21
7.702649591756739
 72
     1
 10
-69.7592312378394
 20
7.702649591756739
 11
-69.7592312378394
 21
10.75645911556794
 72
     1
 10
-69.7592312378394
 20
10.75645911556794
 11
-67.759959239805
 21
10.75645911556794
 72
     2
 10
-67.759959239805
 20
9.701093474234256
 40
1.055365641333708
 50
270.0
 51
450.0
 73
     0
 97
        6
330
100
330
FF
330
10C
330
10B
330
101
330
151
 92
       16
 93
        4
 72
     2
 10
-68.20143176604338
 20
9.740489445456745
 40
0.3528638246711182
 50
270.0
 51
450.0
 73
     1
 72
     1
 10
-68.20143176604338
 20
10.09335327012784
 11
-68.51872682758528
 21
10.09335327012784
 72
     1
 10
-68.51872682758528
 20
10.09335327012784
 11
-68.51872682758528
 21
9.387625620785627
 72
     1
 10
-68.51872682758528
 20
9.387625620785627
 11
-68.20143176604338
 21
9.387625620785627
 97
        4
330
165
330
FD
330
10D
330
FE
 75
     1
 76
     0
 52
45.0
 41
0.1
 77
     0
 78
     1
 53
45.0
 43
0.0
 44
0.0
 45
-0.0707106781186548
 46
0.0707106781186548
 79
     0
 98
        1
 10
0.0
 20
0.0
  0
HATCH
  5
1B4
330
47
100
AcDbEntity
  8
1
  6
Continuous
 62
     2
100
AcDbHatch
 10
0.0
 20
0.0
 30
0.0
210
0.0
220
0.0
230
1.0
  2
_USER
 70
     0
 71
     1
 91
        2
 92
        1
 93
        6
 72
     1
 10
-67.759959239805
 20
8.645727832900548
 11
-68.51872682758528
 21
8.645727832900548
 72
     1
 10
-68.51872682758528
 20
8.645727832900548
 11
-68.51872682758528
 21
7.702649591756739
 72
     1
 10
-68.51872682758528
 20
7.702649591756739
 11
-69.7592312378394
 21
7.702649591756739
 72
     1
 10
-69.7592312378394
 20
7.702649591756739
 11
-69.7592312378394
 21
10.75645911556794
 72
     1
 10
-69.7592312378394
 20
10.75645911556794
 11
-67.759959239805
 21
10.75645911556794
 72
     2
 10
-67.759959239805
 20
9.701093474234256
 40
1.055365641333708
 50
270.0
 51
450.0
 73
     0
 97
        6
330
100
330
FF
330
10C
330
10B
330
101
330
151
 92
       16
 93
        4
 72
     2
 10
-68.20143176604338
 20
9.740489445456745
 40
0.3528638246711182
 50
270.0
 51
450.0
 73
     1
 72
     1
 10
-68.20143176604338
 20
10.09335327012784
 11
-68.51872682758528
 21
10.09335327012784
 72
     1
 10
-68.51872682758528
 20
10.09335327012784
 11
-68.51872682758528
 21
9.387625620785627
 72
     1
 10
-68.51872682758528
 20
9.387625620785627
 11
-68.20143176604338
 21
9.387625620785627
 97
        4
330
165
330
FD
330
10D
330
FE
 75
     1
 76
     0
 52
45.0
 41
0.1
 77
     0
 78
     1
 53
45.0
 43
0.0
 44
0.0
 45
-0.0707106781186548
 46
0.0707106781186548
 79
     0
 98
        1
 10
0.0
 20
0.0
  0
HATCH
  5
1B5
330
47
100
AcDbEntity
  8
1
  6
Continuous
 62
     2
100
AcDbHatch
 10
0.0
 20
0.0
 30
0.0
210
0.0
220
0.0
230
1.0
  2
_USER
 70
     0
 71
     1
 91
        2
 92
        1
 93
        4
 72
     2
 10
-65.20341649144589
 20
5.33178886718494
 40
2.065479772208568
 50
62.45185182430637
 51
117.5481481756664
 73
     1
 72
     2
 10
-65.48435638327919
 20
5.870363877487733
 40
1.45803408365149
 50
117.5481481756624
 51
242.4518518243375
 73
     1
 72
     2
 10
-65.20341649144589
 20
6.408938887791038
 40
2.065479772208509
 50
242.4518518243402
 51
297.5481481756871
 73
     1
 72
     2
 10
-64.9224765996126
 20
5.870363877487733
 40
1.458034083652003
 50
297.548148175701
 51
422.451851824299
 73
     1
 97
        4
330
15D
330
15C
330
15E
330
15B
 92
       16
 93
        4
 72
     2
 10
-65.4031565277923
 20
5.870363877487733
 40
0.7717997786796947
 50
321.8795802028417
 51
398.1204197971533
 73
     1
 72
     2
 10
-65.20341649144589
 20
6.027095055608243
 40
0.5179085730132993
 50
38.12041979714695
 51
141.8795802028589
 73
     1
 72
     2
 10
-65.0036764550998
 20
5.870363877487733
 40
0.7717997786794633
 50
141.8795802028363
 51
218.1204197971687
 73
     1
 72
     2
 10
-65.20341649144589
 20
5.713632699367736
 40
0.5179085730137354
 50
218.1204197971931
 51
321.879580202801
 73
     1
 97
        4
330
179
330
176
330
177
330
178
 75
     1
 76
     0
 52
45.0
 41
0.1
 77
     0
 78
     1
 53
45.0
 43
0.0
 44
0.0
 45
-0.0707106781186548
 46
0.0707106781186548
 79
     0
 98
        1
 10
0.0
 20
0.0
  0
HATCH
  5
1B6
330
47
100
AcDbEntity
  8
1
  6
Continuous
 62
     2
100
AcDbHatch
 10
0.0
 20
0.0
 30
0.0
210
0.0
220
0.0
230
1.0
  2
_USER
 70
     0
 71
     1
 91
        2
 92
        1
 93
        4
 72
     2
 10
-65.20341649144589
 20
5.33178886718494
 40
2.065479772208568
 50
62.45185182430637
 51
117.5481481756664
 73
     1
 72
     2
 10
-65.48435638327919
 20
5.870363877487733
 40
1.45803408365149
 50
117.5481481756624
 51
242.4518518243375
 73
     1
 72
     2
 10
-65.20341649144589
 20
6.408938887791038
 40
2.065479772208509
 50
242.4518518243402
 51
297.5481481756871
 73
     1
 72
     2
 10
-64.9224765996126
 20
5.870363877487733
 40
1.458034083652003
 50
297.548148175701
 51
422.451851824299
 73
     1
 97
        4
330
15D
330
15C
330
15E
330
15B
 92
       16
 93
        4
 72
     2
 10
-65.4031565277923
 20
5.870363877487733
 40
0.7717997786796947
 50
321.8795802028417
 51
398.1204197971533
 73
     1
 72
     2
 10
-65.20341649144589
 20
6.027095055608243
 40
0.5179085730132993
 50
38.12041979714695
 51
141.8795802028589
 73
     1
 72
     2
 10
-65.0036764550998
 20
5.870363877487733
 40
0.7717997786794633
 50
141.8795802028363
 51
218.1204197971687
 73
     1
 72
     2
 10
-65.20341649144589
 20
5.713632699367736
 40
0.5179085730137354
 50
218.1204197971931
 51
321.879580202801
 73
     1
 97
        4
330
179
330
176
330
177
330
178
 75
     1
 76
     0
 52
45.0
 41
0.1
 77
     0
 78
     1
 53
45.0
 43
0.0
 44
0.0
 45
-0.0707106781186548
 46
0.0707106781186548
 79
     0
 98
        1
 10
0.0
 20
0.0
  0
HATCH
  5
1B7
330
47
100
AcDbEntity
  8
1
  6
Continuous
 62
     2
100
AcDbHatch
 10
0.0
 20
0.0
 30
0.0
210
0.0
220
0.0
230
1.0
  2
_USER
 70
     0
 71
     1
 91
        2
 92
        1
 93
       12
 72
     1
 10
-58.3084212970366
 20
10.05844551012496
 11
-59.64434912346428
 21
10.05844551012496
 72
     1
 10
-59.64434912346428
 20
10.05844551012496
 11
-59.64434912346428
 21
9.578561156383245
 72
     1
 10
-59.64434912346428
 20
9.578561156383245
 11
-58.3084212970366
 21
9.578561156383245
 72
     1
 10
-58.3084212970366
 20
9.578561156383245
 11
-58.3084212970366
 21
8.880547550940946
 72
     1
 10
-58.3084212970366
 20
8.880547550940946
 11
-59.64434912346428
 21
8.880547550940946
 72
     1
 10
-59.64434912346428
 20
8.880547550940946
 11
-59.64434912346428
 21
8.400663197199236
 72
     1
 10
-59.64434912346428
 20
8.400663197199236
 11
-58.3084212970366
 21
8.400663197199236
 72
     1
 10
-58.3084212970366
 20
8.400663197199236
 11
-58.3084212970366
 21
7.702649591756739
 72
     1
 10
-58.3084212970366
 20
7.702649591756739
 11
-61.4587410208176
 21
7.702649591756739
 72
     2
 10
-61.4587410208176
 20
9.229554353662053
 40
1.526904761905888
 50
90.0
 51
270.0
 73
     0
 72
     1
 10
-61.4587410208176
 20
10.75645911556794
 11
-58.3084212970366
 21
10.75645911556794
 72
     1
 10
-58.3084212970366
 20
10.75645911556794
 11
-58.3084212970366
 21
10.05844551012496
 97
       12
330
114
330
166
330
115
330
116
330
117
330
118
330
F5
330
F4
330
F3
330
F2
330
119
330
113
 92
       16
 93
        4
 72
     2
 10
-61.2424690106524
 20
9.386285531782534
 40
0.5179085730135321
 50
38.12041979714286
 51
141.8795802028489
 73
     1
 72
     2
 10
-61.0427289743061
 20
9.229554353662053
 40
0.7717997786796724
 50
141.8795802028404
 51
218.1204197971562
 73
     1
 72
     2
 10
-61.2424690106524
 20
9.072823175541629
 40
0.5179085730134372
 50
218.1204197971511
 51
321.8795802028571
 73
     1
 72
     2
 10
-61.44220904699859
 20
9.229554353662053
 40
0.7717997786796486
 50
321.8795802028444
 51
398.1204197971589
 73
     1
 97
        4
330
160
330
15F
330
15A
330
159
 75
     1
 76
     0
 52
45.0
 41
0.1
 77
     0
 78
     1
 53
45.0
 43
0.0
 44
0.0
 45
-0.0707106781186548
 46
0.0707106781186548
 79
     0
 98
        1
 10
0.0
 20
0.0
  0
HATCH
  5
1B8
330
47
100
AcDbEntity
  8
1
  6
Continuous
 62
     2
100
AcDbHatch
 10
0.0
 20
0.0
 30
0.0
210
0.0
220
0.0
230
1.0
  2
_USER
 70
     0
 71
     1
 91
        2
 92
        1
 93
       12
 72
     1
 10
-58.3084212970366
 20
10.05844551012496
 11
-59.64434912346428
 21
10.05844551012496
 72
     1
 10
-59.64434912346428
 20
10.05844551012496
 11
-59.64434912346428
 21
9.578561156383245
 72
     1
 10
-59.64434912346428
 20
9.578561156383245
 11
-58.3084212970366
 21
9.578561156383245
 72
     1
 10
-58.3084212970366
 20
9.578561156383245
 11
-58.3084212970366
 21
8.880547550940946
 72
     1
 10
-58.3084212970366
 20
8.880547550940946
 11
-59.64434912346428
 21
8.880547550940946
 72
     1
 10
-59.64434912346428
 20
8.880547550940946
 11
-59.64434912346428
 21
8.400663197199236
 72
     1
 10
-59.64434912346428
 20
8.400663197199236
 11
-58.3084212970366
 21
8.400663197199236
 72
     1
 10
-58.3084212970366
 20
8.400663197199236
 11
-58.3084212970366
 21
7.702649591756739
 72
     1
 10
-58.3084212970366
 20
7.702649591756739
 11
-61.4587410208176
 21
7.702649591756739
 72
     2
 10
-61.4587410208176
 20
9.229554353662053
 40
1.526904761905888
 50
90.0
 51
270.0
 73
     0
 72
     1
 10
-61.4587410208176
 20
10.75645911556794
 11
-58.3084212970366
 21
10.75645911556794
 72
     1
 10
-58.3084212970366
 20
10.75645911556794
 11
-58.3084212970366
 21
10.05844551012496
 97
       12
330
114
330
166
330
115
330
116
330
117
330
118
330
F5
330
F4
330
F3
330
F2
330
119
330
113
 92
       16
 93
        4
 72
     2
 10
-61.2424690106524
 20
9.386285531782534
 40
0.5179085730135321
 50
38.12041979714286
 51
141.8795802028489
 73
     1
 72
     2
 10
-61.0427289743061
 20
9.229554353662053
 40
0.7717997786796724
 50
141.8795802028404
 51
218.1204197971562
 73
     1
 72
     2
 10
-61.2424690106524
 20
9.072823175541629
 40
0.5179085730134372
 50
218.1204197971511
 51
321.8795802028571
 73
     1
 72
     2
 10
-61.44220904699859
 20
9.229554353662053
 40
0.7717997786796486
 50
321.8795802028444
 51
398.1204197971589
 73
     1
 97
        4
330
160
330
15F
330
15A
330
159
 75
     1
 76
     0
 52
45.0
 41
0.1
 77
     0
 78
     1
 53
45.0
 43
0.0
 44
0.0
 45
-0.0707106781186548
 46
0.0707106781186548
 79
     0
 98
        1
 10
0.0
 20
0.0
  0
HATCH
  5
1B9
330
47
100
AcDbEntity
  8
1
  6
Continuous
 62
     2
100
AcDbHatch
 10
0.0
 20
0.0
 30
0.0
210
0.0
220
0.0
230
1.0
  2
_USER
 70
     0
 71
     1
 91
        4
 92
        1
 93
        8
 72
     1
 10
-70.2363483187062
 20
10.33221450016595
 11
-70.2363483187062
 21
4.767703730965735
 72
     2
 10
-70.66059293409009
 20
4.767703730965735
 40
0.4242446153832873
 50
0.0
 51
90.0
 73
     0
 72
     1
 10
-70.66059293409009
 20
4.343459115582448
 11
-76.1339050248069
 21
4.343459115582448
 72
     2
 10
-76.1339050248069
 20
4.767703730965735
 40
0.4242446153828041
 50
90.0
 51
180.0
 73
     0
 72
     1
 10
-76.5581496401897
 20
4.767703730965735
 11
-76.5581496401897
 21
10.33221450016595
 72
     2
 10
-76.1339050248069
 20
10.33221450016595
 40
0.4242446153838006
 50
180.0
 51
270.0
 73
     0
 72
     1
 10
-76.1339050248069
 20
10.75645911554975
 11
-70.66059293409009
 21
10.75645911554975
 72
     2
 10
-70.66059293409009
 20
10.33221450016595
 40
0.4242446153838841
 50
270.0
 51
360.0
 73
     0
 97
        8
330
108
330
156
330
109
330
161
330
106
330
158
330
107
330
157
 92
       16
 93
        1
 72
     2
 10
-73.51431937428939
 20
8.013332271810441
 40
0.4709789327785074
 50
0.0
 51
360.0
 73
     1
 97
        1
330
17C
 92
       16
 93
        8
 72
     2
 10
-72.9644616615287
 20
6.904190671842031
 40
0.3157169230765328
 50
115.3740086783519
 51
180.0
 73
     1
 72
     1
 10
-73.2801785846055
 20
6.904190671842031
 11
-73.2801785846055
 21
6.322339265146951
 72
     2
 10
-72.9644616615287
 20
6.322339265146951
 40
0.315716923076792
 50
180.0
 51
269.8110329574542
 73
     1
 72
     2
 10
-72.95884552621868
 20
8.025174212715939
 40
2.018561131933266
 50
269.8110329575858
 51
450.1889670424142
 73
     1
 72
     2
 10
-72.9644616615287
 20
9.72800916028504
 40
0.3157169230760729
 50
90.18896704254594
 51
180.0
 73
     1
 72
     1
 10
-73.2801785846055
 20
9.72800916028504
 11
-73.2801785846055
 21
9.122473871778254
 72
     2
 10
-72.9644616615287
 20
9.122473871778254
 40
0.315716923076792
 50
180.0
 51
244.6259913216482
 73
     1
 72
     2
 10
-73.49050435961658
 20
8.013332271810441
 40
0.911848150144459
 50
295.3740086781925
 51
424.6259913218236
 73
     0
 97
        8
330
16E
330
CF
330
16B
330
16C
330
14A
330
CE
330
16D
330
149
 92
       16
 93
       12
 72
     2
 10
-75.5400103480604
 20
5.371731594216044
 40
0.3157169230756836
 50
180.0
 51
270.0
 73
     1
 72
     1
 10
-75.5400103480604
 20
5.056014671139337
 11
-74.06417708705078
 21
5.056014671139337
 72
     2
 10
-74.06417708705078
 20
5.371731594216044
 40
0.3157169230767067
 50
270.0
 51
360.0
 73
     1
 72
     1
 10
-73.74846016397419
 20
5.371731594216044
 11
-73.74846016397419
 21
6.90250252574765
 72
     2
 10
-74.06417708705078
 20
6.90250252574765
 40
0.315716923076593
 50
0.0
 51
64.80558935146027
 73
     1
 72
     2
 10
-73.5415926394758
 20
8.013332271810441
 40
0.9118975235576147
 50
115.1944106485122
 51
244.8055893514718
 73
     0
 72
     2
 10
-74.06417708705078
 20
9.124162017872635
 40
0.3157169230761203
 50
295.1944106485397
 51
360.0
 73
     1
 72
     1
 10
-73.74846016397419
 20
9.124162017872635
 11
-73.74846016397419
 21
9.728186636933145
 72
     2
 10
-74.06417708705078
 20
9.728186636933145
 40
0.315716923076593
 50
0.0
 51
90.0
 73
     1
 72
     1
 10
-74.06417708705078
 20
10.04390356000934
 11
-75.5400103480604
 21
10.04390356000934
 72
     2
 10
-75.5400103480604
 20
9.728186636933145
 40
0.3157169230761951
 50
90.0
 51
180.0
 73
     1
 72
     1
 10
-75.85572727113609
 20
9.728186636933145
 11
-75.85572727113609
 21
5.371731594216044
 97
       12
330
152
330
10A
330
155
330
105
330
162
330
163
330
154
330
104
330
153
330
103
330
164
330
102
 75
     1
 76
     0
 52
45.0
 41
0.1
 77
     0
 78
     1
 53
45.0
 43
0.0
 44
0.0
 45
-0.0707106781186548
 46
0.0707106781186548
 79
     0
 98
        1
 10
0.0
 20
0.0
  0
HATCH
  5
1BA
330
47
100
AcDbEntity
  8
1
  6
Continuous
 62
     2
100
AcDbHatch
 10
0.0
 20
0.0
 30
0.0
210
0.0
220
0.0
230
1.0
  2
_USER
 70
     0
 71
     1
 91
        4
 92
        1
 93
        8
 72
     1
 10
-70.2363483187062
 20
10.33221450016595
 11
-70.2363483187062
 21
4.767703730965735
 72
     2
 10
-70.66059293409009
 20
4.767703730965735
 40
0.4242446153832873
 50
0.0
 51
90.0
 73
     0
 72
     1
 10
-70.66059293409009
 20
4.343459115582448
 11
-76.1339050248069
 21
4.343459115582448
 72
     2
 10
-76.1339050248069
 20
4.767703730965735
 40
0.4242446153828041
 50
90.0
 51
180.0
 73
     0
 72
     1
 10
-76.5581496401897
 20
4.767703730965735
 11
-76.5581496401897
 21
10.33221450016595
 72
     2
 10
-76.1339050248069
 20
10.33221450016595
 40
0.4242446153838006
 50
180.0
 51
270.0
 73
     0
 72
     1
 10
-76.1339050248069
 20
10.75645911554975
 11
-70.66059293409009
 21
10.75645911554975
 72
     2
 10
-70.66059293409009
 20
10.33221450016595
 40
0.4242446153838841
 50
270.0
 51
360.0
 73
     0
 97
        8
330
108
330
156
330
109
330
161
330
106
330
158
330
107
330
157
 92
       16
 93
        1
 72
     2
 10
-73.51431937428939
 20
8.013332271810441
 40
0.4709789327785074
 50
0.0
 51
360.0
 73
     1
 97
        1
330
17C
 92
       16
 93
        8
 72
     2
 10
-72.9644616615287
 20
6.904190671842031
 40
0.3157169230765328
 50
115.3740086783519
 51
180.0
 73
     1
 72
     1
 10
-73.2801785846055
 20
6.904190671842031
 11
-73.2801785846055
 21
6.322339265146951
 72
     2
 10
-72.9644616615287
 20
6.322339265146951
 40
0.315716923076792
 50
180.0
 51
269.8110329574542
 73
     1
 72
     2
 10
-72.95884552621868
 20
8.025174212715939
 40
2.018561131933266
 50
269.8110329575858
 51
450.1889670424142
 73
     1
 72
     2
 10
-72.9644616615287
 20
9.72800916028504
 40
0.3157169230760729
 50
90.18896704254594
 51
180.0
 73
     1
 72
     1
 10
-73.2801785846055
 20
9.72800916028504
 11
-73.2801785846055
 21
9.122473871778254
 72
     2
 10
-72.9644616615287
 20
9.122473871778254
 40
0.315716923076792
 50
180.0
 51
244.6259913216482
 73
     1
 72
     2
 10
-73.49050435961658
 20
8.013332271810441
 40
0.911848150144459
 50
295.3740086781925
 51
424.6259913218236
 73
     0
 97
        8
330
16E
330
CF
330
16B
330
16C
330
14A
330
CE
330
16D
330
149
 92
       16
 93
       12
 72
     2
 10
-75.5400103480604
 20
5.371731594216044
 40
0.3157169230756836
 50
180.0
 51
270.0
 73
     1
 72
     1
 10
-75.5400103480604
 20
5.056014671139337
 11
-74.06417708705078
 21
5.056014671139337
 72
     2
 10
-74.06417708705078
 20
5.371731594216044
 40
0.3157169230767067
 50
270.0
 51
360.0
 73
     1
 72
     1
 10
-73.74846016397419
 20
5.371731594216044
 11
-73.74846016397419
 21
6.90250252574765
 72
     2
 10
-74.06417708705078
 20
6.90250252574765
 40
0.315716923076593
 50
0.0
 51
64.80558935146027
 73
     1
 72
     2
 10
-73.5415926394758
 20
8.013332271810441
 40
0.9118975235576147
 50
115.1944106485122
 51
244.8055893514718
 73
     0
 72
     2
 10
-74.06417708705078
 20
9.124162017872635
 40
0.3157169230761203
 50
295.1944106485397
 51
360.0
 73
     1
 72
     1
 10
-73.74846016397419
 20
9.124162017872635
 11
-73.74846016397419
 21
9.728186636933145
 72
     2
 10
-74.06417708705078
 20
9.728186636933145
 40
0.315716923076593
 50
0.0
 51
90.0
 73
     1
 72
     1
 10
-74.06417708705078
 20
10.04390356000934
 11
-75.5400103480604
 21
10.04390356000934
 72
     2
 10
-75.5400103480604
 20
9.728186636933145
 40
0.3157169230761951
 50
90.0
 51
180.0
 73
     1
 72
     1
 10
-75.85572727113609
 20
9.728186636933145
 11
-75.85572727113609
 21
5.371731594216044
 97
       12
330
152
330
10A
330
155
330
105
330
162
330
163
330
154
330
104
330
153
330
103
330
164
330
102
 75
     1
 76
     0
 52
45.0
 41
0.1
 77
     0
 78
     1
 53
45.0
 43
0.0
 44
0.0
 45
-0.0707106781186548
 46
0.0707106781186548
 79
     0
 98
        1
 10
0.0
 20
0.0
  0
HATCH
  5
1BB
330
47
100
AcDbEntity
  8
1
  6
Continuous
 62
     2
100
AcDbHatch
 10
0.0
 20
0.0
 30
0.0
210
0.0
220
0.0
230
1.0
  2
_USER
 70
     0
 71
     1
 91
        1
 92
        1
 93
       18
 72
     1
 10
-48.6468004094852
 20
6.612003333269939
 11
-49.45789944695858
 21
6.612003333269939
 72
     1
 10
-49.45789944695858
 20
6.612003333269939
 11
-49.45789944695858
 21
4.343459115582448
 72
     1
 10
-49.45789944695858
 20
4.343459115582448
 11
-50.65069214912629
 21
4.343459115582448
 72
     1
 10
-50.65069214912629
 20
4.343459115582448
 11
-50.65069214912629
 21
6.612003333269939
 72
     1
 10
-50.65069214912629
 20
6.612003333269939
 11
-51.75433144869439
 21
6.612003333269939
 72
     2
 10
-51.75433144869439
 20
5.657480326443846
 40
0.9545230068260935
 50
90.0
 51
109.337143219432
 73
     1
 72
     2
 10
-51.90100144679809
 20
6.075435306826734
 40
0.5115800601944143
 50
109.3371432194853
 51
151.4785267424225
 73
     1
 72
     2
 10
-51.5236441887167
 20
5.870363877487733
 40
0.9410597353348924
 50
151.4785267423624
 51
208.5214732576695
 73
     1
 72
     2
 10
-51.90100144679809
 20
5.665292448149245
 40
0.5115800601960215
 50
208.5214732576866
 51
246.6277221118456
 73
     1
 72
     2
 10
-51.74456141409499
 20
6.027284466859243
 40
0.9059297849852772
 50
246.6277221118187
 51
288.4480761180817
 73
     1
 72
     2
 10
-52.16272914775689
 20
7.280830242895831
 40
2.227384008972746
 50
288.4480761181335
 51
301.9309089499397
 73
     1
 72
     1
 10
-50.98467410573298
 20
5.390479523746052
 11
-50.98467410573298
 21
4.517962516942731
 72
     2
 10
-52.3206020228497
 20
9.183044822744137
 40
4.852596863498825
 50
74.02000874166129
 51
84.84185523036365
 73
     0
 72
     2
 10
-52.03174592811388
 20
5.983154239522548
 40
1.639695123940448
 50
84.8418552303238
 51
164.9381082228988
 73
     0
 72
     2
 10
-52.45087377157549
 20
5.870363877487733
 40
1.205656168393002
 50
164.9381082229041
 51
195.0618917770972
 73
     0
 72
     2
 10
-52.03174592811388
 20
5.757573515452833
 40
1.639695123940214
 50
195.0618917771051
 51
270.0
 73
     0
 72
     1
 10
-52.03174592811388
 20
7.397268639393047
 11
-48.6468004094852
 21
7.397268639393531
 72
     1
 10
-48.6468004094852
 20
7.397268639393531
 11
-48.6468004094852
 21
6.612003333269939
 97
       18
330
D1
330
167
330
168
330
150
330
14F
330
135
330
14E
330
14D
330
169
330
14C
330
16A
330
14B
330
136
330
D0
330
D5
330
D4
330
D3
330
D2
 75
     1
 76
     0
 52
45.0
 41
0.1
 77
     0
 78
     1
 53
45.0
 43
0.0
 44
0.0
 45
-0.0707106781186548
 46
0.0707106781186548
 79
     0
 98
        1
 10
0.0
 20
0.0
  0
HATCH
  5
1BC
330
47
100
AcDbEntity
  8
1
  6
Continuous
 62
     2
100
AcDbHatch
 10
0.0
 20
0.0
 30
0.0
210
0.0
220
0.0
230
1.0
  2
_USER
 70
     0
 71
     1
 91
        1
 92
        1
 93
       18
 72
     1
 10
-48.6468004094852
 20
6.612003333269939
 11
-49.45789944695858
 21
6.612003333269939
 72
     1
 10
-49.45789944695858
 20
6.612003333269939
 11
-49.45789944695858
 21
4.343459115582448
 72
     1
 10
-49.45789944695858
 20
4.343459115582448
 11
-50.65069214912629
 21
4.343459115582448
 72
     1
 10
-50.65069214912629
 20
4.343459115582448
 11
-50.65069214912629
 21
6.612003333269939
 72
     1
 10
-50.65069214912629
 20
6.612003333269939
 11
-51.75433144869439
 21
6.612003333269939
 72
     2
 10
-51.75433144869439
 20
5.657480326443846
 40
0.9545230068260935
 50
90.0
 51
109.337143219432
 73
     1
 72
     2
 10
-51.90100144679809
 20
6.075435306826734
 40
0.5115800601944143
 50
109.3371432194853
 51
151.4785267424225
 73
     1
 72
     2
 10
-51.5236441887167
 20
5.870363877487733
 40
0.9410597353348924
 50
151.4785267423624
 51
208.5214732576695
 73
     1
 72
     2
 10
-51.90100144679809
 20
5.665292448149245
 40
0.5115800601960215
 50
208.5214732576866
 51
246.6277221118456
 73
     1
 72
     2
 10
-51.74456141409499
 20
6.027284466859243
 40
0.9059297849852772
 50
246.6277221118187
 51
288.4480761180817
 73
     1
 72
     2
 10
-52.16272914775689
 20
7.280830242895831
 40
2.227384008972746
 50
288.4480761181335
 51
301.9309089499397
 73
     1
 72
     1
 10
-50.98467410573298
 20
5.390479523746052
 11
-50.98467410573298
 21
4.517962516942731
 72
     2
 10
-52.3206020228497
 20
9.183044822744137
 40
4.852596863498825
 50
74.02000874166129
 51
84.84185523036365
 73
     0
 72
     2
 10
-52.03174592811388
 20
5.983154239522548
 40
1.639695123940448
 50
84.8418552303238
 51
164.9381082228988
 73
     0
 72
     2
 10
-52.45087377157549
 20
5.870363877487733
 40
1.205656168393002
 50
164.9381082229041
 51
195.0618917770972
 73
     0
 72
     2
 10
-52.03174592811388
 20
5.757573515452833
 40
1.639695123940214
 50
195.0618917771051
 51
270.0
 73
     0
 72
     1
 10
-52.03174592811388
 20
7.397268639393047
 11
-48.6468004094852
 21
7.397268639393531
 72
     1
 10
-48.6468004094852
 20
7.397268639393531
 11
-48.6468004094852
 21
6.612003333269939
 97
       18
330
D1
330
167
330
168
330
150
330
14F
330
135
330
14E
330
14D
330
169
330
14C
330
16A
330
14B
330
136
330
D0
330
D5
330
D4
330
D3
330
D2
 75
     1
 76
     0
 52
45.0
 41
0.1
 77
     0
 78
     1
 53
45.0
 43
0.0
 44
0.0
 45
-0.0707106781186548
 46
0.0707106781186548
 79
     0
 98
        1
 10
0.0
 20
0.0
  0
HATCH
  5
1BD
330
47
100
AcDbEntity
  8
1
  6
Continuous
 62
     2
100
AcDbHatch
 10
0.0
 20
0.0
 30
0.0
210
0.0
220
0.0
230
1.0
  2
_USER
 70
     0
 71
     1
 91
        1
 92
        1
 93
       14
 72
     2
 10
-68.13444740736679
 20
5.757573515452833
 40
1.639695123940507
 50
84.84185523036236
 51
164.9381082228864
 73
     1
 72
     2
 10
-68.5535752508296
 20
5.870363877487733
 40
1.205656168390944
 50
164.9381082228764
 51
195.0618917770948
 73
     1
 72
     2
 10
-68.13444740736679
 20
5.983154239522548
 40
1.639695123939387
 50
195.0618917770896
 51
275.1581447696395
 73
     1
 72
     2
 10
-68.4233035021027
 20
9.183044822744137
 40
4.852596863498137
 50
275.1581447696249
 51
285.9799912583529
 73
     1
 72
     1
 10
-67.0873755849849
 20
4.517962516943328
 11
-67.0873755849849
 21
5.390479523746535
 72
     2
 10
-68.26543062700978
 20
7.280830242896428
 40
2.227384008972737
 50
58.0690910500407
 51
71.55192388186722
 73
     0
 72
     2
 10
-67.84726289334898
 20
6.027284466859243
 40
0.9059297849849192
 50
71.55192388184153
 51
113.372277888129
 73
     0
 72
     2
 10
-68.003702926051
 20
5.665292448149245
 40
0.5115800601948034
 50
113.3722778881726
 51
151.4785267423044
 73
     0
 72
     2
 10
-67.6263456679707
 20
5.870363877487733
 40
0.9410597353332545
 50
151.4785267422943
 51
208.5214732577331
 73
     0
 72
     2
 10
-68.003702926051
 20
6.075435306826734
 40
0.511580060194877
 50
208.5214732576955
 51
246.6277221118008
 73
     0
 72
     2
 10
-67.84726289334898
 20
5.713443288116139
 40
0.9059297849853228
 50
246.627722111871
 51
288.4480761181465
 73
     0
 72
     2
 10
-68.26543062700978
 20
4.45989751207955
 40
2.227384008973478
 50
288.4480761181328
 51
301.9309089499592
 73
     0
 72
     1
 10
-67.0873755849849
 20
6.350248231229443
 11
-67.0873755849849
 21
7.222765238032736
 72
     2
 10
-68.4233035021027
 20
2.557682932231842
 40
4.852596863498068
 50
74.02000874164739
 51
84.84185523037506
 73
     1
 97
       14
330
16F
330
170
330
171
330
172
330
137
330
148
330
147
330
146
330
173
330
174
330
145
330
175
330
138
330
144
 75
     1
 76
     0
 52
45.0
 41
0.1
 77
     0
 78
     1
 53
45.0
 43
0.0
 44
0.0
 45
-0.0707106781186548
 46
0.0707106781186548
 79
     0
 98
        1
 10
0.0
 20
0.0
  0
HATCH
  5
1BE
330
47
100
AcDbEntity
  8
1
  6
Continuous
 62
     2
100
AcDbHatch
 10
0.0
 20
0.0
 30
0.0
210
0.0
220
0.0
230
1.0
  2
_USER
 70
     0
 71
     1
 91
        1
 92
        1
 93
       14
 72
     2
 10
-68.13444740736679
 20
5.757573515452833
 40
1.639695123940507
 50
84.84185523036236
 51
164.9381082228864
 73
     1
 72
     2
 10
-68.5535752508296
 20
5.870363877487733
 40
1.205656168390944
 50
164.9381082228764
 51
195.0618917770948
 73
     1
 72
     2
 10
-68.13444740736679
 20
5.983154239522548
 40
1.639695123939387
 50
195.0618917770896
 51
275.1581447696395
 73
     1
 72
     2
 10
-68.4233035021027
 20
9.183044822744137
 40
4.852596863498137
 50
275.1581447696249
 51
285.9799912583529
 73
     1
 72
     1
 10
-67.0873755849849
 20
4.517962516943328
 11
-67.0873755849849
 21
5.390479523746535
 72
     2
 10
-68.26543062700978
 20
7.280830242896428
 40
2.227384008972737
 50
58.0690910500407
 51
71.55192388186722
 73
     0
 72
     2
 10
-67.84726289334898
 20
6.027284466859243
 40
0.9059297849849192
 50
71.55192388184153
 51
113.372277888129
 73
     0
 72
     2
 10
-68.003702926051
 20
5.665292448149245
 40
0.5115800601948034
 50
113.3722778881726
 51
151.4785267423044
 73
     0
 72
     2
 10
-67.6263456679707
 20
5.870363877487733
 40
0.9410597353332545
 50
151.4785267422943
 51
208.5214732577331
 73
     0
 72
     2
 10
-68.003702926051
 20
6.075435306826734
 40
0.511580060194877
 50
208.5214732576955
 51
246.6277221118008
 73
     0
 72
     2
 10
-67.84726289334898
 20
5.713443288116139
 40
0.9059297849853228
 50
246.627722111871
 51
288.4480761181465
 73
     0
 72
     2
 10
-68.26543062700978
 20
4.45989751207955
 40
2.227384008973478
 50
288.4480761181328
 51
301.9309089499592
 73
     0
 72
     1
 10
-67.0873755849849
 20
6.350248231229443
 11
-67.0873755849849
 21
7.222765238032736
 72
     2
 10
-68.4233035021027
 20
2.557682932231842
 40
4.852596863498068
 50
74.02000874164739
 51
84.84185523037506
 73
     1
 97
       14
330
16F
330
170
330
171
330
172
330
137
330
148
330
147
330
146
330
173
330
174
330
145
330
175
330
138
330
144
 75
     1
 76
     0
 52
45.0
 41
0.1
 77
     0
 78
     1
 53
45.0
 43
0.0
 44
0.0
 45
-0.0707106781186548
 46
0.0707106781186548
 79
     0
 98
        1
 10
0.0
 20
0.0
  0
ENDBLK
  5
49
330
47
100
AcDbEntity
  8
0
100
AcDbBlockEnd
  0
BLOCK
  5
4B
330
4A
100
AcDbEntity
  8
0
100
AcDbBlockBegin
  2
_punkt
 70
     0
 10
48.74999999999771
 20
-2.95004088443386
 30
0.0
  3
_punkt
  1

  0
LINE
  5
1BF
330
4A
100
AcDbEntity
  8
1
  6
Continuous
 62
     2
100
AcDbLine
 10
48.74999999999771
 20
-2.95004088443386
 30
0.0
 11
53.7499999999967
 21
-2.95004088443386
 31
0.0
  0
LINE
  5
1C0
330
4A
100
AcDbEntity
  8
1
  6
Continuous
 62
     2
100
AcDbLine
 10
48.74999999999771
 20
-2.95004088443386
 30
0.0
 11
48.74999999999771
 21
-7.95004088443398
 31
0.0
  0
ENDBLK
  5
4C
330
4A
100
AcDbEntity
  8
0
100
AcDbBlockEnd
  0
BLOCK
  5
50
330
4D
100
AcDbEntity
  8
0
100
AcDbBlockBegin
  2
A4I_CS
 70
     0
 10
48.74999999999771
 20
-7.95004088443398
 30
0.0
  3
A4I_CS
  1

  0
INSERT
  5
4E
330
4D
100
AcDbEntity
  8
1
100
AcDbBlockReference
  2
_rahmen
 10
48.74999999999771
 20
-7.95004088443398
 30
0.0
  0
INSERT
  5
4F
330
4D
100
AcDbEntity
  8
1
100
AcDbBlockReference
  2
_punkt
 10
48.74999999999771
 20
-2.95004088443386
 30
0.0
  0
ENDBLK
  5
51
330
4D
100
AcDbEntity
  8
0
100
AcDbBlockEnd
  0
BLOCK
  5
53
330
52
100
AcDbEntity
  8
0
100
AcDbBlockBegin
  2
ATP_URTK_SP-select__1
 70
     0
 10
-53.38075749925267
 20
32.86241866176782
 30
0.0
  3
ATP_URTK_SP-select__1
  1

  0
LINE
  5
1C1
330
52
100
AcDbEntity
  8
0
  6
Continuous
 62
     7
100
AcDbLine
 10
-9.98989319903197
 20
43.70951237974916
 30
0.0
 11
-10.96883903195348
 21
39.09906616844673
 31
0.0
  0
LINE
  5
1C2
330
52
100
AcDbEntity
  8
0
  6
Continuous
 62
     7
100
AcDbLine
 10
-9.98989319903197
 20
43.70951237974916
 30
0.0
 11
-11.25202677213369
 21
44.07385895884094
 31
0.0
  0
LINE
  5
1C3
330
52
100
AcDbEntity
  8
0
  6
Continuous
 62
     7
100
AcDbLine
 10
-11.25202677213369
 20
45.09865568665252
 30
0.0
 11
-11.25202677213369
 21
44.07385895884094
 31
0.0
  0
LINE
  5
1C4
330
52
100
AcDbEntity
  8
0
  6
Continuous
 62
     7
100
AcDbLine
 10
-11.01489319903189
 20
42.82183634087011
 30
0.0
 11
-9.98989319903197
 21
43.70951237974916
 31
0.0
  0
LINE
  5
1C5
330
52
100
AcDbEntity
  8
0
  6
Continuous
 62
     7
100
AcDbLine
 10
-12.27702677213367
 20
43.18618291996189
 30
0.0
 11
-11.25202677213369
 21
44.07385895884094
 31
0.0
  0
LINE
  5
1C6
330
52
100
AcDbEntity
  8
0
  6
Continuous
 62
     7
100
AcDbLine
 10
-16.15888719168339
 20
44.30677949905367
 30
0.0
 11
-15.13388719168339
 21
45.19445553793272
 31
0.0
  0
LINE
  5
1C7
330
52
100
AcDbEntity
  8
0
  6
Continuous
 62
     7
100
AcDbLine
 10
-10.91100136834928
 20
45.00021013231479
 30
0.0
 11
-10.36100136834918
 21
43.88881086412477
 31
0.0
  0
LINE
  5
1C8
330
52
100
AcDbEntity
  8
0
  6
Continuous
 62
     7
100
AcDbLine
 10
-14.89675361858159
 20
43.94243291996189
 30
0.0
 11
-16.15888719168339
 21
44.30677949905367
 31
0.0
  0
LINE
  5
1C9
330
52
100
AcDbEntity
  8
0
  6
Continuous
 62
     7
100
AcDbLine
 10
-6.83189204583897
 20
42.87004475544932
 30
0.0
 11
-6.28189204583899
 21
43.66390137558506
 31
0.0
  0
LINE
  5
1CA
330
52
100
AcDbEntity
  8
0
  6
Continuous
 62
     7
100
AcDbLine
 10
-6.28189204583899
 20
43.66390137558506
 30
0.0
 11
-3.07617352941537
 21
42.73849015138336
 31
0.0
  0
LINE
  5
1CB
330
52
100
AcDbEntity
  8
0
  6
Continuous
 62
     7
100
AcDbLine
 10
0.48602261613951
 20
41.7101726996122
 30
0.0
 11
2.47788104484371
 21
41.1351726996122
 31
0.0
  0
LINE
  5
1CC
330
52
100
AcDbEntity
  8
0
  6
Continuous
 62
     7
100
AcDbLine
 10
-12.27702677213367
 20
45.39454769961221
 30
0.0
 11
-12.27702677213367
 21
43.18618291996189
 31
0.0
  0
LINE
  5
1CD
330
52
100
AcDbEntity
  8
0
  6
Continuous
 62
     7
100
AcDbLine
 10
-14.89675361858159
 20
43.94243291996189
 30
0.0
 11
-14.89675361858159
 21
46.15079769961221
 31
0.0
  0
LINE
  5
1CE
330
52
100
AcDbEntity
  8
0
  6
Continuous
 62
     7
100
AcDbLine
 10
-53.38075749925258
 20
99.26240478315748
 30
0.0
 11
-52.35575749925258
 21
100.1500808220365
 31
0.0
  0
LINE
  5
1CF
330
52
100
AcDbEntity
  8
0
  6
Continuous
 62
     7
100
AcDbLine
 10
-24.18828124116379
 20
45.7730742599475
 30
0.0
 11
-25.21328124116377
 21
44.88539822106845
 31
0.0
  0
LINE
  5
1D0
330
52
100
AcDbEntity
  8
0
  6
Continuous
 62
     7
100
AcDbLine
 10
-23.19235202681168
 20
45.30996506858144
 30
0.0
 11
-23.19235202681168
 21
44.57384347536466
 31
0.0
  0
LINE
  5
1D1
330
52
100
AcDbEntity
  8
0
  6
Continuous
 62
     7
100
AcDbLine
 10
-23.19235202681168
 20
45.30996506858144
 30
0.0
 11
-24.21735202681157
 21
44.42228902970239
 31
0.0
  0
LINE
  5
1D2
330
52
100
AcDbEntity
  8
0
  6
Continuous
 62
     7
100
AcDbLine
 10
-25.21328124116377
 20
44.88539822106845
 30
0.0
 11
-25.39652561476308
 21
45.97752679982232
 31
0.0
  0
LINE
  5
1D3
330
52
100
AcDbEntity
  8
0
  6
Continuous
 62
     7
100
AcDbLine
 10
-27.01028395401647
 20
42.11325168668759
 30
0.0
 11
-27.01028395401647
 21
43.49889233274269
 31
0.0
  0
LINE
  5
1D4
330
52
100
AcDbEntity
  8
0
  6
Continuous
 62
     7
100
AcDbLine
 10
-28.30932205969307
 20
42.48825168668759
 30
0.0
 11
-27.01028395401647
 21
42.11325168668759
 31
0.0
  0
LINE
  5
1D5
330
52
100
AcDbEntity
  8
0
  6
Continuous
 62
     7
100
AcDbLine
 10
-28.30932205969307
 20
41.36241866176782
 30
0.0
 11
-28.30932205969307
 21
42.48825168668759
 31
0.0
  0
LINE
  5
1D6
330
52
100
AcDbEntity
  8
0
  6
Continuous
 62
     7
100
AcDbLine
 10
-24.96236251502327
 20
40.39623466472686
 30
0.0
 11
-28.30932205969307
 21
41.36241866176782
 31
0.0
  0
LINE
  5
1D7
330
52
100
AcDbEntity
  8
0
  6
Continuous
 62
     7
100
AcDbLine
 10
-27.28432205969307
 20
43.37592772556664
 30
0.0
 11
-28.30932205969307
 21
42.48825168668759
 31
0.0
  0
LINE
  5
1D8
330
52
100
AcDbEntity
  8
0
  6
Continuous
 62
     7
100
AcDbLine
 10
-23.19235202681168
 20
44.57384347536466
 30
0.0
 11
-24.21735202681157
 21
43.68616743648561
 31
0.0
  0
LINE
  5
1D9
330
52
100
AcDbEntity
  8
0
  6
Continuous
 62
     7
100
AcDbLine
 10
-24.96236251502327
 20
40.39623466472686
 30
0.0
 11
-23.93736251502327
 21
41.28391070360591
 31
0.0
  0
LINE
  5
1DA
330
52
100
AcDbEntity
  8
0
  6
Continuous
 62
     7
100
AcDbLine
 10
-16.81277902236607
 20
45.75127864677387
 30
0.0
 11
-16.26277902236609
 21
46.54513526690962
 31
0.0
  0
LINE
  5
1DB
330
52
100
AcDbEntity
  8
0
  6
Continuous
 62
     7
100
AcDbLine
 10
-20.68829850638997
 20
47.82267269961221
 30
0.0
 11
-20.13829850639007
 21
46.71127343142218
 31
0.0
  0
LINE
  5
1DC
330
52
100
AcDbEntity
  8
0
  6
Continuous
 62
     7
100
AcDbLine
 10
-16.15888719168339
 20
44.30677949905367
 30
0.0
 11
-15.17994135876177
 21
39.13113864759193
 31
0.0
  0
LINE
  5
1DD
330
52
100
AcDbEntity
  8
0
  6
Continuous
 62
     7
100
AcDbLine
 10
-20.13829850639007
 20
46.71127343142218
 30
0.0
 11
-16.81277902236607
 21
45.75127864677387
 31
0.0
  0
LINE
  5
1DE
330
52
100
AcDbEntity
  8
0
  6
Continuous
 62
     7
100
AcDbLine
 10
-28.04951443855779
 20
53.06536415323618
 30
0.0
 11
-28.04951443855779
 21
43.79889233274269
 31
0.0
  0
LINE
  5
1DF
330
52
100
AcDbEntity
  8
0
  6
Continuous
 62
     7
100
AcDbLine
 10
-31.51361605369547
 20
51.81369810339664
 30
0.0
 11
-31.51361605369547
 21
54.06536415323619
 31
0.0
  0
LINE
  5
1E0
330
52
100
AcDbEntity
  8
0
  6
Continuous
 62
     7
100
AcDbLine
 10
-24.39055710756847
 20
45.86450809517121
 30
0.0
 11
-24.39055710756847
 21
46.76966046034032
 31
0.0
  0
LINE
  5
1E1
330
52
100
AcDbEntity
  8
0
  6
Continuous
 62
     7
100
AcDbLine
 10
-24.21735202681157
 20
44.42228902970239
 30
0.0
 11
-24.21735202681157
 21
43.68616743648561
 31
0.0
  0
LINE
  5
1E2
330
52
100
AcDbEntity
  8
0
  6
Continuous
 62
     7
100
AcDbLine
 10
-27.01028395401647
 20
43.49889233274269
 30
0.0
 11
-28.04951443855779
 21
43.79889233274269
 31
0.0
  0
LINE
  5
1E3
330
52
100
AcDbEntity
  8
0
  6
Continuous
 62
     7
100
AcDbLine
 10
-24.21735202681157
 20
43.68616743648561
 30
0.0
 11
-24.96236251502327
 21
40.39623466472686
 31
0.0
  0
LINE
  5
1E4
330
52
100
AcDbEntity
  8
0
  6
Continuous
 62
     7
100
AcDbLine
 10
-27.28432205969307
 20
43.37592772556664
 30
0.0
 11
-27.01028395401647
 21
43.29681973852631
 31
0.0
  0
LINE
  5
1E5
330
52
100
AcDbEntity
  8
0
  6
Continuous
 62
     7
100
AcDbLine
 10
-25.21328124116377
 20
44.88539822106845
 30
0.0
 11
-24.21735202681157
 21
44.42228902970239
 31
0.0
  0
LINE
  5
1E6
330
52
100
AcDbEntity
  8
0
  6
Continuous
 62
     7
100
AcDbLine
 10
-25.39652561476308
 20
45.97752679982232
 30
0.0
 11
-24.39055710756847
 21
45.86450809517121
 31
0.0
  0
LINE
  5
1E7
330
52
100
AcDbEntity
  8
0
  6
Continuous
 62
     7
100
AcDbLine
 10
-25.05828091664998
 20
48.11894728355171
 30
0.0
 11
-24.39055710756847
 21
46.76966046034032
 31
0.0
  0
LINE
  5
1E8
330
52
100
AcDbEntity
  8
0
  6
Continuous
 62
     7
100
AcDbLine
 10
-22.42034931395889
 20
53.17241496080506
 30
0.0
 11
-22.57958110183049
 21
53.21838121860066
 31
0.0
  0
LINE
  5
1E9
330
52
100
AcDbEntity
  8
0
  6
Continuous
 62
     7
100
AcDbLine
 10
-53.38075749925258
 20
99.26240478315748
 30
0.0
 11
-53.38075749925267
 21
62.29561201841936
 31
0.0
  0
LINE
  5
1EA
330
52
100
AcDbEntity
  8
0
  6
Continuous
 62
     7
100
AcDbLine
 10
-25.05828091664998
 20
48.11894728355171
 30
0.0
 11
-24.28531816573539
 21
52.27950175389876
 31
0.0
  0
LINE
  5
1EB
330
52
100
AcDbEntity
  8
0
  6
Continuous
 62
     7
100
AcDbLine
 10
-20.68829850638997
 20
47.82267269961221
 30
0.0
 11
-20.68829850638997
 21
50.94036415323619
 31
0.0
  0
LINE
  5
1EC
330
52
100
AcDbEntity
  8
0
  6
Continuous
 62
     7
100
AcDbLine
 10
-39.24059438446389
 20
53.17825920925797
 30
0.0
 11
-32.37964145747998
 21
51.19767269961221
 31
0.0
  0
LINE
  5
1ED
330
52
100
AcDbEntity
  8
0
  6
Continuous
 62
     7
100
AcDbLine
 10
-23.19235202681168
 20
44.57384347536466
 30
0.0
 11
-23.93736251502327
 21
41.28391070360591
 31
0.0
  0
LINE
  5
1EE
330
52
100
AcDbEntity
  8
0
  6
Continuous
 62
     7
100
AcDbLine
 10
-11.01489319903189
 20
42.82183634087011
 30
0.0
 11
-12.27702677213367
 21
43.18618291996189
 31
0.0
  0
LINE
  5
1EF
330
52
100
AcDbEntity
  8
0
  6
Continuous
 62
     7
100
AcDbLine
 10
33.38075747540682
 20
75.40008082203651
 30
0.0
 11
-52.35575749925258
 21
100.1500808220365
 31
0.0
  0
LINE
  5
1F0
330
52
100
AcDbEntity
  8
0
  6
Continuous
 62
     7
100
AcDbLine
 10
32.35575747540682
 20
74.51240478315746
 30
0.0
 11
33.38075747540682
 21
75.40008082203651
 31
0.0
  0
LINE
  5
1F1
330
52
100
AcDbEntity
  8
0
  6
Continuous
 62
     7
100
AcDbLine
 10
32.35575747540682
 20
37.54561201841935
 30
0.0
 11
33.38075747540682
 21
38.4332880572984
 31
0.0
  0
LINE
  5
1F2
330
52
100
AcDbEntity
  8
0
  6
Continuous
 62
     7
100
AcDbLine
 10
33.38075747540682
 20
38.4332880572984
 30
0.0
 11
33.38075747540682
 21
75.40008082203651
 31
0.0
  0
LINE
  5
1F3
330
52
100
AcDbEntity
  8
0
  6
Continuous
 62
     7
100
AcDbLine
 10
9.00214235887481
 20
34.8061836138924
 30
0.0
 11
9.00214235887492
 21
39.25178068665251
 31
0.0
  0
LINE
  5
1F4
330
52
100
AcDbEntity
  8
0
  6
Continuous
 62
     7
100
AcDbLine
 10
32.35575747540682
 20
37.54561201841935
 30
0.0
 11
32.35575747540682
 21
74.51240478315746
 31
0.0
  0
LINE
  5
1F5
330
52
100
AcDbEntity
  8
0
  6
Continuous
 62
     7
100
AcDbLine
 10
7.97714235887491
 20
33.91850757501335
 30
0.0
 11
7.97714235887491
 21
39.5476726996122
 31
0.0
  0
LINE
  5
1F6
330
52
100
AcDbEntity
  8
0
  6
Continuous
 62
     7
100
AcDbLine
 10
4.64294455430482
 20
36.26664822106844
 30
0.0
 11
3.82022042070963
 21
36.28369995387801
 31
0.0
  0
LINE
  5
1F7
330
52
100
AcDbEntity
  8
0
  6
Continuous
 62
     7
100
AcDbLine
 10
4.64294455430482
 20
36.99619995387801
 30
0.0
 11
3.82022042070963
 21
36.28369995387801
 31
0.0
  0
LINE
  5
1F8
330
52
100
AcDbEntity
  8
0
  6
Continuous
 62
     7
100
AcDbLine
 10
3.82022042070963
 20
35.67748217122891
 30
0.0
 11
4.37919501692511
 21
34.95714550821574
 31
0.0
  0
LINE
  5
1F9
330
52
100
AcDbEntity
  8
0
  6
Continuous
 62
     7
100
AcDbLine
 10
4.64294455430482
 20
37.30587870560977
 30
0.0
 11
4.64294455430482
 21
36.26664822106844
 31
0.0
  0
LINE
  5
1FA
330
52
100
AcDbEntity
  8
0
  6
Continuous
 62
     7
100
AcDbLine
 10
3.82022042070963
 20
36.28369995387801
 30
0.0
 11
3.82022042070963
 21
35.67748217122891
 31
0.0
  0
LINE
  5
1FB
330
52
100
AcDbEntity
  8
0
  6
Continuous
 62
     7
100
AcDbLine
 10
1.51102261613951
 20
38.59631155805529
 30
0.0
 11
1.51102261613951
 21
41.41428068665251
 31
0.0
  0
LINE
  5
1FC
330
52
100
AcDbEntity
  8
0
  6
Continuous
 62
     7
100
AcDbLine
 10
2.16054166897783
 20
34.87592772556664
 30
0.0
 11
0.86150356330111
 21
35.25092772556664
 31
0.0
  0
LINE
  5
1FD
330
52
100
AcDbEntity
  8
0
  6
Continuous
 62
     7
100
AcDbLine
 10
1.90073404784252
 20
36.33656837162173
 30
0.0
 11
1.90073404784252
 21
37.02938869464929
 31
0.0
  0
LINE
  5
1FE
330
52
100
AcDbEntity
  8
0
  6
Continuous
 62
     7
100
AcDbLine
 10
1.90073404784252
 20
37.02938869464929
 30
0.0
 11
0.87573404784251
 21
36.14171265577024
 31
0.0
  0
LINE
  5
1FF
330
52
100
AcDbEntity
  8
0
  6
Continuous
 62
     7
100
AcDbLine
 10
2.16054166897783
 20
33.75009470064687
 30
0.0
 11
2.16054166897783
 21
34.87592772556664
 31
0.0
  0
LINE
  5
200
330
52
100
AcDbEntity
  8
0
  6
Continuous
 62
     7
100
AcDbLine
 10
2.47788104484371
 20
38.51100572453196
 30
0.0
 11
2.47788104484371
 21
41.1351726996122
 31
0.0
  0
LINE
  5
201
330
52
100
AcDbEntity
  8
0
  6
Continuous
 62
     7
100
AcDbLine
 10
0.86150356330111
 20
35.25092772556664
 30
0.0
 11
0.86150356330111
 21
35.453000319783
 31
0.0
  0
LINE
  5
202
330
52
100
AcDbEntity
  8
0
  6
Continuous
 62
     7
100
AcDbLine
 10
-1.54913708275399
 20
33.63741866176781
 30
0.0
 11
1.13554166897782
 21
32.86241866176782
 31
0.0
  0
LINE
  5
203
330
52
100
AcDbEntity
  8
0
  6
Continuous
 62
     7
100
AcDbLine
 10
1.13554166897782
 20
32.86241866176782
 30
0.0
 11
1.13554166897782
 21
33.98825168668759
 31
0.0
  0
LINE
  5
204
330
52
100
AcDbEntity
  8
0
  6
Continuous
 62
     7
100
AcDbLine
 10
1.13554166897782
 20
33.98825168668759
 30
0.0
 11
-0.16349643669889
 21
34.36325168668759
 31
0.0
  0
LINE
  5
205
330
52
100
AcDbEntity
  8
0
  6
Continuous
 62
     7
100
AcDbLine
 10
-0.16349643669889
 20
34.36325168668759
 30
0.0
 11
-0.16349643669889
 21
35.74889233274269
 31
0.0
  0
LINE
  5
206
330
52
100
AcDbEntity
  8
0
  6
Continuous
 62
     7
100
AcDbLine
 10
-0.16349643669889
 20
35.74889233274269
 30
0.0
 11
0.87573404784251
 21
35.44889233274268
 31
0.0
  0
LINE
  5
207
330
52
100
AcDbEntity
  8
0
  6
Continuous
 62
     7
100
AcDbLine
 10
0.87573404784251
 20
35.44889233274268
 30
0.0
 11
0.87573404784251
 21
36.14171265577024
 31
0.0
  0
LINE
  5
208
330
52
100
AcDbEntity
  8
0
  6
Continuous
 62
     7
100
AcDbLine
 10
0.87573404784251
 20
36.14171265577024
 30
0.0
 11
0.48602261613951
 21
37.70863551917624
 31
0.0
  0
LINE
  5
209
330
52
100
AcDbEntity
  8
0
  6
Continuous
 62
     7
100
AcDbLine
 10
0.48602261613951
 20
37.70863551917624
 30
0.0
 11
0.48602261613951
 21
41.7101726996122
 31
0.0
  0
LINE
  5
20A
330
52
100
AcDbEntity
  8
0
  6
Continuous
 62
     7
100
AcDbLine
 10
1.13554166897782
 20
32.86241866176782
 30
0.0
 11
2.16054166897783
 21
33.75009470064687
 31
0.0
  0
LINE
  5
20B
330
52
100
AcDbEntity
  8
0
  6
Continuous
 62
     7
100
AcDbLine
 10
2.16054166897783
 20
34.87592772556664
 30
0.0
 11
1.13554166897782
 21
33.98825168668759
 31
0.0
  0
LINE
  5
20C
330
52
100
AcDbEntity
  8
0
  6
Continuous
 62
     7
100
AcDbLine
 10
1.90073404784252
 20
36.33656837162173
 30
0.0
 11
0.87573404784251
 21
35.44889233274268
 31
0.0
  0
LINE
  5
20D
330
52
100
AcDbEntity
  8
0
  6
Continuous
 62
     7
100
AcDbLine
 10
7.97714235887491
 20
33.91850757501335
 30
0.0
 11
4.37919501692511
 21
34.95714550821574
 31
0.0
  0
LINE
  5
20E
330
52
100
AcDbEntity
  8
0
  6
Continuous
 62
     7
100
AcDbLine
 10
7.97714235887491
 20
33.91850757501335
 30
0.0
 11
9.00214235887481
 21
34.8061836138924
 31
0.0
  0
LINE
  5
20F
330
52
100
AcDbEntity
  8
0
  6
Continuous
 62
     7
100
AcDbLine
 10
-0.16349643669889
 20
34.36325168668759
 30
0.0
 11
0.86150356330111
 21
35.25092772556664
 31
0.0
  0
LINE
  5
210
330
52
100
AcDbEntity
  8
0
  6
Continuous
 62
     7
100
AcDbLine
 10
-16.26277902236609
 20
46.54513526690962
 30
0.0
 11
-14.89675361858159
 21
46.15079769961221
 31
0.0
  0
LINE
  5
211
330
52
100
AcDbEntity
  8
0
  6
Continuous
 62
     7
100
AcDbLine
 10
-15.98777902236597
 20
46.46574960489603
 30
0.0
 11
-16.81277902236607
 21
45.75127864677387
 31
0.0
  0
LINE
  5
212
330
52
100
AcDbEntity
  8
0
  6
Continuous
 62
     7
100
AcDbLine
 10
-14.89675361858159
 20
45.12600097180062
 30
0.0
 11
-15.13388719168339
 21
45.19445553793272
 31
0.0
  0
LINE
  5
213
330
52
100
AcDbEntity
  8
0
  6
Continuous
 62
     7
100
AcDbLine
 10
-24.03328091664997
 20
49.00662332243076
 30
0.0
 11
-23.36555710756849
 21
47.65733649921937
 31
0.0
  0
LINE
  5
214
330
52
100
AcDbEntity
  8
0
  6
Continuous
 62
     7
100
AcDbLine
 10
-23.36555710756849
 20
46.75218413405026
 30
0.0
 11
-24.39055710756847
 21
45.86450809517121
 31
0.0
  0
LINE
  5
215
330
52
100
AcDbEntity
  8
0
  6
Continuous
 62
     7
100
AcDbLine
 10
-23.36555710756849
 20
46.75218413405026
 30
0.0
 11
-23.36555710756849
 21
47.65733649921937
 31
0.0
  0
LINE
  5
216
330
52
100
AcDbEntity
  8
0
  6
Continuous
 62
     7
100
AcDbLine
 10
-24.18828124116379
 20
45.7730742599475
 30
0.0
 11
-24.22733933714468
 21
46.00585883070731
 31
0.0
  0
LINE
  5
217
330
52
100
AcDbEntity
  8
0
  6
Continuous
 62
     7
100
AcDbLine
 10
-23.36555710756849
 20
47.65733649921937
 30
0.0
 11
-24.39055710756847
 21
46.76966046034032
 31
0.0
  0
LINE
  5
218
330
52
100
AcDbEntity
  8
0
  6
Continuous
 62
     7
100
AcDbLine
 10
-25.05828091664998
 20
48.11894728355171
 30
0.0
 11
-24.03328091664997
 21
49.00662332243076
 31
0.0
  0
LINE
  5
219
330
52
100
AcDbEntity
  8
0
  6
Continuous
 62
     2
100
AcDbLine
 10
-30.4886160536955
 20
54.95304019211524
 30
0.0
 11
-31.51361605369547
 21
54.06536415323619
 31
0.0
  0
LINE
  5
21A
330
52
100
AcDbEntity
  8
0
  6
Continuous
 62
     7
100
AcDbLine
 10
-30.4886160536955
 20
52.7013741422757
 30
0.0
 11
-30.4886160536955
 21
54.95304019211524
 31
0.0
  0
LINE
  5
21B
330
52
100
AcDbEntity
  8
0
  6
Continuous
 62
     7
100
AcDbLine
 10
-30.69998778677197
 20
52.19544519625724
 30
0.0
 11
-31.72498778677198
 21
51.30776915737819
 31
0.0
  0
LINE
  5
21C
330
52
100
AcDbEntity
  8
0
  6
Continuous
 62
     2
100
AcDbLine
 10
-30.4886160536955
 20
52.7013741422757
 30
0.0
 11
-31.51361605369547
 21
51.81369810339664
 31
0.0
  0
LINE
  5
21D
330
52
100
AcDbEntity
  8
0
  6
Continuous
 62
     7
100
AcDbLine
 10
-24.18828124116379
 20
45.7730742599475
 30
0.0
 11
-23.19235202681168
 21
45.30996506858144
 31
0.0
  0
LINE
  5
21E
330
52
100
AcDbEntity
  8
0
  6
Continuous
 62
     7
100
AcDbLine
 10
-24.03328091664997
 20
49.00662332243076
 30
0.0
 11
-23.26031816573538
 21
53.1671777927778
 31
0.0
  0
LINE
  5
21F
330
52
100
AcDbEntity
  8
0
  6
Continuous
 62
     2
100
AcDbLine
 10
-23.26031816573538
 20
53.1671777927778
 30
0.0
 11
-24.28531816573539
 21
52.27950175389876
 31
0.0
  0
LINE
  5
220
330
52
100
AcDbEntity
  8
0
  6
Continuous
 62
     7
100
AcDbLine
 10
-12.27702677213367
 20
45.39454769961221
 30
0.0
 11
-10.91100136834928
 21
45.00021013231479
 31
0.0
  0
LINE
  5
221
330
52
100
AcDbEntity
  8
0
  6
Continuous
 62
     7
100
AcDbLine
 10
-53.38075749925267
 20
62.29561201841936
 30
0.0
 11
-39.83299064991599
 21
53.45372472579093
 31
0.0
  0
LINE
  5
222
330
52
100
AcDbEntity
  8
0
  6
Continuous
 62
     7
100
AcDbLine
 10
1.90073404784252
 20
37.02938869464929
 30
0.0
 11
1.51102261613951
 21
38.59631155805529
 31
0.0
  0
LINE
  5
223
330
52
100
AcDbEntity
  8
0
  6
Continuous
 62
     7
100
AcDbLine
 10
-11.99383903195349
 20
38.21139012956768
 30
0.0
 11
-10.96883903195348
 21
39.09906616844673
 31
0.0
  0
LINE
  5
224
330
52
100
AcDbEntity
  8
0
  6
Continuous
 62
     7
100
AcDbLine
 10
0.48602261613951
 20
37.70863551917624
 30
0.0
 11
1.51102261613951
 21
38.59631155805529
 31
0.0
  0
LINE
  5
225
330
52
100
AcDbEntity
  8
0
  6
Continuous
 62
     7
100
AcDbLine
 10
-15.17994135876177
 20
39.13113864759193
 30
0.0
 11
-11.99383903195349
 21
38.21139012956768
 31
0.0
  0
LINE
  5
226
330
52
100
AcDbEntity
  8
0
  6
Continuous
 62
     7
100
AcDbLine
 10
4.64294455430482
 20
37.30587870560977
 30
0.0
 11
2.47788104484371
 21
38.51100572453196
 31
0.0
  0
LINE
  5
227
330
52
100
AcDbEntity
  8
0
  6
Continuous
 62
     7
100
AcDbLine
 10
18.52100164995042
 20
36.5039226996122
 30
0.0
 11
32.35575747540682
 21
37.54561201841935
 31
0.0
  0
LINE
  5
228
330
52
100
AcDbEntity
  8
0
  6
Continuous
 62
     7
100
AcDbLine
 10
7.97714235887491
 20
39.5476726996122
 30
0.0
 11
18.52100164995042
 21
36.5039226996122
 31
0.0
  0
LINE
  5
229
330
52
100
AcDbEntity
  8
0
  6
Continuous
 62
     7
100
AcDbLine
 10
-11.01489319903189
 20
42.82183634087011
 30
0.0
 11
-11.99383903195349
 21
38.21139012956768
 31
0.0
  0
LINE
  5
22A
330
52
100
AcDbEntity
  8
0
  6
Continuous
 62
     7
100
AcDbLine
 10
-6.00689204583898
 20
43.58451571357148
 30
0.0
 11
-6.83189204583897
 21
42.87004475544932
 31
0.0
  0
LINE
  5
22B
330
52
100
AcDbEntity
  8
0
  6
Continuous
 62
     7
100
AcDbLine
 10
-10.36100136834918
 20
43.88881086412477
 30
0.0
 11
-6.83189204583897
 21
42.87004475544932
 31
0.0
  0
LINE
  5
22C
330
52
100
AcDbEntity
  8
0
  6
Continuous
 62
     7
100
AcDbLine
 10
-3.07617352941537
 20
42.73849015138336
 30
0.0
 11
-1.54913708275399
 21
33.63741866176781
 31
0.0
  0
LINE
  5
22D
330
52
100
AcDbEntity
  8
0
  6
Continuous
 62
     7
100
AcDbLine
 10
32.35575747540682
 20
74.51240478315746
 30
0.0
 11
-53.38075749925258
 21
99.26240478315748
 31
0.0
  0
SPLINE
  5
22E
330
52
100
AcDbEntity
  8
0
  6
Continuous
 62
     7
100
AcDbSpline
210
0.0
220
0.0
230
1.0
 70
     8
 71
     3
 72
    11
 73
     7
 74
     5
 42
0.000000001
 43
0.0000000001
 44
0.00000001
 40
0.0
 40
0.0
 40
0.0
 40
0.0
 40
0.2681156221828348
 40
0.5425811581271245
 40
0.8285670144176525
 40
1.129302987315416
 40
1.129302987315416
 40
1.129302987315416
 40
1.129302987315416
 10
-31.09087258754258
 20
55.07722204527309
 30
0.0
 10
-31.15452867422103
 20
55.01385140514725
 30
0.0
 10
-31.28334843480923
 20
54.88560927711335
 30
0.0
 10
-31.41436574134692
 20
54.63862294242233
 30
0.0
 10
-31.49895501645634
 20
54.36188011939365
 30
0.0
 10
-31.50864782094942
 20
54.16584557086363
 30
0.0
 10
-31.51361605369547
 20
54.06536415323619
 30
0.0
 11
-31.09087258754258
 21
55.07722204527309
 31
0.0
 11
-31.2713351256608
 21
54.87893119818553
 31
0.0
 11
-31.40449266872683
 21
54.63893036392767
 31
0.0
 11
-31.48611686495849
 21
54.36484022960943
 31
0.0
 11
-31.51361605369547
 21
54.06536415323619
 31
0.0
  0
SPLINE
  5
22F
330
52
100
AcDbEntity
  8
0
  6
Continuous
 62
     7
100
AcDbSpline
210
0.0
220
0.0
230
1.0
 70
     8
 71
     3
 72
    17
 73
    13
 74
    11
 42
0.000000001
 43
0.0000000001
 44
0.00000001
 40
0.0
 40
0.0
 40
0.0
 40
0.0
 40
0.4340469405117023
 40
0.894093912006581
 40
1.371940844027293
 40
1.856317062737399
 40
2.334897026480554
 40
2.796290082651321
 40
3.232052819923238
 40
3.638712425241678
 40
4.019500657898933
 40
4.384852940514722
 40
4.384852940514722
 40
4.384852940514722
 40
4.384852940514722
 10
-28.04951443855779
 20
53.06536415323618
 30
0.0
 10
-28.06004401851425
 20
53.2102506073888
 30
0.0
 10
-28.08173393007849
 20
53.50870241925446
 30
0.0
 10
-28.24008848313382
 20
53.94325284816522
 30
0.0
 10
-28.47794943088663
 20
54.35543044648476
 30
0.0
 10
-28.79259525155945
 20
54.72214059559344
 30
0.0
 10
-29.16337360488923
 20
55.02291953956279
 30
0.0
 10
-29.57033704953211
 20
55.24045548204592
 30
0.0
 10
-29.99168745583454
 20
55.3627436986087
 30
0.0
 10
-30.40214206807374
 20
55.37866434940971
 30
0.0
 10
-30.78620904920399
 20
55.29358354746682
 30
0.0
 10
-30.99072842389172
 20
55.14834097033182
 30
0.0
 10
-31.09087258754258
 20
55.07722204527309
 30
0.0
 11
-28.04951443855779
 21
53.06536415323618
 31
0.0
 11
-28.10031271226041
 21
53.4964282796204
 31
0.0
 11
-28.24972676257174
 21
53.93153591795532
 31
0.0
 11
-28.48899354724375
 21
54.34516509452098
 31
0.0
 11
-28.80407759276154
 21
54.71305416133159
 31
0.0
 11
-29.17649793019368
 21
55.01362341176934
 31
0.0
 11
-29.58440917815788
 21
55.22924337075082
 31
0.0
 11
-30.00388496898539
 21
55.34726550924103
 31
0.0
 11
-30.41032034400178
 21
55.36076820016293
 31
0.0
 11
-30.77987496076994
 21
55.26895824576974
 31
0.0
 11
-31.09087258754258
 21
55.07722204527309
 31
0.0
  0
SPLINE
  5
230
330
52
100
AcDbEntity
  8
0
  6
Continuous
 62
     7
100
AcDbSpline
210
0.0
220
0.0
230
1.0
 70
     8
 71
     3
 72
    11
 73
     7
 74
     5
 42
0.000000001
 43
0.0000000001
 44
0.00000001
 40
0.0
 40
0.0
 40
0.0
 40
0.0
 40
0.1871411907844204
 40
0.3630362754382701
 40
0.5295381944253651
 40
0.6906435563658428
 40
0.6906435563658428
 40
0.6906435563658428
 40
0.6906435563658428
 10
-32.37964145747998
 20
51.19767269961221
 30
0.0
 10
-32.31858084284895
 20
51.18359189895191
 30
0.0
 10
-32.20012900200921
 20
51.15627648692266
 30
0.0
 10
-32.02206444896439
 20
51.16522347189473
 30
0.0
 10
-31.85758997247322
 20
51.21115269475655
 30
0.0
 10
-31.76870043095466
 20
51.27591929136131
 30
0.0
 10
-31.72498778677198
 20
51.30776915737819
 30
0.0
 11
-32.37964145747998
 21
51.19767269961221
 31
0.0
 11
-32.19549657519583
 21
51.16431872305084
 31
0.0
 11
-32.01977360189333
 21
51.17209807144125
 31
0.0
 11
-31.86050938126358
 21
51.22065523363517
 31
0.0
 11
-31.72498778677198
 21
51.30776915737819
 31
0.0
  0
SPLINE
  5
231
330
52
100
AcDbEntity
  8
0
  6
Continuous
 62
     7
100
AcDbSpline
210
0.0
220
0.0
230
1.0
 70
     8
 71
     3
 72
     9
 73
     5
 74
     3
 42
0.000000001
 43
0.0000000001
 44
0.00000001
 40
0.0
 40
0.0
 40
0.0
 40
0.0
 40
0.4059918432177441
 40
0.832744641371836
 40
0.832744641371836
 40
0.832744641371836
 40
0.832744641371836
 10
-23.88888844324637
 20
52.99818830306869
 30
0.0
 10
-23.98353249163672
 20
52.89823159440098
 30
0.0
 10
-24.17766032671771
 20
52.69320674140111
 30
0.0
 10
-24.24884069859058
 20
52.41967652435385
 30
0.0
 10
-24.28531816573539
 20
52.27950175389876
 30
0.0
 11
-23.88888844324637
 21
52.99818830306869
 31
0.0
 11
-24.14359719805648
 21
52.68203513076959
 31
0.0
 11
-24.28531816573539
 21
52.27950175389876
 31
0.0
  0
SPLINE
  5
232
330
52
100
AcDbEntity
  8
0
  6
Continuous
 62
     7
100
AcDbSpline
210
0.0
220
0.0
230
1.0
 70
     8
 71
     3
 72
    13
 73
     9
 74
     7
 42
0.000000001
 43
0.0000000001
 44
0.00000001
 40
0.0
 40
0.0
 40
0.0
 40
0.0
 40
0.4690526610108067
 40
0.9677229627728771
 40
1.485184074263549
 40
2.006888483213702
 40
2.517495114053072
 40
3.003773787585883
 40
3.003773787585883
 40
3.003773787585883
 40
3.003773787585883
 10
-20.68829850638997
 20
50.94036415323619
 30
0.0
 10
-20.70059600351041
 20
51.09696560465502
 30
0.0
 10
-20.72596751981783
 20
51.42005687404694
 30
0.0
 10
-20.90944767370758
 20
51.88664853430992
 30
0.0
 10
-21.18252558977692
 20
52.32347954475975
 30
0.0
 10
-21.54091927851704
 20
52.69923316621021
 30
0.0
 10
-21.95452701272795
 20
53.0008453052119
 30
0.0
 10
-22.26762213279923
 20
53.11616315106085
 30
0.0
 10
-22.42034931395889
 20
53.17241496080506
 30
0.0
 11
-20.68829850638997
 21
50.94036415323619
 31
0.0
 11
-20.74731715252341
 21
51.40568898542027
 31
0.0
 11
-20.92034931395892
 21
51.8733768551284
 31
0.0
 11
-21.19560476909138
 21
52.31155540176982
 31
0.0
 11
-21.55432391017447
 21
52.69036415323618
 31
0.0
 11
-21.97206169739096
 21
52.98398682662171
 31
0.0
 11
-22.42034931395889
 21
53.17241496080506
 31
0.0
  0
SPLINE
  5
233
330
52
100
AcDbEntity
  8
0
  6
Continuous
 62
     7
100
AcDbSpline
210
0.0
220
0.0
230
1.0
 70
     8
 71
     3
 72
     9
 73
     5
 74
     3
 42
0.000000001
 43
0.0000000001
 44
0.00000001
 40
0.0
 40
0.0
 40
0.0
 40
0.0
 40
0.3337628271365722
 40
0.6551056998208068
 40
0.6551056998208068
 40
0.6551056998208068
 40
0.6551056998208068
 10
-39.83299064991599
 20
53.45372472579093
 30
0.0
 10
-39.73754413233542
 20
53.39580995632767
 30
0.0
 10
-39.55020283600784
 20
53.28213555472145
 30
0.0
 10
-39.34248451415684
 20
53.21244423270917
 30
0.0
 10
-39.24059438446389
 20
53.17825920925797
 30
0.0
 11
-39.83299064991599
 21
53.45372472579093
 31
0.0
 11
-39.54136184378876
 21
53.29139707962757
 31
0.0
 11
-39.24059438446389
 21
53.17825920925797
 31
0.0
  0
SPLINE
  5
234
330
52
100
AcDbEntity
  8
0
  6
Continuous
 62
     7
100
AcDbSpline
210
0.0
220
0.0
230
1.0
 70
     8
 71
     3
 72
    11
 73
     7
 74
     5
 42
0.000000001
 43
0.0000000001
 44
0.00000001
 40
0.0
 40
0.0
 40
0.0
 40
0.0
 40
0.374282381931245
 40
0.7260725535194898
 40
1.059076394336702
 40
1.381287120196102
 40
1.381287120196102
 40
1.381287120196102
 40
1.381287120196102
 10
-22.57958110183049
 20
53.21838121860066
 30
0.0
 10
-22.70170233121079
 20
53.24654281994854
 30
0.0
 10
-22.93860601143492
 20
53.30117365859603
 30
0.0
 10
-23.29473511935636
 20
53.28327968182884
 30
0.0
 10
-23.62368407779642
 20
53.19142124217002
 30
0.0
 10
-23.80146315434421
 20
53.06188803549357
 30
0.0
 10
-23.88888844324637
 20
52.99818830306869
 30
0.0
 11
-22.57958110183049
 21
53.21838121860066
 31
0.0
 11
-22.94787086639867
 21
53.28508917172337
 31
0.0
 11
-23.29931681300368
 21
53.26953047494257
 31
0.0
 11
-23.61784525426317
 21
53.17241615055471
 31
0.0
 11
-23.88888844324637
 21
52.99818830306869
 31
0.0
  0
SPLINE
  5
235
330
52
100
AcDbEntity
  8
0
  6
Continuous
 62
     7
100
AcDbSpline
210
0.0
220
0.0
230
1.0
 70
     8
 71
     3
 72
    11
 73
     7
 74
     5
 42
0.000000001
 43
0.0000000001
 44
0.00000001
 40
0.0
 40
0.0
 40
0.0
 40
0.0
 40
0.1340578103041948
 40
0.2712905770934457
 40
0.4142835042396781
 40
0.5646514904339068
 40
0.5646514904339068
 40
0.5646514904339068
 40
0.5646514904339068
 10
-31.72498778677198
 20
51.30776915737819
 30
0.0
 10
-31.69315974361966
 20
51.33945447725505
 30
0.0
 10
-31.62874986933619
 20
51.40357554572421
 30
0.0
 10
-31.56324121353425
 20
51.5270687100475
 30
0.0
 10
-31.52094657958019
 20
51.66544012161338
 30
0.0
 10
-31.5161001700643
 20
51.76345739466801
 30
0.0
 10
-31.51361605369547
 20
51.81369810339664
 30
0.0
 11
-31.72498778677198
 21
51.30776915737819
 31
0.0
 11
-31.63475651771285
 21
51.40691458092197
 31
0.0
 11
-31.56817774617983
 21
51.52691499805091
 31
0.0
 11
-31.52736564806399
 21
51.66396006521001
 31
0.0
 11
-31.51361605369547
 21
51.81369810339664
 31
0.0
  0
SPLINE
  5
236
330
52
100
AcDbEntity
  8
0
  6
Continuous
 62
     7
100
AcDbSpline
210
0.0
220
0.0
230
1.0
 70
     8
 71
     3
 72
     9
 73
     5
 74
     3
 42
0.000000001
 43
0.0000000001
 44
0.00000001
 40
0.0
 40
0.0
 40
0.0
 40
0.0
 40
0.2008540682233138
 40
0.4089392596533566
 40
0.4089392596533566
 40
0.4089392596533566
 40
0.4089392596533566
 10
-30.43700247943687
 20
55.35781992477223
 30
0.0
 10
-30.45203118259334
 20
55.29239617771717
 30
0.0
 10
-30.48262963073908
 20
55.15919330277946
 30
0.0
 10
-30.48659720041211
 20
55.02256322287971
 30
0.0
 10
-30.4886160536955
 20
54.95304019211524
 30
0.0
 11
-30.43700247943687
 21
55.35781992477223
 31
0.0
 11
-30.47566423021417
 21
55.16072191358884
 31
0.0
 11
-30.4886160536955
 21
54.95304019211524
 31
0.0
  0
SPLINE
  5
237
330
52
100
AcDbEntity
  8
0
  6
Continuous
 62
     7
100
AcDbSpline
210
0.0
220
0.0
230
1.0
 70
     8
 71
     3
 72
    11
 73
     7
 74
     5
 42
0.000000001
 43
0.0000000001
 44
0.00000001
 40
0.0
 40
0.0
 40
0.0
 40
0.0
 40
0.1340578103041901
 40
0.271290577093441
 40
0.4142835042396751
 40
0.5646514904339022
 40
0.5646514904339022
 40
0.5646514904339022
 40
0.5646514904339022
 10
-30.69998778677197
 20
52.19544519625724
 30
0.0
 10
-30.66815974361965
 20
52.22713051613409
 30
0.0
 10
-30.6037498693362
 20
52.29125158460327
 30
0.0
 10
-30.53824121353425
 20
52.41474474892654
 30
0.0
 10
-30.4959465795802
 20
52.55311616049244
 30
0.0
 10
-30.49110017006433
 20
52.65113343354705
 30
0.0
 10
-30.4886160536955
 20
52.7013741422757
 30
0.0
 11
-30.69998778677197
 21
52.19544519625724
 31
0.0
 11
-30.60975651771285
 21
52.29459061980102
 31
0.0
 11
-30.54317774617983
 21
52.41459103692996
 31
0.0
 11
-30.50236564806401
 21
52.55163610408907
 31
0.0
 11
-30.4886160536955
 21
52.7013741422757
 31
0.0
  0
SPLINE
  5
238
330
52
100
AcDbEntity
  8
0
  6
Continuous
 62
     7
100
AcDbSpline
210
0.0
220
0.0
230
1.0
 70
     8
 71
     3
 72
     9
 73
     5
 74
     3
 42
0.000000001
 43
0.0000000001
 44
0.00000001
 40
0.0
 40
0.0
 40
0.0
 40
0.0
 40
0.0569516366628891
 40
0.1144624541936666
 40
0.1144624541936666
 40
0.1144624541936666
 40
0.1144624541936666
 10
-23.23501833514069
 20
53.27878618256781
 30
0.0
 10
-23.23976529737843
 20
53.260400598849
 30
0.0
 10
-23.24930581055127
 20
53.22344890754598
 30
0.0
 10
-23.25663545144255
 20
53.18599582202466
 30
0.0
 10
-23.26031816573538
 20
53.1671777927778
 30
0.0
 11
-23.23501833514069
 21
53.27878618256781
 31
0.0
 11
-23.2487118813489
 21
53.22350530220773
 31
0.0
 11
-23.26031816573538
 21
53.1671777927778
 31
0.0
  0
ENDBLK
  5
54
330
52
100
AcDbEntity
  8
0
100
AcDbBlockEnd
  0
BLOCK
  5
57
330
55
100
AcDbEntity
  8
0
100
AcDbBlockBegin
  2
AllgSicht1
 70
     0
 10
-9.99999999999977
 20
62.0
 30
0.0
  3
AllgSicht1
  1

  0
INSERT
  5
56
330
55
100
AcDbEntity
  8
0
100
AcDbBlockReference
  2
ATP_URTK_SP-select__1
 10
-53.38075749925267
 20
32.86241866176782
 30
0.0
  0
ENDBLK
  5
58
330
55
100
AcDbEntity
  8
0
100
AcDbBlockEnd
  0
BLOCK
  5
5A
330
59
100
AcDbEntity
  8
0
100
AcDbBlockBegin
  2
ATP_URTK_SP-select__2
 70
     0
 10
-190.0249999999997
 20
58.14434209882961
 30
0.0
  3
ATP_URTK_SP-select__2
  1

  0
LINE
  5
239
330
59
100
AcDbEntity
  8
0
  6
Continuous
 62
     7
100
AcDbLine
 10
-91.0249999999997
 20
58.14434209882961
 30
0.0
 11
-190.0249999999997
 21
58.14434209882961
 31
0.0
  0
LINE
  5
23A
330
59
100
AcDbEntity
  8
0
  6
Continuous
 62
     7
100
AcDbLine
 10
-91.0249999999997
 20
60.19434209882961
 30
0.0
 11
-190.0249999999997
 21
60.19434209882961
 31
0.0
  0
LINE
  5
23B
330
59
100
AcDbEntity
  8
0
  6
Continuous
 62
     7
100
AcDbLine
 10
-190.0249999999997
 20
58.14434209882961
 30
0.0
 11
-190.0249999999997
 21
60.19434209882961
 31
0.0
  0
LINE
  5
23C
330
59
100
AcDbEntity
  8
0
  6
Continuous
 62
     7
100
AcDbLine
 10
-91.0249999999997
 20
58.14434209882961
 30
0.0
 11
-91.0249999999997
 21
60.19434209882961
 31
0.0
  0
ENDBLK
  5
5B
330
59
100
AcDbEntity
  8
0
100
AcDbBlockEnd
  0
BLOCK
  5
5E
330
5C
100
AcDbEntity
  8
0
100
AcDbBlockBegin
  2
Drfsicht1
 70
     0
 10
-140.525
 20
59.16934212267647
 30
0.0
  3
Drfsicht1
  1

  0
INSERT
  5
5D
330
5C
100
AcDbEntity
  8
0
100
AcDbBlockReference
  2
ATP_URTK_SP-select__2
 10
-190.0249999999997
 20
58.14434209882961
 30
0.0
  0
DIMENSION
  5
249
330
5C
100
AcDbEntity
  8
1
100
AcDbDimension
  2
*D17
 10
-200.0249999999997
 20
58.14434209882961
 30
0.0
 11
-203.4499999999997
 21
69.944772585193
 31
0.0
 70
    32
  1
<>
 71
     5
 42
-1.0
 53
90.0
  3
ME10_DIM_10
100
AcDbAlignedDimension
 13
-190.0249999999997
 23
60.19434209882961
 33
0.0
 14
-190.0249999999997
 24
58.14434209882961
 34
0.0
 50
90.0
100
AcDbRotatedDimension
  0
ENDBLK
  5
5F
330
5C
100
AcDbEntity
  8
0
100
AcDbBlockEnd
  0
BLOCK
  5
61
330
60
100
AcDbEntity
  8
0
100
AcDbBlockBegin
  2
ATP_URTK_SP-select__3
 70
     0
 10
-59.49999999999977
 20
111.7499997138978
 30
0.0
  3
ATP_URTK_SP-select__3
  1

  0
LINE
  5
24A
330
60
100
AcDbEntity
  8
0
  6
Continuous
 62
     7
100
AcDbLine
 10
-9.41988631636687
 20
119.1999997138978
 30
0.0
 11
-8.28949703604818
 21
113.5499997138978
 31
0.0
  0
LINE
  5
24B
330
60
100
AcDbEntity
  8
0
  6
Continuous
 62
     7
100
AcDbLine
 10
-20.34999999999977
 20
111.7499997138978
 30
0.0
 11
-23.44999999999979
 21
111.7499997138978
 31
0.0
  0
LINE
  5
24C
330
60
100
AcDbEntity
  8
0
  6
Continuous
 62
     7
100
AcDbLine
 10
-23.44999999999979
 20
111.7499997138978
 30
0.0
 11
-23.44999999999979
 21
113.0499997138978
 31
0.0
  0
LINE
  5
24D
330
60
100
AcDbEntity
  8
0
  6
Continuous
 62
     7
100
AcDbLine
 10
-23.44999999999979
 20
113.0499997138978
 30
0.0
 11
-21.94999999999979
 21
113.0499997138978
 31
0.0
  0
LINE
  5
24E
330
60
100
AcDbEntity
  8
0
  6
Continuous
 62
     7
100
AcDbLine
 10
-23.14999999999978
 20
114.6499997138978
 30
0.0
 11
-23.14999999999978
 21
115.4499997138978
 31
0.0
  0
LINE
  5
24F
330
60
100
AcDbEntity
  8
0
  6
Continuous
 62
     7
100
AcDbLine
 10
-4.93749999999977
 20
119.1999997138978
 30
0.0
 11
-3.48011368363257
 21
119.1999997138978
 31
0.0
  0
LINE
  5
250
330
60
100
AcDbEntity
  8
0
  6
Continuous
 62
     7
100
AcDbLine
 10
-21.94999999999979
 20
114.6499997138978
 30
0.0
 11
-23.14999999999978
 21
114.6499997138978
 31
0.0
  0
LINE
  5
251
330
60
100
AcDbEntity
  8
0
  6
Continuous
 62
     7
100
AcDbLine
 10
-21.94999999999979
 20
113.0499997138978
 30
0.0
 11
-21.94999999999979
 21
114.6499997138978
 31
0.0
  0
LINE
  5
252
330
60
100
AcDbEntity
  8
0
  6
Continuous
 62
     7
100
AcDbLine
 10
-4.61050296395129
 20
113.5499997138978
 30
0.0
 11
-8.28949703604818
 21
113.5499997138978
 31
0.0
  0
LINE
  5
253
330
60
100
AcDbEntity
  8
0
  6
Continuous
 62
     7
100
AcDbLine
 10
-3.48011368363257
 20
119.1999997138978
 30
0.0
 11
-4.61050296395129
 21
113.5499997138978
 31
0.0
  0
LINE
  5
254
330
60
100
AcDbEntity
  8
0
  6
Continuous
 62
     7
100
AcDbLine
 10
-18.58673019291507
 20
121.7499997138978
 30
0.0
 11
-20.34999999999977
 21
111.7499997138978
 31
0.0
  0
LINE
  5
255
330
60
100
AcDbEntity
  8
0
  6
Continuous
 62
     7
100
AcDbLine
 10
1.75000000000023
 20
121.7499997138978
 30
0.0
 11
1.11491470389163
 21
120.6499997138978
 31
0.0
  0
LINE
  5
256
330
60
100
AcDbEntity
  8
0
  6
Continuous
 62
     7
100
AcDbLine
 10
23.17234603858333
 20
121.7499997138978
 30
0.0
 11
15.25000000000023
 21
121.7499997138978
 31
0.0
  0
LINE
  5
257
330
60
100
AcDbEntity
  8
0
  6
Continuous
 62
     7
100
AcDbLine
 10
9.05000000000021
 20
114.6499997138978
 30
0.0
 11
10.25000000000023
 21
114.6499997138978
 31
0.0
  0
LINE
  5
258
330
60
100
AcDbEntity
  8
0
  6
Continuous
 62
     7
100
AcDbLine
 10
9.05000000000021
 20
113.0499997138978
 30
0.0
 11
9.05000000000021
 21
114.6499997138978
 31
0.0
  0
LINE
  5
259
330
60
100
AcDbEntity
  8
0
  6
Continuous
 62
     7
100
AcDbLine
 10
10.55000000000021
 20
113.0499997138978
 30
0.0
 11
9.05000000000021
 21
113.0499997138978
 31
0.0
  0
LINE
  5
25A
330
60
100
AcDbEntity
  8
0
  6
Continuous
 62
     7
100
AcDbLine
 10
10.55000000000021
 20
111.7499997138978
 30
0.0
 11
10.55000000000021
 21
113.0499997138978
 31
0.0
  0
LINE
  5
25B
330
60
100
AcDbEntity
  8
0
  6
Continuous
 62
     7
100
AcDbLine
 10
6.79602104183533
 20
120.6354473320609
 30
0.0
 11
6.02500000000023
 21
119.2999997138978
 31
0.0
  0
LINE
  5
25C
330
60
100
AcDbEntity
  8
0
  6
Continuous
 62
     7
100
AcDbLine
 10
6.02500000000023
 20
118.2548197905218
 30
0.0
 11
6.02500000000023
 21
119.2999997138978
 31
0.0
  0
LINE
  5
25D
330
60
100
AcDbEntity
  8
0
  6
Continuous
 62
     7
100
AcDbLine
 10
7.18659237685043
 20
118.0499997138978
 30
0.0
 11
6.02500000000023
 21
118.2548197905218
 31
0.0
  0
LINE
  5
25E
330
60
100
AcDbEntity
  8
0
  6
Continuous
 62
     7
100
AcDbLine
 10
6.97500000000022
 20
116.8499997138978
 30
0.0
 11
7.18659237685043
 21
118.0499997138978
 31
0.0
  0
LINE
  5
25F
330
60
100
AcDbEntity
  8
0
  6
Continuous
 62
     7
100
AcDbLine
 10
6.97500000000022
 20
116.8499997138978
 30
0.0
 11
5.82500000000022
 21
116.6472236860831
 31
0.0
  0
LINE
  5
260
330
60
100
AcDbEntity
  8
0
  6
Continuous
 62
     7
100
AcDbLine
 10
5.82500000000022
 20
116.6472236860831
 30
0.0
 11
5.82500000000022
 21
115.7972236860831
 31
0.0
  0
LINE
  5
261
330
60
100
AcDbEntity
  8
0
  6
Continuous
 62
     7
100
AcDbLine
 10
5.82500000000022
 20
115.7972236860831
 30
0.0
 11
6.68526401183641
 21
111.7499997138978
 31
0.0
  0
LINE
  5
262
330
60
100
AcDbEntity
  8
0
  6
Continuous
 62
     7
100
AcDbLine
 10
6.68526401183641
 20
111.7499997138978
 30
0.0
 11
10.55000000000021
 21
111.7499997138978
 31
0.0
  0
LINE
  5
263
330
60
100
AcDbEntity
  8
0
  6
Continuous
 62
     7
100
AcDbLine
 10
10.25000000000023
 20
125.3499997138978
 30
0.0
 11
10.25000000000023
 21
114.6499997138978
 31
0.0
  0
LINE
  5
264
330
60
100
AcDbEntity
  8
0
  6
Continuous
 62
     7
100
AcDbLine
 10
-3.36014973081009
 20
121.7499997138978
 30
0.0
 11
-4.93749999999977
 21
121.7499997138978
 31
0.0
  0
LINE
  5
265
330
60
100
AcDbEntity
  8
0
  6
Continuous
 62
     7
100
AcDbLine
 10
3.75000000000023
 20
127.3499997138978
 30
0.0
 11
3.93386503118262
 21
127.3499997138978
 31
0.0
  0
LINE
  5
266
330
60
100
AcDbEntity
  8
0
  6
Continuous
 62
     7
100
AcDbLine
 10
6.79602104183533
 20
120.6354473320609
 30
0.0
 11
5.90348053720703
 21
125.6972960692317
 31
0.0
  0
LINE
  5
267
330
60
100
AcDbEntity
  8
0
  6
Continuous
 62
     7
100
AcDbLine
 10
1.75000000000023
 20
121.7499997138978
 30
0.0
 11
1.75000000000023
 21
125.3499997138978
 31
0.0
  0
LINE
  5
268
330
60
100
AcDbEntity
  8
0
  6
Continuous
 62
     7
100
AcDbLine
 10
14.25000000000023
 20
122.7499997138978
 30
0.0
 11
14.25000000000023
 21
125.3499997138978
 31
0.0
  0
LINE
  5
269
330
60
100
AcDbEntity
  8
0
  6
Continuous
 62
     7
100
AcDbLine
 10
39.50000000000031
 20
127.5644242063005
 30
0.0
 11
23.85638632523472
 21
121.870614472326
 31
0.0
  0
LINE
  5
26A
330
60
100
AcDbEntity
  8
0
  6
Continuous
 62
     7
100
AcDbLine
 10
1.11491470389163
 20
120.6499997138978
 30
0.0
 11
-2.72506443470158
 21
120.6499997138978
 31
0.0
  0
LINE
  5
26B
330
60
100
AcDbEntity
  8
0
  6
Continuous
 62
     7
100
AcDbLine
 10
-22.69999999999979
 20
121.7499997138978
 30
0.0
 11
-24.99999999999977
 21
121.7499997138978
 31
0.0
  0
LINE
  5
26C
330
60
100
AcDbEntity
  8
0
  6
Continuous
 62
     7
100
AcDbLine
 10
-2.72506443470158
 20
120.6499997138978
 30
0.0
 11
-3.36014973081009
 21
121.7499997138978
 31
0.0
  0
LINE
  5
26D
330
60
100
AcDbEntity
  8
0
  6
Continuous
 62
     7
100
AcDbLine
 10
-31.34999999999977
 20
121.7499997138978
 30
0.0
 11
-43.52499999999978
 21
121.7499997138978
 31
0.0
  0
LINE
  5
26E
330
60
100
AcDbEntity
  8
0
  6
Continuous
 62
     7
100
AcDbLine
 10
-59.49999999999977
 20
127.5644242063005
 30
0.0
 11
-59.49999999999977
 21
170.2499997138978
 31
0.0
  0
LINE
  5
26F
330
60
100
AcDbEntity
  8
0
  6
Continuous
 62
     7
100
AcDbLine
 10
39.50000000000023
 20
170.2499997138978
 30
0.0
 11
39.50000000000031
 21
127.5644242063005
 31
0.0
  0
LINE
  5
270
330
60
100
AcDbEntity
  8
0
  6
Continuous
 62
     7
100
AcDbLine
 10
-59.49999999999977
 20
170.2499997138978
 30
0.0
 11
39.50000000000023
 21
170.2499997138978
 31
0.0
  0
LINE
  5
271
330
60
100
AcDbEntity
  8
0
  6
Continuous
 62
     7
100
AcDbLine
 10
-9.41988631636687
 20
119.1999997138978
 30
0.0
 11
-7.96249999999978
 21
119.1999997138978
 31
0.0
  0
LINE
  5
272
330
60
100
AcDbEntity
  8
0
  6
Continuous
 62
     7
100
AcDbLine
 10
-7.96249999999978
 20
121.7499997138978
 30
0.0
 11
-7.96249999999978
 21
119.1999997138978
 31
0.0
  0
LINE
  5
273
330
60
100
AcDbEntity
  8
0
  6
Continuous
 62
     7
100
AcDbLine
 10
-7.96249999999978
 20
121.7499997138978
 30
0.0
 11
-9.53985026918937
 21
121.7499997138978
 31
0.0
  0
LINE
  5
274
330
60
100
AcDbEntity
  8
0
  6
Continuous
 62
     7
100
AcDbLine
 10
-9.53985026918937
 20
121.7499997138978
 30
0.0
 11
-10.17493556529797
 21
120.6499997138978
 31
0.0
  0
LINE
  5
275
330
60
100
AcDbEntity
  8
0
  6
Continuous
 62
     7
100
AcDbLine
 10
-10.17493556529797
 20
120.6499997138978
 30
0.0
 11
-14.24999999999977
 21
120.6499997138978
 31
0.0
  0
LINE
  5
276
330
60
100
AcDbEntity
  8
0
  6
Continuous
 62
     7
100
AcDbLine
 10
-4.93749999999977
 20
119.1999997138978
 30
0.0
 11
-4.93749999999977
 21
121.7499997138978
 31
0.0
  0
LINE
  5
277
330
60
100
AcDbEntity
  8
0
  6
Continuous
 62
     7
100
AcDbLine
 10
-14.24999999999977
 20
120.6499997138978
 30
0.0
 11
-14.88508529610837
 21
121.7499997138978
 31
0.0
  0
LINE
  5
278
330
60
100
AcDbEntity
  8
0
  6
Continuous
 62
     7
100
AcDbLine
 10
-22.69999999999979
 20
117.1294225773038
 30
0.0
 11
-22.69999999999979
 21
121.7499997138978
 31
0.0
  0
LINE
  5
279
330
60
100
AcDbEntity
  8
0
  6
Continuous
 62
     7
100
AcDbLine
 10
-23.14999999999978
 20
115.4499997138978
 30
0.0
 11
-22.69999999999979
 21
117.1294225773038
 31
0.0
  0
LINE
  5
27A
330
60
100
AcDbEntity
  8
0
  6
Continuous
 62
     7
100
AcDbLine
 10
-26.54999999999978
 20
115.8954479810883
 30
0.0
 11
-27.19544826719019
 21
115.2499997138978
 31
0.0
  0
LINE
  5
27B
330
60
100
AcDbEntity
  8
0
  6
Continuous
 62
     7
100
AcDbLine
 10
-27.49999999999977
 20
118.0499997138978
 30
0.0
 11
-27.49999999999977
 21
116.8499997138978
 31
0.0
  0
LINE
  5
27C
330
60
100
AcDbEntity
  8
0
  6
Continuous
 62
     7
100
AcDbLine
 10
-27.49999999999977
 20
116.8499997138978
 30
0.0
 11
-26.54999999999978
 21
116.5954479810882
 31
0.0
  0
LINE
  5
27D
330
60
100
AcDbEntity
  8
0
  6
Continuous
 62
     7
100
AcDbLine
 10
-26.54999999999978
 20
116.5954479810882
 30
0.0
 11
-26.54999999999978
 21
115.8954479810883
 31
0.0
  0
LINE
  5
27E
330
60
100
AcDbEntity
  8
0
  6
Continuous
 62
     7
100
AcDbLine
 10
-31.34999999999977
 20
115.2499997138978
 30
0.0
 11
-31.34999999999977
 21
121.7499997138978
 31
0.0
  0
LINE
  5
27F
330
60
100
AcDbEntity
  8
0
  6
Continuous
 62
     7
100
AcDbLine
 10
-31.34999999999977
 20
115.2499997138978
 30
0.0
 11
-27.19544826719019
 21
115.2499997138978
 31
0.0
  0
LINE
  5
280
330
60
100
AcDbEntity
  8
0
  6
Continuous
 62
     7
100
AcDbLine
 10
-24.99999999999977
 20
118.7198726949756
 30
0.0
 11
-24.99999999999977
 21
121.7499997138978
 31
0.0
  0
LINE
  5
281
330
60
100
AcDbEntity
  8
0
  6
Continuous
 62
     7
100
AcDbLine
 10
-14.88508529610837
 20
121.7499997138978
 30
0.0
 11
-18.58673019291507
 21
121.7499997138978
 31
0.0
  0
LINE
  5
282
330
60
100
AcDbEntity
  8
0
  6
Continuous
 62
     7
100
AcDbLine
 10
-27.49999999999977
 20
118.0499997138978
 30
0.0
 11
-24.99999999999977
 21
118.7198726949756
 31
0.0
  0
LINE
  5
283
330
60
100
AcDbEntity
  8
0
  6
Continuous
 62
     7
100
AcDbLine
 10
-43.52499999999978
 20
121.7499997138978
 30
0.0
 11
-59.49999999999977
 21
127.5644242063005
 31
0.0
  0
ARC
  5
284
330
60
100
AcDbEntity
  8
0
  6
Continuous
 62
     7
100
AcDbCircle
 10
23.17234603858333
 20
123.7499997138978
 30
0.0
 40
2.0
100
AcDbArc
 50
270.0
 51
290.0000000000016
  0
ARC
  5
285
330
60
100
AcDbEntity
  8
0
  6
Continuous
 62
     7
100
AcDbCircle
 10
15.25000000000023
 20
122.7499997138978
 30
0.0
 40
1.0
100
AcDbArc
 50
180.0
 51
270.0
  0
ARC
  5
286
330
60
100
AcDbEntity
  8
0
  6
Continuous
 62
     7
100
AcDbCircle
 10
3.93386503118262
 20
125.3499997138978
 30
0.0
 40
2.000000000000001
100
AcDbArc
 50
10.00000000000101
 51
90.0
  0
ARC
  5
287
330
60
100
AcDbEntity
  8
0
  6
Continuous
 62
     7
100
AcDbCircle
 10
3.75000000000023
 20
125.3499997138978
 30
0.0
 40
2.0
100
AcDbArc
 50
90.0
 51
180.0
  0
ARC
  5
288
330
60
100
AcDbEntity
  8
0
  6
Continuous
 62
     7
100
AcDbCircle
 10
12.25000000000023
 20
125.3499997138978
 30
0.0
 40
2.0
100
AcDbArc
 50
0.0
 51
180.0
  0
ENDBLK
  5
62
330
60
100
AcDbEntity
  8
0
100
AcDbBlockEnd
  0
BLOCK
  5
65
330
63
100
AcDbEntity
  8
0
100
AcDbBlockBegin
  2
Rckans1
 70
     0
 10
-9.99999999999937
 20
141.0
 30
0.0
  3
Rckans1
  1

  0
INSERT
  5
64
330
63
100
AcDbEntity
  8
0
100
AcDbBlockReference
  2
ATP_URTK_SP-select__3
 10
-59.49999999999977
 20
111.7499997138978
 30
0.0
  0
ENDBLK
  5
66
330
63
100
AcDbEntity
  8
0
100
AcDbBlockEnd
  0
BLOCK
  5
68
330
67
100
AcDbEntity
  8
0
100
AcDbBlockBegin
  2
ATP_URTK_SP-select__4
 70
     0
 10
-228.0250000238519
 20
111.7499997138978
 30
0.0
  3
ATP_URTK_SP-select__4
  1

  0
LINE
  5
289
330
67
100
AcDbEntity
  8
0
  6
Continuous
 62
     7
100
AcDbLine
 10
-225.9750000238519
 20
114.6499997138978
 30
0.0
 11
-228.0250000238519
 21
114.6499997138978
 31
0.0
  0
LINE
  5
28A
330
67
100
AcDbEntity
  8
0
  6
Continuous
 62
     7
100
AcDbLine
 10
-225.9750000238519
 20
111.7499997138978
 30
0.0
 11
-225.9750000238519
 21
113.0499997138978
 31
0.0
  0
LINE
  5
28B
330
67
100
AcDbEntity
  8
0
  6
Continuous
 62
     7
100
AcDbLine
 10
-225.9750000238519
 20
113.0499997138978
 30
0.0
 11
-228.0250000238519
 21
113.0499997138978
 31
0.0
  0
LINE
  5
28C
330
67
100
AcDbEntity
  8
0
  6
Continuous
 62
     7
100
AcDbLine
 10
-228.0250000238519
 20
111.7499997138978
 30
0.0
 11
-225.9750000238519
 21
111.7499997138978
 31
0.0
  0
LINE
  5
28D
330
67
100
AcDbEntity
  8
0
  6
Continuous
 62
     7
100
AcDbLine
 10
-228.0250000238519
 20
113.0499997138978
 30
0.0
 11
-228.0250000238519
 21
114.6499997138978
 31
0.0
  0
LINE
  5
28E
330
67
100
AcDbEntity
  8
0
  6
Continuous
 62
     7
100
AcDbLine
 10
-228.0250000238519
 20
114.6499997138978
 30
0.0
 11
-228.0250000238519
 21
115.2499997138978
 31
0.0
  0
LINE
  5
28F
330
67
100
AcDbEntity
  8
0
  6
Continuous
 62
     7
100
AcDbLine
 10
-228.0250000238519
 20
111.7499997138978
 30
0.0
 11
-228.0250000238519
 21
113.0499997138978
 31
0.0
  0
LINE
  5
290
330
67
100
AcDbEntity
  8
0
  6
Continuous
 62
     7
100
AcDbLine
 10
-225.9750000238519
 20
113.0499997138978
 30
0.0
 11
-225.9750000238519
 21
114.6499997138978
 31
0.0
  0
LINE
  5
291
330
67
100
AcDbEntity
  8
0
  6
Continuous
 62
     7
100
AcDbLine
 10
-225.9750000238519
 20
114.6499997138978
 30
0.0
 11
-225.9750000238519
 21
115.2499997138978
 31
0.0
  0
LINE
  5
292
330
67
100
AcDbEntity
  8
0
  6
Continuous
 62
     7
100
AcDbLine
 10
-225.9750000238519
 20
115.2499997138978
 30
0.0
 11
-225.9750000238519
 21
121.7499997138978
 31
0.0
  0
LINE
  5
293
330
67
100
AcDbEntity
  8
0
  6
Continuous
 62
     7
100
AcDbLine
 10
-228.0250000238519
 20
170.2499997138978
 30
0.0
 11
-225.9750000238519
 21
170.2499997138978
 31
0.0
  0
LINE
  5
294
330
67
100
AcDbEntity
  8
0
  6
Continuous
 62
     7
100
AcDbLine
 10
-228.0250000238519
 20
121.7499997138978
 30
0.0
 11
-228.0250000238519
 21
127.5644242063005
 31
0.0
  0
LINE
  5
295
330
67
100
AcDbEntity
  8
0
  6
Continuous
 62
     7
100
AcDbLine
 10
-225.9750000238519
 20
121.7499997138978
 30
0.0
 11
-225.9750000238519
 21
127.5644242063005
 31
0.0
  0
LINE
  5
296
330
67
100
AcDbEntity
  8
0
  6
Continuous
 62
     7
100
AcDbLine
 10
-228.0250000238519
 20
121.7499997138978
 30
0.0
 11
-225.9750000238519
 21
121.7499997138978
 31
0.0
  0
LINE
  5
297
330
67
100
AcDbEntity
  8
0
  6
Continuous
 62
     7
100
AcDbLine
 10
-228.0250000238519
 20
127.5644242063005
 30
0.0
 11
-225.9750000238519
 21
127.5644242063005
 31
0.0
  0
LINE
  5
298
330
67
100
AcDbEntity
  8
0
  6
Continuous
 62
     7
100
AcDbLine
 10
-228.0250000238519
 20
127.5644242063005
 30
0.0
 11
-228.0250000238519
 21
170.2499997138978
 31
0.0
  0
LINE
  5
299
330
67
100
AcDbEntity
  8
0
  6
Continuous
 62
     7
100
AcDbLine
 10
-228.0250000238519
 20
115.2499997138978
 30
0.0
 11
-225.9750000238519
 21
115.2499997138978
 31
0.0
  0
LINE
  5
29A
330
67
100
AcDbEntity
  8
0
  6
Continuous
 62
     7
100
AcDbLine
 10
-228.0250000238519
 20
115.2499997138978
 30
0.0
 11
-228.0250000238519
 21
121.7499997138978
 31
0.0
  0
LINE
  5
29B
330
67
100
AcDbEntity
  8
0
  6
Continuous
 62
     7
100
AcDbLine
 10
-225.9750000238519
 20
127.5644242063005
 30
0.0
 11
-225.9750000238519
 21
170.2499997138978
 31
0.0
  0
ENDBLK
  5
69
330
67
100
AcDbEntity
  8
0
100
AcDbBlockEnd
  0
BLOCK
  5
6C
330
6A
100
AcDbEntity
  8
0
100
AcDbBlockBegin
  2
SA_Rechts1
 70
     0
 10
-227.000000000005
 20
141.0
 30
0.0
  3
SA_Rechts1
  1

  0
INSERT
  5
6B
330
6A
100
AcDbEntity
  8
0
100
AcDbBlockReference
  2
ATP_URTK_SP-select__4
 10
-228.0250000238519
 20
111.7499997138978
 30
0.0
  0
ENDBLK
  5
6D
330
6A
100
AcDbEntity
  8
0
100
AcDbBlockEnd
  0
BLOCK
  5
6F
330
6E
100
AcDbEntity
  8
0
100
AcDbBlockBegin
  2
ATP_URTK_SP-select__5
 70
     0
 10
-76.02499995230312
 20
111.7499994277958
 30
0.0
  3
ATP_URTK_SP-select__5
  1

  0
LINE
  5
29C
330
6E
100
AcDbEntity
  8
0
  6
Continuous
 62
     7
100
AcDbLine
 10
-76.02499995230312
 20
121.7499994277958
 30
0.0
 11
-76.02499995230312
 21
114.6499994277958
 31
0.0
  0
LINE
  5
29D
330
6E
100
AcDbEntity
  8
0
  6
Continuous
 62
     7
100
AcDbLine
 10
-76.02499995230312
 20
114.6499994277958
 30
0.0
 11
-73.97499995230312
 21
114.6499994277958
 31
0.0
  0
LINE
  5
29E
330
6E
100
AcDbEntity
  8
0
  6
Continuous
 62
     7
100
AcDbLine
 10
-76.02499995230312
 20
127.5644239201985
 30
0.0
 11
-76.02499995230312
 21
121.870614186224
 31
0.0
  0
LINE
  5
29F
330
6E
100
AcDbEntity
  8
0
  6
Continuous
 62
     7
100
AcDbLine
 10
-76.02499995230312
 20
170.2499994277958
 30
0.0
 11
-76.02499995230312
 21
127.5644239201985
 31
0.0
  0
LINE
  5
2A0
330
6E
100
AcDbEntity
  8
0
  6
Continuous
 62
     7
100
AcDbLine
 10
-76.02499995230312
 20
114.6499994277958
 30
0.0
 11
-76.02499995230312
 21
113.0499994277958
 31
0.0
  0
LINE
  5
2A1
330
6E
100
AcDbEntity
  8
0
  6
Continuous
 62
     7
100
AcDbLine
 10
-76.02499995230312
 20
113.0499994277958
 30
0.0
 11
-76.02499995230312
 21
111.7499994277958
 31
0.0
  0
LINE
  5
2A2
330
6E
100
AcDbEntity
  8
0
  6
Continuous
 62
     7
100
AcDbLine
 10
-76.02499995230312
 20
121.7499994277958
 30
0.0
 11
-73.97499995230312
 21
121.7499994277958
 31
0.0
  0
LINE
  5
2A3
330
6E
100
AcDbEntity
  8
0
  6
Continuous
 62
     7
100
AcDbLine
 10
-76.02499995230312
 20
121.870614186224
 30
0.0
 11
-76.02499995230312
 21
121.7499994277958
 31
0.0
  0
LINE
  5
2A4
330
6E
100
AcDbEntity
  8
0
  6
Continuous
 62
     2
100
AcDbLine
 10
-76.02499995230312
 20
121.870614186224
 30
0.0
 11
-73.97499995230312
 21
121.870614186224
 31
0.0
  0
LINE
  5
2A5
330
6E
100
AcDbEntity
  8
0
  6
Continuous
 62
     7
100
AcDbLine
 10
-73.97499995230312
 20
121.870614186224
 30
0.0
 11
-73.97499995230312
 21
121.7499994277958
 31
0.0
  0
LINE
  5
2A6
330
6E
100
AcDbEntity
  8
0
  6
Continuous
 62
     7
100
AcDbLine
 10
-73.97499995230312
 20
127.5644239201985
 30
0.0
 11
-73.97499995230312
 21
121.870614186224
 31
0.0
  0
LINE
  5
2A7
330
6E
100
AcDbEntity
  8
0
  6
Continuous
 62
     7
100
AcDbLine
 10
-73.97499995230312
 20
121.7499994277958
 30
0.0
 11
-73.97499995230312
 21
114.6499994277958
 31
0.0
  0
LINE
  5
2A8
330
6E
100
AcDbEntity
  8
0
  6
Continuous
 62
     7
100
AcDbLine
 10
-73.97499995230312
 20
114.6499994277958
 30
0.0
 11
-73.97499995230312
 21
113.0499994277958
 31
0.0
  0
LINE
  5
2A9
330
6E
100
AcDbEntity
  8
0
  6
Continuous
 62
     7
100
AcDbLine
 10
-73.97499995230312
 20
113.0499994277958
 30
0.0
 11
-73.97499995230312
 21
111.7499994277958
 31
0.0
  0
LINE
  5
2AA
330
6E
100
AcDbEntity
  8
0
  6
Continuous
 62
     7
100
AcDbLine
 10
-73.97499995230312
 20
127.5644239201985
 30
0.0
 11
-76.02499995230312
 21
127.5644239201985
 31
0.0
  0
LINE
  5
2AB
330
6E
100
AcDbEntity
  8
0
  6
Continuous
 62
     7
100
AcDbLine
 10
-73.97499995230312
 20
170.2499994277958
 30
0.0
 11
-76.02499995230312
 21
170.2499994277958
 31
0.0
  0
LINE
  5
2AC
330
6E
100
AcDbEntity
  8
0
  6
Continuous
 62
     7
100
AcDbLine
 10
-73.97499995230312
 20
111.7499994277958
 30
0.0
 11
-76.02499995230312
 21
111.7499994277958
 31
0.0
  0
LINE
  5
2AD
330
6E
100
AcDbEntity
  8
0
  6
Continuous
 62
     7
100
AcDbLine
 10
-76.02499995230312
 20
113.0499994277958
 30
0.0
 11
-73.97499995230312
 21
113.0499994277958
 31
0.0
  0
LINE
  5
2AE
330
6E
100
AcDbEntity
  8
0
  6
Continuous
 62
     7
100
AcDbLine
 10
-73.97499995230312
 20
170.2499994277958
 30
0.0
 11
-73.97499995230312
 21
127.5644239201985
 31
0.0
  0
ENDBLK
  5
70
330
6E
100
AcDbEntity
  8
0
100
AcDbBlockEnd
  0
BLOCK
  5
73
330
71
100
AcDbEntity
  8
0
100
AcDbBlockBegin
  2
SA_links1
 70
     0
 10
-74.99999997614998
 20
140.999999713898
 30
0.0
  3
SA_links1
  1

  0
INSERT
  5
72
330
71
100
AcDbEntity
  8
0
100
AcDbBlockReference
  2
ATP_URTK_SP-select__5
 10
-76.02499995230312
 20
111.7499994277958
 30
0.0
  0
ENDBLK
  5
74
330
71
100
AcDbEntity
  8
0
100
AcDbBlockEnd
  0
BLOCK
  5
76
330
75
100
AcDbEntity
  8
0
100
AcDbBlockBegin
  2
ATP_URTK_SP-select__6
 70
     0
 10
-190.0249999999997
 20
111.7499994277958
 30
0.0
  3
ATP_URTK_SP-select__6
  1

  0
LINE
  5
2AF
330
75
100
AcDbEntity
  8
0
  6
Continuous
 62
     7
100
AcDbLine
 10
-145.5874999999997
 20
119.1999994277958
 30
0.0
 11
-145.5874999999997
 21
121.7499994277958
 31
0.0
  0
LINE
  5
2B0
330
75
100
AcDbEntity
  8
0
  6
Continuous
 62
     7
100
AcDbLine
 10
-142.5624999999997
 20
121.7499994277958
 30
0.0
 11
-142.5624999999997
 21
119.1999994277958
 31
0.0
  0
LINE
  5
2B1
330
75
100
AcDbEntity
  8
0
  6
Continuous
 62
     7
100
AcDbLine
 10
-157.3210210418347
 20
120.6354470459589
 30
0.0
 11
-156.4284805372064
 21
125.6972957831297
 31
0.0
  0
LINE
  5
2B2
330
75
100
AcDbEntity
  8
0
  6
Continuous
 62
     7
100
AcDbLine
 10
-157.4999999999997
 20
116.8499994277958
 30
0.0
 11
-157.7115923768498
 21
118.0499994277958
 31
0.0
  0
LINE
  5
2B3
330
75
100
AcDbEntity
  8
0
  6
Continuous
 62
     7
100
AcDbLine
 10
-156.5499999999997
 20
118.2548195044198
 30
0.0
 11
-156.5499999999997
 21
119.2999994277958
 31
0.0
  0
LINE
  5
2B4
330
75
100
AcDbEntity
  8
0
  6
Continuous
 62
     7
100
AcDbLine
 10
-157.7115923768498
 20
118.0499994277958
 30
0.0
 11
-156.5499999999997
 21
118.2548195044198
 31
0.0
  0
LINE
  5
2B5
330
75
100
AcDbEntity
  8
0
  6
Continuous
 62
     7
100
AcDbLine
 10
-157.4999999999997
 20
116.8499994277958
 30
0.0
 11
-156.3499999999997
 21
116.6472233999811
 31
0.0
  0
LINE
  5
2B6
330
75
100
AcDbEntity
  8
0
  6
Continuous
 62
     7
100
AcDbLine
 10
-160.7749999999997
 20
125.3499994277958
 30
0.0
 11
-160.7749999999997
 21
114.6499994277958
 31
0.0
  0
LINE
  5
2B7
330
75
100
AcDbEntity
  8
0
  6
Continuous
 62
     7
100
AcDbLine
 10
-156.3499999999997
 20
116.6472233999811
 30
0.0
 11
-156.3499999999997
 21
115.7972233999811
 31
0.0
  0
LINE
  5
2B8
330
75
100
AcDbEntity
  8
0
  6
Continuous
 62
     7
100
AcDbLine
 10
-159.5749999999997
 20
114.6499994277958
 30
0.0
 11
-160.7749999999997
 21
114.6499994277958
 31
0.0
  0
LINE
  5
2B9
330
75
100
AcDbEntity
  8
0
  6
Continuous
 62
     7
100
AcDbLine
 10
-147.0448863163668
 20
119.1999994277958
 30
0.0
 11
-145.9144970360482
 21
113.5499994277958
 31
0.0
  0
LINE
  5
2BA
330
75
100
AcDbEntity
  8
0
  6
Continuous
 62
     7
100
AcDbLine
 10
-157.3210210418347
 20
120.6354470459589
 30
0.0
 11
-156.5499999999997
 21
119.2999994277958
 31
0.0
  0
LINE
  5
2BB
330
75
100
AcDbEntity
  8
0
  6
Continuous
 62
     7
100
AcDbLine
 10
-128.5749999999997
 20
114.6499994277958
 30
0.0
 11
-127.3749999999997
 21
114.6499994277958
 31
0.0
  0
LINE
  5
2BC
330
75
100
AcDbEntity
  8
0
  6
Continuous
 62
     7
100
AcDbLine
 10
-127.0749999999997
 20
111.7499994277958
 30
0.0
 11
-127.0749999999997
 21
113.0499994277958
 31
0.0
  0
LINE
  5
2BD
330
75
100
AcDbEntity
  8
0
  6
Continuous
 62
     7
100
AcDbLine
 10
-130.1749999999997
 20
111.7499994277958
 30
0.0
 11
-127.0749999999997
 21
111.7499994277958
 31
0.0
  0
LINE
  5
2BE
330
75
100
AcDbEntity
  8
0
  6
Continuous
 62
     7
100
AcDbLine
 10
-127.0749999999997
 20
113.0499994277958
 30
0.0
 11
-128.5749999999997
 21
113.0499994277958
 31
0.0
  0
LINE
  5
2BF
330
75
100
AcDbEntity
  8
0
  6
Continuous
 62
     7
100
AcDbLine
 10
-128.5749999999997
 20
113.0499994277958
 30
0.0
 11
-128.5749999999997
 21
114.6499994277958
 31
0.0
  0
LINE
  5
2C0
330
75
100
AcDbEntity
  8
0
  6
Continuous
 62
     7
100
AcDbLine
 10
-127.3749999999997
 20
114.6499994277958
 30
0.0
 11
-127.3749999999997
 21
115.4499994277958
 31
0.0
  0
LINE
  5
2C1
330
75
100
AcDbEntity
  8
0
  6
Continuous
 62
     7
100
AcDbLine
 10
-127.3749999999997
 20
115.4499994277958
 30
0.0
 11
-127.8249999999997
 21
117.1294222912018
 31
0.0
  0
LINE
  5
2C2
330
75
100
AcDbEntity
  8
0
  6
Continuous
 62
     7
100
AcDbLine
 10
-127.8249999999997
 20
117.1294222912018
 30
0.0
 11
-127.8249999999997
 21
121.7499994277958
 31
0.0
  0
LINE
  5
2C3
330
75
100
AcDbEntity
  8
0
  6
Continuous
 62
     7
100
AcDbLine
 10
-123.9749999999997
 20
116.5954476949863
 30
0.0
 11
-123.9749999999997
 21
115.8954476949863
 31
0.0
  0
LINE
  5
2C4
330
75
100
AcDbEntity
  8
0
  6
Continuous
 62
     7
100
AcDbLine
 10
-91.0249999999997
 20
127.5644239201985
 30
0.0
 11
-91.0249999999997
 21
170.2499994277958
 31
0.0
  0
LINE
  5
2C5
330
75
100
AcDbEntity
  8
0
  6
Continuous
 62
     7
100
AcDbLine
 10
-140.3500644347014
 20
120.6499994277958
 30
0.0
 11
-136.2749999999997
 21
120.6499994277958
 31
0.0
  0
LINE
  5
2C6
330
75
100
AcDbEntity
  8
0
  6
Continuous
 62
     7
100
AcDbLine
 10
-123.0249999999997
 20
118.0499994277958
 30
0.0
 11
-125.5249999999997
 21
118.7198724088736
 31
0.0
  0
LINE
  5
2C7
330
75
100
AcDbEntity
  8
0
  6
Continuous
 62
     7
100
AcDbLine
 10
-164.7749999999997
 20
122.7499994277958
 30
0.0
 11
-164.7749999999997
 21
125.3499994277958
 31
0.0
  0
LINE
  5
2C8
330
75
100
AcDbEntity
  8
0
  6
Continuous
 62
     7
100
AcDbLine
 10
-91.0249999999997
 20
170.2499994277958
 30
0.0
 11
-190.0249999999997
 21
170.2499994277958
 31
0.0
  0
LINE
  5
2C9
330
75
100
AcDbEntity
  8
0
  6
Continuous
 62
     7
100
AcDbLine
 10
-173.6973460385827
 20
121.7499994277958
 30
0.0
 11
-165.7749999999996
 21
121.7499994277958
 31
0.0
  0
LINE
  5
2CA
330
75
100
AcDbEntity
  8
0
  6
Continuous
 62
     7
100
AcDbLine
 10
-190.0249999999997
 20
170.2499994277958
 30
0.0
 11
-190.0249999999997
 21
127.5644239201985
 31
0.0
  0
LINE
  5
2CB
330
75
100
AcDbEntity
  8
0
  6
Continuous
 62
     7
100
AcDbLine
 10
-142.5624999999997
 20
121.7499994277958
 30
0.0
 11
-140.98514973081
 21
121.7499994277958
 31
0.0
  0
LINE
  5
2CC
330
75
100
AcDbEntity
  8
0
  6
Continuous
 62
     7
100
AcDbLine
 10
-119.1749999999997
 20
121.7499994277958
 30
0.0
 11
-106.9999999999997
 21
121.7499994277958
 31
0.0
  0
LINE
  5
2CD
330
75
100
AcDbEntity
  8
0
  6
Continuous
 62
     7
100
AcDbLine
 10
-135.6399147038911
 20
121.7499994277958
 30
0.0
 11
-131.9382698070843
 21
121.7499994277958
 31
0.0
  0
LINE
  5
2CE
330
75
100
AcDbEntity
  8
0
  6
Continuous
 62
     7
100
AcDbLine
 10
-127.8249999999997
 20
121.7499994277958
 30
0.0
 11
-125.5249999999997
 21
121.7499994277958
 31
0.0
  0
LINE
  5
2CF
330
75
100
AcDbEntity
  8
0
  6
Continuous
 62
     7
100
AcDbLine
 10
-125.5249999999997
 20
118.7198724088736
 30
0.0
 11
-125.5249999999997
 21
121.7499994277958
 31
0.0
  0
LINE
  5
2D0
330
75
100
AcDbEntity
  8
0
  6
Continuous
 62
     7
100
AcDbLine
 10
-123.0249999999997
 20
118.0499994277958
 30
0.0
 11
-123.0249999999997
 21
116.8499994277958
 31
0.0
  0
LINE
  5
2D1
330
75
100
AcDbEntity
  8
0
  6
Continuous
 62
     7
100
AcDbLine
 10
-123.0249999999997
 20
116.8499994277958
 30
0.0
 11
-123.9749999999997
 21
116.5954476949863
 31
0.0
  0
LINE
  5
2D2
330
75
100
AcDbEntity
  8
0
  6
Continuous
 62
     7
100
AcDbLine
 10
-119.1749999999997
 20
115.2499994277958
 30
0.0
 11
-119.1749999999997
 21
121.7499994277958
 31
0.0
  0
LINE
  5
2D3
330
75
100
AcDbEntity
  8
0
  6
Continuous
 62
     7
100
AcDbLine
 10
-157.2102640118359
 20
111.7499994277958
 30
0.0
 11
-161.0749999999997
 21
111.7499994277958
 31
0.0
  0
LINE
  5
2D4
330
75
100
AcDbEntity
  8
0
  6
Continuous
 62
     7
100
AcDbLine
 10
-161.0749999999997
 20
111.7499994277958
 30
0.0
 11
-161.0749999999997
 21
113.0499994277958
 31
0.0
  0
LINE
  5
2D5
330
75
100
AcDbEntity
  8
0
  6
Continuous
 62
     7
100
AcDbLine
 10
-145.5874999999997
 20
119.1999994277958
 30
0.0
 11
-147.0448863163668
 21
119.1999994277958
 31
0.0
  0
LINE
  5
2D6
330
75
100
AcDbEntity
  8
0
  6
Continuous
 62
     7
100
AcDbLine
 10
-141.1051136836325
 20
119.1999994277958
 30
0.0
 11
-142.5624999999997
 21
119.1999994277958
 31
0.0
  0
LINE
  5
2D7
330
75
100
AcDbEntity
  8
0
  6
Continuous
 62
     7
100
AcDbLine
 10
-141.1051136836325
 20
119.1999994277958
 30
0.0
 11
-142.2355029639512
 21
113.5499994277958
 31
0.0
  0
LINE
  5
2D8
330
75
100
AcDbEntity
  8
0
  6
Continuous
 62
     7
100
AcDbLine
 10
-159.5749999999997
 20
113.0499994277958
 30
0.0
 11
-159.5749999999997
 21
114.6499994277958
 31
0.0
  0
LINE
  5
2D9
330
75
100
AcDbEntity
  8
0
  6
Continuous
 62
     7
100
AcDbLine
 10
-156.3499999999997
 20
115.7972233999811
 30
0.0
 11
-157.2102640118359
 21
111.7499994277958
 31
0.0
  0
LINE
  5
2DA
330
75
100
AcDbEntity
  8
0
  6
Continuous
 62
     7
100
AcDbLine
 10
-145.9144970360482
 20
113.5499994277958
 30
0.0
 11
-142.2355029639512
 21
113.5499994277958
 31
0.0
  0
LINE
  5
2DB
330
75
100
AcDbEntity
  8
0
  6
Continuous
 62
     7
100
AcDbLine
 10
-123.9749999999997
 20
115.8954476949863
 30
0.0
 11
-123.3295517328092
 21
115.2499994277958
 31
0.0
  0
LINE
  5
2DC
330
75
100
AcDbEntity
  8
0
  6
Continuous
 62
     7
100
AcDbLine
 10
-119.1749999999997
 20
115.2499994277958
 30
0.0
 11
-123.3295517328092
 21
115.2499994277958
 31
0.0
  0
LINE
  5
2DD
330
75
100
AcDbEntity
  8
0
  6
Continuous
 62
     7
100
AcDbLine
 10
-161.0749999999997
 20
113.0499994277958
 30
0.0
 11
-159.5749999999997
 21
113.0499994277958
 31
0.0
  0
LINE
  5
2DE
330
75
100
AcDbEntity
  8
0
  6
Continuous
 62
     7
100
AcDbLine
 10
-147.1648502691893
 20
121.7499994277958
 30
0.0
 11
-145.5874999999997
 21
121.7499994277958
 31
0.0
  0
LINE
  5
2DF
330
75
100
AcDbEntity
  8
0
  6
Continuous
 62
     7
100
AcDbLine
 10
-147.7999355652979
 20
120.6499994277958
 30
0.0
 11
-147.1648502691893
 21
121.7499994277958
 31
0.0
  0
LINE
  5
2E0
330
75
100
AcDbEntity
  8
0
  6
Continuous
 62
     7
100
AcDbLine
 10
-151.6399147038911
 20
120.6499994277958
 30
0.0
 11
-147.7999355652979
 21
120.6499994277958
 31
0.0
  0
LINE
  5
2E1
330
75
100
AcDbEntity
  8
0
  6
Continuous
 62
     7
100
AcDbLine
 10
-152.2749999999997
 20
121.7499994277958
 30
0.0
 11
-151.6399147038911
 21
120.6499994277958
 31
0.0
  0
LINE
  5
2E2
330
75
100
AcDbEntity
  8
0
  6
Continuous
 62
     7
100
AcDbLine
 10
-152.2749999999997
 20
121.7499994277958
 30
0.0
 11
-152.2749999999997
 21
125.3499994277958
 31
0.0
  0
LINE
  5
2E3
330
75
100
AcDbEntity
  8
0
  6
Continuous
 62
     7
100
AcDbLine
 10
-154.2749999999997
 20
127.3499994277958
 30
0.0
 11
-154.458865031182
 21
127.3499994277958
 31
0.0
  0
LINE
  5
2E4
330
75
100
AcDbEntity
  8
0
  6
Continuous
 62
     7
100
AcDbLine
 10
-140.98514973081
 20
121.7499994277958
 30
0.0
 11
-140.3500644347014
 21
120.6499994277958
 31
0.0
  0
LINE
  5
2E5
330
75
100
AcDbEntity
  8
0
  6
Continuous
 62
     7
100
AcDbLine
 10
-190.0249999999997
 20
127.5644239201985
 30
0.0
 11
-174.3813863252341
 21
121.870614186224
 31
0.0
  0
LINE
  5
2E6
330
75
100
AcDbEntity
  8
0
  6
Continuous
 62
     7
100
AcDbLine
 10
-136.2749999999997
 20
120.6499994277958
 30
0.0
 11
-135.6399147038911
 21
121.7499994277958
 31
0.0
  0
LINE
  5
2E7
330
75
100
AcDbEntity
  8
0
  6
Continuous
 62
     7
100
AcDbLine
 10
-131.9382698070843
 20
121.7499994277958
 30
0.0
 11
-130.1749999999997
 21
111.7499994277958
 31
0.0
  0
LINE
  5
2E8
330
75
100
AcDbEntity
  8
0
  6
Continuous
 62
     7
100
AcDbLine
 10
-106.9999999999997
 20
121.7499994277958
 30
0.0
 11
-91.0249999999997
 21
127.5644239201985
 31
0.0
  0
ARC
  5
2E9
330
75
100
AcDbEntity
  8
0
  6
Continuous
 62
     7
100
AcDbCircle
 10
-165.7749999999997
 20
122.7499994277958
 30
0.0
 40
1.0
100
AcDbArc
 50
270.0000000000049
 51
0.0
  0
ARC
  5
2EA
330
75
100
AcDbEntity
  8
0
  6
Continuous
 62
     7
100
AcDbCircle
 10
-162.7749999999997
 20
125.3499994277958
 30
0.0
 40
2.0
100
AcDbArc
 50
0.0
 51
180.0
  0
ARC
  5
2EB
330
75
100
AcDbEntity
  8
0
  6
Continuous
 62
     7
100
AcDbCircle
 10
-154.2749999999997
 20
125.3499994277958
 30
0.0
 40
2.0
100
AcDbArc
 50
0.0
 51
90.0
  0
ARC
  5
2EC
330
75
100
AcDbEntity
  8
0
  6
Continuous
 62
     7
100
AcDbCircle
 10
-154.458865031182
 20
125.3499994277958
 30
0.0
 40
2.0
100
AcDbArc
 50
90.0
 51
169.9999999999986
  0
ARC
  5
2ED
330
75
100
AcDbEntity
  8
0
  6
Continuous
 62
     7
100
AcDbCircle
 10
-173.6973460385827
 20
123.7499994277958
 30
0.0
 40
2.0
100
AcDbArc
 50
249.9999999999982
 51
270.0
  0
ENDBLK
  5
77
330
75
100
AcDbEntity
  8
0
100
AcDbBlockEnd
  0
BLOCK
  5
7A
330
78
100
AcDbEntity
  8
0
100
AcDbBlockBegin
  2
Vordans1
 70
     0
 10
-140.525
 20
140.999999713898
 30
0.0
  3
Vordans1
  1

  0
INSERT
  5
79
330
78
100
AcDbEntity
  8
0
100
AcDbBlockReference
  2
ATP_URTK_SP-select__6
 10
-190.0249999999997
 20
111.7499994277958
 30
0.0
  0
LINE
  5
2EE
330
78
100
AcDbEntity
  8
1
  6
Continuous
 62
     2
100
AcDbLine
 10
-140.5249999999996
 20
123.716552322164
 30
0.0
 11
-140.5249999999996
 21
117.716552322164
 31
0.0
  0
DIMENSION
  5
2F9
330
78
100
AcDbEntity
  8
1
100
AcDbDimension
  2
*D18
 10
-91.02499999999964
 20
82.543565178002
 30
0.0
 11
-141.741920697314
 21
86.293565178002
 31
0.0
 70
    32
  1
<>
 71
     5
 42
-1.0
 53
0.00013888888889
  3
ME10_DIM_11
100
AcDbAlignedDimension
 13
-190.0249999999997
 23
127.5644239201985
 33
0.0
 14
-91.0249999999997
 24
127.5644239201985
 34
0.0
100
AcDbRotatedDimension
  0
DIMENSION
  5
304
330
78
100
AcDbEntity
  8
1
100
AcDbDimension
  2
*D19
 10
-140.5249999999996
 20
101.543565178002
 30
0.0
 11
-131.680695370929
 21
105.468565178002
 31
0.0
 70
    32
  1
<>
 71
     5
 42
-1.0
 53
0.00013888888889
  3
ME10_DIM_12
100
AcDbAlignedDimension
 13
-123.0249999999997
 23
116.8499994277958
 33
0.0
 14
-140.5249999999996
 24
117.716552322164
 34
0.0
100
AcDbRotatedDimension
  0
DIMENSION
  5
30F
330
78
100
AcDbEntity
  8
1
100
AcDbDimension
  2
*D20
 10
-140.5249999999997
 20
92.543565178002
 30
0.0
 11
-116.545610595311
 21
96.468565178002
 31
0.0
 70
    32
  1
<>
 71
     5
 42
-1.0
 53
0.00013888888889
  3
ME10_DIM_13
100
AcDbAlignedDimension
 13
-91.0249999999997
 23
127.5644239201985
 33
0.0
 14
-140.5249999999996
 24
117.716552322164
 34
0.0
100
AcDbRotatedDimension
  0
DIMENSION
  5
31A
330
78
100
AcDbEntity
  8
1
100
AcDbDimension
  2
*D21
 10
-208.0249999999997
 20
111.7499994277958
 30
0.0
 11
-211.4499999999997
 21
141.134854794718
 31
0.0
 70
    32
  1
<>
 71
     5
 42
-1.0
 53
90.0
  3
ME10_DIM_14
100
AcDbAlignedDimension
 13
-190.0249999999997
 23
170.2499994277958
 33
0.0
 14
-161.0749999999997
 24
111.7499994277958
 34
0.0
 50
90.0
100
AcDbRotatedDimension
  0
DIMENSION
  5
325
330
78
100
AcDbEntity
  8
1
100
AcDbDimension
  2
*D22
 10
-200.0249999999997
 20
118.0499994277958
 30
0.0
 11
-203.4499999999997
 21
143.52073564449
 31
0.0
 70
    32
  1
<>
 71
     5
 42
-1.0
 53
90.0
  3
ME10_DIM_15
100
AcDbAlignedDimension
 13
-190.0249999999997
 23
170.2499994277958
 33
0.0
 14
-123.0249999999997
 24
118.0499994277958
 34
0.0
 50
90.0
100
AcDbRotatedDimension
  0
ENDBLK
  5
7B
330
78
100
AcDbEntity
  8
0
100
AcDbBlockEnd
  0
BLOCK
  5
84
330
7C
100
AcDbEntity
  8
0
100
AcDbBlockBegin
  2
1
 70
     0
 10
0.0
 20
0.0
 30
0.0
  3
1
  1

  0
INSERT
  5
7D
330
7C
100
AcDbEntity
  8
0
100
AcDbBlockReference
  2
A4I_CS
 10
48.74999999999771
 20
-7.95004088443398
 30
0.0
  0
INSERT
  5
7E
330
7C
100
AcDbEntity
  8
0
100
AcDbBlockReference
  2
AllgSicht1
 10
-9.99999999999977
 20
62.0
 30
0.0
  0
INSERT
  5
7F
330
7C
100
AcDbEntity
  8
0
100
AcDbBlockReference
  2
Drfsicht1
 10
-140.525
 20
59.16934212267647
 30
0.0
  0
INSERT
  5
80
330
7C
100
AcDbEntity
  8
0
100
AcDbBlockReference
  2
Rckans1
 10
-9.99999999999937
 20
141.0
 30
0.0
  0
INSERT
  5
81
330
7C
100
AcDbEntity
  8
0
100
AcDbBlockReference
  2
SA_Rechts1
 10
-227.000000000005
 20
141.0
 30
0.0
  0
INSERT
  5
82
330
7C
100
AcDbEntity
  8
0
100
AcDbBlockReference
  2
SA_links1
 10
-74.99999997614998
 20
140.999999713898
 30
0.0
  0
INSERT
  5
83
330
7C
100
AcDbEntity
  8
0
100
AcDbBlockReference
  2
Vordans1
 10
-140.525
 20
140.999999713898
 30
0.0
  0
ENDBLK
  5
85
330
7C
100
AcDbEntity
  8
0
100
AcDbBlockEnd
  0
BLOCK
  5
246
330
23D
100
AcDbEntity
  8
0
100
AcDbBlockBegin
  2
*D17
 70
     1
 10
0.0
 20
0.0
 30
0.0
  3
*D17
  1

  0
LINE
  5
23E
330
23D
100
AcDbEntity
  8
1
  6
Continuous
 62
     2
100
AcDbLine
 10
-200.0249999999997
 20
51.14434209882961
 30
0.0
 11
-200.0249999999997
 21
58.14434209882961
 31
0.0
  0
LINE
  5
23F
330
23D
100
AcDbEntity
  8
1
  6
Continuous
 62
     2
100
AcDbLine
 10
-200.0249999999997
 20
58.14434209882961
 30
0.0
 11
-200.0249999999997
 21
60.19434209882961
 31
0.0
  0
LINE
  5
240
330
23D
100
AcDbEntity
  8
1
  6
Continuous
 62
     2
100
AcDbLine
 10
-200.0249999999997
 20
60.19434209882961
 30
0.0
 11
-200.0249999999997
 21
74.757272585193
 31
0.0
  0
LINE
  5
241
330
23D
100
AcDbEntity
  8
1
  6
Continuous
 62
     2
100
AcDbLine
 10
-190.0249999999997
 20
58.14434209882961
 30
0.0
 11
-201.5249999999997
 21
58.14434209882961
 31
0.0
  0
LINE
  5
242
330
23D
100
AcDbEntity
  8
1
  6
Continuous
 62
     2
100
AcDbLine
 10
-190.0249999999997
 20
60.19434209882961
 30
0.0
 11
-201.5249999999997
 21
60.19434209882961
 31
0.0
  0
SOLID
  5
243
330
23D
100
AcDbEntity
  8
1
 62
     2
100
AcDbTrace
 10
-199.5642162584438
 20
54.64434209882961
 30
0.0
 11
-200.4857837415556
 21
54.64434209882961
 31
0.0
 12
-200.0249999999997
 22
58.14434209882961
 32
0.0
 13
-200.0249999999997
 23
58.14434209882961
 33
0.0
  0
SOLID
  5
244
330
23D
100
AcDbEntity
  8
1
 62
     2
100
AcDbTrace
 10
-200.4857837415556
 20
63.69434209882961
 30
0.0
 11
-199.5642162584438
 21
63.69434209882961
 31
0.0
 12
-200.0249999999997
 22
60.19434209882961
 32
0.0
 13
-200.0249999999997
 23
60.19434209882961
 33
0.0
  0
MTEXT
  5
245
330
23D
100
AcDbEntity
  8
1
 62
     3
100
AcDbMText
 10
-201.8749999999997
 20
65.132272585193
 30
0.0
 40
3.5
 41
0.0
 71
     7
 72
     1
  1
2,05
  7
CONVERTER_11
 11
0.0
 21
1.0
 31
0.0
 73
     1
 44
0.60024009603842
  0
ENDBLK
  5
247
330
23D
100
AcDbEntity
  8
0
100
AcDbBlockEnd
  0
BLOCK
  5
2F6
330
2EF
100
AcDbEntity
  8
0
100
AcDbBlockBegin
  2
*D18
 70
     1
 10
0.0
 20
0.0
 30
0.0
  3
*D18
  1

  0
LINE
  5
2F0
330
2EF
100
AcDbEntity
  8
1
  6
Continuous
 62
     2
100
AcDbLine
 10
-91.02499999999964
 20
82.543565178002
 30
0.0
 11
-190.0249999999997
 21
82.543565178002
 31
0.0
  0
LINE
  5
2F1
330
2EF
100
AcDbEntity
  8
1
  6
Continuous
 62
     2
100
AcDbLine
 10
-91.02499999999964
 20
127.5644239201985
 30
0.0
 11
-91.02499999999964
 21
80.543565178002
 31
0.0
  0
LINE
  5
2F2
330
2EF
100
AcDbEntity
  8
1
  6
Continuous
 62
     2
100
AcDbLine
 10
-190.0249999999997
 20
127.5644239201985
 30
0.0
 11
-190.0249999999997
 21
80.543565178002
 31
0.0
  0
SOLID
  5
2F3
330
2EF
100
AcDbEntity
  8
1
 62
     2
100
AcDbTrace
 10
-94.52499999999964
 20
82.08278143644611
 30
0.0
 11
-94.52499999999964
 21
83.00434891955788
 31
0.0
 12
-91.02499999999964
 22
82.543565178002
 32
0.0
 13
-91.02499999999964
 23
82.543565178002
 33
0.0
  0
SOLID
  5
2F4
330
2EF
100
AcDbEntity
  8
1
 62
     2
100
AcDbTrace
 10
-186.5249999999997
 20
83.00434891955788
 30
0.0
 11
-186.5249999999997
 21
82.08278143644611
 31
0.0
 12
-190.0249999999997
 22
82.543565178002
 32
0.0
 13
-190.0249999999997
 23
82.543565178002
 33
0.0
  0
MTEXT
  5
2F5
330
2EF
100
AcDbEntity
  8
1
 62
     3
100
AcDbMText
 10
-144.366920697314
 20
84.543565178002
 30
0.0
 40
3.5
 41
0.0
 71
     7
 72
     1
  1
99
  7
CONVERTER_11
 11
0.9999999999970619
 21
2.424068405545306E-6
 31
0.0
 73
     1
 44
0.60024009603842
  0
ENDBLK
  5
2F7
330
2EF
100
AcDbEntity
  8
0
100
AcDbBlockEnd
  0
BLOCK
  5
301
330
2FA
100
AcDbEntity
  8
0
100
AcDbBlockBegin
  2
*D19
 70
     1
 10
0.0
 20
0.0
 30
0.0
  3
*D19
  1

  0
LINE
  5
2FB
330
2FA
100
AcDbEntity
  8
1
  6
Continuous
 62
     2
100
AcDbLine
 10
-140.5249999999996
 20
101.543565178002
 30
0.0
 11
-123.0249999999997
 21
101.543565178002
 31
0.0
  0
LINE
  5
2FC
330
2FA
100
AcDbEntity
  8
1
  6
Continuous
 62
     2
100
AcDbLine
 10
-140.5249999999996
 20
117.716552322164
 30
0.0
 11
-140.5249999999996
 21
99.543565178002
 31
0.0
  0
LINE
  5
2FD
330
2FA
100
AcDbEntity
  8
1
  6
Continuous
 62
     2
100
AcDbLine
 10
-123.0249999999997
 20
116.8499994277958
 30
0.0
 11
-123.0249999999997
 21
99.543565178002
 31
0.0
  0
SOLID
  5
2FE
330
2FA
100
AcDbEntity
  8
1
 62
     2
100
AcDbTrace
 10
-137.0249999999996
 20
102.0043489195579
 30
0.0
 11
-137.0249999999996
 21
101.0827814364461
 31
0.0
 12
-140.5249999999996
 22
101.543565178002
 32
0.0
 13
-140.5249999999996
 23
101.543565178002
 33
0.0
  0
SOLID
  5
2FF
330
2FA
100
AcDbEntity
  8
1
 62
     2
100
AcDbTrace
 10
-126.5249999999997
 20
101.0827814364461
 30
0.0
 11
-126.5249999999997
 21
102.0043489195579
 31
0.0
 12
-123.0249999999997
 22
101.543565178002
 32
0.0
 13
-123.0249999999997
 23
101.543565178002
 33
0.0
  0
MTEXT
  5
300
330
2FA
100
AcDbEntity
  8
1
 62
     3
100
AcDbMText
 10
-135.968195370929
 20
103.893565178002
 30
0.0
 40
3.5
 41
0.0
 71
     7
 72
     1
  1
17,5
  7
CONVERTER_11
 11
0.9999999999970619
 21
2.424068405545306E-6
 31
0.0
 73
     1
 44
0.60024009603842
  0
ENDBLK
  5
302
330
2FA
100
AcDbEntity
  8
0
100
AcDbBlockEnd
  0
BLOCK
  5
30C
330
305
100
AcDbEntity
  8
0
100
AcDbBlockBegin
  2
*D20
 70
     1
 10
0.0
 20
0.0
 30
0.0
  3
*D20
  1

  0
LINE
  5
306
330
305
100
AcDbEntity
  8
1
  6
Continuous
 62
     2
100
AcDbLine
 10
-140.5249999999997
 20
92.543565178002
 30
0.0
 11
-91.02499999999968
 21
92.543565178002
 31
0.0
  0
LINE
  5
307
330
305
100
AcDbEntity
  8
1
  6
Continuous
 62
     2
100
AcDbLine
 10
-140.5249999999996
 20
117.716552322164
 30
0.0
 11
-140.5249999999996
 21
90.543565178002
 31
0.0
  0
LINE
  5
308
330
305
100
AcDbEntity
  8
1
  6
Continuous
 62
     2
100
AcDbLine
 10
-91.02499999999971
 20
127.5644239201985
 30
0.0
 11
-91.02499999999971
 21
90.543565178002
 31
0.0
  0
SOLID
  5
309
330
305
100
AcDbEntity
  8
1
 62
     2
100
AcDbTrace
 10
-137.0249999999997
 20
93.00434891955788
 30
0.0
 11
-137.0249999999997
 21
92.08278143644611
 31
0.0
 12
-140.5249999999997
 22
92.543565178002
 32
0.0
 13
-140.5249999999997
 23
92.543565178002
 33
0.0
  0
SOLID
  5
30A
330
305
100
AcDbEntity
  8
1
 62
     2
100
AcDbTrace
 10
-94.52499999999968
 20
92.08278143644611
 30
0.0
 11
-94.52499999999968
 21
93.00434891955788
 31
0.0
 12
-91.02499999999968
 22
92.543565178002
 32
0.0
 13
-91.02499999999968
 23
92.543565178002
 33
0.0
  0
MTEXT
  5
30B
330
305
100
AcDbEntity
  8
1
 62
     3
100
AcDbMText
 10
-121.358110595311
 20
94.89356517800199
 30
0.0
 40
3.5
 41
0.0
 71
     7
 72
     1
  1
49,5
  7
CONVERTER_11
 11
0.9999999999970619
 21
2.424068405545306E-6
 31
0.0
 73
     1
 44
0.60024009603842
  0
ENDBLK
  5
30D
330
305
100
AcDbEntity
  8
0
100
AcDbBlockEnd
  0
BLOCK
  5
317
330
310
100
AcDbEntity
  8
0
100
AcDbBlockBegin
  2
*D21
 70
     1
 10
0.0
 20
0.0
 30
0.0
  3
*D21
  1

  0
LINE
  5
311
330
310
100
AcDbEntity
  8
1
  6
Continuous
 62
     2
100
AcDbLine
 10
-208.0249999999997
 20
111.7499994277958
 30
0.0
 11
-208.0249999999997
 21
170.2499994277958
 31
0.0
  0
LINE
  5
312
330
310
100
AcDbEntity
  8
1
  6
Continuous
 62
     2
100
AcDbLine
 10
-161.0749999999997
 20
111.7499994277958
 30
0.0
 11
-209.5249999999997
 21
111.7499994277958
 31
0.0
  0
LINE
  5
313
330
310
100
AcDbEntity
  8
1
  6
Continuous
 62
     2
100
AcDbLine
 10
-190.0249999999997
 20
170.2499994277958
 30
0.0
 11
-209.5249999999997
 21
170.2499994277958
 31
0.0
  0
SOLID
  5
314
330
310
100
AcDbEntity
  8
1
 62
     2
100
AcDbTrace
 10
-208.4857837415556
 20
115.2499994277958
 30
0.0
 11
-207.5642162584438
 21
115.2499994277958
 31
0.0
 12
-208.0249999999997
 22
111.7499994277958
 32
0.0
 13
-208.0249999999997
 23
111.7499994277958
 33
0.0
  0
SOLID
  5
315
330
310
100
AcDbEntity
  8
1
 62
     2
100
AcDbTrace
 10
-207.5642162584438
 20
166.7499994277958
 30
0.0
 11
-208.4857837415556
 21
166.7499994277958
 31
0.0
 12
-208.0249999999997
 22
170.2499994277958
 32
0.0
 13
-208.0249999999997
 23
170.2499994277958
 33
0.0
  0
MTEXT
  5
316
330
310
100
AcDbEntity
  8
1
 62
     3
100
AcDbMText
 10
-209.8749999999997
 20
136.322354794718
 30
0.0
 40
3.5
 41
0.0
 71
     7
 72
     1
  1
58,5
  7
CONVERTER_11
 11
0.0
 21
1.0
 31
0.0
 73
     1
 44
0.60024009603842
  0
ENDBLK
  5
318
330
310
100
AcDbEntity
  8
0
100
AcDbBlockEnd
  0
BLOCK
  5
322
330
31B
100
AcDbEntity
  8
0
100
AcDbBlockBegin
  2
*D22
 70
     1
 10
0.0
 20
0.0
 30
0.0
  3
*D22
  1

  0
LINE
  5
31C
330
31B
100
AcDbEntity
  8
1
  6
Continuous
 62
     2
100
AcDbLine
 10
-200.0249999999997
 20
118.0499994277958
 30
0.0
 11
-200.0249999999997
 21
170.2499994277958
 31
0.0
  0
LINE
  5
31D
330
31B
100
AcDbEntity
  8
1
  6
Continuous
 62
     2
100
AcDbLine
 10
-123.0249999999997
 20
118.0499994277958
 30
0.0
 11
-201.5249999999997
 21
118.0499994277958
 31
0.0
  0
LINE
  5
31E
330
31B
100
AcDbEntity
  8
1
  6
Continuous
 62
     2
100
AcDbLine
 10
-190.0249999999997
 20
170.2499994277958
 30
0.0
 11
-201.5249999999997
 21
170.2499994277958
 31
0.0
  0
SOLID
  5
31F
330
31B
100
AcDbEntity
  8
1
 62
     2
100
AcDbTrace
 10
-200.4857837415556
 20
121.5499994277958
 30
0.0
 11
-199.5642162584438
 21
121.5499994277958
 31
0.0
 12
-200.0249999999997
 22
118.0499994277958
 32
0.0
 13
-200.0249999999997
 23
118.0499994277958
 33
0.0
  0
SOLID
  5
320
330
31B
100
AcDbEntity
  8
1
 62
     2
100
AcDbTrace
 10
-199.5642162584438
 20
166.7499994277958
 30
0.0
 11
-200.4857837415556
 21
166.7499994277958
 31
0.0
 12
-200.0249999999997
 22
170.2499994277958
 32
0.0
 13
-200.0249999999997
 23
170.2499994277958
 33
0.0
  0
MTEXT
  5
321
330
31B
100
AcDbEntity
  8
1
 62
     3
100
AcDbMText
 10
-201.8749999999997
 20
138.70823564449
 30
0.0
 40
3.5
 41
0.0
 71
     7
 72
     1
  1
52,2
  7
CONVERTER_11
 11
0.0
 21
1.0
 31
0.0
 73
     1
 44
0.60024009603842
  0
ENDBLK
  5
323
330
31B
100
AcDbEntity
  8
0
100
AcDbBlockEnd
  0
ENDSEC
  0
SECTION
  2
ENTITIES
  0
INSERT
  5
86
330
1F
100
AcDbEntity
  8
1
100
AcDbBlockReference
  2
1
 10
0.0
 20
0.0
 30
0.0
  0
ENDSEC
  0
SECTION
  2
OBJECTS
  0
DICTIONARY
  5
C
330
0
100
AcDbDictionary
281
     1
  3
ACAD_GROUP
350
D
  3
ACAD_LAYOUT
350
1A
  3
ACAD_MATERIAL
350
3B
  3
ACAD_MLEADERSTYLE
350
34D
  3
ACAD_MLINESTYLE
350
17
  3
ACAD_PLOTSETTINGS
350
19
  3
ACAD_PLOTSTYLENAME
350
E
  3
ACAD_TABLESTYLE
350
34C
  3
ACAD_VISUALSTYLE
350
2A
  0
DICTIONARY
  5
D
102
{ACAD_REACTORS
330
C
102
}
330
C
100
AcDbDictionary
281
     1
  0
DICTIONARY
  5
1A
102
{ACAD_REACTORS
330
C
102
}
330
C
100
AcDbDictionary
281
     1
  3
Layout1
350
1E
  3
Layout2
350
26
  3
Model
350
22
  0
DICTIONARY
  5
3B
102
{ACAD_REACTORS
330
C
102
}
330
C
100
AcDbDictionary
281
     1
  3
ByBlock
350
3D
  3
ByLayer
350
3C
  3
Global
350
3E
  0
DICTIONARY
  5
34D
102
{ACAD_REACTORS
330
C
102
}
330
C
100
AcDbDictionary
281
     1
  0
DICTIONARY
  5
17
102
{ACAD_REACTORS
330
C
102
}
330
C
100
AcDbDictionary
281
     1
  3
Standard
350
18
  0
DICTIONARY
  5
19
102
{ACAD_REACTORS
330
C
102
}
330
C
100
AcDbDictionary
281
     1
  0
ACDBDICTIONARYWDFLT
  5
E
102
{ACAD_REACTORS
330
C
102
}
330
C
100
AcDbDictionary
281
     1
  3
Normal
350
F
100
AcDbDictionaryWithDefault
340
F
  0
DICTIONARY
  5
34C
102
{ACAD_REACTORS
330
C
102
}
330
C
100
AcDbDictionary
281
     1
  0
DICTIONARY
  5
2A
102
{ACAD_REACTORS
330
C
102
}
330
C
100
AcDbDictionary
281
     1
  3
2dWireframe
350
2F
  3
3D Hidden
350
31
  3
3dWireframe
350
30
  3
Basic
350
32
  3
Brighten
350
36
  3
ColorChange
350
3A
  3
Conceptual
350
34
  3
Dim
350
35
  3
Facepattern
350
39
  3
Flat
350
2B
  3
FlatWithEdges
350
2C
  3
Gouraud
350
2D
  3
GouraudWithEdges
350
2E
  3
Linepattern
350
38
  3
Realistic
350
33
  3
Thicken
350
37
  0
LAYOUT
  5
1E
102
{ACAD_REACTORS
330
1A
102
}
330
1A
100
AcDbPlotSettings
  1

  2
none_device
  4

  6

 40
0.0
 41
0.0
 42
0.0
 43
0.0
 44
0.0
 45
0.0
 46
0.0
 47
0.0
 48
0.0
 49
0.0
140
0.0
141
0.0
142
1.0
143
1.0
 70
   688
 72
     0
 73
     0
 74
     5
  7

 75
    16
 76
     0
 77
     2
 78
   300
147
1.0
148
0.0
149
0.0
100
AcDbLayout
  1
Layout1
 70
     1
 71
     1
 10
0.0
 20
0.0
 11
12.0
 21
9.0
 12
0.0
 22
0.0
 32
0.0
 14
1.00000000000000E+20
 24
1.00000000000000E+20
 34
1.00000000000000E+20
 15
-1.00000000000000E+20
 25
-1.00000000000000E+20
 35
-1.00000000000000E+20
146
0.0
 13
0.0
 23
0.0
 33
0.0
 16
1.0
 26
0.0
 36
0.0
 17
0.0
 27
1.0
 37
0.0
 76
     0
330
1B
  0
LAYOUT
  5
26
102
{ACAD_REACTORS
330
1A
102
}
330
1A
100
AcDbPlotSettings
  1

  2
none_device
  4

  6

 40
0.0
 41
0.0
 42
0.0
 43
0.0
 44
0.0
 45
0.0
 46
0.0
 47
0.0
 48
0.0
 49
0.0
140
0.0
141
0.0
142
1.0
143
1.0
 70
   688
 72
     0
 73
     0
 74
     5
  7

 75
    16
 76
     0
 77
     2
 78
   300
147
1.0
148
0.0
149
0.0
100
AcDbLayout
  1
Layout2
 70
     1
 71
     2
 10
0.0
 20
0.0
 11
0.0
 21
0.0
 12
0.0
 22
0.0
 32
0.0
 14
0.0
 24
0.0
 34
0.0
 15
0.0
 25
0.0
 35
0.0
146
0.0
 13
0.0
 23
0.0
 33
0.0
 16
1.0
 26
0.0
 36
0.0
 17
0.0
 27
1.0
 37
0.0
 76
     0
330
23
  0
LAYOUT
  5
22
102
{ACAD_REACTORS
330
1A
102
}
330
1A
100
AcDbPlotSettings
  1

  2
none_device
  4

  6

 40
0.0
 41
0.0
 42
0.0
 43
0.0
 44
0.0
 45
0.0
 46
0.0
 47
0.0
 48
0.0
 49
0.0
140
0.0
141
0.0
142
1.0
143
1.0
 70
  1712
 72
     0
 73
     0
 74
     0
  7

 75
     0
 76
     0
 77
     2
 78
   300
147
1.0
148
0.0
149
0.0
100
AcDbLayout
  1
Model
 70
     1
 71
     0
 10
0.0
 20
0.0
 11
12.0
 21
9.0
 12
0.0
 22
0.0
 32
0.0
 14
-243.2500000000014
 24
-7.95004088443398
 34
0.0
 15
53.7499999999967
 25
202.0499591155661
 35
0.0
146
0.0
 13
0.0
 23
0.0
 33
0.0
 16
1.0
 26
0.0
 36
0.0
 17
0.0
 27
1.0
 37
0.0
 76
     0
330
1F
331
29
  0
MATERIAL
  5
3D
102
{ACAD_REACTORS
330
3B
102
}
102
{ACAD_XDICTIONARY
360
348
102
}
330
3B
100
AcDbMaterial
  1
ByBlock
  0
MATERIAL
  5
3C
102
{ACAD_REACTORS
330
3B
102
}
102
{ACAD_XDICTIONARY
360
346
102
}
330
3B
100
AcDbMaterial
  1
ByLayer
  0
MATERIAL
  5
3E
102
{ACAD_REACTORS
330
3B
102
}
102
{ACAD_XDICTIONARY
360
34A
102
}
330
3B
100
AcDbMaterial
  1
Global
  0
MLINESTYLE
  5
18
102
{ACAD_REACTORS
330
17
102
}
330
17
100
AcDbMlineStyle
  2
Standard
 70
     0
  3

 62
   256
 51
90.0
 52
90.0
 71
     2
 49
0.5
 62
   256
  6
BYLAYER
 49
-0.5
 62
   256
  6
BYLAYER
  0
ACDBPLACEHOLDER
  5
F
102
{ACAD_REACTORS
330
E
102
}
330
E
  0
VISUALSTYLE
  5
2F
102
{ACAD_REACTORS
330
2A
102
}
102
{ACAD_XDICTIONARY
360
32E
102
}
330
2A
100
AcDbVisualStyle
  2
2dWireframe
 70
     4
 71
     0
 72
     2
 73
     0
 90
        0
 40
-0.6
 41
-30.0
 62
     5
 63
     7
421
 16777215
 74
     1
 91
        4
 64
     7
 65
   257
 75
     1
175
     1
 42
1.0
 92
        0
 66
   257
 43
1.0
 76
     1
 77
     6
 78
     2
 67
     7
 79
     5
170
     0
171
     0
290
     0
174
     0
 93
        1
 44
0.0
173
     0
291
     0
 45
0.0
1001
ACAD
1000
AcDbSavedByObjectVersion
1070
     0
  0
VISUALSTYLE
  5
31
102
{ACAD_REACTORS
330
2A
102
}
102
{ACAD_XDICTIONARY
360
332
102
}
330
2A
100
AcDbVisualStyle
  2
3D Hidden
 70
     6
 71
     1
 72
     2
 73
     2
 90
        0
 40
-0.6
 41
-30.0
 62
     5
 63
     7
421
 16777215
 74
     2
 91
        2
 64
     7
 65
   257
 75
     2
175
     1
 42
40.0
 92
        0
 66
   257
 43
1.0
 76
     1
 77
     6
 78
     2
 67
     7
 79
     3
170
     0
171
     0
290
     0
174
     0
 93
        1
 44
0.0
173
     0
291
     0
 45
0.0
1001
ACAD
1000
AcDbSavedByObjectVersion
1070
     0
  0
VISUALSTYLE
  5
30
102
{ACAD_REACTORS
330
2A
102
}
102
{ACAD_XDICTIONARY
360
330
102
}
330
2A
100
AcDbVisualStyle
  2
3dWireframe
 70
     5
 71
     0
 72
     2
 73
     0
 90
        0
 40
-0.6
 41
-30.0
 62
     5
 63
     7
421
 16777215
 74
     1
 91
        4
 64
     7
 65
   257
 75
     1
175
     1
 42
1.0
 92
        0
 66
   257
 43
1.0
 76
     1
 77
     6
 78
     2
 67
     7
 79
     5
170
     0
171
     0
290
     0
174
     0
 93
        1
 44
0.0
173
     0
291
     0
 45
0.0
1001
ACAD
1000
AcDbSavedByObjectVersion
1070
     0
  0
VISUALSTYLE
  5
32
102
{ACAD_REACTORS
330
2A
102
}
102
{ACAD_XDICTIONARY
360
334
102
}
330
2A
100
AcDbVisualStyle
  2
Basic
 70
     7
 71
     1
 72
     0
 73
     1
 90
        0
 40
-0.6
 41
-30.0
 62
     5
 63
     7
421
 16777215
 74
     0
 91
        4
 64
     7
 65
   257
 75
     1
175
     1
 42
1.0
 92
        8
 66
     7
 43
1.0
 76
     1
 77
     6
 78
     2
 67
     7
 79
     5
170
     0
171
     0
290
     0
174
     0
 93
        1
 44
0.0
173
     0
291
     1
 45
0.0
1001
ACAD
1000
AcDbSavedByObjectVersion
1070
     0
  0
VISUALSTYLE
  5
36
102
{ACAD_REACTORS
330
2A
102
}
102
{ACAD_XDICTIONARY
360
33C
102
}
330
2A
100
AcDbVisualStyle
  2
Brighten
 70
    12
 71
     2
 72
     2
 73
     0
 90
        0
 40
-0.6
 41
-30.0
 62
     5
 63
     7
421
 16777215
 74
     1
 91
        4
 64
     7
 65
   257
 75
     1
175
     1
 42
1.0
 92
        8
 66
     7
 43
1.0
 76
     1
 77
     6
 78
     2
 67
     7
 79
     5
170
     0
171
     0
290
     0
174
     0
 93
        1
 44
50.0
173
     0
291
     1
 45
0.0
1001
ACAD
1000
AcDbSavedByObjectVersion
1070
     0
  0
VISUALSTYLE
  5
3A
102
{ACAD_REACTORS
330
2A
102
}
102
{ACAD_XDICTIONARY
360
344
102
}
330
2A
100
AcDbVisualStyle
  2
ColorChange
 70
    16
 71
     2
 72
     2
 73
     3
 90
        0
 40
-0.6
 41
-30.0
 62
     5
 63
     8
421
  8421504
 74
     1
 91
        4
 64
     7
 65
   257
 75
     1
175
     1
 42
1.0
 92
        8
 66
     8
424
  8421504
 43
1.0
 76
     1
 77
     6
 78
     2
 67
     7
 79
     5
170
     0
171
     0
290
     0
174
     0
 93
        1
 44
0.0
173
     0
291
     1
 45
0.0
1001
ACAD
1000
AcDbSavedByObjectVersion
1070
     0
  0
VISUALSTYLE
  5
34
102
{ACAD_REACTORS
330
2A
102
}
102
{ACAD_XDICTIONARY
360
338
102
}
330
2A
100
AcDbVisualStyle
  2
Conceptual
 70
     9
 71
     3
 72
     2
 73
     0
 90
        0
 40
-0.6
 41
-30.0
 62
     5
 63
     7
421
 16777215
 74
     2
 91
        2
 64
     7
 65
   257
 75
     1
175
     1
 42
40.0
 92
        8
 66
     7
 43
1.0
 76
     1
 77
     6
 78
     2
 67
     7
 79
     3
170
     0
171
     0
290
     0
174
     0
 93
        1
 44
0.0
173
     0
291
     0
 45
0.0
1001
ACAD
1000
AcDbSavedByObjectVersion
1070
     0
  0
VISUALSTYLE
  5
35
102
{ACAD_REACTORS
330
2A
102
}
102
{ACAD_XDICTIONARY
360
33A
102
}
330
2A
100
AcDbVisualStyle
  2
Dim
 70
    11
 71
     2
 72
     2
 73
     0
 90
        0
 40
-0.6
 41
-30.0
 62
     5
 63
     7
421
 16777215
 74
     1
 91
        4
 64
     7
 65
   257
 75
     1
175
     1
 42
1.0
 92
        8
 66
     7
 43
1.0
 76
     1
 77
     6
 78
     2
 67
     7
 79
     5
170
     0
171
     0
290
     0
174
     0
 93
        1
 44
-50.0
173
     0
291
     1
 45
0.0
1001
ACAD
1000
AcDbSavedByObjectVersion
1070
     0
  0
VISUALSTYLE
  5
39
102
{ACAD_REACTORS
330
2A
102
}
102
{ACAD_XDICTIONARY
360
342
102
}
330
2A
100
AcDbVisualStyle
  2
Facepattern
 70
    15
 71
     2
 72
     2
 73
     0
 90
        0
 40
-0.6
 41
-30.0
 62
     5
 63
     7
421
 16777215
 74
     1
 91
        4
 64
     7
 65
   257
 75
     1
175
     1
 42
1.0
 92
        8
 66
     7
 43
1.0
 76
     1
 77
     6
 78
     2
 67
     7
 79
     5
170
     0
171
     0
290
     0
174
     0
 93
        1
 44
0.0
173
     0
291
     1
 45
0.0
1001
ACAD
1000
AcDbSavedByObjectVersion
1070
     0
  0
VISUALSTYLE
  5
2B
102
{ACAD_REACTORS
330
2A
102
}
102
{ACAD_XDICTIONARY
360
326
102
}
330
2A
100
AcDbVisualStyle
  2
Flat
 70
     0
 71
     2
 72
     1
 73
     1
 90
        2
 40
-0.6
 41
30.0
 62
     5
 63
     7
421
 16777215
 74
     0
 91
        4
 64
     7
 65
   257
 75
     1
175
     1
 42
1.0
 92
        8
 66
     7
 43
1.0
 76
     1
 77
     6
 78
     2
 67
     7
 79
     5
170
     0
171
     0
290
     0
174
     0
 93
       13
 44
0.0
173
     0
291
     1
 45
0.0
1001
ACAD
1000
AcDbSavedByObjectVersion
1070
     0
  0
VISUALSTYLE
  5
2C
102
{ACAD_REACTORS
330
2A
102
}
102
{ACAD_XDICTIONARY
360
328
102
}
330
2A
100
AcDbVisualStyle
  2
FlatWithEdges
 70
     1
 71
     2
 72
     1
 73
     1
 90
        2
 40
-0.6
 41
30.0
 62
     5
 63
     7
421
 16777215
 74
     1
 91
        4
 64
     7
 65
   257
 75
     1
175
     1
 42
1.0
 92
        0
 66
   257
 43
1.0
 76
     1
 77
     6
 78
     2
 67
     7
 79
     5
170
     0
171
     0
290
     0
174
     0
 93
       13
 44
0.0
173
     0
291
     1
 45
0.0
1001
ACAD
1000
AcDbSavedByObjectVersion
1070
     0
  0
VISUALSTYLE
  5
2D
102
{ACAD_REACTORS
330
2A
102
}
102
{ACAD_XDICTIONARY
360
32A
102
}
330
2A
100
AcDbVisualStyle
  2
Gouraud
 70
     2
 71
     2
 72
     2
 73
     1
 90
        2
 40
-0.6
 41
30.0
 62
     5
 63
     7
421
 16777215
 74
     0
 91
        4
 64
     7
 65
   257
 75
     1
175
     1
 42
1.0
 92
        0
 66
     7
 43
1.0
 76
     1
 77
     6
 78
     2
 67
     7
 79
     5
170
     0
171
     0
290
     0
174
     0
 93
       13
 44
0.0
173
     0
291
     1
 45
0.0
1001
ACAD
1000
AcDbSavedByObjectVersion
1070
     0
  0
VISUALSTYLE
  5
2E
102
{ACAD_REACTORS
330
2A
102
}
102
{ACAD_XDICTIONARY
360
32C
102
}
330
2A
100
AcDbVisualStyle
  2
GouraudWithEdges
 70
     3
 71
     2
 72
     2
 73
     1
 90
        2
 40
-0.6
 41
30.0
 62
     5
 63
     7
421
 16777215
 74
     1
 91
        4
 64
     7
 65
   257
 75
     1
175
     1
 42
1.0
 92
        0
 66
   257
 43
1.0
 76
     1
 77
     6
 78
     2
 67
     7
 79
     5
170
     0
171
     0
290
     0
174
     0
 93
       13
 44
0.0
173
     0
291
     1
 45
0.0
1001
ACAD
1000
AcDbSavedByObjectVersion
1070
     0
  0
VISUALSTYLE
  5
38
102
{ACAD_REACTORS
330
2A
102
}
102
{ACAD_XDICTIONARY
360
340
102
}
330
2A
100
AcDbVisualStyle
  2
Linepattern
 70
    14
 71
     2
 72
     2
 73
     0
 90
        0
 40
-0.6
 41
-30.0
 62
     5
 63
     7
421
 16777215
 74
     1
 91
        4
 64
     7
 65
   257
 75
     7
175
     7
 42
1.0
 92
        8
 66
     7
 43
1.0
 76
     1
 77
     6
 78
     2
 67
     7
 79
     5
170
     0
171
     0
290
     0
174
     0
 93
        1
 44
0.0
173
     0
291
     1
 45
0.0
1001
ACAD
1000
AcDbSavedByObjectVersion
1070
     0
  0
VISUALSTYLE
  5
33
102
{ACAD_REACTORS
330
2A
102
}
102
{ACAD_XDICTIONARY
360
336
102
}
330
2A
100
AcDbVisualStyle
  2
Realistic
 70
     8
 71
     2
 72
     2
 73
     0
 90
        0
 40
-0.6
 41
-30.0
 62
     5
 63
     7
421
 16777215
 74
     1
 91
        0
 64
     7
 65
   257
 75
     1
175
     1
 42
1.0
 92
        8
 66
     8
424
  7895160
 43
1.0
 76
     1
 77
     6
 78
     2
 67
     7
 79
     5
170
     0
171
     0
290
     0
174
     0
 93
       13
 44
0.0
173
     0
291
     0
 45
0.0
1001
ACAD
1000
AcDbSavedByObjectVersion
1070
     0
  0
VISUALSTYLE
  5
37
102
{ACAD_REACTORS
330
2A
102
}
102
{ACAD_XDICTIONARY
360
33E
102
}
330
2A
100
AcDbVisualStyle
  2
Thicken
 70
    13
 71
     2
 72
     2
 73
     0
 90
        0
 40
-0.6
 41
-30.0
 62
     5
 63
     7
421
 16777215
 74
     1
 91
        4
 64
     7
 65
   257
 75
     1
175
     1
 42
1.0
 92
       12
 66
     7
 43
1.0
 76
     1
 77
     6
 78
     2
 67
     7
 79
     5
170
     0
171
     0
290
     0
174
     0
 93
        1
 44
0.0
173
     0
291
     1
 45
0.0
1001
ACAD
1000
AcDbSavedByObjectVersion
1070
     0
  0
DICTIONARY
  5
348
330
3D
100
AcDbDictionary
280
     1
281
     1
  3
ACAD_XREC_ROUNDTRIP
360
349
  0
DICTIONARY
  5
346
330
3C
100
AcDbDictionary
280
     1
281
     1
  3
ACAD_XREC_ROUNDTRIP
360
347
  0
DICTIONARY
  5
34A
330
3E
100
AcDbDictionary
280
     1
281
     1
  3
ACAD_XREC_ROUNDTRIP
360
34B
  0
DICTIONARY
  5
32E
330
2F
100
AcDbDictionary
280
     1
281
     1
  3
ACAD_XREC_ROUNDTRIP
360
32F
  0
DICTIONARY
  5
332
330
31
100
AcDbDictionary
280
     1
281
     1
  3
ACAD_XREC_ROUNDTRIP
360
333
  0
DICTIONARY
  5
330
330
30
100
AcDbDictionary
280
     1
281
     1
  3
ACAD_XREC_ROUNDTRIP
360
331
  0
DICTIONARY
  5
334
330
32
100
AcDbDictionary
280
     1
281
     1
  3
ACAD_XREC_ROUNDTRIP
360
335
  0
DICTIONARY
  5
33C
330
36
100
AcDbDictionary
280
     1
281
     1
  3
ACAD_XREC_ROUNDTRIP
360
33D
  0
DICTIONARY
  5
344
330
3A
100
AcDbDictionary
280
     1
281
     1
  3
ACAD_XREC_ROUNDTRIP
360
345
  0
DICTIONARY
  5
338
330
34
100
AcDbDictionary
280
     1
281
     1
  3
ACAD_XREC_ROUNDTRIP
360
339
  0
DICTIONARY
  5
33A
330
35
100
AcDbDictionary
280
     1
281
     1
  3
ACAD_XREC_ROUNDTRIP
360
33B
  0
DICTIONARY
  5
342
330
39
100
AcDbDictionary
280
     1
281
     1
  3
ACAD_XREC_ROUNDTRIP
360
343
  0
DICTIONARY
  5
326
330
2B
100
AcDbDictionary
280
     1
281
     1
  3
ACAD_XREC_ROUNDTRIP
360
327
  0
DICTIONARY
  5
328
330
2C
100
AcDbDictionary
280
     1
281
     1
  3
ACAD_XREC_ROUNDTRIP
360
329
  0
DICTIONARY
  5
32A
330
2D
100
AcDbDictionary
280
     1
281
     1
  3
ACAD_XREC_ROUNDTRIP
360
32B
  0
DICTIONARY
  5
32C
330
2E
100
AcDbDictionary
280
     1
281
     1
  3
ACAD_XREC_ROUNDTRIP
360
32D
  0
DICTIONARY
  5
340
330
38
100
AcDbDictionary
280
     1
281
     1
  3
ACAD_XREC_ROUNDTRIP
360
341
  0
DICTIONARY
  5
336
330
33
100
AcDbDictionary
280
     1
281
     1
  3
ACAD_XREC_ROUNDTRIP
360
337
  0
DICTIONARY
  5
33E
330
37
100
AcDbDictionary
280
     1
281
     1
  3
ACAD_XREC_ROUNDTRIP
360
33F
  0
XRECORD
  5
349
102
{ACAD_REACTORS
330
348
102
}
330
348
100
AcDbXrecord
280
     1
102
MATERIAL
148
0.0
149
0.0
149
0.0
 93
        0
 94
      127
282
     0
 72
     1
 77
     1
171
     1
175
     1
179
     1
273
     0
  0
XRECORD
  5
347
102
{ACAD_REACTORS
330
346
102
}
330
346
100
AcDbXrecord
280
     1
102
MATERIAL
148
0.0
149
0.0
149
0.0
 93
        0
 94
      127
282
     0
 72
     1
 77
     1
171
     1
175
     1
179
     1
273
     0
  0
XRECORD
  5
34B
102
{ACAD_REACTORS
330
34A
102
}
330
34A
100
AcDbXrecord
280
     1
102
MATERIAL
148
0.0
149
0.0
149
0.0
 93
        0
 94
      127
282
     0
 72
     1
 77
     1
171
     1
175
     1
179
     1
273
     0
  0
XRECORD
  5
32F
102
{ACAD_REACTORS
330
32E
102
}
330
32E
100
AcDbXrecord
280
     1
102
RTVSPropertyOp0
 70
     1
102
RTVSPropertyOp1
 70
     1
102
RTVSPropertyOp2
 70
     1
102
RTVSPropertyOp3
 70
     1
102
RTVSPropertyOp4
 70
     1
102
RTVSPropertyOp5
 70
     1
102
RTVSPropertyOp6
 70
     1
102
RTVSPropertyOp7
 70
     1
102
RTVSPropertyOp8
 70
     1
102
RTVSPropertyOp9
 70
     1
102
RTVSPropertyOp10
 70
     1
102
RTVSPropertyOp11
 70
     1
102
RTVSPropertyOp12
 70
     1
102
RTVSPropertyOp13
 70
     1
102
RTVSPropertyOp14
 70
     1
102
RTVSPropertyOp15
 70
     1
102
RTVSPropertyOp16
 70
     1
102
RTVSPropertyOp17
 70
     1
102
RTVSPropertyOp18
 70
     1
102
RTVSPropertyOp19
 70
     1
102
RTVSPropertyOp20
 70
     1
102
RTVSPropertyOp21
 70
     1
102
RTVSPropertyOp22
 70
     1
102
RTVSPropertyOp23
 70
     1
102
RTVSPropertyOp24
 70
     1
102
RTVSPropertyOp25
 70
     1
102
RTVSPropertyOp26
 70
     1
102
RTVSPropertyOp27
 70
     1
102
RTVSPropertyOp28
 70
     1
102
RTVSPropertyOp29
 70
     1
102
RTVSPropertyOp30
 70
     1
102
RTVSPropertyOp31
 70
     1
102
RTVSPropertyOp32
 70
     1
  0
XRECORD
  5
333
102
{ACAD_REACTORS
330
332
102
}
330
332
100
AcDbXrecord
280
     1
102
RTVSPropertyOp0
 70
     1
102
RTVSPropertyOp1
 70
     1
102
RTVSPropertyOp2
 70
     1
102
RTVSPropertyOp3
 70
     1
102
RTVSPropertyOp4
 70
     1
102
RTVSPropertyOp5
 70
     1
102
RTVSPropertyOp6
 70
     1
102
RTVSPropertyOp7
 70
     1
102
RTVSPropertyOp8
 70
     1
102
RTVSPropertyOp9
 70
     1
102
RTVSPropertyOp10
 70
     1
102
RTVSPropertyOp11
 70
     1
102
RTVSPropertyOp12
 70
     1
102
RTVSPropertyOp13
 70
     1
102
RTVSPropertyOp14
 70
     1
102
RTVSPropertyOp15
 70
     1
102
RTVSPropertyOp16
 70
     1
102
RTVSPropertyOp17
 70
     1
102
RTVSPropertyOp18
 70
     1
102
RTVSPropertyOp19
 70
     1
102
RTVSPropertyOp20
 70
     1
102
RTVSPropertyOp21
 70
     1
102
RTVSPropertyOp22
 70
     1
102
RTVSPropertyOp23
 70
     1
102
RTVSPropertyOp24
 70
     1
102
RTVSPropertyOp25
 70
     1
102
RTVSPropertyOp26
 70
     1
102
RTVSPropertyOp27
 70
     1
102
RTVSPropertyOp28
 70
     1
102
RTVSPropertyOp29
 70
     1
102
RTVSPropertyOp30
 70
     1
102
RTVSPropertyOp31
 70
     1
102
RTVSPropertyOp32
 70
     1
  0
XRECORD
  5
331
102
{ACAD_REACTORS
330
330
102
}
330
330
100
AcDbXrecord
280
     1
102
RTVSPropertyOp0
 70
     1
102
RTVSPropertyOp1
 70
     1
102
RTVSPropertyOp2
 70
     1
102
RTVSPropertyOp3
 70
     1
102
RTVSPropertyOp4
 70
     1
102
RTVSPropertyOp5
 70
     1
102
RTVSPropertyOp6
 70
     1
102
RTVSPropertyOp7
 70
     1
102
RTVSPropertyOp8
 70
     1
102
RTVSPropertyOp9
 70
     1
102
RTVSPropertyOp10
 70
     1
102
RTVSPropertyOp11
 70
     1
102
RTVSPropertyOp12
 70
     1
102
RTVSPropertyOp13
 70
     1
102
RTVSPropertyOp14
 70
     1
102
RTVSPropertyOp15
 70
     1
102
RTVSPropertyOp16
 70
     1
102
RTVSPropertyOp17
 70
     1
102
RTVSPropertyOp18
 70
     1
102
RTVSPropertyOp19
 70
     1
102
RTVSPropertyOp20
 70
     1
102
RTVSPropertyOp21
 70
     1
102
RTVSPropertyOp22
 70
     1
102
RTVSPropertyOp23
 70
     1
102
RTVSPropertyOp24
 70
     1
102
RTVSPropertyOp25
 70
     1
102
RTVSPropertyOp26
 70
     1
102
RTVSPropertyOp27
 70
     1
102
RTVSPropertyOp28
 70
     1
102
RTVSPropertyOp29
 70
     1
102
RTVSPropertyOp30
 70
     1
102
RTVSPropertyOp31
 70
     1
102
RTVSPropertyOp32
 70
     1
  0
XRECORD
  5
335
102
{ACAD_REACTORS
330
334
102
}
330
334
100
AcDbXrecord
280
     1
102
RTVSPropertyOp0
 70
     1
102
RTVSPropertyOp1
 70
     1
102
RTVSPropertyOp2
 70
     1
102
RTVSPropertyOp3
 70
     1
102
RTVSPropertyOp4
 70
     1
102
RTVSPropertyOp5
 70
     1
102
RTVSPropertyOp6
 70
     1
102
RTVSPropertyOp7
 70
     1
102
RTVSPropertyOp8
 70
     1
102
RTVSPropertyOp9
 70
     1
102
RTVSPropertyOp10
 70
     1
102
RTVSPropertyOp11
 70
     1
102
RTVSPropertyOp12
 70
     1
102
RTVSPropertyOp13
 70
     1
102
RTVSPropertyOp14
 70
     1
102
RTVSPropertyOp15
 70
     1
102
RTVSPropertyOp16
 70
     1
102
RTVSPropertyOp17
 70
     1
102
RTVSPropertyOp18
 70
     1
102
RTVSPropertyOp19
 70
     1
102
RTVSPropertyOp20
 70
     1
102
RTVSPropertyOp21
 70
     1
102
RTVSPropertyOp22
 70
     1
102
RTVSPropertyOp23
 70
     1
102
RTVSPropertyOp24
 70
     1
102
RTVSPropertyOp25
 70
     1
102
RTVSPropertyOp26
 70
     1
102
RTVSPropertyOp27
 70
     1
102
RTVSPropertyOp28
 70
     1
102
RTVSPropertyOp29
 70
     1
102
RTVSPropertyOp30
 70
     1
102
RTVSPropertyOp31
 70
     1
102
RTVSPropertyOp32
 70
     1
  0
XRECORD
  5
33D
102
{ACAD_REACTORS
330
33C
102
}
330
33C
100
AcDbXrecord
280
     1
102
RTVSPropertyOp0
 70
     1
102
RTVSPropertyOp1
 70
     1
102
RTVSPropertyOp2
 70
     1
102
RTVSPropertyOp3
 70
     1
102
RTVSPropertyOp4
 70
     1
102
RTVSPropertyOp5
 70
     1
102
RTVSPropertyOp6
 70
     1
102
RTVSPropertyOp7
 70
     1
102
RTVSPropertyOp8
 70
     1
102
RTVSPropertyOp9
 70
     1
102
RTVSPropertyOp10
 70
     1
102
RTVSPropertyOp11
 70
     1
102
RTVSPropertyOp12
 70
     1
102
RTVSPropertyOp13
 70
     1
102
RTVSPropertyOp14
 70
     1
102
RTVSPropertyOp15
 70
     1
102
RTVSPropertyOp16
 70
     1
102
RTVSPropertyOp17
 70
     1
102
RTVSPropertyOp18
 70
     1
102
RTVSPropertyOp19
 70
     1
102
RTVSPropertyOp20
 70
     1
102
RTVSPropertyOp21
 70
     1
102
RTVSPropertyOp22
 70
     1
102
RTVSPropertyOp23
 70
     1
102
RTVSPropertyOp24
 70
     1
102
RTVSPropertyOp25
 70
     1
102
RTVSPropertyOp26
 70
     1
102
RTVSPropertyOp27
 70
     1
102
RTVSPropertyOp28
 70
     1
102
RTVSPropertyOp29
 70
     1
102
RTVSPropertyOp30
 70
     1
102
RTVSPropertyOp31
 70
     1
102
RTVSPropertyOp32
 70
     1
  0
XRECORD
  5
345
102
{ACAD_REACTORS
330
344
102
}
330
344
100
AcDbXrecord
280
     1
102
RTVSPropertyOp0
 70
     1
102
RTVSPropertyOp1
 70
     1
102
RTVSPropertyOp2
 70
     1
102
RTVSPropertyOp3
 70
     1
102
RTVSPropertyOp4
 70
     1
102
RTVSPropertyOp5
 70
     1
102
RTVSPropertyOp6
 70
     1
102
RTVSPropertyOp7
 70
     1
102
RTVSPropertyOp8
 70
     1
102
RTVSPropertyOp9
 70
     1
102
RTVSPropertyOp10
 70
     1
102
RTVSPropertyOp11
 70
     1
102
RTVSPropertyOp12
 70
     1
102
RTVSPropertyOp13
 70
     1
102
RTVSPropertyOp14
 70
     1
102
RTVSPropertyOp15
 70
     1
102
RTVSPropertyOp16
 70
     1
102
RTVSPropertyOp17
 70
     1
102
RTVSPropertyOp18
 70
     1
102
RTVSPropertyOp19
 70
     1
102
RTVSPropertyOp20
 70
     1
102
RTVSPropertyOp21
 70
     1
102
RTVSPropertyOp22
 70
     1
102
RTVSPropertyOp23
 70
     1
102
RTVSPropertyOp24
 70
     1
102
RTVSPropertyOp25
 70
     1
102
RTVSPropertyOp26
 70
     1
102
RTVSPropertyOp27
 70
     1
102
RTVSPropertyOp28
 70
     1
102
RTVSPropertyOp29
 70
     1
102
RTVSPropertyOp30
 70
     1
102
RTVSPropertyOp31
 70
     1
102
RTVSPropertyOp32
 70
     1
  0
XRECORD
  5
339
102
{ACAD_REACTORS
330
338
102
}
330
338
100
AcDbXrecord
280
     1
102
RTVSPropertyOp0
 70
     1
102
RTVSPropertyOp1
 70
     1
102
RTVSPropertyOp2
 70
     1
102
RTVSPropertyOp3
 70
     1
102
RTVSPropertyOp4
 70
     1
102
RTVSPropertyOp5
 70
     1
102
RTVSPropertyOp6
 70
     1
102
RTVSPropertyOp7
 70
     1
102
RTVSPropertyOp8
 70
     1
102
RTVSPropertyOp9
 70
     1
102
RTVSPropertyOp10
 70
     1
102
RTVSPropertyOp11
 70
     1
102
RTVSPropertyOp12
 70
     1
102
RTVSPropertyOp13
 70
     1
102
RTVSPropertyOp14
 70
     1
102
RTVSPropertyOp15
 70
     1
102
RTVSPropertyOp16
 70
     1
102
RTVSPropertyOp17
 70
     1
102
RTVSPropertyOp18
 70
     1
102
RTVSPropertyOp19
 70
     1
102
RTVSPropertyOp20
 70
     1
102
RTVSPropertyOp21
 70
     1
102
RTVSPropertyOp22
 70
     1
102
RTVSPropertyOp23
 70
     1
102
RTVSPropertyOp24
 70
     1
102
RTVSPropertyOp25
 70
     1
102
RTVSPropertyOp26
 70
     1
102
RTVSPropertyOp27
 70
     1
102
RTVSPropertyOp28
 70
     1
102
RTVSPropertyOp29
 70
     1
102
RTVSPropertyOp30
 70
     1
102
RTVSPropertyOp31
 70
     1
102
RTVSPropertyOp32
 70
     1
  0
XRECORD
  5
33B
102
{ACAD_REACTORS
330
33A
102
}
330
33A
100
AcDbXrecord
280
     1
102
RTVSPropertyOp0
 70
     1
102
RTVSPropertyOp1
 70
     1
102
RTVSPropertyOp2
 70
     1
102
RTVSPropertyOp3
 70
     1
102
RTVSPropertyOp4
 70
     1
102
RTVSPropertyOp5
 70
     1
102
RTVSPropertyOp6
 70
     1
102
RTVSPropertyOp7
 70
     1
102
RTVSPropertyOp8
 70
     1
102
RTVSPropertyOp9
 70
     1
102
RTVSPropertyOp10
 70
     1
102
RTVSPropertyOp11
 70
     1
102
RTVSPropertyOp12
 70
     1
102
RTVSPropertyOp13
 70
     1
102
RTVSPropertyOp14
 70
     1
102
RTVSPropertyOp15
 70
     1
102
RTVSPropertyOp16
 70
     1
102
RTVSPropertyOp17
 70
     1
102
RTVSPropertyOp18
 70
     1
102
RTVSPropertyOp19
 70
     1
102
RTVSPropertyOp20
 70
     1
102
RTVSPropertyOp21
 70
     1
102
RTVSPropertyOp22
 70
     1
102
RTVSPropertyOp23
 70
     1
102
RTVSPropertyOp24
 70
     1
102
RTVSPropertyOp25
 70
     1
102
RTVSPropertyOp26
 70
     1
102
RTVSPropertyOp27
 70
     1
102
RTVSPropertyOp28
 70
     1
102
RTVSPropertyOp29
 70
     1
102
RTVSPropertyOp30
 70
     1
102
RTVSPropertyOp31
 70
     1
102
RTVSPropertyOp32
 70
     1
  0
XRECORD
  5
343
102
{ACAD_REACTORS
330
342
102
}
330
342
100
AcDbXrecord
280
     1
102
RTVSPropertyOp0
 70
     1
102
RTVSPropertyOp1
 70
     1
102
RTVSPropertyOp2
 70
     1
102
RTVSPropertyOp3
 70
     1
102
RTVSPropertyOp4
 70
     1
102
RTVSPropertyOp5
 70
     1
102
RTVSPropertyOp6
 70
     1
102
RTVSPropertyOp7
 70
     1
102
RTVSPropertyOp8
 70
     1
102
RTVSPropertyOp9
 70
     1
102
RTVSPropertyOp10
 70
     1
102
RTVSPropertyOp11
 70
     1
102
RTVSPropertyOp12
 70
     1
102
RTVSPropertyOp13
 70
     1
102
RTVSPropertyOp14
 70
     1
102
RTVSPropertyOp15
 70
     1
102
RTVSPropertyOp16
 70
     1
102
RTVSPropertyOp17
 70
     1
102
RTVSPropertyOp18
 70
     1
102
RTVSPropertyOp19
 70
     1
102
RTVSPropertyOp20
 70
     1
102
RTVSPropertyOp21
 70
     1
102
RTVSPropertyOp22
 70
     1
102
RTVSPropertyOp23
 70
     1
102
RTVSPropertyOp24
 70
     1
102
RTVSPropertyOp25
 70
     1
102
RTVSPropertyOp26
 70
     1
102
RTVSPropertyOp27
 70
     1
102
RTVSPropertyOp28
 70
     1
102
RTVSPropertyOp29
 70
     1
102
RTVSPropertyOp30
 70
     1
102
RTVSPropertyOp31
 70
     1
102
RTVSPropertyOp32
 70
     1
  0
XRECORD
  5
327
102
{ACAD_REACTORS
330
326
102
}
330
326
100
AcDbXrecord
280
     1
102
RTVSPropertyOp0
 70
     1
102
RTVSPropertyOp1
 70
     1
102
RTVSPropertyOp2
 70
     1
102
RTVSPropertyOp3
 70
     1
102
RTVSPropertyOp4
 70
     1
102
RTVSPropertyOp5
 70
     1
102
RTVSPropertyOp6
 70
     1
102
RTVSPropertyOp7
 70
     1
102
RTVSPropertyOp8
 70
     1
102
RTVSPropertyOp9
 70
     1
102
RTVSPropertyOp10
 70
     1
102
RTVSPropertyOp11
 70
     1
102
RTVSPropertyOp12
 70
     1
102
RTVSPropertyOp13
 70
     1
102
RTVSPropertyOp14
 70
     1
102
RTVSPropertyOp15
 70
     1
102
RTVSPropertyOp16
 70
     1
102
RTVSPropertyOp17
 70
     1
102
RTVSPropertyOp18
 70
     1
102
RTVSPropertyOp19
 70
     1
102
RTVSPropertyOp20
 70
     1
102
RTVSPropertyOp21
 70
     1
102
RTVSPropertyOp22
 70
     1
102
RTVSPropertyOp23
 70
     1
102
RTVSPropertyOp24
 70
     1
102
RTVSPropertyOp25
 70
     1
102
RTVSPropertyOp26
 70
     1
102
RTVSPropertyOp27
 70
     1
102
RTVSPropertyOp28
 70
     1
102
RTVSPropertyOp29
 70
     1
102
RTVSPropertyOp30
 70
     1
102
RTVSPropertyOp31
 70
     1
102
RTVSPropertyOp32
 70
     1
  0
XRECORD
  5
329
102
{ACAD_REACTORS
330
328
102
}
330
328
100
AcDbXrecord
280
     1
102
RTVSPropertyOp0
 70
     1
102
RTVSPropertyOp1
 70
     1
102
RTVSPropertyOp2
 70
     1
102
RTVSPropertyOp3
 70
     1
102
RTVSPropertyOp4
 70
     1
102
RTVSPropertyOp5
 70
     1
102
RTVSPropertyOp6
 70
     1
102
RTVSPropertyOp7
 70
     1
102
RTVSPropertyOp8
 70
     1
102
RTVSPropertyOp9
 70
     1
102
RTVSPropertyOp10
 70
     1
102
RTVSPropertyOp11
 70
     1
102
RTVSPropertyOp12
 70
     1
102
RTVSPropertyOp13
 70
     1
102
RTVSPropertyOp14
 70
     1
102
RTVSPropertyOp15
 70
     1
102
RTVSPropertyOp16
 70
     1
102
RTVSPropertyOp17
 70
     1
102
RTVSPropertyOp18
 70
     1
102
RTVSPropertyOp19
 70
     1
102
RTVSPropertyOp20
 70
     1
102
RTVSPropertyOp21
 70
     1
102
RTVSPropertyOp22
 70
     1
102
RTVSPropertyOp23
 70
     1
102
RTVSPropertyOp24
 70
     1
102
RTVSPropertyOp25
 70
     1
102
RTVSPropertyOp26
 70
     1
102
RTVSPropertyOp27
 70
     1
102
RTVSPropertyOp28
 70
     1
102
RTVSPropertyOp29
 70
     1
102
RTVSPropertyOp30
 70
     1
102
RTVSPropertyOp31
 70
     1
102
RTVSPropertyOp32
 70
     1
  0
XRECORD
  5
32B
102
{ACAD_REACTORS
330
32A
102
}
330
32A
100
AcDbXrecord
280
     1
102
RTVSPropertyOp0
 70
     1
102
RTVSPropertyOp1
 70
     1
102
RTVSPropertyOp2
 70
     1
102
RTVSPropertyOp3
 70
     1
102
RTVSPropertyOp4
 70
     1
102
RTVSPropertyOp5
 70
     1
102
RTVSPropertyOp6
 70
     1
102
RTVSPropertyOp7
 70
     1
102
RTVSPropertyOp8
 70
     1
102
RTVSPropertyOp9
 70
     1
102
RTVSPropertyOp10
 70
     1
102
RTVSPropertyOp11
 70
     1
102
RTVSPropertyOp12
 70
     1
102
RTVSPropertyOp13
 70
     1
102
RTVSPropertyOp14
 70
     1
102
RTVSPropertyOp15
 70
     1
102
RTVSPropertyOp16
 70
     1
102
RTVSPropertyOp17
 70
     1
102
RTVSPropertyOp18
 70
     1
102
RTVSPropertyOp19
 70
     1
102
RTVSPropertyOp20
 70
     1
102
RTVSPropertyOp21
 70
     1
102
RTVSPropertyOp22
 70
     1
102
RTVSPropertyOp23
 70
     1
102
RTVSPropertyOp24
 70
     1
102
RTVSPropertyOp25
 70
     1
102
RTVSPropertyOp26
 70
     1
102
RTVSPropertyOp27
 70
     1
102
RTVSPropertyOp28
 70
     1
102
RTVSPropertyOp29
 70
     1
102
RTVSPropertyOp30
 70
     1
102
RTVSPropertyOp31
 70
     1
102
RTVSPropertyOp32
 70
     1
  0
XRECORD
  5
32D
102
{ACAD_REACTORS
330
32C
102
}
330
32C
100
AcDbXrecord
280
     1
102
RTVSPropertyOp0
 70
     1
102
RTVSPropertyOp1
 70
     1
102
RTVSPropertyOp2
 70
     1
102
RTVSPropertyOp3
 70
     1
102
RTVSPropertyOp4
 70
     1
102
RTVSPropertyOp5
 70
     1
102
RTVSPropertyOp6
 70
     1
102
RTVSPropertyOp7
 70
     1
102
RTVSPropertyOp8
 70
     1
102
RTVSPropertyOp9
 70
     1
102
RTVSPropertyOp10
 70
     1
102
RTVSPropertyOp11
 70
     1
102
RTVSPropertyOp12
 70
     1
102
RTVSPropertyOp13
 70
     1
102
RTVSPropertyOp14
 70
     1
102
RTVSPropertyOp15
 70
     1
102
RTVSPropertyOp16
 70
     1
102
RTVSPropertyOp17
 70
     1
102
RTVSPropertyOp18
 70
     1
102
RTVSPropertyOp19
 70
     1
102
RTVSPropertyOp20
 70
     1
102
RTVSPropertyOp21
 70
     1
102
RTVSPropertyOp22
 70
     1
102
RTVSPropertyOp23
 70
     1
102
RTVSPropertyOp24
 70
     1
102
RTVSPropertyOp25
 70
     1
102
RTVSPropertyOp26
 70
     1
102
RTVSPropertyOp27
 70
     1
102
RTVSPropertyOp28
 70
     1
102
RTVSPropertyOp29
 70
     1
102
RTVSPropertyOp30
 70
     1
102
RTVSPropertyOp31
 70
     1
102
RTVSPropertyOp32
 70
     1
  0
XRECORD
  5
341
102
{ACAD_REACTORS
330
340
102
}
330
340
100
AcDbXrecord
280
     1
102
RTVSPropertyOp0
 70
     1
102
RTVSPropertyOp1
 70
     1
102
RTVSPropertyOp2
 70
     1
102
RTVSPropertyOp3
 70
     1
102
RTVSPropertyOp4
 70
     1
102
RTVSPropertyOp5
 70
     1
102
RTVSPropertyOp6
 70
     1
102
RTVSPropertyOp7
 70
     1
102
RTVSPropertyOp8
 70
     1
102
RTVSPropertyOp9
 70
     1
102
RTVSPropertyOp10
 70
     1
102
RTVSPropertyOp11
 70
     1
102
RTVSPropertyOp12
 70
     1
102
RTVSPropertyOp13
 70
     1
102
RTVSPropertyOp14
 70
     1
102
RTVSPropertyOp15
 70
     1
102
RTVSPropertyOp16
 70
     1
102
RTVSPropertyOp17
 70
     1
102
RTVSPropertyOp18
 70
     1
102
RTVSPropertyOp19
 70
     1
102
RTVSPropertyOp20
 70
     1
102
RTVSPropertyOp21
 70
     1
102
RTVSPropertyOp22
 70
     1
102
RTVSPropertyOp23
 70
     1
102
RTVSPropertyOp24
 70
     1
102
RTVSPropertyOp25
 70
     1
102
RTVSPropertyOp26
 70
     1
102
RTVSPropertyOp27
 70
     1
102
RTVSPropertyOp28
 70
     1
102
RTVSPropertyOp29
 70
     1
102
RTVSPropertyOp30
 70
     1
102
RTVSPropertyOp31
 70
     1
102
RTVSPropertyOp32
 70
     1
  0
XRECORD
  5
337
102
{ACAD_REACTORS
330
336
102
}
330
336
100
AcDbXrecord
280
     1
102
RTVSPropertyOp0
 70
     1
102
RTVSPropertyOp1
 70
     1
102
RTVSPropertyOp2
 70
     1
102
RTVSPropertyOp3
 70
     1
102
RTVSPropertyOp4
 70
     1
102
RTVSPropertyOp5
 70
     1
102
RTVSPropertyOp6
 70
     1
102
RTVSPropertyOp7
 70
     1
102
RTVSPropertyOp8
 70
     1
102
RTVSPropertyOp9
 70
     1
102
RTVSPropertyOp10
 70
     1
102
RTVSPropertyOp11
 70
     1
102
RTVSPropertyOp12
 70
     1
102
RTVSPropertyOp13
 70
     1
102
RTVSPropertyOp14
 70
     1
102
RTVSPropertyOp15
 70
     1
102
RTVSPropertyOp16
 70
     1
102
RTVSPropertyOp17
 70
     1
102
RTVSPropertyOp18
 70
     1
102
RTVSPropertyOp19
 70
     1
102
RTVSPropertyOp20
 70
     1
102
RTVSPropertyOp21
 70
     1
102
RTVSPropertyOp22
 70
     1
102
RTVSPropertyOp23
 70
     1
102
RTVSPropertyOp24
 70
     1
102
RTVSPropertyOp25
 70
     1
102
RTVSPropertyOp26
 70
     1
102
RTVSPropertyOp27
 70
     1
102
RTVSPropertyOp28
 70
     1
102
RTVSPropertyOp29
 70
     1
102
RTVSPropertyOp30
 70
     1
102
RTVSPropertyOp31
 70
     1
102
RTVSPropertyOp32
 70
     1
  0
XRECORD
  5
33F
102
{ACAD_REACTORS
330
33E
102
}
330
33E
100
AcDbXrecord
280
     1
102
RTVSPropertyOp0
 70
     1
102
RTVSPropertyOp1
 70
     1
102
RTVSPropertyOp2
 70
     1
102
RTVSPropertyOp3
 70
     1
102
RTVSPropertyOp4
 70
     1
102
RTVSPropertyOp5
 70
     1
102
RTVSPropertyOp6
 70
     1
102
RTVSPropertyOp7
 70
     1
102
RTVSPropertyOp8
 70
     1
102
RTVSPropertyOp9
 70
     1
102
RTVSPropertyOp10
 70
     1
102
RTVSPropertyOp11
 70
     1
102
RTVSPropertyOp12
 70
     1
102
RTVSPropertyOp13
 70
     1
102
RTVSPropertyOp14
 70
     1
102
RTVSPropertyOp15
 70
     1
102
RTVSPropertyOp16
 70
     1
102
RTVSPropertyOp17
 70
     1
102
RTVSPropertyOp18
 70
     1
102
RTVSPropertyOp19
 70
     1
102
RTVSPropertyOp20
 70
     1
102
RTVSPropertyOp21
 70
     1
102
RTVSPropertyOp22
 70
     1
102
RTVSPropertyOp23
 70
     1
102
RTVSPropertyOp24
 70
     1
102
RTVSPropertyOp25
 70
     1
102
RTVSPropertyOp26
 70
     1
102
RTVSPropertyOp27
 70
     1
102
RTVSPropertyOp28
 70
     1
102
RTVSPropertyOp29
 70
     1
102
RTVSPropertyOp30
 70
     1
102
RTVSPropertyOp31
 70
     1
102
RTVSPropertyOp32
 70
     1
  0
ENDSEC
  0
EOF
