  0
SECTION
  2
HEADER
  9
$ACADVER
  1
AC1018
  9
$ACADMAINTVER
 70
     0
  9
$DWGCODEPAGE
  3
ANSI_1252
  9
$INSBASE
 10
0.0
 20
0.0
 30
0.0
  9
$EXTMIN
 10
-217.2646133579264
 20
-1.85751051748403
 30
0.0
  9
$EXTMAX
 10
79.73538664207175
 20
208.142489482516
 30
0.0
  9
$LIMMIN
 10
0.0
 20
0.0
  9
$LIMMAX
 10
12.0
 20
9.0
  9
$ORTHOMODE
 70
     0
  9
$REGENMODE
 70
     1
  9
$FILLMODE
 70
     1
  9
$QTEXTMODE
 70
     0
  9
$MIRRTEXT
 70
     1
  9
$LTSCALE
 40
1.0
  9
$ATTMODE
 70
     1
  9
$TEXTSIZE
 40
0.2
  9
$TRACEWID
 40
0.05
  9
$TEXTSTYLE
  7
Standard
  9
$CLAYER
  8
0
  9
$CELTYPE
  6
ByLayer
  9
$CECOLOR
 62
   256
  9
$CELTSCALE
 40
1.0
  9
$DISPSILH
 70
     0
  9
$DIMSCALE
 40
1.0
  9
$DIMASZ
 40
0.18
  9
$DIMEXO
 40
0.0625
  9
$DIMDLI
 40
0.38
  9
$DIMRND
 40
0.0
  9
$DIMDLE
 40
0.0
  9
$DIMEXE
 40
0.18
  9
$DIMTP
 40
0.0
  9
$DIMTM
 40
0.0
  9
$DIMTXT
 40
0.18
  9
$DIMCEN
 40
0.09
  9
$DIMTSZ
 40
0.0
  9
$DIMTOL
 70
     0
  9
$DIMLIM
 70
     0
  9
$DIMTIH
 70
     1
  9
$DIMTOH
 70
     1
  9
$DIMSE1
 70
     0
  9
$DIMSE2
 70
     0
  9
$DIMTAD
 70
     0
  9
$DIMZIN
 70
     0
  9
$DIMBLK
  1

  9
$DIMASO
 70
     1
  9
$DIMSHO
 70
     1
  9
$DIMPOST
  1

  9
$DIMAPOST
  1

  9
$DIMALT
 70
     0
  9
$DIMALTD
 70
     2
  9
$DIMALTF
 40
25.4
  9
$DIMLFAC
 40
1.0
  9
$DIMTOFL
 70
     0
  9
$DIMTVP
 40
0.0
  9
$DIMTIX
 70
     0
  9
$DIMSOXD
 70
     0
  9
$DIMSAH
 70
     0
  9
$DIMBLK1
  1

  9
$DIMBLK2
  1

  9
$DIMSTYLE
  2
Standard
  9
$DIMCLRD
 70
     0
  9
$DIMCLRE
 70
     0
  9
$DIMCLRT
 70
     0
  9
$DIMTFAC
 40
1.0
  9
$DIMGAP
 40
0.09
  9
$DIMJUST
 70
     0
  9
$DIMSD1
 70
     0
  9
$DIMSD2
 70
     0
  9
$DIMTOLJ
 70
     1
  9
$DIMTZIN
 70
     0
  9
$DIMALTZ
 70
     0
  9
$DIMALTTZ
 70
     0
  9
$DIMUPT
 70
     0
  9
$DIMDEC
 70
     4
  9
$DIMTDEC
 70
     4
  9
$DIMALTU
 70
     2
  9
$DIMALTTD
 70
     2
  9
$DIMTXSTY
  7
Standard
  9
$DIMAUNIT
 70
     0
  9
$DIMADEC
 70
     0
  9
$DIMALTRND
 40
0.0
  9
$DIMAZIN
 70
     0
  9
$DIMDSEP
 70
    46
  9
$DIMATFIT
 70
     3
  9
$DIMFRAC
 70
     0
  9
$DIMLDRBLK
  1

  9
$DIMLUNIT
 70
     2
  9
$DIMLWD
 70
    -2
  9
$DIMLWE
 70
    -2
  9
$DIMTMOVE
 70
     0
  9
$LUNITS
 70
     2
  9
$LUPREC
 70
     4
  9
$SKETCHINC
 40
0.1
  9
$FILLETRAD
 40
0.5
  9
$AUNITS
 70
     0
  9
$AUPREC
 70
     0
  9
$MENU
  1
.
  9
$ELEVATION
 40
0.0
  9
$PELEVATION
 40
0.0
  9
$THICKNESS
 40
0.0
  9
$LIMCHECK
 70
     0
  9
$CHAMFERA
 40
0.5
  9
$CHAMFERB
 40
0.5
  9
$CHAMFERC
 40
1.0
  9
$CHAMFERD
 40
0.0
  9
$SKPOLY
 70
     0
  9
$TDCREATE
 40
2458157.942894352
  9
$TDUCREATE
 40
2458157.901227685
  9
$TDUPDATE
 40
2458157.942894896
  9
$TDUUPDATE
 40
2458157.901228229
  9
$TDINDWG
 40
0.0000000116
  9
$TDUSRTIMER
 40
0.0000000116
  9
$USRTIMER
 70
     1
  9
$ANGBASE
 50
0.0
  9
$ANGDIR
 70
     0
  9
$PDMODE
 70
     0
  9
$PDSIZE
 40
0.0
  9
$PLINEWID
 40
0.0
  9
$SPLFRAME
 70
     0
  9
$SPLINETYPE
 70
     6
  9
$SPLINESEGS
 70
     8
  9
$HANDSEED
  5
351
  9
$SURFTAB1
 70
     6
  9
$SURFTAB2
 70
     6
  9
$SURFTYPE
 70
     6
  9
$SURFU
 70
     6
  9
$SURFV
 70
     6
  9
$UCSBASE
  2

  9
$UCSNAME
  2

  9
$UCSORG
 10
0.0
 20
0.0
 30
0.0
  9
$UCSXDIR
 10
1.0
 20
0.0
 30
0.0
  9
$UCSYDIR
 10
0.0
 20
1.0
 30
0.0
  9
$UCSORTHOREF
  2

  9
$UCSORTHOVIEW
 70
     0
  9
$UCSORGTOP
 10
0.0
 20
0.0
 30
0.0
  9
$UCSORGBOTTOM
 10
0.0
 20
0.0
 30
0.0
  9
$UCSORGLEFT
 10
0.0
 20
0.0
 30
0.0
  9
$UCSORGRIGHT
 10
0.0
 20
0.0
 30
0.0
  9
$UCSORGFRONT
 10
0.0
 20
0.0
 30
0.0
  9
$UCSORGBACK
 10
0.0
 20
0.0
 30
0.0
  9
$PUCSBASE
  2

  9
$PUCSNAME
  2

  9
$PUCSORG
 10
0.0
 20
0.0
 30
0.0
  9
$PUCSXDIR
 10
1.0
 20
0.0
 30
0.0
  9
$PUCSYDIR
 10
0.0
 20
1.0
 30
0.0
  9
$PUCSORTHOREF
  2

  9
$PUCSORTHOVIEW
 70
     0
  9
$PUCSORGTOP
 10
0.0
 20
0.0
 30
0.0
  9
$PUCSORGBOTTOM
 10
0.0
 20
0.0
 30
0.0
  9
$PUCSORGLEFT
 10
0.0
 20
0.0
 30
0.0
  9
$PUCSORGRIGHT
 10
0.0
 20
0.0
 30
0.0
  9
$PUCSORGFRONT
 10
0.0
 20
0.0
 30
0.0
  9
$PUCSORGBACK
 10
0.0
 20
0.0
 30
0.0
  9
$USERI1
 70
     0
  9
$USERI2
 70
     0
  9
$USERI3
 70
     0
  9
$USERI4
 70
     0
  9
$USERI5
 70
     0
  9
$USERR1
 40
18.1
  9
$USERR2
 40
0.0
  9
$USERR3
 40
0.0
  9
$USERR4
 40
0.0
  9
$USERR5
 40
0.0
  9
$WORLDVIEW
 70
     1
  9
$SHADEDGE
 70
     3
  9
$SHADEDIF
 70
    70
  9
$TILEMODE
 70
     1
  9
$MAXACTVP
 70
    64
  9
$PINSBASE
 10
0.0
 20
0.0
 30
0.0
  9
$PLIMCHECK
 70
     0
  9
$PEXTMIN
 10
1.00000000000000E+20
 20
1.00000000000000E+20
 30
1.00000000000000E+20
  9
$PEXTMAX
 10
-1.00000000000000E+20
 20
-1.00000000000000E+20
 30
-1.00000000000000E+20
  9
$PLIMMIN
 10
0.0
 20
0.0
  9
$PLIMMAX
 10
12.0
 20
9.0
  9
$UNITMODE
 70
     0
  9
$VISRETAIN
 70
     1
  9
$PLINEGEN
 70
     0
  9
$PSLTSCALE
 70
     1
  9
$TREEDEPTH
 70
  3020
  9
$CMLSTYLE
  2
Standard
  9
$CMLJUST
 70
     0
  9
$CMLSCALE
 40
1.0
  9
$PROXYGRAPHICS
 70
     1
  9
$MEASUREMENT
 70
     1
  9
$CELWEIGHT
370
    -1
  9
$ENDCAPS
280
     0
  9
$JOINSTYLE
280
     0
  9
$LWDISPLAY
290
     0
  9
$INSUNITS
 70
     4
  9
$HYPERLINKBASE
  1

  9
$STYLESHEET
  1

  9
$XEDIT
290
     1
  9
$CEPSNTYPE
380
     0
  9
$PSTYLEMODE
290
     1
  9
$FINGERPRINTGUID
  2
{2ACC0ED8-5254-4EFB-AB7F-9B8CD7FFD96C}
  9
$VERSIONGUID
  2
{FAEB1C32-E019-11D5-929B-00C0DF256EC4}
  9
$EXTNAMES
290
     1
  9
$PSVPSCALE
 40
0.0
  9
$OLESTARTUP
290
     0
  9
$SORTENTS
280
   127
  9
$INDEXCTL
280
     0
  9
$HIDETEXT
280
     1
  9
$XCLIPFRAME
290
     0
  9
$HALOGAP
280
     0
  9
$OBSCOLOR
 70
   257
  9
$OBSLTYPE
280
     0
  9
$INTERSECTIONDISPLAY
280
     0
  9
$INTERSECTIONCOLOR
 70
   257
  9
$DIMASSOC
280
     2
  9
$PROJECTNAME
  1

  0
ENDSEC
  0
SECTION
  2
CLASSES
  0
CLASS
  1
ACDBDICTIONARYWDFLT
  2
AcDbDictionaryWithDefault
  3
ObjectDBX Classes
 90
        0
 91
        4
280
     0
281
     0
  0
CLASS
  1
VISUALSTYLE
  2
AcDbVisualStyle
  3
ObjectDBX Classes
 90
     4095
 91
        4
280
     0
281
     0
  0
CLASS
  1
MATERIAL
  2
AcDbMaterial
  3
ObjectDBX Classes
 90
     1153
 91
        4
280
     0
281
     0
  0
ENDSEC
  0
SECTION
  2
TABLES
  0
TABLE
  2
VPORT
  5
8
330
0
100
AcDbSymbolTable
 70
     1
  0
VPORT
  5
29
330
8
100
AcDbSymbolTableRecord
100
AcDbViewportTableRecord
  2
*Active
 70
     0
 10
0.0
 20
0.0
 11
1.0
 21
1.0
 12
-68.76461335792733
 22
103.142489482516
 13
0.0
 23
0.0
 14
0.5
 24
0.5
 15
0.5
 25
0.5
 16
0.0
 26
0.0
 36
1.0
 17
0.0
 27
0.0
 37
0.0
 40
231.0000000000001
 41
1.60267857142857
 42
50.0
 43
0.0
 44
0.0
 50
0.0
 51
0.0
 71
     0
 72
   100
 73
     1
 74
     3
 75
     0
 76
     0
 77
     0
 78
     0
281
     0
 65
     1
110
0.0
120
0.0
130
0.0
111
1.0
121
0.0
131
0.0
112
0.0
122
1.0
132
0.0
 79
     0
146
0.0
  0
ENDTAB
  0
TABLE
  2
LTYPE
  5
5
330
0
100
AcDbSymbolTable
 70
     8
  0
LTYPE
  5
14
330
5
100
AcDbSymbolTableRecord
100
AcDbLinetypeTableRecord
  2
ByBlock
 70
     0
  3

 72
    65
 73
     0
 40
0.0
  0
LTYPE
  5
15
330
5
100
AcDbSymbolTableRecord
100
AcDbLinetypeTableRecord
  2
ByLayer
 70
     0
  3

 72
    65
 73
     0
 40
0.0
  0
LTYPE
  5
16
330
5
100
AcDbSymbolTableRecord
100
AcDbLinetypeTableRecord
  2
Continuous
 70
     0
  3
Solid line
 72
    65
 73
     0
 40
0.0
  0
LTYPE
  5
3F
330
5
100
AcDbSymbolTableRecord
100
AcDbLinetypeTableRecord
  2
DASHED
 70
     0
  3
Dashed
 72
    65
 73
     2
 40
15.0
 49
7.0
 74
     0
 49
-8.0
 74
     0
  0
LTYPE
  5
40
330
5
100
AcDbSymbolTableRecord
100
AcDbLinetypeTableRecord
  2
DOTTED
 70
     0
  3
Dotted
 72
    65
 73
     2
 40
1.0
 49
0.0
 74
     0
 49
-1.0
 74
     0
  0
LTYPE
  5
41
330
5
100
AcDbSymbolTableRecord
100
AcDbLinetypeTableRecord
  2
DOT_CENTER
 70
     0
  3
Dot_Center
 72
    65
 73
     4
 40
14.0
 49
12.0
 74
     0
 49
-1.0
 74
     0
 49
0.0
 74
     0
 49
-1.0
 74
     0
  0
LTYPE
  5
42
330
5
100
AcDbSymbolTableRecord
100
AcDbLinetypeTableRecord
  2
LONG_DASHED
 70
     0
  3
Long_Dashed
 72
    65
 73
     2
 40
15.0
 49
10.0
 74
     0
 49
-5.0
 74
     0
  0
LTYPE
  5
43
330
5
100
AcDbSymbolTableRecord
100
AcDbLinetypeTableRecord
  2
DASH_CENTER
 70
     0
  3
Dash_Center
 72
    65
 73
     4
 40
14.0
 49
11.0
 74
     0
 49
-1.0
 74
     0
 49
1.0
 74
     0
 49
-1.0
 74
     0
  0
LTYPE
  5
44
330
5
100
AcDbSymbolTableRecord
100
AcDbLinetypeTableRecord
  2
PHANTOM
 70
     0
  3
Phantom
 72
    65
 73
     6
 40
13.0
 49
10.0
 74
     0
 49
-1.0
 74
     0
 49
0.0
 74
     0
 49
-1.0
 74
     0
 49
0.0
 74
     0
 49
-1.0
 74
     0
  0
LTYPE
  5
45
330
5
100
AcDbSymbolTableRecord
100
AcDbLinetypeTableRecord
  2
CENTER_DASH_DASH
 70
     0
  3
Center_Dash_Dash
 72
    65
 73
     6
 40
14.0
 49
9.0
 74
     0
 49
-1.0
 74
     0
 49
1.0
 74
     0
 49
-1.0
 74
     0
 49
1.0
 74
     0
 49
-1.0
 74
     0
  0
ENDTAB
  0
TABLE
  2
LAYER
  5
2
330
0
100
AcDbSymbolTable
 70
     2
  0
LAYER
  5
10
330
2
100
AcDbSymbolTableRecord
100
AcDbLayerTableRecord
  2
0
 70
     0
 62
     7
  6
Continuous
370
    -3
390
F
  0
LAYER
  5
46
330
2
100
AcDbSymbolTableRecord
100
AcDbLayerTableRecord
  2
1
 70
     0
 62
     7
  6
Continuous
370
    -3
390
F
  0
ENDTAB
  0
TABLE
  2
STYLE
  5
3
330
0
100
AcDbSymbolTable
 70
     9
  0
STYLE
  5
11
330
3
100
AcDbSymbolTableRecord
100
AcDbTextStyleTableRecord
  2
Standard
 70
     0
 40
0.0
 41
1.0
 50
0.0
 71
     0
 42
0.2
  3
txt
  4

  0
STYLE
  5
9E
330
3
100
AcDbSymbolTableRecord
100
AcDbTextStyleTableRecord
  2
CONVERTER_11
 70
     0
 40
0.0
 41
0.9
 50
0.0
 71
     0
 42
0.2
  3
txt.shx
  4

  0
STYLE
  5
2A7
330
3
100
AcDbSymbolTableRecord
100
AcDbTextStyleTableRecord
  2
CONVERTER_12
 70
     0
 40
0.0
 41
0.72
 50
0.0
 71
     0
 42
0.2
  3
txt.shx
  4

  0
STYLE
  5
2A9
330
3
100
AcDbSymbolTableRecord
100
AcDbTextStyleTableRecord
  2
CONVERTER_13
 70
     0
 40
0.0
 41
0.81
 50
0.0
 71
     0
 42
0.2
  3
txt.shx
  4

  0
STYLE
  5
2AB
330
3
100
AcDbSymbolTableRecord
100
AcDbTextStyleTableRecord
  2
CONVERTER_14
 70
     0
 40
0.0
 41
0.45
 50
0.0
 71
     0
 42
0.2
  3
txt.shx
  4

  0
STYLE
  5
2AD
330
3
100
AcDbSymbolTableRecord
100
AcDbTextStyleTableRecord
  2
CONVERTER_15
 70
     0
 40
0.0
 41
0.54
 50
0.0
 71
     0
 42
0.2
  3
txt.shx
  4

  0
STYLE
  5
2CF
330
3
100
AcDbSymbolTableRecord
100
AcDbTextStyleTableRecord
  2
CONVERTER_16
 70
     0
 40
0.0
 41
0.855
 50
0.0
 71
     0
 42
0.2
  3
txt.shx
  4

  0
STYLE
  5
302
330
3
100
AcDbSymbolTableRecord
100
AcDbTextStyleTableRecord
  2
CONVERTER_17
 70
     0
 40
0.0
 41
0.765
 50
0.0
 71
     0
 42
0.2
  3
txt.shx
  4

  0
STYLE
  5
30C
330
3
100
AcDbSymbolTableRecord
100
AcDbTextStyleTableRecord
  2
CONVERTER_18
 70
     0
 40
0.0
 41
0.63
 50
0.0
 71
     0
 42
0.2
  3
txt.shx
  4

  0
ENDTAB
  0
TABLE
  2
VIEW
  5
6
330
0
100
AcDbSymbolTable
 70
     0
  0
ENDTAB
  0
TABLE
  2
UCS
  5
7
330
0
100
AcDbSymbolTable
 70
     0
  0
ENDTAB
  0
TABLE
  2
APPID
  5
9
330
0
100
AcDbSymbolTable
 70
     1
  0
APPID
  5
12
330
9
100
AcDbSymbolTableRecord
100
AcDbRegAppTableRecord
  2
ACAD
 70
     0
  0
ENDTAB
  0
TABLE
  2
DIMSTYLE
  5
A
330
0
100
AcDbSymbolTable
 70
     4
100
AcDbDimStyleTable
  0
DIMSTYLE
105
27
330
A
100
AcDbSymbolTableRecord
100
AcDbDimStyleTableRecord
  2
Standard
 70
     0
178
     0
340
11
  0
DIMSTYLE
105
B3
102
{ACAD_REACTORS
330
B4
102
}
330
A
100
AcDbSymbolTableRecord
100
AcDbDimStyleTableRecord
  2
ME10_DIM_10
 70
     0
 41
3.5
 42
0.0
 44
1.5
 73
     0
 74
     0
 77
     1
 78
     8
140
3.5
147
1.5
172
     1
173
     1
174
     1
175
     1
176
     2
177
     2
178
     3
340
9E
  0
DIMSTYLE
105
11D
102
{ACAD_REACTORS
330
11E
102
}
330
A
100
AcDbSymbolTableRecord
100
AcDbDimStyleTableRecord
  2
ME10_DIM_11
 70
     0
 41
3.5
 42
0.0
 44
1.5
 73
     0
 74
     0
 77
     1
 78
     8
140
3.5
147
1.5
172
     1
173
     1
174
     1
175
     1
176
     2
177
     2
178
     3
340
9E
  0
DIMSTYLE
105
128
102
{ACAD_REACTORS
330
129
102
}
330
A
100
AcDbSymbolTableRecord
100
AcDbDimStyleTableRecord
  2
ME10_DIM_12
 70
     0
 41
3.5
 42
0.0
 44
2.0
 73
     0
 74
     0
 77
     1
 78
     8
140
3.5
147
2.0
172
     1
173
     1
174
     1
175
     1
176
     2
177
     2
178
     3
340
9E
  0
ENDTAB
  0
TABLE
  2
BLOCK_RECORD
  5
1
330
0
100
AcDbSymbolTable
 70
    20
  0
BLOCK_RECORD
  5
1F
330
1
100
AcDbSymbolTableRecord
100
AcDbBlockTableRecord
  2
*Model_Space
340
22
  0
BLOCK_RECORD
  5
1B
330
1
100
AcDbSymbolTableRecord
100
AcDbBlockTableRecord
  2
*Paper_Space
340
1E
  0
BLOCK_RECORD
  5
23
330
1
100
AcDbSymbolTableRecord
100
AcDbBlockTableRecord
  2
*Paper_Space0
340
26
  0
BLOCK_RECORD
  5
47
330
1
100
AcDbSymbolTableRecord
100
AcDbBlockTableRecord
  2
KSS-10-select__1
340
0
102
{BLKREFS
331
4B
102
}
  0
BLOCK_RECORD
  5
4A
330
1
100
AcDbSymbolTableRecord
100
AcDbBlockTableRecord
  2
AllgSicht1
340
0
102
{BLKREFS
331
7D
102
}
  0
BLOCK_RECORD
  5
4E
330
1
100
AcDbSymbolTableRecord
100
AcDbBlockTableRecord
  2
KSS-10-select__2
340
0
102
{BLKREFS
331
52
102
}
  0
BLOCK_RECORD
  5
51
330
1
100
AcDbSymbolTableRecord
100
AcDbBlockTableRecord
  2
Drfsicht1
340
0
102
{BLKREFS
331
7E
102
}
  0
BLOCK_RECORD
  5
55
330
1
100
AcDbSymbolTableRecord
100
AcDbBlockTableRecord
  2
KSS-10-select__3
340
0
102
{BLKREFS
331
59
102
}
  0
BLOCK_RECORD
  5
58
330
1
100
AcDbSymbolTableRecord
100
AcDbBlockTableRecord
  2
Rckans1
340
0
102
{BLKREFS
331
7F
102
}
  0
BLOCK_RECORD
  5
5C
330
1
100
AcDbSymbolTableRecord
100
AcDbBlockTableRecord
  2
KSS-10-select__4
340
0
102
{BLKREFS
331
60
102
}
  0
BLOCK_RECORD
  5
5F
330
1
100
AcDbSymbolTableRecord
100
AcDbBlockTableRecord
  2
SA_Rechts1
340
0
102
{BLKREFS
331
80
102
}
  0
BLOCK_RECORD
  5
63
330
1
100
AcDbSymbolTableRecord
100
AcDbBlockTableRecord
  2
KSS-10-select__5
340
0
102
{BLKREFS
331
67
102
}
  0
BLOCK_RECORD
  5
66
330
1
100
AcDbSymbolTableRecord
100
AcDbBlockTableRecord
  2
SA_links1
340
0
102
{BLKREFS
331
81
102
}
  0
BLOCK_RECORD
  5
6A
330
1
100
AcDbSymbolTableRecord
100
AcDbBlockTableRecord
  2
KSS-10-select__6
340
0
102
{BLKREFS
331
6E
102
}
  0
BLOCK_RECORD
  5
6D
330
1
100
AcDbSymbolTableRecord
100
AcDbBlockTableRecord
  2
Vordans1
340
0
102
{BLKREFS
331
82
102
}
  0
BLOCK_RECORD
  5
71
330
1
100
AcDbSymbolTableRecord
100
AcDbBlockTableRecord
  2
_punkt
340
0
102
{BLKREFS
331
78
102
}
  0
BLOCK_RECORD
  5
74
330
1
100
AcDbSymbolTableRecord
100
AcDbBlockTableRecord
  2
_rahmen
340
0
102
{BLKREFS
331
79
102
}
  0
BLOCK_RECORD
  5
77
330
1
100
AcDbSymbolTableRecord
100
AcDbBlockTableRecord
  2
A4I
340
0
102
{BLKREFS
331
83
102
}
  0
BLOCK_RECORD
  5
7C
330
1
100
AcDbSymbolTableRecord
100
AcDbBlockTableRecord
  2
1
340
0
102
{BLKREFS
331
86
102
}
  0
BLOCK_RECORD
  5
AA
330
1
100
AcDbSymbolTableRecord
100
AcDbBlockTableRecord
  2
*D17
340
0
  0
BLOCK_RECORD
  5
114
330
1
100
AcDbSymbolTableRecord
100
AcDbBlockTableRecord
  2
*D18
340
0
  0
BLOCK_RECORD
  5
11F
330
1
100
AcDbSymbolTableRecord
100
AcDbBlockTableRecord
  2
*D19
340
0
  0
ENDTAB
  0
ENDSEC
  0
SECTION
  2
BLOCKS
  0
BLOCK
  5
20
330
1F
100
AcDbEntity
  8
0
100
AcDbBlockBegin
  2
*Model_Space
 70
     0
 10
0.0
 20
0.0
 30
0.0
  3
*Model_Space
  1

  0
ENDBLK
  5
21
330
1F
100
AcDbEntity
  8
0
100
AcDbBlockEnd
  0
BLOCK
  5
1C
330
1B
100
AcDbEntity
 67
     1
  8
0
100
AcDbBlockBegin
  2
*Paper_Space
 70
     0
 10
0.0
 20
0.0
 30
0.0
  3
*Paper_Space
  1

  0
ENDBLK
  5
1D
330
1B
100
AcDbEntity
 67
     1
  8
0
100
AcDbBlockEnd
  0
BLOCK
  5
24
330
23
100
AcDbEntity
  8
0
100
AcDbBlockBegin
  2
*Paper_Space0
 70
     0
 10
0.0
 20
0.0
 30
0.0
  3
*Paper_Space0
  1

  0
ENDBLK
  5
25
330
23
100
AcDbEntity
  8
0
100
AcDbBlockEnd
  0
BLOCK
  5
48
330
47
100
AcDbEntity
  8
0
100
AcDbBlockBegin
  2
KSS-10-select__1
 70
     0
 10
-9.01314022489827
 20
58.96687381512031
 30
0.0
  3
KSS-10-select__1
  1

  0
LINE
  5
87
330
47
100
AcDbEntity
  8
0
  6
Continuous
 62
     7
100
AcDbLine
 10
9.01313921673051
 20
81.25416725219836
 30
0.0
 11
0.51313921673052
 21
73.89295132003063
 31
0.0
  0
LINE
  5
88
330
47
100
AcDbEntity
  8
0
  6
Continuous
 62
     7
100
AcDbLine
 10
-0.25787913213746
 20
87.10590620243175
 30
0.0
 11
-8.24212187603034
 21
89.41075855116267
 31
0.0
  0
LINE
  5
89
330
47
100
AcDbEntity
  8
0
  6
Continuous
 62
     7
100
AcDbLine
 10
0.25787812396964
 20
96.77197448333041
 30
0.0
 11
-8.24212187603034
 21
89.41075855116267
 31
0.0
  0
LINE
  5
8A
330
47
100
AcDbEntity
  8
0
  6
Continuous
 62
     7
100
AcDbLine
 10
-0.81250050408387
 20
59.84187381512029
 30
0.0
 11
-0.81250050408387
 21
74.10463982778013
 31
0.0
  0
LINE
  5
8B
330
47
100
AcDbEntity
  8
0
  6
Continuous
 62
     7
100
AcDbLine
 10
0.51313921673052
 20
73.89295132003063
 30
0.0
 11
0.51313921673052
 21
76.05801482949173
 31
0.0
  0
LINE
  5
8C
330
47
100
AcDbEntity
  8
0
  6
Continuous
 62
     7
100
AcDbLine
 10
0.81249949591612
 20
64.28025400951555
 30
0.0
 11
0.81249949591612
 21
74.15220492668936
 31
0.0
  0
LINE
  5
8D
330
47
100
AcDbEntity
  8
0
  6
Continuous
 62
     7
100
AcDbLine
 10
4.31249949591612
 20
64.28025400951556
 30
0.0
 11
4.31249949591613
 21
77.1832938399349
 31
0.0
  0
LINE
  5
8E
330
47
100
AcDbEntity
  8
0
  6
Continuous
 62
     7
100
AcDbLine
 10
8.24212086786253
 20
94.46712213459948
 30
0.0
 11
0.25787812396964
 21
96.77197448333041
 31
0.0
  0
LINE
  5
8F
330
47
100
AcDbEntity
  8
0
  6
Continuous
 62
     7
100
AcDbLine
 10
-5.06250050408388
 20
74.99731838134798
 30
0.0
 11
-5.06250050408388
 21
75.50249986688888
 31
0.0
  0
LINE
  5
90
330
47
100
AcDbEntity
  8
0
  6
Continuous
 62
     7
100
AcDbLine
 10
-4.31250050408387
 20
59.84187381512031
 30
0.0
 11
-4.31250050408388
 21
74.10463982778013
 31
0.0
  0
LINE
  5
91
330
47
100
AcDbEntity
  8
0
  6
Continuous
 62
     7
100
AcDbLine
 10
-9.01314022489827
 20
78.80801482949173
 30
0.0
 11
-9.01314022489827
 21
76.64295132003062
 31
0.0
  0
LINE
  5
92
330
47
100
AcDbEntity
  8
0
  6
Continuous
 62
     7
100
AcDbLine
 10
9.01313921673051
 20
81.25416725219836
 30
0.0
 11
9.01313921673052
 21
83.41923076165946
 31
0.0
  0
LINE
  5
93
330
47
100
AcDbEntity
  8
0
  6
Continuous
 62
     7
100
AcDbLine
 10
0.51313921673052
 20
73.89295132003063
 30
0.0
 11
-9.01314022489827
 21
76.64295132003062
 31
0.0
  0
LINE
  5
94
330
47
100
AcDbEntity
  8
0
  6
Continuous
 62
     7
100
AcDbLine
 10
-0.25787913213746
 20
87.10590620243175
 30
0.0
 11
8.24212086786253
 21
94.46712213459948
 31
0.0
  0
LINE
  5
95
330
47
100
AcDbEntity
  8
0
  6
Continuous
 62
     7
100
AcDbLine
 10
0.51313921673052
 20
76.05801482949173
 30
0.0
 11
9.01313921673052
 21
83.41923076165946
 31
0.0
  0
SPLINE
  5
96
330
47
100
AcDbEntity
  8
0
  6
Continuous
 62
     7
100
AcDbSpline
210
0.0
220
0.0
230
1.0
 70
     8
 71
     3
 72
    11
 73
     7
 74
     5
 42
0.000000001
 43
0.0000000001
 44
0.00000001
 40
0.0
 40
0.0
 40
0.0
 40
0.0
 40
2.988909232018874
 40
5.863870589791737
 40
8.613792255374955
 40
11.23951047815738
 40
11.23951047815738
 40
11.23951047815738
 40
11.23951047815738
 10
0.5131392167305222
 20
76.05801482949173
 30
0.0
 10
0.2034932060891744
 20
77.0069459731351
 30
0.0
 10
-0.4039939912401357
 20
78.86863162663641
 30
0.0
 10
-0.8004050230277848
 20
81.72377353953044
 30
0.0
 10
-0.8206087200341677
 20
84.49150464254913
 30
0.0
 10
-0.4425439542667698
 20
86.24796662323578
 30
0.0
 10
-0.2578791321374609
 20
87.10590620243175
 30
0.0
 11
0.5131392167305222
 21
76.05801482949173
 31
0.0
 11
-0.3280792673717543
 21
78.92610301861578
 31
0.0
 11
-0.7421335515830485
 21
81.77109192313462
 31
0.0
 11
-0.7185339239999435
 21
84.52091232350492
 31
0.0
 11
-0.2578791321374609
 21
87.10590620243175
 31
0.0
  0
SPLINE
  5
97
330
47
100
AcDbEntity
  8
0
  6
Continuous
 62
     7
100
AcDbSpline
210
0.0
220
0.0
230
1.0
 70
     8
 71
     3
 72
    15
 73
    11
 74
     9
 42
0.000000001
 43
0.0000000001
 44
0.00000001
 40
0.0
 40
0.0
 40
0.0
 40
0.0
 40
0.4310236133457184
 40
0.8849370776275708
 40
1.3388505416329
 40
1.769874145721992
 40
2.15807029145703
 40
2.490010160335796
 40
2.764052080690828
 40
2.998237661362371
 40
2.998237661362371
 40
2.998237661362371
 40
2.998237661362371
 10
-3.437500504083872
 20
59.08410158680891
 30
0.0
 10
-3.297479966042629
 20
59.0508466241882
 30
0.0
 10
-3.01000298713946
 20
58.98257067360503
 30
0.0
 10
-2.562281729287773
 20
58.95804866815728
 30
0.0
 10
-2.115851000783028
 20
58.98558747075499
 30
0.0
 10
-1.698708463474204
 20
59.06990447368136
 30
0.0
 10
-1.33586799106634
 20
59.20381214143254
 30
0.0
 10
-1.055420283322856
 20
59.38026795756414
 30
0.0
 10
-0.8547738666764788
 20
59.59329082424151
 30
0.0
 10
-0.8258351412474215
 20
59.7634611972285
 30
0.0
 10
-0.8125005040838715
 20
59.84187381512029
 30
0.0
 11
-3.437500504083872
 21
59.08410158680891
 31
0.0
 11
-3.015433712258647
 21
58.99668894244859
 31
0.0
 11
-2.562500504083876
 21
58.96687381512031
 31
0.0
 11
-2.109567295909107
 21
58.99668894244859
 31
0.0
 11
-1.687500504083883
 21
59.08410158680891
 31
0.0
 11
-1.32506396691523
 21
59.22315554653598
 31
0.0
 11
-1.046956047461112
 21
59.40437381512029
 31
0.0
 11
-0.8721307587404534
 21
59.6154072110329
 31
0.0
 11
-0.8125005040838715
 21
59.84187381512029
 31
0.0
  0
SPLINE
  5
98
330
47
100
AcDbEntity
  8
0
  6
Continuous
 62
     7
100
AcDbSpline
210
0.0
220
0.0
230
1.0
 70
     8
 71
     3
 72
    11
 73
     7
 74
     5
 42
0.000000001
 43
0.0000000001
 44
0.00000001
 40
0.0
 40
0.0
 40
0.0
 40
0.0
 40
0.2341855850530584
 40
0.5082275014742142
 40
0.8401673658464759
 40
1.228363516760957
 40
1.228363516760957
 40
1.228363516760957
 40
1.228363516760957
 10
0.8124994959161214
 20
64.28025400951555
 30
0.0
 10
0.8258278182959086
 20
64.20181598941201
 30
0.0
 10
0.8547528407980289
 20
64.03159049063298
 30
0.0
 10
1.055524116909772
 20
63.81906980506493
 30
0.0
 10
1.335347634657029
 20
63.64010334714902
 30
0.0
 10
1.564157412231116
 20
63.56367902930463
 30
0.0
 10
1.687499495916121
 20
63.52248178120416
 30
0.0
 11
0.8124994959161214
 21
64.28025400951555
 31
0.0
 11
0.8721297505726935
 21
64.05378740542817
 31
0.0
 11
1.046955039293348
 21
63.84275400951555
 31
0.0
 11
1.325062958747466
 21
63.66153574093122
 31
0.0
 11
1.687499495916121
 21
63.52248178120416
 31
0.0
  0
SPLINE
  5
99
330
47
100
AcDbEntity
  8
0
  6
Continuous
 62
     7
100
AcDbSpline
210
0.0
220
0.0
230
1.0
 70
     8
 71
     3
 72
    15
 73
    11
 74
     9
 42
0.000000001
 43
0.0000000001
 44
0.00000001
 40
0.0
 40
0.0
 40
0.0
 40
0.0
 40
0.4310236133457219
 40
0.8849370776275778
 40
1.338850541632914
 40
1.769874145722011
 40
2.158070291457046
 40
2.490010160335812
 40
2.764052080690848
 40
2.998237661362396
 40
2.998237661362396
 40
2.998237661362396
 40
2.998237661362396
 10
1.687499495916121
 20
63.52248178120416
 30
0.0
 10
1.827520033957365
 20
63.48922681858345
 30
0.0
 10
2.114997012860536
 20
63.42095086800026
 30
0.0
 10
2.562718270712229
 20
63.39642886255255
 30
0.0
 10
3.009148999216979
 20
63.4239676651502
 30
0.0
 10
3.426291536525803
 20
63.50828466807663
 30
0.0
 10
3.78913200893367
 20
63.64219233582777
 30
0.0
 10
4.069579716677147
 20
63.81864815195938
 30
0.0
 10
4.270226133323524
 20
64.03167101863679
 30
0.0
 10
4.299164858752574
 20
64.20184139162377
 30
0.0
 10
4.312499495916121
 20
64.28025400951556
 30
0.0
 11
1.687499495916121
 21
63.52248178120416
 31
0.0
 11
2.109566287741349
 21
63.43506913684384
 31
0.0
 11
2.562499495916124
 21
63.40525400951555
 31
0.0
 11
3.0154327040909
 21
63.43506913684384
 31
0.0
 11
3.437499495916128
 21
63.52248178120416
 31
0.0
 11
3.799936033084777
 21
63.66153574093123
 31
0.0
 11
4.078043952538891
 21
63.84275400951555
 31
0.0
 11
4.252869241259546
 21
64.05378740542817
 31
0.0
 11
4.312499495916121
 21
64.28025400951556
 31
0.0
  0
SPLINE
  5
9A
330
47
100
AcDbEntity
  8
0
  6
Continuous
 62
     7
100
AcDbSpline
210
0.0
220
0.0
230
1.0
 70
     8
 71
     3
 72
    11
 73
     7
 74
     5
 42
0.000000001
 43
0.0000000001
 44
0.00000001
 40
0.0
 40
0.0
 40
0.0
 40
0.0
 40
2.526564502146237
 40
5.165188353653051
 40
7.928734771512137
 40
10.81666415294674
 40
10.81666415294674
 40
10.81666415294674
 40
10.81666415294674
 10
-9.013140224898272
 20
78.80801482949173
 30
0.0
 10
-8.701280689444816
 20
79.59318493957686
 30
0.0
 10
-8.063729895366777
 20
81.19834938999144
 30
0.0
 10
-7.690433977858622
 20
83.83490719737506
 30
0.0
 10
-7.696051329649313
 20
86.61088514382052
 30
0.0
 10
-8.057447043996142
 20
88.46387331735531
 30
0.0
 10
-8.242121876030339
 20
89.41075855116267
 30
0.0
 11
-9.013140224898272
 21
78.80801482949173
 31
0.0
 11
-8.17192174079597
 21
81.19042530037204
 31
0.0
 11
-7.757867456584687
 21
83.79635985244238
 31
0.0
 11
-7.781467084167819
 21
86.55980550415053
 31
0.0
 11
-8.242121876030339
 21
89.41075855116267
 31
0.0
  0
SPLINE
  5
9B
330
47
100
AcDbEntity
  8
0
  6
Continuous
 62
     7
100
AcDbSpline
210
0.0
220
0.0
230
1.0
 70
     8
 71
     3
 72
    11
 73
     7
 74
     5
 42
0.000000001
 43
0.0000000001
 44
0.00000001
 40
0.0
 40
0.0
 40
0.0
 40
0.0
 40
0.2341855850530588
 40
0.5082275014742224
 40
0.8401673658464891
 40
1.228363516760962
 40
1.228363516760962
 40
1.228363516760962
 40
1.228363516760962
 10
-4.312500504083872
 20
59.84187381512031
 30
0.0
 10
-4.299172181704085
 20
59.76343579501675
 30
0.0
 10
-4.27024715920196
 20
59.59321029623775
 30
0.0
 10
-4.069475883090218
 20
59.38068961066971
 30
0.0
 10
-3.789652365342963
 20
59.20172315275375
 30
0.0
 10
-3.560842587768875
 20
59.12529883490941
 30
0.0
 10
-3.437500504083872
 20
59.08410158680891
 30
0.0
 11
-4.312500504083872
 21
59.84187381512031
 31
0.0
 11
-4.252870249427299
 21
59.61540721103292
 31
0.0
 11
-4.078044960706642
 21
59.4043738151203
 31
0.0
 11
-3.799937041252522
 21
59.22315554653597
 31
0.0
 11
-3.437500504083872
 21
59.08410158680891
 31
0.0
  0
SPLINE
  5
9C
330
47
100
AcDbEntity
  8
0
  6
Continuous
 62
     7
100
AcDbSpline
210
0.0
220
0.0
230
1.0
 70
     8
 71
     3
 72
    11
 73
     7
 74
     5
 42
0.000000001
 43
0.0000000001
 44
0.00000001
 40
0.0
 40
0.0
 40
0.0
 40
0.0
 40
2.988909232018849
 40
5.863870589791725
 40
8.61379225537493
 40
11.23951047815737
 40
11.23951047815737
 40
11.23951047815737
 40
11.23951047815737
 10
9.013139216730522
 20
83.41923076165946
 30
0.0
 10
8.703493206089172
 20
84.36816190530283
 30
0.0
 10
8.096006008759852
 20
86.22984755880412
 30
0.0
 10
7.699594976972211
 20
89.0849894716982
 30
0.0
 10
7.67939127996582
 20
91.85272057471678
 30
0.0
 10
8.057456045733222
 20
93.6091825554035
 30
0.0
 10
8.242120867862532
 20
94.46712213459948
 30
0.0
 11
9.013139216730522
 21
83.41923076165946
 31
0.0
 11
8.17192073262824
 21
86.28731895078349
 31
0.0
 11
7.757866448416944
 21
89.13230785530234
 31
0.0
 11
7.781466076000046
 21
91.88212825567263
 31
0.0
 11
8.242120867862532
 21
94.46712213459948
 31
0.0
  0
SPLINE
  5
9D
330
47
100
AcDbEntity
  8
0
  6
Continuous
 62
     7
100
AcDbSpline
210
0.0
220
0.0
230
1.0
 70
     8
 71
     3
 72
    17
 73
    13
 74
    11
 42
0.000000001
 43
0.0000000001
 44
0.00000001
 40
0.0
 40
0.0
 40
0.0
 40
0.0
 40
0.3145570431070024
 40
0.677596170072779
 40
1.113097596585887
 40
1.621752029963946
 40
2.189661394805529
 40
2.794486136996424
 40
3.40952716015469
 40
4.006967024510646
 40
4.560936188952651
 40
5.050898085299898
 40
5.050898085299898
 40
5.050898085299898
 40
5.050898085299898
 10
-5.062500504083879
 20
74.99731838134798
 30
0.0
 10
-5.045802739608896
 20
74.89196640736651
 30
0.0
 10
-5.009833605500273
 20
74.66502476287476
 30
0.0
 10
-4.755422576220149
 20
74.37415150956014
 30
0.0
 10
-4.395142105345831
 20
74.1284577842993
 30
0.0
 10
-3.925583026936326
 20
73.93489490987648
 30
0.0
 10
-3.379424807293151
 20
73.80283039343146
 30
0.0
 10
-2.785219931528462
 20
73.739992062822
 30
0.0
 10
-2.177747544999125
 20
73.74922916247688
 30
0.0
 10
-1.594209167518054
 20
73.83327003777123
 30
0.0
 10
-1.061895303925777
 20
73.97590408213368
 30
0.0
 10
-0.7539599013671541
 20
74.13999494347831
 30
0.0
 10
-0.6094325303909542
 20
74.21700987022321
 30
0.0
 11
-5.062500504083879
 21
74.99731838134798
 31
0.0
 11
-4.986783009103489
 21
74.6920103400516
 31
0.0
 11
-4.764218792363561
 21
74.40519580555502
 31
0.0
 11
-4.408287700870791
 21
74.15424850158672
 31
0.0
 11
-3.940551240840048
 21
73.95436869812667
 31
0.0
 11
-3.389340741014858
 21
73.81766452458989
 31
0.0
 11
-2.788045823238871
 21
73.75241584409785
 31
0.0
 11
-2.173088724206112
 21
73.76257588489807
 31
0.0
 11
-1.581719570543253
 21
73.84752831785778
 31
0.0
 11
-1.04976023721017
 21
74.00212812950618
 31
0.0
 11
-0.6094325303909542
 21
74.21700987022321
 31
0.0
  0
ENDBLK
  5
49
330
47
100
AcDbEntity
  8
0
100
AcDbBlockEnd
  0
BLOCK
  5
4C
330
4A
100
AcDbEntity
  8
0
100
AcDbBlockBegin
  2
AllgSicht1
 70
     0
 10
-0.00000000000216
 20
76.99999999995498
 30
0.0
  3
AllgSicht1
  1

  0
INSERT
  5
4B
330
4A
100
AcDbEntity
  8
0
100
AcDbBlockReference
  2
KSS-10-select__1
 10
-9.01314022489827
 20
58.96687381512031
 30
0.0
  0
MTEXT
  5
9F
330
4A
100
AcDbEntity
  8
1
 62
     6
100
AcDbMText
 10
-0.00000000000205
 20
52.00545712221424
 30
0.0
 40
5.0
 41
0.0
 71
     2
 72
     1
  1
 
  7
CONVERTER_11
 73
     1
 44
1.32052821128451
  0
ENDBLK
  5
4D
330
4A
100
AcDbEntity
  8
0
100
AcDbBlockEnd
  0
BLOCK
  5
4F
330
4E
100
AcDbEntity
  8
0
100
AcDbBlockBegin
  2
KSS-10-select__2
 70
     0
 10
-116.5000001641216
 20
63.75000199999001
 30
0.0
  3
KSS-10-select__2
  1

  0
LINE
  5
A0
330
4E
100
AcDbEntity
  8
0
  6
Continuous
 62
     7
100
AcDbLine
 10
-116.5000001641216
 20
63.75000199999001
 30
0.0
 11
-115.6097048615836
 21
63.75000199999001
 31
0.0
  0
LINE
  5
A1
330
4E
100
AcDbEntity
  8
0
  6
Continuous
 62
     7
100
AcDbLine
 10
-116.5000001641216
 20
80.75000199999
 30
0.0
 11
-116.5000001641216
 21
63.75000199999001
 31
0.0
  0
LINE
  5
A2
330
4E
100
AcDbEntity
  8
0
  6
Continuous
 62
     7
100
AcDbLine
 10
-116.5000001641216
 20
80.75000199999
 30
0.0
 11
-115.6097048615836
 21
80.75000199999
 31
0.0
  0
LINE
  5
A3
330
4E
100
AcDbEntity
  8
0
  6
Continuous
 62
     7
100
AcDbLine
 10
-115.6097048615836
 20
80.75000199999
 30
0.0
 11
-115.6097048615836
 21
63.75000199999001
 31
0.0
  0
LINE
  5
A4
330
4E
100
AcDbEntity
  8
0
  6
Continuous
 62
     7
100
AcDbLine
 10
-106.3902954666598
 20
80.75000199999
 30
0.0
 11
-115.6097048615836
 21
80.75000199999
 31
0.0
  0
LINE
  5
A5
330
4E
100
AcDbEntity
  8
0
  6
Continuous
 62
     7
100
AcDbLine
 10
-105.5000001641217
 20
80.75000199999002
 30
0.0
 11
-106.3902954666598
 21
80.75000199999
 31
0.0
  0
LINE
  5
A6
330
4E
100
AcDbEntity
  8
0
  6
Continuous
 62
     7
100
AcDbLine
 10
-106.3902954666598
 20
63.75000199999001
 30
0.0
 11
-115.6097048615836
 21
63.75000199999001
 31
0.0
  0
LINE
  5
A7
330
4E
100
AcDbEntity
  8
0
  6
Continuous
 62
     7
100
AcDbLine
 10
-106.3902954666598
 20
63.75000199999001
 30
0.0
 11
-106.3902954666598
 21
80.75000199999
 31
0.0
  0
LINE
  5
A8
330
4E
100
AcDbEntity
  8
0
  6
Continuous
 62
     7
100
AcDbLine
 10
-105.5000001641217
 20
63.75000199999001
 30
0.0
 11
-106.3902954666598
 21
63.75000199999001
 31
0.0
  0
LINE
  5
A9
330
4E
100
AcDbEntity
  8
0
  6
Continuous
 62
     7
100
AcDbLine
 10
-105.5000001641217
 20
63.75000199999001
 30
0.0
 11
-105.5000001641217
 21
80.75000199999002
 31
0.0
  0
ENDBLK
  5
50
330
4E
100
AcDbEntity
  8
0
100
AcDbBlockEnd
  0
BLOCK
  5
53
330
51
100
AcDbEntity
  8
0
100
AcDbBlockBegin
  2
Drfsicht1
 70
     0
 10
-110.9999995820611
 20
72.25000199999499
 30
0.0
  3
Drfsicht1
  1

  0
INSERT
  5
52
330
51
100
AcDbEntity
  8
0
100
AcDbBlockReference
  2
KSS-10-select__2
 10
-116.5000001641216
 20
63.75000199999001
 30
0.0
  0
DIMENSION
  5
B4
330
51
100
AcDbEntity
  8
1
100
AcDbDimension
  2
*D17
 10
-125.6097048615837
 20
63.75000199999001
 30
0.0
 11
-128.8597048615837
 21
72.25000199999
 31
0.0
 70
    33
  1
<>
 71
     5
 42
-1.0
 53
90.0
  3
ME10_DIM_10
100
AcDbAlignedDimension
 13
-105.5000001641217
 23
80.75000199999002
 33
0.0
 14
-105.5000001641217
 24
63.75000199999001
 34
0.0
  0
ENDBLK
  5
54
330
51
100
AcDbEntity
  8
0
100
AcDbBlockEnd
  0
BLOCK
  5
56
330
55
100
AcDbEntity
  8
0
100
AcDbBlockBegin
  2
KSS-10-select__3
 70
     0
 10
-7.49999941793953
 20
113.7500042887184
 30
0.0
  3
KSS-10-select__3
  1

  0
LINE
  5
B5
330
55
100
AcDbEntity
  8
0
  6
Continuous
 62
     7
100
AcDbLine
 10
-3.74999941793954
 20
113.7500042887184
 30
0.0
 11
-0.24999941793954
 21
113.7500042887184
 31
0.0
  0
LINE
  5
B6
330
55
100
AcDbEntity
  8
0
  6
Continuous
 62
     7
100
AcDbLine
 10
-3.74999941793954
 20
113.7500042887184
 30
0.0
 11
-3.74999941793954
 21
131.2500042887184
 31
0.0
  0
LINE
  5
B7
330
55
100
AcDbEntity
  8
0
  6
Continuous
 62
     7
100
AcDbLine
 10
-0.24999941793954
 20
113.7500042887184
 30
0.0
 11
-0.24999941793954
 21
131.2500042887184
 31
0.0
  0
LINE
  5
B8
330
55
100
AcDbEntity
  8
0
  6
Continuous
 62
     7
100
AcDbLine
 10
-4.49999941793953
 20
131.2500042887184
 30
0.0
 11
-4.49999941793953
 21
133.2500042887184
 31
0.0
  0
LINE
  5
B9
330
55
100
AcDbEntity
  8
0
  6
Continuous
 62
     7
100
AcDbLine
 10
0.50000058206047
 20
131.2500042887184
 30
0.0
 11
0.50000058206047
 21
133.2500042887184
 31
0.0
  0
LINE
  5
BA
330
55
100
AcDbEntity
  8
0
  6
Continuous
 62
     7
100
AcDbLine
 10
-0.24999941793954
 20
131.2500042887184
 30
0.0
 11
0.50000058206047
 21
131.2500042887184
 31
0.0
  0
LINE
  5
BB
330
55
100
AcDbEntity
  8
0
  6
Continuous
 62
     7
100
AcDbLine
 10
-1.99999941793953
 20
131.2500042887184
 30
0.0
 11
-0.24999941793954
 21
131.2500042887184
 31
0.0
  0
LINE
  5
BC
330
55
100
AcDbEntity
  8
0
  6
Continuous
 62
     7
100
AcDbLine
 10
-4.49999941793953
 20
131.2500042887184
 30
0.0
 11
-3.74999941793954
 21
131.2500042887184
 31
0.0
  0
LINE
  5
BD
330
55
100
AcDbEntity
  8
0
  6
Continuous
 62
     7
100
AcDbLine
 10
-3.74999941793954
 20
131.2500042887184
 30
0.0
 11
-1.99999941793953
 21
131.2500042887184
 31
0.0
  0
LINE
  5
BE
330
55
100
AcDbEntity
  8
0
  6
Continuous
 62
     7
100
AcDbLine
 10
3.50000058206043
 20
135.7500042887184
 30
0.0
 11
3.50000058206042
 21
133.2500042887184
 31
0.0
  0
LINE
  5
BF
330
55
100
AcDbEntity
  8
0
  6
Continuous
 62
     7
100
AcDbLine
 10
-7.49999941793952
 20
133.2500042887184
 30
0.0
 11
-4.49999941793953
 21
133.2500042887184
 31
0.0
  0
LINE
  5
C0
330
55
100
AcDbEntity
  8
0
  6
Continuous
 62
     7
100
AcDbLine
 10
0.50000058206047
 20
133.2500042887184
 30
0.0
 11
3.50000058206042
 21
133.2500042887184
 31
0.0
  0
LINE
  5
C1
330
55
100
AcDbEntity
  8
0
  6
Continuous
 62
     7
100
AcDbLine
 10
-4.49999941793953
 20
133.2500042887184
 30
0.0
 11
0.50000058206047
 21
133.2500042887184
 31
0.0
  0
LINE
  5
C2
330
55
100
AcDbEntity
  8
0
  6
Continuous
 62
     7
100
AcDbLine
 10
-7.49999941793952
 20
133.2500042887184
 30
0.0
 11
-7.49999941793953
 21
135.7500042887184
 31
0.0
  0
LINE
  5
C3
330
55
100
AcDbEntity
  8
0
  6
Continuous
 62
     7
100
AcDbLine
 10
-6.60970411540139
 20
148.2500042887184
 30
0.0
 11
2.60970527952237
 21
148.2500042887184
 31
0.0
  0
ARC
  5
C4
330
55
100
AcDbEntity
  8
0
  6
Continuous
 62
     7
100
AcDbCircle
 10
22.00000058205982
 20
143.3493463655035
 30
0.0
 40
19.99999999999937
100
AcDbArc
 50
165.8162222029603
 51
202.3316450092215
  0
ARC
  5
C5
330
55
100
AcDbEntity
  8
0
  6
Continuous
 62
     7
100
AcDbCircle
 10
-25.99999941793955
 20
143.3493463655037
 30
0.0
 40
20.0
100
AcDbArc
 50
337.6683549907787
 51
14.18377779703865
  0
ENDBLK
  5
57
330
55
100
AcDbEntity
  8
0
100
AcDbBlockEnd
  0
BLOCK
  5
5A
330
58
100
AcDbEntity
  8
0
100
AcDbBlockBegin
  2
Rckans1
 70
     0
 10
-2.0000000000001
 20
131.00000199995
 30
0.0
  3
Rckans1
  1

  0
INSERT
  5
59
330
58
100
AcDbEntity
  8
0
100
AcDbBlockReference
  2
KSS-10-select__3
 10
-7.49999941793953
 20
113.7500042887184
 30
0.0
  0
MTEXT
  5
C6
330
58
100
AcDbEntity
  8
1
 62
     6
100
AcDbMText
 10
-1.99999999999989
 20
108.7500058146472
 30
0.0
 40
5.0
 41
0.0
 71
     2
 72
     1
  1
 
  7
CONVERTER_11
 73
     1
 44
1.32052821128451
  0
ENDBLK
  5
5B
330
58
100
AcDbEntity
  8
0
100
AcDbBlockEnd
  0
BLOCK
  5
5D
330
5C
100
AcDbEntity
  8
0
100
AcDbBlockBegin
  2
KSS-10-select__4
 70
     0
 10
-176.50000000001
 20
113.7500042887184
 30
0.0
  3
KSS-10-select__4
  1

  0
LINE
  5
C7
330
5C
100
AcDbEntity
  8
0
  6
Continuous
 62
     7
100
AcDbLine
 10
-164.62500000001
 20
113.7500042887184
 30
0.0
 11
-161.12500000001
 21
113.7500042887184
 31
0.0
  0
LINE
  5
C8
330
5C
100
AcDbEntity
  8
0
  6
Continuous
 62
     7
100
AcDbLine
 10
-160.37500000001
 20
131.2500042887184
 30
0.0
 11
-160.37500000001
 21
133.2500042887184
 31
0.0
  0
LINE
  5
C9
330
5C
100
AcDbEntity
  8
0
  6
Continuous
 62
     7
100
AcDbLine
 10
-161.12500000001
 20
113.7500042887184
 30
0.0
 11
-161.12500000001
 21
131.2500042887184
 31
0.0
  0
LINE
  5
CA
330
5C
100
AcDbEntity
  8
0
  6
Continuous
 62
     7
100
AcDbLine
 10
-165.37500000001
 20
131.2500042887184
 30
0.0
 11
-165.37500000001
 21
133.2500042887184
 31
0.0
  0
LINE
  5
CB
330
5C
100
AcDbEntity
  8
0
  6
Continuous
 62
     7
100
AcDbLine
 10
-164.62500000001
 20
113.7500042887184
 30
0.0
 11
-164.62500000001
 21
131.2500042887184
 31
0.0
  0
LINE
  5
CC
330
5C
100
AcDbEntity
  8
0
  6
Continuous
 62
     7
100
AcDbLine
 10
-161.12500000001
 20
131.2500042887184
 30
0.0
 11
-160.37500000001
 21
131.2500042887184
 31
0.0
  0
LINE
  5
CD
330
5C
100
AcDbEntity
  8
0
  6
Continuous
 62
     7
100
AcDbLine
 10
-165.37500000001
 20
131.2500042887184
 30
0.0
 11
-164.62500000001
 21
131.2500042887184
 31
0.0
  0
LINE
  5
CE
330
5C
100
AcDbEntity
  8
0
  6
Continuous
 62
     7
100
AcDbLine
 10
-164.62500000001
 20
131.2500042887184
 30
0.0
 11
-161.12500000001
 21
131.2500042887184
 31
0.0
  0
LINE
  5
CF
330
5C
100
AcDbEntity
  8
0
  6
Continuous
 62
     7
100
AcDbLine
 10
-170.62500000001
 20
131.2500042887184
 30
0.0
 11
-170.62500000001
 21
133.2500042887184
 31
0.0
  0
LINE
  5
D0
330
5C
100
AcDbEntity
  8
0
  6
Continuous
 62
     7
100
AcDbLine
 10
-174.87500000001
 20
113.7500042887184
 30
0.0
 11
-171.37500000001
 21
113.7500042887184
 31
0.0
  0
LINE
  5
D1
330
5C
100
AcDbEntity
  8
0
  6
Continuous
 62
     7
100
AcDbLine
 10
-176.50000000001
 20
135.7500042887184
 30
0.0
 11
-159.50000000001
 21
135.7500042887184
 31
0.0
  0
LINE
  5
D2
330
5C
100
AcDbEntity
  8
0
  6
Continuous
 62
     7
100
AcDbLine
 10
-176.50000000001
 20
148.2500042887184
 30
0.0
 11
-159.50000000001
 21
148.2500042887184
 31
0.0
  0
LINE
  5
D3
330
5C
100
AcDbEntity
  8
0
  6
Continuous
 62
     7
100
AcDbLine
 10
-171.37500000001
 20
131.2500042887184
 30
0.0
 11
-170.62500000001
 21
131.2500042887184
 31
0.0
  0
LINE
  5
D4
330
5C
100
AcDbEntity
  8
0
  6
Continuous
 62
     7
100
AcDbLine
 10
-175.62500000001
 20
131.2500042887184
 30
0.0
 11
-174.87500000001
 21
131.2500042887184
 31
0.0
  0
LINE
  5
D5
330
5C
100
AcDbEntity
  8
0
  6
Continuous
 62
     7
100
AcDbLine
 10
-174.87500000001
 20
131.2500042887184
 30
0.0
 11
-171.37500000001
 21
131.2500042887184
 31
0.0
  0
LINE
  5
D6
330
5C
100
AcDbEntity
  8
0
  6
Continuous
 62
     7
100
AcDbLine
 10
-176.50000000001
 20
133.2500042887184
 30
0.0
 11
-176.50000000001
 21
135.7500042887184
 31
0.0
  0
LINE
  5
D7
330
5C
100
AcDbEntity
  8
0
  6
Continuous
 62
     7
100
AcDbLine
 10
-176.50000000001
 20
135.7500042887184
 30
0.0
 11
-176.50000000001
 21
148.2500042887184
 31
0.0
  0
LINE
  5
D8
330
5C
100
AcDbEntity
  8
0
  6
Continuous
 62
     7
100
AcDbLine
 10
-159.50000000001
 20
133.2500042887184
 30
0.0
 11
-159.50000000001
 21
135.7500042887184
 31
0.0
  0
LINE
  5
D9
330
5C
100
AcDbEntity
  8
0
  6
Continuous
 62
     7
100
AcDbLine
 10
-159.50000000001
 20
135.7500042887184
 30
0.0
 11
-159.50000000001
 21
148.2500042887184
 31
0.0
  0
LINE
  5
DA
330
5C
100
AcDbEntity
  8
0
  6
Continuous
 62
     7
100
AcDbLine
 10
-175.62500000001
 20
131.2500042887184
 30
0.0
 11
-175.62500000001
 21
133.2500042887184
 31
0.0
  0
LINE
  5
DB
330
5C
100
AcDbEntity
  8
0
  6
Continuous
 62
     7
100
AcDbLine
 10
-174.87500000001
 20
113.7500042887184
 30
0.0
 11
-174.87500000001
 21
131.2500042887184
 31
0.0
  0
LINE
  5
DC
330
5C
100
AcDbEntity
  8
0
  6
Continuous
 62
     7
100
AcDbLine
 10
-160.37500000001
 20
133.2500042887184
 30
0.0
 11
-165.37500000001
 21
133.2500042887184
 31
0.0
  0
LINE
  5
DD
330
5C
100
AcDbEntity
  8
0
  6
Continuous
 62
     7
100
AcDbLine
 10
-159.50000000001
 20
133.2500042887184
 30
0.0
 11
-160.37500000001
 21
133.2500042887184
 31
0.0
  0
LINE
  5
DE
330
5C
100
AcDbEntity
  8
0
  6
Continuous
 62
     7
100
AcDbLine
 10
-175.62500000001
 20
133.2500042887184
 30
0.0
 11
-176.50000000001
 21
133.2500042887184
 31
0.0
  0
LINE
  5
DF
330
5C
100
AcDbEntity
  8
0
  6
Continuous
 62
     7
100
AcDbLine
 10
-170.62500000001
 20
133.2500042887184
 30
0.0
 11
-175.62500000001
 21
133.2500042887184
 31
0.0
  0
LINE
  5
E0
330
5C
100
AcDbEntity
  8
0
  6
Continuous
 62
     7
100
AcDbLine
 10
-165.37500000001
 20
133.2500042887184
 30
0.0
 11
-170.62500000001
 21
133.2500042887184
 31
0.0
  0
LINE
  5
E1
330
5C
100
AcDbEntity
  8
0
  6
Continuous
 62
     7
100
AcDbLine
 10
-171.37500000001
 20
113.7500042887184
 30
0.0
 11
-171.37500000001
 21
131.2500042887184
 31
0.0
  0
LINE
  5
E2
330
5C
100
AcDbEntity
  8
1
  6
DOT_CENTER
 62
     2
100
AcDbLine
 10
-162.87500000001
 20
113.7500042887184
 30
0.0
 11
-162.87500000001
 21
133.2500042887184
 31
0.0
  0
LINE
  5
E3
330
5C
100
AcDbEntity
  8
1
  6
DOT_CENTER
 62
     2
100
AcDbLine
 10
-173.12500000001
 20
113.7500042887184
 30
0.0
 11
-173.12500000001
 21
133.2500042887184
 31
0.0
  0
ENDBLK
  5
5E
330
5C
100
AcDbEntity
  8
0
100
AcDbBlockEnd
  0
BLOCK
  5
61
330
5F
100
AcDbEntity
  8
0
100
AcDbBlockBegin
  2
SA_Rechts1
 70
     0
 10
-168.000000000005
 20
131.00000199995
 30
0.0
  3
SA_Rechts1
  1

  0
INSERT
  5
60
330
5F
100
AcDbEntity
  8
0
100
AcDbBlockReference
  2
KSS-10-select__4
 10
-176.50000000001
 20
113.7500042887184
 30
0.0
  0
MTEXT
  5
E4
330
5F
100
AcDbEntity
  8
1
 62
     6
100
AcDbMText
 10
-168.000000000005
 20
108.7500058146472
 30
0.0
 40
5.0
 41
0.0
 71
     2
 72
     1
  1
 
  7
CONVERTER_11
 73
     1
 44
1.32052821128451
  0
ENDBLK
  5
62
330
5F
100
AcDbEntity
  8
0
100
AcDbBlockEnd
  0
BLOCK
  5
64
330
63
100
AcDbEntity
  8
0
100
AcDbBlockBegin
  2
KSS-10-select__5
 70
     0
 10
-66.49999999998501
 20
113.7500045775384
 30
0.0
  3
KSS-10-select__5
  1

  0
LINE
  5
E5
330
63
100
AcDbEntity
  8
0
  6
Continuous
 62
     7
100
AcDbLine
 10
-60.624999999985
 20
131.2500045775384
 30
0.0
 11
-60.624999999985
 21
133.2500045775384
 31
0.0
  0
LINE
  5
E6
330
63
100
AcDbEntity
  8
0
  6
Continuous
 62
     7
100
AcDbLine
 10
-65.624999999985
 20
131.2500045775384
 30
0.0
 11
-64.87499999998501
 21
131.2500045775384
 31
0.0
  0
LINE
  5
E7
330
63
100
AcDbEntity
  8
0
  6
Continuous
 62
     7
100
AcDbLine
 10
-61.37499999998501
 20
131.2500045775384
 30
0.0
 11
-60.624999999985
 21
131.2500045775384
 31
0.0
  0
LINE
  5
E8
330
63
100
AcDbEntity
  8
0
  6
Continuous
 62
     7
100
AcDbLine
 10
-64.87499999998501
 20
131.2500045775384
 30
0.0
 11
-61.37499999998501
 21
131.2500045775384
 31
0.0
  0
LINE
  5
E9
330
63
100
AcDbEntity
  8
0
  6
Continuous
 62
     7
100
AcDbLine
 10
-54.62499999998501
 20
131.2500045775384
 30
0.0
 11
-51.12499999998501
 21
131.2500045775384
 31
0.0
  0
LINE
  5
EA
330
63
100
AcDbEntity
  8
0
  6
Continuous
 62
     7
100
AcDbLine
 10
-65.624999999985
 20
131.2500045775384
 30
0.0
 11
-65.624999999985
 21
133.2500045775384
 31
0.0
  0
LINE
  5
EB
330
63
100
AcDbEntity
  8
0
  6
Continuous
 62
     7
100
AcDbLine
 10
-50.374999999985
 20
131.2500045775384
 30
0.0
 11
-50.374999999985
 21
133.2500045775384
 31
0.0
  0
LINE
  5
EC
330
63
100
AcDbEntity
  8
0
  6
Continuous
 62
     7
100
AcDbLine
 10
-65.624999999985
 20
133.2500045775384
 30
0.0
 11
-66.49999999998501
 21
133.2500045775384
 31
0.0
  0
LINE
  5
ED
330
63
100
AcDbEntity
  8
0
  6
Continuous
 62
     7
100
AcDbLine
 10
-49.49999999998501
 20
133.2500045775384
 30
0.0
 11
-50.374999999985
 21
133.2500045775384
 31
0.0
  0
LINE
  5
EE
330
63
100
AcDbEntity
  8
0
  6
Continuous
 62
     7
100
AcDbLine
 10
-50.374999999985
 20
133.2500045775384
 30
0.0
 11
-55.374999999985
 21
133.2500045775384
 31
0.0
  0
LINE
  5
EF
330
63
100
AcDbEntity
  8
0
  6
Continuous
 62
     7
100
AcDbLine
 10
-60.624999999985
 20
133.2500045775384
 30
0.0
 11
-65.624999999985
 21
133.2500045775384
 31
0.0
  0
LINE
  5
F0
330
63
100
AcDbEntity
  8
0
  6
Continuous
 62
     7
100
AcDbLine
 10
-55.374999999985
 20
133.2500045775384
 30
0.0
 11
-60.624999999985
 21
133.2500045775384
 31
0.0
  0
LINE
  5
F1
330
63
100
AcDbEntity
  8
0
  6
Continuous
 62
     7
100
AcDbLine
 10
-55.374999999985
 20
131.2500045775384
 30
0.0
 11
-54.62499999998501
 21
131.2500045775384
 31
0.0
  0
LINE
  5
F2
330
63
100
AcDbEntity
  8
0
  6
Continuous
 62
     7
100
AcDbLine
 10
-54.62499999998502
 20
113.7500045775384
 30
0.0
 11
-54.62499999998501
 21
131.2500045775384
 31
0.0
  0
LINE
  5
F3
330
63
100
AcDbEntity
  8
0
  6
Continuous
 62
     7
100
AcDbLine
 10
-55.374999999985
 20
131.2500045775384
 30
0.0
 11
-55.374999999985
 21
133.2500045775384
 31
0.0
  0
LINE
  5
F4
330
63
100
AcDbEntity
  8
0
  6
Continuous
 62
     7
100
AcDbLine
 10
-54.62499999998502
 20
113.7500045775384
 30
0.0
 11
-51.12499999998502
 21
113.7500045775384
 31
0.0
  0
LINE
  5
F5
330
63
100
AcDbEntity
  8
0
  6
Continuous
 62
     7
100
AcDbLine
 10
-64.87499999998501
 20
113.7500045775384
 30
0.0
 11
-64.87499999998501
 21
131.2500045775384
 31
0.0
  0
LINE
  5
F6
330
63
100
AcDbEntity
  8
0
  6
Continuous
 62
     7
100
AcDbLine
 10
-66.49999999998501
 20
148.2500045775384
 30
0.0
 11
-49.49999999998502
 21
148.2500045775384
 31
0.0
  0
LINE
  5
F7
330
63
100
AcDbEntity
  8
0
  6
Continuous
 62
     7
100
AcDbLine
 10
-64.87499999998501
 20
113.7500045775384
 30
0.0
 11
-61.37499999998501
 21
113.7500045775384
 31
0.0
  0
LINE
  5
F8
330
63
100
AcDbEntity
  8
0
  6
Continuous
 62
     7
100
AcDbLine
 10
-66.49999999998501
 20
135.7500045775384
 30
0.0
 11
-49.49999999998501
 21
135.7500045775384
 31
0.0
  0
LINE
  5
F9
330
63
100
AcDbEntity
  8
0
  6
Continuous
 62
     7
100
AcDbLine
 10
-49.49999999998501
 20
135.7500045775384
 30
0.0
 11
-49.49999999998501
 21
133.2500045775384
 31
0.0
  0
LINE
  5
FA
330
63
100
AcDbEntity
  8
0
  6
Continuous
 62
     7
100
AcDbLine
 10
-49.49999999998501
 20
135.7500045775384
 30
0.0
 11
-49.49999999998502
 21
148.2500045775384
 31
0.0
  0
LINE
  5
FB
330
63
100
AcDbEntity
  8
0
  6
Continuous
 62
     7
100
AcDbLine
 10
-51.12499999998502
 20
113.7500045775384
 30
0.0
 11
-51.12499999998501
 21
131.2500045775384
 31
0.0
  0
LINE
  5
FC
330
63
100
AcDbEntity
  8
0
  6
Continuous
 62
     7
100
AcDbLine
 10
-51.12499999998501
 20
131.2500045775384
 30
0.0
 11
-50.374999999985
 21
131.2500045775384
 31
0.0
  0
LINE
  5
FD
330
63
100
AcDbEntity
  8
0
  6
Continuous
 62
     7
100
AcDbLine
 10
-66.49999999998501
 20
135.7500045775384
 30
0.0
 11
-66.49999999998501
 21
133.2500045775384
 31
0.0
  0
LINE
  5
FE
330
63
100
AcDbEntity
  8
0
  6
Continuous
 62
     7
100
AcDbLine
 10
-66.49999999998501
 20
135.7500045775384
 30
0.0
 11
-66.49999999998501
 21
148.2500045775384
 31
0.0
  0
LINE
  5
FF
330
63
100
AcDbEntity
  8
0
  6
Continuous
 62
     7
100
AcDbLine
 10
-61.37499999998501
 20
113.7500045775384
 30
0.0
 11
-61.37499999998501
 21
131.2500045775384
 31
0.0
  0
LINE
  5
100
330
63
100
AcDbEntity
  8
1
  6
DOT_CENTER
 62
     2
100
AcDbLine
 10
-63.12499999998501
 20
113.7500045775384
 30
0.0
 11
-63.12499999998501
 21
131.2500045775384
 31
0.0
  0
LINE
  5
101
330
63
100
AcDbEntity
  8
1
  6
DOT_CENTER
 62
     2
100
AcDbLine
 10
-52.87499999998502
 20
113.7500045775384
 30
0.0
 11
-52.87499999998502
 21
131.2500045775384
 31
0.0
  0
ENDBLK
  5
65
330
63
100
AcDbEntity
  8
0
100
AcDbBlockEnd
  0
BLOCK
  5
68
330
66
100
AcDbEntity
  8
0
100
AcDbBlockBegin
  2
SA_links1
 70
     0
 10
-57.99999999999
 20
131.00000228877
 30
0.0
  3
SA_links1
  1

  0
INSERT
  5
67
330
66
100
AcDbEntity
  8
0
100
AcDbBlockReference
  2
KSS-10-select__5
 10
-66.49999999998501
 20
113.7500045775384
 30
0.0
  0
ENDBLK
  5
69
330
66
100
AcDbEntity
  8
0
100
AcDbBlockEnd
  0
BLOCK
  5
6B
330
6A
100
AcDbEntity
  8
0
100
AcDbBlockBegin
  2
KSS-10-select__6
 70
     0
 10
-116.5000001641218
 20
113.7500045775384
 30
0.0
  3
KSS-10-select__6
  1

  0
LINE
  5
102
330
6A
100
AcDbEntity
  8
0
  6
Continuous
 62
     7
100
AcDbLine
 10
-108.5000001641218
 20
131.2500045775384
 30
0.0
 11
-108.5000001641218
 21
133.2500045775384
 31
0.0
  0
LINE
  5
103
330
6A
100
AcDbEntity
  8
0
  6
Continuous
 62
     7
100
AcDbLine
 10
-113.5000001641218
 20
131.2500045775384
 30
0.0
 11
-112.7500001641218
 21
131.2500045775384
 31
0.0
  0
LINE
  5
104
330
6A
100
AcDbEntity
  8
0
  6
Continuous
 62
     7
100
AcDbLine
 10
-109.2500001641218
 20
131.2500045775384
 30
0.0
 11
-108.5000001641218
 21
131.2500045775384
 31
0.0
  0
LINE
  5
105
330
6A
100
AcDbEntity
  8
0
  6
Continuous
 62
     7
100
AcDbLine
 10
-113.5000001641218
 20
131.2500045775384
 30
0.0
 11
-113.5000001641218
 21
133.2500045775384
 31
0.0
  0
LINE
  5
106
330
6A
100
AcDbEntity
  8
0
  6
Continuous
 62
     7
100
AcDbLine
 10
-112.7500001641218
 20
131.2500045775384
 30
0.0
 11
-109.2500001641218
 21
131.2500045775384
 31
0.0
  0
LINE
  5
107
330
6A
100
AcDbEntity
  8
0
  6
Continuous
 62
     7
100
AcDbLine
 10
-112.7500001641218
 20
113.7500045775384
 30
0.0
 11
-112.7500001641218
 21
131.2500045775384
 31
0.0
  0
LINE
  5
108
330
6A
100
AcDbEntity
  8
0
  6
Continuous
 62
     7
100
AcDbLine
 10
-109.2500001641218
 20
113.7500045775384
 30
0.0
 11
-109.2500001641218
 21
131.2500045775384
 31
0.0
  0
LINE
  5
109
330
6A
100
AcDbEntity
  8
0
  6
Continuous
 62
     7
100
AcDbLine
 10
-111.0000001641218
 20
113.7500045775384
 30
0.0
 11
-109.2500001641218
 21
113.7500045775384
 31
0.0
  0
LINE
  5
10A
330
6A
100
AcDbEntity
  8
0
  6
Continuous
 62
     7
100
AcDbLine
 10
-112.7500001641218
 20
113.7500045775384
 30
0.0
 11
-111.0000001641218
 21
113.7500045775384
 31
0.0
  0
LINE
  5
10B
330
6A
100
AcDbEntity
  8
0
  6
Continuous
 62
     7
100
AcDbLine
 10
-105.5000001641218
 20
133.2500045775384
 30
0.0
 11
-108.5000001641218
 21
133.2500045775384
 31
0.0
  0
LINE
  5
10C
330
6A
100
AcDbEntity
  8
0
  6
Continuous
 62
     7
100
AcDbLine
 10
-113.5000001641218
 20
133.2500045775384
 30
0.0
 11
-116.5000001641218
 21
133.2500045775384
 31
0.0
  0
LINE
  5
10D
330
6A
100
AcDbEntity
  8
0
  6
Continuous
 62
     7
100
AcDbLine
 10
-108.5000001641218
 20
133.2500045775384
 30
0.0
 11
-113.5000001641218
 21
133.2500045775384
 31
0.0
  0
LINE
  5
10E
330
6A
100
AcDbEntity
  8
0
  6
Continuous
 62
     7
100
AcDbLine
 10
-116.5000001641218
 20
135.7500045775384
 30
0.0
 11
-116.5000001641218
 21
133.2500045775384
 31
0.0
  0
LINE
  5
10F
330
6A
100
AcDbEntity
  8
0
  6
Continuous
 62
     7
100
AcDbLine
 10
-106.3902954666599
 20
148.2500045775384
 30
0.0
 11
-115.6097048615837
 21
148.2500045775384
 31
0.0
  0
LINE
  5
110
330
6A
100
AcDbEntity
  8
0
  6
Continuous
 62
     7
100
AcDbLine
 10
-105.5000001641218
 20
133.2500045775384
 30
0.0
 11
-105.5000001641218
 21
135.7500045775384
 31
0.0
  0
LINE
  5
111
330
6A
100
AcDbEntity
  8
1
  6
DOT_CENTER
 62
     2
100
AcDbLine
 10
-111.0000001641218
 20
113.7500045775384
 30
0.0
 11
-111.0000001641218
 21
146.8112105775383
 31
0.0
  0
ARC
  5
112
330
6A
100
AcDbEntity
  8
0
  6
Continuous
 62
     7
100
AcDbCircle
 10
-135.0000001641211
 20
143.3493466543235
 30
0.0
 40
19.99999999999928
100
AcDbArc
 50
337.6683549907783
 51
14.18377779703965
  0
ARC
  5
113
330
6A
100
AcDbEntity
  8
0
  6
Continuous
 62
     7
100
AcDbCircle
 10
-87.00000016412177
 20
143.3493466543237
 30
0.0
 40
19.99999999999997
100
AcDbArc
 50
165.8162222029614
 51
202.3316450092214
  0
ENDBLK
  5
6C
330
6A
100
AcDbEntity
  8
0
100
AcDbBlockEnd
  0
BLOCK
  5
6F
330
6D
100
AcDbEntity
  8
0
100
AcDbBlockBegin
  2
Vordans1
 70
     0
 10
-110.9999995820612
 20
131.00000228877
 30
0.0
  3
Vordans1
  1

  0
INSERT
  5
6E
330
6D
100
AcDbEntity
  8
0
100
AcDbBlockReference
  2
KSS-10-select__6
 10
-116.5000001641218
 20
113.7500045775384
 30
0.0
  0
DIMENSION
  5
11E
330
6D
100
AcDbEntity
  8
1
100
AcDbDimension
  2
*D18
 10
-125.6097048615837
 20
148.2500045775384
 30
0.0
 11
-129.0347048615837
 21
125.600030532365
 31
0.0
 70
    32
  1
<>
 71
     5
 42
-1.0
 53
90.0
  3
ME10_DIM_11
100
AcDbAlignedDimension
 13
-112.7500001641218
 23
113.7500045775384
 33
0.0
 14
-115.6097048615837
 24
148.2500045775384
 34
0.0
 50
90.0
100
AcDbRotatedDimension
  0
DIMENSION
  5
129
330
6D
100
AcDbEntity
  8
1
100
AcDbDimension
  2
*D19
 10
-116.5000001641218
 20
159.742348364751
 30
0.0
 11
-111.6600831074111
 21
163.492348364751
 31
0.0
 70
    32
  1
<>
 71
     5
 42
-1.0
 53
0.00013888888889
  3
ME10_DIM_12
100
AcDbAlignedDimension
 13
-105.5000001641218
 23
133.2500045775384
 33
0.0
 14
-116.5000001641218
 24
133.2500045775384
 34
0.0
100
AcDbRotatedDimension
  0
ENDBLK
  5
70
330
6D
100
AcDbEntity
  8
0
100
AcDbBlockEnd
  0
BLOCK
  5
72
330
71
100
AcDbEntity
  8
0
100
AcDbBlockBegin
  2
_punkt
 70
     0
 10
101.5084430312074
 20
-0.99709314221902
 30
0.0
  3
_punkt
  1

  0
LINE
  5
12A
330
71
100
AcDbEntity
  8
1
  6
Continuous
 62
     2
100
AcDbLine
 10
74.73538664207274
 20
3.14248948251609
 30
0.0
 11
79.73538664207175
 21
3.14248948251609
 31
0.0
  0
LINE
  5
12B
330
71
100
AcDbEntity
  8
1
  6
Continuous
 62
     2
100
AcDbLine
 10
74.73538664207274
 20
3.14248948251609
 30
0.0
 11
74.73538664207274
 21
-1.85751051748402
 31
0.0
  0
ENDBLK
  5
73
330
71
100
AcDbEntity
  8
0
100
AcDbBlockEnd
  0
BLOCK
  5
75
330
74
100
AcDbEntity
  8
0
100
AcDbBlockBegin
  2
_rahmen
 70
     0
 10
101.5084430312074
 20
-5.99709314221913
 30
0.0
  3
_rahmen
  1

  0
POINT
  5
12C
330
74
100
AcDbEntity
  8
1
 62
     3
 60
     1
100
AcDbPoint
 10
11.23538664207512
 20
24.39248948251596
 30
0.0
  0
LINE
  5
12D
330
74
100
AcDbEntity
  8
1
  6
Continuous
 62
     2
100
AcDbLine
 10
46.17012332686173
 20
18.59227020348322
 30
0.0
 11
46.17012332686173
 21
16.53487423862972
 31
0.0
  0
LINE
  5
12E
330
74
100
AcDbEntity
  8
1
  6
Continuous
 62
     7
100
AcDbLine
 10
11.23538664207512
 20
20.14248948251598
 30
0.0
 11
13.23538664207512
 21
20.14248948251598
 31
0.0
  0
LINE
  5
12F
330
74
100
AcDbEntity
  8
1
  6
Continuous
 62
     7
100
AcDbLine
 10
11.23538664207512
 20
24.39248948251596
 30
0.0
 11
4.49058211532275
 21
24.39248948251592
 31
0.0
  0
LINE
  5
130
330
74
100
AcDbEntity
  8
1
  6
Continuous
 62
     2
100
AcDbLine
 10
-46.52914875016191
 20
16.51748948251598
 30
0.0
 11
-46.52914875016191
 21
19.51748948251598
 31
0.0
  0
LINE
  5
131
330
74
100
AcDbEntity
  8
1
  6
Continuous
 62
     2
100
AcDbLine
 10
-42.52914875016191
 20
17.01748948251598
 30
0.0
 11
-46.52914875016191
 21
16.51748948251598
 31
0.0
  0
LINE
  5
132
330
74
100
AcDbEntity
  8
1
  6
Continuous
 62
     2
100
AcDbLine
 10
-42.52914875016191
 20
19.01748948251597
 30
0.0
 11
-42.52914875016191
 21
17.01748948251598
 31
0.0
  0
LINE
  5
133
330
74
100
AcDbEntity
  8
1
  6
Continuous
 62
     2
100
AcDbLine
 10
-46.52914875016191
 20
19.51748948251598
 30
0.0
 11
-42.52914875016191
 21
19.01748948251597
 31
0.0
  0
LINE
  5
134
330
74
100
AcDbEntity
  8
1
  6
Continuous
 62
     6
100
AcDbLine
 10
-177.2646133579254
 20
3.14248948251609
 30
0.0
 11
-212.2646133579253
 21
3.14248948251609
 31
0.0
  0
LINE
  5
135
330
74
100
AcDbEntity
  8
1
  6
Continuous
 62
     6
100
AcDbLine
 10
74.73538664207445
 20
32.89248948251597
 30
0.0
 11
74.73538664207354
 21
24.39248948251598
 31
0.0
  0
LINE
  5
136
330
74
100
AcDbEntity
  8
1
  6
Continuous
 62
     6
100
AcDbLine
 10
-177.2646133579254
 20
15.89248948251598
 30
0.0
 11
-177.2646133579254
 21
20.14248948251598
 31
0.0
  0
LINE
  5
137
330
74
100
AcDbEntity
  8
1
  6
Continuous
 62
     7
100
AcDbLine
 10
-54.80941788467717
 20
28.64248948251598
 30
0.0
 11
-45.4094178846772
 21
28.64248948251597
 31
0.0
  0
LINE
  5
138
330
74
100
AcDbEntity
  8
1
  6
Continuous
 62
     6
100
AcDbLine
 10
-45.4094178846772
 20
32.89248948251597
 30
0.0
 11
-54.80941788467717
 21
32.89248948251597
 31
0.0
  0
LINE
  5
139
330
74
100
AcDbEntity
  8
1
  6
Continuous
 62
     7
100
AcDbLine
 10
-45.4094178846772
 20
20.14248948251608
 30
0.0
 11
-54.80941788467717
 21
20.14248948251598
 31
0.0
  0
LINE
  5
13A
330
74
100
AcDbEntity
  8
1
  6
Continuous
 62
     2
100
AcDbLine
 10
-95.30941788467716
 20
15.89248948251597
 30
0.0
 11
-157.5646133579274
 21
15.89248948251598
 31
0.0
  0
LINE
  5
13B
330
74
100
AcDbEntity
  8
1
  6
Continuous
 62
     2
100
AcDbLine
 10
-95.30941788467716
 20
15.89248948251597
 30
0.0
 11
-95.30941788467716
 21
11.64248948251597
 31
0.0
  0
LINE
  5
13C
330
74
100
AcDbEntity
  8
1
  6
Continuous
 62
     2
100
AcDbLine
 10
-95.30941788467716
 20
28.64248948251597
 30
0.0
 11
-95.30941788467716
 21
24.39248948251598
 31
0.0
  0
LINE
  5
13D
330
74
100
AcDbEntity
  8
1
  6
Continuous
 62
     2
100
AcDbLine
 10
-95.30941788467716
 20
24.39248948251598
 30
0.0
 11
-95.30941788467716
 21
20.14248948251598
 31
0.0
  0
LINE
  5
13E
330
74
100
AcDbEntity
  8
1
  6
Continuous
 62
     2
100
AcDbLine
 10
-95.30941788467716
 20
20.14248948251598
 30
0.0
 11
-157.5646133579274
 21
20.14248948251598
 31
0.0
  0
LINE
  5
13F
330
74
100
AcDbEntity
  8
1
  6
Continuous
 62
     2
100
AcDbLine
 10
-95.30941788467716
 20
20.14248948251598
 30
0.0
 11
-95.30941788467716
 21
15.89248948251597
 31
0.0
  0
LINE
  5
140
330
74
100
AcDbEntity
  8
1
  6
Continuous
 62
     7
100
AcDbLine
 10
-95.30941788467716
 20
7.39248948251608
 30
0.0
 11
-81.80941788467716
 21
7.39248948251609
 31
0.0
  0
LINE
  5
141
330
74
100
AcDbEntity
  8
1
  6
Continuous
 62
     2
100
AcDbLine
 10
-95.30941788467716
 20
7.39248948251608
 30
0.0
 11
-95.30941788467716
 21
3.14248948251598
 31
0.0
  0
LINE
  5
142
330
74
100
AcDbEntity
  8
1
  6
Continuous
 62
     2
100
AcDbLine
 10
-95.30941788467716
 20
11.64248948251597
 30
0.0
 11
-157.5646133579274
 21
11.64248948251598
 31
0.0
  0
LINE
  5
143
330
74
100
AcDbEntity
  8
1
  6
Continuous
 62
     2
100
AcDbLine
 10
-95.30941788467716
 20
11.64248948251597
 30
0.0
 11
-95.30941788467716
 21
7.39248948251608
 31
0.0
  0
LINE
  5
144
330
74
100
AcDbEntity
  8
1
  6
Continuous
 62
     6
100
AcDbLine
 10
-95.30941788467716
 20
3.14248948251598
 30
0.0
 11
-81.80941788467716
 21
3.14248948251598
 31
0.0
  0
LINE
  5
145
330
74
100
AcDbEntity
  8
1
  6
Continuous
 62
     2
100
AcDbLine
 10
-81.80941788467716
 20
15.89248948251598
 30
0.0
 11
-95.30941788467716
 21
15.89248948251597
 31
0.0
  0
LINE
  5
146
330
74
100
AcDbEntity
  8
1
  6
Continuous
 62
     2
100
AcDbLine
 10
-81.80941788467716
 20
15.89248948251598
 30
0.0
 11
-81.80941788467716
 21
11.64248948251598
 31
0.0
  0
LINE
  5
147
330
74
100
AcDbEntity
  8
1
  6
Continuous
 62
     2
100
AcDbLine
 10
-81.80941788467716
 20
28.64248948251598
 30
0.0
 11
-95.30941788467716
 21
28.64248948251597
 31
0.0
  0
LINE
  5
148
330
74
100
AcDbEntity
  8
1
  6
Continuous
 62
     2
100
AcDbLine
 10
-81.80941788467716
 20
28.64248948251598
 30
0.0
 11
-81.80941788467716
 21
24.39248948251598
 31
0.0
  0
LINE
  5
149
330
74
100
AcDbEntity
  8
1
  6
Continuous
 62
     2
100
AcDbLine
 10
-81.80941788467716
 20
24.39248948251598
 30
0.0
 11
-95.30941788467716
 21
24.39248948251598
 31
0.0
  0
LINE
  5
14A
330
74
100
AcDbEntity
  8
1
  6
Continuous
 62
     2
100
AcDbLine
 10
-81.80941788467716
 20
24.39248948251598
 30
0.0
 11
-81.80941788467716
 21
20.14248948251598
 31
0.0
  0
LINE
  5
14B
330
74
100
AcDbEntity
  8
1
  6
Continuous
 62
     2
100
AcDbLine
 10
-81.80941788467716
 20
20.14248948251598
 30
0.0
 11
-95.30941788467716
 21
20.14248948251598
 31
0.0
  0
LINE
  5
14C
330
74
100
AcDbEntity
  8
1
  6
Continuous
 62
     2
100
AcDbLine
 10
-81.80941788467716
 20
20.14248948251598
 30
0.0
 11
-81.80941788467716
 21
15.89248948251598
 31
0.0
  0
LINE
  5
14D
330
74
100
AcDbEntity
  8
1
  6
Continuous
 62
     7
100
AcDbLine
 10
-81.80941788467716
 20
7.39248948251609
 30
0.0
 11
-68.30941788467727
 21
7.39248948251609
 31
0.0
  0
LINE
  5
14E
330
74
100
AcDbEntity
  8
1
  6
Continuous
 62
     2
100
AcDbLine
 10
-81.80941788467716
 20
7.39248948251609
 30
0.0
 11
-81.80941788467716
 21
3.14248948251598
 31
0.0
  0
LINE
  5
14F
330
74
100
AcDbEntity
  8
1
  6
Continuous
 62
     2
100
AcDbLine
 10
-81.80941788467716
 20
11.64248948251598
 30
0.0
 11
-95.30941788467716
 21
11.64248948251597
 31
0.0
  0
LINE
  5
150
330
74
100
AcDbEntity
  8
1
  6
Continuous
 62
     2
100
AcDbLine
 10
-81.80941788467716
 20
11.64248948251598
 30
0.0
 11
-81.80941788467716
 21
7.39248948251609
 31
0.0
  0
LINE
  5
151
330
74
100
AcDbEntity
  8
1
  6
Continuous
 62
     6
100
AcDbLine
 10
-81.80941788467716
 20
3.14248948251598
 30
0.0
 11
-68.76461335792727
 21
3.14248948251609
 31
0.0
  0
LINE
  5
152
330
74
100
AcDbEntity
  8
1
  6
Continuous
 62
     2
100
AcDbLine
 10
-68.30941788467727
 20
15.89248948251598
 30
0.0
 11
-81.80941788467716
 21
15.89248948251598
 31
0.0
  0
LINE
  5
153
330
74
100
AcDbEntity
  8
1
  6
Continuous
 62
     2
100
AcDbLine
 10
-68.30941788467727
 20
15.89248948251598
 30
0.0
 11
-68.30941788467727
 21
11.64248948251598
 31
0.0
  0
LINE
  5
154
330
74
100
AcDbEntity
  8
1
  6
Continuous
 62
     2
100
AcDbLine
 10
-68.30941788467727
 20
28.64248948251597
 30
0.0
 11
-81.80941788467716
 21
28.64248948251598
 31
0.0
  0
LINE
  5
155
330
74
100
AcDbEntity
  8
1
  6
Continuous
 62
     2
100
AcDbLine
 10
-68.30941788467727
 20
28.64248948251597
 30
0.0
 11
-68.30941788467727
 21
24.39248948251597
 31
0.0
  0
LINE
  5
156
330
74
100
AcDbEntity
  8
1
  6
Continuous
 62
     2
100
AcDbLine
 10
-68.30941788467727
 20
24.39248948251597
 30
0.0
 11
-81.80941788467716
 21
24.39248948251598
 31
0.0
  0
LINE
  5
157
330
74
100
AcDbEntity
  8
1
  6
Continuous
 62
     2
100
AcDbLine
 10
-68.30941788467727
 20
24.39248948251597
 30
0.0
 11
-68.30941788467727
 21
20.14248948251597
 31
0.0
  0
LINE
  5
158
330
74
100
AcDbEntity
  8
1
  6
Continuous
 62
     2
100
AcDbLine
 10
-68.30941788467727
 20
20.14248948251597
 30
0.0
 11
-81.80941788467716
 21
20.14248948251598
 31
0.0
  0
LINE
  5
159
330
74
100
AcDbEntity
  8
1
  6
Continuous
 62
     2
100
AcDbLine
 10
-68.30941788467727
 20
20.14248948251597
 30
0.0
 11
-68.30941788467727
 21
15.89248948251598
 31
0.0
  0
LINE
  5
15A
330
74
100
AcDbEntity
  8
1
  6
Continuous
 62
     7
100
AcDbLine
 10
-68.30941788467727
 20
7.39248948251609
 30
0.0
 11
-54.80941788467717
 21
7.39248948251608
 31
0.0
  0
LINE
  5
15B
330
74
100
AcDbEntity
  8
1
  6
Continuous
 62
     2
100
AcDbLine
 10
-68.30941788467727
 20
7.39248948251609
 30
0.0
 11
-68.30941788467727
 21
3.14248948251597
 31
0.0
  0
LINE
  5
15C
330
74
100
AcDbEntity
  8
1
  6
Continuous
 62
     2
100
AcDbLine
 10
-68.30941788467727
 20
11.64248948251598
 30
0.0
 11
-81.80941788467716
 21
11.64248948251598
 31
0.0
  0
LINE
  5
15D
330
74
100
AcDbEntity
  8
1
  6
Continuous
 62
     2
100
AcDbLine
 10
-68.30941788467727
 20
11.64248948251598
 30
0.0
 11
-68.30941788467727
 21
7.39248948251609
 31
0.0
  0
LINE
  5
15E
330
74
100
AcDbEntity
  8
1
  6
Continuous
 62
     6
100
AcDbLine
 10
-68.30941788467727
 20
3.14248948251597
 30
0.0
 11
-54.80941788467717
 21
3.14248948251597
 31
0.0
  0
LINE
  5
15F
330
74
100
AcDbEntity
  8
1
  6
Continuous
 62
     6
100
AcDbLine
 10
74.73538664207453
 20
20.14248948251598
 30
0.0
 11
74.73538664207405
 21
11.64248948251598
 31
0.0
  0
LINE
  5
160
330
74
100
AcDbEntity
  8
1
  6
Continuous
 62
     7
100
AcDbLine
 10
4.49058211532275
 20
24.39248948251592
 30
0.0
 11
-18.40941788467728
 21
24.39248948251597
 31
0.0
  0
LINE
  5
161
330
74
100
AcDbEntity
  8
1
  6
Continuous
 62
     7
100
AcDbLine
 10
-31.90941788467729
 20
24.39248948251597
 30
0.0
 11
-18.40941788467728
 21
24.39248948251597
 31
0.0
  0
LINE
  5
162
330
74
100
AcDbEntity
  8
1
  6
Continuous
 62
     6
100
AcDbLine
 10
-18.40941788467728
 20
3.14248948251597
 30
0.0
 11
-18.76461335792726
 21
3.14248948251608
 31
0.0
  0
LINE
  5
163
330
74
100
AcDbEntity
  8
1
  6
Continuous
 62
     2
100
AcDbLine
 10
-157.5646133579274
 20
24.39248948251598
 30
0.0
 11
-95.30941788467716
 21
24.39248948251598
 31
0.0
  0
LINE
  5
164
330
74
100
AcDbEntity
  8
1
  6
Continuous
 62
     2
100
AcDbLine
 10
-157.5646133579274
 20
28.64248948251598
 30
0.0
 11
-95.30941788467716
 21
28.64248948251597
 31
0.0
  0
LINE
  5
165
330
74
100
AcDbEntity
  8
1
  6
Continuous
 62
     6
100
AcDbLine
 10
-95.30941788467716
 20
32.89248948251598
 30
0.0
 11
-157.5646133579274
 21
32.89248948251598
 31
0.0
  0
LINE
  5
166
330
74
100
AcDbEntity
  8
1
  6
Continuous
 62
     6
100
AcDbLine
 10
-177.2646133579254
 20
11.64248948251598
 30
0.0
 11
-177.2646133579254
 21
15.89248948251598
 31
0.0
  0
LINE
  5
167
330
74
100
AcDbEntity
  8
1
  6
Continuous
 62
     6
100
AcDbLine
 10
-177.2646133579254
 20
20.14248948251598
 30
0.0
 11
-177.2646133579254
 21
24.39248948251598
 31
0.0
  0
LINE
  5
168
330
74
100
AcDbEntity
  8
1
  6
Continuous
 62
     6
100
AcDbLine
 10
-177.2646133579254
 20
24.39248948251598
 30
0.0
 11
-177.2646133579254
 21
28.64248948251598
 31
0.0
  0
LINE
  5
169
330
74
100
AcDbEntity
  8
1
  6
Continuous
 62
     6
100
AcDbLine
 10
-177.2646133579254
 20
28.64248948251598
 30
0.0
 11
-177.2646133579254
 21
32.89248948251598
 31
0.0
  0
LINE
  5
16A
330
74
100
AcDbEntity
  8
1
  6
Continuous
 62
     6
100
AcDbLine
 10
-171.0646133579274
 20
3.14248948251598
 30
0.0
 11
-177.2646133579254
 21
3.14248948251609
 31
0.0
  0
LINE
  5
16B
330
74
100
AcDbEntity
  8
1
  6
Continuous
 62
     7
100
AcDbLine
 10
11.23538664207512
 20
20.14248948251598
 30
0.0
 11
11.23538664207512
 21
11.64248948251598
 31
0.0
  0
LINE
  5
16C
330
74
100
AcDbEntity
  8
1
  6
Continuous
 62
     7
100
AcDbLine
 10
11.23538664207512
 20
20.14248948251598
 30
0.0
 11
29.73538664207474
 21
20.14248948251598
 31
0.0
  0
LINE
  5
16D
330
74
100
AcDbEntity
  8
1
  6
Continuous
 62
     7
100
AcDbLine
 10
47.93538664207475
 20
24.39248948251609
 30
0.0
 11
11.23538664207512
 21
24.39248948251596
 31
0.0
  0
LINE
  5
16E
330
74
100
AcDbEntity
  8
1
  6
Continuous
 62
     7
100
AcDbLine
 10
47.93538664207475
 20
24.39248948251609
 30
0.0
 11
56.85379492375364
 21
24.39248948251598
 31
0.0
  0
LINE
  5
16F
330
74
100
AcDbEntity
  8
1
  6
Continuous
 62
     7
100
AcDbLine
 10
-18.40941788467728
 20
20.14248948251598
 30
0.0
 11
11.23538664207512
 21
20.14248948251598
 31
0.0
  0
LINE
  5
170
330
74
100
AcDbEntity
  8
1
  6
Continuous
 62
     7
100
AcDbLine
 10
-18.40941788467728
 20
11.64248948251598
 30
0.0
 11
11.23538664207512
 21
11.64248948251598
 31
0.0
  0
LINE
  5
171
330
74
100
AcDbEntity
  8
1
  6
Continuous
 62
     7
100
AcDbLine
 10
-54.80941788467717
 20
32.89248948251597
 30
0.0
 11
-54.80941788467717
 21
28.64248948251598
 31
0.0
  0
LINE
  5
172
330
74
100
AcDbEntity
  8
1
  6
Continuous
 62
     7
100
AcDbLine
 10
-54.80941788467717
 20
7.39248948251608
 30
0.0
 11
-54.80941788467717
 21
3.14248948251597
 31
0.0
  0
LINE
  5
173
330
74
100
AcDbEntity
  8
1
  6
Continuous
 62
     7
100
AcDbLine
 10
-18.40941788467728
 20
7.39248948251608
 30
0.0
 11
-18.40941788467728
 21
3.14248948251597
 31
0.0
  0
LINE
  5
174
330
74
100
AcDbEntity
  8
1
  6
Continuous
 62
     7
100
AcDbLine
 10
-18.40941788467728
 20
20.14248948251598
 30
0.0
 11
-31.90941788467729
 21
20.14248948251598
 31
0.0
  0
LINE
  5
175
330
74
100
AcDbEntity
  8
1
  6
Continuous
 62
     7
100
AcDbLine
 10
-54.80941788467717
 20
24.39248948251598
 30
0.0
 11
-45.4094178846772
 21
24.39248948251598
 31
0.0
  0
LINE
  5
176
330
74
100
AcDbEntity
  8
1
  6
Continuous
 62
     7
100
AcDbLine
 10
-45.4094178846772
 20
28.64248948251597
 30
0.0
 11
-45.4094178846772
 21
24.39248948251598
 31
0.0
  0
LINE
  5
177
330
74
100
AcDbEntity
  8
1
  6
Continuous
 62
     7
100
AcDbLine
 10
-31.90941788467729
 20
28.64248948251597
 30
0.0
 11
-31.90941788467729
 21
24.39248948251597
 31
0.0
  0
LINE
  5
178
330
74
100
AcDbEntity
  8
1
  6
Continuous
 62
     7
100
AcDbLine
 10
-54.80941788467717
 20
11.64248948251597
 30
0.0
 11
-54.80941788467717
 21
7.39248948251608
 31
0.0
  0
LINE
  5
179
330
74
100
AcDbEntity
  8
1
  6
Continuous
 62
     7
100
AcDbLine
 10
-54.80941788467717
 20
15.89248948251598
 30
0.0
 11
-54.80941788467717
 21
11.64248948251597
 31
0.0
  0
LINE
  5
17A
330
74
100
AcDbEntity
  8
1
  6
Continuous
 62
     7
100
AcDbLine
 10
-18.40941788467728
 20
11.64248948251598
 30
0.0
 11
-18.40941788467728
 21
7.39248948251608
 31
0.0
  0
LINE
  5
17B
330
74
100
AcDbEntity
  8
1
  6
Continuous
 62
     7
100
AcDbLine
 10
-177.2646133579254
 20
7.39248948251609
 30
0.0
 11
-171.0646133579274
 21
7.39248948251609
 31
0.0
  0
LINE
  5
17C
330
74
100
AcDbEntity
  8
1
  6
Continuous
 62
     2
100
AcDbLine
 10
-177.2646133579254
 20
15.89248948251598
 30
0.0
 11
-171.0646133579274
 21
15.89248948251598
 31
0.0
  0
LINE
  5
17D
330
74
100
AcDbEntity
  8
1
  6
Continuous
 62
     2
100
AcDbLine
 10
-177.2646133579254
 20
11.64248948251598
 30
0.0
 11
-171.0646133579274
 21
11.64248948251598
 31
0.0
  0
LINE
  5
17E
330
74
100
AcDbEntity
  8
1
  6
Continuous
 62
     2
100
AcDbLine
 10
-171.0646133579274
 20
3.14248948251598
 30
0.0
 11
-171.0646133579274
 21
7.39248948251609
 31
0.0
  0
LINE
  5
17F
330
74
100
AcDbEntity
  8
1
  6
Continuous
 62
     7
100
AcDbLine
 10
-45.4094178846772
 20
32.89248948251597
 30
0.0
 11
-45.4094178846772
 21
28.64248948251597
 31
0.0
  0
LINE
  5
180
330
74
100
AcDbEntity
  8
1
  6
Continuous
 62
     7
100
AcDbLine
 10
-31.90941788467729
 20
32.89248948251597
 30
0.0
 11
-31.90941788467729
 21
28.64248948251597
 31
0.0
  0
LINE
  5
181
330
74
100
AcDbEntity
  8
1
  6
Continuous
 62
     7
100
AcDbLine
 10
-18.40941788467728
 20
24.39248948251597
 30
0.0
 11
-18.40941788467728
 21
20.14248948251598
 31
0.0
  0
LINE
  5
182
330
74
100
AcDbEntity
  8
1
  6
Continuous
 62
     7
100
AcDbLine
 10
-54.80941788467717
 20
28.64248948251598
 30
0.0
 11
-54.80941788467717
 21
24.39248948251598
 31
0.0
  0
LINE
  5
183
330
74
100
AcDbEntity
  8
1
  6
Continuous
 62
     2
100
AcDbLine
 10
-177.2646133579254
 20
24.39248948251598
 30
0.0
 11
-171.0646133579274
 21
24.39248948251598
 31
0.0
  0
LINE
  5
184
330
74
100
AcDbEntity
  8
1
  6
Continuous
 62
     7
100
AcDbLine
 10
-54.80941788467717
 20
24.39248948251598
 30
0.0
 11
-54.80941788467717
 21
20.14248948251598
 31
0.0
  0
LINE
  5
185
330
74
100
AcDbEntity
  8
1
  6
Continuous
 62
     7
100
AcDbLine
 10
-54.80941788467717
 20
20.14248948251598
 30
0.0
 11
-54.80941788467717
 21
15.89248948251598
 31
0.0
  0
LINE
  5
186
330
74
100
AcDbEntity
  8
1
  6
Continuous
 62
     6
100
AcDbLine
 10
-45.4094178846772
 20
32.89248948251597
 30
0.0
 11
-31.90941788467729
 21
32.89248948251597
 31
0.0
  0
LINE
  5
187
330
74
100
AcDbEntity
  8
1
  6
Continuous
 62
     7
100
AcDbLine
 10
-18.40941788467728
 20
32.89248948251598
 30
0.0
 11
-18.40941788467728
 21
28.64248948251598
 31
0.0
  0
LINE
  5
188
330
74
100
AcDbEntity
  8
1
  6
Continuous
 62
     6
100
AcDbLine
 10
-31.90941788467729
 20
32.89248948251597
 30
0.0
 11
-18.40941788467728
 21
32.89248948251598
 31
0.0
  0
LINE
  5
189
330
74
100
AcDbEntity
  8
1
  6
Continuous
 62
     7
100
AcDbLine
 10
-18.40941788467728
 20
11.64248948251598
 30
0.0
 11
-18.40941788467728
 21
15.89248948251598
 31
0.0
  0
LINE
  5
18A
330
74
100
AcDbEntity
  8
1
  6
Continuous
 62
     2
100
AcDbLine
 10
-171.0646133579274
 20
7.39248948251609
 30
0.0
 11
-171.0646133579274
 21
11.64248948251598
 31
0.0
  0
LINE
  5
18B
330
74
100
AcDbEntity
  8
1
  6
Continuous
 62
     7
100
AcDbLine
 10
-171.0646133579274
 20
7.39248948251609
 30
0.0
 11
-157.5646133579274
 21
7.39248948251609
 31
0.0
  0
LINE
  5
18C
330
74
100
AcDbEntity
  8
1
  6
Continuous
 62
     2
100
AcDbLine
 10
-171.0646133579274
 20
15.89248948251598
 30
0.0
 11
-171.0646133579274
 21
20.14248948251598
 31
0.0
  0
LINE
  5
18D
330
74
100
AcDbEntity
  8
1
  6
Continuous
 62
     2
100
AcDbLine
 10
-171.0646133579274
 20
11.64248948251598
 30
0.0
 11
-171.0646133579274
 21
15.89248948251598
 31
0.0
  0
LINE
  5
18E
330
74
100
AcDbEntity
  8
1
  6
Continuous
 62
     2
100
AcDbLine
 10
-54.80941788467717
 20
15.89248948251598
 30
0.0
 11
-68.30941788467727
 21
15.89248948251598
 31
0.0
  0
LINE
  5
18F
330
74
100
AcDbEntity
  8
1
  6
Continuous
 62
     2
100
AcDbLine
 10
-54.80941788467717
 20
11.64248948251597
 30
0.0
 11
-68.30941788467727
 21
11.64248948251598
 31
0.0
  0
LINE
  5
190
330
74
100
AcDbEntity
  8
1
  6
Continuous
 62
     6
100
AcDbLine
 10
-54.80941788467717
 20
32.89248948251597
 30
0.0
 11
-68.30941788467727
 21
32.89248948251597
 31
0.0
  0
LINE
  5
191
330
74
100
AcDbEntity
  8
1
  6
Continuous
 62
     2
100
AcDbLine
 10
-171.0646133579274
 20
28.64248948251598
 30
0.0
 11
-177.2646133579254
 21
28.64248948251598
 31
0.0
  0
LINE
  5
192
330
74
100
AcDbEntity
  8
1
  6
Continuous
 62
     2
100
AcDbLine
 10
-171.0646133579274
 20
28.64248948251598
 30
0.0
 11
-171.0646133579274
 21
32.89248948251598
 31
0.0
  0
LINE
  5
193
330
74
100
AcDbEntity
  8
1
  6
Continuous
 62
     2
100
AcDbLine
 10
-54.80941788467717
 20
28.64248948251598
 30
0.0
 11
-68.30941788467727
 21
28.64248948251597
 31
0.0
  0
LINE
  5
194
330
74
100
AcDbEntity
  8
1
  6
Continuous
 62
     2
100
AcDbLine
 10
-171.0646133579274
 20
24.39248948251598
 30
0.0
 11
-171.0646133579274
 21
28.64248948251598
 31
0.0
  0
LINE
  5
195
330
74
100
AcDbEntity
  8
1
  6
Continuous
 62
     2
100
AcDbLine
 10
-54.80941788467717
 20
24.39248948251598
 30
0.0
 11
-68.30941788467727
 21
24.39248948251597
 31
0.0
  0
LINE
  5
196
330
74
100
AcDbEntity
  8
1
  6
Continuous
 62
     2
100
AcDbLine
 10
-171.0646133579274
 20
20.14248948251598
 30
0.0
 11
-177.2646133579254
 21
20.14248948251598
 31
0.0
  0
LINE
  5
197
330
74
100
AcDbEntity
  8
1
  6
Continuous
 62
     2
100
AcDbLine
 10
-171.0646133579274
 20
20.14248948251598
 30
0.0
 11
-171.0646133579274
 21
24.39248948251598
 31
0.0
  0
LINE
  5
198
330
74
100
AcDbEntity
  8
1
  6
Continuous
 62
     2
100
AcDbLine
 10
-54.80941788467717
 20
20.14248948251598
 30
0.0
 11
-68.30941788467727
 21
20.14248948251597
 31
0.0
  0
LINE
  5
199
330
74
100
AcDbEntity
  8
1
  6
Continuous
 62
     7
100
AcDbLine
 10
-31.90941788467729
 20
24.39248948251597
 30
0.0
 11
-45.4094178846772
 21
24.39248948251598
 31
0.0
  0
LINE
  5
19A
330
74
100
AcDbEntity
  8
1
  6
Continuous
 62
     7
100
AcDbLine
 10
-45.4094178846772
 20
24.39248948251598
 30
0.0
 11
-45.4094178846772
 21
20.14248948251608
 31
0.0
  0
LINE
  5
19B
330
74
100
AcDbEntity
  8
1
  6
Continuous
 62
     7
100
AcDbLine
 10
-31.90941788467729
 20
24.39248948251597
 30
0.0
 11
-31.90941788467729
 21
20.14248948251598
 31
0.0
  0
LINE
  5
19C
330
74
100
AcDbEntity
  8
1
  6
Continuous
 62
     6
100
AcDbLine
 10
-177.2646133579254
 20
7.39248948251609
 30
0.0
 11
-177.2646133579254
 21
11.64248948251598
 31
0.0
  0
LINE
  5
19D
330
74
100
AcDbEntity
  8
1
  6
Continuous
 62
     6
100
AcDbLine
 10
-177.2646133579254
 20
3.14248948251609
 30
0.0
 11
-177.2646133579254
 21
7.39248948251609
 31
0.0
  0
LINE
  5
19E
330
74
100
AcDbEntity
  8
1
  6
Continuous
 62
     6
100
AcDbLine
 10
-171.0646133579274
 20
32.89248948251598
 30
0.0
 11
-177.2646133579254
 21
32.89248948251598
 31
0.0
  0
LINE
  5
19F
330
74
100
AcDbEntity
  8
1
  6
Continuous
 62
     7
100
AcDbLine
 10
4.49058211532275
 20
32.89248948251597
 30
0.0
 11
4.49058211532275
 21
24.39248948251592
 31
0.0
  0
LINE
  5
1A0
330
74
100
AcDbEntity
  8
1
  6
Continuous
 62
     6
100
AcDbLine
 10
47.93538664207443
 20
32.89248948251597
 30
0.0
 11
4.49058211532275
 21
32.89248948251597
 31
0.0
  0
LINE
  5
1A1
330
74
100
AcDbEntity
  8
1
  6
Continuous
 62
     6
100
AcDbLine
 10
-18.40941788467728
 20
32.89248948251598
 30
0.0
 11
4.49058211532275
 21
32.89248948251597
 31
0.0
  0
LINE
  5
1A2
330
74
100
AcDbEntity
  8
1
  6
Continuous
 62
     7
100
AcDbLine
 10
-18.40941788467728
 20
7.39248948251608
 30
0.0
 11
-36.6094178846773
 21
7.39248948251609
 31
0.0
  0
LINE
  5
1A3
330
74
100
AcDbEntity
  8
1
  6
Continuous
 62
     7
100
AcDbLine
 10
-31.90941788467729
 20
20.14248948251598
 30
0.0
 11
-45.4094178846772
 21
20.14248948251608
 31
0.0
  0
LINE
  5
1A4
330
74
100
AcDbEntity
  8
1
  6
Continuous
 62
     7
100
AcDbLine
 10
-36.6094178846773
 20
7.39248948251609
 30
0.0
 11
-54.80941788467717
 21
7.39248948251608
 31
0.0
  0
LINE
  5
1A5
330
74
100
AcDbEntity
  8
1
  6
Continuous
 62
     7
100
AcDbLine
 10
-36.6094178846773
 20
7.39248948251609
 30
0.0
 11
-36.6094178846773
 21
3.14248948251609
 31
0.0
  0
LINE
  5
1A6
330
74
100
AcDbEntity
  8
1
  6
Continuous
 62
     2
100
AcDbLine
 10
-95.30941788467716
 20
32.89248948251598
 30
0.0
 11
-95.30941788467716
 21
28.64248948251597
 31
0.0
  0
LINE
  5
1A7
330
74
100
AcDbEntity
  8
1
  6
Continuous
 62
     6
100
AcDbLine
 10
-81.80941788467716
 20
32.89248948251598
 30
0.0
 11
-95.30941788467716
 21
32.89248948251598
 31
0.0
  0
LINE
  5
1A8
330
74
100
AcDbEntity
  8
1
  6
Continuous
 62
     6
100
AcDbLine
 10
-68.30941788467727
 20
32.89248948251597
 30
0.0
 11
-81.80941788467716
 21
32.89248948251598
 31
0.0
  0
LINE
  5
1A9
330
74
100
AcDbEntity
  8
1
  6
Continuous
 62
     2
100
AcDbLine
 10
-81.80941788467716
 20
32.89248948251598
 30
0.0
 11
-81.80941788467716
 21
28.64248948251598
 31
0.0
  0
LINE
  5
1AA
330
74
100
AcDbEntity
  8
1
  6
Continuous
 62
     2
100
AcDbLine
 10
-68.30941788467727
 20
32.89248948251597
 30
0.0
 11
-68.30941788467727
 21
28.64248948251597
 31
0.0
  0
LINE
  5
1AB
330
74
100
AcDbEntity
  8
1
  6
Continuous
 62
     7
100
AcDbLine
 10
29.73538664207474
 20
20.14248948251598
 30
0.0
 11
29.73538664207474
 21
11.64248948251598
 31
0.0
  0
LINE
  5
1AC
330
74
100
AcDbEntity
  8
1
  6
Continuous
 62
     7
100
AcDbLine
 10
29.73538664207474
 20
11.64248948251598
 30
0.0
 11
11.23538664207512
 21
11.64248948251598
 31
0.0
  0
LINE
  5
1AD
330
74
100
AcDbEntity
  8
1
  6
Continuous
 62
     7
100
AcDbLine
 10
47.93538664207443
 20
32.89248948251597
 30
0.0
 11
47.93538664207475
 21
24.39248948251609
 31
0.0
  0
LINE
  5
1AE
330
74
100
AcDbEntity
  8
1
  6
Continuous
 62
     6
100
AcDbLine
 10
47.93538664207443
 20
32.89248948251597
 30
0.0
 11
56.85379492375364
 21
32.89248948251597
 31
0.0
  0
LINE
  5
1AF
330
74
100
AcDbEntity
  8
1
  6
Continuous
 62
     7
100
AcDbLine
 10
56.85379492375364
 20
24.39248948251598
 30
0.0
 11
56.85379492375364
 21
32.89248948251597
 31
0.0
  0
LINE
  5
1B0
330
74
100
AcDbEntity
  8
1
  6
Continuous
 62
     7
100
AcDbLine
 10
-31.90941788467729
 20
28.64248948251597
 30
0.0
 11
-45.4094178846772
 21
28.64248948251597
 31
0.0
  0
LINE
  5
1B1
330
74
100
AcDbEntity
  8
1
  6
Continuous
 62
     7
100
AcDbLine
 10
-31.90941788467729
 20
28.64248948251597
 30
0.0
 11
-18.40941788467728
 21
28.64248948251598
 31
0.0
  0
LINE
  5
1B2
330
74
100
AcDbEntity
  8
1
  6
Continuous
 62
     7
100
AcDbLine
 10
-18.40941788467728
 20
28.64248948251598
 30
0.0
 11
-18.40941788467728
 21
24.39248948251597
 31
0.0
  0
LINE
  5
1B3
330
74
100
AcDbEntity
  8
1
  6
Continuous
 62
     7
100
AcDbLine
 10
29.73538664207474
 20
20.14248948251598
 30
0.0
 11
74.73538664207453
 21
20.14248948251598
 31
0.0
  0
LINE
  5
1B4
330
74
100
AcDbEntity
  8
1
  6
Continuous
 62
     7
100
AcDbLine
 10
74.73538664207354
 20
24.39248948251598
 30
0.0
 11
56.85379492375364
 21
24.39248948251598
 31
0.0
  0
LINE
  5
1B5
330
74
100
AcDbEntity
  8
1
  6
Continuous
 62
     7
100
AcDbLine
 10
74.73538664207405
 20
11.64248948251598
 30
0.0
 11
29.73538664207474
 21
11.64248948251598
 31
0.0
  0
LINE
  5
1B6
330
74
100
AcDbEntity
  8
1
  6
Continuous
 62
     6
100
AcDbLine
 10
74.73538664207445
 20
32.89248948251597
 30
0.0
 11
56.85379492375364
 21
32.89248948251597
 31
0.0
  0
LINE
  5
1B7
330
74
100
AcDbEntity
  8
1
  6
Continuous
 62
     6
100
AcDbLine
 10
-95.30941788467716
 20
3.14248948251598
 30
0.0
 11
-118.7646133579274
 21
3.14248948251609
 31
0.0
  0
LINE
  5
1B8
330
74
100
AcDbEntity
  8
1
  6
Continuous
 62
     6
100
AcDbLine
 10
-171.0646133579274
 20
3.14248948251598
 30
0.0
 11
-168.7646133579273
 21
3.14248948251609
 31
0.0
  0
LINE
  5
1B9
330
74
100
AcDbEntity
  8
1
  6
Continuous
 62
     6
100
AcDbLine
 10
-54.80941788467717
 20
3.14248948251597
 30
0.0
 11
-36.6094178846773
 21
3.14248948251609
 31
0.0
  0
LINE
  5
1BA
330
74
100
AcDbEntity
  8
1
  6
Continuous
 62
     6
100
AcDbLine
 10
-18.40941788467728
 20
3.14248948251597
 30
0.0
 11
31.23538664207275
 21
3.14248948251609
 31
0.0
  0
LINE
  5
1BB
330
74
100
AcDbEntity
  8
1
  6
Continuous
 62
     6
100
AcDbLine
 10
74.73538664207354
 20
24.39248948251598
 30
0.0
 11
74.73538664207453
 21
20.14248948251598
 31
0.0
  0
LINE
  5
1BC
330
74
100
AcDbEntity
  8
1
  6
Continuous
 62
     6
100
AcDbLine
 10
74.73538664207274
 20
3.14248948251609
 30
0.0
 11
74.73538664207405
 21
11.64248948251598
 31
0.0
  0
LINE
  5
1BD
330
74
100
AcDbEntity
  8
1
  6
Continuous
 62
     2
100
AcDbLine
 10
-157.5646133579274
 20
32.89248948251598
 30
0.0
 11
-157.5646133579274
 21
28.64248948251598
 31
0.0
  0
LINE
  5
1BE
330
74
100
AcDbEntity
  8
1
  6
Continuous
 62
     6
100
AcDbLine
 10
-157.5646133579274
 20
32.89248948251598
 30
0.0
 11
-171.0646133579274
 21
32.89248948251598
 31
0.0
  0
LINE
  5
1BF
330
74
100
AcDbEntity
  8
1
  6
Continuous
 62
     2
100
AcDbLine
 10
-157.5646133579274
 20
28.64248948251598
 30
0.0
 11
-157.5646133579274
 21
24.39248948251598
 31
0.0
  0
LINE
  5
1C0
330
74
100
AcDbEntity
  8
1
  6
Continuous
 62
     2
100
AcDbLine
 10
-157.5646133579274
 20
24.39248948251598
 30
0.0
 11
-157.5646133579274
 21
20.14248948251598
 31
0.0
  0
LINE
  5
1C1
330
74
100
AcDbEntity
  8
1
  6
Continuous
 62
     2
100
AcDbLine
 10
-157.5646133579274
 20
24.39248948251598
 30
0.0
 11
-171.0646133579274
 21
24.39248948251598
 31
0.0
  0
LINE
  5
1C2
330
74
100
AcDbEntity
  8
1
  6
Continuous
 62
     2
100
AcDbLine
 10
-157.5646133579274
 20
28.64248948251598
 30
0.0
 11
-171.0646133579274
 21
28.64248948251598
 31
0.0
  0
LINE
  5
1C3
330
74
100
AcDbEntity
  8
1
  6
Continuous
 62
     2
100
AcDbLine
 10
-157.5646133579274
 20
15.89248948251598
 30
0.0
 11
-157.5646133579274
 21
11.64248948251598
 31
0.0
  0
LINE
  5
1C4
330
74
100
AcDbEntity
  8
1
  6
Continuous
 62
     2
100
AcDbLine
 10
-157.5646133579274
 20
15.89248948251598
 30
0.0
 11
-171.0646133579274
 21
15.89248948251598
 31
0.0
  0
LINE
  5
1C5
330
74
100
AcDbEntity
  8
1
  6
Continuous
 62
     2
100
AcDbLine
 10
-157.5646133579274
 20
20.14248948251598
 30
0.0
 11
-157.5646133579274
 21
15.89248948251598
 31
0.0
  0
LINE
  5
1C6
330
74
100
AcDbEntity
  8
1
  6
Continuous
 62
     2
100
AcDbLine
 10
-157.5646133579274
 20
20.14248948251598
 30
0.0
 11
-171.0646133579274
 21
20.14248948251598
 31
0.0
  0
LINE
  5
1C7
330
74
100
AcDbEntity
  8
1
  6
Continuous
 62
     2
100
AcDbLine
 10
-157.5646133579274
 20
11.64248948251598
 30
0.0
 11
-157.5646133579274
 21
7.39248948251609
 31
0.0
  0
LINE
  5
1C8
330
74
100
AcDbEntity
  8
1
  6
Continuous
 62
     2
100
AcDbLine
 10
-157.5646133579274
 20
11.64248948251598
 30
0.0
 11
-171.0646133579274
 21
11.64248948251598
 31
0.0
  0
LINE
  5
1C9
330
74
100
AcDbEntity
  8
1
  6
Continuous
 62
     2
100
AcDbLine
 10
-157.5646133579274
 20
7.39248948251609
 30
0.0
 11
-157.5646133579274
 21
3.14248948251609
 31
0.0
  0
LINE
  5
1CA
330
74
100
AcDbEntity
  8
1
  6
Continuous
 62
     7
100
AcDbLine
 10
-157.5646133579274
 20
7.39248948251609
 30
0.0
 11
-95.30941788467716
 21
7.39248948251608
 31
0.0
  0
LINE
  5
1CB
330
74
100
AcDbEntity
  8
1
  6
Continuous
 62
     2
100
AcDbLine
 10
-217.2646133579264
 20
3.14248948251609
 30
0.0
 11
-217.2646133579264
 21
-1.85751051748402
 31
0.0
  0
LINE
  5
1CC
330
74
100
AcDbEntity
  8
1
  6
Continuous
 62
     2
100
AcDbLine
 10
-212.2646133579253
 20
3.14248948251609
 30
0.0
 11
-217.2646133579264
 21
3.14248948251609
 31
0.0
  0
LINE
  5
1CD
330
74
100
AcDbEntity
  8
1
  6
Continuous
 62
     2
100
AcDbLine
 10
-212.2646133579253
 20
-1.85751051748402
 30
0.0
 11
-168.7646133579273
 21
-1.85751051748402
 31
0.0
  0
LINE
  5
1CE
330
74
100
AcDbEntity
  8
1
  6
Continuous
 62
     2
100
AcDbLine
 10
-212.2646133579253
 20
3.14248948251609
 30
0.0
 11
-212.2646133579253
 21
-1.85751051748402
 31
0.0
  0
LINE
  5
1CF
330
74
100
AcDbEntity
  8
1
  6
Continuous
 62
     2
100
AcDbLine
 10
31.23538664207275
 20
-1.85751051748403
 30
0.0
 11
-18.76461335792726
 21
-1.85751051748403
 31
0.0
  0
LINE
  5
1D0
330
74
100
AcDbEntity
  8
1
  6
Continuous
 62
     2
100
AcDbLine
 10
31.23538664207275
 20
-1.85751051748403
 30
0.0
 11
31.23538664207275
 21
3.14248948251609
 31
0.0
  0
LINE
  5
1D1
330
74
100
AcDbEntity
  8
1
  6
Continuous
 62
     2
100
AcDbLine
 10
-18.76461335792726
 20
-1.85751051748403
 30
0.0
 11
-18.76461335792726
 21
3.14248948251608
 31
0.0
  0
LINE
  5
1D2
330
74
100
AcDbEntity
  8
1
  6
Continuous
 62
     2
100
AcDbLine
 10
-68.76461335792727
 20
-1.85751051748402
 30
0.0
 11
-18.76461335792726
 21
-1.85751051748403
 31
0.0
  0
LINE
  5
1D3
330
74
100
AcDbEntity
  8
1
  6
Continuous
 62
     2
100
AcDbLine
 10
-68.76461335792727
 20
-1.85751051748402
 30
0.0
 11
-68.76461335792727
 21
3.14248948251609
 31
0.0
  0
LINE
  5
1D4
330
74
100
AcDbEntity
  8
1
  6
Continuous
 62
     2
100
AcDbLine
 10
-118.7646133579274
 20
-1.85751051748402
 30
0.0
 11
-68.76461335792727
 21
-1.85751051748402
 31
0.0
  0
LINE
  5
1D5
330
74
100
AcDbEntity
  8
1
  6
Continuous
 62
     2
100
AcDbLine
 10
-118.7646133579274
 20
-1.85751051748402
 30
0.0
 11
-118.7646133579274
 21
3.14248948251609
 31
0.0
  0
LINE
  5
1D6
330
74
100
AcDbEntity
  8
1
  6
Continuous
 62
     2
100
AcDbLine
 10
-168.7646133579273
 20
-1.85751051748402
 30
0.0
 11
-118.7646133579274
 21
-1.85751051748402
 31
0.0
  0
LINE
  5
1D7
330
74
100
AcDbEntity
  8
1
  6
Continuous
 62
     2
100
AcDbLine
 10
-168.7646133579273
 20
-1.85751051748402
 30
0.0
 11
-168.7646133579273
 21
3.14248948251609
 31
0.0
  0
LINE
  5
1D8
330
74
100
AcDbEntity
  8
1
  6
Continuous
 62
     6
100
AcDbLine
 10
-212.2646133579255
 20
53.14248948251608
 30
0.0
 11
-212.2646133579253
 21
3.14248948251609
 31
0.0
  0
LINE
  5
1D9
330
74
100
AcDbEntity
  8
1
  6
Continuous
 62
     2
100
AcDbLine
 10
-217.2646133579264
 20
53.14248948251609
 30
0.0
 11
-217.2646133579264
 21
3.14248948251609
 31
0.0
  0
LINE
  5
1DA
330
74
100
AcDbEntity
  8
1
  6
Continuous
 62
     2
100
AcDbLine
 10
-217.2646133579264
 20
53.14248948251609
 30
0.0
 11
-212.2646133579255
 21
53.14248948251608
 31
0.0
  0
LINE
  5
1DB
330
74
100
AcDbEntity
  8
1
  6
Continuous
 62
     6
100
AcDbLine
 10
-212.2646133579258
 20
103.1424894825159
 30
0.0
 11
-212.2646133579255
 21
53.14248948251608
 31
0.0
  0
LINE
  5
1DC
330
74
100
AcDbEntity
  8
1
  6
Continuous
 62
     2
100
AcDbLine
 10
-217.2646133579264
 20
103.1424894825159
 30
0.0
 11
-217.2646133579264
 21
53.14248948251609
 31
0.0
  0
LINE
  5
1DD
330
74
100
AcDbEntity
  8
1
  6
Continuous
 62
     2
100
AcDbLine
 10
-217.2646133579264
 20
103.1424894825159
 30
0.0
 11
-212.2646133579258
 21
103.1424894825159
 31
0.0
  0
LINE
  5
1DE
330
74
100
AcDbEntity
  8
1
  6
Continuous
 62
     6
100
AcDbLine
 10
-212.2646133579262
 20
153.142489482516
 30
0.0
 11
-212.2646133579258
 21
103.1424894825159
 31
0.0
  0
LINE
  5
1DF
330
74
100
AcDbEntity
  8
1
  6
Continuous
 62
     2
100
AcDbLine
 10
-217.2646133579264
 20
153.142489482516
 30
0.0
 11
-217.2646133579264
 21
103.1424894825159
 31
0.0
  0
LINE
  5
1E0
330
74
100
AcDbEntity
  8
1
  6
Continuous
 62
     2
100
AcDbLine
 10
-217.2646133579264
 20
153.142489482516
 30
0.0
 11
-212.2646133579262
 21
153.142489482516
 31
0.0
  0
LINE
  5
1E1
330
74
100
AcDbEntity
  8
1
  6
Continuous
 62
     6
100
AcDbLine
 10
-212.2646133579264
 20
188.142489482516
 30
0.0
 11
-212.2646133579262
 21
153.142489482516
 31
0.0
  0
LINE
  5
1E2
330
74
100
AcDbEntity
  8
1
  6
Continuous
 62
     2
100
AcDbLine
 10
-217.2646133579264
 20
208.142489482516
 30
0.0
 11
-217.2646133579264
 21
153.142489482516
 31
0.0
  0
LINE
  5
1E3
330
74
100
AcDbEntity
  8
1
  6
Continuous
 62
     2
100
AcDbLine
 10
-217.2646133579264
 20
-1.85751051748402
 30
0.0
 11
-212.2646133579253
 21
-1.85751051748402
 31
0.0
  0
LINE
  5
1E4
330
74
100
AcDbEntity
  8
1
  6
Continuous
 62
     2
100
AcDbLine
 10
-68.76461335792727
 20
208.142489482516
 30
0.0
 11
-68.76461335792727
 21
198.9337976378147
 31
0.0
  0
LINE
  5
1E5
330
74
100
AcDbEntity
  8
1
  6
Continuous
 62
     2
100
AcDbLine
 10
-68.76461335792727
 20
208.142489482516
 30
0.0
 11
-217.2646133579264
 21
208.142489482516
 31
0.0
  0
LINE
  5
1E6
330
74
100
AcDbEntity
  8
1
  6
Continuous
 62
     2
100
AcDbLine
 10
79.73538664207175
 20
3.14248948251609
 30
0.0
 11
79.73538664207175
 21
53.14248948251608
 31
0.0
  0
LINE
  5
1E7
330
74
100
AcDbEntity
  8
1
  6
Continuous
 62
     2
100
AcDbLine
 10
79.73538664207175
 20
153.142489482516
 30
0.0
 11
79.73538664207175
 21
208.142489482516
 31
0.0
  0
LINE
  5
1E8
330
74
100
AcDbEntity
  8
1
  6
Continuous
 62
     6
100
AcDbLine
 10
74.73538664207203
 20
153.142489482516
 30
0.0
 11
74.73538664207175
 21
188.142489482516
 31
0.0
  0
LINE
  5
1E9
330
74
100
AcDbEntity
  8
1
  6
Continuous
 62
     2
100
AcDbLine
 10
74.73538664207203
 20
153.142489482516
 30
0.0
 11
79.73538664207175
 21
153.142489482516
 31
0.0
  0
LINE
  5
1EA
330
74
100
AcDbEntity
  8
1
  6
Continuous
 62
     2
100
AcDbLine
 10
79.73538664207175
 20
103.1424894825159
 30
0.0
 11
79.73538664207175
 21
153.142489482516
 31
0.0
  0
LINE
  5
1EB
330
74
100
AcDbEntity
  8
1
  6
Continuous
 62
     6
100
AcDbLine
 10
74.73538664207314
 20
103.1424894825159
 30
0.0
 11
74.73538664207203
 21
153.142489482516
 31
0.0
  0
LINE
  5
1EC
330
74
100
AcDbEntity
  8
1
  6
Continuous
 62
     2
100
AcDbLine
 10
74.73538664207314
 20
103.1424894825159
 30
0.0
 11
79.73538664207175
 21
103.1424894825159
 31
0.0
  0
LINE
  5
1ED
330
74
100
AcDbEntity
  8
1
  6
Continuous
 62
     2
100
AcDbLine
 10
79.73538664207175
 20
53.14248948251608
 30
0.0
 11
79.73538664207175
 21
103.1424894825159
 31
0.0
  0
LINE
  5
1EE
330
74
100
AcDbEntity
  8
1
  6
Continuous
 62
     6
100
AcDbLine
 10
74.73538664207365
 20
53.14248948251608
 30
0.0
 11
74.73538664207314
 21
103.1424894825159
 31
0.0
  0
LINE
  5
1EF
330
74
100
AcDbEntity
  8
1
  6
Continuous
 62
     2
100
AcDbLine
 10
74.73538664207365
 20
53.14248948251608
 30
0.0
 11
79.73538664207175
 21
53.14248948251608
 31
0.0
  0
LINE
  5
1F0
330
74
100
AcDbEntity
  8
1
  6
Continuous
 62
     6
100
AcDbLine
 10
74.73538664207175
 20
188.142489482516
 30
0.0
 11
-212.2646133579264
 21
188.142489482516
 31
0.0
  0
LINE
  5
1F1
330
74
100
AcDbEntity
  8
1
  6
Continuous
 62
     2
100
AcDbLine
 10
79.73538664207175
 20
208.142489482516
 30
0.0
 11
-68.76461335792727
 21
208.142489482516
 31
0.0
  0
LINE
  5
1F2
330
74
100
AcDbEntity
  8
1
  6
Continuous
 62
     6
100
AcDbLine
 10
74.73538664207445
 20
32.89248948251597
 30
0.0
 11
74.73538664207365
 21
53.14248948251608
 31
0.0
  0
LINE
  5
1F3
330
74
100
AcDbEntity
  8
1
  6
Continuous
 62
     2
100
AcDbLine
 10
74.73538664207274
 20
-1.85751051748403
 30
0.0
 11
31.23538664207275
 21
-1.85751051748403
 31
0.0
  0
LINE
  5
1F4
330
74
100
AcDbEntity
  8
1
  6
Continuous
 62
     2
100
AcDbLine
 10
79.73538664207175
 20
-1.85751051748402
 30
0.0
 11
74.73538664207274
 21
-1.85751051748403
 31
0.0
  0
LINE
  5
1F5
330
74
100
AcDbEntity
  8
1
  6
Continuous
 62
     2
100
AcDbLine
 10
79.73538664207175
 20
-1.85751051748402
 30
0.0
 11
79.73538664207175
 21
3.14248948251609
 31
0.0
  0
LINE
  5
1F6
330
74
100
AcDbEntity
  8
1
  6
Continuous
 62
     7
100
AcDbLine
 10
-54.80941788467717
 20
15.89248948251598
 30
0.0
 11
-18.40941788467728
 21
15.89248948251598
 31
0.0
  0
LINE
  5
1F7
330
74
100
AcDbEntity
  8
1
  6
Continuous
 62
     7
100
AcDbLine
 10
-18.40941788467728
 20
15.89248948251598
 30
0.0
 11
-18.40941788467728
 21
20.14248948251598
 31
0.0
  0
LINE
  5
1F8
330
74
100
AcDbEntity
  8
1
  6
Continuous
 62
     2
100
AcDbLine
 10
74.73538664207274
 20
3.14248948251609
 30
0.0
 11
74.73538664207274
 21
-1.85751051748403
 31
0.0
  0
LINE
  5
1F9
330
74
100
AcDbEntity
  8
1
  6
Continuous
 62
     2
100
AcDbLine
 10
74.73538664207274
 20
3.14248948251609
 30
0.0
 11
79.73538664207175
 21
3.14248948251609
 31
0.0
  0
LINE
  5
1FA
330
74
100
AcDbEntity
  8
1
  6
PHANTOM
 62
     2
100
AcDbLine
 10
-48.0671580595739
 20
18.01748948251597
 30
0.0
 11
-51.3671580595739
 21
18.01748948251598
 31
0.0
  0
LINE
  5
1FB
330
74
100
AcDbEntity
  8
1
  6
PHANTOM
 62
     2
100
AcDbLine
 10
-49.7171580595739
 20
19.66748948251601
 30
0.0
 11
-49.7171580595739
 21
16.367489482516
 31
0.0
  0
LINE
  5
1FC
330
74
100
AcDbEntity
  8
1
  6
PHANTOM
 62
     2
100
AcDbLine
 10
-46.6901546698769
 20
18.01748948251597
 30
0.0
 11
-42.3745597006879
 21
18.01748948251598
 31
0.0
  0
LINE
  5
1FD
330
74
100
AcDbEntity
  8
1
  6
Continuous
 62
     6
100
AcDbLine
 10
-18.76461335792726
 20
3.14248948251608
 30
0.0
 11
-36.6094178846773
 21
3.14248948251609
 31
0.0
  0
LINE
  5
1FE
330
74
100
AcDbEntity
  8
1
  6
Continuous
 62
     6
100
AcDbLine
 10
31.23538664207275
 20
3.14248948251609
 30
0.0
 11
74.73538664207274
 21
3.14248948251609
 31
0.0
  0
LINE
  5
1FF
330
74
100
AcDbEntity
  8
1
  6
Continuous
 62
     6
100
AcDbLine
 10
-168.7646133579273
 20
3.14248948251609
 30
0.0
 11
-157.5646133579274
 21
3.14248948251609
 31
0.0
  0
LINE
  5
200
330
74
100
AcDbEntity
  8
1
  6
Continuous
 62
     6
100
AcDbLine
 10
-118.7646133579274
 20
3.14248948251609
 30
0.0
 11
-157.5646133579274
 21
3.14248948251609
 31
0.0
  0
LINE
  5
201
330
74
100
AcDbEntity
  8
1
  6
Continuous
 62
     6
100
AcDbLine
 10
-68.76461335792727
 20
3.14248948251609
 30
0.0
 11
-68.30941788467727
 21
3.14248948251597
 31
0.0
  0
LINE
  5
202
330
74
100
AcDbEntity
  8
1
  6
Continuous
 62
     7
100
AcDbLine
 10
11.23538664207512
 20
20.14248948251598
 30
0.0
 11
11.23538664207512
 21
24.39248948251596
 31
0.0
  0
LINE
  5
203
102
{ACAD_REACTORS
330
323
330
324
102
}
330
74
100
AcDbEntity
  8
0
  6
Continuous
 62
     2
100
AcDbLine
 10
-45.44030553579552
 20
12.94208845458456
 30
0.0
 11
-45.44030553579552
 21
13.44253084178023
 31
0.0
  0
LINE
  5
204
102
{ACAD_REACTORS
330
323
330
324
102
}
330
74
100
AcDbEntity
  8
0
  6
Continuous
 62
     2
100
AcDbLine
 10
-45.44030553579552
 20
10.62792762265789
 30
0.0
 11
-45.44030553579552
 21
11.10879655381086
 31
0.0
  0
LINE
  5
205
102
{ACAD_REACTORS
330
325
330
326
102
}
330
74
100
AcDbEntity
  8
0
  6
Continuous
 62
     2
100
AcDbLine
 10
-26.73825063044086
 20
10.86731941449505
 30
0.0
 11
-26.73825063044086
 21
8.99248948252194
 31
0.0
  0
LINE
  5
206
102
{ACAD_REACTORS
330
325
330
326
102
}
330
74
100
AcDbEntity
  8
0
  6
Continuous
 62
     2
100
AcDbLine
 10
-27.87961738993472
 20
11.51629900633231
 30
0.0
 11
-25.08214175470442
 21
11.51629900633277
 31
0.0
  0
LINE
  5
207
102
{ACAD_REACTORS
330
325
330
326
102
}
330
74
100
AcDbEntity
  8
0
  6
Continuous
 62
     2
100
AcDbLine
 10
-25.08214175470442
 20
10.86731941449505
 30
0.0
 11
-25.08214175470442
 21
11.51629900633277
 31
0.0
  0
LINE
  5
208
102
{ACAD_REACTORS
330
325
330
326
102
}
330
74
100
AcDbEntity
  8
0
  6
Continuous
 62
     2
100
AcDbLine
 10
-25.75247153774029
 20
10.86731941449505
 30
0.0
 11
-25.08214175470442
 21
10.86731941449505
 31
0.0
  0
LINE
  5
209
102
{ACAD_REACTORS
330
325
330
326
102
}
330
74
100
AcDbEntity
  8
0
  6
Continuous
 62
     2
100
AcDbLine
 10
-25.75247153774029
 20
8.99248948252194
 30
0.0
 11
-25.75247153774029
 21
10.86731941449505
 31
0.0
  0
LINE
  5
20A
102
{ACAD_REACTORS
330
325
330
326
102
}
330
74
100
AcDbEntity
  8
0
  6
Continuous
 62
     2
100
AcDbLine
 10
-26.73825063044086
 20
8.99248948252194
 30
0.0
 11
-25.75247153774029
 21
8.99248948252194
 31
0.0
  0
LINE
  5
20B
102
{ACAD_REACTORS
330
31B
330
31C
102
}
330
74
100
AcDbEntity
  8
0
  6
Continuous
 62
     2
100
AcDbLine
 10
-27.31394562057682
 20
14.29248948250991
 30
0.0
 11
-28.47322183359273
 21
14.29248948250991
 31
0.0
  0
LINE
  5
20C
102
{ACAD_REACTORS
330
31B
330
31C
102
}
330
74
100
AcDbEntity
  8
0
  6
Continuous
 62
     2
100
AcDbLine
 10
-27.31394562057682
 20
14.29248948250991
 30
0.0
 11
-26.8171129578563
 21
13.73065202667893
 31
0.0
  0
LINE
  5
20D
102
{ACAD_REACTORS
330
31B
330
31C
102
}
330
74
100
AcDbEntity
  8
0
  6
Continuous
 62
     2
100
AcDbLine
 10
-26.8171129578563
 20
13.73065202667893
 30
0.0
 11
-26.32028029513499
 21
14.29248948250991
 31
0.0
  0
LINE
  5
20E
102
{ACAD_REACTORS
330
31B
330
31C
102
}
330
74
100
AcDbEntity
  8
0
  6
Continuous
 62
     2
100
AcDbLine
 10
-26.23747485134931
 20
13.0751749948767
 30
0.0
 11
-25.16100408212077
 21
14.29248948250991
 31
0.0
  0
LINE
  5
20F
102
{ACAD_REACTORS
330
31B
330
31C
102
}
330
74
100
AcDbEntity
  8
0
  6
Continuous
 62
     2
100
AcDbLine
 10
-26.23747485134931
 20
13.0751749948767
 30
0.0
 11
-25.08214175470442
 21
11.76867995869909
 31
0.0
  0
LINE
  5
210
102
{ACAD_REACTORS
330
31B
330
31C
102
}
330
74
100
AcDbEntity
  8
0
  6
Continuous
 62
     2
100
AcDbLine
 10
-26.24141796771954
 20
11.76867995869909
 30
0.0
 11
-25.08214175470442
 21
11.76867995869909
 31
0.0
  0
LINE
  5
211
102
{ACAD_REACTORS
330
31B
330
31C
102
}
330
74
100
AcDbEntity
  8
0
  6
Continuous
 62
     2
100
AcDbLine
 10
-26.8171129578563
 20
12.41969796307403
 30
0.0
 11
-26.24141796771954
 21
11.76867995869909
 31
0.0
  0
LINE
  5
212
102
{ACAD_REACTORS
330
319
330
31A
102
}
330
74
100
AcDbEntity
  8
0
  6
Continuous
 62
     2
100
AcDbLine
 10
-29.67587232668581
 20
14.29248948250991
 30
0.0
 11
-28.65066207027843
 21
14.29248948250991
 31
0.0
  0
LINE
  5
213
102
{ACAD_REACTORS
330
319
330
31A
102
}
330
74
100
AcDbEntity
  8
0
  6
Continuous
 62
     2
100
AcDbLine
 10
-28.65066207027843
 20
14.29248948250991
 30
0.0
 11
-28.65066207027843
 21
11.76867995869908
 31
0.0
  0
LINE
  5
214
102
{ACAD_REACTORS
330
319
330
31A
102
}
330
74
100
AcDbEntity
  8
0
  6
Continuous
 62
     2
100
AcDbLine
 10
-29.67587232668581
 20
11.76867995869908
 30
0.0
 11
-29.67587232668581
 21
14.29248948250991
 31
0.0
  0
LINE
  5
215
102
{ACAD_REACTORS
330
317
330
318
102
}
330
74
100
AcDbEntity
  8
0
  6
Continuous
 62
     2
100
AcDbLine
 10
-30.88935173374166
 20
10.00201329204626
 30
0.0
 11
-30.64128128978103
 21
10.6365711151758
 31
0.0
  0
LINE
  5
216
102
{ACAD_REACTORS
330
317
330
318
102
}
330
74
100
AcDbEntity
  8
0
  6
Continuous
 62
     2
100
AcDbLine
 10
-31.28400925822172
 20
8.99248948252193
 30
0.0
 11
-31.1092323545227
 21
9.43956431245406
 31
0.0
  0
LINE
  5
217
102
{ACAD_REACTORS
330
317
330
318
102
}
330
74
100
AcDbEntity
  8
0
  6
Continuous
 62
     2
100
AcDbLine
 10
-31.15388641798512
 20
11.51629900633277
 30
0.0
 11
-32.30921951462909
 21
8.99248948252193
 31
0.0
  0
LINE
  5
218
102
{ACAD_REACTORS
330
317
330
318
102
}
330
74
100
AcDbEntity
  8
0
  6
Continuous
 62
     2
100
AcDbLine
 10
-28.97334306493297
 20
8.99248948252194
 30
0.0
 11
-29.99855332134116
 21
8.99248948252194
 31
0.0
  0
LINE
  5
219
102
{ACAD_REACTORS
330
317
330
318
102
}
330
74
100
AcDbEntity
  8
0
  6
Continuous
 62
     2
100
AcDbLine
 10
-31.1092323545227
 20
9.43956431245406
 30
0.0
 11
-30.17333022504016
 21
9.43956431245406
 31
0.0
  0
LINE
  5
21A
102
{ACAD_REACTORS
330
315
330
316
102
}
330
74
100
AcDbEntity
  8
0
  6
Continuous
 62
     2
100
AcDbLine
 10
-34.09228739825079
 20
10.86731941449505
 30
0.0
 11
-33.42195761521391
 21
10.86731941449505
 31
0.0
  0
LINE
  5
21B
102
{ACAD_REACTORS
330
315
330
316
102
}
330
74
100
AcDbEntity
  8
0
  6
Continuous
 62
     2
100
AcDbLine
 10
-31.76584873947918
 20
11.51629900633277
 30
0.0
 11
-34.09228739825079
 21
11.51629900633277
 31
0.0
  0
LINE
  5
21C
102
{ACAD_REACTORS
330
315
330
316
102
}
330
74
100
AcDbEntity
  8
0
  6
Continuous
 62
     2
100
AcDbLine
 10
-31.76584873947918
 20
10.86731941449504
 30
0.0
 11
-31.76584873947918
 21
11.51629900633277
 31
0.0
  0
LINE
  5
21D
102
{ACAD_REACTORS
330
315
330
316
102
}
330
74
100
AcDbEntity
  8
0
  6
Continuous
 62
     2
100
AcDbLine
 10
-32.43617852251435
 20
10.86731941449504
 30
0.0
 11
-31.76584873947918
 21
10.86731941449504
 31
0.0
  0
LINE
  5
21E
102
{ACAD_REACTORS
330
315
330
316
102
}
330
74
100
AcDbEntity
  8
0
  6
Continuous
 62
     2
100
AcDbLine
 10
-32.43617852251435
 20
8.99248948252193
 30
0.0
 11
-32.43617852251435
 21
10.86731941449504
 31
0.0
  0
LINE
  5
21F
102
{ACAD_REACTORS
330
313
330
314
102
}
330
74
100
AcDbEntity
  8
0
  6
Continuous
 62
     2
100
AcDbLine
 10
-31.88401749433416
 20
11.76867995869908
 30
0.0
 11
-31.88401749433416
 21
12.85031261176075
 31
0.0
  0
LINE
  5
220
102
{ACAD_REACTORS
330
313
330
314
102
}
330
74
100
AcDbEntity
  8
0
  6
Continuous
 62
     2
100
AcDbLine
 10
-32.8697965870337
 20
14.29248948250991
 30
0.0
 11
-32.8697965870337
 21
11.76867995869908
 31
0.0
  0
LINE
  5
221
102
{ACAD_REACTORS
330
313
330
314
102
}
330
74
100
AcDbEntity
  8
0
  6
Continuous
 62
     2
100
AcDbLine
 10
-31.88401749433416
 20
14.29248948250991
 30
0.0
 11
-32.8697965870337
 21
14.29248948250991
 31
0.0
  0
LINE
  5
222
102
{ACAD_REACTORS
330
313
330
314
102
}
330
74
100
AcDbEntity
  8
0
  6
Continuous
 62
     2
100
AcDbLine
 10
-30.85880723792587
 20
14.29248948250991
 30
0.0
 11
-30.85880723792587
 21
13.21085682944781
 31
0.0
  0
LINE
  5
223
102
{ACAD_REACTORS
330
311
330
312
102
}
330
74
100
AcDbEntity
  8
0
  6
Continuous
 62
     2
100
AcDbLine
 10
-37.20734933118223
 20
11.51629900633277
 30
0.0
 11
-37.20734933118223
 21
8.99248948252193
 31
0.0
  0
LINE
  5
224
102
{ACAD_REACTORS
330
311
330
312
102
}
330
74
100
AcDbEntity
  8
0
  6
Continuous
 62
     2
100
AcDbLine
 10
-36.22157023848178
 20
11.51629900633277
 30
0.0
 11
-37.20734933118223
 21
11.51629900633277
 31
0.0
  0
LINE
  5
225
102
{ACAD_REACTORS
330
311
330
312
102
}
330
74
100
AcDbEntity
  8
0
  6
Continuous
 62
     2
100
AcDbLine
 10
-35.19635998207441
 20
8.99248948252193
 30
0.0
 11
-34.21058088937485
 21
8.99248948252193
 31
0.0
  0
LINE
  5
226
102
{ACAD_REACTORS
330
311
330
312
102
}
330
74
100
AcDbEntity
  8
0
  6
Continuous
 62
     2
100
AcDbLine
 10
-37.20734933118223
 20
8.99248948252193
 30
0.0
 11
-36.22157023848178
 21
8.99248948252194
 31
0.0
  0
LINE
  5
227
102
{ACAD_REACTORS
330
321
330
322
102
}
330
74
100
AcDbEntity
  8
0
  6
Continuous
 62
     2
100
AcDbLine
 10
-34.17102498939784
 20
13.31902009475402
 30
0.0
 11
-34.17102498939784
 21
13.71561873420998
 31
0.0
  0
LINE
  5
228
102
{ACAD_REACTORS
330
321
330
322
102
}
330
74
100
AcDbEntity
  8
0
  6
Continuous
 62
     2
100
AcDbLine
 10
-33.06695240557333
 20
13.31902009475401
 30
0.0
 11
-34.17102498939784
 21
13.31902009475402
 31
0.0
  0
LINE
  5
229
102
{ACAD_REACTORS
330
321
330
322
102
}
330
74
100
AcDbEntity
  8
0
  6
Continuous
 62
     2
100
AcDbLine
 10
-33.06695240557333
 20
12.74214934645454
 30
0.0
 11
-33.06695240557333
 21
13.31902009475401
 31
0.0
  0
LINE
  5
22A
102
{ACAD_REACTORS
330
321
330
322
102
}
330
74
100
AcDbEntity
  8
0
  6
Continuous
 62
     2
100
AcDbLine
 10
-34.17102498939784
 20
12.74214934645453
 30
0.0
 11
-33.06695240557333
 21
12.74214934645454
 31
0.0
  0
LINE
  5
22B
102
{ACAD_REACTORS
330
30F
330
310
102
}
330
74
100
AcDbEntity
  8
0
  6
Continuous
 62
     2
100
AcDbLine
 10
-37.04949994008126
 20
14.29248948250991
 30
0.0
 11
-37.04949994008126
 21
11.76867995869908
 31
0.0
  0
LINE
  5
22C
102
{ACAD_REACTORS
330
30F
330
310
102
}
330
74
100
AcDbEntity
  8
0
  6
Continuous
 62
     2
100
AcDbLine
 10
-37.04949994008126
 20
11.76867995869908
 30
0.0
 11
-38.03527903278081
 21
11.76867995869909
 31
0.0
  0
LINE
  5
22D
102
{ACAD_REACTORS
330
30F
330
310
102
}
330
74
100
AcDbEntity
  8
0
  6
Continuous
 62
     2
100
AcDbLine
 10
-38.03527903278081
 20
11.76867995869909
 30
0.0
 11
-38.03527903278081
 21
12.70609492468565
 31
0.0
  0
LINE
  5
22E
102
{ACAD_REACTORS
330
30F
330
310
102
}
330
74
100
AcDbEntity
  8
0
  6
Continuous
 62
     2
100
AcDbLine
 10
-38.9027646343572
 20
11.76867995869908
 30
0.0
 11
-39.88854372705686
 21
11.76867995869908
 31
0.0
  0
LINE
  5
22F
102
{ACAD_REACTORS
330
30F
330
310
102
}
330
74
100
AcDbEntity
  8
0
  6
Continuous
 62
     2
100
AcDbLine
 10
-39.88854372705686
 20
14.29248948250991
 30
0.0
 11
-38.9027646343572
 21
14.29248948250991
 31
0.0
  0
LINE
  5
230
102
{ACAD_REACTORS
330
30F
330
310
102
}
330
74
100
AcDbEntity
  8
0
  6
Continuous
 62
     2
100
AcDbLine
 10
-38.9027646343572
 20
14.29248948250991
 30
0.0
 11
-38.9027646343572
 21
13.40915614917556
 31
0.0
  0
LINE
  5
231
102
{ACAD_REACTORS
330
30F
330
310
102
}
330
74
100
AcDbEntity
  8
0
  6
Continuous
 62
     2
100
AcDbLine
 10
-38.9027646343572
 20
13.40915614917556
 30
0.0
 11
-38.03527903278081
 21
13.40915614917556
 31
0.0
  0
LINE
  5
232
102
{ACAD_REACTORS
330
31D
330
31E
102
}
330
74
100
AcDbEntity
  8
0
  6
Continuous
 62
     2
100
AcDbLine
 10
-41.50522143908466
 20
13.74446812264211
 30
0.0
 11
-41.24299411549629
 21
13.74446812264211
 31
0.0
  0
LINE
  5
233
102
{ACAD_REACTORS
330
31D
330
31E
102
}
330
74
100
AcDbEntity
  8
0
  6
Continuous
 62
     2
100
AcDbLine
 10
-41.50522143908466
 20
13.16122213145015
 30
0.0
 11
-41.24299411549629
 21
13.16122213145014
 31
0.0
  0
LINE
  5
234
102
{ACAD_REACTORS
330
31D
330
31E
102
}
330
74
100
AcDbEntity
  8
0
  6
Continuous
 62
     2
100
AcDbLine
 10
-42.53043169549295
 20
14.29248948250991
 30
0.0
 11
-42.53043169549295
 21
11.76867995869909
 31
0.0
  0
LINE
  5
235
102
{ACAD_REACTORS
330
31D
330
31E
102
}
330
74
100
AcDbEntity
  8
0
  6
Continuous
 62
     2
100
AcDbLine
 10
-42.53043169549295
 20
14.29248948250991
 30
0.0
 11
-40.87814078802654
 21
14.29248948250992
 31
0.0
  0
LINE
  5
236
102
{ACAD_REACTORS
330
31D
330
31E
102
}
330
74
100
AcDbEntity
  8
0
  6
Continuous
 62
     2
100
AcDbLine
 10
-41.50522143908466
 20
12.54808346377656
 30
0.0
 11
-40.87814078802654
 21
12.54808346377656
 31
0.0
  0
LINE
  5
237
102
{ACAD_REACTORS
330
323
330
324
102
}
330
74
100
AcDbEntity
  8
0
  6
Continuous
 62
     2
100
AcDbLine
 10
-47.5688581692919
 20
13.44267751669608
 30
0.0
 11
-47.5688581692919
 21
9.84230144833484
 31
0.0
  0
LINE
  5
238
102
{ACAD_REACTORS
330
323
330
324
102
}
330
74
100
AcDbEntity
  8
0
  6
Continuous
 62
     2
100
AcDbLine
 10
-47.30793509236986
 20
13.70360059361853
 30
0.0
 11
-46.08823818244463
 21
13.70360059361854
 31
0.0
  0
LINE
  5
239
102
{ACAD_REACTORS
330
323
330
324
102
}
330
74
100
AcDbEntity
  8
0
  6
Continuous
 62
     2
100
AcDbLine
 10
-45.82731510552179
 20
12.94348361664602
 30
0.0
 11
-45.82731510552179
 21
13.44267751669609
 31
0.0
  0
LINE
  5
23A
102
{ACAD_REACTORS
330
323
330
324
102
}
330
74
100
AcDbEntity
  8
0
  6
Continuous
 62
     2
100
AcDbLine
 10
-45.82731510552179
 20
9.84230144833485
 30
0.0
 11
-45.82731510552179
 21
11.10740139174941
 31
0.0
  0
LINE
  5
23B
102
{ACAD_REACTORS
330
323
330
324
102
}
330
74
100
AcDbEntity
  8
0
  6
Continuous
 62
     2
100
AcDbLine
 10
-43.27535871718777
 20
8.99248948252194
 30
0.0
 11
-47.79875713926782
 21
8.99248948252194
 31
0.0
  0
LINE
  5
23C
102
{ACAD_REACTORS
330
323
330
324
102
}
330
74
100
AcDbEntity
  8
0
  6
Continuous
 62
     2
100
AcDbLine
 10
-42.92474333257297
 20
13.94187409788019
 30
0.0
 11
-42.92474333257297
 21
9.34310486713621
 31
0.0
  0
LINE
  5
23D
102
{ACAD_REACTORS
330
323
330
324
102
}
330
74
100
AcDbEntity
  8
0
  6
Continuous
 62
     2
100
AcDbLine
 10
-47.79875713926782
 20
14.29248948249493
 30
0.0
 11
-43.27535871718777
 21
14.29248948249492
 31
0.0
  0
LINE
  5
23E
102
{ACAD_REACTORS
330
323
330
324
102
}
330
74
100
AcDbEntity
  8
0
  6
Continuous
 62
     2
100
AcDbLine
 10
-48.14937252388171
 20
13.94187409788018
 30
0.0
 11
-48.14937252388171
 21
9.34310486713621
 31
0.0
  0
LINE
  5
23F
102
{ACAD_REACTORS
330
323
330
324
102
}
330
74
100
AcDbEntity
  8
0
  6
Continuous
 62
     2
100
AcDbLine
 10
-46.08823818244463
 20
9.58137837141196
 30
0.0
 11
-47.30793509236986
 21
9.58137837141196
 31
0.0
  0
LINE
  5
240
102
{ACAD_REACTORS
330
31D
330
31E
102
}
330
74
100
AcDbEntity
  8
0
  6
Continuous
 62
     2
100
AcDbLine
 10
-41.50522143908466
 20
11.76867995869909
 30
0.0
 11
-41.50522143908466
 21
12.54808346377656
 31
0.0
  0
LINE
  5
241
102
{ACAD_REACTORS
330
31D
330
31E
102
}
330
74
100
AcDbEntity
  8
0
  6
Continuous
 62
     2
100
AcDbLine
 10
-42.53043169549295
 20
11.76867995869909
 30
0.0
 11
-41.50522143908466
 21
11.76867995869909
 31
0.0
  0
LINE
  5
242
102
{ACAD_REACTORS
330
31D
330
31E
102
}
330
74
100
AcDbEntity
  8
0
  6
Continuous
 62
     2
100
AcDbLine
 10
-41.50522143908466
 20
13.16122213145015
 30
0.0
 11
-41.50522143908466
 21
13.74446812264211
 31
0.0
  0
LINE
  5
243
102
{ACAD_REACTORS
330
30F
330
310
102
}
330
74
100
AcDbEntity
  8
0
  6
Continuous
 62
     2
100
AcDbLine
 10
-39.88854372705686
 20
14.29248948250991
 30
0.0
 11
-39.88854372705686
 21
11.76867995869908
 31
0.0
  0
LINE
  5
244
102
{ACAD_REACTORS
330
30F
330
310
102
}
330
74
100
AcDbEntity
  8
0
  6
Continuous
 62
     2
100
AcDbLine
 10
-38.9027646343572
 20
12.70609492468564
 30
0.0
 11
-38.9027646343572
 21
11.76867995869908
 31
0.0
  0
LINE
  5
245
102
{ACAD_REACTORS
330
30F
330
310
102
}
330
74
100
AcDbEntity
  8
0
  6
Continuous
 62
     2
100
AcDbLine
 10
-38.03527903278081
 20
12.70609492468565
 30
0.0
 11
-38.9027646343572
 21
12.70609492468564
 31
0.0
  0
LINE
  5
246
102
{ACAD_REACTORS
330
30F
330
310
102
}
330
74
100
AcDbEntity
  8
0
  6
Continuous
 62
     2
100
AcDbLine
 10
-38.03527903278081
 20
14.29248948250991
 30
0.0
 11
-37.04949994008126
 21
14.29248948250991
 31
0.0
  0
LINE
  5
247
102
{ACAD_REACTORS
330
30F
330
310
102
}
330
74
100
AcDbEntity
  8
0
  6
Continuous
 62
     2
100
AcDbLine
 10
-38.03527903278081
 20
13.40915614917556
 30
0.0
 11
-38.03527903278081
 21
14.29248948250991
 31
0.0
  0
LINE
  5
248
102
{ACAD_REACTORS
330
321
330
322
102
}
330
74
100
AcDbEntity
  8
0
  6
Continuous
 62
     2
100
AcDbLine
 10
-33.06695240557333
 20
13.71561873420998
 30
0.0
 11
-33.06695240557333
 21
14.29248948250991
 31
0.0
  0
LINE
  5
249
102
{ACAD_REACTORS
330
321
330
322
102
}
330
74
100
AcDbEntity
  8
0
  6
Continuous
 62
     2
100
AcDbLine
 10
-35.67052242522703
 20
14.29248948250991
 30
0.0
 11
-33.06695240557333
 21
14.29248948250991
 31
0.0
  0
LINE
  5
24A
102
{ACAD_REACTORS
330
321
330
322
102
}
330
74
100
AcDbEntity
  8
0
  6
Continuous
 62
     2
100
AcDbLine
 10
-35.67052242522703
 20
11.76867995869908
 30
0.0
 11
-33.06695240557333
 21
11.76867995869909
 31
0.0
  0
LINE
  5
24B
102
{ACAD_REACTORS
330
321
330
322
102
}
330
74
100
AcDbEntity
  8
0
  6
Continuous
 62
     2
100
AcDbLine
 10
-33.06695240557333
 20
11.76867995869909
 30
0.0
 11
-33.06695240557333
 21
12.34555070699858
 31
0.0
  0
LINE
  5
24C
102
{ACAD_REACTORS
330
321
330
322
102
}
330
74
100
AcDbEntity
  8
0
  6
Continuous
 62
     2
100
AcDbLine
 10
-33.06695240557333
 20
12.34555070699858
 30
0.0
 11
-34.17102498939784
 21
12.34555070699858
 31
0.0
  0
LINE
  5
24D
102
{ACAD_REACTORS
330
321
330
322
102
}
330
74
100
AcDbEntity
  8
0
  6
Continuous
 62
     2
100
AcDbLine
 10
-34.17102498939784
 20
12.34555070699858
 30
0.0
 11
-34.17102498939784
 21
12.74214934645453
 31
0.0
  0
LINE
  5
24E
102
{ACAD_REACTORS
330
321
330
322
102
}
330
74
100
AcDbEntity
  8
0
  6
Continuous
 62
     2
100
AcDbLine
 10
-34.17102498939784
 20
13.71561873420998
 30
0.0
 11
-33.06695240557333
 21
13.71561873420998
 31
0.0
  0
LINE
  5
24F
102
{ACAD_REACTORS
330
311
330
312
102
}
330
74
100
AcDbEntity
  8
0
  6
Continuous
 62
     2
100
AcDbLine
 10
-36.22157023848178
 20
8.99248948252194
 30
0.0
 11
-36.22157023848178
 21
10.07412213558358
 31
0.0
  0
LINE
  5
250
102
{ACAD_REACTORS
330
311
330
312
102
}
330
74
100
AcDbEntity
  8
0
  6
Continuous
 62
     2
100
AcDbLine
 10
-36.22157023848178
 20
10.07412213558358
 30
0.0
 11
-35.19635998207441
 21
8.99248948252193
 31
0.0
  0
LINE
  5
251
102
{ACAD_REACTORS
330
311
330
312
102
}
330
74
100
AcDbEntity
  8
0
  6
Continuous
 62
     2
100
AcDbLine
 10
-34.21058088937485
 20
8.99248948252193
 30
0.0
 11
-34.21058088937485
 21
11.51629900633277
 31
0.0
  0
LINE
  5
252
102
{ACAD_REACTORS
330
311
330
312
102
}
330
74
100
AcDbEntity
  8
0
  6
Continuous
 62
     2
100
AcDbLine
 10
-34.21058088937485
 20
11.51629900633277
 30
0.0
 11
-35.19635998207441
 21
11.51629900633277
 31
0.0
  0
LINE
  5
253
102
{ACAD_REACTORS
330
311
330
312
102
}
330
74
100
AcDbEntity
  8
0
  6
Continuous
 62
     2
100
AcDbLine
 10
-35.19635998207441
 20
11.51629900633277
 30
0.0
 11
-35.19635998207441
 21
10.43466635327066
 31
0.0
  0
LINE
  5
254
102
{ACAD_REACTORS
330
311
330
312
102
}
330
74
100
AcDbEntity
  8
0
  6
Continuous
 62
     2
100
AcDbLine
 10
-35.19635998207441
 20
10.43466635327066
 30
0.0
 11
-36.22157023848178
 21
11.51629900633277
 31
0.0
  0
LINE
  5
255
102
{ACAD_REACTORS
330
313
330
314
102
}
330
74
100
AcDbEntity
  8
0
  6
Continuous
 62
     2
100
AcDbLine
 10
-31.88401749433416
 20
12.85031261176075
 30
0.0
 11
-30.85880723792587
 21
11.76867995869908
 31
0.0
  0
LINE
  5
256
102
{ACAD_REACTORS
330
313
330
314
102
}
330
74
100
AcDbEntity
  8
0
  6
Continuous
 62
     2
100
AcDbLine
 10
-30.85880723792587
 20
11.76867995869908
 30
0.0
 11
-29.87302814522622
 21
11.76867995869908
 31
0.0
  0
LINE
  5
257
102
{ACAD_REACTORS
330
313
330
314
102
}
330
74
100
AcDbEntity
  8
0
  6
Continuous
 62
     2
100
AcDbLine
 10
-29.87302814522622
 20
11.76867995869908
 30
0.0
 11
-29.87302814522622
 21
14.29248948250991
 31
0.0
  0
LINE
  5
258
102
{ACAD_REACTORS
330
313
330
314
102
}
330
74
100
AcDbEntity
  8
0
  6
Continuous
 62
     2
100
AcDbLine
 10
-29.87302814522622
 20
14.29248948250991
 30
0.0
 11
-30.85880723792587
 21
14.29248948250991
 31
0.0
  0
LINE
  5
259
102
{ACAD_REACTORS
330
313
330
314
102
}
330
74
100
AcDbEntity
  8
0
  6
Continuous
 62
     2
100
AcDbLine
 10
-30.85880723792587
 20
13.21085682944781
 30
0.0
 11
-31.88401749433416
 21
14.29248948250991
 31
0.0
  0
LINE
  5
25A
102
{ACAD_REACTORS
330
313
330
314
102
}
330
74
100
AcDbEntity
  8
0
  6
Continuous
 62
     2
100
AcDbLine
 10
-32.8697965870337
 20
11.76867995869908
 30
0.0
 11
-31.88401749433416
 21
11.76867995869908
 31
0.0
  0
LINE
  5
25B
102
{ACAD_REACTORS
330
315
330
316
102
}
330
74
100
AcDbEntity
  8
0
  6
Continuous
 62
     2
100
AcDbLine
 10
-34.09228739825079
 20
11.51629900633277
 30
0.0
 11
-34.09228739825079
 21
10.86731941449505
 31
0.0
  0
LINE
  5
25C
102
{ACAD_REACTORS
330
315
330
316
102
}
330
74
100
AcDbEntity
  8
0
  6
Continuous
 62
     2
100
AcDbLine
 10
-33.42195761521391
 20
10.86731941449505
 30
0.0
 11
-33.42195761521391
 21
8.99248948252193
 31
0.0
  0
LINE
  5
25D
102
{ACAD_REACTORS
330
315
330
316
102
}
330
74
100
AcDbEntity
  8
0
  6
Continuous
 62
     2
100
AcDbLine
 10
-33.42195761521391
 20
8.99248948252193
 30
0.0
 11
-32.43617852251435
 21
8.99248948252193
 31
0.0
  0
LINE
  5
25E
102
{ACAD_REACTORS
330
317
330
318
102
}
330
74
100
AcDbEntity
  8
0
  6
Continuous
 62
     2
100
AcDbLine
 10
-29.99855332134116
 20
8.99248948252194
 30
0.0
 11
-30.17333022504016
 21
9.43956431245406
 31
0.0
  0
LINE
  5
25F
102
{ACAD_REACTORS
330
317
330
318
102
}
330
74
100
AcDbEntity
  8
0
  6
Continuous
 62
     2
100
AcDbLine
 10
-30.12867616157786
 20
11.51629900633277
 30
0.0
 11
-28.97334306493297
 21
8.99248948252194
 31
0.0
  0
LINE
  5
260
102
{ACAD_REACTORS
330
317
330
318
102
}
330
74
100
AcDbEntity
  8
0
  6
Continuous
 62
     2
100
AcDbLine
 10
-31.15388641798512
 20
11.51629900633277
 30
0.0
 11
-30.12867616157786
 21
11.51629900633277
 31
0.0
  0
LINE
  5
261
102
{ACAD_REACTORS
330
317
330
318
102
}
330
74
100
AcDbEntity
  8
0
  6
Continuous
 62
     2
100
AcDbLine
 10
-32.30921951462909
 20
8.99248948252193
 30
0.0
 11
-31.28400925822172
 21
8.99248948252193
 31
0.0
  0
LINE
  5
262
102
{ACAD_REACTORS
330
317
330
318
102
}
330
74
100
AcDbEntity
  8
0
  6
Continuous
 62
     2
100
AcDbLine
 10
-30.88935173374166
 20
10.00201329204626
 30
0.0
 11
-30.39321084582224
 21
10.00201329204626
 31
0.0
  0
LINE
  5
263
102
{ACAD_REACTORS
330
317
330
318
102
}
330
74
100
AcDbEntity
  8
0
  6
Continuous
 62
     2
100
AcDbLine
 10
-30.39321084582224
 20
10.00201329204626
 30
0.0
 11
-30.64128128978103
 21
10.6365711151758
 31
0.0
  0
LINE
  5
264
102
{ACAD_REACTORS
330
319
330
31A
102
}
330
74
100
AcDbEntity
  8
0
  6
Continuous
 62
     2
100
AcDbLine
 10
-28.65066207027843
 20
11.76867995869908
 30
0.0
 11
-29.67587232668581
 21
11.76867995869908
 31
0.0
  0
LINE
  5
265
102
{ACAD_REACTORS
330
31B
330
31C
102
}
330
74
100
AcDbEntity
  8
0
  6
Continuous
 62
     2
100
AcDbLine
 10
-27.39280794799327
 20
11.76867995869908
 30
0.0
 11
-28.55208416100828
 21
11.76867995869908
 31
0.0
  0
LINE
  5
266
102
{ACAD_REACTORS
330
31B
330
31C
102
}
330
74
100
AcDbEntity
  8
0
  6
Continuous
 62
     2
100
AcDbLine
 10
-27.39280794799327
 20
11.76867995869908
 30
0.0
 11
-26.8171129578563
 21
12.41969796307403
 31
0.0
  0
LINE
  5
267
102
{ACAD_REACTORS
330
31B
330
31C
102
}
330
74
100
AcDbEntity
  8
0
  6
Continuous
 62
     2
100
AcDbLine
 10
-26.32028029513499
 20
14.29248948250991
 30
0.0
 11
-25.16100408212077
 21
14.29248948250991
 31
0.0
  0
LINE
  5
268
102
{ACAD_REACTORS
330
31B
330
31C
102
}
330
74
100
AcDbEntity
  8
0
  6
Continuous
 62
     2
100
AcDbLine
 10
-28.47322183359273
 20
14.29248948250991
 30
0.0
 11
-27.3967510643634
 21
13.0751749948767
 31
0.0
  0
LINE
  5
269
102
{ACAD_REACTORS
330
31B
330
31C
102
}
330
74
100
AcDbEntity
  8
0
  6
Continuous
 62
     2
100
AcDbLine
 10
-28.55208416100828
 20
11.76867995869908
 30
0.0
 11
-27.3967510643634
 21
13.0751749948767
 31
0.0
  0
LINE
  5
26A
102
{ACAD_REACTORS
330
325
330
326
102
}
330
74
100
AcDbEntity
  8
0
  6
Continuous
 62
     2
100
AcDbLine
 10
-27.01426877639683
 20
9.85779560497115
 30
0.0
 11
-27.01426877639683
 21
9.13670716959658
 31
0.0
  0
LINE
  5
26B
102
{ACAD_REACTORS
330
325
330
326
102
}
330
74
100
AcDbEntity
  8
0
  6
Continuous
 62
     2
100
AcDbLine
 10
-27.65034922512524
 20
10.86731941449504
 30
0.0
 11
-26.73825063044086
 21
10.86731941449505
 31
0.0
  0
LINE
  5
26C
102
{ACAD_REACTORS
330
327
330
328
102
}
330
74
100
AcDbEntity
  8
0
  6
Continuous
 62
     2
100
AcDbLine
 10
-40.3222865278446
 20
9.85779560497162
 30
0.0
 11
-40.3222865278446
 21
9.13670716959703
 31
0.0
  0
LINE
  5
26D
102
{ACAD_REACTORS
330
327
330
328
102
}
330
74
100
AcDbEntity
  8
0
  6
Continuous
 62
     2
100
AcDbLine
 10
-40.3222865278446
 20
10.65099288388308
 30
0.0
 11
-40.3222865278446
 21
11.37208131925767
 31
0.0
  0
ARC
  5
26E
102
{ACAD_REACTORS
330
327
330
328
102
}
330
74
100
AcDbEntity
  8
0
  6
Continuous
 62
     2
100
AcDbCircle
 10
-41.42635918661966
 20
7.51664139710823
 30
0.0
 40
4.010410630990087
100
AcDbArc
 50
74.02000874164679
 51
84.84185523037553
  0
ARC
  5
26F
102
{ACAD_REACTORS
330
327
330
328
102
}
330
74
100
AcDbEntity
  8
0
  6
Continuous
 62
     2
100
AcDbCircle
 10
-40.95029256781498
 20
10.12470780692999
 30
0.0
 40
0.7487023016407695
100
AcDbArc
 50
71.55192388185483
 51
113.372277888129
  0
ARC
  5
270
102
{ACAD_REACTORS
330
327
330
328
102
}
330
74
100
AcDbEntity
  8
0
  6
Continuous
 62
     2
100
AcDbCircle
 10
-41.07958185103979
 20
10.08491372431267
 30
0.0
 40
0.4227934381775209
100
AcDbArc
 50
208.5214732576919
 51
246.6277221118259
  0
ARC
  5
271
102
{ACAD_REACTORS
330
327
330
328
102
}
330
74
100
AcDbEntity
  8
0
  6
Continuous
 62
     2
100
AcDbCircle
 10
-40.95029256781498
 20
10.38408068192425
 30
0.0
 40
0.7487023016403836
100
AcDbArc
 50
246.6277221118704
 51
288.4480761181566
  0
ARC
  5
272
102
{ACAD_REACTORS
330
327
330
328
102
}
330
74
100
AcDbEntity
  8
0
  6
Continuous
 62
     2
100
AcDbCircle
 10
-41.29588573612972
 20
11.42006892658307
 30
0.0
 40
1.840813230556009
100
AcDbArc
 50
288.4480761181332
 51
301.9309089499624
  0
ARC
  5
273
102
{ACAD_REACTORS
330
323
330
324
102
}
330
74
100
AcDbEntity
  8
0
  6
Continuous
 62
     2
100
AcDbCircle
 10
-45.6141284903502
 20
12.02544250419794
 30
0.0
 40
0.7535935125160907
100
AcDbArc
 50
295.3740086781783
 51
64.62599132180736
  0
ARC
  5
274
102
{ACAD_REACTORS
330
323
330
324
102
}
330
74
100
AcDbEntity
  8
0
  6
Continuous
 62
     2
100
AcDbCircle
 10
-45.17938245887257
 20
13.44253084178023
 30
0.0
 40
0.2609230769224304
100
AcDbArc
 50
90.18896704255353
 51
180.0
  0
ARC
  5
275
102
{ACAD_REACTORS
330
325
330
326
102
}
330
74
100
AcDbEntity
  8
0
  6
Continuous
 62
     2
100
AcDbCircle
 10
-27.65034922512524
 20
10.07845742538261
 30
0.0
 40
0.78886198911243
100
AcDbArc
 50
90.0
 51
109.3371432194312
  0
ARC
  5
276
102
{ACAD_REACTORS
330
325
330
326
102
}
330
74
100
AcDbEntity
  8
0
  6
Continuous
 62
     2
100
AcDbCircle
 10
-27.45969859704445
 20
10.25439424442713
 30
0.0
 40
0.7777353184586662
100
AcDbArc
 50
151.4785267423619
 51
208.5214732576684
  0
ARC
  5
277
102
{ACAD_REACTORS
330
325
330
326
102
}
330
74
100
AcDbEntity
  8
0
  6
Continuous
 62
     2
100
AcDbCircle
 10
-27.64227481636538
 20
10.38408068192425
 30
0.0
 40
0.7487023016407007
100
AcDbArc
 50
246.6277221118142
 51
288.4480761180794
  0
ARC
  5
278
102
{ACAD_REACTORS
330
325
330
326
102
}
330
74
100
AcDbEntity
  8
0
  6
Continuous
 62
     2
100
AcDbCircle
 10
-27.98786798468103
 20
11.42006892658261
 30
0.0
 40
1.840813230556014
100
AcDbArc
 50
288.4480761181331
 51
301.9309089499379
  0
ARC
  5
279
102
{ACAD_REACTORS
330
325
330
326
102
}
330
74
100
AcDbEntity
  8
0
  6
Continuous
 62
     2
100
AcDbCircle
 10
-28.11834143517098
 20
12.99214709174648
 30
0.0
 40
4.010410630990743
100
AcDbArc
 50
275.158144769637
 51
285.9799912583388
  0
ARC
  5
27A
102
{ACAD_REACTORS
330
325
330
326
102
}
330
74
100
AcDbEntity
  8
0
  6
Continuous
 62
     2
100
AcDbCircle
 10
-27.87961738993472
 20
10.34760941966252
 30
0.0
 40
1.355119937140891
100
AcDbArc
 50
195.0618917771008
 51
275.1581447696762
  0
ARC
  5
27B
102
{ACAD_REACTORS
330
31D
330
31E
102
}
330
74
100
AcDbEntity
  8
0
  6
Continuous
 62
     2
100
AcDbCircle
 10
-40.87814078802654
 20
13.42028647314323
 30
0.0
 40
0.87220300936667
100
AcDbArc
 50
270.0
 51
90.0
  0
ARC
  5
27C
102
{ACAD_REACTORS
330
323
330
324
102
}
330
74
100
AcDbEntity
  8
0
  6
Continuous
 62
     2
100
AcDbCircle
 10
-47.30793509236986
 20
9.84230144833484
 30
0.0
 40
0.2609230769220403
100
AcDbArc
 50
180.0
 51
270.0
  0
ARC
  5
27D
102
{ACAD_REACTORS
330
323
330
324
102
}
330
74
100
AcDbEntity
  8
0
  6
Continuous
 62
     2
100
AcDbCircle
 10
-46.08823818244463
 20
13.44267751669608
 30
0.0
 40
0.2609230769228361
100
AcDbArc
 50
0.00000000000234
 51
90.0
  0
ARC
  5
27E
102
{ACAD_REACTORS
330
323
330
324
102
}
330
74
100
AcDbEntity
  8
0
  6
Continuous
 62
     2
100
AcDbCircle
 10
-46.08823818244463
 20
12.94348361664602
 30
0.0
 40
0.2609230769223985
100
AcDbArc
 50
295.1944106485609
 51
0.0
  0
ARC
  5
27F
102
{ACAD_REACTORS
330
323
330
324
102
}
330
74
100
AcDbEntity
  8
0
  6
Continuous
 62
     2
100
AcDbCircle
 10
-46.08823818244463
 20
9.84230144833485
 30
0.0
 40
0.2609230769228894
100
AcDbArc
 50
270.0
 51
0.0
  0
ARC
  5
280
102
{ACAD_REACTORS
330
323
330
324
102
}
330
74
100
AcDbEntity
  8
0
  6
Continuous
 62
     2
100
AcDbCircle
 10
-47.79875713926782
 20
13.94187409788019
 30
0.0
 40
0.3506153846147395
100
AcDbArc
 50
90.0
 51
180.0000000000014
  0
ARC
  5
281
102
{ACAD_REACTORS
330
323
330
324
102
}
330
74
100
AcDbEntity
  8
0
  6
Continuous
 62
     2
100
AcDbCircle
 10
-43.27535871718777
 20
13.94187409788019
 30
0.0
 40
0.3506153846147981
100
AcDbArc
 50
0.0
 51
90.0
  0
ARC
  5
282
102
{ACAD_REACTORS
330
323
330
324
102
}
330
74
100
AcDbEntity
  8
0
  6
Continuous
 62
     2
100
AcDbCircle
 10
-43.27535871718777
 20
9.34310486713621
 30
0.0
 40
0.350615384614267
100
AcDbArc
 50
270.0
 51
0.0
  0
ARC
  5
283
102
{ACAD_REACTORS
330
321
330
322
102
}
330
74
100
AcDbEntity
  8
0
  6
Continuous
 62
     2
100
AcDbCircle
 10
-35.65685963694687
 20
13.03058472060428
 30
0.0
 40
0.6378510567599999
100
AcDbArc
 50
321.8795802028403
 51
38.12041979715914
  0
ARC
  5
284
102
{ACAD_REACTORS
330
321
330
322
102
}
330
74
100
AcDbEntity
  8
0
  6
Continuous
 62
     2
100
AcDbCircle
 10
-35.49178522674339
 20
12.90105482133115
 30
0.0
 40
0.4280236140606961
100
AcDbArc
 50
218.1204197971437
 51
321.8795802028552
  0
ARC
  5
285
102
{ACAD_REACTORS
330
31F
330
320
102
}
330
74
100
AcDbEntity
  8
0
  6
Continuous
 62
     2
100
AcDbCircle
 10
-38.53311381266093
 20
10.25439424442712
 30
0.0
 40
1.204986845993422
100
AcDbArc
 50
297.5481481757017
 51
62.4518518242984
  0
ARC
  5
286
102
{ACAD_REACTORS
330
31F
330
320
102
}
330
74
100
AcDbEntity
  8
0
  6
Continuous
 62
     2
100
AcDbCircle
 10
-38.99747727023663
 20
10.25439424442713
 30
0.0
 40
1.204986845992994
100
AcDbArc
 50
117.5481481756635
 51
242.4518518243369
  0
ARC
  5
287
102
{ACAD_REACTORS
330
31F
330
320
102
}
330
74
100
AcDbEntity
  8
0
  6
Continuous
 62
     2
100
AcDbCircle
 10
-38.76529554144878
 20
9.8092909301273
 30
0.0
 40
1.707008076205456
100
AcDbArc
 50
62.4518518243059
 51
117.5481481756671
  0
ARC
  5
288
102
{ACAD_REACTORS
330
31F
330
320
102
}
330
74
100
AcDbEntity
  8
0
  6
Continuous
 62
     2
100
AcDbCircle
 10
-38.76529554144878
 20
10.6994975587274
 30
0.0
 40
1.707008076205438
100
AcDbArc
 50
242.45185182434
 51
297.5481481756871
  0
ARC
  5
289
102
{ACAD_REACTORS
330
321
330
322
102
}
330
74
100
AcDbEntity
  8
0
  6
Continuous
 62
     2
100
AcDbCircle
 10
-35.3267108165399
 20
13.03058472060427
 30
0.0
 40
0.6378510567600167
100
AcDbArc
 50
141.8795802028414
 51
218.1204197971579
  0
ARC
  5
28A
102
{ACAD_REACTORS
330
321
330
322
102
}
330
74
100
AcDbEntity
  8
0
  6
Continuous
 62
     2
100
AcDbCircle
 10
-35.49178522674339
 20
13.1601146198774
 30
0.0
 40
0.4280236140606861
100
AcDbArc
 50
38.12041979714503
 51
141.8795802028562
  0
ARC
  5
28B
102
{ACAD_REACTORS
330
323
330
324
102
}
330
74
100
AcDbEntity
  8
0
  6
Continuous
 62
     2
100
AcDbCircle
 10
-47.79875713926782
 20
9.34310486713621
 30
0.0
 40
0.3506153846138886
100
AcDbArc
 50
180.0
 51
270.0
  0
ARC
  5
28C
102
{ACAD_REACTORS
330
323
330
324
102
}
330
74
100
AcDbEntity
  8
0
  6
Continuous
 62
     2
100
AcDbCircle
 10
-46.08823818244463
 20
11.1074013917494
 30
0.0
 40
0.2609230769228361
100
AcDbArc
 50
0.00000000000195
 51
64.80558935144094
  0
ARC
  5
28D
102
{ACAD_REACTORS
330
323
330
324
102
}
330
74
100
AcDbEntity
  8
0
  6
Continuous
 62
     2
100
AcDbCircle
 10
-45.65635020924213
 20
12.02544250419794
 30
0.0
 40
0.7536343169897799
100
AcDbArc
 50
115.1944106485236
 51
244.8055893514907
  0
ARC
  5
28E
102
{ACAD_REACTORS
330
323
330
324
102
}
330
74
100
AcDbEntity
  8
0
  6
Continuous
 62
     2
100
AcDbCircle
 10
-47.30793509236986
 20
13.44267751669608
 30
0.0
 40
0.2609230769224506
100
AcDbArc
 50
90.0
 51
180.0
  0
ARC
  5
28F
102
{ACAD_REACTORS
330
31D
330
31E
102
}
330
74
100
AcDbEntity
  8
0
  6
Continuous
 62
     2
100
AcDbCircle
 10
-41.24299411549629
 20
13.45284512704614
 30
0.0
 40
0.2916229955960006
100
AcDbArc
 50
270.0
 51
90.0
  0
ARC
  5
290
102
{ACAD_REACTORS
330
321
330
322
102
}
330
74
100
AcDbEntity
  8
0
  6
Continuous
 62
     2
100
AcDbCircle
 10
-35.67052242522703
 20
13.03058472060427
 30
0.0
 40
1.261904761905638
100
AcDbArc
 50
90.0
 51
270.0
  0
ARC
  5
291
102
{ACAD_REACTORS
330
325
330
326
102
}
330
74
100
AcDbEntity
  8
0
  6
Continuous
 62
     2
100
AcDbCircle
 10
-27.87961738993472
 20
10.16117906919172
 30
0.0
 40
1.355119937140591
100
AcDbArc
 50
90.0
 51
164.9381082228992
  0
ARC
  5
292
102
{ACAD_REACTORS
330
325
330
326
102
}
330
74
100
AcDbEntity
  8
0
  6
Continuous
 62
     2
100
AcDbCircle
 10
-28.2260040374237
 20
10.25439424442713
 30
0.0
 40
0.996410056523109
100
AcDbArc
 50
164.9381082229054
 51
195.0618917770957
  0
ARC
  5
293
102
{ACAD_REACTORS
330
325
330
326
102
}
330
74
100
AcDbEntity
  8
0
  6
Continuous
 62
     2
100
AcDbCircle
 10
-27.7715640995911
 20
10.08491372431267
 30
0.0
 40
0.4227934381785521
100
AcDbArc
 50
208.5214732576869
 51
246.6277221118391
  0
ARC
  5
294
102
{ACAD_REACTORS
330
325
330
326
102
}
330
74
100
AcDbEntity
  8
0
  6
Continuous
 62
     2
100
AcDbCircle
 10
-27.7715640995911
 20
10.42387476454204
 30
0.0
 40
0.4227934381772261
100
AcDbArc
 50
109.337143219486
 51
151.4785267424225
  0
ARC
  5
295
102
{ACAD_REACTORS
330
323
330
324
102
}
330
74
100
AcDbEntity
  8
0
  6
Continuous
 62
     2
100
AcDbCircle
 10
-45.17938245887257
 20
10.62792762265789
 30
0.0
 40
0.2609230769229498
100
AcDbArc
 50
180.0
 51
269.8110329574465
  0
ARC
  5
296
102
{ACAD_REACTORS
330
323
330
324
102
}
330
74
100
AcDbEntity
  8
0
  6
Continuous
 62
     2
100
AcDbCircle
 10
-45.1747410247321
 20
12.03522923221906
 30
0.0
 40
1.6682323404407
100
AcDbArc
 50
269.8110329575862
 51
90.18896704241376
  0
ARC
  5
297
102
{ACAD_REACTORS
330
323
330
324
102
}
330
74
100
AcDbEntity
  8
0
  6
Continuous
 62
     2
100
AcDbCircle
 10
-45.17938245887257
 20
12.94208845458456
 30
0.0
 40
0.2609230769229498
100
AcDbArc
 50
180.0
 51
244.6259913216392
  0
ARC
  5
298
102
{ACAD_REACTORS
330
323
330
324
102
}
330
74
100
AcDbEntity
  8
0
  6
Continuous
 62
     2
100
AcDbCircle
 10
-45.17938245887257
 20
11.10879655381085
 30
0.0
 40
0.2609230769227421
100
AcDbArc
 50
115.3740086783579
 51
179.9999999999977
  0
ARC
  5
299
102
{ACAD_REACTORS
330
327
330
328
102
}
330
74
100
AcDbEntity
  8
0
  6
Continuous
 62
     2
100
AcDbCircle
 10
-41.1876351413834
 20
10.16117906919172
 30
0.0
 40
1.355119937140908
100
AcDbArc
 50
84.84185523036265
 51
164.9381082228905
  0
ARC
  5
29A
102
{ACAD_REACTORS
330
327
330
328
102
}
330
74
100
AcDbEntity
  8
0
  6
Continuous
 62
     2
100
AcDbCircle
 10
-41.5340217888733
 20
10.25439424442713
 30
0.0
 40
0.9964100565214691
100
AcDbArc
 50
164.93810822288
 51
195.061891777096
  0
ARC
  5
29B
102
{ACAD_REACTORS
330
327
330
328
102
}
330
74
100
AcDbEntity
  8
0
  6
Continuous
 62
     2
100
AcDbCircle
 10
-41.1876351413834
 20
10.34760941966252
 30
0.0
 40
1.355119937140015
100
AcDbArc
 50
195.0618917770909
 51
275.1581447696391
  0
ARC
  5
29C
102
{ACAD_REACTORS
330
327
330
328
102
}
330
74
100
AcDbEntity
  8
0
  6
Continuous
 62
     2
100
AcDbCircle
 10
-41.42635918661966
 20
12.99214709174648
 30
0.0
 40
4.010410630990211
100
AcDbArc
 50
275.1581447696245
 51
285.9799912583532
  0
ARC
  5
29D
102
{ACAD_REACTORS
330
327
330
328
102
}
330
74
100
AcDbEntity
  8
0
  6
Continuous
 62
     2
100
AcDbCircle
 10
-40.76771634849405
 20
10.25439424442713
 30
0.0
 40
0.7777353184572731
100
AcDbArc
 50
151.4785267422685
 51
208.521473257703
  0
ARC
  5
29E
102
{ACAD_REACTORS
330
327
330
328
102
}
330
74
100
AcDbEntity
  8
0
  6
Continuous
 62
     2
100
AcDbCircle
 10
-41.07958185103979
 20
10.42387476454204
 30
0.0
 40
0.4227934381775693
100
AcDbArc
 50
113.3722778881983
 51
151.4785267423092
  0
ARC
  5
29F
102
{ACAD_REACTORS
330
327
330
328
102
}
330
74
100
AcDbEntity
  8
0
  6
Continuous
 62
     2
100
AcDbCircle
 10
-41.29588573612972
 20
9.08871956227163
 30
0.0
 40
1.840813230556616
100
AcDbArc
 50
58.06909105003758
 51
71.55192388186691
  0
ARC
  5
2A0
102
{ACAD_REACTORS
330
31F
330
320
102
}
330
74
100
AcDbEntity
  8
0
  6
Continuous
 62
     2
100
AcDbCircle
 10
-38.76529554144878
 20
10.38392414370025
 30
0.0
 40
0.4280236140606011
100
AcDbArc
 50
38.12041979715364
 51
141.8795802028552
  0
ARC
  5
2A1
102
{ACAD_REACTORS
330
31F
330
320
102
}
330
74
100
AcDbEntity
  8
0
  6
Continuous
 62
     2
100
AcDbCircle
 10
-38.60022113124541
 20
10.25439424442712
 30
0.0
 40
0.6378510567599105
100
AcDbArc
 50
141.8795802028339
 51
218.1204197971653
  0
ARC
  5
2A2
102
{ACAD_REACTORS
330
31F
330
320
102
}
330
74
100
AcDbEntity
  8
0
  6
Continuous
 62
     2
100
AcDbCircle
 10
-38.76529554144878
 20
10.12486434515445
 30
0.0
 40
0.4280236140609624
100
AcDbArc
 50
218.1204197971922
 51
321.879580202799
  0
ARC
  5
2A3
102
{ACAD_REACTORS
330
31F
330
320
102
}
330
74
100
AcDbEntity
  8
0
  6
Continuous
 62
     2
100
AcDbCircle
 10
-38.93036995165238
 20
10.25439424442712
 30
0.0
 40
0.6378510567600045
100
AcDbArc
 50
321.8795802028418
 51
38.12041979715897
  0
CIRCLE
  5
2A4
330
74
100
AcDbEntity
  8
1
  6
Continuous
 62
     2
100
AcDbCircle
 10
-49.7171580595739
 20
18.01748948251597
 30
0.0
 40
1.5
  0
CIRCLE
  5
2A5
330
74
100
AcDbEntity
  8
1
  6
Continuous
 62
     2
100
AcDbCircle
 10
-49.7171580595739
 20
18.01748948251597
 30
0.0
 40
1.0
  0
CIRCLE
  5
2A6
102
{ACAD_REACTORS
330
323
330
324
102
}
330
74
100
AcDbEntity
  8
0
  6
Continuous
 62
     2
100
AcDbCircle
 10
-45.63381032065826
 20
12.02544250419794
 30
0.0
 40
0.3892387874202612
  0
MTEXT
  5
2A8
330
74
100
AcDbEntity
  8
1
 62
     3
100
AcDbMText
 10
22.44240652868314
 20
23.49248948251598
 30
0.0
 40
2.0
 41
0.0
 71
     1
 72
     1
  1
Steckerstift ge\U+00e4ndert
  7
CONVERTER_12
 73
     1
 44
1.20048019207683
  0
TEXT
  5
2AA
330
74
100
AcDbEntity
  8
1
 62
     7
100
AcDbText
 10
-0.27950566562145
 20
25.69248948251598
 30
0.0
 40
2.5
  1
02
 41
0.81
  7
CONVERTER_13
100
AcDbText
  0
TEXT
  5
2AC
330
74
100
AcDbEntity
  8
1
 62
     3
100
AcDbText
 10
-17.40941788467728
 20
12.94248948251598
 30
0.0
 40
2.5
  1
TECDOC 2D-PRODUCTDRAWING
 41
0.45
  7
CONVERTER_14
100
AcDbText
  0
TEXT
  5
2AE
330
74
100
AcDbEntity
  8
1
 62
     3
100
AcDbText
 10
57.85379492375364
 20
25.69248948251598
 30
0.0
 40
2.5
  1
-
 41
0.54
  7
CONVERTER_15
100
AcDbText
  0
TEXT
  5
2AF
330
74
100
AcDbEntity
  8
1
 62
     7
100
AcDbText
 10
12.23538664207512
 20
12.94248948251598
 30
0.0
 40
2.5
  1
00444414
 41
0.81
  7
CONVERTER_13
100
AcDbText
  0
TEXT
  5
2B0
330
74
100
AcDbEntity
  8
1
 62
     7
100
AcDbText
 10
-16.90941788467746
 20
25.69248948251598
 30
0.0
 40
2.5
  1
0310541
 41
0.81
  7
CONVERTER_13
100
AcDbText
  0
TEXT
  5
2B1
330
74
100
AcDbEntity
  8
1
 62
     3
100
AcDbText
 10
5.49058211532275
 20
25.69248948251598
 30
0.0
 40
2.5
  1
-
 41
0.54
  7
CONVERTER_15
100
AcDbText
  0
MTEXT
  5
2B2
330
74
100
AcDbEntity
  8
1
 62
     3
100
AcDbMText
 10
52.39459078291415
 20
25.69248948251609
 30
0.0
 40
2.5
 41
0.0
 71
     8
 72
     1
  1
1:1
  7
CONVERTER_12
 73
     1
 44
1.32052821128451
  0
MTEXT
  5
2B3
330
74
100
AcDbEntity
  8
1
 62
     7
100
AcDbMText
 10
28.16298437869824
 20
6.39248948251621
 30
0.0
 40
3.0
 41
0.0
 71
     5
 72
     1
  1
KSS 10
  7
CONVERTER_13
 73
     1
 44
1.20048019207683
  0
TEXT
  5
2B4
330
74
100
AcDbEntity
  8
1
 62
     3
100
AcDbText
 10
30.73538664207474
 20
12.94248948251598
 30
0.0
 40
2.5
  1
 
 41
0.54
  7
CONVERTER_15
100
AcDbText
  0
TEXT
  5
2B5
330
74
100
AcDbEntity
  8
1
 62
     7
100
AcDbText
 10
-2.43587016266346
 20
25.69248948251598
 30
0.0
 40
2.5
  1
/
 41
0.9
  7
CONVERTER_11
100
AcDbText
  0
MTEXT
  5
2B6
330
74
100
AcDbEntity
  8
1
 62
     2
100
AcDbMText
 10
-38.65941788467725
 20
26.51748948251598
 30
0.0
 40
1.8
 41
0.0
 71
     5
 72
     1
  1
11.01.08
  7
CONVERTER_11
 73
     1
 44
1.32052821128451
  0
MTEXT
  5
2B7
330
74
100
AcDbEntity
  8
1
 62
     2
100
AcDbMText
 10
-38.65941788467725
 20
22.26748948251598
 30
0.0
 40
1.8
 41
0.0
 71
     5
 72
     1
  1
27.01.18
  7
CONVERTER_11
 73
     1
 44
1.32052821128451
  0
MTEXT
  5
2B8
330
74
100
AcDbEntity
  8
1
 62
     2
100
AcDbMText
 10
-25.15941788467731
 20
26.51748948251598
 30
0.0
 40
1.8
 41
0.0
 71
     5
 72
     1
  1
pbsw08
  7
CONVERTER_11
 73
     1
 44
1.32052821128451
  0
MTEXT
  5
2B9
330
74
100
AcDbEntity
  8
1
 62
     2
100
AcDbMText
 10
-25.15941788467731
 20
22.26748948251598
 30
0.0
 40
1.8
 41
0.0
 71
     5
 72
     1
  1
plwb01
  7
CONVERTER_11
 73
     1
 44
1.32052821128451
  0
MTEXT
  5
2BA
330
74
100
AcDbEntity
  8
1
 62
     2
100
AcDbMText
 10
-17.40941788467728
 20
19.14248948251592
 30
0.0
 40
1.8
 41
0.0
 71
     1
 72
     1
  1
document-type
  7
CONVERTER_11
 73
     1
 44
1.20048019207683
  0
MTEXT
  5
2BB
330
74
100
AcDbEntity
  8
1
 62
     2
100
AcDbMText
 10
-50.1094178846772
 20
29.84248948251603
 30
0.0
 40
1.8
 41
0.0
 71
     8
 72
     1
  1
00
  7
CONVERTER_11
 73
     1
 44
1.20048019207683
  0
MTEXT
  5
2BC
330
74
100
AcDbEntity
  8
1
 62
     2
100
AcDbMText
 10
-17.40941788467728
 20
10.64248948251598
 30
0.0
 40
1.8
 41
0.0
 71
     1
 72
     1
  1
description
  7
CONVERTER_11
 73
     1
 44
1.20048019207683
  0
TEXT
  5
2BD
330
74
100
AcDbEntity
  8
1
 62
     2
100
AcDbText
 10
-30.3741090748636
 20
4.39248948251598
 30
0.0
 40
1.8
  1
1
 41
0.9
  7
CONVERTER_11
100
AcDbText
  0
TEXT
  5
2BE
330
74
100
AcDbEntity
  8
1
 62
     2
100
AcDbText
 10
-45.1631529143351
 20
4.34324082871403
 30
0.0
 40
1.8
  1
1
 41
0.9
  7
CONVERTER_11
100
AcDbText
  0
MTEXT
  5
2BF
330
74
100
AcDbEntity
  8
1
 62
     2
100
AcDbMText
 10
-17.30941788467726
 20
31.89248948251598
 30
0.0
 40
1.8
 41
0.0
 71
     1
 72
     1
  1
ident.-No. / RI
  7
CONVERTER_11
 73
     1
 44
1.20048019207683
  0
MTEXT
  5
2C0
330
74
100
AcDbEntity
  8
1
 62
     3
100
AcDbMText
 10
-28.6094178846773
 20
18.01748948251609
 30
0.0
 40
2.5
 41
0.0
 71
     5
 72
     1
  1
DIN A4
  7
CONVERTER_11
 73
     1
 44
1.20048019207683
  0
MTEXT
  5
2C1
330
74
100
AcDbEntity
  8
1
 62
     2
100
AcDbMText
 10
-50.1094178846772
 20
22.26748948251598
 30
0.0
 40
1.8
 41
0.0
 71
     5
 72
     1
  1
check.
  7
CONVERTER_11
 73
     1
 44
1.20048019207683
  0
MTEXT
  5
2C2
330
74
100
AcDbEntity
  8
1
 62
     2
100
AcDbMText
 10
-50.1094178846772
 20
26.51748948251598
 30
0.0
 40
1.8
 41
0.0
 71
     5
 72
     1
  1
creat.
  7
CONVERTER_11
 73
     1
 44
1.20048019207683
  0
MTEXT
  5
2C3
330
74
100
AcDbEntity
  8
1
 62
     2
100
AcDbMText
 10
49.03538664207463
 20
31.89248948251598
 30
0.0
 40
1.8
 41
0.0
 71
     1
 72
     1
  1
scale
  7
CONVERTER_11
 73
     1
 44
1.20048019207683
  0
MTEXT
  5
2C4
330
74
100
AcDbEntity
  8
1
 62
     2
100
AcDbMText
 10
-126.4370156213023
 20
4.39248948251598
 30
0.0
 40
1.8
 41
0.0
 71
     8
 72
     1
  1
revision
  7
CONVERTER_11
 73
     1
 44
1.32052821128451
  0
MTEXT
  5
2C5
330
74
100
AcDbEntity
  8
1
 62
     2
100
AcDbMText
 10
-25.15941788467731
 20
29.84248948251603
 30
0.0
 40
1.8
 41
0.0
 71
     8
 72
     1
  1
name
  7
CONVERTER_11
 73
     1
 44
1.32052821128451
  0
MTEXT
  5
2C6
330
74
100
AcDbEntity
  8
1
 62
     2
100
AcDbMText
 10
-38.6594178846773
 20
29.84248948251603
 30
0.0
 40
1.8
 41
0.0
 71
     8
 72
     1
  1
date
  7
CONVERTER_11
 73
     1
 44
1.32052821128451
  0
MTEXT
  5
2C7
330
74
100
AcDbEntity
  8
1
 62
     2
100
AcDbMText
 10
-174.1646133579264
 20
4.39248948251598
 30
0.0
 40
1.8
 41
0.0
 71
     8
 72
     1
  1
RI
  7
CONVERTER_11
 73
     1
 44
1.32052821128451
  0
MTEXT
  5
2C8
330
74
100
AcDbEntity
  8
1
 62
     2
100
AcDbMText
 10
5.71577127291423
 20
31.89248948251581
 30
0.0
 40
1.8
 41
0.0
 71
     1
 72
     1
  1
material
  7
CONVERTER_11
 73
     1
 44
1.20048019207683
  0
MTEXT
  5
2C9
330
74
100
AcDbEntity
  8
1
 62
     2
100
AcDbMText
 10
-164.3146133579274
 20
4.39248948251598
 30
0.0
 40
1.8
 41
0.0
 71
     8
 72
     1
  1
date
  7
CONVERTER_11
 73
     1
 44
1.32052821128451
  0
MTEXT
  5
2CA
330
74
100
AcDbEntity
  8
1
 62
     2
100
AcDbMText
 10
-88.55941788467716
 20
4.39248948251598
 30
0.0
 40
1.8
 41
0.0
 71
     8
 72
     1
  1
name
  7
CONVERTER_11
 73
     1
 44
1.32052821128451
  0
MTEXT
  5
2CB
330
74
100
AcDbEntity
  8
1
 62
     2
100
AcDbMText
 10
-75.05941788467716
 20
4.39248948251598
 30
0.0
 40
1.8
 41
0.0
 71
     8
 72
     1
  1
check.on
  7
CONVERTER_11
 73
     1
 44
1.32052821128451
  0
MTEXT
  5
2CC
330
74
100
AcDbEntity
  8
1
 62
     2
100
AcDbMText
 10
-61.55941788467727
 20
4.39248948251598
 30
0.0
 40
1.8
 41
0.0
 71
     8
 72
     1
  1
name
  7
CONVERTER_11
 73
     1
 44
1.32052821128451
  0
TEXT
  5
2CD
330
74
100
AcDbEntity
  8
1
 62
     2
100
AcDbText
 10
-53.80941788467717
 20
4.38347226752431
 30
0.0
 40
1.8
  1
page
 41
0.9
  7
CONVERTER_11
100
AcDbText
  0
TEXT
  5
2CE
330
74
100
AcDbEntity
  8
1
 62
     2
100
AcDbText
 10
-35.6094178846773
 20
4.38347226752442
 30
0.0
 40
1.8
  1
of
 41
0.9
  7
CONVERTER_11
100
AcDbText
  0
MTEXT
  5
2D0
330
74
100
AcDbEntity
  8
1
 62
     2
100
AcDbMText
 10
12.23538664207512
 20
19.14248948251598
 30
0.0
 40
1.8
 41
0.0
 71
     1
 72
     1
  1
document-No.
  7
CONVERTER_16
 73
     1
 44
1.32052821128451
  0
MTEXT
  5
2D1
330
74
100
AcDbEntity
  8
1
 62
     2
100
AcDbMText
 10
58.15379492375354
 20
31.89248948251598
 30
0.0
 40
1.8
 41
0.0
 71
     1
 72
     1
  1
dim.var.
  7
CONVERTER_11
 73
     1
 44
1.20048019207683
  0
MTEXT
  5
2D2
330
74
100
AcDbEntity
  8
1
 62
     7
100
AcDbMText
 10
-214.7646133579263
 20
25.64248948251598
 30
0.0
 40
3.5
 41
0.0
 71
     5
 72
     1
  1
D
  7
CONVERTER_11
 73
     1
 44
1.20048019207683
  0
MTEXT
  5
2D3
330
74
100
AcDbEntity
  8
1
 62
     7
100
AcDbMText
 10
-214.7646133579263
 20
78.14248948251598
 30
0.0
 40
3.5
 41
0.0
 71
     5
 72
     1
  1
C
  7
CONVERTER_11
 73
     1
 44
1.20048019207683
  0
MTEXT
  5
2D4
330
74
100
AcDbEntity
  8
1
 62
     7
100
AcDbMText
 10
-214.7646133579263
 20
128.142489482516
 30
0.0
 40
3.5
 41
0.0
 71
     5
 72
     1
  1
B
  7
CONVERTER_11
 73
     1
 44
1.20048019207683
  0
MTEXT
  5
2D5
330
74
100
AcDbEntity
  8
1
 62
     7
100
AcDbMText
 10
-214.7646133579263
 20
180.642489482516
 30
0.0
 40
3.5
 41
0.0
 71
     5
 72
     1
  1
A
  7
CONVERTER_11
 73
     1
 44
1.20048019207683
  0
MTEXT
  5
2D6
330
74
100
AcDbEntity
  8
1
 62
     7
100
AcDbMText
 10
55.48538664207203
 20
0.64248948251598
 30
0.0
 40
3.5
 41
0.0
 71
     5
 72
     1
  1
6
  7
CONVERTER_11
 73
     1
 44
1.20048019207683
  0
MTEXT
  5
2D7
330
74
100
AcDbEntity
  8
1
 62
     7
100
AcDbMText
 10
6.23538664207275
 20
0.64248948251598
 30
0.0
 40
3.5
 41
0.0
 71
     5
 72
     1
  1
5
  7
CONVERTER_11
 73
     1
 44
1.20048019207683
  0
MTEXT
  5
2D8
330
74
100
AcDbEntity
  8
1
 62
     7
100
AcDbMText
 10
-43.7646133579273
 20
0.64248948251598
 30
0.0
 40
3.5
 41
0.0
 71
     5
 72
     1
  1
4
  7
CONVERTER_11
 73
     1
 44
1.20048019207683
  0
MTEXT
  5
2D9
330
74
100
AcDbEntity
  8
1
 62
     7
100
AcDbMText
 10
-93.76461335792726
 20
0.64248948251598
 30
0.0
 40
3.5
 41
0.0
 71
     5
 72
     1
  1
3
  7
CONVERTER_11
 73
     1
 44
1.20048019207683
  0
MTEXT
  5
2DA
330
74
100
AcDbEntity
  8
1
 62
     7
100
AcDbMText
 10
-143.7646133579273
 20
0.64248948251598
 30
0.0
 40
3.5
 41
0.0
 71
     5
 72
     1
  1
2
  7
CONVERTER_11
 73
     1
 44
1.20048019207683
  0
MTEXT
  5
2DB
330
74
100
AcDbEntity
  8
1
 62
     7
100
AcDbMText
 10
-193.0146133579269
 20
0.64248948251598
 30
0.0
 40
3.5
 41
0.0
 71
     5
 72
     1
  1
1
  7
CONVERTER_11
 73
     1
 44
1.20048019207683
  0
MTEXT
  5
2DC
330
74
100
AcDbEntity
  8
1
 62
     3
100
AcDbMText
 10
-39.4064357330673
 20
189.9337976378148
 30
0.0
 40
1.8
 41
0.0
 71
     7
 72
     1
  3
The copying, distribution and utilistion of this document as well as the communication\Pof the contents to others without expressed authorization is prohibited according to\P\U+00a718 UWG German Law. Offenders will be held liable for the payment of 
  1
damages\Paccording to (\U+00a719 UWG German Law). All rights reserved, in particular the right to\Pcarry out patent, utility model or ornamental design registrations.\PFlachsmarktstra\U+00dfe 8  D-32825 Blomberg
  7
CONVERTER_11
 73
     1
 44
0.99639855942377
  0
MTEXT
  5
2DD
330
74
100
AcDbEntity
  8
1
 62
     3
100
AcDbMText
 10
-212.2595455718554
 20
189.9337976378148
 30
0.0
 40
1.8
 41
0.0
 71
     7
 72
     1
  3
Weitergabe sowie Vervielf\U+00e4ltigung dieses Dokuments, Verwertung und\PMitteilung seines Inhalts gem\U+00e4\U+00df \U+00a718 UWG verboten, soweit nicht aus-\Pdr\U+00fccklich gestattet. Zuwiderhandlungen verpflichten zu Schadenersatz\P(\U+00a719 U
  1
WG). Alle Rechte vorbehalten, insbesondere das Recht, Patent-,\PGebrauchsmuster- oder Geschmacksmusteranmeldungen durchzuf\U+00fchren.\PPhoenix Contact GmbH & Co. KG
  7
CONVERTER_11
 73
     1
 44
0.99639855942377
  0
MTEXT
  5
2DE
330
74
100
AcDbEntity
  8
1
 62
     7
100
AcDbMText
 10
77.23538664207183
 20
25.64248948251598
 30
0.0
 40
3.5
 41
0.0
 71
     5
 72
     1
  1
D
  7
CONVERTER_11
 73
     1
 44
1.20048019207683
  0
MTEXT
  5
2DF
330
74
100
AcDbEntity
  8
1
 62
     7
100
AcDbMText
 10
77.23538664207183
 20
128.1424894825179
 30
0.0
 40
3.5
 41
0.0
 71
     5
 72
     1
  1
B
  7
CONVERTER_11
 73
     1
 44
1.20048019207683
  0
MTEXT
  5
2E0
330
74
100
AcDbEntity
  8
1
 62
     7
100
AcDbMText
 10
77.23538664207183
 20
180.642489482516
 30
0.0
 40
3.5
 41
0.0
 71
     5
 72
     1
  1
A
  7
CONVERTER_11
 73
     1
 44
1.20048019207683
  0
MTEXT
  5
2E1
330
74
100
AcDbEntity
  8
1
 62
     7
100
AcDbMText
 10
77.23538664207183
 20
78.14248948251792
 30
0.0
 40
3.5
 41
0.0
 71
     5
 72
     1
  1
C
  7
CONVERTER_11
 73
     1
 44
1.20048019207683
  0
MTEXT
  5
2E2
330
74
100
AcDbEntity
  8
1
 62
     2
100
AcDbMText
 10
30.73538664207474
 20
19.14248948251598
 30
0.0
 40
1.8
 41
0.0
 71
     1
 72
     1
  1
surface in um
  7
CONVERTER_11
 73
     1
 44
1.32052821128451
  0
MTEXT
  5
2E3
330
74
100
AcDbEntity
  8
1
 62
     2
100
AcDbMText
 10
12.23538664207512
 20
23.39248948251598
 30
0.0
 40
1.8
 41
0.0
 71
     1
 72
     1
  1
part-rev.
  7
CONVERTER_12
 73
     1
 44
1.20048019207683
  0
MTEXT
  5
2E4
330
74
100
AcDbEntity
  8
1
 62
     2
100
AcDbMText
 10
-174.1646133579264
 20
30.76748948251598
 30
0.0
 40
2.0
 41
0.0
 71
     5
 72
     1
  1
 
  7
CONVERTER_11
 73
     1
 44
1.20048019207683
  0
MTEXT
  5
2E5
330
74
100
AcDbEntity
  8
1
 62
     2
100
AcDbMText
 10
-174.1646133579264
 20
26.51748948251598
 30
0.0
 40
2.0
 41
0.0
 71
     5
 72
     1
  1
 
  7
CONVERTER_11
 73
     1
 44
1.20048019207683
  0
MTEXT
  5
2E6
330
74
100
AcDbEntity
  8
1
 62
     2
100
AcDbMText
 10
-174.1646133579264
 20
22.26748948251598
 30
0.0
 40
2.0
 41
0.0
 71
     5
 72
     1
  1
 
  7
CONVERTER_11
 73
     1
 44
1.20048019207683
  0
MTEXT
  5
2E7
330
74
100
AcDbEntity
  8
1
 62
     2
100
AcDbMText
 10
-174.1646133579264
 20
18.01748948251598
 30
0.0
 40
2.0
 41
0.0
 71
     5
 72
     1
  1
 
  7
CONVERTER_11
 73
     1
 44
1.20048019207683
  0
MTEXT
  5
2E8
330
74
100
AcDbEntity
  8
1
 62
     2
100
AcDbMText
 10
-174.1646133579264
 20
13.76748948251598
 30
0.0
 40
2.0
 41
0.0
 71
     5
 72
     1
  1
 
  7
CONVERTER_11
 73
     1
 44
1.20048019207683
  0
MTEXT
  5
2E9
330
74
100
AcDbEntity
  8
1
 62
     2
100
AcDbMText
 10
-174.1646133579264
 20
9.51748948251609
 30
0.0
 40
2.0
 41
0.0
 71
     5
 72
     1
  1
 
  7
CONVERTER_11
 73
     1
 44
1.20048019207683
  0
MTEXT
  5
2EA
330
74
100
AcDbEntity
  8
1
 62
     2
100
AcDbMText
 10
-164.3146133579274
 20
9.51748948251609
 30
0.0
 40
2.0
 41
0.0
 71
     5
 72
     1
  1
 
  7
CONVERTER_11
 73
     1
 44
1.20048019207683
  0
MTEXT
  5
2EB
330
74
100
AcDbEntity
  8
1
 62
     2
100
AcDbMText
 10
-164.3146133579274
 20
13.76748948251598
 30
0.0
 40
2.0
 41
0.0
 71
     5
 72
     1
  1
 
  7
CONVERTER_11
 73
     1
 44
1.20048019207683
  0
MTEXT
  5
2EC
330
74
100
AcDbEntity
  8
1
 62
     2
100
AcDbMText
 10
-164.3146133579274
 20
18.01748948251598
 30
0.0
 40
2.0
 41
0.0
 71
     5
 72
     1
  1
 
  7
CONVERTER_11
 73
     1
 44
1.20048019207683
  0
MTEXT
  5
2ED
330
74
100
AcDbEntity
  8
1
 62
     2
100
AcDbMText
 10
-164.3146133579274
 20
22.26748948251598
 30
0.0
 40
2.0
 41
0.0
 71
     5
 72
     1
  1
 
  7
CONVERTER_11
 73
     1
 44
1.20048019207683
  0
MTEXT
  5
2EE
330
74
100
AcDbEntity
  8
1
 62
     2
100
AcDbMText
 10
-164.3146133579274
 20
26.51748948251598
 30
0.0
 40
2.0
 41
0.0
 71
     5
 72
     1
  1
 
  7
CONVERTER_11
 73
     1
 44
1.20048019207683
  0
MTEXT
  5
2EF
330
74
100
AcDbEntity
  8
1
 62
     2
100
AcDbMText
 10
-164.3146133579274
 20
30.76748948251598
 30
0.0
 40
2.0
 41
0.0
 71
     5
 72
     1
  1
 
  7
CONVERTER_11
 73
     1
 44
1.20048019207683
  0
MTEXT
  5
2F0
330
74
100
AcDbEntity
  8
1
 62
     2
100
AcDbMText
 10
-88.55941788467716
 20
9.51748948251609
 30
0.0
 40
2.0
 41
0.0
 71
     5
 72
     1
  1
 
  7
CONVERTER_11
 73
     1
 44
1.20048019207683
  0
MTEXT
  5
2F1
330
74
100
AcDbEntity
  8
1
 62
     2
100
AcDbMText
 10
-88.55941788467716
 20
13.76748948251598
 30
0.0
 40
2.0
 41
0.0
 71
     5
 72
     1
  1
 
  7
CONVERTER_11
 73
     1
 44
1.20048019207683
  0
MTEXT
  5
2F2
330
74
100
AcDbEntity
  8
1
 62
     2
100
AcDbMText
 10
-88.55941788467716
 20
18.01748948251598
 30
0.0
 40
2.0
 41
0.0
 71
     5
 72
     1
  1
 
  7
CONVERTER_11
 73
     1
 44
1.20048019207683
  0
MTEXT
  5
2F3
330
74
100
AcDbEntity
  8
1
 62
     2
100
AcDbMText
 10
-88.55941788467716
 20
22.26748948251598
 30
0.0
 40
2.0
 41
0.0
 71
     5
 72
     1
  1
 
  7
CONVERTER_11
 73
     1
 44
1.20048019207683
  0
MTEXT
  5
2F4
330
74
100
AcDbEntity
  8
1
 62
     2
100
AcDbMText
 10
-88.55941788467716
 20
26.51748948251598
 30
0.0
 40
2.0
 41
0.0
 71
     5
 72
     1
  1
 
  7
CONVERTER_11
 73
     1
 44
1.20048019207683
  0
MTEXT
  5
2F5
330
74
100
AcDbEntity
  8
1
 62
     2
100
AcDbMText
 10
-88.55941788467716
 20
30.76748948251598
 30
0.0
 40
2.0
 41
0.0
 71
     5
 72
     1
  1
 
  7
CONVERTER_11
 73
     1
 44
1.20048019207683
  0
MTEXT
  5
2F6
330
74
100
AcDbEntity
  8
1
 62
     2
100
AcDbMText
 10
-75.05941788467726
 20
30.76748948251598
 30
0.0
 40
2.0
 41
0.0
 71
     5
 72
     1
  1
 
  7
CONVERTER_11
 73
     1
 44
1.20048019207683
  0
MTEXT
  5
2F7
330
74
100
AcDbEntity
  8
1
 62
     2
100
AcDbMText
 10
-75.05941788467726
 20
26.51748948251598
 30
0.0
 40
2.0
 41
0.0
 71
     5
 72
     1
  1
 
  7
CONVERTER_11
 73
     1
 44
1.20048019207683
  0
MTEXT
  5
2F8
330
74
100
AcDbEntity
  8
1
 62
     2
100
AcDbMText
 10
-75.05941788467726
 20
22.26748948251598
 30
0.0
 40
2.0
 41
0.0
 71
     5
 72
     1
  1
 
  7
CONVERTER_11
 73
     1
 44
1.20048019207683
  0
MTEXT
  5
2F9
330
74
100
AcDbEntity
  8
1
 62
     2
100
AcDbMText
 10
-75.05941788467726
 20
18.01748948251598
 30
0.0
 40
2.0
 41
0.0
 71
     5
 72
     1
  1
 
  7
CONVERTER_11
 73
     1
 44
1.20048019207683
  0
MTEXT
  5
2FA
330
74
100
AcDbEntity
  8
1
 62
     2
100
AcDbMText
 10
-75.05941788467726
 20
13.76748948251598
 30
0.0
 40
2.0
 41
0.0
 71
     5
 72
     1
  1
 
  7
CONVERTER_11
 73
     1
 44
1.20048019207683
  0
MTEXT
  5
2FB
330
74
100
AcDbEntity
  8
1
 62
     2
100
AcDbMText
 10
-75.05941788467726
 20
9.51748948251609
 30
0.0
 40
2.0
 41
0.0
 71
     5
 72
     1
  1
 
  7
CONVERTER_11
 73
     1
 44
1.20048019207683
  0
MTEXT
  5
2FC
330
74
100
AcDbEntity
  8
1
 62
     2
100
AcDbMText
 10
-61.55941788467725
 20
30.76748948251598
 30
0.0
 40
2.0
 41
0.0
 71
     5
 72
     1
  1
 
  7
CONVERTER_11
 73
     1
 44
1.20048019207683
  0
MTEXT
  5
2FD
330
74
100
AcDbEntity
  8
1
 62
     2
100
AcDbMText
 10
-61.55941788467725
 20
26.51748948251598
 30
0.0
 40
2.0
 41
0.0
 71
     5
 72
     1
  1
 
  7
CONVERTER_11
 73
     1
 44
1.20048019207683
  0
MTEXT
  5
2FE
330
74
100
AcDbEntity
  8
1
 62
     2
100
AcDbMText
 10
-61.55941788467725
 20
22.26748948251598
 30
0.0
 40
2.0
 41
0.0
 71
     5
 72
     1
  1
 
  7
CONVERTER_11
 73
     1
 44
1.20048019207683
  0
MTEXT
  5
2FF
330
74
100
AcDbEntity
  8
1
 62
     2
100
AcDbMText
 10
-61.55941788467725
 20
18.01748948251598
 30
0.0
 40
2.0
 41
0.0
 71
     5
 72
     1
  1
 
  7
CONVERTER_11
 73
     1
 44
1.20048019207683
  0
MTEXT
  5
300
330
74
100
AcDbEntity
  8
1
 62
     2
100
AcDbMText
 10
-61.55941788467725
 20
13.76748948251598
 30
0.0
 40
2.0
 41
0.0
 71
     5
 72
     1
  1
 
  7
CONVERTER_11
 73
     1
 44
1.20048019207683
  0
MTEXT
  5
301
330
74
100
AcDbEntity
  8
1
 62
     2
100
AcDbMText
 10
-61.55941788467725
 20
9.51748948251609
 30
0.0
 40
2.0
 41
0.0
 71
     5
 72
     1
  1
 
  7
CONVERTER_11
 73
     1
 44
1.20048019207683
  0
MTEXT
  5
303
330
74
100
AcDbEntity
  8
1
 62
     2
100
AcDbMText
 10
-156.5646133579274
 20
30.76748948251598
 30
0.0
 40
2.0
 41
0.0
 71
     4
 72
     1
  1
 
  7
CONVERTER_17
 73
     1
 44
1.20048019207683
  0
MTEXT
  5
304
330
74
100
AcDbEntity
  8
1
 62
     2
100
AcDbMText
 10
-156.5646133579274
 20
26.51748948251598
 30
0.0
 40
2.0
 41
0.0
 71
     4
 72
     1
  1
 
  7
CONVERTER_17
 73
     1
 44
1.20048019207683
  0
MTEXT
  5
305
330
74
100
AcDbEntity
  8
1
 62
     2
100
AcDbMText
 10
-156.5646133579274
 20
22.26748948251598
 30
0.0
 40
2.0
 41
0.0
 71
     4
 72
     1
  1
 
  7
CONVERTER_17
 73
     1
 44
1.20048019207683
  0
MTEXT
  5
306
330
74
100
AcDbEntity
  8
1
 62
     2
100
AcDbMText
 10
-156.5646133579274
 20
18.01748948251598
 30
0.0
 40
2.0
 41
0.0
 71
     4
 72
     1
  1
 
  7
CONVERTER_17
 73
     1
 44
1.20048019207683
  0
MTEXT
  5
307
330
74
100
AcDbEntity
  8
1
 62
     2
100
AcDbMText
 10
-156.5646133579274
 20
13.76748948251598
 30
0.0
 40
2.0
 41
0.0
 71
     4
 72
     1
  1
 
  7
CONVERTER_17
 73
     1
 44
1.20048019207683
  0
MTEXT
  5
308
330
74
100
AcDbEntity
  8
1
 62
     2
100
AcDbMText
 10
-156.5646133579274
 20
9.51748948251609
 30
0.0
 40
2.0
 41
0.0
 71
     4
 72
     1
  1
 
  7
CONVERTER_17
 73
     1
 44
1.20048019207683
  0
TEXT
  5
309
330
74
100
AcDbEntity
  8
1
 62
     3
100
AcDbText
 10
-17.30941788467735
 20
42.18726105612024
 30
0.0
 40
2.5
  1
 
 41
0.72
  7
CONVERTER_12
100
AcDbText
  0
TEXT
  5
30A
330
74
100
AcDbEntity
  8
1
 62
     3
100
AcDbText
 10
-17.30941788467735
 20
38.68726105612024
 30
0.0
 40
2.5
  1
 
 41
0.72
  7
CONVERTER_12
100
AcDbText
  0
TEXT
  5
30B
330
74
100
AcDbEntity
  8
1
 62
     3
100
AcDbText
 10
-17.30941788467735
 20
35.18726105612024
 30
0.0
 40
2.5
  1
 
 41
0.72
  7
CONVERTER_12
100
AcDbText
  0
MTEXT
  5
30D
330
74
100
AcDbEntity
  8
1
 62
     3
100
AcDbMText
 10
-8.07718106656237
 20
22.26748948251597
 30
0.0
 40
2.5
 41
0.0
 71
     4
 72
     1
  1
MIGRATION_1
  7
CONVERTER_18
 73
     1
 44
1.20048019207683
  0
MTEXT
  5
30E
330
74
100
AcDbEntity
  8
1
 62
     2
100
AcDbMText
 10
-17.30941788467726
 20
22.46748948251597
 30
0.0
 40
1.4
 41
0.0
 71
     4
 72
     1
  1
SAP\Pchange-No.
  7
CONVERTER_18
 73
     1
 44
0.66026410564226
  0
HATCH
  5
30F
330
74
100
AcDbEntity
  8
1
  6
Continuous
 62
     2
100
AcDbHatch
 10
0.0
 20
0.0
 30
0.0
210
0.0
220
0.0
230
1.0
  2
_USER
 70
     0
 71
     1
 91
        1
 92
        1
 93
       12
 72
     1
 10
-37.04949994008126
 20
11.76867995869908
 11
-38.03527903278081
 21
11.76867995869909
 72
     1
 10
-38.03527903278081
 20
11.76867995869909
 11
-38.03527903278081
 21
12.70609492468565
 72
     1
 10
-38.03527903278081
 20
12.70609492468565
 11
-38.9027646343572
 21
12.70609492468564
 72
     1
 10
-38.9027646343572
 20
12.70609492468564
 11
-38.9027646343572
 21
11.76867995869908
 72
     1
 10
-38.9027646343572
 20
11.76867995869908
 11
-39.88854372705686
 21
11.76867995869908
 72
     1
 10
-39.88854372705686
 20
11.76867995869908
 11
-39.88854372705686
 21
14.29248948250991
 72
     1
 10
-39.88854372705686
 20
14.29248948250991
 11
-38.9027646343572
 21
14.29248948250991
 72
     1
 10
-38.9027646343572
 20
14.29248948250991
 11
-38.9027646343572
 21
13.40915614917556
 72
     1
 10
-38.9027646343572
 20
13.40915614917556
 11
-38.03527903278081
 21
13.40915614917556
 72
     1
 10
-38.03527903278081
 20
13.40915614917556
 11
-38.03527903278081
 21
14.29248948250991
 72
     1
 10
-38.03527903278081
 20
14.29248948250991
 11
-37.04949994008126
 21
14.29248948250991
 72
     1
 10
-37.04949994008126
 20
14.29248948250991
 11
-37.04949994008126
 21
11.76867995869908
 97
       12
330
246
330
247
330
231
330
230
330
22F
330
243
330
22E
330
244
330
245
330
22D
330
22C
330
22B
 75
     1
 76
     0
 52
45.0
 41
0.1
 77
     0
 78
     1
 53
45.0
 43
0.0
 44
0.0
 45
-0.0707106781186548
 46
0.0707106781186548
 79
     0
 98
        1
 10
0.0
 20
0.0
  0
HATCH
  5
310
330
74
100
AcDbEntity
  8
1
  6
Continuous
 62
     2
100
AcDbHatch
 10
0.0
 20
0.0
 30
0.0
210
0.0
220
0.0
230
1.0
  2
_USER
 70
     0
 71
     1
 91
        1
 92
        1
 93
       12
 72
     1
 10
-37.04949994008126
 20
11.76867995869908
 11
-38.03527903278081
 21
11.76867995869909
 72
     1
 10
-38.03527903278081
 20
11.76867995869909
 11
-38.03527903278081
 21
12.70609492468565
 72
     1
 10
-38.03527903278081
 20
12.70609492468565
 11
-38.9027646343572
 21
12.70609492468564
 72
     1
 10
-38.9027646343572
 20
12.70609492468564
 11
-38.9027646343572
 21
11.76867995869908
 72
     1
 10
-38.9027646343572
 20
11.76867995869908
 11
-39.88854372705686
 21
11.76867995869908
 72
     1
 10
-39.88854372705686
 20
11.76867995869908
 11
-39.88854372705686
 21
14.29248948250991
 72
     1
 10
-39.88854372705686
 20
14.29248948250991
 11
-38.9027646343572
 21
14.29248948250991
 72
     1
 10
-38.9027646343572
 20
14.29248948250991
 11
-38.9027646343572
 21
13.40915614917556
 72
     1
 10
-38.9027646343572
 20
13.40915614917556
 11
-38.03527903278081
 21
13.40915614917556
 72
     1
 10
-38.03527903278081
 20
13.40915614917556
 11
-38.03527903278081
 21
14.29248948250991
 72
     1
 10
-38.03527903278081
 20
14.29248948250991
 11
-37.04949994008126
 21
14.29248948250991
 72
     1
 10
-37.04949994008126
 20
14.29248948250991
 11
-37.04949994008126
 21
11.76867995869908
 97
       12
330
246
330
247
330
231
330
230
330
22F
330
243
330
22E
330
244
330
245
330
22D
330
22C
330
22B
 75
     1
 76
     0
 52
45.0
 41
0.1
 77
     0
 78
     1
 53
45.0
 43
0.0
 44
0.0
 45
-0.0707106781186548
 46
0.0707106781186548
 79
     0
 98
        1
 10
0.0
 20
0.0
  0
HATCH
  5
311
330
74
100
AcDbEntity
  8
1
  6
Continuous
 62
     2
100
AcDbHatch
 10
0.0
 20
0.0
 30
0.0
210
0.0
220
0.0
230
1.0
  2
_USER
 70
     0
 71
     1
 91
        1
 92
        1
 93
       10
 72
     1
 10
-35.19635998207441
 20
10.43466635327066
 11
-36.22157023848178
 21
11.51629900633277
 72
     1
 10
-36.22157023848178
 20
11.51629900633277
 11
-37.20734933118223
 21
11.51629900633277
 72
     1
 10
-37.20734933118223
 20
11.51629900633277
 11
-37.20734933118223
 21
8.992489482521927
 72
     1
 10
-37.20734933118223
 20
8.992489482521927
 11
-36.22157023848178
 21
8.992489482521941
 72
     1
 10
-36.22157023848178
 20
8.992489482521941
 11
-36.22157023848178
 21
10.07412213558358
 72
     1
 10
-36.22157023848178
 20
10.07412213558358
 11
-35.19635998207441
 21
8.992489482521927
 72
     1
 10
-35.19635998207441
 20
8.992489482521927
 11
-34.21058088937485
 21
8.992489482521927
 72
     1
 10
-34.21058088937485
 20
8.992489482521927
 11
-34.21058088937485
 21
11.51629900633277
 72
     1
 10
-34.21058088937485
 20
11.51629900633277
 11
-35.19635998207441
 21
11.51629900633277
 72
     1
 10
-35.19635998207441
 20
11.51629900633277
 11
-35.19635998207441
 21
10.43466635327066
 97
       10
330
254
330
224
330
223
330
226
330
24F
330
250
330
225
330
251
330
252
330
253
 75
     1
 76
     0
 52
45.0
 41
0.1
 77
     0
 78
     1
 53
45.0
 43
0.0
 44
0.0
 45
-0.0707106781186548
 46
0.0707106781186548
 79
     0
 98
        1
 10
0.0
 20
0.0
  0
HATCH
  5
312
330
74
100
AcDbEntity
  8
1
  6
Continuous
 62
     2
100
AcDbHatch
 10
0.0
 20
0.0
 30
0.0
210
0.0
220
0.0
230
1.0
  2
_USER
 70
     0
 71
     1
 91
        1
 92
        1
 93
       10
 72
     1
 10
-35.19635998207441
 20
10.43466635327066
 11
-36.22157023848178
 21
11.51629900633277
 72
     1
 10
-36.22157023848178
 20
11.51629900633277
 11
-37.20734933118223
 21
11.51629900633277
 72
     1
 10
-37.20734933118223
 20
11.51629900633277
 11
-37.20734933118223
 21
8.992489482521927
 72
     1
 10
-37.20734933118223
 20
8.992489482521927
 11
-36.22157023848178
 21
8.992489482521941
 72
     1
 10
-36.22157023848178
 20
8.992489482521941
 11
-36.22157023848178
 21
10.07412213558358
 72
     1
 10
-36.22157023848178
 20
10.07412213558358
 11
-35.19635998207441
 21
8.992489482521927
 72
     1
 10
-35.19635998207441
 20
8.992489482521927
 11
-34.21058088937485
 21
8.992489482521927
 72
     1
 10
-34.21058088937485
 20
8.992489482521927
 11
-34.21058088937485
 21
11.51629900633277
 72
     1
 10
-34.21058088937485
 20
11.51629900633277
 11
-35.19635998207441
 21
11.51629900633277
 72
     1
 10
-35.19635998207441
 20
11.51629900633277
 11
-35.19635998207441
 21
10.43466635327066
 97
       10
330
254
330
224
330
223
330
226
330
24F
330
250
330
225
330
251
330
252
330
253
 75
     1
 76
     0
 52
45.0
 41
0.1
 77
     0
 78
     1
 53
45.0
 43
0.0
 44
0.0
 45
-0.0707106781186548
 46
0.0707106781186548
 79
     0
 98
        1
 10
0.0
 20
0.0
  0
HATCH
  5
313
330
74
100
AcDbEntity
  8
1
  6
Continuous
 62
     2
100
AcDbHatch
 10
0.0
 20
0.0
 30
0.0
210
0.0
220
0.0
230
1.0
  2
_USER
 70
     0
 71
     1
 91
        1
 92
        1
 93
       10
 72
     1
 10
-30.85880723792587
 20
13.21085682944781
 11
-31.88401749433416
 21
14.29248948250991
 72
     1
 10
-31.88401749433416
 20
14.29248948250991
 11
-32.8697965870337
 21
14.29248948250991
 72
     1
 10
-32.8697965870337
 20
14.29248948250991
 11
-32.8697965870337
 21
11.76867995869908
 72
     1
 10
-32.8697965870337
 20
11.76867995869908
 11
-31.88401749433416
 21
11.76867995869908
 72
     1
 10
-31.88401749433416
 20
11.76867995869908
 11
-31.88401749433416
 21
12.85031261176075
 72
     1
 10
-31.88401749433416
 20
12.85031261176075
 11
-30.85880723792587
 21
11.76867995869908
 72
     1
 10
-30.85880723792587
 20
11.76867995869908
 11
-29.87302814522622
 21
11.76867995869908
 72
     1
 10
-29.87302814522622
 20
11.76867995869908
 11
-29.87302814522622
 21
14.29248948250991
 72
     1
 10
-29.87302814522622
 20
14.29248948250991
 11
-30.85880723792587
 21
14.29248948250991
 72
     1
 10
-30.85880723792587
 20
14.29248948250991
 11
-30.85880723792587
 21
13.21085682944781
 97
       10
330
259
330
221
330
220
330
25A
330
21F
330
255
330
256
330
257
330
258
330
222
 75
     1
 76
     0
 52
45.0
 41
0.1
 77
     0
 78
     1
 53
45.0
 43
0.0
 44
0.0
 45
-0.0707106781186548
 46
0.0707106781186548
 79
     0
 98
        1
 10
0.0
 20
0.0
  0
HATCH
  5
314
330
74
100
AcDbEntity
  8
1
  6
Continuous
 62
     2
100
AcDbHatch
 10
0.0
 20
0.0
 30
0.0
210
0.0
220
0.0
230
1.0
  2
_USER
 70
     0
 71
     1
 91
        1
 92
        1
 93
       10
 72
     1
 10
-30.85880723792587
 20
13.21085682944781
 11
-31.88401749433416
 21
14.29248948250991
 72
     1
 10
-31.88401749433416
 20
14.29248948250991
 11
-32.8697965870337
 21
14.29248948250991
 72
     1
 10
-32.8697965870337
 20
14.29248948250991
 11
-32.8697965870337
 21
11.76867995869908
 72
     1
 10
-32.8697965870337
 20
11.76867995869908
 11
-31.88401749433416
 21
11.76867995869908
 72
     1
 10
-31.88401749433416
 20
11.76867995869908
 11
-31.88401749433416
 21
12.85031261176075
 72
     1
 10
-31.88401749433416
 20
12.85031261176075
 11
-30.85880723792587
 21
11.76867995869908
 72
     1
 10
-30.85880723792587
 20
11.76867995869908
 11
-29.87302814522622
 21
11.76867995869908
 72
     1
 10
-29.87302814522622
 20
11.76867995869908
 11
-29.87302814522622
 21
14.29248948250991
 72
     1
 10
-29.87302814522622
 20
14.29248948250991
 11
-30.85880723792587
 21
14.29248948250991
 72
     1
 10
-30.85880723792587
 20
14.29248948250991
 11
-30.85880723792587
 21
13.21085682944781
 97
       10
330
259
330
221
330
220
330
25A
330
21F
330
255
330
256
330
257
330
258
330
222
 75
     1
 76
     0
 52
45.0
 41
0.1
 77
     0
 78
     1
 53
45.0
 43
0.0
 44
0.0
 45
-0.0707106781186548
 46
0.0707106781186548
 79
     0
 98
        1
 10
0.0
 20
0.0
  0
HATCH
  5
315
330
74
100
AcDbEntity
  8
1
  6
Continuous
 62
     2
100
AcDbHatch
 10
0.0
 20
0.0
 30
0.0
210
0.0
220
0.0
230
1.0
  2
_USER
 70
     0
 71
     1
 91
        1
 92
        1
 93
        8
 72
     1
 10
-31.76584873947918
 20
11.51629900633277
 11
-34.09228739825079
 21
11.51629900633277
 72
     1
 10
-34.09228739825079
 20
11.51629900633277
 11
-34.09228739825079
 21
10.86731941449505
 72
     1
 10
-34.09228739825079
 20
10.86731941449505
 11
-33.42195761521391
 21
10.86731941449505
 72
     1
 10
-33.42195761521391
 20
10.86731941449505
 11
-33.42195761521391
 21
8.992489482521927
 72
     1
 10
-33.42195761521391
 20
8.992489482521927
 11
-32.43617852251435
 21
8.992489482521927
 72
     1
 10
-32.43617852251435
 20
8.992489482521927
 11
-32.43617852251435
 21
10.86731941449504
 72
     1
 10
-32.43617852251435
 20
10.86731941449504
 11
-31.76584873947918
 21
10.86731941449504
 72
     1
 10
-31.76584873947918
 20
10.86731941449504
 11
-31.76584873947918
 21
11.51629900633277
 97
        8
330
21B
330
25B
330
21A
330
25C
330
25D
330
21E
330
21D
330
21C
 75
     1
 76
     0
 52
45.0
 41
0.1
 77
     0
 78
     1
 53
45.0
 43
0.0
 44
0.0
 45
-0.0707106781186548
 46
0.0707106781186548
 79
     0
 98
        1
 10
0.0
 20
0.0
  0
HATCH
  5
316
330
74
100
AcDbEntity
  8
1
  6
Continuous
 62
     2
100
AcDbHatch
 10
0.0
 20
0.0
 30
0.0
210
0.0
220
0.0
230
1.0
  2
_USER
 70
     0
 71
     1
 91
        1
 92
        1
 93
        8
 72
     1
 10
-31.76584873947918
 20
11.51629900633277
 11
-34.09228739825079
 21
11.51629900633277
 72
     1
 10
-34.09228739825079
 20
11.51629900633277
 11
-34.09228739825079
 21
10.86731941449505
 72
     1
 10
-34.09228739825079
 20
10.86731941449505
 11
-33.42195761521391
 21
10.86731941449505
 72
     1
 10
-33.42195761521391
 20
10.86731941449505
 11
-33.42195761521391
 21
8.992489482521927
 72
     1
 10
-33.42195761521391
 20
8.992489482521927
 11
-32.43617852251435
 21
8.992489482521927
 72
     1
 10
-32.43617852251435
 20
8.992489482521927
 11
-32.43617852251435
 21
10.86731941449504
 72
     1
 10
-32.43617852251435
 20
10.86731941449504
 11
-31.76584873947918
 21
10.86731941449504
 72
     1
 10
-31.76584873947918
 20
10.86731941449504
 11
-31.76584873947918
 21
11.51629900633277
 97
        8
330
21B
330
25B
330
21A
330
25C
330
25D
330
21E
330
21D
330
21C
 75
     1
 76
     0
 52
45.0
 41
0.1
 77
     0
 78
     1
 53
45.0
 43
0.0
 44
0.0
 45
-0.0707106781186548
 46
0.0707106781186548
 79
     0
 98
        1
 10
0.0
 20
0.0
  0
HATCH
  5
317
330
74
100
AcDbEntity
  8
1
  6
Continuous
 62
     2
100
AcDbHatch
 10
0.0
 20
0.0
 30
0.0
210
0.0
220
0.0
230
1.0
  2
_USER
 70
     0
 71
     1
 91
        2
 92
        1
 93
        8
 72
     1
 10
-29.99855332134116
 20
8.992489482521941
 11
-30.17333022504016
 21
9.439564312454062
 72
     1
 10
-30.17333022504016
 20
9.439564312454062
 11
-31.1092323545227
 21
9.439564312454062
 72
     1
 10
-31.1092323545227
 20
9.439564312454062
 11
-31.28400925822172
 21
8.992489482521927
 72
     1
 10
-31.28400925822172
 20
8.992489482521927
 11
-32.30921951462909
 21
8.992489482521927
 72
     1
 10
-32.30921951462909
 20
8.992489482521927
 11
-31.15388641798512
 21
11.51629900633277
 72
     1
 10
-31.15388641798512
 20
11.51629900633277
 11
-30.12867616157786
 21
11.51629900633277
 72
     1
 10
-30.12867616157786
 20
11.51629900633277
 11
-28.97334306493297
 21
8.992489482521941
 72
     1
 10
-28.97334306493297
 20
8.992489482521941
 11
-29.99855332134116
 21
8.992489482521941
 97
        8
330
25F
330
260
330
217
330
261
330
216
330
219
330
25E
330
218
 92
       16
 93
        3
 72
     1
 10
-30.88935173374166
 20
10.00201329204626
 11
-30.64128128978103
 21
10.6365711151758
 72
     1
 10
-30.64128128978103
 20
10.6365711151758
 11
-30.39321084582224
 21
10.00201329204626
 72
     1
 10
-30.39321084582224
 20
10.00201329204626
 11
-30.88935173374166
 21
10.00201329204626
 97
        3
330
215
330
263
330
262
 75
     1
 76
     0
 52
45.0
 41
0.1
 77
     0
 78
     1
 53
45.0
 43
0.0
 44
0.0
 45
-0.0707106781186548
 46
0.0707106781186548
 79
     0
 98
        1
 10
0.0
 20
0.0
  0
HATCH
  5
318
330
74
100
AcDbEntity
  8
1
  6
Continuous
 62
     2
100
AcDbHatch
 10
0.0
 20
0.0
 30
0.0
210
0.0
220
0.0
230
1.0
  2
_USER
 70
     0
 71
     1
 91
        2
 92
        1
 93
        8
 72
     1
 10
-29.99855332134116
 20
8.992489482521941
 11
-30.17333022504016
 21
9.439564312454062
 72
     1
 10
-30.17333022504016
 20
9.439564312454062
 11
-31.1092323545227
 21
9.439564312454062
 72
     1
 10
-31.1092323545227
 20
9.439564312454062
 11
-31.28400925822172
 21
8.992489482521927
 72
     1
 10
-31.28400925822172
 20
8.992489482521927
 11
-32.30921951462909
 21
8.992489482521927
 72
     1
 10
-32.30921951462909
 20
8.992489482521927
 11
-31.15388641798512
 21
11.51629900633277
 72
     1
 10
-31.15388641798512
 20
11.51629900633277
 11
-30.12867616157786
 21
11.51629900633277
 72
     1
 10
-30.12867616157786
 20
11.51629900633277
 11
-28.97334306493297
 21
8.992489482521941
 72
     1
 10
-28.97334306493297
 20
8.992489482521941
 11
-29.99855332134116
 21
8.992489482521941
 97
        8
330
25F
330
260
330
217
330
261
330
216
330
219
330
25E
330
218
 92
       16
 93
        3
 72
     1
 10
-30.88935173374166
 20
10.00201329204626
 11
-30.64128128978103
 21
10.6365711151758
 72
     1
 10
-30.64128128978103
 20
10.6365711151758
 11
-30.39321084582224
 21
10.00201329204626
 72
     1
 10
-30.39321084582224
 20
10.00201329204626
 11
-30.88935173374166
 21
10.00201329204626
 97
        3
330
215
330
263
330
262
 75
     1
 76
     0
 52
45.0
 41
0.1
 77
     0
 78
     1
 53
45.0
 43
0.0
 44
0.0
 45
-0.0707106781186548
 46
0.0707106781186548
 79
     0
 98
        1
 10
0.0
 20
0.0
  0
HATCH
  5
319
330
74
100
AcDbEntity
  8
1
  6
Continuous
 62
     2
100
AcDbHatch
 10
0.0
 20
0.0
 30
0.0
210
0.0
220
0.0
230
1.0
  2
_USER
 70
     0
 71
     1
 91
        1
 92
        1
 93
        4
 72
     1
 10
-28.65066207027843
 20
11.76867995869908
 11
-29.67587232668581
 21
11.76867995869908
 72
     1
 10
-29.67587232668581
 20
11.76867995869908
 11
-29.67587232668581
 21
14.29248948250991
 72
     1
 10
-29.67587232668581
 20
14.29248948250991
 11
-28.65066207027843
 21
14.29248948250991
 72
     1
 10
-28.65066207027843
 20
14.29248948250991
 11
-28.65066207027843
 21
11.76867995869908
 97
        4
330
212
330
214
330
264
330
213
 75
     1
 76
     0
 52
45.0
 41
0.1
 77
     0
 78
     1
 53
45.0
 43
0.0
 44
0.0
 45
-0.0707106781186548
 46
0.0707106781186548
 79
     0
 98
        1
 10
0.0
 20
0.0
  0
HATCH
  5
31A
330
74
100
AcDbEntity
  8
1
  6
Continuous
 62
     2
100
AcDbHatch
 10
0.0
 20
0.0
 30
0.0
210
0.0
220
0.0
230
1.0
  2
_USER
 70
     0
 71
     1
 91
        1
 92
        1
 93
        4
 72
     1
 10
-28.65066207027843
 20
11.76867995869908
 11
-29.67587232668581
 21
11.76867995869908
 72
     1
 10
-29.67587232668581
 20
11.76867995869908
 11
-29.67587232668581
 21
14.29248948250991
 72
     1
 10
-29.67587232668581
 20
14.29248948250991
 11
-28.65066207027843
 21
14.29248948250991
 72
     1
 10
-28.65066207027843
 20
14.29248948250991
 11
-28.65066207027843
 21
11.76867995869908
 97
        4
330
212
330
214
330
264
330
213
 75
     1
 76
     0
 52
45.0
 41
0.1
 77
     0
 78
     1
 53
45.0
 43
0.0
 44
0.0
 45
-0.0707106781186548
 46
0.0707106781186548
 79
     0
 98
        1
 10
0.0
 20
0.0
  0
HATCH
  5
31B
330
74
100
AcDbEntity
  8
1
  6
Continuous
 62
     2
100
AcDbHatch
 10
0.0
 20
0.0
 30
0.0
210
0.0
220
0.0
230
1.0
  2
_USER
 70
     0
 71
     1
 91
        1
 92
        1
 93
       12
 72
     1
 10
-25.16100408212077
 20
14.29248948250991
 11
-26.23747485134931
 21
13.0751749948767
 72
     1
 10
-26.23747485134931
 20
13.0751749948767
 11
-25.08214175470442
 21
11.76867995869909
 72
     1
 10
-25.08214175470442
 20
11.76867995869909
 11
-26.24141796771954
 21
11.76867995869909
 72
     1
 10
-26.24141796771954
 20
11.76867995869909
 11
-26.8171129578563
 21
12.41969796307403
 72
     1
 10
-26.8171129578563
 20
12.41969796307403
 11
-27.39280794799327
 21
11.76867995869908
 72
     1
 10
-27.39280794799327
 20
11.76867995869908
 11
-28.55208416100828
 21
11.76867995869908
 72
     1
 10
-28.55208416100828
 20
11.76867995869908
 11
-27.3967510643634
 21
13.0751749948767
 72
     1
 10
-27.3967510643634
 20
13.0751749948767
 11
-28.47322183359273
 21
14.29248948250991
 72
     1
 10
-28.47322183359273
 20
14.29248948250991
 11
-27.31394562057682
 21
14.29248948250991
 72
     1
 10
-27.31394562057682
 20
14.29248948250991
 11
-26.8171129578563
 21
13.73065202667893
 72
     1
 10
-26.8171129578563
 20
13.73065202667893
 11
-26.32028029513499
 21
14.29248948250991
 72
     1
 10
-26.32028029513499
 20
14.29248948250991
 11
-25.16100408212077
 21
14.29248948250991
 97
       12
330
20D
330
20C
330
20B
330
268
330
269
330
265
330
266
330
211
330
210
330
20F
330
20E
330
267
 75
     1
 76
     0
 52
45.0
 41
0.1
 77
     0
 78
     1
 53
45.0
 43
0.0
 44
0.0
 45
-0.0707106781186548
 46
0.0707106781186548
 79
     0
 98
        1
 10
0.0
 20
0.0
  0
HATCH
  5
31C
330
74
100
AcDbEntity
  8
1
  6
Continuous
 62
     2
100
AcDbHatch
 10
0.0
 20
0.0
 30
0.0
210
0.0
220
0.0
230
1.0
  2
_USER
 70
     0
 71
     1
 91
        1
 92
        1
 93
       12
 72
     1
 10
-25.16100408212077
 20
14.29248948250991
 11
-26.23747485134931
 21
13.0751749948767
 72
     1
 10
-26.23747485134931
 20
13.0751749948767
 11
-25.08214175470442
 21
11.76867995869909
 72
     1
 10
-25.08214175470442
 20
11.76867995869909
 11
-26.24141796771954
 21
11.76867995869909
 72
     1
 10
-26.24141796771954
 20
11.76867995869909
 11
-26.8171129578563
 21
12.41969796307403
 72
     1
 10
-26.8171129578563
 20
12.41969796307403
 11
-27.39280794799327
 21
11.76867995869908
 72
     1
 10
-27.39280794799327
 20
11.76867995869908
 11
-28.55208416100828
 21
11.76867995869908
 72
     1
 10
-28.55208416100828
 20
11.76867995869908
 11
-27.3967510643634
 21
13.0751749948767
 72
     1
 10
-27.3967510643634
 20
13.0751749948767
 11
-28.47322183359273
 21
14.29248948250991
 72
     1
 10
-28.47322183359273
 20
14.29248948250991
 11
-27.31394562057682
 21
14.29248948250991
 72
     1
 10
-27.31394562057682
 20
14.29248948250991
 11
-26.8171129578563
 21
13.73065202667893
 72
     1
 10
-26.8171129578563
 20
13.73065202667893
 11
-26.32028029513499
 21
14.29248948250991
 72
     1
 10
-26.32028029513499
 20
14.29248948250991
 11
-25.16100408212077
 21
14.29248948250991
 97
       12
330
20D
330
20C
330
20B
330
268
330
269
330
265
330
266
330
211
330
210
330
20F
330
20E
330
267
 75
     1
 76
     0
 52
45.0
 41
0.1
 77
     0
 78
     1
 53
45.0
 43
0.0
 44
0.0
 45
-0.0707106781186548
 46
0.0707106781186548
 79
     0
 98
        1
 10
0.0
 20
0.0
  0
HATCH
  5
31D
330
74
100
AcDbEntity
  8
1
  6
Continuous
 62
     2
100
AcDbHatch
 10
0.0
 20
0.0
 30
0.0
210
0.0
220
0.0
230
1.0
  2
_USER
 70
     0
 71
     1
 91
        2
 92
        1
 93
        6
 72
     1
 10
-40.87814078802654
 20
12.54808346377656
 11
-41.50522143908466
 21
12.54808346377656
 72
     1
 10
-41.50522143908466
 20
12.54808346377656
 11
-41.50522143908466
 21
11.76867995869909
 72
     1
 10
-41.50522143908466
 20
11.76867995869909
 11
-42.53043169549295
 21
11.76867995869909
 72
     1
 10
-42.53043169549295
 20
11.76867995869909
 11
-42.53043169549295
 21
14.29248948250991
 72
     1
 10
-42.53043169549295
 20
14.29248948250991
 11
-40.87814078802654
 21
14.29248948250992
 72
     2
 10
-40.87814078802654
 20
13.42028647314323
 40
0.87220300936667
 50
270.0
 51
450.0
 73
     0
 97
        6
330
235
330
234
330
241
330
240
330
236
330
27B
 92
       16
 93
        4
 72
     2
 10
-41.24299411549629
 20
13.45284512704614
 40
0.2916229955960006
 50
270.0
 51
450.0
 73
     1
 72
     1
 10
-41.24299411549629
 20
13.74446812264211
 11
-41.50522143908466
 21
13.74446812264211
 72
     1
 10
-41.50522143908466
 20
13.74446812264211
 11
-41.50522143908466
 21
13.16122213145015
 72
     1
 10
-41.50522143908466
 20
13.16122213145015
 11
-41.24299411549629
 21
13.16122213145014
 97
        4
330
28F
330
232
330
242
330
233
 75
     1
 76
     0
 52
45.0
 41
0.1
 77
     0
 78
     1
 53
45.0
 43
0.0
 44
0.0
 45
-0.0707106781186548
 46
0.0707106781186548
 79
     0
 98
        1
 10
0.0
 20
0.0
  0
HATCH
  5
31E
330
74
100
AcDbEntity
  8
1
  6
Continuous
 62
     2
100
AcDbHatch
 10
0.0
 20
0.0
 30
0.0
210
0.0
220
0.0
230
1.0
  2
_USER
 70
     0
 71
     1
 91
        2
 92
        1
 93
        6
 72
     1
 10
-40.87814078802654
 20
12.54808346377656
 11
-41.50522143908466
 21
12.54808346377656
 72
     1
 10
-41.50522143908466
 20
12.54808346377656
 11
-41.50522143908466
 21
11.76867995869909
 72
     1
 10
-41.50522143908466
 20
11.76867995869909
 11
-42.53043169549295
 21
11.76867995869909
 72
     1
 10
-42.53043169549295
 20
11.76867995869909
 11
-42.53043169549295
 21
14.29248948250991
 72
     1
 10
-42.53043169549295
 20
14.29248948250991
 11
-40.87814078802654
 21
14.29248948250992
 72
     2
 10
-40.87814078802654
 20
13.42028647314323
 40
0.87220300936667
 50
270.0
 51
450.0
 73
     0
 97
        6
330
235
330
234
330
241
330
240
330
236
330
27B
 92
       16
 93
        4
 72
     2
 10
-41.24299411549629
 20
13.45284512704614
 40
0.2916229955960006
 50
270.0
 51
450.0
 73
     1
 72
     1
 10
-41.24299411549629
 20
13.74446812264211
 11
-41.50522143908466
 21
13.74446812264211
 72
     1
 10
-41.50522143908466
 20
13.74446812264211
 11
-41.50522143908466
 21
13.16122213145015
 72
     1
 10
-41.50522143908466
 20
13.16122213145015
 11
-41.24299411549629
 21
13.16122213145014
 97
        4
330
28F
330
232
330
242
330
233
 75
     1
 76
     0
 52
45.0
 41
0.1
 77
     0
 78
     1
 53
45.0
 43
0.0
 44
0.0
 45
-0.0707106781186548
 46
0.0707106781186548
 79
     0
 98
        1
 10
0.0
 20
0.0
  0
HATCH
  5
31F
330
74
100
AcDbEntity
  8
1
  6
Continuous
 62
     2
100
AcDbHatch
 10
0.0
 20
0.0
 30
0.0
210
0.0
220
0.0
230
1.0
  2
_USER
 70
     0
 71
     1
 91
        2
 92
        1
 93
        4
 72
     2
 10
-38.76529554144878
 20
9.809290930127297
 40
1.707008076205456
 50
62.4518518243059
 51
117.5481481756671
 73
     1
 72
     2
 10
-38.99747727023663
 20
10.25439424442713
 40
1.204986845992994
 50
117.5481481756635
 51
242.4518518243369
 73
     1
 72
     2
 10
-38.76529554144878
 20
10.6994975587274
 40
1.707008076205438
 50
242.45185182434
 51
297.5481481756871
 73
     1
 72
     2
 10
-38.53311381266093
 20
10.25439424442712
 40
1.204986845993422
 50
297.5481481757017
 51
422.4518518242984
 73
     1
 97
        4
330
287
330
286
330
288
330
285
 92
       16
 93
        4
 72
     2
 10
-38.93036995165238
 20
10.25439424442712
 40
0.6378510567600045
 50
321.8795802028418
 51
398.1204197971589
 73
     1
 72
     2
 10
-38.76529554144878
 20
10.38392414370025
 40
0.4280236140606011
 50
38.12041979715364
 51
141.8795802028552
 73
     1
 72
     2
 10
-38.60022113124541
 20
10.25439424442712
 40
0.6378510567599105
 50
141.8795802028339
 51
218.1204197971653
 73
     1
 72
     2
 10
-38.76529554144878
 20
10.12486434515445
 40
0.4280236140609624
 50
218.1204197971922
 51
321.879580202799
 73
     1
 97
        4
330
2A3
330
2A0
330
2A1
330
2A2
 75
     1
 76
     0
 52
45.0
 41
0.1
 77
     0
 78
     1
 53
45.0
 43
0.0
 44
0.0
 45
-0.0707106781186548
 46
0.0707106781186548
 79
     0
 98
        1
 10
0.0
 20
0.0
  0
HATCH
  5
320
330
74
100
AcDbEntity
  8
1
  6
Continuous
 62
     2
100
AcDbHatch
 10
0.0
 20
0.0
 30
0.0
210
0.0
220
0.0
230
1.0
  2
_USER
 70
     0
 71
     1
 91
        2
 92
        1
 93
        4
 72
     2
 10
-38.76529554144878
 20
9.809290930127297
 40
1.707008076205456
 50
62.4518518243059
 51
117.5481481756671
 73
     1
 72
     2
 10
-38.99747727023663
 20
10.25439424442713
 40
1.204986845992994
 50
117.5481481756635
 51
242.4518518243369
 73
     1
 72
     2
 10
-38.76529554144878
 20
10.6994975587274
 40
1.707008076205438
 50
242.45185182434
 51
297.5481481756871
 73
     1
 72
     2
 10
-38.53311381266093
 20
10.25439424442712
 40
1.204986845993422
 50
297.5481481757017
 51
422.4518518242984
 73
     1
 97
        4
330
287
330
286
330
288
330
285
 92
       16
 93
        4
 72
     2
 10
-38.93036995165238
 20
10.25439424442712
 40
0.6378510567600045
 50
321.8795802028418
 51
398.1204197971589
 73
     1
 72
     2
 10
-38.76529554144878
 20
10.38392414370025
 40
0.4280236140606011
 50
38.12041979715364
 51
141.8795802028552
 73
     1
 72
     2
 10
-38.60022113124541
 20
10.25439424442712
 40
0.6378510567599105
 50
141.8795802028339
 51
218.1204197971653
 73
     1
 72
     2
 10
-38.76529554144878
 20
10.12486434515445
 40
0.4280236140609624
 50
218.1204197971922
 51
321.879580202799
 73
     1
 97
        4
330
2A3
330
2A0
330
2A1
330
2A2
 75
     1
 76
     0
 52
45.0
 41
0.1
 77
     0
 78
     1
 53
45.0
 43
0.0
 44
0.0
 45
-0.0707106781186548
 46
0.0707106781186548
 79
     0
 98
        1
 10
0.0
 20
0.0
  0
HATCH
  5
321
330
74
100
AcDbEntity
  8
1
  6
Continuous
 62
     2
100
AcDbHatch
 10
0.0
 20
0.0
 30
0.0
210
0.0
220
0.0
230
1.0
  2
_USER
 70
     0
 71
     1
 91
        2
 92
        1
 93
       12
 72
     1
 10
-33.06695240557333
 20
13.71561873420998
 11
-34.17102498939784
 21
13.71561873420998
 72
     1
 10
-34.17102498939784
 20
13.71561873420998
 11
-34.17102498939784
 21
13.31902009475402
 72
     1
 10
-34.17102498939784
 20
13.31902009475402
 11
-33.06695240557333
 21
13.31902009475401
 72
     1
 10
-33.06695240557333
 20
13.31902009475401
 11
-33.06695240557333
 21
12.74214934645454
 72
     1
 10
-33.06695240557333
 20
12.74214934645454
 11
-34.17102498939784
 21
12.74214934645453
 72
     1
 10
-34.17102498939784
 20
12.74214934645453
 11
-34.17102498939784
 21
12.34555070699858
 72
     1
 10
-34.17102498939784
 20
12.34555070699858
 11
-33.06695240557333
 21
12.34555070699858
 72
     1
 10
-33.06695240557333
 20
12.34555070699858
 11
-33.06695240557333
 21
11.76867995869909
 72
     1
 10
-33.06695240557333
 20
11.76867995869909
 11
-35.67052242522703
 21
11.76867995869908
 72
     2
 10
-35.67052242522703
 20
13.03058472060427
 40
1.261904761905638
 50
90.0
 51
270.0
 73
     0
 72
     1
 10
-35.67052242522703
 20
14.29248948250991
 11
-33.06695240557333
 21
14.29248948250991
 72
     1
 10
-33.06695240557333
 20
14.29248948250991
 11
-33.06695240557333
 21
13.71561873420998
 97
       12
330
249
330
290
330
24A
330
24B
330
24C
330
24D
330
22A
330
229
330
228
330
227
330
24E
330
248
 92
       16
 93
        4
 72
     2
 10
-35.49178522674339
 20
13.1601146198774
 40
0.4280236140606861
 50
38.12041979714503
 51
141.8795802028562
 73
     1
 72
     2
 10
-35.3267108165399
 20
13.03058472060427
 40
0.6378510567600167
 50
141.8795802028414
 51
218.1204197971579
 73
     1
 72
     2
 10
-35.49178522674339
 20
12.90105482133115
 40
0.4280236140606961
 50
218.1204197971437
 51
321.8795802028552
 73
     1
 72
     2
 10
-35.65685963694687
 20
13.03058472060428
 40
0.6378510567599999
 50
321.8795802028403
 51
398.1204197971591
 73
     1
 97
        4
330
28A
330
289
330
284
330
283
 75
     1
 76
     0
 52
45.0
 41
0.1
 77
     0
 78
     1
 53
45.0
 43
0.0
 44
0.0
 45
-0.0707106781186548
 46
0.0707106781186548
 79
     0
 98
        1
 10
0.0
 20
0.0
  0
HATCH
  5
322
330
74
100
AcDbEntity
  8
1
  6
Continuous
 62
     2
100
AcDbHatch
 10
0.0
 20
0.0
 30
0.0
210
0.0
220
0.0
230
1.0
  2
_USER
 70
     0
 71
     1
 91
        2
 92
        1
 93
       12
 72
     1
 10
-33.06695240557333
 20
13.71561873420998
 11
-34.17102498939784
 21
13.71561873420998
 72
     1
 10
-34.17102498939784
 20
13.71561873420998
 11
-34.17102498939784
 21
13.31902009475402
 72
     1
 10
-34.17102498939784
 20
13.31902009475402
 11
-33.06695240557333
 21
13.31902009475401
 72
     1
 10
-33.06695240557333
 20
13.31902009475401
 11
-33.06695240557333
 21
12.74214934645454
 72
     1
 10
-33.06695240557333
 20
12.74214934645454
 11
-34.17102498939784
 21
12.74214934645453
 72
     1
 10
-34.17102498939784
 20
12.74214934645453
 11
-34.17102498939784
 21
12.34555070699858
 72
     1
 10
-34.17102498939784
 20
12.34555070699858
 11
-33.06695240557333
 21
12.34555070699858
 72
     1
 10
-33.06695240557333
 20
12.34555070699858
 11
-33.06695240557333
 21
11.76867995869909
 72
     1
 10
-33.06695240557333
 20
11.76867995869909
 11
-35.67052242522703
 21
11.76867995869908
 72
     2
 10
-35.67052242522703
 20
13.03058472060427
 40
1.261904761905638
 50
90.0
 51
270.0
 73
     0
 72
     1
 10
-35.67052242522703
 20
14.29248948250991
 11
-33.06695240557333
 21
14.29248948250991
 72
     1
 10
-33.06695240557333
 20
14.29248948250991
 11
-33.06695240557333
 21
13.71561873420998
 97
       12
330
249
330
290
330
24A
330
24B
330
24C
330
24D
330
22A
330
229
330
228
330
227
330
24E
330
248
 92
       16
 93
        4
 72
     2
 10
-35.49178522674339
 20
13.1601146198774
 40
0.4280236140606861
 50
38.12041979714503
 51
141.8795802028562
 73
     1
 72
     2
 10
-35.3267108165399
 20
13.03058472060427
 40
0.6378510567600167
 50
141.8795802028414
 51
218.1204197971579
 73
     1
 72
     2
 10
-35.49178522674339
 20
12.90105482133115
 40
0.4280236140606961
 50
218.1204197971437
 51
321.8795802028552
 73
     1
 72
     2
 10
-35.65685963694687
 20
13.03058472060428
 40
0.6378510567599999
 50
321.8795802028403
 51
398.1204197971591
 73
     1
 97
        4
330
28A
330
289
330
284
330
283
 75
     1
 76
     0
 52
45.0
 41
0.1
 77
     0
 78
     1
 53
45.0
 43
0.0
 44
0.0
 45
-0.0707106781186548
 46
0.0707106781186548
 79
     0
 98
        1
 10
0.0
 20
0.0
  0
HATCH
  5
323
330
74
100
AcDbEntity
  8
1
  6
Continuous
 62
     2
100
AcDbHatch
 10
0.0
 20
0.0
 30
0.0
210
0.0
220
0.0
230
1.0
  2
_USER
 70
     0
 71
     1
 91
        4
 92
        1
 93
        8
 72
     1
 10
-42.92474333257297
 20
13.94187409788019
 11
-42.92474333257297
 21
9.343104867136208
 72
     2
 10
-43.27535871718777
 20
9.343104867136208
 40
0.350615384614267
 50
0.0
 51
90.0
 73
     0
 72
     1
 10
-43.27535871718777
 20
8.992489482521941
 11
-47.79875713926782
 21
8.992489482521941
 72
     2
 10
-47.79875713926782
 20
9.343104867136208
 40
0.3506153846138886
 50
90.0
 51
180.0
 73
     0
 72
     1
 10
-48.14937252388171
 20
9.343104867136208
 11
-48.14937252388171
 21
13.94187409788018
 72
     2
 10
-47.79875713926782
 20
13.94187409788019
 40
0.3506153846147395
 50
179.9999999999986
 51
270.0
 73
     0
 72
     1
 10
-47.79875713926782
 20
14.29248948249493
 11
-43.27535871718777
 21
14.29248948249492
 72
     2
 10
-43.27535871718777
 20
13.94187409788019
 40
0.3506153846147981
 50
270.0
 51
360.0
 73
     0
 97
        8
330
23D
330
280
330
23E
330
28B
330
23B
330
282
330
23C
330
281
 92
       16
 93
        1
 72
     2
 10
-45.63381032065826
 20
12.02544250419794
 40
0.3892387874202612
 50
0.0
 51
360.0
 73
     1
 97
        1
330
2A6
 92
       16
 93
        8
 72
     2
 10
-45.17938245887257
 20
11.10879655381085
 40
0.2609230769227421
 50
115.3740086783579
 51
179.9999999999977
 73
     1
 72
     1
 10
-45.44030553579552
 20
11.10879655381086
 11
-45.44030553579552
 21
10.62792762265789
 72
     2
 10
-45.17938245887257
 20
10.62792762265789
 40
0.2609230769229498
 50
180.0
 51
269.8110329574465
 73
     1
 72
     2
 10
-45.1747410247321
 20
12.03522923221906
 40
1.6682323404407
 50
269.8110329575862
 51
450.1889670424138
 73
     1
 72
     2
 10
-45.17938245887257
 20
13.44253084178023
 40
0.2609230769224304
 50
90.18896704255353
 51
180.0
 73
     1
 72
     1
 10
-45.44030553579552
 20
13.44253084178023
 11
-45.44030553579552
 21
12.94208845458456
 72
     2
 10
-45.17938245887257
 20
12.94208845458456
 40
0.2609230769229498
 50
180.0
 51
244.6259913216392
 73
     1
 72
     2
 10
-45.6141284903502
 20
12.02544250419794
 40
0.7535935125160907
 50
295.3740086781926
 51
424.6259913218217
 73
     0
 97
        8
330
298
330
204
330
295
330
296
330
274
330
203
330
297
330
273
 92
       16
 93
       12
 72
     2
 10
-47.30793509236986
 20
9.842301448334837
 40
0.2609230769220403
 50
180.0
 51
270.0
 73
     1
 72
     1
 10
-47.30793509236986
 20
9.581378371411962
 11
-46.08823818244463
 21
9.581378371411962
 72
     2
 10
-46.08823818244463
 20
9.842301448334851
 40
0.2609230769228894
 50
270.0
 51
360.0
 73
     1
 72
     1
 10
-45.82731510552179
 20
9.842301448334851
 11
-45.82731510552179
 21
11.10740139174941
 72
     2
 10
-46.08823818244463
 20
11.1074013917494
 40
0.2609230769228361
 50
0.0000000000019503
 51
64.80558935144094
 73
     1
 72
     2
 10
-45.65635020924213
 20
12.02544250419794
 40
0.7536343169897799
 50
115.1944106485093
 51
244.8055893514764
 73
     0
 72
     2
 10
-46.08823818244463
 20
12.94348361664602
 40
0.2609230769223985
 50
295.1944106485609
 51
360.0
 73
     1
 72
     1
 10
-45.82731510552179
 20
12.94348361664602
 11
-45.82731510552179
 21
13.44267751669609
 72
     2
 10
-46.08823818244463
 20
13.44267751669608
 40
0.2609230769228361
 50
0.0000000000023404
 51
90.0
 73
     1
 72
     1
 10
-46.08823818244463
 20
13.70360059361854
 11
-47.30793509236986
 21
13.70360059361853
 72
     2
 10
-47.30793509236986
 20
13.44267751669608
 40
0.2609230769224506
 50
90.0
 51
180.0
 73
     1
 72
     1
 10
-47.5688581692919
 20
13.44267751669608
 11
-47.5688581692919
 21
9.842301448334837
 97
       12
330
27C
330
23F
330
27F
330
23A
330
28C
330
28D
330
27E
330
239
330
27D
330
238
330
28E
330
237
 75
     1
 76
     0
 52
45.0
 41
0.1
 77
     0
 78
     1
 53
45.0
 43
0.0
 44
0.0
 45
-0.0707106781186548
 46
0.0707106781186548
 79
     0
 98
        1
 10
0.0
 20
0.0
  0
HATCH
  5
324
330
74
100
AcDbEntity
  8
1
  6
Continuous
 62
     2
100
AcDbHatch
 10
0.0
 20
0.0
 30
0.0
210
0.0
220
0.0
230
1.0
  2
_USER
 70
     0
 71
     1
 91
        4
 92
        1
 93
        8
 72
     1
 10
-42.92474333257297
 20
13.94187409788019
 11
-42.92474333257297
 21
9.343104867136208
 72
     2
 10
-43.27535871718777
 20
9.343104867136208
 40
0.350615384614267
 50
0.0
 51
90.0
 73
     0
 72
     1
 10
-43.27535871718777
 20
8.992489482521941
 11
-47.79875713926782
 21
8.992489482521941
 72
     2
 10
-47.79875713926782
 20
9.343104867136208
 40
0.3506153846138886
 50
90.0
 51
180.0
 73
     0
 72
     1
 10
-48.14937252388171
 20
9.343104867136208
 11
-48.14937252388171
 21
13.94187409788018
 72
     2
 10
-47.79875713926782
 20
13.94187409788019
 40
0.3506153846147395
 50
179.9999999999986
 51
270.0
 73
     0
 72
     1
 10
-47.79875713926782
 20
14.29248948249493
 11
-43.27535871718777
 21
14.29248948249492
 72
     2
 10
-43.27535871718777
 20
13.94187409788019
 40
0.3506153846147981
 50
270.0
 51
360.0
 73
     0
 97
        8
330
23D
330
280
330
23E
330
28B
330
23B
330
282
330
23C
330
281
 92
       16
 93
        1
 72
     2
 10
-45.63381032065826
 20
12.02544250419794
 40
0.3892387874202612
 50
0.0
 51
360.0
 73
     1
 97
        1
330
2A6
 92
       16
 93
        8
 72
     2
 10
-45.17938245887257
 20
11.10879655381085
 40
0.2609230769227421
 50
115.3740086783579
 51
179.9999999999977
 73
     1
 72
     1
 10
-45.44030553579552
 20
11.10879655381086
 11
-45.44030553579552
 21
10.62792762265789
 72
     2
 10
-45.17938245887257
 20
10.62792762265789
 40
0.2609230769229498
 50
180.0
 51
269.8110329574465
 73
     1
 72
     2
 10
-45.1747410247321
 20
12.03522923221906
 40
1.6682323404407
 50
269.8110329575862
 51
450.1889670424138
 73
     1
 72
     2
 10
-45.17938245887257
 20
13.44253084178023
 40
0.2609230769224304
 50
90.18896704255353
 51
180.0
 73
     1
 72
     1
 10
-45.44030553579552
 20
13.44253084178023
 11
-45.44030553579552
 21
12.94208845458456
 72
     2
 10
-45.17938245887257
 20
12.94208845458456
 40
0.2609230769229498
 50
180.0
 51
244.6259913216392
 73
     1
 72
     2
 10
-45.6141284903502
 20
12.02544250419794
 40
0.7535935125160907
 50
295.3740086781926
 51
424.6259913218217
 73
     0
 97
        8
330
298
330
204
330
295
330
296
330
274
330
203
330
297
330
273
 92
       16
 93
       12
 72
     2
 10
-47.30793509236986
 20
9.842301448334837
 40
0.2609230769220403
 50
180.0
 51
270.0
 73
     1
 72
     1
 10
-47.30793509236986
 20
9.581378371411962
 11
-46.08823818244463
 21
9.581378371411962
 72
     2
 10
-46.08823818244463
 20
9.842301448334851
 40
0.2609230769228894
 50
270.0
 51
360.0
 73
     1
 72
     1
 10
-45.82731510552179
 20
9.842301448334851
 11
-45.82731510552179
 21
11.10740139174941
 72
     2
 10
-46.08823818244463
 20
11.1074013917494
 40
0.2609230769228361
 50
0.0000000000019503
 51
64.80558935144094
 73
     1
 72
     2
 10
-45.65635020924213
 20
12.02544250419794
 40
0.7536343169897799
 50
115.1944106485093
 51
244.8055893514764
 73
     0
 72
     2
 10
-46.08823818244463
 20
12.94348361664602
 40
0.2609230769223985
 50
295.1944106485609
 51
360.0
 73
     1
 72
     1
 10
-45.82731510552179
 20
12.94348361664602
 11
-45.82731510552179
 21
13.44267751669609
 72
     2
 10
-46.08823818244463
 20
13.44267751669608
 40
0.2609230769228361
 50
0.0000000000023404
 51
90.0
 73
     1
 72
     1
 10
-46.08823818244463
 20
13.70360059361854
 11
-47.30793509236986
 21
13.70360059361853
 72
     2
 10
-47.30793509236986
 20
13.44267751669608
 40
0.2609230769224506
 50
90.0
 51
180.0
 73
     1
 72
     1
 10
-47.5688581692919
 20
13.44267751669608
 11
-47.5688581692919
 21
9.842301448334837
 97
       12
330
27C
330
23F
330
27F
330
23A
330
28C
330
28D
330
27E
330
239
330
27D
330
238
330
28E
330
237
 75
     1
 76
     0
 52
45.0
 41
0.1
 77
     0
 78
     1
 53
45.0
 43
0.0
 44
0.0
 45
-0.0707106781186548
 46
0.0707106781186548
 79
     0
 98
        1
 10
0.0
 20
0.0
  0
HATCH
  5
325
330
74
100
AcDbEntity
  8
1
  6
Continuous
 62
     2
100
AcDbHatch
 10
0.0
 20
0.0
 30
0.0
210
0.0
220
0.0
230
1.0
  2
_USER
 70
     0
 71
     1
 91
        1
 92
        1
 93
       18
 72
     1
 10
-25.08214175470442
 20
10.86731941449505
 11
-25.75247153774029
 21
10.86731941449505
 72
     1
 10
-25.75247153774029
 20
10.86731941449505
 11
-25.75247153774029
 21
8.992489482521941
 72
     1
 10
-25.75247153774029
 20
8.992489482521941
 11
-26.73825063044086
 21
8.992489482521941
 72
     1
 10
-26.73825063044086
 20
8.992489482521941
 11
-26.73825063044086
 21
10.86731941449505
 72
     1
 10
-26.73825063044086
 20
10.86731941449505
 11
-27.65034922512524
 21
10.86731941449504
 72
     2
 10
-27.65034922512524
 20
10.07845742538261
 40
0.78886198911243
 50
90.0
 51
109.3371432194312
 73
     1
 72
     2
 10
-27.7715640995911
 20
10.42387476454204
 40
0.4227934381772261
 50
109.337143219486
 51
151.4785267424225
 73
     1
 72
     2
 10
-27.45969859704445
 20
10.25439424442713
 40
0.7777353184586662
 50
151.4785267423619
 51
208.5214732576684
 73
     1
 72
     2
 10
-27.7715640995911
 20
10.08491372431267
 40
0.4227934381785521
 50
208.5214732576869
 51
246.6277221118391
 73
     1
 72
     2
 10
-27.64227481636538
 20
10.38408068192425
 40
0.7487023016407007
 50
246.6277221118142
 51
288.4480761180794
 73
     1
 72
     2
 10
-27.98786798468103
 20
11.42006892658261
 40
1.840813230556014
 50
288.4480761181331
 51
301.9309089499379
 73
     1
 72
     1
 10
-27.01426877639683
 20
9.857795604971148
 11
-27.01426877639683
 21
9.136707169596578
 72
     2
 10
-28.11834143517098
 20
12.99214709174648
 40
4.010410630990743
 50
74.02000874166119
 51
84.84185523036304
 73
     0
 72
     2
 10
-27.87961738993472
 20
10.34760941966252
 40
1.355119937140891
 50
84.8418552303238
 51
164.9381082228992
 73
     0
 72
     2
 10
-28.2260040374237
 20
10.25439424442713
 40
0.996410056523109
 50
164.9381082229043
 51
195.0618917770946
 73
     0
 72
     2
 10
-27.87961738993472
 20
10.16117906919172
 40
1.355119937140591
 50
195.0618917771008
 51
270.0
 73
     0
 72
     1
 10
-27.87961738993472
 20
11.51629900633231
 11
-25.08214175470442
 21
11.51629900633277
 72
     1
 10
-25.08214175470442
 20
11.51629900633277
 11
-25.08214175470442
 21
10.86731941449505
 97
       18
330
206
330
291
330
292
330
27A
330
279
330
26A
330
278
330
277
330
293
330
276
330
294
330
275
330
26B
330
205
330
20A
330
209
330
208
330
207
 75
     1
 76
     0
 52
45.0
 41
0.1
 77
     0
 78
     1
 53
45.0
 43
0.0
 44
0.0
 45
-0.0707106781186548
 46
0.0707106781186548
 79
     0
 98
        1
 10
0.0
 20
0.0
  0
HATCH
  5
326
330
74
100
AcDbEntity
  8
1
  6
Continuous
 62
     2
100
AcDbHatch
 10
0.0
 20
0.0
 30
0.0
210
0.0
220
0.0
230
1.0
  2
_USER
 70
     0
 71
     1
 91
        1
 92
        1
 93
       18
 72
     1
 10
-25.08214175470442
 20
10.86731941449505
 11
-25.75247153774029
 21
10.86731941449505
 72
     1
 10
-25.75247153774029
 20
10.86731941449505
 11
-25.75247153774029
 21
8.992489482521941
 72
     1
 10
-25.75247153774029
 20
8.992489482521941
 11
-26.73825063044086
 21
8.992489482521941
 72
     1
 10
-26.73825063044086
 20
8.992489482521941
 11
-26.73825063044086
 21
10.86731941449505
 72
     1
 10
-26.73825063044086
 20
10.86731941449505
 11
-27.65034922512524
 21
10.86731941449504
 72
     2
 10
-27.65034922512524
 20
10.07845742538261
 40
0.78886198911243
 50
90.0
 51
109.3371432194312
 73
     1
 72
     2
 10
-27.7715640995911
 20
10.42387476454204
 40
0.4227934381772261
 50
109.337143219486
 51
151.4785267424225
 73
     1
 72
     2
 10
-27.45969859704445
 20
10.25439424442713
 40
0.7777353184586662
 50
151.4785267423619
 51
208.5214732576684
 73
     1
 72
     2
 10
-27.7715640995911
 20
10.08491372431267
 40
0.4227934381785521
 50
208.5214732576869
 51
246.6277221118391
 73
     1
 72
     2
 10
-27.64227481636538
 20
10.38408068192425
 40
0.7487023016407007
 50
246.6277221118142
 51
288.4480761180794
 73
     1
 72
     2
 10
-27.98786798468103
 20
11.42006892658261
 40
1.840813230556014
 50
288.4480761181331
 51
301.9309089499379
 73
     1
 72
     1
 10
-27.01426877639683
 20
9.857795604971148
 11
-27.01426877639683
 21
9.136707169596578
 72
     2
 10
-28.11834143517098
 20
12.99214709174648
 40
4.010410630990743
 50
74.02000874166119
 51
84.84185523036304
 73
     0
 72
     2
 10
-27.87961738993472
 20
10.34760941966252
 40
1.355119937140891
 50
84.8418552303238
 51
164.9381082228992
 73
     0
 72
     2
 10
-28.2260040374237
 20
10.25439424442713
 40
0.996410056523109
 50
164.9381082229043
 51
195.0618917770946
 73
     0
 72
     2
 10
-27.87961738993472
 20
10.16117906919172
 40
1.355119937140591
 50
195.0618917771008
 51
270.0
 73
     0
 72
     1
 10
-27.87961738993472
 20
11.51629900633231
 11
-25.08214175470442
 21
11.51629900633277
 72
     1
 10
-25.08214175470442
 20
11.51629900633277
 11
-25.08214175470442
 21
10.86731941449505
 97
       18
330
206
330
291
330
292
330
27A
330
279
330
26A
330
278
330
277
330
293
330
276
330
294
330
275
330
26B
330
205
330
20A
330
209
330
208
330
207
 75
     1
 76
     0
 52
45.0
 41
0.1
 77
     0
 78
     1
 53
45.0
 43
0.0
 44
0.0
 45
-0.0707106781186548
 46
0.0707106781186548
 79
     0
 98
        1
 10
0.0
 20
0.0
  0
HATCH
  5
327
330
74
100
AcDbEntity
  8
1
  6
Continuous
 62
     2
100
AcDbHatch
 10
0.0
 20
0.0
 30
0.0
210
0.0
220
0.0
230
1.0
  2
_USER
 70
     0
 71
     1
 91
        1
 92
        1
 93
       14
 72
     2
 10
-41.1876351413834
 20
10.16117906919172
 40
1.355119937140908
 50
84.84185523036265
 51
164.9381082228905
 73
     1
 72
     2
 10
-41.5340217888733
 20
10.25439424442713
 40
0.9964100565214691
 50
164.93810822288
 51
195.061891777096
 73
     1
 72
     2
 10
-41.1876351413834
 20
10.34760941966252
 40
1.355119937140015
 50
195.0618917770909
 51
275.1581447696391
 73
     1
 72
     2
 10
-41.42635918661966
 20
12.99214709174648
 40
4.010410630990211
 50
275.1581447696245
 51
285.9799912583532
 73
     1
 72
     1
 10
-40.3222865278446
 20
9.136707169597031
 11
-40.3222865278446
 21
9.857795604971622
 72
     2
 10
-41.29588573612972
 20
11.42006892658307
 40
1.840813230556009
 50
58.0690910500376
 51
71.55192388186683
 73
     0
 72
     2
 10
-40.95029256781498
 20
10.38408068192425
 40
0.7487023016403836
 50
71.55192388184341
 51
113.3722778881296
 73
     0
 72
     2
 10
-41.07958185103979
 20
10.08491372431267
 40
0.4227934381775209
 50
113.3722778881741
 51
151.4785267423082
 73
     0
 72
     2
 10
-40.76771634849405
 20
10.25439424442713
 40
0.7777353184572731
 50
151.478526742297
 51
208.5214732577316
 73
     0
 72
     2
 10
-41.07958185103979
 20
10.42387476454204
 40
0.4227934381775693
 50
208.5214732576908
 51
246.6277221118017
 73
     0
 72
     2
 10
-40.95029256781498
 20
10.12470780692999
 40
0.7487023016407695
 50
246.627722111871
 51
288.4480761181452
 73
     0
 72
     2
 10
-41.29588573612972
 20
9.088719562271631
 40
1.840813230556616
 50
288.4480761181331
 51
301.9309089499624
 73
     0
 72
     1
 10
-40.3222865278446
 20
10.65099288388308
 11
-40.3222865278446
 21
11.37208131925767
 72
     2
 10
-41.42635918661966
 20
7.516641397108232
 40
4.010410630990087
 50
74.02000874164679
 51
84.84185523037553
 73
     1
 97
       14
330
299
330
29A
330
29B
330
29C
330
26C
330
272
330
271
330
270
330
29D
330
29E
330
26F
330
29F
330
26D
330
26E
 75
     1
 76
     0
 52
45.0
 41
0.1
 77
     0
 78
     1
 53
45.0
 43
0.0
 44
0.0
 45
-0.0707106781186548
 46
0.0707106781186548
 79
     0
 98
        1
 10
0.0
 20
0.0
  0
HATCH
  5
328
330
74
100
AcDbEntity
  8
1
  6
Continuous
 62
     2
100
AcDbHatch
 10
0.0
 20
0.0
 30
0.0
210
0.0
220
0.0
230
1.0
  2
_USER
 70
     0
 71
     1
 91
        1
 92
        1
 93
       14
 72
     2
 10
-41.1876351413834
 20
10.16117906919172
 40
1.355119937140908
 50
84.84185523036265
 51
164.9381082228905
 73
     1
 72
     2
 10
-41.5340217888733
 20
10.25439424442713
 40
0.9964100565214691
 50
164.93810822288
 51
195.061891777096
 73
     1
 72
     2
 10
-41.1876351413834
 20
10.34760941966252
 40
1.355119937140015
 50
195.0618917770909
 51
275.1581447696391
 73
     1
 72
     2
 10
-41.42635918661966
 20
12.99214709174648
 40
4.010410630990211
 50
275.1581447696245
 51
285.9799912583532
 73
     1
 72
     1
 10
-40.3222865278446
 20
9.136707169597031
 11
-40.3222865278446
 21
9.857795604971622
 72
     2
 10
-41.29588573612972
 20
11.42006892658307
 40
1.840813230556009
 50
58.0690910500376
 51
71.55192388186683
 73
     0
 72
     2
 10
-40.95029256781498
 20
10.38408068192425
 40
0.7487023016403836
 50
71.55192388184341
 51
113.3722778881296
 73
     0
 72
     2
 10
-41.07958185103979
 20
10.08491372431267
 40
0.4227934381775209
 50
113.3722778881741
 51
151.4785267423082
 73
     0
 72
     2
 10
-40.76771634849405
 20
10.25439424442713
 40
0.7777353184572731
 50
151.478526742297
 51
208.5214732577316
 73
     0
 72
     2
 10
-41.07958185103979
 20
10.42387476454204
 40
0.4227934381775693
 50
208.5214732576908
 51
246.6277221118017
 73
     0
 72
     2
 10
-40.95029256781498
 20
10.12470780692999
 40
0.7487023016407695
 50
246.627722111871
 51
288.4480761181452
 73
     0
 72
     2
 10
-41.29588573612972
 20
9.088719562271631
 40
1.840813230556616
 50
288.4480761181331
 51
301.9309089499624
 73
     0
 72
     1
 10
-40.3222865278446
 20
10.65099288388308
 11
-40.3222865278446
 21
11.37208131925767
 72
     2
 10
-41.42635918661966
 20
7.516641397108232
 40
4.010410630990087
 50
74.02000874164679
 51
84.84185523037553
 73
     1
 97
       14
330
299
330
29A
330
29B
330
29C
330
26C
330
272
330
271
330
270
330
29D
330
29E
330
26F
330
29F
330
26D
330
26E
 75
     1
 76
     0
 52
45.0
 41
0.1
 77
     0
 78
     1
 53
45.0
 43
0.0
 44
0.0
 45
-0.0707106781186548
 46
0.0707106781186548
 79
     0
 98
        1
 10
0.0
 20
0.0
  0
ENDBLK
  5
76
330
74
100
AcDbEntity
  8
0
100
AcDbBlockEnd
  0
BLOCK
  5
7A
330
77
100
AcDbEntity
  8
0
100
AcDbBlockBegin
  2
A4I
 70
     0
 10
101.5084430312074
 20
-5.99709314221913
 30
0.0
  3
A4I
  1

  0
INSERT
  5
78
330
77
100
AcDbEntity
  8
1
100
AcDbBlockReference
  2
_punkt
 10
101.5084430312074
 20
-0.99709314221902
 30
0.0
  0
INSERT
  5
79
330
77
100
AcDbEntity
  8
1
100
AcDbBlockReference
  2
_rahmen
 10
101.5084430312074
 20
-5.99709314221913
 30
0.0
  0
ENDBLK
  5
7B
330
77
100
AcDbEntity
  8
0
100
AcDbBlockEnd
  0
BLOCK
  5
84
330
7C
100
AcDbEntity
  8
0
100
AcDbBlockBegin
  2
1
 70
     0
 10
0.0
 20
0.0
 30
0.0
  3
1
  1

  0
INSERT
  5
7D
330
7C
100
AcDbEntity
  8
0
100
AcDbBlockReference
  2
AllgSicht1
 10
-0.00000000000216
 20
76.99999999995498
 30
0.0
  0
INSERT
  5
7E
330
7C
100
AcDbEntity
  8
0
100
AcDbBlockReference
  2
Drfsicht1
 10
-110.9999995820611
 20
72.25000199999499
 30
0.0
  0
INSERT
  5
7F
330
7C
100
AcDbEntity
  8
0
100
AcDbBlockReference
  2
Rckans1
 10
-2.0000000000001
 20
131.00000199995
 30
0.0
  0
INSERT
  5
80
330
7C
100
AcDbEntity
  8
0
100
AcDbBlockReference
  2
SA_Rechts1
 10
-168.000000000005
 20
131.00000199995
 30
0.0
  0
INSERT
  5
81
330
7C
100
AcDbEntity
  8
0
100
AcDbBlockReference
  2
SA_links1
 10
-57.99999999999
 20
131.00000228877
 30
0.0
  0
INSERT
  5
82
330
7C
100
AcDbEntity
  8
0
100
AcDbBlockReference
  2
Vordans1
 10
-110.9999995820612
 20
131.00000228877
 30
0.0
  0
INSERT
  5
83
330
7C
100
AcDbEntity
  8
0
100
AcDbBlockReference
  2
A4I
 10
101.5084430312074
 20
-5.99709314221913
 30
0.0
  0
ENDBLK
  5
85
330
7C
100
AcDbEntity
  8
0
100
AcDbBlockEnd
  0
BLOCK
  5
B1
330
AA
100
AcDbEntity
  8
0
100
AcDbBlockBegin
  2
*D17
 70
     1
 10
0.0
 20
0.0
 30
0.0
  3
*D17
  1

  0
LINE
  5
AB
330
AA
100
AcDbEntity
  8
1
  6
Continuous
 62
     2
100
AcDbLine
 10
-125.6097048615837
 20
63.75000199999001
 30
0.0
 11
-125.6097048615837
 21
80.75000199999002
 31
0.0
  0
LINE
  5
AC
330
AA
100
AcDbEntity
  8
1
  6
Continuous
 62
     2
100
AcDbLine
 10
-105.5000001641217
 20
63.75000199999001
 30
0.0
 11
-127.1097048615837
 21
63.75000199999001
 31
0.0
  0
LINE
  5
AD
330
AA
100
AcDbEntity
  8
1
  6
Continuous
 62
     2
100
AcDbLine
 10
-105.5000001641217
 20
80.75000199999002
 30
0.0
 11
-127.1097048615837
 21
80.75000199999002
 31
0.0
  0
SOLID
  5
AE
330
AA
100
AcDbEntity
  8
1
 62
     2
100
AcDbTrace
 10
-126.0704886031396
 20
67.25000199999002
 30
0.0
 11
-125.1489211200278
 21
67.25000199999002
 31
0.0
 12
-125.6097048615837
 22
63.75000199999001
 32
0.0
 13
-125.6097048615837
 23
63.75000199999001
 33
0.0
  0
SOLID
  5
AF
330
AA
100
AcDbEntity
  8
1
 62
     2
100
AcDbTrace
 10
-125.1489211200278
 20
77.25000199999002
 30
0.0
 11
-126.0704886031396
 21
77.25000199999002
 31
0.0
 12
-125.6097048615837
 22
80.75000199999002
 32
0.0
 13
-125.6097048615837
 23
80.75000199999002
 33
0.0
  0
MTEXT
  5
B0
330
AA
100
AcDbEntity
  8
1
 62
     3
100
AcDbMText
 10
-127.1097048615837
 20
70.15000199999001
 30
0.0
 40
3.5
 41
0.0
 71
     7
 72
     1
  1
17
  7
CONVERTER_11
 11
0.0
 21
1.0
 31
0.0
 73
     1
 44
0.60024009603842
  0
ENDBLK
  5
B2
330
AA
100
AcDbEntity
  8
0
100
AcDbBlockEnd
  0
BLOCK
  5
11B
330
114
100
AcDbEntity
  8
0
100
AcDbBlockBegin
  2
*D18
 70
     1
 10
0.0
 20
0.0
 30
0.0
  3
*D18
  1

  0
LINE
  5
115
330
114
100
AcDbEntity
  8
1
  6
Continuous
 62
     2
100
AcDbLine
 10
-125.6097048615837
 20
148.2500045775384
 30
0.0
 11
-125.6097048615837
 21
113.7500045775384
 31
0.0
  0
LINE
  5
116
330
114
100
AcDbEntity
  8
1
  6
Continuous
 62
     2
100
AcDbLine
 10
-115.6097048615837
 20
148.2500045775384
 30
0.0
 11
-127.1097048615837
 21
148.2500045775384
 31
0.0
  0
LINE
  5
117
330
114
100
AcDbEntity
  8
1
  6
Continuous
 62
     2
100
AcDbLine
 10
-112.7500001641218
 20
113.7500045775384
 30
0.0
 11
-127.1097048615837
 21
113.7500045775384
 31
0.0
  0
SOLID
  5
118
330
114
100
AcDbEntity
  8
1
 62
     2
100
AcDbTrace
 10
-125.1489211200278
 20
144.7500045775384
 30
0.0
 11
-126.0704886031396
 21
144.7500045775384
 31
0.0
 12
-125.6097048615837
 22
148.2500045775384
 32
0.0
 13
-125.6097048615837
 23
148.2500045775384
 33
0.0
  0
SOLID
  5
119
330
114
100
AcDbEntity
  8
1
 62
     2
100
AcDbTrace
 10
-126.0704886031396
 20
117.2500045775384
 30
0.0
 11
-125.1489211200278
 21
117.2500045775384
 31
0.0
 12
-125.6097048615837
 22
113.7500045775384
 32
0.0
 13
-125.6097048615837
 23
113.7500045775384
 33
0.0
  0
MTEXT
  5
11A
330
114
100
AcDbEntity
  8
1
 62
     3
100
AcDbMText
 10
-127.4597048615837
 20
120.787530532365
 30
0.0
 40
3.5
 41
0.0
 71
     7
 72
     1
  1
34,5
  7
CONVERTER_11
 11
0.0
 21
1.0
 31
0.0
 73
     1
 44
0.60024009603842
  0
ENDBLK
  5
11C
330
114
100
AcDbEntity
  8
0
100
AcDbBlockEnd
  0
BLOCK
  5
126
330
11F
100
AcDbEntity
  8
0
100
AcDbBlockBegin
  2
*D19
 70
     1
 10
0.0
 20
0.0
 30
0.0
  3
*D19
  1

  0
LINE
  5
120
330
11F
100
AcDbEntity
  8
1
  6
Continuous
 62
     2
100
AcDbLine
 10
-116.5000001641218
 20
159.742348364751
 30
0.0
 11
-105.5000001641219
 21
159.742348364751
 31
0.0
  0
LINE
  5
121
330
11F
100
AcDbEntity
  8
1
  6
Continuous
 62
     2
100
AcDbLine
 10
-116.5000001641218
 20
133.2500045775384
 30
0.0
 11
-116.5000001641218
 21
161.742348364751
 31
0.0
  0
LINE
  5
122
330
11F
100
AcDbEntity
  8
1
  6
Continuous
 62
     2
100
AcDbLine
 10
-105.5000001641219
 20
133.2500045775384
 30
0.0
 11
-105.5000001641219
 21
161.742348364751
 31
0.0
  0
SOLID
  5
123
330
11F
100
AcDbEntity
  8
1
 62
     2
100
AcDbTrace
 10
-113.0000001641218
 20
160.2031321063069
 30
0.0
 11
-113.0000001641218
 21
159.2815646231951
 31
0.0
 12
-116.5000001641218
 22
159.742348364751
 32
0.0
 13
-116.5000001641218
 23
159.742348364751
 33
0.0
  0
SOLID
  5
124
330
11F
100
AcDbEntity
  8
1
 62
     2
100
AcDbTrace
 10
-109.0000001641219
 20
159.2815646231951
 30
0.0
 11
-109.0000001641219
 21
160.2031321063069
 31
0.0
 12
-105.5000001641219
 22
159.742348364751
 32
0.0
 13
-105.5000001641219
 23
159.742348364751
 33
0.0
  0
MTEXT
  5
125
330
11F
100
AcDbEntity
  8
1
 62
     3
100
AcDbMText
 10
-113.2350831074111
 20
161.742348364751
 30
0.0
 40
3.5
 41
0.0
 71
     7
 72
     1
  1
11
  7
CONVERTER_11
 11
0.9999999999970619
 21
2.424068405545306E-6
 31
0.0
 73
     1
 44
0.60024009603842
  0
ENDBLK
  5
127
330
11F
100
AcDbEntity
  8
0
100
AcDbBlockEnd
  0
ENDSEC
  0
SECTION
  2
ENTITIES
  0
INSERT
  5
86
330
1F
100
AcDbEntity
  8
1
100
AcDbBlockReference
  2
1
 10
0.0
 20
0.0
 30
0.0
  0
ENDSEC
  0
SECTION
  2
OBJECTS
  0
DICTIONARY
  5
C
330
0
100
AcDbDictionary
281
     1
  3
ACAD_GROUP
350
D
  3
ACAD_LAYOUT
350
1A
  3
ACAD_MATERIAL
350
3B
  3
ACAD_MLEADERSTYLE
350
350
  3
ACAD_MLINESTYLE
350
17
  3
ACAD_PLOTSETTINGS
350
19
  3
ACAD_PLOTSTYLENAME
350
E
  3
ACAD_TABLESTYLE
350
34F
  3
ACAD_VISUALSTYLE
350
2A
  0
DICTIONARY
  5
D
102
{ACAD_REACTORS
330
C
102
}
330
C
100
AcDbDictionary
281
     1
  0
DICTIONARY
  5
1A
102
{ACAD_REACTORS
330
C
102
}
330
C
100
AcDbDictionary
281
     1
  3
Layout1
350
1E
  3
Layout2
350
26
  3
Model
350
22
  0
DICTIONARY
  5
3B
102
{ACAD_REACTORS
330
C
102
}
330
C
100
AcDbDictionary
281
     1
  3
ByBlock
350
3D
  3
ByLayer
350
3C
  3
Global
350
3E
  0
DICTIONARY
  5
350
102
{ACAD_REACTORS
330
C
102
}
330
C
100
AcDbDictionary
281
     1
  0
DICTIONARY
  5
17
102
{ACAD_REACTORS
330
C
102
}
330
C
100
AcDbDictionary
281
     1
  3
Standard
350
18
  0
DICTIONARY
  5
19
102
{ACAD_REACTORS
330
C
102
}
330
C
100
AcDbDictionary
281
     1
  0
ACDBDICTIONARYWDFLT
  5
E
102
{ACAD_REACTORS
330
C
102
}
330
C
100
AcDbDictionary
281
     1
  3
Normal
350
F
100
AcDbDictionaryWithDefault
340
F
  0
DICTIONARY
  5
34F
102
{ACAD_REACTORS
330
C
102
}
330
C
100
AcDbDictionary
281
     1
  0
DICTIONARY
  5
2A
102
{ACAD_REACTORS
330
C
102
}
330
C
100
AcDbDictionary
281
     1
  3
2dWireframe
350
2F
  3
3D Hidden
350
31
  3
3dWireframe
350
30
  3
Basic
350
32
  3
Brighten
350
36
  3
ColorChange
350
3A
  3
Conceptual
350
34
  3
Dim
350
35
  3
Facepattern
350
39
  3
Flat
350
2B
  3
FlatWithEdges
350
2C
  3
Gouraud
350
2D
  3
GouraudWithEdges
350
2E
  3
Linepattern
350
38
  3
Realistic
350
33
  3
Thicken
350
37
  0
LAYOUT
  5
1E
102
{ACAD_REACTORS
330
1A
102
}
330
1A
100
AcDbPlotSettings
  1

  2
none_device
  4

  6

 40
0.0
 41
0.0
 42
0.0
 43
0.0
 44
0.0
 45
0.0
 46
0.0
 47
0.0
 48
0.0
 49
0.0
140
0.0
141
0.0
142
1.0
143
1.0
 70
   688
 72
     0
 73
     0
 74
     5
  7

 75
    16
 76
     0
 77
     2
 78
   300
147
1.0
148
0.0
149
0.0
100
AcDbLayout
  1
Layout1
 70
     1
 71
     1
 10
0.0
 20
0.0
 11
12.0
 21
9.0
 12
0.0
 22
0.0
 32
0.0
 14
1.00000000000000E+20
 24
1.00000000000000E+20
 34
1.00000000000000E+20
 15
-1.00000000000000E+20
 25
-1.00000000000000E+20
 35
-1.00000000000000E+20
146
0.0
 13
0.0
 23
0.0
 33
0.0
 16
1.0
 26
0.0
 36
0.0
 17
0.0
 27
1.0
 37
0.0
 76
     0
330
1B
  0
LAYOUT
  5
26
102
{ACAD_REACTORS
330
1A
102
}
330
1A
100
AcDbPlotSettings
  1

  2
none_device
  4

  6

 40
0.0
 41
0.0
 42
0.0
 43
0.0
 44
0.0
 45
0.0
 46
0.0
 47
0.0
 48
0.0
 49
0.0
140
0.0
141
0.0
142
1.0
143
1.0
 70
   688
 72
     0
 73
     0
 74
     5
  7

 75
    16
 76
     0
 77
     2
 78
   300
147
1.0
148
0.0
149
0.0
100
AcDbLayout
  1
Layout2
 70
     1
 71
     2
 10
0.0
 20
0.0
 11
0.0
 21
0.0
 12
0.0
 22
0.0
 32
0.0
 14
0.0
 24
0.0
 34
0.0
 15
0.0
 25
0.0
 35
0.0
146
0.0
 13
0.0
 23
0.0
 33
0.0
 16
1.0
 26
0.0
 36
0.0
 17
0.0
 27
1.0
 37
0.0
 76
     0
330
23
  0
LAYOUT
  5
22
102
{ACAD_REACTORS
330
1A
102
}
330
1A
100
AcDbPlotSettings
  1

  2
none_device
  4

  6

 40
0.0
 41
0.0
 42
0.0
 43
0.0
 44
0.0
 45
0.0
 46
0.0
 47
0.0
 48
0.0
 49
0.0
140
0.0
141
0.0
142
1.0
143
1.0
 70
  1712
 72
     0
 73
     0
 74
     0
  7

 75
     0
 76
     0
 77
     2
 78
   300
147
1.0
148
0.0
149
0.0
100
AcDbLayout
  1
Model
 70
     1
 71
     0
 10
0.0
 20
0.0
 11
12.0
 21
9.0
 12
0.0
 22
0.0
 32
0.0
 14
-217.2646133579264
 24
-1.85751051748403
 34
0.0
 15
79.73538664207175
 25
208.142489482516
 35
0.0
146
0.0
 13
0.0
 23
0.0
 33
0.0
 16
1.0
 26
0.0
 36
0.0
 17
0.0
 27
1.0
 37
0.0
 76
     0
330
1F
331
29
  0
MATERIAL
  5
3D
102
{ACAD_REACTORS
330
3B
102
}
102
{ACAD_XDICTIONARY
360
34B
102
}
330
3B
100
AcDbMaterial
  1
ByBlock
  0
MATERIAL
  5
3C
102
{ACAD_REACTORS
330
3B
102
}
102
{ACAD_XDICTIONARY
360
349
102
}
330
3B
100
AcDbMaterial
  1
ByLayer
  0
MATERIAL
  5
3E
102
{ACAD_REACTORS
330
3B
102
}
102
{ACAD_XDICTIONARY
360
34D
102
}
330
3B
100
AcDbMaterial
  1
Global
  0
MLINESTYLE
  5
18
102
{ACAD_REACTORS
330
17
102
}
330
17
100
AcDbMlineStyle
  2
Standard
 70
     0
  3

 62
   256
 51
90.0
 52
90.0
 71
     2
 49
0.5
 62
   256
  6
BYLAYER
 49
-0.5
 62
   256
  6
BYLAYER
  0
ACDBPLACEHOLDER
  5
F
102
{ACAD_REACTORS
330
E
102
}
330
E
  0
VISUALSTYLE
  5
2F
102
{ACAD_REACTORS
330
2A
102
}
102
{ACAD_XDICTIONARY
360
331
102
}
330
2A
100
AcDbVisualStyle
  2
2dWireframe
 70
     4
 71
     0
 72
     2
 73
     0
 90
        0
 40
-0.6
 41
-30.0
 62
     5
 63
     7
421
 16777215
 74
     1
 91
        4
 64
     7
 65
   257
 75
     1
175
     1
 42
1.0
 92
        0
 66
   257
 43
1.0
 76
     1
 77
     6
 78
     2
 67
     7
 79
     5
170
     0
171
     0
290
     0
174
     0
 93
        1
 44
0.0
173
     0
291
     0
 45
0.0
1001
ACAD
1000
AcDbSavedByObjectVersion
1070
     0
  0
VISUALSTYLE
  5
31
102
{ACAD_REACTORS
330
2A
102
}
102
{ACAD_XDICTIONARY
360
335
102
}
330
2A
100
AcDbVisualStyle
  2
3D Hidden
 70
     6
 71
     1
 72
     2
 73
     2
 90
        0
 40
-0.6
 41
-30.0
 62
     5
 63
     7
421
 16777215
 74
     2
 91
        2
 64
     7
 65
   257
 75
     2
175
     1
 42
40.0
 92
        0
 66
   257
 43
1.0
 76
     1
 77
     6
 78
     2
 67
     7
 79
     3
170
     0
171
     0
290
     0
174
     0
 93
        1
 44
0.0
173
     0
291
     0
 45
0.0
1001
ACAD
1000
AcDbSavedByObjectVersion
1070
     0
  0
VISUALSTYLE
  5
30
102
{ACAD_REACTORS
330
2A
102
}
102
{ACAD_XDICTIONARY
360
333
102
}
330
2A
100
AcDbVisualStyle
  2
3dWireframe
 70
     5
 71
     0
 72
     2
 73
     0
 90
        0
 40
-0.6
 41
-30.0
 62
     5
 63
     7
421
 16777215
 74
     1
 91
        4
 64
     7
 65
   257
 75
     1
175
     1
 42
1.0
 92
        0
 66
   257
 43
1.0
 76
     1
 77
     6
 78
     2
 67
     7
 79
     5
170
     0
171
     0
290
     0
174
     0
 93
        1
 44
0.0
173
     0
291
     0
 45
0.0
1001
ACAD
1000
AcDbSavedByObjectVersion
1070
     0
  0
VISUALSTYLE
  5
32
102
{ACAD_REACTORS
330
2A
102
}
102
{ACAD_XDICTIONARY
360
337
102
}
330
2A
100
AcDbVisualStyle
  2
Basic
 70
     7
 71
     1
 72
     0
 73
     1
 90
        0
 40
-0.6
 41
-30.0
 62
     5
 63
     7
421
 16777215
 74
     0
 91
        4
 64
     7
 65
   257
 75
     1
175
     1
 42
1.0
 92
        8
 66
     7
 43
1.0
 76
     1
 77
     6
 78
     2
 67
     7
 79
     5
170
     0
171
     0
290
     0
174
     0
 93
        1
 44
0.0
173
     0
291
     1
 45
0.0
1001
ACAD
1000
AcDbSavedByObjectVersion
1070
     0
  0
VISUALSTYLE
  5
36
102
{ACAD_REACTORS
330
2A
102
}
102
{ACAD_XDICTIONARY
360
33F
102
}
330
2A
100
AcDbVisualStyle
  2
Brighten
 70
    12
 71
     2
 72
     2
 73
     0
 90
        0
 40
-0.6
 41
-30.0
 62
     5
 63
     7
421
 16777215
 74
     1
 91
        4
 64
     7
 65
   257
 75
     1
175
     1
 42
1.0
 92
        8
 66
     7
 43
1.0
 76
     1
 77
     6
 78
     2
 67
     7
 79
     5
170
     0
171
     0
290
     0
174
     0
 93
        1
 44
50.0
173
     0
291
     1
 45
0.0
1001
ACAD
1000
AcDbSavedByObjectVersion
1070
     0
  0
VISUALSTYLE
  5
3A
102
{ACAD_REACTORS
330
2A
102
}
102
{ACAD_XDICTIONARY
360
347
102
}
330
2A
100
AcDbVisualStyle
  2
ColorChange
 70
    16
 71
     2
 72
     2
 73
     3
 90
        0
 40
-0.6
 41
-30.0
 62
     5
 63
     8
421
  8421504
 74
     1
 91
        4
 64
     7
 65
   257
 75
     1
175
     1
 42
1.0
 92
        8
 66
     8
424
  8421504
 43
1.0
 76
     1
 77
     6
 78
     2
 67
     7
 79
     5
170
     0
171
     0
290
     0
174
     0
 93
        1
 44
0.0
173
     0
291
     1
 45
0.0
1001
ACAD
1000
AcDbSavedByObjectVersion
1070
     0
  0
VISUALSTYLE
  5
34
102
{ACAD_REACTORS
330
2A
102
}
102
{ACAD_XDICTIONARY
360
33B
102
}
330
2A
100
AcDbVisualStyle
  2
Conceptual
 70
     9
 71
     3
 72
     2
 73
     0
 90
        0
 40
-0.6
 41
-30.0
 62
     5
 63
     7
421
 16777215
 74
     2
 91
        2
 64
     7
 65
   257
 75
     1
175
     1
 42
40.0
 92
        8
 66
     7
 43
1.0
 76
     1
 77
     6
 78
     2
 67
     7
 79
     3
170
     0
171
     0
290
     0
174
     0
 93
        1
 44
0.0
173
     0
291
     0
 45
0.0
1001
ACAD
1000
AcDbSavedByObjectVersion
1070
     0
  0
VISUALSTYLE
  5
35
102
{ACAD_REACTORS
330
2A
102
}
102
{ACAD_XDICTIONARY
360
33D
102
}
330
2A
100
AcDbVisualStyle
  2
Dim
 70
    11
 71
     2
 72
     2
 73
     0
 90
        0
 40
-0.6
 41
-30.0
 62
     5
 63
     7
421
 16777215
 74
     1
 91
        4
 64
     7
 65
   257
 75
     1
175
     1
 42
1.0
 92
        8
 66
     7
 43
1.0
 76
     1
 77
     6
 78
     2
 67
     7
 79
     5
170
     0
171
     0
290
     0
174
     0
 93
        1
 44
-50.0
173
     0
291
     1
 45
0.0
1001
ACAD
1000
AcDbSavedByObjectVersion
1070
     0
  0
VISUALSTYLE
  5
39
102
{ACAD_REACTORS
330
2A
102
}
102
{ACAD_XDICTIONARY
360
345
102
}
330
2A
100
AcDbVisualStyle
  2
Facepattern
 70
    15
 71
     2
 72
     2
 73
     0
 90
        0
 40
-0.6
 41
-30.0
 62
     5
 63
     7
421
 16777215
 74
     1
 91
        4
 64
     7
 65
   257
 75
     1
175
     1
 42
1.0
 92
        8
 66
     7
 43
1.0
 76
     1
 77
     6
 78
     2
 67
     7
 79
     5
170
     0
171
     0
290
     0
174
     0
 93
        1
 44
0.0
173
     0
291
     1
 45
0.0
1001
ACAD
1000
AcDbSavedByObjectVersion
1070
     0
  0
VISUALSTYLE
  5
2B
102
{ACAD_REACTORS
330
2A
102
}
102
{ACAD_XDICTIONARY
360
329
102
}
330
2A
100
AcDbVisualStyle
  2
Flat
 70
     0
 71
     2
 72
     1
 73
     1
 90
        2
 40
-0.6
 41
30.0
 62
     5
 63
     7
421
 16777215
 74
     0
 91
        4
 64
     7
 65
   257
 75
     1
175
     1
 42
1.0
 92
        8
 66
     7
 43
1.0
 76
     1
 77
     6
 78
     2
 67
     7
 79
     5
170
     0
171
     0
290
     0
174
     0
 93
       13
 44
0.0
173
     0
291
     1
 45
0.0
1001
ACAD
1000
AcDbSavedByObjectVersion
1070
     0
  0
VISUALSTYLE
  5
2C
102
{ACAD_REACTORS
330
2A
102
}
102
{ACAD_XDICTIONARY
360
32B
102
}
330
2A
100
AcDbVisualStyle
  2
FlatWithEdges
 70
     1
 71
     2
 72
     1
 73
     1
 90
        2
 40
-0.6
 41
30.0
 62
     5
 63
     7
421
 16777215
 74
     1
 91
        4
 64
     7
 65
   257
 75
     1
175
     1
 42
1.0
 92
        0
 66
   257
 43
1.0
 76
     1
 77
     6
 78
     2
 67
     7
 79
     5
170
     0
171
     0
290
     0
174
     0
 93
       13
 44
0.0
173
     0
291
     1
 45
0.0
1001
ACAD
1000
AcDbSavedByObjectVersion
1070
     0
  0
VISUALSTYLE
  5
2D
102
{ACAD_REACTORS
330
2A
102
}
102
{ACAD_XDICTIONARY
360
32D
102
}
330
2A
100
AcDbVisualStyle
  2
Gouraud
 70
     2
 71
     2
 72
     2
 73
     1
 90
        2
 40
-0.6
 41
30.0
 62
     5
 63
     7
421
 16777215
 74
     0
 91
        4
 64
     7
 65
   257
 75
     1
175
     1
 42
1.0
 92
        0
 66
     7
 43
1.0
 76
     1
 77
     6
 78
     2
 67
     7
 79
     5
170
     0
171
     0
290
     0
174
     0
 93
       13
 44
0.0
173
     0
291
     1
 45
0.0
1001
ACAD
1000
AcDbSavedByObjectVersion
1070
     0
  0
VISUALSTYLE
  5
2E
102
{ACAD_REACTORS
330
2A
102
}
102
{ACAD_XDICTIONARY
360
32F
102
}
330
2A
100
AcDbVisualStyle
  2
GouraudWithEdges
 70
     3
 71
     2
 72
     2
 73
     1
 90
        2
 40
-0.6
 41
30.0
 62
     5
 63
     7
421
 16777215
 74
     1
 91
        4
 64
     7
 65
   257
 75
     1
175
     1
 42
1.0
 92
        0
 66
   257
 43
1.0
 76
     1
 77
     6
 78
     2
 67
     7
 79
     5
170
     0
171
     0
290
     0
174
     0
 93
       13
 44
0.0
173
     0
291
     1
 45
0.0
1001
ACAD
1000
AcDbSavedByObjectVersion
1070
     0
  0
VISUALSTYLE
  5
38
102
{ACAD_REACTORS
330
2A
102
}
102
{ACAD_XDICTIONARY
360
343
102
}
330
2A
100
AcDbVisualStyle
  2
Linepattern
 70
    14
 71
     2
 72
     2
 73
     0
 90
        0
 40
-0.6
 41
-30.0
 62
     5
 63
     7
421
 16777215
 74
     1
 91
        4
 64
     7
 65
   257
 75
     7
175
     7
 42
1.0
 92
        8
 66
     7
 43
1.0
 76
     1
 77
     6
 78
     2
 67
     7
 79
     5
170
     0
171
     0
290
     0
174
     0
 93
        1
 44
0.0
173
     0
291
     1
 45
0.0
1001
ACAD
1000
AcDbSavedByObjectVersion
1070
     0
  0
VISUALSTYLE
  5
33
102
{ACAD_REACTORS
330
2A
102
}
102
{ACAD_XDICTIONARY
360
339
102
}
330
2A
100
AcDbVisualStyle
  2
Realistic
 70
     8
 71
     2
 72
     2
 73
     0
 90
        0
 40
-0.6
 41
-30.0
 62
     5
 63
     7
421
 16777215
 74
     1
 91
        0
 64
     7
 65
   257
 75
     1
175
     1
 42
1.0
 92
        8
 66
     8
424
  7895160
 43
1.0
 76
     1
 77
     6
 78
     2
 67
     7
 79
     5
170
     0
171
     0
290
     0
174
     0
 93
       13
 44
0.0
173
     0
291
     0
 45
0.0
1001
ACAD
1000
AcDbSavedByObjectVersion
1070
     0
  0
VISUALSTYLE
  5
37
102
{ACAD_REACTORS
330
2A
102
}
102
{ACAD_XDICTIONARY
360
341
102
}
330
2A
100
AcDbVisualStyle
  2
Thicken
 70
    13
 71
     2
 72
     2
 73
     0
 90
        0
 40
-0.6
 41
-30.0
 62
     5
 63
     7
421
 16777215
 74
     1
 91
        4
 64
     7
 65
   257
 75
     1
175
     1
 42
1.0
 92
       12
 66
     7
 43
1.0
 76
     1
 77
     6
 78
     2
 67
     7
 79
     5
170
     0
171
     0
290
     0
174
     0
 93
        1
 44
0.0
173
     0
291
     1
 45
0.0
1001
ACAD
1000
AcDbSavedByObjectVersion
1070
     0
  0
DICTIONARY
  5
34B
330
3D
100
AcDbDictionary
280
     1
281
     1
  3
ACAD_XREC_ROUNDTRIP
360
34C
  0
DICTIONARY
  5
349
330
3C
100
AcDbDictionary
280
     1
281
     1
  3
ACAD_XREC_ROUNDTRIP
360
34A
  0
DICTIONARY
  5
34D
330
3E
100
AcDbDictionary
280
     1
281
     1
  3
ACAD_XREC_ROUNDTRIP
360
34E
  0
DICTIONARY
  5
331
330
2F
100
AcDbDictionary
280
     1
281
     1
  3
ACAD_XREC_ROUNDTRIP
360
332
  0
DICTIONARY
  5
335
330
31
100
AcDbDictionary
280
     1
281
     1
  3
ACAD_XREC_ROUNDTRIP
360
336
  0
DICTIONARY
  5
333
330
30
100
AcDbDictionary
280
     1
281
     1
  3
ACAD_XREC_ROUNDTRIP
360
334
  0
DICTIONARY
  5
337
330
32
100
AcDbDictionary
280
     1
281
     1
  3
ACAD_XREC_ROUNDTRIP
360
338
  0
DICTIONARY
  5
33F
330
36
100
AcDbDictionary
280
     1
281
     1
  3
ACAD_XREC_ROUNDTRIP
360
340
  0
DICTIONARY
  5
347
330
3A
100
AcDbDictionary
280
     1
281
     1
  3
ACAD_XREC_ROUNDTRIP
360
348
  0
DICTIONARY
  5
33B
330
34
100
AcDbDictionary
280
     1
281
     1
  3
ACAD_XREC_ROUNDTRIP
360
33C
  0
DICTIONARY
  5
33D
330
35
100
AcDbDictionary
280
     1
281
     1
  3
ACAD_XREC_ROUNDTRIP
360
33E
  0
DICTIONARY
  5
345
330
39
100
AcDbDictionary
280
     1
281
     1
  3
ACAD_XREC_ROUNDTRIP
360
346
  0
DICTIONARY
  5
329
330
2B
100
AcDbDictionary
280
     1
281
     1
  3
ACAD_XREC_ROUNDTRIP
360
32A
  0
DICTIONARY
  5
32B
330
2C
100
AcDbDictionary
280
     1
281
     1
  3
ACAD_XREC_ROUNDTRIP
360
32C
  0
DICTIONARY
  5
32D
330
2D
100
AcDbDictionary
280
     1
281
     1
  3
ACAD_XREC_ROUNDTRIP
360
32E
  0
DICTIONARY
  5
32F
330
2E
100
AcDbDictionary
280
     1
281
     1
  3
ACAD_XREC_ROUNDTRIP
360
330
  0
DICTIONARY
  5
343
330
38
100
AcDbDictionary
280
     1
281
     1
  3
ACAD_XREC_ROUNDTRIP
360
344
  0
DICTIONARY
  5
339
330
33
100
AcDbDictionary
280
     1
281
     1
  3
ACAD_XREC_ROUNDTRIP
360
33A
  0
DICTIONARY
  5
341
330
37
100
AcDbDictionary
280
     1
281
     1
  3
ACAD_XREC_ROUNDTRIP
360
342
  0
XRECORD
  5
34C
102
{ACAD_REACTORS
330
34B
102
}
330
34B
100
AcDbXrecord
280
     1
102
MATERIAL
148
0.0
149
0.0
149
0.0
 93
        0
 94
      127
282
     0
 72
     1
 77
     1
171
     1
175
     1
179
     1
273
     0
  0
XRECORD
  5
34A
102
{ACAD_REACTORS
330
349
102
}
330
349
100
AcDbXrecord
280
     1
102
MATERIAL
148
0.0
149
0.0
149
0.0
 93
        0
 94
      127
282
     0
 72
     1
 77
     1
171
     1
175
     1
179
     1
273
     0
  0
XRECORD
  5
34E
102
{ACAD_REACTORS
330
34D
102
}
330
34D
100
AcDbXrecord
280
     1
102
MATERIAL
148
0.0
149
0.0
149
0.0
 93
        0
 94
      127
282
     0
 72
     1
 77
     1
171
     1
175
     1
179
     1
273
     0
  0
XRECORD
  5
332
102
{ACAD_REACTORS
330
331
102
}
330
331
100
AcDbXrecord
280
     1
102
RTVSPropertyOp0
 70
     1
102
RTVSPropertyOp1
 70
     1
102
RTVSPropertyOp2
 70
     1
102
RTVSPropertyOp3
 70
     1
102
RTVSPropertyOp4
 70
     1
102
RTVSPropertyOp5
 70
     1
102
RTVSPropertyOp6
 70
     1
102
RTVSPropertyOp7
 70
     1
102
RTVSPropertyOp8
 70
     1
102
RTVSPropertyOp9
 70
     1
102
RTVSPropertyOp10
 70
     1
102
RTVSPropertyOp11
 70
     1
102
RTVSPropertyOp12
 70
     1
102
RTVSPropertyOp13
 70
     1
102
RTVSPropertyOp14
 70
     1
102
RTVSPropertyOp15
 70
     1
102
RTVSPropertyOp16
 70
     1
102
RTVSPropertyOp17
 70
     1
102
RTVSPropertyOp18
 70
     1
102
RTVSPropertyOp19
 70
     1
102
RTVSPropertyOp20
 70
     1
102
RTVSPropertyOp21
 70
     1
102
RTVSPropertyOp22
 70
     1
102
RTVSPropertyOp23
 70
     1
102
RTVSPropertyOp24
 70
     1
102
RTVSPropertyOp25
 70
     1
102
RTVSPropertyOp26
 70
     1
102
RTVSPropertyOp27
 70
     1
102
RTVSPropertyOp28
 70
     1
102
RTVSPropertyOp29
 70
     1
102
RTVSPropertyOp30
 70
     1
102
RTVSPropertyOp31
 70
     1
102
RTVSPropertyOp32
 70
     1
  0
XRECORD
  5
336
102
{ACAD_REACTORS
330
335
102
}
330
335
100
AcDbXrecord
280
     1
102
RTVSPropertyOp0
 70
     1
102
RTVSPropertyOp1
 70
     1
102
RTVSPropertyOp2
 70
     1
102
RTVSPropertyOp3
 70
     1
102
RTVSPropertyOp4
 70
     1
102
RTVSPropertyOp5
 70
     1
102
RTVSPropertyOp6
 70
     1
102
RTVSPropertyOp7
 70
     1
102
RTVSPropertyOp8
 70
     1
102
RTVSPropertyOp9
 70
     1
102
RTVSPropertyOp10
 70
     1
102
RTVSPropertyOp11
 70
     1
102
RTVSPropertyOp12
 70
     1
102
RTVSPropertyOp13
 70
     1
102
RTVSPropertyOp14
 70
     1
102
RTVSPropertyOp15
 70
     1
102
RTVSPropertyOp16
 70
     1
102
RTVSPropertyOp17
 70
     1
102
RTVSPropertyOp18
 70
     1
102
RTVSPropertyOp19
 70
     1
102
RTVSPropertyOp20
 70
     1
102
RTVSPropertyOp21
 70
     1
102
RTVSPropertyOp22
 70
     1
102
RTVSPropertyOp23
 70
     1
102
RTVSPropertyOp24
 70
     1
102
RTVSPropertyOp25
 70
     1
102
RTVSPropertyOp26
 70
     1
102
RTVSPropertyOp27
 70
     1
102
RTVSPropertyOp28
 70
     1
102
RTVSPropertyOp29
 70
     1
102
RTVSPropertyOp30
 70
     1
102
RTVSPropertyOp31
 70
     1
102
RTVSPropertyOp32
 70
     1
  0
XRECORD
  5
334
102
{ACAD_REACTORS
330
333
102
}
330
333
100
AcDbXrecord
280
     1
102
RTVSPropertyOp0
 70
     1
102
RTVSPropertyOp1
 70
     1
102
RTVSPropertyOp2
 70
     1
102
RTVSPropertyOp3
 70
     1
102
RTVSPropertyOp4
 70
     1
102
RTVSPropertyOp5
 70
     1
102
RTVSPropertyOp6
 70
     1
102
RTVSPropertyOp7
 70
     1
102
RTVSPropertyOp8
 70
     1
102
RTVSPropertyOp9
 70
     1
102
RTVSPropertyOp10
 70
     1
102
RTVSPropertyOp11
 70
     1
102
RTVSPropertyOp12
 70
     1
102
RTVSPropertyOp13
 70
     1
102
RTVSPropertyOp14
 70
     1
102
RTVSPropertyOp15
 70
     1
102
RTVSPropertyOp16
 70
     1
102
RTVSPropertyOp17
 70
     1
102
RTVSPropertyOp18
 70
     1
102
RTVSPropertyOp19
 70
     1
102
RTVSPropertyOp20
 70
     1
102
RTVSPropertyOp21
 70
     1
102
RTVSPropertyOp22
 70
     1
102
RTVSPropertyOp23
 70
     1
102
RTVSPropertyOp24
 70
     1
102
RTVSPropertyOp25
 70
     1
102
RTVSPropertyOp26
 70
     1
102
RTVSPropertyOp27
 70
     1
102
RTVSPropertyOp28
 70
     1
102
RTVSPropertyOp29
 70
     1
102
RTVSPropertyOp30
 70
     1
102
RTVSPropertyOp31
 70
     1
102
RTVSPropertyOp32
 70
     1
  0
XRECORD
  5
338
102
{ACAD_REACTORS
330
337
102
}
330
337
100
AcDbXrecord
280
     1
102
RTVSPropertyOp0
 70
     1
102
RTVSPropertyOp1
 70
     1
102
RTVSPropertyOp2
 70
     1
102
RTVSPropertyOp3
 70
     1
102
RTVSPropertyOp4
 70
     1
102
RTVSPropertyOp5
 70
     1
102
RTVSPropertyOp6
 70
     1
102
RTVSPropertyOp7
 70
     1
102
RTVSPropertyOp8
 70
     1
102
RTVSPropertyOp9
 70
     1
102
RTVSPropertyOp10
 70
     1
102
RTVSPropertyOp11
 70
     1
102
RTVSPropertyOp12
 70
     1
102
RTVSPropertyOp13
 70
     1
102
RTVSPropertyOp14
 70
     1
102
RTVSPropertyOp15
 70
     1
102
RTVSPropertyOp16
 70
     1
102
RTVSPropertyOp17
 70
     1
102
RTVSPropertyOp18
 70
     1
102
RTVSPropertyOp19
 70
     1
102
RTVSPropertyOp20
 70
     1
102
RTVSPropertyOp21
 70
     1
102
RTVSPropertyOp22
 70
     1
102
RTVSPropertyOp23
 70
     1
102
RTVSPropertyOp24
 70
     1
102
RTVSPropertyOp25
 70
     1
102
RTVSPropertyOp26
 70
     1
102
RTVSPropertyOp27
 70
     1
102
RTVSPropertyOp28
 70
     1
102
RTVSPropertyOp29
 70
     1
102
RTVSPropertyOp30
 70
     1
102
RTVSPropertyOp31
 70
     1
102
RTVSPropertyOp32
 70
     1
  0
XRECORD
  5
340
102
{ACAD_REACTORS
330
33F
102
}
330
33F
100
AcDbXrecord
280
     1
102
RTVSPropertyOp0
 70
     1
102
RTVSPropertyOp1
 70
     1
102
RTVSPropertyOp2
 70
     1
102
RTVSPropertyOp3
 70
     1
102
RTVSPropertyOp4
 70
     1
102
RTVSPropertyOp5
 70
     1
102
RTVSPropertyOp6
 70
     1
102
RTVSPropertyOp7
 70
     1
102
RTVSPropertyOp8
 70
     1
102
RTVSPropertyOp9
 70
     1
102
RTVSPropertyOp10
 70
     1
102
RTVSPropertyOp11
 70
     1
102
RTVSPropertyOp12
 70
     1
102
RTVSPropertyOp13
 70
     1
102
RTVSPropertyOp14
 70
     1
102
RTVSPropertyOp15
 70
     1
102
RTVSPropertyOp16
 70
     1
102
RTVSPropertyOp17
 70
     1
102
RTVSPropertyOp18
 70
     1
102
RTVSPropertyOp19
 70
     1
102
RTVSPropertyOp20
 70
     1
102
RTVSPropertyOp21
 70
     1
102
RTVSPropertyOp22
 70
     1
102
RTVSPropertyOp23
 70
     1
102
RTVSPropertyOp24
 70
     1
102
RTVSPropertyOp25
 70
     1
102
RTVSPropertyOp26
 70
     1
102
RTVSPropertyOp27
 70
     1
102
RTVSPropertyOp28
 70
     1
102
RTVSPropertyOp29
 70
     1
102
RTVSPropertyOp30
 70
     1
102
RTVSPropertyOp31
 70
     1
102
RTVSPropertyOp32
 70
     1
  0
XRECORD
  5
348
102
{ACAD_REACTORS
330
347
102
}
330
347
100
AcDbXrecord
280
     1
102
RTVSPropertyOp0
 70
     1
102
RTVSPropertyOp1
 70
     1
102
RTVSPropertyOp2
 70
     1
102
RTVSPropertyOp3
 70
     1
102
RTVSPropertyOp4
 70
     1
102
RTVSPropertyOp5
 70
     1
102
RTVSPropertyOp6
 70
     1
102
RTVSPropertyOp7
 70
     1
102
RTVSPropertyOp8
 70
     1
102
RTVSPropertyOp9
 70
     1
102
RTVSPropertyOp10
 70
     1
102
RTVSPropertyOp11
 70
     1
102
RTVSPropertyOp12
 70
     1
102
RTVSPropertyOp13
 70
     1
102
RTVSPropertyOp14
 70
     1
102
RTVSPropertyOp15
 70
     1
102
RTVSPropertyOp16
 70
     1
102
RTVSPropertyOp17
 70
     1
102
RTVSPropertyOp18
 70
     1
102
RTVSPropertyOp19
 70
     1
102
RTVSPropertyOp20
 70
     1
102
RTVSPropertyOp21
 70
     1
102
RTVSPropertyOp22
 70
     1
102
RTVSPropertyOp23
 70
     1
102
RTVSPropertyOp24
 70
     1
102
RTVSPropertyOp25
 70
     1
102
RTVSPropertyOp26
 70
     1
102
RTVSPropertyOp27
 70
     1
102
RTVSPropertyOp28
 70
     1
102
RTVSPropertyOp29
 70
     1
102
RTVSPropertyOp30
 70
     1
102
RTVSPropertyOp31
 70
     1
102
RTVSPropertyOp32
 70
     1
  0
XRECORD
  5
33C
102
{ACAD_REACTORS
330
33B
102
}
330
33B
100
AcDbXrecord
280
     1
102
RTVSPropertyOp0
 70
     1
102
RTVSPropertyOp1
 70
     1
102
RTVSPropertyOp2
 70
     1
102
RTVSPropertyOp3
 70
     1
102
RTVSPropertyOp4
 70
     1
102
RTVSPropertyOp5
 70
     1
102
RTVSPropertyOp6
 70
     1
102
RTVSPropertyOp7
 70
     1
102
RTVSPropertyOp8
 70
     1
102
RTVSPropertyOp9
 70
     1
102
RTVSPropertyOp10
 70
     1
102
RTVSPropertyOp11
 70
     1
102
RTVSPropertyOp12
 70
     1
102
RTVSPropertyOp13
 70
     1
102
RTVSPropertyOp14
 70
     1
102
RTVSPropertyOp15
 70
     1
102
RTVSPropertyOp16
 70
     1
102
RTVSPropertyOp17
 70
     1
102
RTVSPropertyOp18
 70
     1
102
RTVSPropertyOp19
 70
     1
102
RTVSPropertyOp20
 70
     1
102
RTVSPropertyOp21
 70
     1
102
RTVSPropertyOp22
 70
     1
102
RTVSPropertyOp23
 70
     1
102
RTVSPropertyOp24
 70
     1
102
RTVSPropertyOp25
 70
     1
102
RTVSPropertyOp26
 70
     1
102
RTVSPropertyOp27
 70
     1
102
RTVSPropertyOp28
 70
     1
102
RTVSPropertyOp29
 70
     1
102
RTVSPropertyOp30
 70
     1
102
RTVSPropertyOp31
 70
     1
102
RTVSPropertyOp32
 70
     1
  0
XRECORD
  5
33E
102
{ACAD_REACTORS
330
33D
102
}
330
33D
100
AcDbXrecord
280
     1
102
RTVSPropertyOp0
 70
     1
102
RTVSPropertyOp1
 70
     1
102
RTVSPropertyOp2
 70
     1
102
RTVSPropertyOp3
 70
     1
102
RTVSPropertyOp4
 70
     1
102
RTVSPropertyOp5
 70
     1
102
RTVSPropertyOp6
 70
     1
102
RTVSPropertyOp7
 70
     1
102
RTVSPropertyOp8
 70
     1
102
RTVSPropertyOp9
 70
     1
102
RTVSPropertyOp10
 70
     1
102
RTVSPropertyOp11
 70
     1
102
RTVSPropertyOp12
 70
     1
102
RTVSPropertyOp13
 70
     1
102
RTVSPropertyOp14
 70
     1
102
RTVSPropertyOp15
 70
     1
102
RTVSPropertyOp16
 70
     1
102
RTVSPropertyOp17
 70
     1
102
RTVSPropertyOp18
 70
     1
102
RTVSPropertyOp19
 70
     1
102
RTVSPropertyOp20
 70
     1
102
RTVSPropertyOp21
 70
     1
102
RTVSPropertyOp22
 70
     1
102
RTVSPropertyOp23
 70
     1
102
RTVSPropertyOp24
 70
     1
102
RTVSPropertyOp25
 70
     1
102
RTVSPropertyOp26
 70
     1
102
RTVSPropertyOp27
 70
     1
102
RTVSPropertyOp28
 70
     1
102
RTVSPropertyOp29
 70
     1
102
RTVSPropertyOp30
 70
     1
102
RTVSPropertyOp31
 70
     1
102
RTVSPropertyOp32
 70
     1
  0
XRECORD
  5
346
102
{ACAD_REACTORS
330
345
102
}
330
345
100
AcDbXrecord
280
     1
102
RTVSPropertyOp0
 70
     1
102
RTVSPropertyOp1
 70
     1
102
RTVSPropertyOp2
 70
     1
102
RTVSPropertyOp3
 70
     1
102
RTVSPropertyOp4
 70
     1
102
RTVSPropertyOp5
 70
     1
102
RTVSPropertyOp6
 70
     1
102
RTVSPropertyOp7
 70
     1
102
RTVSPropertyOp8
 70
     1
102
RTVSPropertyOp9
 70
     1
102
RTVSPropertyOp10
 70
     1
102
RTVSPropertyOp11
 70
     1
102
RTVSPropertyOp12
 70
     1
102
RTVSPropertyOp13
 70
     1
102
RTVSPropertyOp14
 70
     1
102
RTVSPropertyOp15
 70
     1
102
RTVSPropertyOp16
 70
     1
102
RTVSPropertyOp17
 70
     1
102
RTVSPropertyOp18
 70
     1
102
RTVSPropertyOp19
 70
     1
102
RTVSPropertyOp20
 70
     1
102
RTVSPropertyOp21
 70
     1
102
RTVSPropertyOp22
 70
     1
102
RTVSPropertyOp23
 70
     1
102
RTVSPropertyOp24
 70
     1
102
RTVSPropertyOp25
 70
     1
102
RTVSPropertyOp26
 70
     1
102
RTVSPropertyOp27
 70
     1
102
RTVSPropertyOp28
 70
     1
102
RTVSPropertyOp29
 70
     1
102
RTVSPropertyOp30
 70
     1
102
RTVSPropertyOp31
 70
     1
102
RTVSPropertyOp32
 70
     1
  0
XRECORD
  5
32A
102
{ACAD_REACTORS
330
329
102
}
330
329
100
AcDbXrecord
280
     1
102
RTVSPropertyOp0
 70
     1
102
RTVSPropertyOp1
 70
     1
102
RTVSPropertyOp2
 70
     1
102
RTVSPropertyOp3
 70
     1
102
RTVSPropertyOp4
 70
     1
102
RTVSPropertyOp5
 70
     1
102
RTVSPropertyOp6
 70
     1
102
RTVSPropertyOp7
 70
     1
102
RTVSPropertyOp8
 70
     1
102
RTVSPropertyOp9
 70
     1
102
RTVSPropertyOp10
 70
     1
102
RTVSPropertyOp11
 70
     1
102
RTVSPropertyOp12
 70
     1
102
RTVSPropertyOp13
 70
     1
102
RTVSPropertyOp14
 70
     1
102
RTVSPropertyOp15
 70
     1
102
RTVSPropertyOp16
 70
     1
102
RTVSPropertyOp17
 70
     1
102
RTVSPropertyOp18
 70
     1
102
RTVSPropertyOp19
 70
     1
102
RTVSPropertyOp20
 70
     1
102
RTVSPropertyOp21
 70
     1
102
RTVSPropertyOp22
 70
     1
102
RTVSPropertyOp23
 70
     1
102
RTVSPropertyOp24
 70
     1
102
RTVSPropertyOp25
 70
     1
102
RTVSPropertyOp26
 70
     1
102
RTVSPropertyOp27
 70
     1
102
RTVSPropertyOp28
 70
     1
102
RTVSPropertyOp29
 70
     1
102
RTVSPropertyOp30
 70
     1
102
RTVSPropertyOp31
 70
     1
102
RTVSPropertyOp32
 70
     1
  0
XRECORD
  5
32C
102
{ACAD_REACTORS
330
32B
102
}
330
32B
100
AcDbXrecord
280
     1
102
RTVSPropertyOp0
 70
     1
102
RTVSPropertyOp1
 70
     1
102
RTVSPropertyOp2
 70
     1
102
RTVSPropertyOp3
 70
     1
102
RTVSPropertyOp4
 70
     1
102
RTVSPropertyOp5
 70
     1
102
RTVSPropertyOp6
 70
     1
102
RTVSPropertyOp7
 70
     1
102
RTVSPropertyOp8
 70
     1
102
RTVSPropertyOp9
 70
     1
102
RTVSPropertyOp10
 70
     1
102
RTVSPropertyOp11
 70
     1
102
RTVSPropertyOp12
 70
     1
102
RTVSPropertyOp13
 70
     1
102
RTVSPropertyOp14
 70
     1
102
RTVSPropertyOp15
 70
     1
102
RTVSPropertyOp16
 70
     1
102
RTVSPropertyOp17
 70
     1
102
RTVSPropertyOp18
 70
     1
102
RTVSPropertyOp19
 70
     1
102
RTVSPropertyOp20
 70
     1
102
RTVSPropertyOp21
 70
     1
102
RTVSPropertyOp22
 70
     1
102
RTVSPropertyOp23
 70
     1
102
RTVSPropertyOp24
 70
     1
102
RTVSPropertyOp25
 70
     1
102
RTVSPropertyOp26
 70
     1
102
RTVSPropertyOp27
 70
     1
102
RTVSPropertyOp28
 70
     1
102
RTVSPropertyOp29
 70
     1
102
RTVSPropertyOp30
 70
     1
102
RTVSPropertyOp31
 70
     1
102
RTVSPropertyOp32
 70
     1
  0
XRECORD
  5
32E
102
{ACAD_REACTORS
330
32D
102
}
330
32D
100
AcDbXrecord
280
     1
102
RTVSPropertyOp0
 70
     1
102
RTVSPropertyOp1
 70
     1
102
RTVSPropertyOp2
 70
     1
102
RTVSPropertyOp3
 70
     1
102
RTVSPropertyOp4
 70
     1
102
RTVSPropertyOp5
 70
     1
102
RTVSPropertyOp6
 70
     1
102
RTVSPropertyOp7
 70
     1
102
RTVSPropertyOp8
 70
     1
102
RTVSPropertyOp9
 70
     1
102
RTVSPropertyOp10
 70
     1
102
RTVSPropertyOp11
 70
     1
102
RTVSPropertyOp12
 70
     1
102
RTVSPropertyOp13
 70
     1
102
RTVSPropertyOp14
 70
     1
102
RTVSPropertyOp15
 70
     1
102
RTVSPropertyOp16
 70
     1
102
RTVSPropertyOp17
 70
     1
102
RTVSPropertyOp18
 70
     1
102
RTVSPropertyOp19
 70
     1
102
RTVSPropertyOp20
 70
     1
102
RTVSPropertyOp21
 70
     1
102
RTVSPropertyOp22
 70
     1
102
RTVSPropertyOp23
 70
     1
102
RTVSPropertyOp24
 70
     1
102
RTVSPropertyOp25
 70
     1
102
RTVSPropertyOp26
 70
     1
102
RTVSPropertyOp27
 70
     1
102
RTVSPropertyOp28
 70
     1
102
RTVSPropertyOp29
 70
     1
102
RTVSPropertyOp30
 70
     1
102
RTVSPropertyOp31
 70
     1
102
RTVSPropertyOp32
 70
     1
  0
XRECORD
  5
330
102
{ACAD_REACTORS
330
32F
102
}
330
32F
100
AcDbXrecord
280
     1
102
RTVSPropertyOp0
 70
     1
102
RTVSPropertyOp1
 70
     1
102
RTVSPropertyOp2
 70
     1
102
RTVSPropertyOp3
 70
     1
102
RTVSPropertyOp4
 70
     1
102
RTVSPropertyOp5
 70
     1
102
RTVSPropertyOp6
 70
     1
102
RTVSPropertyOp7
 70
     1
102
RTVSPropertyOp8
 70
     1
102
RTVSPropertyOp9
 70
     1
102
RTVSPropertyOp10
 70
     1
102
RTVSPropertyOp11
 70
     1
102
RTVSPropertyOp12
 70
     1
102
RTVSPropertyOp13
 70
     1
102
RTVSPropertyOp14
 70
     1
102
RTVSPropertyOp15
 70
     1
102
RTVSPropertyOp16
 70
     1
102
RTVSPropertyOp17
 70
     1
102
RTVSPropertyOp18
 70
     1
102
RTVSPropertyOp19
 70
     1
102
RTVSPropertyOp20
 70
     1
102
RTVSPropertyOp21
 70
     1
102
RTVSPropertyOp22
 70
     1
102
RTVSPropertyOp23
 70
     1
102
RTVSPropertyOp24
 70
     1
102
RTVSPropertyOp25
 70
     1
102
RTVSPropertyOp26
 70
     1
102
RTVSPropertyOp27
 70
     1
102
RTVSPropertyOp28
 70
     1
102
RTVSPropertyOp29
 70
     1
102
RTVSPropertyOp30
 70
     1
102
RTVSPropertyOp31
 70
     1
102
RTVSPropertyOp32
 70
     1
  0
XRECORD
  5
344
102
{ACAD_REACTORS
330
343
102
}
330
343
100
AcDbXrecord
280
     1
102
RTVSPropertyOp0
 70
     1
102
RTVSPropertyOp1
 70
     1
102
RTVSPropertyOp2
 70
     1
102
RTVSPropertyOp3
 70
     1
102
RTVSPropertyOp4
 70
     1
102
RTVSPropertyOp5
 70
     1
102
RTVSPropertyOp6
 70
     1
102
RTVSPropertyOp7
 70
     1
102
RTVSPropertyOp8
 70
     1
102
RTVSPropertyOp9
 70
     1
102
RTVSPropertyOp10
 70
     1
102
RTVSPropertyOp11
 70
     1
102
RTVSPropertyOp12
 70
     1
102
RTVSPropertyOp13
 70
     1
102
RTVSPropertyOp14
 70
     1
102
RTVSPropertyOp15
 70
     1
102
RTVSPropertyOp16
 70
     1
102
RTVSPropertyOp17
 70
     1
102
RTVSPropertyOp18
 70
     1
102
RTVSPropertyOp19
 70
     1
102
RTVSPropertyOp20
 70
     1
102
RTVSPropertyOp21
 70
     1
102
RTVSPropertyOp22
 70
     1
102
RTVSPropertyOp23
 70
     1
102
RTVSPropertyOp24
 70
     1
102
RTVSPropertyOp25
 70
     1
102
RTVSPropertyOp26
 70
     1
102
RTVSPropertyOp27
 70
     1
102
RTVSPropertyOp28
 70
     1
102
RTVSPropertyOp29
 70
     1
102
RTVSPropertyOp30
 70
     1
102
RTVSPropertyOp31
 70
     1
102
RTVSPropertyOp32
 70
     1
  0
XRECORD
  5
33A
102
{ACAD_REACTORS
330
339
102
}
330
339
100
AcDbXrecord
280
     1
102
RTVSPropertyOp0
 70
     1
102
RTVSPropertyOp1
 70
     1
102
RTVSPropertyOp2
 70
     1
102
RTVSPropertyOp3
 70
     1
102
RTVSPropertyOp4
 70
     1
102
RTVSPropertyOp5
 70
     1
102
RTVSPropertyOp6
 70
     1
102
RTVSPropertyOp7
 70
     1
102
RTVSPropertyOp8
 70
     1
102
RTVSPropertyOp9
 70
     1
102
RTVSPropertyOp10
 70
     1
102
RTVSPropertyOp11
 70
     1
102
RTVSPropertyOp12
 70
     1
102
RTVSPropertyOp13
 70
     1
102
RTVSPropertyOp14
 70
     1
102
RTVSPropertyOp15
 70
     1
102
RTVSPropertyOp16
 70
     1
102
RTVSPropertyOp17
 70
     1
102
RTVSPropertyOp18
 70
     1
102
RTVSPropertyOp19
 70
     1
102
RTVSPropertyOp20
 70
     1
102
RTVSPropertyOp21
 70
     1
102
RTVSPropertyOp22
 70
     1
102
RTVSPropertyOp23
 70
     1
102
RTVSPropertyOp24
 70
     1
102
RTVSPropertyOp25
 70
     1
102
RTVSPropertyOp26
 70
     1
102
RTVSPropertyOp27
 70
     1
102
RTVSPropertyOp28
 70
     1
102
RTVSPropertyOp29
 70
     1
102
RTVSPropertyOp30
 70
     1
102
RTVSPropertyOp31
 70
     1
102
RTVSPropertyOp32
 70
     1
  0
XRECORD
  5
342
102
{ACAD_REACTORS
330
341
102
}
330
341
100
AcDbXrecord
280
     1
102
RTVSPropertyOp0
 70
     1
102
RTVSPropertyOp1
 70
     1
102
RTVSPropertyOp2
 70
     1
102
RTVSPropertyOp3
 70
     1
102
RTVSPropertyOp4
 70
     1
102
RTVSPropertyOp5
 70
     1
102
RTVSPropertyOp6
 70
     1
102
RTVSPropertyOp7
 70
     1
102
RTVSPropertyOp8
 70
     1
102
RTVSPropertyOp9
 70
     1
102
RTVSPropertyOp10
 70
     1
102
RTVSPropertyOp11
 70
     1
102
RTVSPropertyOp12
 70
     1
102
RTVSPropertyOp13
 70
     1
102
RTVSPropertyOp14
 70
     1
102
RTVSPropertyOp15
 70
     1
102
RTVSPropertyOp16
 70
     1
102
RTVSPropertyOp17
 70
     1
102
RTVSPropertyOp18
 70
     1
102
RTVSPropertyOp19
 70
     1
102
RTVSPropertyOp20
 70
     1
102
RTVSPropertyOp21
 70
     1
102
RTVSPropertyOp22
 70
     1
102
RTVSPropertyOp23
 70
     1
102
RTVSPropertyOp24
 70
     1
102
RTVSPropertyOp25
 70
     1
102
RTVSPropertyOp26
 70
     1
102
RTVSPropertyOp27
 70
     1
102
RTVSPropertyOp28
 70
     1
102
RTVSPropertyOp29
 70
     1
102
RTVSPropertyOp30
 70
     1
102
RTVSPropertyOp31
 70
     1
102
RTVSPropertyOp32
 70
     1
  0
ENDSEC
  0
EOF
