  0
SECTION
  2
HEADER
  9
$ACADVER
  1
AC1018
  9
$ACADMAINTVER
 70
     0
  9
$DWGCODEPAGE
  3
ANSI_1252
  9
$INSBASE
 10
0.0
 20
0.0
 30
0.0
  9
$EXTMIN
 10
-241.0496766515981
 20
-27.4209451360932
 30
0.0
  9
$EXTMAX
 10
55.95032334839993
 20
182.5790548639069
 30
0.0
  9
$LIMMIN
 10
0.0
 20
0.0
  9
$LIMMAX
 10
12.0
 20
9.0
  9
$ORTHOMODE
 70
     0
  9
$REGENMODE
 70
     1
  9
$FILLMODE
 70
     1
  9
$QTEXTMODE
 70
     0
  9
$MIRRTEXT
 70
     1
  9
$LTSCALE
 40
1.0
  9
$ATTMODE
 70
     1
  9
$TEXTSIZE
 40
0.2
  9
$TRACEWID
 40
0.05
  9
$TEXTSTYLE
  7
Standard
  9
$CLAYER
  8
0
  9
$CELTYPE
  6
ByLayer
  9
$CECOLOR
 62
   256
  9
$CELTSCALE
 40
1.0
  9
$DISPSILH
 70
     0
  9
$DIMSCALE
 40
1.0
  9
$DIMASZ
 40
0.18
  9
$DIMEXO
 40
0.0625
  9
$DIMDLI
 40
0.38
  9
$DIMRND
 40
0.0
  9
$DIMDLE
 40
0.0
  9
$DIMEXE
 40
0.18
  9
$DIMTP
 40
0.0
  9
$DIMTM
 40
0.0
  9
$DIMTXT
 40
0.18
  9
$DIMCEN
 40
0.09
  9
$DIMTSZ
 40
0.0
  9
$DIMTOL
 70
     0
  9
$DIMLIM
 70
     0
  9
$DIMTIH
 70
     1
  9
$DIMTOH
 70
     1
  9
$DIMSE1
 70
     0
  9
$DIMSE2
 70
     0
  9
$DIMTAD
 70
     0
  9
$DIMZIN
 70
     0
  9
$DIMBLK
  1

  9
$DIMASO
 70
     1
  9
$DIMSHO
 70
     1
  9
$DIMPOST
  1

  9
$DIMAPOST
  1

  9
$DIMALT
 70
     0
  9
$DIMALTD
 70
     2
  9
$DIMALTF
 40
25.4
  9
$DIMLFAC
 40
1.0
  9
$DIMTOFL
 70
     0
  9
$DIMTVP
 40
0.0
  9
$DIMTIX
 70
     0
  9
$DIMSOXD
 70
     0
  9
$DIMSAH
 70
     0
  9
$DIMBLK1
  1

  9
$DIMBLK2
  1

  9
$DIMSTYLE
  2
Standard
  9
$DIMCLRD
 70
     0
  9
$DIMCLRE
 70
     0
  9
$DIMCLRT
 70
     0
  9
$DIMTFAC
 40
1.0
  9
$DIMGAP
 40
0.09
  9
$DIMJUST
 70
     0
  9
$DIMSD1
 70
     0
  9
$DIMSD2
 70
     0
  9
$DIMTOLJ
 70
     1
  9
$DIMTZIN
 70
     0
  9
$DIMALTZ
 70
     0
  9
$DIMALTTZ
 70
     0
  9
$DIMUPT
 70
     0
  9
$DIMDEC
 70
     4
  9
$DIMTDEC
 70
     4
  9
$DIMALTU
 70
     2
  9
$DIMALTTD
 70
     2
  9
$DIMTXSTY
  7
Standard
  9
$DIMAUNIT
 70
     0
  9
$DIMADEC
 70
     0
  9
$DIMALTRND
 40
0.0
  9
$DIMAZIN
 70
     0
  9
$DIMDSEP
 70
    46
  9
$DIMATFIT
 70
     3
  9
$DIMFRAC
 70
     0
  9
$DIMLDRBLK
  1

  9
$DIMLUNIT
 70
     2
  9
$DIMLWD
 70
    -2
  9
$DIMLWE
 70
    -2
  9
$DIMTMOVE
 70
     0
  9
$LUNITS
 70
     2
  9
$LUPREC
 70
     4
  9
$SKETCHINC
 40
0.1
  9
$FILLETRAD
 40
0.5
  9
$AUNITS
 70
     0
  9
$AUPREC
 70
     0
  9
$MENU
  1
.
  9
$ELEVATION
 40
0.0
  9
$PELEVATION
 40
0.0
  9
$THICKNESS
 40
0.0
  9
$LIMCHECK
 70
     0
  9
$CHAMFERA
 40
0.5
  9
$CHAMFERB
 40
0.5
  9
$CHAMFERC
 40
1.0
  9
$CHAMFERD
 40
0.0
  9
$SKPOLY
 70
     0
  9
$TDCREATE
 40
2458146.460568912
  9
$TDUCREATE
 40
2458146.418902245
  9
$TDUPDATE
 40
2458146.460569271
  9
$TDUUPDATE
 40
2458146.418902604
  9
$TDINDWG
 40
0.0000000116
  9
$TDUSRTIMER
 40
0.0000000116
  9
$USRTIMER
 70
     1
  9
$ANGBASE
 50
0.0
  9
$ANGDIR
 70
     0
  9
$PDMODE
 70
     0
  9
$PDSIZE
 40
0.0
  9
$PLINEWID
 40
0.0
  9
$SPLFRAME
 70
     0
  9
$SPLINETYPE
 70
     6
  9
$SPLINESEGS
 70
     8
  9
$HANDSEED
  5
328
  9
$SURFTAB1
 70
     6
  9
$SURFTAB2
 70
     6
  9
$SURFTYPE
 70
     6
  9
$SURFU
 70
     6
  9
$SURFV
 70
     6
  9
$UCSBASE
  2

  9
$UCSNAME
  2

  9
$UCSORG
 10
0.0
 20
0.0
 30
0.0
  9
$UCSXDIR
 10
1.0
 20
0.0
 30
0.0
  9
$UCSYDIR
 10
0.0
 20
1.0
 30
0.0
  9
$UCSORTHOREF
  2

  9
$UCSORTHOVIEW
 70
     0
  9
$UCSORGTOP
 10
0.0
 20
0.0
 30
0.0
  9
$UCSORGBOTTOM
 10
0.0
 20
0.0
 30
0.0
  9
$UCSORGLEFT
 10
0.0
 20
0.0
 30
0.0
  9
$UCSORGRIGHT
 10
0.0
 20
0.0
 30
0.0
  9
$UCSORGFRONT
 10
0.0
 20
0.0
 30
0.0
  9
$UCSORGBACK
 10
0.0
 20
0.0
 30
0.0
  9
$PUCSBASE
  2

  9
$PUCSNAME
  2

  9
$PUCSORG
 10
0.0
 20
0.0
 30
0.0
  9
$PUCSXDIR
 10
1.0
 20
0.0
 30
0.0
  9
$PUCSYDIR
 10
0.0
 20
1.0
 30
0.0
  9
$PUCSORTHOREF
  2

  9
$PUCSORTHOVIEW
 70
     0
  9
$PUCSORGTOP
 10
0.0
 20
0.0
 30
0.0
  9
$PUCSORGBOTTOM
 10
0.0
 20
0.0
 30
0.0
  9
$PUCSORGLEFT
 10
0.0
 20
0.0
 30
0.0
  9
$PUCSORGRIGHT
 10
0.0
 20
0.0
 30
0.0
  9
$PUCSORGFRONT
 10
0.0
 20
0.0
 30
0.0
  9
$PUCSORGBACK
 10
0.0
 20
0.0
 30
0.0
  9
$USERI1
 70
     0
  9
$USERI2
 70
     0
  9
$USERI3
 70
     0
  9
$USERI4
 70
     0
  9
$USERI5
 70
     0
  9
$USERR1
 40
18.1
  9
$USERR2
 40
0.0
  9
$USERR3
 40
0.0
  9
$USERR4
 40
0.0
  9
$USERR5
 40
0.0
  9
$WORLDVIEW
 70
     1
  9
$SHADEDGE
 70
     3
  9
$SHADEDIF
 70
    70
  9
$TILEMODE
 70
     1
  9
$MAXACTVP
 70
    64
  9
$PINSBASE
 10
0.0
 20
0.0
 30
0.0
  9
$PLIMCHECK
 70
     0
  9
$PEXTMIN
 10
1.00000000000000E+20
 20
1.00000000000000E+20
 30
1.00000000000000E+20
  9
$PEXTMAX
 10
-1.00000000000000E+20
 20
-1.00000000000000E+20
 30
-1.00000000000000E+20
  9
$PLIMMIN
 10
0.0
 20
0.0
  9
$PLIMMAX
 10
12.0
 20
9.0
  9
$UNITMODE
 70
     0
  9
$VISRETAIN
 70
     1
  9
$PLINEGEN
 70
     0
  9
$PSLTSCALE
 70
     1
  9
$TREEDEPTH
 70
  3020
  9
$CMLSTYLE
  2
Standard
  9
$CMLJUST
 70
     0
  9
$CMLSCALE
 40
1.0
  9
$PROXYGRAPHICS
 70
     1
  9
$MEASUREMENT
 70
     1
  9
$CELWEIGHT
370
    -1
  9
$ENDCAPS
280
     0
  9
$JOINSTYLE
280
     0
  9
$LWDISPLAY
290
     0
  9
$INSUNITS
 70
     4
  9
$HYPERLINKBASE
  1

  9
$STYLESHEET
  1

  9
$XEDIT
290
     1
  9
$CEPSNTYPE
380
     0
  9
$PSTYLEMODE
290
     1
  9
$FINGERPRINTGUID
  2
{0F48F322-EF34-4F05-AF2E-BF5219BCD476}
  9
$VERSIONGUID
  2
{FAEB1C32-E019-11D5-929B-00C0DF256EC4}
  9
$EXTNAMES
290
     1
  9
$PSVPSCALE
 40
0.0
  9
$OLESTARTUP
290
     0
  9
$SORTENTS
280
   127
  9
$INDEXCTL
280
     0
  9
$HIDETEXT
280
     1
  9
$XCLIPFRAME
290
     0
  9
$HALOGAP
280
     0
  9
$OBSCOLOR
 70
   257
  9
$OBSLTYPE
280
     0
  9
$INTERSECTIONDISPLAY
280
     0
  9
$INTERSECTIONCOLOR
 70
   257
  9
$DIMASSOC
280
     2
  9
$PROJECTNAME
  1

  0
ENDSEC
  0
SECTION
  2
CLASSES
  0
CLASS
  1
ACDBDICTIONARYWDFLT
  2
AcDbDictionaryWithDefault
  3
ObjectDBX Classes
 90
        0
 91
        4
280
     0
281
     0
  0
CLASS
  1
VISUALSTYLE
  2
AcDbVisualStyle
  3
ObjectDBX Classes
 90
     4095
 91
        4
280
     0
281
     0
  0
CLASS
  1
MATERIAL
  2
AcDbMaterial
  3
ObjectDBX Classes
 90
     1153
 91
        4
280
     0
281
     0
  0
ENDSEC
  0
SECTION
  2
TABLES
  0
TABLE
  2
VPORT
  5
8
330
0
100
AcDbSymbolTable
 70
     1
  0
VPORT
  5
29
330
8
100
AcDbSymbolTableRecord
100
AcDbViewportTableRecord
  2
*Active
 70
     0
 10
0.0
 20
0.0
 11
1.0
 21
1.0
 12
-92.54967665159909
 22
77.57905486390685
 13
0.0
 23
0.0
 14
0.5
 24
0.5
 15
0.5
 25
0.5
 16
0.0
 26
0.0
 36
1.0
 17
0.0
 27
0.0
 37
0.0
 40
231.0000000000001
 41
1.60267857142857
 42
50.0
 43
0.0
 44
0.0
 50
0.0
 51
0.0
 71
     0
 72
   100
 73
     1
 74
     3
 75
     0
 76
     0
 77
     0
 78
     0
281
     0
 65
     1
110
0.0
120
0.0
130
0.0
111
1.0
121
0.0
131
0.0
112
0.0
122
1.0
132
0.0
 79
     0
146
0.0
  0
ENDTAB
  0
TABLE
  2
LTYPE
  5
5
330
0
100
AcDbSymbolTable
 70
     8
  0
LTYPE
  5
14
330
5
100
AcDbSymbolTableRecord
100
AcDbLinetypeTableRecord
  2
ByBlock
 70
     0
  3

 72
    65
 73
     0
 40
0.0
  0
LTYPE
  5
15
330
5
100
AcDbSymbolTableRecord
100
AcDbLinetypeTableRecord
  2
ByLayer
 70
     0
  3

 72
    65
 73
     0
 40
0.0
  0
LTYPE
  5
16
330
5
100
AcDbSymbolTableRecord
100
AcDbLinetypeTableRecord
  2
Continuous
 70
     0
  3
Solid line
 72
    65
 73
     0
 40
0.0
  0
LTYPE
  5
3F
330
5
100
AcDbSymbolTableRecord
100
AcDbLinetypeTableRecord
  2
DASHED
 70
     0
  3
Dashed
 72
    65
 73
     2
 40
15.0
 49
7.0
 74
     0
 49
-8.0
 74
     0
  0
LTYPE
  5
40
330
5
100
AcDbSymbolTableRecord
100
AcDbLinetypeTableRecord
  2
DOTTED
 70
     0
  3
Dotted
 72
    65
 73
     2
 40
1.0
 49
0.0
 74
     0
 49
-1.0
 74
     0
  0
LTYPE
  5
41
330
5
100
AcDbSymbolTableRecord
100
AcDbLinetypeTableRecord
  2
DOT_CENTER
 70
     0
  3
Dot_Center
 72
    65
 73
     4
 40
14.0
 49
12.0
 74
     0
 49
-1.0
 74
     0
 49
0.0
 74
     0
 49
-1.0
 74
     0
  0
LTYPE
  5
42
330
5
100
AcDbSymbolTableRecord
100
AcDbLinetypeTableRecord
  2
LONG_DASHED
 70
     0
  3
Long_Dashed
 72
    65
 73
     2
 40
15.0
 49
10.0
 74
     0
 49
-5.0
 74
     0
  0
LTYPE
  5
43
330
5
100
AcDbSymbolTableRecord
100
AcDbLinetypeTableRecord
  2
DASH_CENTER
 70
     0
  3
Dash_Center
 72
    65
 73
     4
 40
14.0
 49
11.0
 74
     0
 49
-1.0
 74
     0
 49
1.0
 74
     0
 49
-1.0
 74
     0
  0
LTYPE
  5
44
330
5
100
AcDbSymbolTableRecord
100
AcDbLinetypeTableRecord
  2
PHANTOM
 70
     0
  3
Phantom
 72
    65
 73
     6
 40
13.0
 49
10.0
 74
     0
 49
-1.0
 74
     0
 49
0.0
 74
     0
 49
-1.0
 74
     0
 49
0.0
 74
     0
 49
-1.0
 74
     0
  0
LTYPE
  5
45
330
5
100
AcDbSymbolTableRecord
100
AcDbLinetypeTableRecord
  2
CENTER_DASH_DASH
 70
     0
  3
Center_Dash_Dash
 72
    65
 73
     6
 40
14.0
 49
9.0
 74
     0
 49
-1.0
 74
     0
 49
1.0
 74
     0
 49
-1.0
 74
     0
 49
1.0
 74
     0
 49
-1.0
 74
     0
  0
ENDTAB
  0
TABLE
  2
LAYER
  5
2
330
0
100
AcDbSymbolTable
 70
     2
  0
LAYER
  5
10
330
2
100
AcDbSymbolTableRecord
100
AcDbLayerTableRecord
  2
0
 70
     0
 62
     7
  6
Continuous
370
    -3
390
F
  0
LAYER
  5
46
330
2
100
AcDbSymbolTableRecord
100
AcDbLayerTableRecord
  2
1
 70
     0
 62
     7
  6
Continuous
370
    -3
390
F
  0
ENDTAB
  0
TABLE
  2
STYLE
  5
3
330
0
100
AcDbSymbolTable
 70
     5
  0
STYLE
  5
11
330
3
100
AcDbSymbolTableRecord
100
AcDbTextStyleTableRecord
  2
Standard
 70
     0
 40
0.0
 41
1.0
 50
0.0
 71
     0
 42
0.2
  3
txt
  4

  0
STYLE
  5
BA
330
3
100
AcDbSymbolTableRecord
100
AcDbTextStyleTableRecord
  2
CONVERTER_11
 70
     0
 40
0.0
 41
0.9
 50
0.0
 71
     0
 42
0.2
  3
txt.shx
  4

  0
STYLE
  5
2BE
330
3
100
AcDbSymbolTableRecord
100
AcDbTextStyleTableRecord
  2
CONVERTER_12
 70
     0
 40
0.0
 41
0.81
 50
0.0
 71
     0
 42
0.2
  3
txt.shx
  4

  0
STYLE
  5
2C4
330
3
100
AcDbSymbolTableRecord
100
AcDbTextStyleTableRecord
  2
CONVERTER_13
 70
     0
 40
0.0
 41
0.855
 50
0.0
 71
     0
 42
0.2
  3
txt.shx
  4

  0
STYLE
  5
2C7
330
3
100
AcDbSymbolTableRecord
100
AcDbTextStyleTableRecord
  2
CONVERTER_14
 70
     0
 40
0.0
 41
0.72
 50
0.0
 71
     0
 42
0.2
  3
txt.shx
  4

  0
ENDTAB
  0
TABLE
  2
VIEW
  5
6
330
0
100
AcDbSymbolTable
 70
     0
  0
ENDTAB
  0
TABLE
  2
UCS
  5
7
330
0
100
AcDbSymbolTable
 70
     0
  0
ENDTAB
  0
TABLE
  2
APPID
  5
9
330
0
100
AcDbSymbolTable
 70
     1
  0
APPID
  5
12
330
9
100
AcDbSymbolTableRecord
100
AcDbRegAppTableRecord
  2
ACAD
 70
     0
  0
ENDTAB
  0
TABLE
  2
DIMSTYLE
  5
A
330
0
100
AcDbSymbolTable
 70
     4
100
AcDbDimStyleTable
  0
DIMSTYLE
105
27
330
A
100
AcDbSymbolTableRecord
100
AcDbDimStyleTableRecord
  2
Standard
 70
     0
178
     0
340
11
  0
DIMSTYLE
105
CC
102
{ACAD_REACTORS
330
CD
102
}
330
A
100
AcDbSymbolTableRecord
100
AcDbDimStyleTableRecord
  2
ME10_DIM_10
 70
     0
 41
3.5
 42
0.0
 44
1.5
 73
     0
 74
     0
 77
     1
 78
     8
140
3.5
147
1.5
172
     1
173
     1
174
     1
175
     1
176
     2
177
     2
178
     3
340
BA
  0
DIMSTYLE
105
1BA
102
{ACAD_REACTORS
330
1BB
102
}
330
A
100
AcDbSymbolTableRecord
100
AcDbDimStyleTableRecord
  2
ME10_DIM_11
 70
     0
 41
3.5
 42
0.0
 44
2.0
 73
     0
 74
     0
 77
     1
 78
     8
140
3.5
147
2.0
172
     1
173
     1
174
     1
175
     1
176
     2
177
     2
178
     3
340
BA
  0
DIMSTYLE
105
1C5
102
{ACAD_REACTORS
330
1C6
102
}
330
A
100
AcDbSymbolTableRecord
100
AcDbDimStyleTableRecord
  2
ME10_DIM_12
 70
     0
 41
3.5
 42
0.0
 44
1.5
 73
     0
 74
     0
 77
     1
 78
     8
140
3.5
147
1.5
172
     1
173
     1
174
     1
175
     1
176
     2
177
     2
271
     2
178
     3
271
     2
340
BA
  0
ENDTAB
  0
TABLE
  2
BLOCK_RECORD
  5
1
330
0
100
AcDbSymbolTable
 70
    20
  0
BLOCK_RECORD
  5
1F
330
1
100
AcDbSymbolTableRecord
100
AcDbBlockTableRecord
  2
*Model_Space
340
22
  0
BLOCK_RECORD
  5
1B
330
1
100
AcDbSymbolTableRecord
100
AcDbBlockTableRecord
  2
*Paper_Space
340
1E
  0
BLOCK_RECORD
  5
23
330
1
100
AcDbSymbolTableRecord
100
AcDbBlockTableRecord
  2
*Paper_Space0
340
26
  0
BLOCK_RECORD
  5
47
330
1
100
AcDbSymbolTableRecord
100
AcDbBlockTableRecord
  2
KSS-4-8-select__1
340
0
102
{BLKREFS
331
4B
102
}
  0
BLOCK_RECORD
  5
4A
330
1
100
AcDbSymbolTableRecord
100
AcDbBlockTableRecord
  2
AllgSicht1
340
0
102
{BLKREFS
331
7D
102
}
  0
BLOCK_RECORD
  5
4E
330
1
100
AcDbSymbolTableRecord
100
AcDbBlockTableRecord
  2
KSS-4-8-select__2
340
0
102
{BLKREFS
331
52
102
}
  0
BLOCK_RECORD
  5
51
330
1
100
AcDbSymbolTableRecord
100
AcDbBlockTableRecord
  2
Drfsicht1
340
0
102
{BLKREFS
331
7E
102
}
  0
BLOCK_RECORD
  5
55
330
1
100
AcDbSymbolTableRecord
100
AcDbBlockTableRecord
  2
KSS-4-8-select__3
340
0
102
{BLKREFS
331
59
102
}
  0
BLOCK_RECORD
  5
58
330
1
100
AcDbSymbolTableRecord
100
AcDbBlockTableRecord
  2
Rckans1
340
0
102
{BLKREFS
331
7F
102
}
  0
BLOCK_RECORD
  5
5C
330
1
100
AcDbSymbolTableRecord
100
AcDbBlockTableRecord
  2
KSS-4-8-select__4
340
0
102
{BLKREFS
331
60
102
}
  0
BLOCK_RECORD
  5
5F
330
1
100
AcDbSymbolTableRecord
100
AcDbBlockTableRecord
  2
SA_Rechts1
340
0
102
{BLKREFS
331
80
102
}
  0
BLOCK_RECORD
  5
63
330
1
100
AcDbSymbolTableRecord
100
AcDbBlockTableRecord
  2
KSS-4-8-select__5
340
0
102
{BLKREFS
331
67
102
}
  0
BLOCK_RECORD
  5
66
330
1
100
AcDbSymbolTableRecord
100
AcDbBlockTableRecord
  2
SA_links1
340
0
102
{BLKREFS
331
81
102
}
  0
BLOCK_RECORD
  5
6A
330
1
100
AcDbSymbolTableRecord
100
AcDbBlockTableRecord
  2
KSS-4-8-select__6
340
0
102
{BLKREFS
331
6E
102
}
  0
BLOCK_RECORD
  5
6D
330
1
100
AcDbSymbolTableRecord
100
AcDbBlockTableRecord
  2
Vordans1
340
0
102
{BLKREFS
331
82
102
}
  0
BLOCK_RECORD
  5
71
330
1
100
AcDbSymbolTableRecord
100
AcDbBlockTableRecord
  2
_rahmen
340
0
102
{BLKREFS
331
78
102
}
  0
BLOCK_RECORD
  5
74
330
1
100
AcDbSymbolTableRecord
100
AcDbBlockTableRecord
  2
_punkt
340
0
102
{BLKREFS
331
79
102
}
  0
BLOCK_RECORD
  5
77
330
1
100
AcDbSymbolTableRecord
100
AcDbBlockTableRecord
  2
A4I_CS
340
0
102
{BLKREFS
331
83
102
}
  0
BLOCK_RECORD
  5
7C
330
1
100
AcDbSymbolTableRecord
100
AcDbBlockTableRecord
  2
1
340
0
102
{BLKREFS
331
86
102
}
  0
BLOCK_RECORD
  5
C3
330
1
100
AcDbSymbolTableRecord
100
AcDbBlockTableRecord
  2
*D17
340
0
  0
BLOCK_RECORD
  5
1AF
330
1
100
AcDbSymbolTableRecord
100
AcDbBlockTableRecord
  2
*D18
340
0
  0
BLOCK_RECORD
  5
1BC
330
1
100
AcDbSymbolTableRecord
100
AcDbBlockTableRecord
  2
*D19
340
0
  0
ENDTAB
  0
ENDSEC
  0
SECTION
  2
BLOCKS
  0
BLOCK
  5
20
330
1F
100
AcDbEntity
  8
0
100
AcDbBlockBegin
  2
*Model_Space
 70
     0
 10
0.0
 20
0.0
 30
0.0
  3
*Model_Space
  1

  0
ENDBLK
  5
21
330
1F
100
AcDbEntity
  8
0
100
AcDbBlockEnd
  0
BLOCK
  5
1C
330
1B
100
AcDbEntity
 67
     1
  8
0
100
AcDbBlockBegin
  2
*Paper_Space
 70
     0
 10
0.0
 20
0.0
 30
0.0
  3
*Paper_Space
  1

  0
ENDBLK
  5
1D
330
1B
100
AcDbEntity
 67
     1
  8
0
100
AcDbBlockEnd
  0
BLOCK
  5
24
330
23
100
AcDbEntity
  8
0
100
AcDbBlockBegin
  2
*Paper_Space0
 70
     0
 10
0.0
 20
0.0
 30
0.0
  3
*Paper_Space0
  1

  0
ENDBLK
  5
25
330
23
100
AcDbEntity
  8
0
100
AcDbBlockEnd
  0
BLOCK
  5
48
330
47
100
AcDbEntity
  8
0
100
AcDbBlockBegin
  2
KSS-4-8-select__1
 70
     0
 10
-26.89711390799983
 20
22.47330026762017
 30
0.0
  3
KSS-4-8-select__1
  1

  0
LINE
  5
87
330
47
100
AcDbEntity
  8
0
  6
Continuous
 62
     7
100
AcDbLine
 10
-19.04999959096986
 20
39.55935756234729
 30
0.0
 11
-19.04999959096986
 21
23.52330026762017
 31
0.0
  0
LINE
  5
88
330
47
100
AcDbEntity
  8
0
  6
Continuous
 62
     7
100
AcDbLine
 10
-23.24999959096986
 20
39.55935756234729
 30
0.0
 11
-23.24999959096986
 21
23.52330026762017
 31
0.0
  0
LINE
  5
89
330
47
100
AcDbEntity
  8
0
  6
Continuous
 62
     7
100
AcDbLine
 10
-10.84999959096985
 20
46.66076587337969
 30
0.0
 11
-10.84999959096987
 21
30.62470857865256
 31
0.0
  0
LINE
  5
8A
330
47
100
AcDbEntity
  8
0
  6
Continuous
 62
     7
100
AcDbLine
 10
-6.74999959096986
 20
50.21147002889587
 30
0.0
 11
-6.74999959096986
 21
34.17541273416876
 31
0.0
  0
LINE
  5
8B
330
47
100
AcDbEntity
  8
0
  6
Continuous
 62
     7
100
AcDbLine
 10
-3.96891067772434
 20
58.1120405525929
 30
0.0
 11
-3.10288527393989
 21
57.86204055259291
 31
0.0
  0
LINE
  5
8C
330
47
100
AcDbEntity
  8
0
  6
Continuous
 62
     7
100
AcDbLine
 10
-14.54999959096986
 20
43.78829471617601
 30
0.0
 11
-14.54999959096986
 21
45.7834852445593
 31
0.0
  0
LINE
  5
8D
330
47
100
AcDbEntity
  8
0
  6
Continuous
 62
     7
100
AcDbLine
 10
-19.10288527393988
 20
44.0056340920419
 30
0.0
 11
-19.96891067772432
 21
44.25563409204189
 31
0.0
  0
LINE
  5
8E
330
47
100
AcDbEntity
  8
0
  6
Continuous
 62
     7
100
AcDbLine
 10
-19.10288527393988
 20
44.0056340920419
 30
0.0
 11
-19.10288527393988
 21
41.84057058258079
 31
0.0
  0
LINE
  5
8F
330
47
100
AcDbEntity
  8
0
  6
Continuous
 62
     7
100
AcDbLine
 10
-18.64999959096986
 20
40.23759056065982
 30
0.0
 11
-18.64999959096986
 21
42.2327810890431
 31
0.0
  0
LINE
  5
90
330
47
100
AcDbEntity
  8
0
  6
Continuous
 62
     7
100
AcDbLine
 10
-6.34999959096986
 20
50.88970302720841
 30
0.0
 11
-6.34999959096986
 21
52.8848935555917
 31
0.0
  0
LINE
  5
91
330
47
100
AcDbEntity
  8
0
  6
Continuous
 62
     7
100
AcDbLine
 10
-10.44999959096985
 20
47.33899887169221
 30
0.0
 11
-10.44999959096985
 21
49.3341894000755
 31
0.0
  0
LINE
  5
92
330
47
100
AcDbEntity
  8
0
  6
Continuous
 62
     7
100
AcDbLine
 10
-19.96891067772432
 20
53.34890083177849
 30
0.0
 11
-19.96891067772432
 21
44.25563409204189
 31
0.0
  0
LINE
  5
93
330
47
100
AcDbEntity
  8
0
  6
Continuous
 62
     7
100
AcDbLine
 10
-19.10288527393988
 20
54.41027277837877
 30
0.0
 11
-19.10288527393988
 21
53.09890083177849
 31
0.0
  0
LINE
  5
94
330
47
100
AcDbEntity
  8
0
  6
Continuous
 62
     7
100
AcDbLine
 10
-22.99999959096986
 20
56.22243917937641
 30
0.0
 11
-19.10288527393988
 21
54.41027277837877
 31
0.0
  0
LINE
  5
95
330
47
100
AcDbEntity
  8
0
  6
Continuous
 62
     7
100
AcDbLine
 10
-19.10288527393988
 20
53.09890083177849
 30
0.0
 11
-19.96891067772432
 21
53.34890083177849
 31
0.0
  0
LINE
  5
96
330
47
100
AcDbEntity
  8
0
  6
Continuous
 62
     7
100
AcDbLine
 10
-3.96891067772434
 20
58.1120405525929
 30
0.0
 11
-19.96891067772432
 21
44.25563409204189
 31
0.0
  0
LINE
  5
97
330
47
100
AcDbEntity
  8
0
  6
Continuous
 62
     7
100
AcDbLine
 10
-3.10288527393989
 20
55.6969770431318
 30
0.0
 11
-19.10288527393988
 21
41.84057058258079
 31
0.0
  0
LINE
  5
98
330
47
100
AcDbEntity
  8
0
  6
Continuous
 62
     7
100
AcDbLine
 10
-19.10288527393988
 20
44.0056340920419
 30
0.0
 11
-3.10288527393989
 21
57.86204055259291
 31
0.0
  0
LINE
  5
99
330
47
100
AcDbEntity
  8
0
  6
Continuous
 62
     7
100
AcDbLine
 10
-26.0310885042154
 20
55.09890083177849
 30
0.0
 11
-26.89711390799983
 21
55.34890083177849
 31
0.0
  0
LINE
  5
9A
330
47
100
AcDbEntity
  8
0
  6
Continuous
 62
     7
100
AcDbLine
 10
-26.0310885042154
 20
46.00563409204189
 30
0.0
 11
-26.0310885042154
 21
55.09890083177849
 31
0.0
  0
LINE
  5
9B
330
47
100
AcDbEntity
  8
0
  6
Continuous
 62
     7
100
AcDbLine
 10
-26.0310885042154
 20
46.00563409204189
 30
0.0
 11
-26.89711390799983
 21
46.25563409204189
 31
0.0
  0
LINE
  5
9C
330
47
100
AcDbEntity
  8
0
  6
Continuous
 62
     7
100
AcDbLine
 10
-22.99999959096986
 20
56.22243917937641
 30
0.0
 11
-26.89711390799983
 21
56.66027277837877
 31
0.0
  0
LINE
  5
9D
330
47
100
AcDbEntity
  8
0
  6
Continuous
 62
     7
100
AcDbLine
 10
-3.10288527393989
 20
66.95530729232951
 30
0.0
 11
-3.10288527393989
 21
68.26667923892978
 31
0.0
  0
LINE
  5
9E
330
47
100
AcDbEntity
  8
0
  6
Continuous
 62
     7
100
AcDbLine
 10
-3.10288527393989
 20
55.6969770431318
 30
0.0
 11
-3.10288527393989
 21
57.86204055259291
 31
0.0
  0
LINE
  5
9F
330
47
100
AcDbEntity
  8
0
  6
Continuous
 62
     7
100
AcDbLine
 10
-3.96891067772434
 20
58.1120405525929
 30
0.0
 11
-3.96891067772434
 21
66.20530729232951
 31
0.0
  0
LINE
  5
A0
330
47
100
AcDbEntity
  8
0
  6
Continuous
 62
     7
100
AcDbLine
 10
-3.10288527393989
 20
68.26667923892978
 30
0.0
 11
-19.10288527393988
 21
54.41027277837877
 31
0.0
  0
LINE
  5
A1
330
47
100
AcDbEntity
  8
0
  6
Continuous
 62
     7
100
AcDbLine
 10
-3.10288527393989
 20
66.95530729232951
 30
0.0
 11
-19.10288527393988
 21
53.09890083177849
 31
0.0
  0
LINE
  5
A2
330
47
100
AcDbEntity
  8
0
  6
Continuous
 62
     7
100
AcDbLine
 10
-10.89711390799983
 20
70.51667923892978
 30
0.0
 11
-26.89711390799983
 21
56.66027277837877
 31
0.0
  0
LINE
  5
A3
330
47
100
AcDbEntity
  8
0
  6
Continuous
 62
     7
100
AcDbLine
 10
-26.0310885042154
 20
47.00563409204189
 30
0.0
 11
-26.89711390799983
 21
46.25563409204189
 31
0.0
  0
LINE
  5
A4
330
47
100
AcDbEntity
  8
0
  6
Continuous
 62
     7
100
AcDbLine
 10
-23.64999959096986
 20
40.23759056065982
 30
0.0
 11
-23.64999959096986
 21
42.87253597820872
 31
0.0
  0
LINE
  5
A5
330
47
100
AcDbEntity
  8
0
  6
Continuous
 62
     7
100
AcDbLine
 10
-19.10288527393988
 20
41.84057058258079
 30
0.0
 11
-26.89711390799983
 21
44.09057058258079
 31
0.0
  0
LINE
  5
A6
330
47
100
AcDbEntity
  8
0
  6
Continuous
 62
     7
100
AcDbLine
 10
-26.89711390799983
 20
55.34890083177849
 30
0.0
 11
-26.89711390799983
 21
56.66027277837877
 31
0.0
  0
LINE
  5
A7
330
47
100
AcDbEntity
  8
0
  6
Continuous
 62
     7
100
AcDbLine
 10
-26.89711390799983
 20
44.09057058258079
 30
0.0
 11
-26.89711390799983
 21
46.25563409204189
 31
0.0
  0
LINE
  5
A8
330
47
100
AcDbEntity
  8
0
  6
Continuous
 62
     7
100
AcDbLine
 10
-14.94999959096985
 20
43.11006171786349
 30
0.0
 11
-14.94999959096985
 21
27.07400442313636
 31
0.0
  0
LINE
  5
A9
330
47
100
AcDbEntity
  8
0
  6
Continuous
 62
     7
100
AcDbLine
 10
-3.10288527393989
 20
68.26667923892978
 30
0.0
 11
-6.99999959096986
 21
70.07884563992742
 31
0.0
  0
LINE
  5
AA
330
47
100
AcDbEntity
  8
0
  6
Continuous
 62
     7
100
AcDbLine
 10
-10.89711390799983
 20
70.51667923892978
 30
0.0
 11
-6.99999959096986
 21
70.07884563992742
 31
0.0
  0
LINE
  5
AB
330
47
100
AcDbEntity
  8
0
  6
Continuous
 62
     7
100
AcDbLine
 10
-6.99999959096986
 20
70.07884563992742
 30
0.0
 11
-22.99999959096986
 21
56.22243917937641
 31
0.0
  0
SPLINE
  5
AC
330
47
100
AcDbEntity
  8
0
  6
Continuous
 62
     7
100
AcDbSpline
210
0.0
220
0.0
230
1.0
 70
     8
 71
     3
 72
    19
 73
    15
 74
    13
 42
0.000000001
 43
0.0000000001
 44
0.00000001
 40
0.0
 40
0.0
 40
0.0
 40
0.0
 40
0.2810227023271715
 40
0.6098730067406681
 40
1.008200850458287
 40
1.474036227207347
 40
1.991264554967241
 40
2.535960715550149
 40
3.080656876133054
 40
3.597885203892945
 40
4.063720580642002
 40
4.46204842435962
 40
4.79089872877312
 40
5.071921431100292
 40
5.071921431100292
 40
5.071921431100292
 40
5.071921431100292
 10
-19.04999959096986
 20
23.52330026762017
 30
0.0
 10
-19.06600111471806
 20
23.42920529168605
 30
0.0
 10
-19.10072749963581
 20
23.22500120667137
 30
0.0
 10
-19.34150401036023
 20
22.9693704528421
 30
0.0
 10
-19.6780371947842
 20
22.7576400204149
 30
0.0
 10
-20.11346478918198
 20
22.59687344698696
 30
0.0
 10
-20.61395352410313
 20
22.49602776245833
 30
0.0
 10
-21.14999959096986
 20
22.46164256937503
 30
0.0
 10
-21.68604565783659
 20
22.49602776245833
 30
0.0
 10
-22.18653439275775
 20
22.59687344698696
 30
0.0
 10
-22.62196198715552
 20
22.75764002041491
 30
0.0
 10
-22.95849517157949
 20
22.96937045284209
 30
0.0
 10
-23.1992716823039
 20
23.22500120667137
 30
0.0
 10
-23.23399806722166
 20
23.42920529168605
 30
0.0
 10
-23.24999959096986
 20
23.52330026762017
 30
0.0
 11
-19.04999959096986
 21
23.52330026762017
 31
0.0
 11
-19.12155589655776
 21
23.25154034271531
 31
0.0
 11
-19.33134624302254
 21
22.99830026762017
 31
0.0
 11
-19.66507574636747
 21
22.78083834531898
 31
0.0
 11
-20.09999959096986
 21
22.61397359364651
 31
0.0
 11
-20.60647974116013
 21
22.50907842041411
 31
0.0
 11
-21.14999959096986
 21
22.47330026762017
 31
0.0
 11
-21.69351944077959
 21
22.50907842041411
 31
0.0
 11
-22.19999959096986
 21
22.61397359364651
 31
0.0
 11
-22.63492343557224
 21
22.78083834531898
 31
0.0
 11
-22.96865293891717
 21
22.99830026762017
 31
0.0
 11
-23.17844328538196
 21
23.25154034271531
 31
0.0
 11
-23.24999959096986
 21
23.52330026762017
 31
0.0
  0
SPLINE
  5
AD
330
47
100
AcDbEntity
  8
0
  6
Continuous
 62
     7
100
AcDbSpline
210
0.0
220
0.0
230
1.0
 70
     8
 71
     3
 72
     9
 73
     5
 74
     3
 42
0.000000001
 43
0.0000000001
 44
0.00000001
 40
0.0
 40
0.0
 40
0.0
 40
0.0
 40
0.3914884598084242
 40
0.726039298905283
 40
0.726039298905283
 40
0.726039298905283
 40
0.726039298905283
 10
-18.98493608150876
 20
39.61259056065982
 30
0.0
 10
-18.88819969846881
 20
39.70615304096589
 30
0.0
 10
-18.70879617429647
 20
39.87967039492745
 30
0.0
 10
-18.66854628445217
 20
40.12468879993548
 30
0.0
 10
-18.64999959096986
 20
40.23759056065982
 30
0.0
 11
-18.98493608150876
 21
39.61259056065982
 31
0.0
 11
-18.73518566905068
 21
39.91406684053498
 31
0.0
 11
-18.64999959096986
 21
40.23759056065982
 31
0.0
  0
SPLINE
  5
AE
330
47
100
AcDbEntity
  8
0
  6
Continuous
 62
     7
100
AcDbSpline
210
0.0
220
0.0
230
1.0
 70
     8
 71
     3
 72
    17
 73
    13
 74
    11
 42
0.000000001
 43
0.0000000001
 44
0.00000001
 40
0.0
 40
0.0
 40
0.0
 40
0.0
 40
0.3050645436757446
 40
0.6691525243737724
 40
1.115492632166634
 40
1.637244154115175
 40
2.210638248306637
 40
2.803280786068564
 40
3.3799521846544
 40
3.907765909206412
 40
4.361843492646515
 40
4.733270976780103
 40
4.733270976780103
 40
4.733270976780103
 40
4.733270976780103
 10
-6.749999590969864
 20
34.17541273416876
 30
0.0
 10
-6.76907485210581
 20
34.07334285649799
 30
0.0
 10
-6.810916041645316
 20
33.84945477861331
 30
0.0
 10
-7.092501490859538
 20
33.57916558752309
 30
0.0
 10
-7.478826414004436
 20
33.36171404655428
 30
0.0
 10
-7.97324937041279
 20
33.20653963726535
 30
0.0
 10
-8.53129059792774
 20
33.1237919228386
 30
0.0
 10
-9.113895137631888
 20
33.12026216657658
 30
0.0
 10
-9.677632053646423
 20
33.19483434847621
 30
0.0
 10
-10.17445844400797
 20
33.34641699791885
 30
0.0
 10
-10.58775076427594
 20
33.55006433939006
 30
0.0
 10
-10.76861955204546
 20
33.76055045954069
 30
0.0
 10
-10.84999959096987
 20
33.85525652229711
 30
0.0
 11
-6.749999590969864
 21
34.17541273416876
 31
0.0
 11
-6.833636685645492
 21
33.88203717807504
 31
0.0
 11
-7.077882602097993
 21
33.61202978764133
 31
0.0
 11
-7.463285391288183
 21
33.38689831419558
 31
0.0
 11
-7.959143760257202
 21
33.22457417151928
 31
0.0
 11
-8.525962694422077
 21
33.13798848111495
 31
0.0
 11
-9.11859205389747
 21
33.13403647065272
 31
0.0
 11
-9.689826848371881
 21
33.21303463651873
 31
0.0
 11
-10.19416710419392
 21
33.36868885073758
 31
0.0
 11
-10.59143853566983
 21
33.5886021523999
 31
0.0
 11
-10.84999959096987
 21
33.85525652229711
 31
0.0
  0
SPLINE
  5
AF
330
47
100
AcDbEntity
  8
0
  6
Continuous
 62
     7
100
AcDbSpline
210
0.0
220
0.0
230
1.0
 70
     8
 71
     3
 72
    17
 73
    13
 74
    11
 42
0.000000001
 43
0.0000000001
 44
0.00000001
 40
0.0
 40
0.0
 40
0.0
 40
0.0
 40
0.3050645436757471
 40
0.6691525243737846
 40
1.115492632166633
 40
1.637244154115171
 40
2.210638248306629
 40
2.803280786068564
 40
3.379952184654398
 40
3.907765909206406
 40
4.361843492646497
 40
4.733270976780092
 40
4.733270976780092
 40
4.733270976780092
 40
4.733270976780092
 10
-14.94999959096985
 20
27.07400442313636
 30
0.0
 10
-14.9690748521058
 20
26.97193454546559
 30
0.0
 10
-15.01091604164532
 20
26.74804646758092
 30
0.0
 10
-15.29250149085953
 20
26.47775727649069
 30
0.0
 10
-15.67882641400444
 20
26.26030573552189
 30
0.0
 10
-16.17324937041279
 20
26.10513132623297
 30
0.0
 10
-16.73129059792774
 20
26.0223836118062
 30
0.0
 10
-17.31389513763189
 20
26.0188538555442
 30
0.0
 10
-17.87763205364642
 20
26.09342603744379
 30
0.0
 10
-18.37445844400796
 20
26.24500868688648
 30
0.0
 10
-18.78775076427593
 20
26.44865602835768
 30
0.0
 10
-18.96861955204545
 20
26.65914214850828
 30
0.0
 10
-19.04999959096986
 20
26.75384821126472
 30
0.0
 11
-14.94999959096985
 21
27.07400442313636
 31
0.0
 11
-15.03363668564549
 21
26.78062886704264
 31
0.0
 11
-15.277882602098
 21
26.51062147660893
 31
0.0
 11
-15.66328539128818
 21
26.28549000316319
 31
0.0
 11
-16.1591437602572
 21
26.12316586048689
 31
0.0
 11
-16.72596269442207
 21
26.03658017008255
 31
0.0
 11
-17.31859205389747
 21
26.03262815962033
 31
0.0
 11
-17.88982684837188
 21
26.11162632548634
 31
0.0
 11
-18.39416710419392
 21
26.2672805397052
 31
0.0
 11
-18.79143853566982
 21
26.48719384136751
 31
0.0
 11
-19.04999959096986
 21
26.75384821126472
 31
0.0
  0
SPLINE
  5
B0
330
47
100
AcDbEntity
  8
0
  6
Continuous
 62
     7
100
AcDbSpline
210
0.0
220
0.0
230
1.0
 70
     8
 71
     3
 72
    17
 73
    13
 74
    11
 42
0.000000001
 43
0.0000000001
 44
0.00000001
 40
0.0
 40
0.0
 40
0.0
 40
0.0
 40
0.3050645436757446
 40
0.6691525243737715
 40
1.115492632166624
 40
1.637244154115161
 40
2.210638248306627
 40
2.803280786068556
 40
3.379952184654378
 40
3.907765909206388
 40
4.361843492646485
 40
4.733270976780076
 40
4.733270976780076
 40
4.733270976780076
 40
4.733270976780076
 10
-10.84999959096987
 20
30.62470857865256
 30
0.0
 10
-10.86907485210581
 20
30.52263870098178
 30
0.0
 10
-10.91091604164533
 20
30.29875062309713
 30
0.0
 10
-11.19250149085953
 20
30.02846143200689
 30
0.0
 10
-11.57882641400444
 20
29.81100989103808
 30
0.0
 10
-12.07324937041279
 20
29.65583548174916
 30
0.0
 10
-12.63129059792774
 20
29.57308776732241
 30
0.0
 10
-13.21389513763188
 20
29.56955801106037
 30
0.0
 10
-13.77763205364642
 20
29.64413019296
 30
0.0
 10
-14.27445844400795
 20
29.79571284240267
 30
0.0
 10
-14.68775076427593
 20
29.99936018387385
 30
0.0
 10
-14.86861955204544
 20
30.20984630402448
 30
0.0
 10
-14.94999959096985
 20
30.30455236678091
 30
0.0
 11
-10.84999959096987
 21
30.62470857865256
 31
0.0
 11
-10.9336366856455
 21
30.33133302255884
 31
0.0
 11
-11.17788260209799
 21
30.06132563212513
 31
0.0
 11
-11.56328539128818
 21
29.83619415867939
 31
0.0
 11
-12.0591437602572
 21
29.67387001600309
 31
0.0
 11
-12.62596269442208
 21
29.58728432559875
 31
0.0
 11
-13.21859205389747
 21
29.58333231513652
 31
0.0
 11
-13.78982684837187
 21
29.66233048100253
 31
0.0
 11
-14.2941671041939
 21
29.81798469522138
 31
0.0
 11
-14.69143853566982
 21
30.03789799688369
 31
0.0
 11
-14.94999959096985
 21
30.30455236678091
 31
0.0
  0
SPLINE
  5
B1
330
47
100
AcDbEntity
  8
0
  6
Continuous
 62
     7
100
AcDbSpline
210
0.0
220
0.0
230
1.0
 70
     8
 71
     3
 72
     9
 73
     5
 74
     3
 42
0.000000001
 43
0.0000000001
 44
0.00000001
 40
0.0
 40
0.0
 40
0.0
 40
0.0
 40
0.3914884598084142
 40
0.7260392989052747
 40
0.7260392989052747
 40
0.7260392989052747
 40
0.7260392989052747
 10
-14.88493608150876
 20
43.16329471617602
 30
0.0
 10
-14.7881996984688
 20
43.25685719648208
 30
0.0
 10
-14.60879617429648
 20
43.43037455044364
 30
0.0
 10
-14.56854628445218
 20
43.67539295545168
 30
0.0
 10
-14.54999959096986
 20
43.78829471617601
 30
0.0
 11
-14.88493608150876
 21
43.16329471617602
 31
0.0
 11
-14.63518566905068
 21
43.46477099605117
 31
0.0
 11
-14.54999959096986
 21
43.78829471617601
 31
0.0
  0
SPLINE
  5
B2
330
47
100
AcDbEntity
  8
0
  6
Continuous
 62
     7
100
AcDbSpline
210
0.0
220
0.0
230
1.0
 70
     8
 71
     3
 72
    13
 73
     9
 74
     7
 42
0.000000001
 43
0.0000000001
 44
0.00000001
 40
0.0
 40
0.0
 40
0.0
 40
0.0
 40
0.5993786083926981
 40
1.222413879707771
 40
1.840158178460698
 40
2.424258567741293
 40
2.950380015274894
 40
3.402395984180566
 40
3.402395984180566
 40
3.402395984180566
 40
3.402395984180566
 10
-18.14999625239165
 20
42.66579668222886
 30
0.0
 10
-17.95377564700892
 20
42.62662422122979
 30
0.0
 10
-17.5535898719502
 20
42.54673322982484
 30
0.0
 10
-16.93805066017007
 20
42.52804729513985
 30
0.0
 10
-16.33008136203446
 20
42.57709618768362
 30
0.0
 10
-15.76726239357095
 20
42.70290237634674
 30
0.0
 10
-15.27301854317746
 20
42.88315423273021
 30
0.0
 10
-15.00759388024448
 20
43.07475317987347
 30
0.0
 10
-14.88493608150876
 20
43.16329471617602
 30
0.0
 11
-18.14999625239165
 21
42.66579668222886
 31
0.0
 11
-17.55923899568947
 21
42.56450218131879
 31
0.0
 11
-16.93670242626332
 21
42.53957900068374
 31
0.0
 11
-16.3212363068021
 21
42.59258347172177
 31
0.0
 11
-15.75124898590727
 21
42.72020683755254
 31
0.0
 11
-15.26231180597398
 21
42.91448555105689
 31
0.0
 11
-14.88493608150876
 21
43.16329471617602
 31
0.0
  0
SPLINE
  5
B3
330
47
100
AcDbEntity
  8
0
  6
Continuous
 62
     7
100
AcDbSpline
210
0.0
220
0.0
230
1.0
 70
     8
 71
     3
 72
     9
 73
     5
 74
     3
 42
0.000000001
 43
0.0000000001
 44
0.00000001
 40
0.0
 40
0.0
 40
0.0
 40
0.0
 40
0.3914884598084232
 40
0.7260392989052868
 40
0.7260392989052868
 40
0.7260392989052868
 40
0.7260392989052868
 10
-10.78493608150877
 20
46.71399887169221
 30
0.0
 10
-10.68819969846881
 20
46.80756135199829
 30
0.0
 10
-10.50879617429648
 20
46.98107870595985
 30
0.0
 10
-10.46854628445218
 20
47.22609711096788
 30
0.0
 10
-10.44999959096985
 20
47.33899887169221
 30
0.0
 11
-10.78493608150877
 21
46.71399887169221
 31
0.0
 11
-10.53518566905069
 21
47.01547515156737
 31
0.0
 11
-10.44999959096985
 21
47.33899887169221
 31
0.0
  0
SPLINE
  5
B4
330
47
100
AcDbEntity
  8
0
  6
Continuous
 62
     7
100
AcDbSpline
210
0.0
220
0.0
230
1.0
 70
     8
 71
     3
 72
     9
 73
     5
 74
     3
 42
0.000000001
 43
0.0000000001
 44
0.00000001
 40
0.0
 40
0.0
 40
0.0
 40
0.0
 40
0.3914884598084265
 40
0.7260392989052862
 40
0.7260392989052862
 40
0.7260392989052862
 40
0.7260392989052862
 10
-6.684936081508766
 20
50.26470302720841
 30
0.0
 10
-6.588199698468808
 20
50.3582655075145
 30
0.0
 10
-6.408796174296468
 20
50.53178286147604
 30
0.0
 10
-6.368546284452179
 20
50.77680126648409
 30
0.0
 10
-6.349999590969858
 20
50.88970302720841
 30
0.0
 11
-6.684936081508766
 21
50.26470302720841
 31
0.0
 11
-6.43518566905068
 21
50.56617930708357
 31
0.0
 11
-6.349999590969858
 21
50.88970302720841
 31
0.0
  0
SPLINE
  5
B5
330
47
100
AcDbEntity
  8
0
  6
Continuous
 62
     7
100
AcDbSpline
210
0.0
220
0.0
230
1.0
 70
     8
 71
     3
 72
    13
 73
     9
 74
     7
 42
0.000000001
 43
0.0000000001
 44
0.00000001
 40
0.0
 40
0.0
 40
0.0
 40
0.0
 40
0.5993786083926963
 40
1.222413879707765
 40
1.840158178460699
 40
2.42425856774129
 40
2.950380015274891
 40
3.402395984180559
 40
3.402395984180559
 40
3.402395984180559
 40
3.402395984180559
 10
-14.04999625239165
 20
46.21650083774506
 30
0.0
 10
-13.85377564700893
 20
46.17732837674598
 30
0.0
 10
-13.45358987195021
 20
46.09743738534105
 30
0.0
 10
-12.83805066017008
 20
46.07875145065606
 30
0.0
 10
-12.23008136203446
 20
46.12780034319981
 30
0.0
 10
-11.66726239357095
 20
46.25360653186294
 30
0.0
 10
-11.17301854317746
 20
46.4338583882464
 30
0.0
 10
-10.90759388024449
 20
46.62545733538965
 30
0.0
 10
-10.78493608150877
 20
46.71399887169221
 30
0.0
 11
-14.04999625239165
 21
46.21650083774506
 31
0.0
 11
-13.45923899568947
 21
46.11520633683499
 31
0.0
 11
-12.83670242626333
 21
46.09028315619994
 31
0.0
 11
-12.2212363068021
 21
46.14328762723797
 31
0.0
 11
-11.65124898590728
 21
46.27091099306874
 31
0.0
 11
-11.16231180597398
 21
46.46518970657309
 31
0.0
 11
-10.78493608150877
 21
46.71399887169221
 31
0.0
  0
SPLINE
  5
B6
330
47
100
AcDbEntity
  8
0
  6
Continuous
 62
     7
100
AcDbSpline
210
0.0
220
0.0
230
1.0
 70
     8
 71
     3
 72
    13
 73
     9
 74
     7
 42
0.000000001
 43
0.0000000001
 44
0.00000001
 40
0.0
 40
0.0
 40
0.0
 40
0.0
 40
0.5993786083926793
 40
1.222413879707754
 40
1.840158178460684
 40
2.424258567741274
 40
2.950380015274883
 40
3.402395984180552
 40
3.402395984180552
 40
3.402395984180552
 40
3.402395984180552
 10
-9.949996252391642
 20
49.76720499326125
 30
0.0
 10
-9.753775647008926
 20
49.72803253226218
 30
0.0
 10
-9.353589871950206
 20
49.64814154085725
 30
0.0
 10
-8.73805066017008
 20
49.62945560617225
 30
0.0
 10
-8.130081362034474
 20
49.67850449871604
 30
0.0
 10
-7.56726239357095
 20
49.80431068737912
 30
0.0
 10
-7.073018543177466
 20
49.98456254376262
 30
0.0
 10
-6.807593880244486
 20
50.17616149090585
 30
0.0
 10
-6.684936081508766
 20
50.26470302720841
 30
0.0
 11
-9.949996252391642
 21
49.76720499326125
 31
0.0
 11
-9.35923899568948
 21
49.66591049235119
 31
0.0
 11
-8.736702426263331
 21
49.64098731171615
 31
0.0
 11
-8.121236306802103
 21
49.69399178275417
 31
0.0
 11
-7.551248985907286
 21
49.82161514858493
 31
0.0
 11
-7.06231180597398
 21
50.01589386208929
 31
0.0
 11
-6.684936081508766
 21
50.26470302720841
 31
0.0
  0
SPLINE
  5
B7
330
47
100
AcDbEntity
  8
0
  6
Continuous
 62
     7
100
AcDbSpline
210
0.0
220
0.0
230
1.0
 70
     8
 71
     3
 72
    11
 73
     7
 74
     5
 42
0.000000001
 43
0.0000000001
 44
0.00000001
 40
0.0
 40
0.0
 40
0.0
 40
0.0
 40
0.4845053072171057
 40
0.9221719753385261
 40
1.308126132968936
 40
1.644062359958891
 40
1.644062359958891
 40
1.644062359958891
 40
1.644062359958891
 10
-22.64999959096986
 20
42.40265407012091
 30
0.0
 10
-22.80404767003876
 20
42.4522261147761
 30
0.0
 10
-23.09725151491167
 20
42.54657793324375
 30
0.0
 10
-23.4848163203993
 20
42.74857585442903
 30
0.0
 10
-23.80328270138791
 20
42.9757628102029
 30
0.0
 10
-23.94868697651075
 20
43.16902868775388
 30
0.0
 10
-24.01635176423543
 20
43.25896618299397
 30
0.0
 11
-22.64999959096986
 21
42.40265407012091
 31
0.0
 11
-23.1066264512634
 21
42.56463339382556
 31
0.0
 11
-23.49510689339726
 21
42.76621479230537
 31
0.0
 11
-23.80191039331209
 21
43.00037761344316
 31
0.0
 11
-24.01635176423543
 21
43.25896618299397
 31
0.0
  0
SPLINE
  5
B8
330
47
100
AcDbEntity
  8
0
  6
Continuous
 62
     7
100
AcDbSpline
210
0.0
220
0.0
230
1.0
 70
     8
 71
     3
 72
    11
 73
     7
 74
     5
 42
0.000000001
 43
0.0000000001
 44
0.00000001
 40
0.0
 40
0.0
 40
0.0
 40
0.0
 40
0.5563038855936061
 40
1.115509899678556
 40
1.663066644934936
 40
2.185154487353087
 40
2.185154487353087
 40
2.185154487353087
 40
2.185154487353087
 10
-20.48364741770426
 20
42.23916228027541
 30
0.0
 10
-20.66856119231432
 20
42.22329552288526
 30
0.0
 10
-21.03935340137792
 20
42.19147924934254
 30
0.0
 10
-21.59435727956949
 20
42.2109561522679
 30
0.0
 10
-22.1350334206661
 20
42.27269068615735
 30
0.0
 10
-22.48109081587215
 20
42.36002610754843
 30
0.0
 10
-22.64999959096986
 20
42.40265407012091
 30
0.0
 11
-20.48364741770426
 21
42.23916228027541
 31
0.0
 11
-21.0387566438845
 21
42.20272383292098
 31
0.0
 11
-21.59774029729623
 21
42.2184922348002
 31
0.0
 11
-22.14112974239097
 21
42.28591850144096
 31
0.0
 11
-22.64999959096986
 21
42.40265407012091
 31
0.0
  0
SPLINE
  5
B9
330
47
100
AcDbEntity
  8
0
  6
Continuous
 62
     7
100
AcDbSpline
210
0.0
220
0.0
230
1.0
 70
     8
 71
     3
 72
    17
 73
    13
 74
    11
 42
0.000000001
 43
0.0000000001
 44
0.00000001
 40
0.0
 40
0.0
 40
0.0
 40
0.0
 40
0.334550832306426
 40
0.7260392941716216
 40
1.200239106591454
 40
1.754805029209831
 40
2.370553035430261
 40
3.019000841717605
 40
3.667448647781906
 40
4.28319665309325
 40
4.837762576318815
 40
5.311962394412289
 40
5.311962394412289
 40
5.311962394412289
 40
5.311962394412289
 10
-23.64999959096986
 20
40.23759056065982
 30
0.0
 10
-23.630950143584
 20
40.12557270782351
 30
0.0
 10
-23.58960918829825
 20
39.88247254709428
 30
0.0
 10
-23.3029707583534
 20
39.57815073744605
 30
0.0
 10
-22.90233458021002
 20
39.3260881633006
 30
0.0
 10
-22.38397513052586
 20
39.13471122784449
 30
0.0
 10
-21.78812607871147
 20
39.01460562019402
 30
0.0
 10
-21.15009251184625
 20
38.97387571635688
 30
0.0
 10
-20.51151084225688
 20
39.01405162832863
 30
0.0
 10
-19.91717282270378
 20
39.13671153020435
 30
0.0
 10
-19.39409037804047
 20
39.31980805058132
 30
0.0
 10
-19.11402812134869
 20
39.52021491219823
 30
0.0
 10
-18.98493608150876
 20
39.61259056065982
 30
0.0
 11
-23.64999959096986
 21
40.23759056065982
 31
0.0
 11
-23.56481351288904
 21
39.91406684053498
 31
0.0
 11
-23.31506310043095
 21
39.61259056065981
 31
0.0
 11
-22.91776607263936
 21
39.35370731982506
 31
0.0
 11
-22.39999959096986
 21
39.15505880592927
 31
0.0
 11
-21.79704703121953
 21
39.03018359970022
 31
0.0
 11
-21.14999959096985
 21
38.98759056065982
 31
0.0
 11
-20.50295215072018
 21
39.03018359970023
 31
0.0
 11
-19.89999959096986
 21
39.15505880592927
 31
0.0
 11
-19.38223310930035
 21
39.35370731982507
 31
0.0
 11
-18.98493608150876
 21
39.61259056065982
 31
0.0
  0
ENDBLK
  5
49
330
47
100
AcDbEntity
  8
0
100
AcDbBlockEnd
  0
BLOCK
  5
4C
330
4A
100
AcDbEntity
  8
0
100
AcDbBlockBegin
  2
AllgSicht1
 70
     0
 10
-15.00000000001712
 20
46.0
 30
0.0
  3
AllgSicht1
  1

  0
INSERT
  5
4B
330
4A
100
AcDbEntity
  8
0
100
AcDbBlockReference
  2
KSS-4-8-select__1
 10
-26.89711390799983
 20
22.47330026762017
 30
0.0
  0
MTEXT
  5
BB
330
4A
100
AcDbEntity
  8
1
 62
     6
100
AcDbMText
 10
-15.00000000001717
 20
15.79615463100572
 30
0.0
 40
5.0
 41
0.0
 71
     2
 72
     1
  1
 
  7
CONVERTER_11
 73
     1
 44
1.32052821128451
  0
ENDBLK
  5
4D
330
4A
100
AcDbEntity
  8
0
100
AcDbBlockEnd
  0
BLOCK
  5
4F
330
4E
100
AcDbEntity
  8
0
100
AcDbBlockBegin
  2
KSS-4-8-select__2
 70
     0
 10
-140.5376692704218
 20
35.47821526490104
 30
0.0
  3
KSS-4-8-select__2
  1

  0
LINE
  5
BC
330
4E
100
AcDbEntity
  8
0
  6
Continuous
 62
     7
100
AcDbLine
 10
-136.0376692704218
 20
35.47821526490104
 30
0.0
 11
-140.5376692704218
 21
35.47821526490104
 31
0.0
  0
LINE
  5
BD
330
4E
100
AcDbEntity
  8
0
  6
Continuous
 62
     7
100
AcDbLine
 10
-140.5376692704218
 20
67.47821526490104
 30
0.0
 11
-140.5376692704218
 21
35.47821526490104
 31
0.0
  0
LINE
  5
BE
330
4E
100
AcDbEntity
  8
0
  6
Continuous
 62
     7
100
AcDbLine
 10
-140.5376692704218
 20
67.47821526490104
 30
0.0
 11
-136.0376692704218
 21
67.47821526490104
 31
0.0
  0
LINE
  5
BF
330
4E
100
AcDbEntity
  8
0
  6
Continuous
 62
     7
100
AcDbLine
 10
-131.5376692704218
 20
67.47821526490104
 30
0.0
 11
-136.0376692704218
 21
67.47821526490104
 31
0.0
  0
LINE
  5
C0
330
4E
100
AcDbEntity
  8
0
  6
Continuous
 62
     7
100
AcDbLine
 10
-136.0376692704218
 20
67.47821526490104
 30
0.0
 11
-136.0376692704218
 21
35.47821526490104
 31
0.0
  0
LINE
  5
C1
330
4E
100
AcDbEntity
  8
0
  6
Continuous
 62
     7
100
AcDbLine
 10
-136.0376692704218
 20
35.47821526490104
 30
0.0
 11
-131.5376692704218
 21
35.47821526490104
 31
0.0
  0
LINE
  5
C2
330
4E
100
AcDbEntity
  8
0
  6
Continuous
 62
     7
100
AcDbLine
 10
-131.5376692704218
 20
67.47821526490104
 30
0.0
 11
-131.5376692704218
 21
35.47821526490104
 31
0.0
  0
ENDBLK
  5
50
330
4E
100
AcDbEntity
  8
0
100
AcDbBlockEnd
  0
BLOCK
  5
53
330
51
100
AcDbEntity
  8
0
100
AcDbBlockBegin
  2
Drfsicht1
 70
     0
 10
-136.0376695087421
 20
51.47821485958949
 30
0.0
  3
Drfsicht1
  1

  0
INSERT
  5
52
330
51
100
AcDbEntity
  8
0
100
AcDbBlockReference
  2
KSS-4-8-select__2
 10
-140.5376692704218
 20
35.47821526490104
 30
0.0
  0
DIMENSION
  5
CD
330
51
100
AcDbEntity
  8
1
100
AcDbDimension
  2
*D17
 10
-147.47569128621
 20
67.47821526490102
 30
0.0
 11
-150.72569128621
 21
52.22040374162537
 31
0.0
 70
    32
  1
<>
 71
     5
 42
-1.0
 53
90.0
  3
ME10_DIM_10
100
AcDbAlignedDimension
 13
-136.0376692704218
 23
35.47821526490104
 33
0.0
 14
-136.0376692704218
 24
67.47821526490104
 34
0.0
 50
90.0
100
AcDbRotatedDimension
  0
ENDBLK
  5
54
330
51
100
AcDbEntity
  8
0
100
AcDbBlockEnd
  0
BLOCK
  5
56
330
55
100
AcDbEntity
  8
0
100
AcDbBlockBegin
  2
KSS-4-8-select__3
 70
     0
 10
-19.50000023830039
 20
87.47821358416857
 30
0.0
  3
KSS-4-8-select__3
  1

  0
LINE
  5
CE
330
55
100
AcDbEntity
  8
0
  6
Continuous
 62
     7
100
AcDbLine
 10
-10.50000023830039
 20
114.2782135841686
 30
0.0
 11
-10.50000023830039
 21
111.7782135841685
 31
0.0
  0
LINE
  5
CF
330
55
100
AcDbEntity
  8
0
  6
Continuous
 62
     7
100
AcDbLine
 10
-12.90000023830039
 20
87.47821358416857
 30
0.0
 11
-17.10000023830038
 21
87.47821358416857
 31
0.0
  0
LINE
  5
D0
330
55
100
AcDbEntity
  8
0
  6
Continuous
 62
     7
100
AcDbLine
 10
-18.50000023830039
 20
124.7782135841685
 30
0.0
 11
-19.50000023830037
 21
124.7782135841685
 31
0.0
  0
LINE
  5
D1
330
55
100
AcDbEntity
  8
0
  6
Continuous
 62
     7
100
AcDbLine
 10
-10.50000023830039
 20
114.2782135841686
 30
0.0
 11
-11.50000023830039
 21
114.2782135841686
 31
0.0
  0
LINE
  5
D2
330
55
100
AcDbEntity
  8
0
  6
Continuous
 62
     7
100
AcDbLine
 10
-18.50000023830037
 20
114.2782135841686
 30
0.0
 11
-19.50000023830039
 21
114.2782135841686
 31
0.0
  0
LINE
  5
D3
330
55
100
AcDbEntity
  8
0
  6
Continuous
 62
     7
100
AcDbLine
 10
-10.50000023830039
 20
126.2924554769233
 30
0.0
 11
-15.00000023830037
 21
127.0859268901114
 31
0.0
  0
LINE
  5
D4
330
55
100
AcDbEntity
  8
0
  6
Continuous
 62
     7
100
AcDbLine
 10
-12.50000023830039
 20
110.7782135841685
 30
0.0
 11
-17.50000023830039
 21
110.7782135841685
 31
0.0
  0
LINE
  5
D5
330
55
100
AcDbEntity
  8
0
  6
Continuous
 62
     7
100
AcDbLine
 10
-17.10000023830038
 20
106.7782135841686
 30
0.0
 11
-12.90000023830039
 21
106.7782135841686
 31
0.0
  0
LINE
  5
D6
330
55
100
AcDbEntity
  8
0
  6
Continuous
 62
     7
100
AcDbLine
 10
-10.50000023830039
 20
111.7782135841685
 30
0.0
 11
-12.00000023830039
 21
111.7782135841685
 31
0.0
  0
LINE
  5
D7
330
55
100
AcDbEntity
  8
0
  6
Continuous
 62
     7
100
AcDbLine
 10
-18.00000023830039
 20
111.7782135841685
 30
0.0
 11
-19.50000023830039
 21
111.7782135841685
 31
0.0
  0
LINE
  5
D8
330
55
100
AcDbEntity
  8
0
  6
Continuous
 62
     7
100
AcDbLine
 10
-12.00000023830039
 20
111.7782135841685
 30
0.0
 11
-18.00000023830039
 21
111.7782135841685
 31
0.0
  0
LINE
  5
D9
330
55
100
AcDbEntity
  8
0
  6
Continuous
 62
     7
100
AcDbLine
 10
-10.50000023830039
 20
126.2924554769233
 30
0.0
 11
-10.50000023830037
 21
124.7782135841685
 31
0.0
  0
LINE
  5
DA
330
55
100
AcDbEntity
  8
0
  6
Continuous
 62
     7
100
AcDbLine
 10
-10.50000023830037
 20
124.7782135841685
 30
0.0
 11
-11.50000023830039
 21
124.7782135841685
 31
0.0
  0
LINE
  5
DB
330
55
100
AcDbEntity
  8
0
  6
Continuous
 62
     7
100
AcDbLine
 10
-12.50000023830039
 20
106.7782135841686
 30
0.0
 11
-12.50000023830039
 21
110.7782135841685
 31
0.0
  0
LINE
  5
DC
330
55
100
AcDbEntity
  8
0
  6
Continuous
 62
     7
100
AcDbLine
 10
-12.90000023830039
 20
106.7782135841686
 30
0.0
 11
-12.50000023830039
 21
106.7782135841686
 31
0.0
  0
LINE
  5
DD
330
55
100
AcDbEntity
  8
0
  6
Continuous
 62
     7
100
AcDbLine
 10
-12.00000023830039
 20
110.7782135841685
 30
0.0
 11
-12.50000023830039
 21
110.7782135841685
 31
0.0
  0
LINE
  5
DE
330
55
100
AcDbEntity
  8
0
  6
Continuous
 62
     7
100
AcDbLine
 10
-12.00000023830039
 20
111.7782135841685
 30
0.0
 11
-12.00000023830039
 21
110.7782135841685
 31
0.0
  0
LINE
  5
DF
330
55
100
AcDbEntity
  8
0
  6
Continuous
 62
     7
100
AcDbLine
 10
-11.50000023830039
 20
124.7782135841685
 30
0.0
 11
-11.50000023830039
 21
114.2782135841686
 31
0.0
  0
LINE
  5
E0
330
55
100
AcDbEntity
  8
0
  6
Continuous
 62
     7
100
AcDbLine
 10
-12.90000023830039
 20
106.7782135841686
 30
0.0
 11
-12.90000023830039
 21
87.47821358416857
 31
0.0
  0
LINE
  5
E1
330
55
100
AcDbEntity
  8
0
  6
Continuous
 62
     7
100
AcDbLine
 10
-19.50000023830037
 20
124.7782135841685
 30
0.0
 11
-19.50000023830039
 21
126.2924554769233
 31
0.0
  0
LINE
  5
E2
330
55
100
AcDbEntity
  8
0
  6
Continuous
 62
     7
100
AcDbLine
 10
-19.50000023830039
 20
111.7782135841685
 30
0.0
 11
-19.50000023830039
 21
114.2782135841686
 31
0.0
  0
LINE
  5
E3
330
55
100
AcDbEntity
  8
0
  6
Continuous
 62
     7
100
AcDbLine
 10
-17.50000023830039
 20
106.7782135841686
 30
0.0
 11
-17.10000023830038
 21
106.7782135841686
 31
0.0
  0
LINE
  5
E4
330
55
100
AcDbEntity
  8
0
  6
Continuous
 62
     7
100
AcDbLine
 10
-17.50000023830039
 20
110.7782135841685
 30
0.0
 11
-18.00000023830039
 21
110.7782135841685
 31
0.0
  0
LINE
  5
E5
330
55
100
AcDbEntity
  8
0
  6
Continuous
 62
     7
100
AcDbLine
 10
-18.00000023830039
 20
111.7782135841685
 30
0.0
 11
-18.00000023830039
 21
110.7782135841685
 31
0.0
  0
LINE
  5
E6
330
55
100
AcDbEntity
  8
0
  6
Continuous
 62
     7
100
AcDbLine
 10
-18.50000023830037
 20
114.2782135841686
 30
0.0
 11
-18.50000023830039
 21
124.7782135841685
 31
0.0
  0
LINE
  5
E7
330
55
100
AcDbEntity
  8
0
  6
Continuous
 62
     7
100
AcDbLine
 10
-17.50000023830039
 20
106.7782135841686
 30
0.0
 11
-17.50000023830039
 21
110.7782135841685
 31
0.0
  0
LINE
  5
E8
330
55
100
AcDbEntity
  8
0
  6
Continuous
 62
     7
100
AcDbLine
 10
-17.10000023830038
 20
106.7782135841686
 30
0.0
 11
-17.10000023830038
 21
87.47821358416857
 31
0.0
  0
LINE
  5
E9
330
55
100
AcDbEntity
  8
0
  6
Continuous
 62
     7
100
AcDbLine
 10
-19.50000023830039
 20
126.2924554769233
 30
0.0
 11
-15.00000023830037
 21
127.0859268901114
 31
0.0
  0
LINE
  5
EA
330
55
100
AcDbEntity
  8
1
  6
DOT_CENTER
 62
     2
100
AcDbLine
 10
-15.00000023830039
 20
85.77821358416855
 30
0.0
 11
-15.00000023830039
 21
110.7782135841685
 31
0.0
  0
ENDBLK
  5
57
330
55
100
AcDbEntity
  8
0
100
AcDbBlockEnd
  0
BLOCK
  5
5A
330
58
100
AcDbEntity
  8
0
100
AcDbBlockBegin
  2
Rckans1
 70
     0
 10
-14.99999999998003
 20
107.282070999995
 30
0.0
  3
Rckans1
  1

  0
INSERT
  5
59
330
58
100
AcDbEntity
  8
0
100
AcDbBlockReference
  2
KSS-4-8-select__3
 10
-19.50000023830039
 20
87.47821358416857
 30
0.0
  0
MTEXT
  5
EB
330
58
100
AcDbEntity
  8
1
 62
     6
100
AcDbMText
 10
-14.99999999997988
 20
82.47821511005259
 30
0.0
 40
5.0
 41
0.0
 71
     2
 72
     1
  1
 
  7
CONVERTER_11
 73
     1
 44
1.32052821128451
  0
ENDBLK
  5
5B
330
58
100
AcDbEntity
  8
0
100
AcDbBlockEnd
  0
BLOCK
  5
5D
330
5C
100
AcDbEntity
  8
0
100
AcDbBlockBegin
  2
KSS-4-8-select__4
 70
     0
 10
-209.9999995946885
 20
87.47821358416871
 30
0.0
  3
KSS-4-8-select__4
  1

  0
LINE
  5
EC
330
5C
100
AcDbEntity
  8
0
  6
Continuous
 62
     7
100
AcDbLine
 10
-204.1999995946885
 20
87.47821358416871
 30
0.0
 11
-208.3999995946885
 21
87.47821358416871
 31
0.0
  0
LINE
  5
ED
330
5C
100
AcDbEntity
  8
0
  6
Continuous
 62
     7
100
AcDbLine
 10
-208.3999995946885
 20
106.7782135841687
 30
0.0
 11
-208.3999995946885
 21
87.47821358416871
 31
0.0
  0
LINE
  5
EE
330
5C
100
AcDbEntity
  8
0
  6
Continuous
 62
     7
100
AcDbLine
 10
-209.2999995946885
 20
111.7782135841687
 30
0.0
 11
-209.2999995946885
 21
110.7782135841687
 31
0.0
  0
LINE
  5
EF
330
5C
100
AcDbEntity
  8
0
  6
Continuous
 62
     7
100
AcDbLine
 10
-208.7999995946885
 20
110.7782135841687
 30
0.0
 11
-209.2999995946885
 21
110.7782135841687
 31
0.0
  0
LINE
  5
F0
330
5C
100
AcDbEntity
  8
0
  6
Continuous
 62
     7
100
AcDbLine
 10
-209.9999995946885
 20
114.2782135841687
 30
0.0
 11
-209.9999995946885
 21
111.7782135841687
 31
0.0
  0
LINE
  5
F1
330
5C
100
AcDbEntity
  8
0
  6
Continuous
 62
     7
100
AcDbLine
 10
-209.9999995946885
 20
126.2924554769235
 30
0.0
 11
-209.9999995946885
 21
124.7782135841687
 31
0.0
  0
LINE
  5
F2
330
5C
100
AcDbEntity
  8
0
  6
Continuous
 62
     7
100
AcDbLine
 10
-209.9999995946885
 20
127.0859268901116
 30
0.0
 11
-209.9999995946885
 21
126.2924554769235
 31
0.0
  0
LINE
  5
F3
330
5C
100
AcDbEntity
  8
0
  6
Continuous
 62
     7
100
AcDbLine
 10
-209.9999995946885
 20
124.7782135841687
 30
0.0
 11
-209.9999995946885
 21
114.2782135841687
 31
0.0
  0
LINE
  5
F4
330
5C
100
AcDbEntity
  8
0
  6
Continuous
 62
     7
100
AcDbLine
 10
-208.7999995946885
 20
106.7782135841687
 30
0.0
 11
-208.7999995946885
 21
110.7782135841687
 31
0.0
  0
LINE
  5
F5
330
5C
100
AcDbEntity
  8
0
  6
Continuous
 62
     7
100
AcDbLine
 10
-204.1999995946885
 20
106.7782135841687
 30
0.0
 11
-204.1999995946885
 21
87.47821358416871
 31
0.0
  0
LINE
  5
F6
330
5C
100
AcDbEntity
  8
0
  6
Continuous
 62
     7
100
AcDbLine
 10
-187.7999995946885
 20
106.7782135841687
 30
0.0
 11
-187.7999995946885
 21
87.47821358416871
 31
0.0
  0
LINE
  5
F7
330
5C
100
AcDbEntity
  8
0
  6
Continuous
 62
     7
100
AcDbLine
 10
-183.7999995946885
 20
106.7782135841687
 30
0.0
 11
-183.7999995946885
 21
87.47821358416871
 31
0.0
  0
LINE
  5
F8
330
5C
100
AcDbEntity
  8
0
  6
Continuous
 62
     7
100
AcDbLine
 10
-177.9999995946885
 20
111.7782135841687
 30
0.0
 11
-177.9999995946885
 21
114.2782135841687
 31
0.0
  0
LINE
  5
F9
330
5C
100
AcDbEntity
  8
0
  6
Continuous
 62
     7
100
AcDbLine
 10
-179.5999995946885
 20
106.7782135841687
 30
0.0
 11
-179.5999995946885
 21
87.47821358416871
 31
0.0
  0
LINE
  5
FA
330
5C
100
AcDbEntity
  8
0
  6
Continuous
 62
     7
100
AcDbLine
 10
-177.9999995946885
 20
124.7782135841687
 30
0.0
 11
-209.9999995946885
 21
124.7782135841687
 31
0.0
  0
LINE
  5
FB
330
5C
100
AcDbEntity
  8
0
  6
Continuous
 62
     7
100
AcDbLine
 10
-209.9999995946885
 20
114.2782135841687
 30
0.0
 11
-177.9999995946885
 21
114.2782135841687
 31
0.0
  0
LINE
  5
FC
330
5C
100
AcDbEntity
  8
0
  6
Continuous
 62
     7
100
AcDbLine
 10
-195.9999995946885
 20
87.47821358416871
 30
0.0
 11
-200.1999995946885
 21
87.47821358416871
 31
0.0
  0
LINE
  5
FD
330
5C
100
AcDbEntity
  8
0
  6
Continuous
 62
     7
100
AcDbLine
 10
-191.9999995946885
 20
106.7782135841687
 30
0.0
 11
-191.9999995946885
 21
87.47821358416871
 31
0.0
  0
LINE
  5
FE
330
5C
100
AcDbEntity
  8
0
  6
Continuous
 62
     7
100
AcDbLine
 10
-195.9999995946885
 20
106.7782135841687
 30
0.0
 11
-195.9999995946885
 21
87.47821358416871
 31
0.0
  0
LINE
  5
FF
330
5C
100
AcDbEntity
  8
0
  6
Continuous
 62
     7
100
AcDbLine
 10
-200.1999995946885
 20
106.7782135841687
 30
0.0
 11
-200.1999995946885
 21
87.47821358416871
 31
0.0
  0
LINE
  5
100
330
5C
100
AcDbEntity
  8
0
  6
Continuous
 62
     7
100
AcDbLine
 10
-184.6999995946885
 20
111.7782135841687
 30
0.0
 11
-186.8999995946885
 21
111.7782135841687
 31
0.0
  0
LINE
  5
101
330
5C
100
AcDbEntity
  8
0
  6
Continuous
 62
     7
100
AcDbLine
 10
-186.8999995946885
 20
111.7782135841687
 30
0.0
 11
-186.8999995946885
 21
110.7782135841687
 31
0.0
  0
LINE
  5
102
330
5C
100
AcDbEntity
  8
0
  6
Continuous
 62
     7
100
AcDbLine
 10
-186.8999995946885
 20
110.7782135841687
 30
0.0
 11
-187.3999995946885
 21
110.7782135841687
 31
0.0
  0
LINE
  5
103
330
5C
100
AcDbEntity
  8
0
  6
Continuous
 62
     7
100
AcDbLine
 10
-178.6999995946885
 20
110.7782135841687
 30
0.0
 11
-179.1999995946885
 21
110.7782135841687
 31
0.0
  0
LINE
  5
104
330
5C
100
AcDbEntity
  8
0
  6
Continuous
 62
     7
100
AcDbLine
 10
-184.1999995946885
 20
110.7782135841687
 30
0.0
 11
-184.6999995946885
 21
110.7782135841687
 31
0.0
  0
LINE
  5
105
330
5C
100
AcDbEntity
  8
0
  6
Continuous
 62
     7
100
AcDbLine
 10
-179.1999995946885
 20
110.7782135841687
 30
0.0
 11
-184.1999995946885
 21
110.7782135841687
 31
0.0
  0
LINE
  5
106
330
5C
100
AcDbEntity
  8
0
  6
Continuous
 62
     7
100
AcDbLine
 10
-178.6999995946885
 20
111.7782135841687
 30
0.0
 11
-184.6999995946885
 21
111.7782135841687
 31
0.0
  0
LINE
  5
107
330
5C
100
AcDbEntity
  8
0
  6
Continuous
 62
     7
100
AcDbLine
 10
-187.3999995946885
 20
110.7782135841687
 30
0.0
 11
-192.3999995946885
 21
110.7782135841687
 31
0.0
  0
LINE
  5
108
330
5C
100
AcDbEntity
  8
0
  6
Continuous
 62
     7
100
AcDbLine
 10
-192.8999995946885
 20
111.7782135841687
 30
0.0
 11
-192.8999995946885
 21
110.7782135841687
 31
0.0
  0
LINE
  5
109
330
5C
100
AcDbEntity
  8
0
  6
Continuous
 62
     7
100
AcDbLine
 10
-192.8999995946885
 20
111.7782135841687
 30
0.0
 11
-195.0999995946885
 21
111.7782135841687
 31
0.0
  0
LINE
  5
10A
330
5C
100
AcDbEntity
  8
0
  6
Continuous
 62
     7
100
AcDbLine
 10
-201.0999995946885
 20
111.7782135841687
 30
0.0
 11
-203.2999995946884
 21
111.7782135841687
 31
0.0
  0
LINE
  5
10B
330
5C
100
AcDbEntity
  8
0
  6
Continuous
 62
     7
100
AcDbLine
 10
-201.0999995946885
 20
111.7782135841687
 30
0.0
 11
-201.0999995946885
 21
110.7782135841687
 31
0.0
  0
LINE
  5
10C
330
5C
100
AcDbEntity
  8
0
  6
Continuous
 62
     7
100
AcDbLine
 10
-195.0999995946885
 20
111.7782135841687
 30
0.0
 11
-195.0999995946885
 21
110.7782135841687
 31
0.0
  0
LINE
  5
10D
330
5C
100
AcDbEntity
  8
0
  6
Continuous
 62
     7
100
AcDbLine
 10
-209.2999995946885
 20
111.7782135841687
 30
0.0
 11
-209.9999995946885
 21
111.7782135841687
 31
0.0
  0
LINE
  5
10E
330
5C
100
AcDbEntity
  8
0
  6
Continuous
 62
     7
100
AcDbLine
 10
-203.7999995946884
 20
110.7782135841687
 30
0.0
 11
-208.7999995946885
 21
110.7782135841687
 31
0.0
  0
LINE
  5
10F
330
5C
100
AcDbEntity
  8
0
  6
Continuous
 62
     7
100
AcDbLine
 10
-203.2999995946884
 20
111.7782135841687
 30
0.0
 11
-203.2999995946884
 21
110.7782135841687
 31
0.0
  0
LINE
  5
110
330
5C
100
AcDbEntity
  8
0
  6
Continuous
 62
     7
100
AcDbLine
 10
-203.2999995946884
 20
111.7782135841687
 30
0.0
 11
-209.2999995946885
 21
111.7782135841687
 31
0.0
  0
LINE
  5
111
330
5C
100
AcDbEntity
  8
0
  6
Continuous
 62
     7
100
AcDbLine
 10
-195.0999995946885
 20
111.7782135841687
 30
0.0
 11
-201.0999995946885
 21
111.7782135841687
 31
0.0
  0
LINE
  5
112
330
5C
100
AcDbEntity
  8
0
  6
Continuous
 62
     7
100
AcDbLine
 10
-184.1999995946885
 20
106.7782135841687
 30
0.0
 11
-184.1999995946885
 21
110.7782135841687
 31
0.0
  0
LINE
  5
113
330
5C
100
AcDbEntity
  8
0
  6
Continuous
 62
     7
100
AcDbLine
 10
-184.6999995946885
 20
111.7782135841687
 30
0.0
 11
-184.6999995946885
 21
110.7782135841687
 31
0.0
  0
LINE
  5
114
330
5C
100
AcDbEntity
  8
0
  6
Continuous
 62
     7
100
AcDbLine
 10
-179.5999995946885
 20
106.7782135841687
 30
0.0
 11
-179.1999995946885
 21
106.7782135841687
 31
0.0
  0
LINE
  5
115
330
5C
100
AcDbEntity
  8
0
  6
Continuous
 62
     7
100
AcDbLine
 10
-181.6999995946885
 20
106.7782135841687
 30
0.0
 11
-179.5999995946885
 21
106.7782135841687
 31
0.0
  0
LINE
  5
116
330
5C
100
AcDbEntity
  8
0
  6
Continuous
 62
     7
100
AcDbLine
 10
-179.1999995946885
 20
106.7782135841687
 30
0.0
 11
-179.1999995946885
 21
110.7782135841687
 31
0.0
  0
LINE
  5
117
330
5C
100
AcDbEntity
  8
0
  6
Continuous
 62
     7
100
AcDbLine
 10
-178.6999995946885
 20
111.7782135841687
 30
0.0
 11
-178.6999995946885
 21
110.7782135841687
 31
0.0
  0
LINE
  5
118
330
5C
100
AcDbEntity
  8
0
  6
Continuous
 62
     7
100
AcDbLine
 10
-177.9999995946885
 20
111.7782135841687
 30
0.0
 11
-178.6999995946885
 21
111.7782135841687
 31
0.0
  0
LINE
  5
119
330
5C
100
AcDbEntity
  8
0
  6
Continuous
 62
     7
100
AcDbLine
 10
-187.3999995946885
 20
106.7782135841687
 30
0.0
 11
-187.3999995946885
 21
110.7782135841687
 31
0.0
  0
LINE
  5
11A
330
5C
100
AcDbEntity
  8
0
  6
Continuous
 62
     7
100
AcDbLine
 10
-192.3999995946885
 20
110.7782135841687
 30
0.0
 11
-192.8999995946885
 21
110.7782135841687
 31
0.0
  0
LINE
  5
11B
330
5C
100
AcDbEntity
  8
0
  6
Continuous
 62
     7
100
AcDbLine
 10
-195.0999995946885
 20
110.7782135841687
 30
0.0
 11
-195.5999995946885
 21
110.7782135841687
 31
0.0
  0
LINE
  5
11C
330
5C
100
AcDbEntity
  8
0
  6
Continuous
 62
     7
100
AcDbLine
 10
-200.5999995946885
 20
106.7782135841687
 30
0.0
 11
-200.5999995946885
 21
110.7782135841687
 31
0.0
  0
LINE
  5
11D
330
5C
100
AcDbEntity
  8
0
  6
Continuous
 62
     7
100
AcDbLine
 10
-200.5999995946885
 20
110.7782135841687
 30
0.0
 11
-201.0999995946885
 21
110.7782135841687
 31
0.0
  0
LINE
  5
11E
330
5C
100
AcDbEntity
  8
0
  6
Continuous
 62
     7
100
AcDbLine
 10
-203.2999995946884
 20
110.7782135841687
 30
0.0
 11
-203.7999995946884
 21
110.7782135841687
 31
0.0
  0
LINE
  5
11F
330
5C
100
AcDbEntity
  8
0
  6
Continuous
 62
     7
100
AcDbLine
 10
-195.5999995946885
 20
106.7782135841687
 30
0.0
 11
-195.5999995946885
 21
110.7782135841687
 31
0.0
  0
LINE
  5
120
330
5C
100
AcDbEntity
  8
0
  6
Continuous
 62
     7
100
AcDbLine
 10
-203.7999995946884
 20
106.7782135841687
 30
0.0
 11
-203.7999995946884
 21
110.7782135841687
 31
0.0
  0
LINE
  5
121
330
5C
100
AcDbEntity
  8
0
  6
Continuous
 62
     7
100
AcDbLine
 10
-191.9999995946885
 20
106.7782135841687
 30
0.0
 11
-189.8999995946885
 21
106.7782135841687
 31
0.0
  0
LINE
  5
122
330
5C
100
AcDbEntity
  8
0
  6
Continuous
 62
     7
100
AcDbLine
 10
-192.3999995946885
 20
106.7782135841687
 30
0.0
 11
-192.3999995946885
 21
110.7782135841687
 31
0.0
  0
LINE
  5
123
330
5C
100
AcDbEntity
  8
0
  6
Continuous
 62
     7
100
AcDbLine
 10
-195.5999995946885
 20
110.7782135841687
 30
0.0
 11
-200.5999995946885
 21
110.7782135841687
 31
0.0
  0
LINE
  5
124
330
5C
100
AcDbEntity
  8
0
  6
Continuous
 62
     7
100
AcDbLine
 10
-184.1999995946885
 20
106.7782135841687
 30
0.0
 11
-183.7999995946885
 21
106.7782135841687
 31
0.0
  0
LINE
  5
125
330
5C
100
AcDbEntity
  8
0
  6
Continuous
 62
     7
100
AcDbLine
 10
-183.7999995946885
 20
106.7782135841687
 30
0.0
 11
-181.6999995946885
 21
106.7782135841687
 31
0.0
  0
LINE
  5
126
330
5C
100
AcDbEntity
  8
0
  6
Continuous
 62
     7
100
AcDbLine
 10
-200.5999995946885
 20
106.7782135841687
 30
0.0
 11
-200.1999995946885
 21
106.7782135841687
 31
0.0
  0
LINE
  5
127
330
5C
100
AcDbEntity
  8
0
  6
Continuous
 62
     7
100
AcDbLine
 10
-192.3999995946885
 20
106.7782135841687
 30
0.0
 11
-191.9999995946885
 21
106.7782135841687
 31
0.0
  0
LINE
  5
128
330
5C
100
AcDbEntity
  8
0
  6
Continuous
 62
     7
100
AcDbLine
 10
-195.9999995946885
 20
106.7782135841687
 30
0.0
 11
-195.5999995946885
 21
106.7782135841687
 31
0.0
  0
LINE
  5
129
330
5C
100
AcDbEntity
  8
0
  6
Continuous
 62
     7
100
AcDbLine
 10
-198.0999995946885
 20
106.7782135841687
 30
0.0
 11
-195.9999995946885
 21
106.7782135841687
 31
0.0
  0
LINE
  5
12A
330
5C
100
AcDbEntity
  8
0
  6
Continuous
 62
     7
100
AcDbLine
 10
-208.7999995946885
 20
106.7782135841687
 30
0.0
 11
-208.3999995946885
 21
106.7782135841687
 31
0.0
  0
LINE
  5
12B
330
5C
100
AcDbEntity
  8
0
  6
Continuous
 62
     7
100
AcDbLine
 10
-208.3999995946885
 20
106.7782135841687
 30
0.0
 11
-206.2999995946885
 21
106.7782135841687
 31
0.0
  0
LINE
  5
12C
330
5C
100
AcDbEntity
  8
0
  6
Continuous
 62
     7
100
AcDbLine
 10
-204.1999995946885
 20
106.7782135841687
 30
0.0
 11
-203.7999995946884
 21
106.7782135841687
 31
0.0
  0
LINE
  5
12D
330
5C
100
AcDbEntity
  8
0
  6
Continuous
 62
     7
100
AcDbLine
 10
-206.2999995946885
 20
106.7782135841687
 30
0.0
 11
-204.1999995946885
 21
106.7782135841687
 31
0.0
  0
LINE
  5
12E
330
5C
100
AcDbEntity
  8
0
  6
Continuous
 62
     7
100
AcDbLine
 10
-187.7999995946885
 20
106.7782135841687
 30
0.0
 11
-187.3999995946885
 21
106.7782135841687
 31
0.0
  0
LINE
  5
12F
330
5C
100
AcDbEntity
  8
0
  6
Continuous
 62
     7
100
AcDbLine
 10
-189.8999995946885
 20
106.7782135841687
 30
0.0
 11
-187.7999995946885
 21
106.7782135841687
 31
0.0
  0
LINE
  5
130
330
5C
100
AcDbEntity
  8
0
  6
Continuous
 62
     7
100
AcDbLine
 10
-200.1999995946885
 20
106.7782135841687
 30
0.0
 11
-198.0999995946885
 21
106.7782135841687
 31
0.0
  0
LINE
  5
131
330
5C
100
AcDbEntity
  8
0
  6
Continuous
 62
     7
100
AcDbLine
 10
-186.8999995946885
 20
111.7782135841687
 30
0.0
 11
-192.8999995946885
 21
111.7782135841687
 31
0.0
  0
LINE
  5
132
330
5C
100
AcDbEntity
  8
0
  6
Continuous
 62
     7
100
AcDbLine
 10
-187.7999995946885
 20
87.47821358416871
 30
0.0
 11
-191.9999995946885
 21
87.47821358416871
 31
0.0
  0
LINE
  5
133
330
5C
100
AcDbEntity
  8
0
  6
Continuous
 62
     7
100
AcDbLine
 10
-179.5999995946885
 20
87.47821358416871
 30
0.0
 11
-183.7999995946885
 21
87.47821358416871
 31
0.0
  0
LINE
  5
134
330
5C
100
AcDbEntity
  8
0
  6
Continuous
 62
     7
100
AcDbLine
 10
-177.9999995946885
 20
126.2924554769235
 30
0.0
 11
-209.9999995946885
 21
126.2924554769235
 31
0.0
  0
LINE
  5
135
330
5C
100
AcDbEntity
  8
0
  6
Continuous
 62
     7
100
AcDbLine
 10
-177.9999995946885
 20
124.7782135841687
 30
0.0
 11
-177.9999995946885
 21
126.2924554769235
 31
0.0
  0
LINE
  5
136
330
5C
100
AcDbEntity
  8
0
  6
Continuous
 62
     7
100
AcDbLine
 10
-177.9999995946885
 20
126.2924554769235
 30
0.0
 11
-177.9999995946885
 21
127.0859268901116
 31
0.0
  0
LINE
  5
137
330
5C
100
AcDbEntity
  8
0
  6
Continuous
 62
     7
100
AcDbLine
 10
-177.9999995946885
 20
114.2782135841687
 30
0.0
 11
-177.9999995946885
 21
124.7782135841687
 31
0.0
  0
LINE
  5
138
330
5C
100
AcDbEntity
  8
0
  6
Continuous
 62
     7
100
AcDbLine
 10
-177.9999995946885
 20
127.0859268901116
 30
0.0
 11
-209.9999995946885
 21
127.0859268901116
 31
0.0
  0
LINE
  5
139
330
5C
100
AcDbEntity
  8
1
  6
DOT_CENTER
 62
     2
100
AcDbLine
 10
-181.6999995946885
 20
87.47821358416871
 30
0.0
 11
-181.6999995946885
 21
110.7782135841687
 31
0.0
  0
LINE
  5
13A
330
5C
100
AcDbEntity
  8
1
  6
DOT_CENTER
 62
     2
100
AcDbLine
 10
-198.0999995946885
 20
87.47821358416871
 30
0.0
 11
-198.0999995946885
 21
110.7782135841687
 31
0.0
  0
LINE
  5
13B
330
5C
100
AcDbEntity
  8
1
  6
DOT_CENTER
 62
     2
100
AcDbLine
 10
-206.2999995946885
 20
87.47821358416871
 30
0.0
 11
-206.2999995946885
 21
110.7782135841687
 31
0.0
  0
LINE
  5
13C
330
5C
100
AcDbEntity
  8
1
  6
DOT_CENTER
 62
     2
100
AcDbLine
 10
-189.8999995946885
 20
87.47821358416871
 30
0.0
 11
-189.8999995946885
 21
110.7782135841687
 31
0.0
  0
ENDBLK
  5
5E
330
5C
100
AcDbEntity
  8
0
100
AcDbBlockEnd
  0
BLOCK
  5
61
330
5F
100
AcDbEntity
  8
0
100
AcDbBlockBegin
  2
SA_Rechts1
 70
     0
 10
-194.0
 20
107.2820709999951
 30
0.0
  3
SA_Rechts1
  1

  0
INSERT
  5
60
330
5F
100
AcDbEntity
  8
0
100
AcDbBlockReference
  2
KSS-4-8-select__4
 10
-209.9999995946885
 20
87.47821358416871
 30
0.0
  0
MTEXT
  5
13D
330
5F
100
AcDbEntity
  8
1
 62
     6
100
AcDbMText
 10
-194.0
 20
82.47821511005259
 30
0.0
 40
5.0
 41
0.0
 71
     2
 72
     1
  1
 
  7
CONVERTER_11
 73
     1
 44
1.32052821128451
  0
ENDBLK
  5
62
330
5F
100
AcDbEntity
  8
0
100
AcDbBlockEnd
  0
BLOCK
  5
64
330
63
100
AcDbEntity
  8
0
100
AcDbBlockBegin
  2
KSS-4-8-select__5
 70
     0
 10
-108.5376705576855
 20
87.47821392856937
 30
0.0
  3
KSS-4-8-select__5
  1

  0
LINE
  5
13E
330
63
100
AcDbEntity
  8
0
  6
Continuous
 62
     7
100
AcDbLine
 10
-76.5376705576855
 20
127.0859272345122
 30
0.0
 11
-76.5376705576855
 21
126.2924558213241
 31
0.0
  0
LINE
  5
13F
330
63
100
AcDbEntity
  8
0
  6
Continuous
 62
     7
100
AcDbLine
 10
-108.5376705576855
 20
126.2924558213241
 30
0.0
 11
-108.5376705576855
 21
127.0859272345122
 31
0.0
  0
LINE
  5
140
330
63
100
AcDbEntity
  8
0
  6
Continuous
 62
     7
100
AcDbLine
 10
-108.5376705576855
 20
127.0859272345122
 30
0.0
 11
-76.5376705576855
 21
127.0859272345122
 31
0.0
  0
LINE
  5
141
330
63
100
AcDbEntity
  8
0
  6
Continuous
 62
     7
100
AcDbLine
 10
-106.9376705576855
 20
106.7782139285694
 30
0.0
 11
-102.7376705576855
 21
106.7782139285694
 31
0.0
  0
LINE
  5
142
330
63
100
AcDbEntity
  8
0
  6
Continuous
 62
     7
100
AcDbLine
 10
-85.93767055768551
 20
106.7782139285694
 30
0.0
 11
-85.93767055768551
 21
110.7782139285694
 31
0.0
  0
LINE
  5
143
330
63
100
AcDbEntity
  8
0
  6
Continuous
 62
     7
100
AcDbLine
 10
-90.5376705576855
 20
106.7782139285694
 30
0.0
 11
-86.33767055768551
 21
106.7782139285694
 31
0.0
  0
LINE
  5
144
330
63
100
AcDbEntity
  8
0
  6
Continuous
 62
     7
100
AcDbLine
 10
-90.93767055768551
 20
106.7782139285694
 30
0.0
 11
-90.93767055768551
 21
110.7782139285694
 31
0.0
  0
LINE
  5
145
330
63
100
AcDbEntity
  8
0
  6
Continuous
 62
     7
100
AcDbLine
 10
-94.13767055768551
 20
106.7782139285694
 30
0.0
 11
-94.13767055768551
 21
110.7782139285694
 31
0.0
  0
LINE
  5
146
330
63
100
AcDbEntity
  8
0
  6
Continuous
 62
     7
100
AcDbLine
 10
-85.43767055768551
 20
110.7782139285694
 30
0.0
 11
-85.93767055768551
 21
110.7782139285694
 31
0.0
  0
LINE
  5
147
330
63
100
AcDbEntity
  8
0
  6
Continuous
 62
     7
100
AcDbLine
 10
-90.93767055768551
 20
110.7782139285694
 30
0.0
 11
-91.43767055768551
 21
110.7782139285694
 31
0.0
  0
LINE
  5
148
330
63
100
AcDbEntity
  8
0
  6
Continuous
 62
     7
100
AcDbLine
 10
-93.63767055768551
 20
110.7782139285694
 30
0.0
 11
-94.13767055768551
 21
110.7782139285694
 31
0.0
  0
LINE
  5
149
330
63
100
AcDbEntity
  8
0
  6
Continuous
 62
     7
100
AcDbLine
 10
-85.93767055768551
 20
110.7782139285694
 30
0.0
 11
-90.93767055768551
 21
110.7782139285694
 31
0.0
  0
LINE
  5
14A
330
63
100
AcDbEntity
  8
0
  6
Continuous
 62
     7
100
AcDbLine
 10
-93.63767055768551
 20
111.7782139285694
 30
0.0
 11
-93.63767055768551
 21
110.7782139285694
 31
0.0
  0
LINE
  5
14B
330
63
100
AcDbEntity
  8
0
  6
Continuous
 62
     7
100
AcDbLine
 10
-91.43767055768551
 20
111.7782139285694
 30
0.0
 11
-91.43767055768551
 21
110.7782139285694
 31
0.0
  0
LINE
  5
14C
330
63
100
AcDbEntity
  8
0
  6
Continuous
 62
     7
100
AcDbLine
 10
-94.13767055768551
 20
110.7782139285694
 30
0.0
 11
-99.13767055768551
 21
110.7782139285694
 31
0.0
  0
LINE
  5
14D
330
63
100
AcDbEntity
  8
0
  6
Continuous
 62
     7
100
AcDbLine
 10
-99.63767055768551
 20
111.7782139285694
 30
0.0
 11
-99.63767055768551
 21
110.7782139285694
 31
0.0
  0
LINE
  5
14E
330
63
100
AcDbEntity
  8
0
  6
Continuous
 62
     7
100
AcDbLine
 10
-85.43767055768551
 20
111.7782139285694
 30
0.0
 11
-85.43767055768551
 21
110.7782139285694
 31
0.0
  0
LINE
  5
14F
330
63
100
AcDbEntity
  8
0
  6
Continuous
 62
     7
100
AcDbLine
 10
-107.3376705576855
 20
110.7782139285694
 30
0.0
 11
-107.8376705576855
 21
110.7782139285694
 31
0.0
  0
LINE
  5
150
330
63
100
AcDbEntity
  8
0
  6
Continuous
 62
     7
100
AcDbLine
 10
-102.3376705576855
 20
110.7782139285694
 30
0.0
 11
-107.3376705576855
 21
110.7782139285694
 31
0.0
  0
LINE
  5
151
330
63
100
AcDbEntity
  8
0
  6
Continuous
 62
     7
100
AcDbLine
 10
-101.8376705576855
 20
111.7782139285694
 30
0.0
 11
-101.8376705576855
 21
110.7782139285694
 31
0.0
  0
LINE
  5
152
330
63
100
AcDbEntity
  8
0
  6
Continuous
 62
     7
100
AcDbLine
 10
-82.7376705576855
 20
110.7782139285694
 30
0.0
 11
-83.2376705576855
 21
110.7782139285694
 31
0.0
  0
LINE
  5
153
330
63
100
AcDbEntity
  8
0
  6
Continuous
 62
     7
100
AcDbLine
 10
-77.7376705576855
 20
110.7782139285694
 30
0.0
 11
-82.7376705576855
 21
110.7782139285694
 31
0.0
  0
LINE
  5
154
330
63
100
AcDbEntity
  8
0
  6
Continuous
 62
     7
100
AcDbLine
 10
-83.2376705576855
 20
111.7782139285694
 30
0.0
 11
-83.2376705576855
 21
110.7782139285694
 31
0.0
  0
LINE
  5
155
330
63
100
AcDbEntity
  8
0
  6
Continuous
 62
     7
100
AcDbLine
 10
-93.63767055768551
 20
111.7782139285694
 30
0.0
 11
-91.43767055768551
 21
111.7782139285694
 31
0.0
  0
LINE
  5
156
330
63
100
AcDbEntity
  8
0
  6
Continuous
 62
     7
100
AcDbLine
 10
-85.43767055768551
 20
111.7782139285694
 30
0.0
 11
-83.2376705576855
 21
111.7782139285694
 31
0.0
  0
LINE
  5
157
330
63
100
AcDbEntity
  8
0
  6
Continuous
 62
     7
100
AcDbLine
 10
-101.8376705576855
 20
111.7782139285694
 30
0.0
 11
-99.63767055768551
 21
111.7782139285694
 31
0.0
  0
LINE
  5
158
330
63
100
AcDbEntity
  8
0
  6
Continuous
 62
     7
100
AcDbLine
 10
-83.2376705576855
 20
111.7782139285694
 30
0.0
 11
-77.2376705576855
 21
111.7782139285694
 31
0.0
  0
LINE
  5
159
330
63
100
AcDbEntity
  8
0
  6
Continuous
 62
     7
100
AcDbLine
 10
-77.2376705576855
 20
111.7782139285694
 30
0.0
 11
-76.5376705576855
 21
111.7782139285694
 31
0.0
  0
LINE
  5
15A
330
63
100
AcDbEntity
  8
0
  6
Continuous
 62
     7
100
AcDbLine
 10
-107.8376705576855
 20
111.7782139285694
 30
0.0
 11
-101.8376705576855
 21
111.7782139285694
 31
0.0
  0
LINE
  5
15B
330
63
100
AcDbEntity
  8
0
  6
Continuous
 62
     7
100
AcDbLine
 10
-99.63767055768551
 20
111.7782139285694
 30
0.0
 11
-93.63767055768551
 21
111.7782139285694
 31
0.0
  0
LINE
  5
15C
330
63
100
AcDbEntity
  8
0
  6
Continuous
 62
     7
100
AcDbLine
 10
-91.43767055768551
 20
111.7782139285694
 30
0.0
 11
-85.43767055768551
 21
111.7782139285694
 31
0.0
  0
LINE
  5
15D
330
63
100
AcDbEntity
  8
0
  6
Continuous
 62
     7
100
AcDbLine
 10
-108.5376705576855
 20
114.2782139285694
 30
0.0
 11
-76.5376705576855
 21
114.2782139285694
 31
0.0
  0
LINE
  5
15E
330
63
100
AcDbEntity
  8
0
  6
Continuous
 62
     7
100
AcDbLine
 10
-78.13767055768551
 20
87.47821392856937
 30
0.0
 11
-80.2376705576855
 21
87.47821392856937
 31
0.0
  0
LINE
  5
15F
330
63
100
AcDbEntity
  8
0
  6
Continuous
 62
     7
100
AcDbLine
 10
-82.3376705576855
 20
106.7782139285694
 30
0.0
 11
-78.13767055768551
 21
106.7782139285694
 31
0.0
  0
LINE
  5
160
330
63
100
AcDbEntity
  8
0
  6
Continuous
 62
     7
100
AcDbLine
 10
-101.8376705576855
 20
110.7782139285694
 30
0.0
 11
-102.3376705576855
 21
110.7782139285694
 31
0.0
  0
LINE
  5
161
330
63
100
AcDbEntity
  8
0
  6
Continuous
 62
     7
100
AcDbLine
 10
-102.3376705576855
 20
106.7782139285694
 30
0.0
 11
-102.3376705576855
 21
110.7782139285694
 31
0.0
  0
LINE
  5
162
330
63
100
AcDbEntity
  8
0
  6
Continuous
 62
     7
100
AcDbLine
 10
-99.13767055768551
 20
110.7782139285694
 30
0.0
 11
-99.63767055768551
 21
110.7782139285694
 31
0.0
  0
LINE
  5
163
330
63
100
AcDbEntity
  8
0
  6
Continuous
 62
     7
100
AcDbLine
 10
-102.7376705576855
 20
106.7782139285694
 30
0.0
 11
-102.3376705576855
 21
106.7782139285694
 31
0.0
  0
LINE
  5
164
330
63
100
AcDbEntity
  8
0
  6
Continuous
 62
     7
100
AcDbLine
 10
-99.13767055768551
 20
106.7782139285694
 30
0.0
 11
-98.7376705576855
 21
106.7782139285694
 31
0.0
  0
LINE
  5
165
330
63
100
AcDbEntity
  8
0
  6
Continuous
 62
     7
100
AcDbLine
 10
-102.7376705576855
 20
106.7782139285694
 30
0.0
 11
-102.7376705576855
 21
87.47821392856937
 31
0.0
  0
LINE
  5
166
330
63
100
AcDbEntity
  8
0
  6
Continuous
 62
     7
100
AcDbLine
 10
-98.7376705576855
 20
106.7782139285694
 30
0.0
 11
-98.7376705576855
 21
87.47821392856937
 31
0.0
  0
LINE
  5
167
330
63
100
AcDbEntity
  8
0
  6
Continuous
 62
     7
100
AcDbLine
 10
-99.13767055768551
 20
106.7782139285694
 30
0.0
 11
-99.13767055768551
 21
110.7782139285694
 31
0.0
  0
LINE
  5
168
330
63
100
AcDbEntity
  8
0
  6
Continuous
 62
     7
100
AcDbLine
 10
-86.33767055768551
 20
106.7782139285694
 30
0.0
 11
-85.93767055768551
 21
106.7782139285694
 31
0.0
  0
LINE
  5
169
330
63
100
AcDbEntity
  8
0
  6
Continuous
 62
     7
100
AcDbLine
 10
-82.3376705576855
 20
106.7782139285694
 30
0.0
 11
-82.3376705576855
 21
87.47821392856937
 31
0.0
  0
LINE
  5
16A
330
63
100
AcDbEntity
  8
0
  6
Continuous
 62
     7
100
AcDbLine
 10
-86.33767055768551
 20
106.7782139285694
 30
0.0
 11
-86.33767055768551
 21
87.47821392856937
 31
0.0
  0
LINE
  5
16B
330
63
100
AcDbEntity
  8
0
  6
Continuous
 62
     7
100
AcDbLine
 10
-104.8376705576855
 20
87.47821392856937
 30
0.0
 11
-106.9376705576855
 21
87.47821392856937
 31
0.0
  0
LINE
  5
16C
330
63
100
AcDbEntity
  8
0
  6
Continuous
 62
     7
100
AcDbLine
 10
-86.33767055768551
 20
87.47821392856937
 30
0.0
 11
-88.43767055768551
 21
87.47821392856937
 31
0.0
  0
LINE
  5
16D
330
63
100
AcDbEntity
  8
0
  6
Continuous
 62
     7
100
AcDbLine
 10
-88.43767055768551
 20
87.47821392856937
 30
0.0
 11
-90.5376705576855
 21
87.47821392856937
 31
0.0
  0
LINE
  5
16E
330
63
100
AcDbEntity
  8
0
  6
Continuous
 62
     7
100
AcDbLine
 10
-94.5376705576855
 20
87.47821392856937
 30
0.0
 11
-96.63767055768551
 21
87.47821392856937
 31
0.0
  0
LINE
  5
16F
330
63
100
AcDbEntity
  8
0
  6
Continuous
 62
     7
100
AcDbLine
 10
-102.7376705576855
 20
87.47821392856937
 30
0.0
 11
-104.8376705576855
 21
87.47821392856937
 31
0.0
  0
LINE
  5
170
330
63
100
AcDbEntity
  8
0
  6
Continuous
 62
     7
100
AcDbLine
 10
-96.63767055768551
 20
87.47821392856937
 30
0.0
 11
-98.7376705576855
 21
87.47821392856937
 31
0.0
  0
LINE
  5
171
330
63
100
AcDbEntity
  8
0
  6
Continuous
 62
     7
100
AcDbLine
 10
-90.93767055768551
 20
106.7782139285694
 30
0.0
 11
-90.5376705576855
 21
106.7782139285694
 31
0.0
  0
LINE
  5
172
330
63
100
AcDbEntity
  8
0
  6
Continuous
 62
     7
100
AcDbLine
 10
-94.5376705576855
 20
106.7782139285694
 30
0.0
 11
-94.13767055768551
 21
106.7782139285694
 31
0.0
  0
LINE
  5
173
330
63
100
AcDbEntity
  8
0
  6
Continuous
 62
     7
100
AcDbLine
 10
-90.5376705576855
 20
106.7782139285694
 30
0.0
 11
-90.5376705576855
 21
87.47821392856937
 31
0.0
  0
LINE
  5
174
330
63
100
AcDbEntity
  8
0
  6
Continuous
 62
     7
100
AcDbLine
 10
-94.5376705576855
 20
106.7782139285694
 30
0.0
 11
-94.5376705576855
 21
87.47821392856937
 31
0.0
  0
LINE
  5
175
330
63
100
AcDbEntity
  8
0
  6
Continuous
 62
     7
100
AcDbLine
 10
-98.7376705576855
 20
106.7782139285694
 30
0.0
 11
-94.5376705576855
 21
106.7782139285694
 31
0.0
  0
LINE
  5
176
330
63
100
AcDbEntity
  8
0
  6
Continuous
 62
     7
100
AcDbLine
 10
-82.7376705576855
 20
106.7782139285694
 30
0.0
 11
-82.3376705576855
 21
106.7782139285694
 31
0.0
  0
LINE
  5
177
330
63
100
AcDbEntity
  8
0
  6
Continuous
 62
     7
100
AcDbLine
 10
-80.2376705576855
 20
87.47821392856937
 30
0.0
 11
-82.3376705576855
 21
87.47821392856937
 31
0.0
  0
LINE
  5
178
330
63
100
AcDbEntity
  8
0
  6
Continuous
 62
     7
100
AcDbLine
 10
-82.7376705576855
 20
106.7782139285694
 30
0.0
 11
-82.7376705576855
 21
110.7782139285694
 31
0.0
  0
LINE
  5
179
330
63
100
AcDbEntity
  8
0
  6
Continuous
 62
     7
100
AcDbLine
 10
-108.5376705576855
 20
124.7782139285693
 30
0.0
 11
-76.5376705576855
 21
124.7782139285693
 31
0.0
  0
LINE
  5
17A
330
63
100
AcDbEntity
  8
0
  6
Continuous
 62
     7
100
AcDbLine
 10
-77.2376705576855
 20
110.7782139285694
 30
0.0
 11
-77.7376705576855
 21
110.7782139285694
 31
0.0
  0
LINE
  5
17B
330
63
100
AcDbEntity
  8
0
  6
Continuous
 62
     7
100
AcDbLine
 10
-77.7376705576855
 20
106.7782139285694
 30
0.0
 11
-77.7376705576855
 21
110.7782139285694
 31
0.0
  0
LINE
  5
17C
330
63
100
AcDbEntity
  8
0
  6
Continuous
 62
     7
100
AcDbLine
 10
-78.13767055768551
 20
106.7782139285694
 30
0.0
 11
-77.7376705576855
 21
106.7782139285694
 31
0.0
  0
LINE
  5
17D
330
63
100
AcDbEntity
  8
0
  6
Continuous
 62
     7
100
AcDbLine
 10
-77.2376705576855
 20
111.7782139285694
 30
0.0
 11
-77.2376705576855
 21
110.7782139285694
 31
0.0
  0
LINE
  5
17E
330
63
100
AcDbEntity
  8
0
  6
Continuous
 62
     7
100
AcDbLine
 10
-76.5376705576855
 20
111.7782139285694
 30
0.0
 11
-76.5376705576855
 21
114.2782139285694
 31
0.0
  0
LINE
  5
17F
330
63
100
AcDbEntity
  8
0
  6
Continuous
 62
     7
100
AcDbLine
 10
-76.5376705576855
 20
124.7782139285693
 30
0.0
 11
-76.5376705576855
 21
126.2924558213241
 31
0.0
  0
LINE
  5
180
330
63
100
AcDbEntity
  8
0
  6
Continuous
 62
     7
100
AcDbLine
 10
-78.13767055768551
 20
106.7782139285694
 30
0.0
 11
-78.13767055768551
 21
87.47821392856937
 31
0.0
  0
LINE
  5
181
330
63
100
AcDbEntity
  8
0
  6
Continuous
 62
     7
100
AcDbLine
 10
-76.5376705576855
 20
114.2782139285694
 30
0.0
 11
-76.5376705576855
 21
124.7782139285693
 31
0.0
  0
LINE
  5
182
330
63
100
AcDbEntity
  8
0
  6
Continuous
 62
     7
100
AcDbLine
 10
-107.3376705576855
 20
106.7782139285694
 30
0.0
 11
-106.9376705576855
 21
106.7782139285694
 31
0.0
  0
LINE
  5
183
330
63
100
AcDbEntity
  8
0
  6
Continuous
 62
     7
100
AcDbLine
 10
-107.3376705576855
 20
106.7782139285694
 30
0.0
 11
-107.3376705576855
 21
110.7782139285694
 31
0.0
  0
LINE
  5
184
330
63
100
AcDbEntity
  8
0
  6
Continuous
 62
     7
100
AcDbLine
 10
-108.5376705576855
 20
111.7782139285694
 30
0.0
 11
-107.8376705576855
 21
111.7782139285694
 31
0.0
  0
LINE
  5
185
330
63
100
AcDbEntity
  8
0
  6
Continuous
 62
     7
100
AcDbLine
 10
-107.8376705576855
 20
111.7782139285694
 30
0.0
 11
-107.8376705576855
 21
110.7782139285694
 31
0.0
  0
LINE
  5
186
330
63
100
AcDbEntity
  8
0
  6
Continuous
 62
     7
100
AcDbLine
 10
-108.5376705576855
 20
114.2782139285694
 30
0.0
 11
-108.5376705576855
 21
111.7782139285694
 31
0.0
  0
LINE
  5
187
330
63
100
AcDbEntity
  8
0
  6
Continuous
 62
     7
100
AcDbLine
 10
-108.5376705576855
 20
126.2924558213241
 30
0.0
 11
-108.5376705576855
 21
124.7782139285693
 31
0.0
  0
LINE
  5
188
330
63
100
AcDbEntity
  8
0
  6
Continuous
 62
     7
100
AcDbLine
 10
-106.9376705576855
 20
106.7782139285694
 30
0.0
 11
-106.9376705576855
 21
87.47821392856937
 31
0.0
  0
LINE
  5
189
330
63
100
AcDbEntity
  8
0
  6
Continuous
 62
     7
100
AcDbLine
 10
-108.5376705576855
 20
124.7782139285693
 30
0.0
 11
-108.5376705576855
 21
114.2782139285694
 31
0.0
  0
LINE
  5
18A
330
63
100
AcDbEntity
  8
0
  6
Continuous
 62
     7
100
AcDbLine
 10
-108.5376705576855
 20
126.2924558213241
 30
0.0
 11
-76.5376705576855
 21
126.2924558213241
 31
0.0
  0
LINE
  5
18B
330
63
100
AcDbEntity
  8
1
  6
DOT_CENTER
 62
     2
100
AcDbLine
 10
-104.8376705576855
 20
87.47821392856937
 30
0.0
 11
-104.8376705576855
 21
110.7782139285694
 31
0.0
  0
LINE
  5
18C
330
63
100
AcDbEntity
  8
1
  6
DOT_CENTER
 62
     2
100
AcDbLine
 10
-80.2376705576855
 20
87.47821392856937
 30
0.0
 11
-80.2376705576855
 21
111.7782139285694
 31
0.0
  0
LINE
  5
18D
330
63
100
AcDbEntity
  8
1
  6
DOT_CENTER
 62
     2
100
AcDbLine
 10
-96.63767055768551
 20
87.47821392856937
 30
0.0
 11
-96.63767055768551
 21
110.7782139285694
 31
0.0
  0
LINE
  5
18E
330
63
100
AcDbEntity
  8
1
  6
DOT_CENTER
 62
     2
100
AcDbLine
 10
-96.63767055768551
 20
111.7782139285694
 30
0.0
 11
-96.63767055768551
 21
87.47821392856937
 31
0.0
  0
LINE
  5
18F
330
63
100
AcDbEntity
  8
1
  6
DOT_CENTER
 62
     2
100
AcDbLine
 10
-104.8376705576855
 20
111.7782139285693
 30
0.0
 11
-104.8376705576855
 21
87.47821392856937
 31
0.0
  0
LINE
  5
190
330
63
100
AcDbEntity
  8
1
  6
DOT_CENTER
 62
     2
100
AcDbLine
 10
-88.43767055768551
 20
87.47821392856937
 30
0.0
 11
-88.43767055768551
 21
111.7782139285693
 31
0.0
  0
ENDBLK
  5
65
330
63
100
AcDbEntity
  8
0
100
AcDbBlockEnd
  0
BLOCK
  5
68
330
66
100
AcDbEntity
  8
0
100
AcDbBlockBegin
  2
SA_links1
 70
     0
 10
-92.53767015237395
 20
107.2820713443958
 30
0.0
  3
SA_links1
  1

  0
INSERT
  5
67
330
66
100
AcDbEntity
  8
0
100
AcDbBlockReference
  2
KSS-4-8-select__5
 10
-108.5376705576855
 20
87.47821392856937
 30
0.0
  0
ENDBLK
  5
69
330
66
100
AcDbEntity
  8
0
100
AcDbBlockEnd
  0
BLOCK
  5
6B
330
6A
100
AcDbEntity
  8
0
100
AcDbBlockBegin
  2
KSS-4-8-select__6
 70
     0
 10
-140.5376692704219
 20
87.47821392856962
 30
0.0
  3
KSS-4-8-select__6
  1

  0
LINE
  5
191
330
6A
100
AcDbEntity
  8
0
  6
Continuous
 62
     7
100
AcDbLine
 10
-138.5376692704219
 20
110.7782139285696
 30
0.0
 11
-139.0376692704219
 21
110.7782139285696
 31
0.0
  0
LINE
  5
192
330
6A
100
AcDbEntity
  8
0
  6
Continuous
 62
     7
100
AcDbLine
 10
-138.5376692704219
 20
106.7782139285696
 30
0.0
 11
-138.5376692704219
 21
110.7782139285696
 31
0.0
  0
LINE
  5
193
330
6A
100
AcDbEntity
  8
0
  6
Continuous
 62
     7
100
AcDbLine
 10
-139.0376692704219
 20
111.7782139285696
 30
0.0
 11
-139.0376692704219
 21
110.7782139285696
 31
0.0
  0
LINE
  5
194
330
6A
100
AcDbEntity
  8
0
  6
Continuous
 62
     7
100
AcDbLine
 10
-136.0376692704219
 20
110.7782139285696
 30
0.0
 11
-138.5376692704219
 21
110.7782139285696
 31
0.0
  0
LINE
  5
195
330
6A
100
AcDbEntity
  8
0
  6
Continuous
 62
     7
100
AcDbLine
 10
-131.5376692704219
 20
124.7782139285696
 30
0.0
 11
-132.5376692704219
 21
124.7782139285696
 31
0.0
  0
LINE
  5
196
330
6A
100
AcDbEntity
  8
0
  6
Continuous
 62
     7
100
AcDbLine
 10
-131.5376692704219
 20
126.2924558213244
 30
0.0
 11
-131.5376692704219
 21
124.7782139285696
 31
0.0
  0
LINE
  5
197
330
6A
100
AcDbEntity
  8
0
  6
Continuous
 62
     7
100
AcDbLine
 10
-136.0376692704219
 20
127.0859272345125
 30
0.0
 11
-140.5376692704219
 21
126.2924558213244
 31
0.0
  0
LINE
  5
198
330
6A
100
AcDbEntity
  8
0
  6
Continuous
 62
     7
100
AcDbLine
 10
-132.5376692704219
 20
124.7782139285696
 30
0.0
 11
-132.5376692704219
 21
114.2782139285696
 31
0.0
  0
LINE
  5
199
330
6A
100
AcDbEntity
  8
0
  6
Continuous
 62
     7
100
AcDbLine
 10
-140.5376692704219
 20
124.7782139285696
 30
0.0
 11
-140.5376692704219
 21
126.2924558213244
 31
0.0
  0
LINE
  5
19A
330
6A
100
AcDbEntity
  8
0
  6
Continuous
 62
     7
100
AcDbLine
 10
-139.5376692704219
 20
124.7782139285696
 30
0.0
 11
-140.5376692704219
 21
124.7782139285696
 31
0.0
  0
LINE
  5
19B
330
6A
100
AcDbEntity
  8
0
  6
Continuous
 62
     7
100
AcDbLine
 10
-139.5376692704219
 20
114.2782139285696
 30
0.0
 11
-139.5376692704219
 21
124.7782139285696
 31
0.0
  0
LINE
  5
19C
330
6A
100
AcDbEntity
  8
0
  6
Continuous
 62
     7
100
AcDbLine
 10
-140.5376692704219
 20
111.7782139285696
 30
0.0
 11
-140.5376692704219
 21
114.2782139285696
 31
0.0
  0
LINE
  5
19D
330
6A
100
AcDbEntity
  8
0
  6
Continuous
 62
     7
100
AcDbLine
 10
-139.0376692704219
 20
111.7782139285696
 30
0.0
 11
-140.5376692704219
 21
111.7782139285696
 31
0.0
  0
LINE
  5
19E
330
6A
100
AcDbEntity
  8
0
  6
Continuous
 62
     7
100
AcDbLine
 10
-131.5376692704219
 20
111.7782139285696
 30
0.0
 11
-133.0376692704219
 21
111.7782139285696
 31
0.0
  0
LINE
  5
19F
330
6A
100
AcDbEntity
  8
0
  6
Continuous
 62
     7
100
AcDbLine
 10
-131.5376692704219
 20
114.2782139285696
 30
0.0
 11
-132.5376692704219
 21
114.2782139285696
 31
0.0
  0
LINE
  5
1A0
330
6A
100
AcDbEntity
  8
0
  6
Continuous
 62
     7
100
AcDbLine
 10
-139.5376692704219
 20
114.2782139285696
 30
0.0
 11
-140.5376692704219
 21
114.2782139285696
 31
0.0
  0
LINE
  5
1A1
330
6A
100
AcDbEntity
  8
0
  6
Continuous
 62
     7
100
AcDbLine
 10
-133.0376692704219
 20
111.7782139285696
 30
0.0
 11
-139.0376692704219
 21
111.7782139285696
 31
0.0
  0
LINE
  5
1A2
330
6A
100
AcDbEntity
  8
0
  6
Continuous
 62
     7
100
AcDbLine
 10
-138.1376692704219
 20
106.7782139285696
 30
0.0
 11
-138.1376692704219
 21
87.47821392856962
 31
0.0
  0
LINE
  5
1A3
330
6A
100
AcDbEntity
  8
0
  6
Continuous
 62
     7
100
AcDbLine
 10
-138.5376692704219
 20
106.7782139285696
 30
0.0
 11
-138.1376692704219
 21
106.7782139285696
 31
0.0
  0
LINE
  5
1A4
330
6A
100
AcDbEntity
  8
0
  6
Continuous
 62
     7
100
AcDbLine
 10
-138.1376692704219
 20
106.7782139285696
 30
0.0
 11
-133.9376692704219
 21
106.7782139285696
 31
0.0
  0
LINE
  5
1A5
330
6A
100
AcDbEntity
  8
0
  6
Continuous
 62
     7
100
AcDbLine
 10
-133.9376692704219
 20
87.47821392856962
 30
0.0
 11
-138.1376692704219
 21
87.47821392856962
 31
0.0
  0
LINE
  5
1A6
330
6A
100
AcDbEntity
  8
0
  6
Continuous
 62
     7
100
AcDbLine
 10
-133.0376692704219
 20
111.7782139285696
 30
0.0
 11
-133.0376692704219
 21
110.7782139285696
 31
0.0
  0
LINE
  5
1A7
330
6A
100
AcDbEntity
  8
0
  6
Continuous
 62
     7
100
AcDbLine
 10
-133.0376692704219
 20
110.7782139285696
 30
0.0
 11
-133.5376692704219
 21
110.7782139285696
 31
0.0
  0
LINE
  5
1A8
330
6A
100
AcDbEntity
  8
0
  6
Continuous
 62
     7
100
AcDbLine
 10
-131.5376692704219
 20
114.2782139285696
 30
0.0
 11
-131.5376692704219
 21
111.7782139285696
 31
0.0
  0
LINE
  5
1A9
330
6A
100
AcDbEntity
  8
0
  6
Continuous
 62
     7
100
AcDbLine
 10
-133.5376692704219
 20
110.7782139285696
 30
0.0
 11
-136.0376692704219
 21
110.7782139285696
 31
0.0
  0
LINE
  5
1AA
330
6A
100
AcDbEntity
  8
0
  6
Continuous
 62
     7
100
AcDbLine
 10
-133.9376692704219
 20
106.7782139285696
 30
0.0
 11
-133.5376692704219
 21
106.7782139285696
 31
0.0
  0
LINE
  5
1AB
330
6A
100
AcDbEntity
  8
0
  6
Continuous
 62
     7
100
AcDbLine
 10
-133.5376692704219
 20
106.7782139285696
 30
0.0
 11
-133.5376692704219
 21
110.7782139285696
 31
0.0
  0
LINE
  5
1AC
330
6A
100
AcDbEntity
  8
0
  6
Continuous
 62
     7
100
AcDbLine
 10
-133.9376692704219
 20
106.7782139285696
 30
0.0
 11
-133.9376692704219
 21
87.47821392856962
 31
0.0
  0
LINE
  5
1AD
330
6A
100
AcDbEntity
  8
0
  6
Continuous
 62
     7
100
AcDbLine
 10
-136.0376692704219
 20
127.0859272345125
 30
0.0
 11
-131.5376692704219
 21
126.2924558213244
 31
0.0
  0
LINE
  5
1AE
330
6A
100
AcDbEntity
  8
1
  6
DOT_CENTER
 62
     2
100
AcDbLine
 10
-136.0376692704219
 20
87.47821392856962
 30
0.0
 11
-136.0376692704219
 21
111.7782139285696
 31
0.0
  0
ENDBLK
  5
6C
330
6A
100
AcDbEntity
  8
0
100
AcDbBlockEnd
  0
BLOCK
  5
6F
330
6D
100
AcDbEntity
  8
0
100
AcDbBlockBegin
  2
Vordans1
 70
     0
 10
-136.0376695087422
 20
107.282071344396
 30
0.0
  3
Vordans1
  1

  0
INSERT
  5
6E
330
6D
100
AcDbEntity
  8
0
100
AcDbBlockReference
  2
KSS-4-8-select__6
 10
-140.5376692704219
 20
87.47821392856962
 30
0.0
  0
DIMENSION
  5
1BB
330
6D
100
AcDbEntity
  8
1
100
AcDbDimension
  2
*D18
 10
-140.5376692704219
 20
138.361955096808
 30
0.0
 11
-136.0376692704219
 21
142.111955096808
 31
0.0
 70
    32
  1
<>
 71
     5
 42
-1.0
 53
0.00013888888889
  3
ME10_DIM_11
100
AcDbAlignedDimension
 13
-131.5376692704219
 23
111.7782139285696
 33
0.0
 14
-140.5376692704219
 24
111.7782139285696
 34
0.0
100
AcDbRotatedDimension
  0
DIMENSION
  5
1C6
330
6D
100
AcDbEntity
  8
1
100
AcDbDimension
  2
*D19
 10
-148.2770363911462
 20
127.0859272345124
 30
0.0
 11
-151.7020363911462
 21
107.282070581541
 31
0.0
 70
    32
  1
<>
 71
     5
 42
-1.0
 53
90.0
  3
ME10_DIM_12
100
AcDbAlignedDimension
 13
-133.9376692704219
 23
87.47821392856962
 33
0.0
 14
-136.0376692704219
 24
127.0859272345125
 34
0.0
 50
90.0
100
AcDbRotatedDimension
  0
ENDBLK
  5
70
330
6D
100
AcDbEntity
  8
0
100
AcDbBlockEnd
  0
BLOCK
  5
72
330
71
100
AcDbEntity
  8
0
100
AcDbBlockBegin
  2
_rahmen
 70
     0
 10
50.95032334840094
 20
-27.4209451360932
 30
0.0
  3
_rahmen
  1

  0
LINE
  5
1C7
330
71
100
AcDbEntity
  8
1
  6
DOT_CENTER
 62
     2
100
AcDbLine
 10
-74.60782629178647
 20
-1.29594513609317
 30
0.0
 11
-69.10782629178647
 21
-1.29594513609317
 31
0.0
  0
LINE
  5
1C8
330
71
100
AcDbEntity
  8
1
  6
PHANTOM
 62
     2
100
AcDbLine
 10
-65.85782629178647
 20
1.45405486390683
 30
0.0
 11
-65.85782629178647
 21
-4.04594513609317
 31
0.0
  0
LINE
  5
1C9
330
71
100
AcDbEntity
  8
1
  6
PHANTOM
 62
     2
100
AcDbLine
 10
-63.10782629178647
 20
-1.29594513609317
 30
0.0
 11
-68.60782629178647
 21
-1.29594513609317
 31
0.0
  0
LINE
  5
1CA
330
71
100
AcDbEntity
  8
1
  6
Continuous
 62
     7
100
AcDbLine
 10
-14.29448117834906
 20
-13.92094513609317
 30
0.0
 11
-14.29448117834906
 21
-5.42094513609308
 31
0.0
  0
LINE
  5
1CB
330
71
100
AcDbEntity
  8
1
  6
Continuous
 62
     6
100
AcDbLine
 10
-42.19448117834915
 20
-5.42094513609308
 30
0.0
 11
50.95032334840263
 21
-5.42094513609308
 31
0.0
  0
LINE
  5
1CC
330
71
100
AcDbEntity
  8
1
  6
Continuous
 62
     7
100
AcDbLine
 10
-78.59448117834907
 20
-5.42094513609308
 30
0.0
 11
-78.59448117834907
 21
3.07905486390692
 31
0.0
  0
LINE
  5
1CD
330
71
100
AcDbEntity
  8
1
  6
Continuous
 62
     7
100
AcDbLine
 10
-42.19448117834915
 20
-5.42094513609308
 30
0.0
 11
-42.19448117834915
 21
3.07905486390692
 31
0.0
  0
LINE
  5
1CE
330
71
100
AcDbEntity
  8
1
  6
Continuous
 62
     7
100
AcDbLine
 10
15.53191506672383
 20
3.07905486390692
 30
0.0
 11
15.53191506672383
 21
-5.42094513609308
 31
0.0
  0
LINE
  5
1CF
330
71
100
AcDbEntity
  8
1
  6
Continuous
 62
     7
100
AcDbLine
 10
42.03191506672343
 20
3.07905486390692
 30
0.0
 11
42.03191506672343
 21
-5.42094513609308
 31
0.0
  0
LINE
  5
1D0
330
71
100
AcDbEntity
  8
1
  6
Continuous
 62
     6
100
AcDbLine
 10
-147.594481178349
 20
-22.42094513609308
 30
0.0
 11
-192.549676651599
 21
-22.42094513609308
 31
0.0
  0
LINE
  5
1D1
330
71
100
AcDbEntity
  8
1
  6
Continuous
 62
     7
100
AcDbLine
 10
50.95032334840224
 20
-13.92094513609308
 30
0.0
 11
-42.19448117834915
 21
-13.92094513609308
 31
0.0
  0
LINE
  5
1D2
102
{ACAD_REACTORS
330
2E4
330
2E5
102
}
330
71
100
AcDbEntity
  8
0
  6
Continuous
 62
     2
100
AcDbLine
 10
-64.88705223658167
 20
-13.12065602042978
 30
0.0
 11
-64.88705223658167
 21
-12.24813901362649
 31
0.0
  0
LINE
  5
1D3
102
{ACAD_REACTORS
330
2E4
330
2E5
102
}
330
71
100
AcDbEntity
  8
0
  6
Continuous
 62
     2
100
AcDbLine
 10
-64.88705223658167
 20
-14.08042472791269
 30
0.0
 11
-64.88705223658167
 21
-14.95294173471589
 31
0.0
  0
LINE
  5
1D4
102
{ACAD_REACTORS
330
2E6
330
2E7
102
}
330
71
100
AcDbEntity
  8
0
  6
Continuous
 62
     2
100
AcDbLine
 10
-49.55400810029116
 20
-12.85890091838928
 30
0.0
 11
-48.45036880072306
 21
-12.85890091838928
 31
0.0
  0
LINE
  5
1D5
102
{ACAD_REACTORS
330
2E6
330
2E7
102
}
330
71
100
AcDbEntity
  8
0
  6
Continuous
 62
     2
100
AcDbLine
 10
-48.78435075732975
 20
-14.08042472791317
 30
0.0
 11
-48.78435075732975
 21
-14.95294173471649
 31
0.0
  0
LINE
  5
1D6
102
{ACAD_REACTORS
330
2F0
330
2F1
102
}
330
71
100
AcDbEntity
  8
0
  6
Continuous
 62
     2
100
AcDbLine
 10
-50.64510737270967
 20
-11.76825465990248
 30
0.0
 11
-49.24715432576937
 21
-10.18739566612749
 31
0.0
  0
LINE
  5
1D7
102
{ACAD_REACTORS
330
2F0
330
2F1
102
}
330
71
100
AcDbEntity
  8
0
  6
Continuous
 62
     2
100
AcDbLine
 10
-50.54968395653685
 20
-8.71444513609129
 30
0.0
 11
-49.24715432576937
 21
-10.18739566612749
 31
0.0
  0
LINE
  5
1D8
102
{ACAD_REACTORS
330
2F0
330
2F1
102
}
330
71
100
AcDbEntity
  8
0
  6
Continuous
 62
     2
100
AcDbLine
 10
-47.94462469500297
 20
-8.71444513609129
 30
0.0
 11
-46.54190047725575
 21
-8.71444513609129
 31
0.0
  0
LINE
  5
1D9
102
{ACAD_REACTORS
330
2F0
330
2F1
102
}
330
71
100
AcDbEntity
  8
0
  6
Continuous
 62
     2
100
AcDbLine
 10
-49.24238315496146
 20
-11.76825465990248
 30
0.0
 11
-48.54579221689576
 21
-10.98052287460877
 31
0.0
  0
LINE
  5
1DA
102
{ACAD_REACTORS
330
2F0
330
2F1
102
}
330
71
100
AcDbEntity
  8
0
  6
Continuous
 62
     2
100
AcDbLine
 10
-49.24238315496146
 20
-11.76825465990248
 30
0.0
 11
-50.64510737270967
 21
-11.76825465990248
 31
0.0
  0
LINE
  5
1DB
102
{ACAD_REACTORS
330
2F2
330
2F3
102
}
330
71
100
AcDbEntity
  8
0
  6
Continuous
 62
     2
100
AcDbLine
 10
-50.76438664292655
 20
-11.76825465990248
 30
0.0
 11
-52.00489105317945
 21
-11.76825465990248
 31
0.0
  0
LINE
  5
1DC
102
{ACAD_REACTORS
330
2F4
330
2F5
102
}
330
71
100
AcDbEntity
  8
0
  6
Continuous
 62
     2
100
AcDbLine
 10
-52.87287066133456
 20
-13.90592132655229
 30
0.0
 11
-53.17303589852466
 21
-13.13810636056559
 31
0.0
  0
LINE
  5
1DD
102
{ACAD_REACTORS
330
2F4
330
2F5
102
}
330
71
100
AcDbEntity
  8
0
  6
Continuous
 62
     2
100
AcDbLine
 10
-53.47320113571706
 20
-13.90592132655229
 30
0.0
 11
-52.87287066133456
 21
-13.90592132655229
 31
0.0
  0
LINE
  5
1DE
102
{ACAD_REACTORS
330
2F4
330
2F5
102
}
330
71
100
AcDbEntity
  8
0
  6
Continuous
 62
     2
100
AcDbLine
 10
-55.19124115059086
 20
-15.12744513607677
 30
0.0
 11
-53.95073674033787
 21
-15.12744513607677
 31
0.0
  0
LINE
  5
1DF
102
{ACAD_REACTORS
330
2F4
330
2F5
102
}
330
71
100
AcDbEntity
  8
0
  6
Continuous
 62
     2
100
AcDbLine
 10
-53.79328810365155
 20
-12.07363561226569
 30
0.0
 11
-52.55278369339885
 21
-12.07363561226569
 31
0.0
  0
LINE
  5
1E0
102
{ACAD_REACTORS
330
2F4
330
2F5
102
}
330
71
100
AcDbEntity
  8
0
  6
Continuous
 62
     2
100
AcDbLine
 10
-52.55278369339885
 20
-12.07363561226569
 30
0.0
 11
-51.15483064645855
 21
-15.12744513607677
 31
0.0
  0
LINE
  5
1E1
102
{ACAD_REACTORS
330
2F4
330
2F5
102
}
330
71
100
AcDbEntity
  8
0
  6
Continuous
 62
     2
100
AcDbLine
 10
-52.39533505671247
 20
-15.12744513607677
 30
0.0
 11
-52.60681511018825
 21
-14.58648459185889
 31
0.0
  0
LINE
  5
1E2
102
{ACAD_REACTORS
330
2F6
330
2F7
102
}
330
71
100
AcDbEntity
  8
0
  6
Continuous
 62
     2
100
AcDbLine
 10
-56.53765425229847
 20
-15.12744513607677
 30
0.0
 11
-55.34486155013195
 21
-15.12744513607677
 31
0.0
  0
LINE
  5
1E3
102
{ACAD_REACTORS
330
2F6
330
2F7
102
}
330
71
100
AcDbEntity
  8
0
  6
Continuous
 62
     2
100
AcDbLine
 10
-56.53765425229847
 20
-12.85890091838928
 30
0.0
 11
-56.53765425229847
 21
-15.12744513607677
 31
0.0
  0
LINE
  5
1E4
102
{ACAD_REACTORS
330
2F6
330
2F7
102
}
330
71
100
AcDbEntity
  8
0
  6
Continuous
 62
     2
100
AcDbLine
 10
-57.34875328977307
 20
-12.07363561226569
 30
0.0
 11
-57.34875328977307
 21
-12.85890091838928
 31
0.0
  0
LINE
  5
1E5
102
{ACAD_REACTORS
330
2F8
330
2F9
102
}
330
71
100
AcDbEntity
  8
0
  6
Continuous
 62
     2
100
AcDbLine
 10
-55.86953940820047
 20
-11.76825465990248
 30
0.0
 11
-54.67674670603395
 21
-11.76825465990248
 31
0.0
  0
LINE
  5
1E6
102
{ACAD_REACTORS
330
2F8
330
2F9
102
}
330
71
100
AcDbEntity
  8
0
  6
Continuous
 62
     2
100
AcDbLine
 10
-53.43624229577995
 20
-10.02322064629647
 30
0.0
 11
-54.67674670603395
 21
-8.71444513609129
 31
0.0
  0
LINE
  5
1E7
102
{ACAD_REACTORS
330
2F8
330
2F9
102
}
330
71
100
AcDbEntity
  8
0
  6
Continuous
 62
     2
100
AcDbLine
 10
-52.24344959361335
 20
-8.71444513609129
 30
0.0
 11
-53.43624229577995
 21
-8.71444513609129
 31
0.0
  0
LINE
  5
1E8
102
{ACAD_REACTORS
330
2F8
330
2F9
102
}
330
71
100
AcDbEntity
  8
0
  6
Continuous
 62
     2
100
AcDbLine
 10
-52.24344959361335
 20
-11.76825465990248
 30
0.0
 11
-52.24344959361335
 21
-8.71444513609129
 31
0.0
  0
LINE
  5
1E9
102
{ACAD_REACTORS
330
2F8
330
2F9
102
}
330
71
100
AcDbEntity
  8
0
  6
Continuous
 62
     2
100
AcDbLine
 10
-53.43624229577995
 20
-11.76825465990248
 30
0.0
 11
-52.24344959361335
 21
-11.76825465990248
 31
0.0
  0
LINE
  5
1EA
102
{ACAD_REACTORS
330
2F8
330
2F9
102
}
330
71
100
AcDbEntity
  8
0
  6
Continuous
 62
     2
100
AcDbLine
 10
-54.67674670603395
 20
-10.45947914969779
 30
0.0
 11
-53.43624229577995
 21
-11.76825465990248
 31
0.0
  0
LINE
  5
1EB
102
{ACAD_REACTORS
330
2FA
330
2FB
102
}
330
71
100
AcDbEntity
  8
0
  6
Continuous
 62
     2
100
AcDbLine
 10
-58.68468111619967
 20
-13.38241112247079
 30
0.0
 11
-59.92518552645257
 21
-12.07363561226569
 31
0.0
  0
LINE
  5
1EC
102
{ACAD_REACTORS
330
2FA
330
2FB
102
}
330
71
100
AcDbEntity
  8
0
  6
Continuous
 62
     2
100
AcDbLine
 10
-58.68468111619967
 20
-12.07363561226569
 30
0.0
 11
-58.68468111619967
 21
-13.38241112247079
 31
0.0
  0
LINE
  5
1ED
102
{ACAD_REACTORS
330
2FA
330
2FB
102
}
330
71
100
AcDbEntity
  8
0
  6
Continuous
 62
     2
100
AcDbLine
 10
-57.49188841403327
 20
-12.07363561226569
 30
0.0
 11
-58.68468111619967
 21
-12.07363561226569
 31
0.0
  0
LINE
  5
1EE
102
{ACAD_REACTORS
330
2FA
330
2FB
102
}
330
71
100
AcDbEntity
  8
0
  6
Continuous
 62
     2
100
AcDbLine
 10
-57.49188841403327
 20
-15.12744513607677
 30
0.0
 11
-57.49188841403327
 21
-12.07363561226569
 31
0.0
  0
LINE
  5
1EF
102
{ACAD_REACTORS
330
2FA
330
2FB
102
}
330
71
100
AcDbEntity
  8
0
  6
Continuous
 62
     2
100
AcDbLine
 10
-59.92518552645257
 20
-13.81866962587219
 30
0.0
 11
-58.68468111619967
 21
-15.12744513607677
 31
0.0
  0
LINE
  5
1F0
102
{ACAD_REACTORS
330
2FA
330
2FB
102
}
330
71
100
AcDbEntity
  8
0
  6
Continuous
 62
     2
100
AcDbLine
 10
-59.92518552645257
 20
-15.12744513607677
 30
0.0
 11
-59.92518552645257
 21
-13.81866962587219
 31
0.0
  0
LINE
  5
1F1
102
{ACAD_REACTORS
330
2EA
330
2EB
102
}
330
71
100
AcDbEntity
  8
0
  6
Continuous
 62
     2
100
AcDbLine
 10
-57.44402577506105
 20
-9.41245874153427
 30
0.0
 11
-56.10809794863337
 21
-9.41245874153427
 31
0.0
  0
LINE
  5
1F2
102
{ACAD_REACTORS
330
2EA
330
2EB
102
}
330
71
100
AcDbEntity
  8
0
  6
Continuous
 62
     2
100
AcDbLine
 10
-57.44402577506105
 20
-11.07024105445998
 30
0.0
 11
-57.44402577506105
 21
-10.59035670071827
 31
0.0
  0
LINE
  5
1F3
102
{ACAD_REACTORS
330
2EA
330
2EB
102
}
330
71
100
AcDbEntity
  8
0
  6
Continuous
 62
     2
100
AcDbLine
 10
-56.10809794863337
 20
-11.07024105445998
 30
0.0
 11
-57.44402577506105
 21
-11.07024105445998
 31
0.0
  0
LINE
  5
1F4
102
{ACAD_REACTORS
330
2EA
330
2EB
102
}
330
71
100
AcDbEntity
  8
0
  6
Continuous
 62
     2
100
AcDbLine
 10
-56.10809794863337
 20
-11.76825465990248
 30
0.0
 11
-56.10809794863337
 21
-11.07024105445998
 31
0.0
  0
LINE
  5
1F5
102
{ACAD_REACTORS
330
2EA
330
2EB
102
}
330
71
100
AcDbEntity
  8
0
  6
Continuous
 62
     2
100
AcDbLine
 10
-59.25841767241437
 20
-11.76825465990248
 30
0.0
 11
-56.10809794863337
 21
-11.76825465990248
 31
0.0
  0
LINE
  5
1F6
102
{ACAD_REACTORS
330
2EA
330
2EB
102
}
330
71
100
AcDbEntity
  8
0
  6
Continuous
 62
     2
100
AcDbLine
 10
-59.25841767241437
 20
-8.71444513609129
 30
0.0
 11
-56.10809794863337
 21
-8.71444513609129
 31
0.0
  0
LINE
  5
1F7
102
{ACAD_REACTORS
330
2EA
330
2EB
102
}
330
71
100
AcDbEntity
  8
0
  6
Continuous
 62
     2
100
AcDbLine
 10
-56.10809794863337
 20
-9.41245874153427
 30
0.0
 11
-56.10809794863337
 21
-8.71444513609129
 31
0.0
  0
LINE
  5
1F8
102
{ACAD_REACTORS
330
2FC
330
2FD
102
}
330
71
100
AcDbEntity
  8
0
  6
Continuous
 62
     2
100
AcDbLine
 10
-62.11977316755437
 20
-9.78327846942588
 30
0.0
 11
-62.11977316755437
 21
-8.71444513609129
 31
0.0
  0
LINE
  5
1F9
102
{ACAD_REACTORS
330
2FC
330
2FD
102
}
330
71
100
AcDbEntity
  8
0
  6
Continuous
 62
     2
100
AcDbLine
 10
-62.11977316755437
 20
-8.71444513609129
 30
0.0
 11
-60.92698046538797
 21
-8.71444513609129
 31
0.0
  0
LINE
  5
1FA
102
{ACAD_REACTORS
330
2FC
330
2FD
102
}
330
71
100
AcDbEntity
  8
0
  6
Continuous
 62
     2
100
AcDbLine
 10
-62.11977316755437
 20
-10.63398255105867
 30
0.0
 11
-63.16943074546185
 21
-10.63398255105867
 31
0.0
  0
LINE
  5
1FB
102
{ACAD_REACTORS
330
2FC
330
2FD
102
}
330
71
100
AcDbEntity
  8
0
  6
Continuous
 62
     2
100
AcDbLine
 10
-63.16943074546185
 20
-10.63398255105867
 30
0.0
 11
-63.16943074546185
 21
-11.76825465990248
 31
0.0
  0
LINE
  5
1FC
102
{ACAD_REACTORS
330
2FC
330
2FD
102
}
330
71
100
AcDbEntity
  8
0
  6
Continuous
 62
     2
100
AcDbLine
 10
-64.36222344762845
 20
-8.71444513609129
 30
0.0
 11
-64.36222344762845
 21
-11.76825465990248
 31
0.0
  0
LINE
  5
1FD
102
{ACAD_REACTORS
330
2EE
330
2EF
102
}
330
71
100
AcDbEntity
  8
0
  6
Continuous
 62
     2
100
AcDbLine
 10
-66.31840347918205
 20
-10.08327863087359
 30
0.0
 11
-66.31840347918205
 21
-9.37755098153139
 31
0.0
  0
LINE
  5
1FE
102
{ACAD_REACTORS
330
2EE
330
2EF
102
}
330
71
100
AcDbEntity
  8
0
  6
Continuous
 62
     2
100
AcDbLine
 10
-67.55890788943617
 20
-11.76825465990248
 30
0.0
 11
-66.31840347918205
 21
-11.76825465990248
 31
0.0
  0
LINE
  5
1FF
102
{ACAD_REACTORS
330
2EE
330
2EF
102
}
330
71
100
AcDbEntity
  8
0
  6
Continuous
 62
     2
100
AcDbLine
 10
-66.31840347918205
 20
-11.76825465990248
 30
0.0
 11
-66.31840347918205
 21
-10.82517641875867
 31
0.0
  0
LINE
  5
200
102
{ACAD_REACTORS
330
2E8
330
2E9
102
}
330
71
100
AcDbEntity
  8
0
  6
Continuous
 62
     2
100
AcDbLine
 10
-71.86385373864755
 20
-14.41488958051988
 30
0.0
 11
-73.33968699965718
 21
-14.41488958051988
 31
0.0
  0
LINE
  5
201
102
{ACAD_REACTORS
330
2E8
330
2E9
102
}
330
71
100
AcDbEntity
  8
0
  6
Continuous
 62
     2
100
AcDbLine
 10
-74.35782629178647
 20
-9.13868975149327
 30
0.0
 11
-74.35782629178647
 21
-14.70320052069349
 31
0.0
  0
LINE
  5
202
102
{ACAD_REACTORS
330
2E8
330
2E9
102
}
330
71
100
AcDbEntity
  8
0
  6
Continuous
 62
     2
100
AcDbLine
 10
-73.93358167640366
 20
-8.71444513610948
 30
0.0
 11
-68.46026958568686
 21
-8.71444513610948
 31
0.0
  0
LINE
  5
203
102
{ACAD_REACTORS
330
2E8
330
2E9
102
}
330
71
100
AcDbEntity
  8
0
  6
Continuous
 62
     2
100
AcDbLine
 10
-68.03602497030298
 20
-9.13868975149327
 30
0.0
 11
-68.03602497030298
 21
-14.70320052069349
 31
0.0
  0
LINE
  5
204
102
{ACAD_REACTORS
330
2E8
330
2E9
102
}
330
71
100
AcDbEntity
  8
0
  6
Continuous
 62
     2
100
AcDbLine
 10
-68.46026958568686
 20
-15.12744513607677
 30
0.0
 11
-73.93358167640366
 21
-15.12744513607677
 31
0.0
  0
LINE
  5
205
102
{ACAD_REACTORS
330
2E8
330
2E9
102
}
330
71
100
AcDbEntity
  8
0
  6
Continuous
 62
     2
100
AcDbLine
 10
-71.54813681557096
 20
-14.09917265744318
 30
0.0
 11
-71.54813681557096
 21
-12.56840172591157
 31
0.0
  0
LINE
  5
206
102
{ACAD_REACTORS
330
2E8
330
2E9
102
}
330
71
100
AcDbEntity
  8
0
  6
Continuous
 62
     2
100
AcDbLine
 10
-71.54813681557096
 20
-10.34674223378659
 30
0.0
 11
-71.54813681557096
 21
-9.74271761472608
 31
0.0
  0
LINE
  5
207
102
{ACAD_REACTORS
330
2E8
330
2E9
102
}
330
71
100
AcDbEntity
  8
0
  6
Continuous
 62
     2
100
AcDbLine
 10
-73.33968699965718
 20
-9.42700069164988
 30
0.0
 11
-71.86385373864755
 21
-9.42700069164988
 31
0.0
  0
LINE
  5
208
102
{ACAD_REACTORS
330
2E8
330
2E9
102
}
330
71
100
AcDbEntity
  8
0
  6
Continuous
 62
     2
100
AcDbLine
 10
-73.65540392273286
 20
-9.74271761472608
 30
0.0
 11
-73.65540392273286
 21
-14.09917265744318
 31
0.0
  0
LINE
  5
209
102
{ACAD_REACTORS
330
2EE
330
2EF
102
}
330
71
100
AcDbEntity
  8
0
  6
Continuous
 62
     2
100
AcDbLine
 10
-66.31840347918205
 20
-10.82517641875867
 30
0.0
 11
-65.55963589140177
 21
-10.82517641875867
 31
0.0
  0
LINE
  5
20A
102
{ACAD_REACTORS
330
2EE
330
2EF
102
}
330
71
100
AcDbEntity
  8
0
  6
Continuous
 62
     2
100
AcDbLine
 10
-67.55890788943617
 20
-8.71444513609129
 30
0.0
 11
-65.55963589140177
 21
-8.71444513609129
 31
0.0
  0
LINE
  5
20B
102
{ACAD_REACTORS
330
2EE
330
2EF
102
}
330
71
100
AcDbEntity
  8
0
  6
Continuous
 62
     2
100
AcDbLine
 10
-67.55890788943617
 20
-8.71444513609129
 30
0.0
 11
-67.55890788943617
 21
-11.76825465990248
 31
0.0
  0
LINE
  5
20C
102
{ACAD_REACTORS
330
2EE
330
2EF
102
}
330
71
100
AcDbEntity
  8
0
  6
Continuous
 62
     2
100
AcDbLine
 10
-66.31840347918205
 20
-10.08327863087359
 30
0.0
 11
-66.00110841764015
 21
-10.08327863087359
 31
0.0
  0
LINE
  5
20D
102
{ACAD_REACTORS
330
2EE
330
2EF
102
}
330
71
100
AcDbEntity
  8
0
  6
Continuous
 62
     2
100
AcDbLine
 10
-66.31840347918205
 20
-9.37755098153139
 30
0.0
 11
-66.00110841764015
 21
-9.37755098153139
 31
0.0
  0
LINE
  5
20E
102
{ACAD_REACTORS
330
2FC
330
2FD
102
}
330
71
100
AcDbEntity
  8
0
  6
Continuous
 62
     2
100
AcDbLine
 10
-63.16943074546185
 20
-9.78327846942588
 30
0.0
 11
-62.11977316755437
 21
-9.78327846942588
 31
0.0
  0
LINE
  5
20F
102
{ACAD_REACTORS
330
2FC
330
2FD
102
}
330
71
100
AcDbEntity
  8
0
  6
Continuous
 62
     2
100
AcDbLine
 10
-63.16943074546185
 20
-8.71444513609129
 30
0.0
 11
-63.16943074546185
 21
-9.78327846942588
 31
0.0
  0
LINE
  5
210
102
{ACAD_REACTORS
330
2FC
330
2FD
102
}
330
71
100
AcDbEntity
  8
0
  6
Continuous
 62
     2
100
AcDbLine
 10
-64.36222344762845
 20
-8.71444513609129
 30
0.0
 11
-63.16943074546185
 21
-8.71444513609129
 31
0.0
  0
LINE
  5
211
102
{ACAD_REACTORS
330
2FC
330
2FD
102
}
330
71
100
AcDbEntity
  8
0
  6
Continuous
 62
     2
100
AcDbLine
 10
-63.16943074546185
 20
-11.76825465990248
 30
0.0
 11
-64.36222344762845
 21
-11.76825465990248
 31
0.0
  0
LINE
  5
212
102
{ACAD_REACTORS
330
2FC
330
2FD
102
}
330
71
100
AcDbEntity
  8
0
  6
Continuous
 62
     2
100
AcDbLine
 10
-62.11977316755437
 20
-11.76825465990248
 30
0.0
 11
-62.11977316755437
 21
-10.63398255105867
 31
0.0
  0
LINE
  5
213
102
{ACAD_REACTORS
330
2FC
330
2FD
102
}
330
71
100
AcDbEntity
  8
0
  6
Continuous
 62
     2
100
AcDbLine
 10
-60.92698046538797
 20
-11.76825465990248
 30
0.0
 11
-62.11977316755437
 21
-11.76825465990248
 31
0.0
  0
LINE
  5
214
102
{ACAD_REACTORS
330
2FC
330
2FD
102
}
330
71
100
AcDbEntity
  8
0
  6
Continuous
 62
     2
100
AcDbLine
 10
-60.92698046538797
 20
-8.71444513609129
 30
0.0
 11
-60.92698046538797
 21
-11.76825465990248
 31
0.0
  0
LINE
  5
215
102
{ACAD_REACTORS
330
2EA
330
2EB
102
}
330
71
100
AcDbEntity
  8
0
  6
Continuous
 62
     2
100
AcDbLine
 10
-57.44402577506105
 20
-10.59035670071827
 30
0.0
 11
-56.10809794863337
 21
-10.59035670071827
 31
0.0
  0
LINE
  5
216
102
{ACAD_REACTORS
330
2EA
330
2EB
102
}
330
71
100
AcDbEntity
  8
0
  6
Continuous
 62
     2
100
AcDbLine
 10
-56.10809794863337
 20
-10.59035670071827
 30
0.0
 11
-56.10809794863337
 21
-9.89234309527598
 31
0.0
  0
LINE
  5
217
102
{ACAD_REACTORS
330
2EA
330
2EB
102
}
330
71
100
AcDbEntity
  8
0
  6
Continuous
 62
     2
100
AcDbLine
 10
-56.10809794863337
 20
-9.89234309527598
 30
0.0
 11
-57.44402577506105
 21
-9.89234309527598
 31
0.0
  0
LINE
  5
218
102
{ACAD_REACTORS
330
2EA
330
2EB
102
}
330
71
100
AcDbEntity
  8
0
  6
Continuous
 62
     2
100
AcDbLine
 10
-57.44402577506105
 20
-9.89234309527598
 30
0.0
 11
-57.44402577506105
 21
-9.41245874153427
 31
0.0
  0
LINE
  5
219
102
{ACAD_REACTORS
330
2FA
330
2FB
102
}
330
71
100
AcDbEntity
  8
0
  6
Continuous
 62
     2
100
AcDbLine
 10
-61.11797822862016
 20
-15.12744513607677
 30
0.0
 11
-59.92518552645257
 21
-15.12744513607677
 31
0.0
  0
LINE
  5
21A
102
{ACAD_REACTORS
330
2FA
330
2FB
102
}
330
71
100
AcDbEntity
  8
0
  6
Continuous
 62
     2
100
AcDbLine
 10
-58.68468111619967
 20
-15.12744513607677
 30
0.0
 11
-57.49188841403327
 21
-15.12744513607677
 31
0.0
  0
LINE
  5
21B
102
{ACAD_REACTORS
330
2FA
330
2FB
102
}
330
71
100
AcDbEntity
  8
0
  6
Continuous
 62
     2
100
AcDbLine
 10
-59.92518552645257
 20
-12.07363561226569
 30
0.0
 11
-61.11797822862016
 21
-12.07363561226569
 31
0.0
  0
LINE
  5
21C
102
{ACAD_REACTORS
330
2FA
330
2FB
102
}
330
71
100
AcDbEntity
  8
0
  6
Continuous
 62
     2
100
AcDbLine
 10
-61.11797822862016
 20
-12.07363561226569
 30
0.0
 11
-61.11797822862016
 21
-15.12744513607677
 31
0.0
  0
LINE
  5
21D
102
{ACAD_REACTORS
330
2F8
330
2F9
102
}
330
71
100
AcDbEntity
  8
0
  6
Continuous
 62
     2
100
AcDbLine
 10
-53.43624229577995
 20
-8.71444513609129
 30
0.0
 11
-53.43624229577995
 21
-10.02322064629647
 31
0.0
  0
LINE
  5
21E
102
{ACAD_REACTORS
330
2F8
330
2F9
102
}
330
71
100
AcDbEntity
  8
0
  6
Continuous
 62
     2
100
AcDbLine
 10
-54.67674670603395
 20
-8.71444513609129
 30
0.0
 11
-55.86953940820047
 21
-8.71444513609129
 31
0.0
  0
LINE
  5
21F
102
{ACAD_REACTORS
330
2F8
330
2F9
102
}
330
71
100
AcDbEntity
  8
0
  6
Continuous
 62
     2
100
AcDbLine
 10
-55.86953940820047
 20
-8.71444513609129
 30
0.0
 11
-55.86953940820047
 21
-11.76825465990248
 31
0.0
  0
LINE
  5
220
102
{ACAD_REACTORS
330
2F8
330
2F9
102
}
330
71
100
AcDbEntity
  8
0
  6
Continuous
 62
     2
100
AcDbLine
 10
-54.67674670603395
 20
-11.76825465990248
 30
0.0
 11
-54.67674670603395
 21
-10.45947914969779
 31
0.0
  0
LINE
  5
221
102
{ACAD_REACTORS
330
2F6
330
2F7
102
}
330
71
100
AcDbEntity
  8
0
  6
Continuous
 62
     2
100
AcDbLine
 10
-55.34486155013195
 20
-15.12744513607677
 30
0.0
 11
-55.34486155013195
 21
-12.85890091838928
 31
0.0
  0
LINE
  5
222
102
{ACAD_REACTORS
330
2F6
330
2F7
102
}
330
71
100
AcDbEntity
  8
0
  6
Continuous
 62
     2
100
AcDbLine
 10
-55.34486155013195
 20
-12.85890091838928
 30
0.0
 11
-54.53376251265945
 21
-12.85890091838928
 31
0.0
  0
LINE
  5
223
102
{ACAD_REACTORS
330
2F6
330
2F7
102
}
330
71
100
AcDbEntity
  8
0
  6
Continuous
 62
     2
100
AcDbLine
 10
-54.53376251265945
 20
-12.85890091838928
 30
0.0
 11
-54.53376251265945
 21
-12.07363561226569
 31
0.0
  0
LINE
  5
224
102
{ACAD_REACTORS
330
2F6
330
2F7
102
}
330
71
100
AcDbEntity
  8
0
  6
Continuous
 62
     2
100
AcDbLine
 10
-54.53376251265945
 20
-12.07363561226569
 30
0.0
 11
-57.34875328977307
 21
-12.07363561226569
 31
0.0
  0
LINE
  5
225
102
{ACAD_REACTORS
330
2F6
330
2F7
102
}
330
71
100
AcDbEntity
  8
0
  6
Continuous
 62
     2
100
AcDbLine
 10
-57.34875328977307
 20
-12.85890091838928
 30
0.0
 11
-56.53765425229847
 21
-12.85890091838928
 31
0.0
  0
LINE
  5
226
102
{ACAD_REACTORS
330
2F4
330
2F5
102
}
330
71
100
AcDbEntity
  8
0
  6
Continuous
 62
     2
100
AcDbLine
 10
-53.73925668686206
 20
-14.58648459185889
 30
0.0
 11
-52.60681511018825
 21
-14.58648459185889
 31
0.0
  0
LINE
  5
227
102
{ACAD_REACTORS
330
2F4
330
2F5
102
}
330
71
100
AcDbEntity
  8
0
  6
Continuous
 62
     2
100
AcDbLine
 10
-51.15483064645855
 20
-15.12744513607677
 30
0.0
 11
-52.39533505671247
 21
-15.12744513607677
 31
0.0
  0
LINE
  5
228
102
{ACAD_REACTORS
330
2F4
330
2F5
102
}
330
71
100
AcDbEntity
  8
0
  6
Continuous
 62
     2
100
AcDbLine
 10
-53.79328810365155
 20
-12.07363561226569
 30
0.0
 11
-55.19124115059086
 21
-15.12744513607677
 31
0.0
  0
LINE
  5
229
102
{ACAD_REACTORS
330
2F4
330
2F5
102
}
330
71
100
AcDbEntity
  8
0
  6
Continuous
 62
     2
100
AcDbLine
 10
-53.95073674033787
 20
-15.12744513607677
 30
0.0
 11
-53.73925668686206
 21
-14.58648459185889
 31
0.0
  0
LINE
  5
22A
102
{ACAD_REACTORS
330
2F4
330
2F5
102
}
330
71
100
AcDbEntity
  8
0
  6
Continuous
 62
     2
100
AcDbLine
 10
-53.47320113571706
 20
-13.90592132655229
 30
0.0
 11
-53.17303589852466
 21
-13.13810636056559
 31
0.0
  0
LINE
  5
22B
102
{ACAD_REACTORS
330
2F2
330
2F3
102
}
330
71
100
AcDbEntity
  8
0
  6
Continuous
 62
     2
100
AcDbLine
 10
-52.00489105317945
 20
-11.76825465990248
 30
0.0
 11
-52.00489105317945
 21
-8.71444513609129
 31
0.0
  0
LINE
  5
22C
102
{ACAD_REACTORS
330
2F2
330
2F3
102
}
330
71
100
AcDbEntity
  8
0
  6
Continuous
 62
     2
100
AcDbLine
 10
-50.76438664292655
 20
-8.71444513609129
 30
0.0
 11
-50.76438664292655
 21
-11.76825465990248
 31
0.0
  0
LINE
  5
22D
102
{ACAD_REACTORS
330
2F2
330
2F3
102
}
330
71
100
AcDbEntity
  8
0
  6
Continuous
 62
     2
100
AcDbLine
 10
-52.00489105317945
 20
-8.71444513609129
 30
0.0
 11
-50.76438664292655
 21
-8.71444513609129
 31
0.0
  0
LINE
  5
22E
102
{ACAD_REACTORS
330
2F0
330
2F1
102
}
330
71
100
AcDbEntity
  8
0
  6
Continuous
 62
     2
100
AcDbLine
 10
-48.54579221689576
 20
-10.98052287460877
 30
0.0
 11
-47.84920127883027
 21
-11.76825465990248
 31
0.0
  0
LINE
  5
22F
102
{ACAD_REACTORS
330
2F0
330
2F1
102
}
330
71
100
AcDbEntity
  8
0
  6
Continuous
 62
     2
100
AcDbLine
 10
-47.84920127883027
 20
-11.76825465990248
 30
0.0
 11
-46.44647706108196
 21
-11.76825465990248
 31
0.0
  0
LINE
  5
230
102
{ACAD_REACTORS
330
2F0
330
2F1
102
}
330
71
100
AcDbEntity
  8
0
  6
Continuous
 62
     2
100
AcDbLine
 10
-47.84443010802227
 20
-10.18739566612749
 30
0.0
 11
-46.44647706108196
 21
-11.76825465990248
 31
0.0
  0
LINE
  5
231
102
{ACAD_REACTORS
330
2F0
330
2F1
102
}
330
71
100
AcDbEntity
  8
0
  6
Continuous
 62
     2
100
AcDbLine
 10
-47.84443010802227
 20
-10.18739566612749
 30
0.0
 11
-46.54190047725575
 21
-8.71444513609129
 31
0.0
  0
LINE
  5
232
102
{ACAD_REACTORS
330
2F0
330
2F1
102
}
330
71
100
AcDbEntity
  8
0
  6
Continuous
 62
     2
100
AcDbLine
 10
-48.54579221689576
 20
-9.39426845764677
 30
0.0
 11
-47.94462469500297
 21
-8.71444513609129
 31
0.0
  0
LINE
  5
233
102
{ACAD_REACTORS
330
2F0
330
2F1
102
}
330
71
100
AcDbEntity
  8
0
  6
Continuous
 62
     2
100
AcDbLine
 10
-49.14695973878756
 20
-8.71444513609129
 30
0.0
 11
-48.54579221689576
 21
-9.39426845764677
 31
0.0
  0
LINE
  5
234
102
{ACAD_REACTORS
330
2F0
330
2F1
102
}
330
71
100
AcDbEntity
  8
0
  6
Continuous
 62
     2
100
AcDbLine
 10
-49.14695973878756
 20
-8.71444513609129
 30
0.0
 11
-50.54968395653685
 21
-8.71444513609129
 31
0.0
  0
LINE
  5
235
102
{ACAD_REACTORS
330
2E6
330
2E7
102
}
330
71
100
AcDbEntity
  8
0
  6
Continuous
 62
     2
100
AcDbLine
 10
-48.45036880072306
 20
-15.12744513607677
 30
0.0
 11
-47.25757609855535
 21
-15.12744513607677
 31
0.0
  0
LINE
  5
236
102
{ACAD_REACTORS
330
2E6
330
2E7
102
}
330
71
100
AcDbEntity
  8
0
  6
Continuous
 62
     2
100
AcDbLine
 10
-47.25757609855535
 20
-15.12744513607677
 30
0.0
 11
-47.25757609855535
 21
-12.85890091838928
 31
0.0
  0
LINE
  5
237
102
{ACAD_REACTORS
330
2E6
330
2E7
102
}
330
71
100
AcDbEntity
  8
0
  6
Continuous
 62
     2
100
AcDbLine
 10
-47.25757609855535
 20
-12.85890091838928
 30
0.0
 11
-46.44647706108196
 21
-12.85890091838928
 31
0.0
  0
LINE
  5
238
102
{ACAD_REACTORS
330
2E6
330
2E7
102
}
330
71
100
AcDbEntity
  8
0
  6
Continuous
 62
     2
100
AcDbLine
 10
-46.44647706108196
 20
-12.85890091838928
 30
0.0
 11
-46.44647706108196
 21
-12.07363561226569
 31
0.0
  0
LINE
  5
239
102
{ACAD_REACTORS
330
2E6
330
2E7
102
}
330
71
100
AcDbEntity
  8
0
  6
Continuous
 62
     2
100
AcDbLine
 10
-49.83142257971065
 20
-12.07363561226617
 30
0.0
 11
-46.44647706108196
 21
-12.07363561226569
 31
0.0
  0
LINE
  5
23A
102
{ACAD_REACTORS
330
2E6
330
2E7
102
}
330
71
100
AcDbEntity
  8
0
  6
Continuous
 62
     2
100
AcDbLine
 10
-48.45036880072306
 20
-12.85890091838928
 30
0.0
 11
-48.45036880072306
 21
-15.12744513607677
 31
0.0
  0
LINE
  5
23B
102
{ACAD_REACTORS
330
2E8
330
2E9
102
}
330
71
100
AcDbEntity
  8
0
  6
Continuous
 62
     2
100
AcDbLine
 10
-71.07985523620226
 20
-13.14856498651227
 30
0.0
 11
-71.07985523620226
 21
-12.56671357981719
 31
0.0
  0
LINE
  5
23C
102
{ACAD_REACTORS
330
2E8
330
2E9
102
}
330
71
100
AcDbEntity
  8
0
  6
Continuous
 62
     2
100
AcDbLine
 10
-71.07985523620226
 20
-10.34843037988097
 30
0.0
 11
-71.07985523620226
 21
-9.74289509137418
 31
0.0
  0
LINE
  5
23D
330
71
100
AcDbEntity
  8
1
  6
Continuous
 62
     6
100
AcDbLine
 10
-92.54967665159904
 20
-22.42094513609308
 30
0.0
 11
-78.59448117834907
 21
-22.4209451360932
 31
0.0
  0
LINE
  5
23E
330
71
100
AcDbEntity
  8
1
  6
Continuous
 62
     6
100
AcDbLine
 10
-142.5496766515993
 20
-22.42094513609308
 30
0.0
 11
-147.594481178349
 21
-22.42094513609308
 31
0.0
  0
LINE
  5
23F
330
71
100
AcDbEntity
  8
1
  6
Continuous
 62
     6
100
AcDbLine
 10
7.45032334840093
 20
-22.42094513609308
 30
0.0
 11
50.95032334840094
 21
-22.42094513609308
 31
0.0
  0
LINE
  5
240
330
71
100
AcDbEntity
  8
1
  6
Continuous
 62
     6
100
AcDbLine
 10
-42.54967665159907
 20
-22.42094513609308
 30
0.0
 11
-60.39448117834905
 21
-22.42094513609308
 31
0.0
  0
LINE
  5
241
330
71
100
AcDbEntity
  8
1
  6
Continuous
 62
     2
100
AcDbLine
 10
50.95032334840094
 20
-22.42094513609308
 30
0.0
 11
55.95032334839993
 21
-22.42094513609308
 31
0.0
  0
LINE
  5
242
330
71
100
AcDbEntity
  8
1
  6
Continuous
 62
     2
100
AcDbLine
 10
50.95032334840094
 20
-22.42094513609308
 30
0.0
 11
50.95032334840094
 21
-27.4209451360932
 31
0.0
  0
LINE
  5
243
330
71
100
AcDbEntity
  8
1
  6
Continuous
 62
     6
100
AcDbLine
 10
-78.59448117834907
 20
-5.42094513609308
 30
0.0
 11
-42.19448117834915
 21
-5.42094513609308
 31
0.0
  0
LINE
  5
244
330
71
100
AcDbEntity
  8
1
  6
Continuous
 62
     2
100
AcDbLine
 10
55.95032334839993
 20
-27.4209451360932
 30
0.0
 11
55.95032334839993
 21
-22.42094513609308
 31
0.0
  0
LINE
  5
245
330
71
100
AcDbEntity
  8
1
  6
Continuous
 62
     2
100
AcDbLine
 10
55.95032334839993
 20
-27.4209451360932
 30
0.0
 11
50.95032334840094
 21
-27.4209451360932
 31
0.0
  0
LINE
  5
246
330
71
100
AcDbEntity
  8
1
  6
Continuous
 62
     2
100
AcDbLine
 10
50.95032334840094
 20
-27.4209451360932
 30
0.0
 11
7.45032334840093
 21
-27.4209451360932
 31
0.0
  0
LINE
  5
247
330
71
100
AcDbEntity
  8
1
  6
Continuous
 62
     6
100
AcDbLine
 10
50.95032334840263
 20
-5.42094513609308
 30
0.0
 11
50.95032334840184
 21
27.57905486390703
 31
0.0
  0
LINE
  5
248
330
71
100
AcDbEntity
  8
1
  6
Continuous
 62
     2
100
AcDbLine
 10
55.95032334839993
 20
182.5790548639069
 30
0.0
 11
-92.54967665159904
 21
182.5790548639069
 31
0.0
  0
LINE
  5
249
330
71
100
AcDbEntity
  8
1
  6
Continuous
 62
     6
100
AcDbLine
 10
50.95032334839993
 20
162.5790548639069
 30
0.0
 11
-236.0496766515981
 21
162.5790548639069
 31
0.0
  0
LINE
  5
24A
330
71
100
AcDbEntity
  8
1
  6
Continuous
 62
     2
100
AcDbLine
 10
50.95032334840184
 20
27.57905486390703
 30
0.0
 11
55.95032334839993
 21
27.57905486390703
 31
0.0
  0
LINE
  5
24B
330
71
100
AcDbEntity
  8
1
  6
Continuous
 62
     6
100
AcDbLine
 10
50.95032334840184
 20
27.57905486390703
 30
0.0
 11
50.95032334840134
 21
77.57905486390683
 31
0.0
  0
LINE
  5
24C
330
71
100
AcDbEntity
  8
1
  6
Continuous
 62
     2
100
AcDbLine
 10
55.95032334839993
 20
27.57905486390703
 30
0.0
 11
55.95032334839993
 21
77.57905486390683
 31
0.0
  0
LINE
  5
24D
330
71
100
AcDbEntity
  8
1
  6
Continuous
 62
     2
100
AcDbLine
 10
50.95032334840134
 20
77.57905486390683
 30
0.0
 11
55.95032334839993
 21
77.57905486390683
 31
0.0
  0
LINE
  5
24E
330
71
100
AcDbEntity
  8
1
  6
Continuous
 62
     6
100
AcDbLine
 10
50.95032334840134
 20
77.57905486390683
 30
0.0
 11
50.95032334840013
 21
127.5790548639069
 31
0.0
  0
LINE
  5
24F
330
71
100
AcDbEntity
  8
1
  6
Continuous
 62
     2
100
AcDbLine
 10
55.95032334839993
 20
77.57905486390683
 30
0.0
 11
55.95032334839993
 21
127.5790548639069
 31
0.0
  0
LINE
  5
250
330
71
100
AcDbEntity
  8
1
  6
Continuous
 62
     2
100
AcDbLine
 10
50.95032334840013
 20
127.5790548639069
 30
0.0
 11
55.95032334839993
 21
127.5790548639069
 31
0.0
  0
LINE
  5
251
330
71
100
AcDbEntity
  8
1
  6
Continuous
 62
     6
100
AcDbLine
 10
50.95032334840013
 20
127.5790548639069
 30
0.0
 11
50.95032334839993
 21
162.5790548639069
 31
0.0
  0
LINE
  5
252
330
71
100
AcDbEntity
  8
1
  6
Continuous
 62
     2
100
AcDbLine
 10
55.95032334839993
 20
127.5790548639069
 30
0.0
 11
55.95032334839993
 21
182.5790548639069
 31
0.0
  0
LINE
  5
253
330
71
100
AcDbEntity
  8
1
  6
Continuous
 62
     2
100
AcDbLine
 10
55.95032334839993
 20
-22.42094513609308
 30
0.0
 11
55.95032334839993
 21
27.57905486390703
 31
0.0
  0
LINE
  5
254
330
71
100
AcDbEntity
  8
1
  6
Continuous
 62
     2
100
AcDbLine
 10
-92.54967665159904
 20
182.5790548639069
 30
0.0
 11
-241.0496766515981
 21
182.5790548639069
 31
0.0
  0
LINE
  5
255
330
71
100
AcDbEntity
  8
1
  6
Continuous
 62
     2
100
AcDbLine
 10
-92.54967665159904
 20
182.5790548639069
 30
0.0
 11
-92.54967665159904
 21
173.3703630192056
 31
0.0
  0
LINE
  5
256
330
71
100
AcDbEntity
  8
1
  6
Continuous
 62
     2
100
AcDbLine
 10
-241.0496766515981
 20
-27.4209451360932
 30
0.0
 11
-236.0496766515972
 21
-27.4209451360932
 31
0.0
  0
LINE
  5
257
330
71
100
AcDbEntity
  8
1
  6
Continuous
 62
     2
100
AcDbLine
 10
-241.0496766515981
 20
182.5790548639069
 30
0.0
 11
-241.0496766515981
 21
127.5790548639069
 31
0.0
  0
LINE
  5
258
330
71
100
AcDbEntity
  8
1
  6
Continuous
 62
     6
100
AcDbLine
 10
-236.0496766515981
 20
162.5790548639069
 30
0.0
 11
-236.0496766515981
 21
127.5790548639069
 31
0.0
  0
LINE
  5
259
330
71
100
AcDbEntity
  8
1
  6
Continuous
 62
     2
100
AcDbLine
 10
-241.0496766515981
 20
127.5790548639069
 30
0.0
 11
-236.0496766515981
 21
127.5790548639069
 31
0.0
  0
LINE
  5
25A
330
71
100
AcDbEntity
  8
1
  6
Continuous
 62
     2
100
AcDbLine
 10
-241.0496766515981
 20
127.5790548639069
 30
0.0
 11
-241.0496766515981
 21
77.57905486390683
 31
0.0
  0
LINE
  5
25B
330
71
100
AcDbEntity
  8
1
  6
Continuous
 62
     6
100
AcDbLine
 10
-236.0496766515981
 20
127.5790548639069
 30
0.0
 11
-236.0496766515976
 21
77.57905486390683
 31
0.0
  0
LINE
  5
25C
330
71
100
AcDbEntity
  8
1
  6
Continuous
 62
     2
100
AcDbLine
 10
-241.0496766515981
 20
77.57905486390683
 30
0.0
 11
-236.0496766515976
 21
77.57905486390683
 31
0.0
  0
LINE
  5
25D
330
71
100
AcDbEntity
  8
1
  6
Continuous
 62
     2
100
AcDbLine
 10
-241.0496766515981
 20
77.57905486390683
 30
0.0
 11
-241.0496766515981
 21
27.57905486390703
 31
0.0
  0
LINE
  5
25E
330
71
100
AcDbEntity
  8
1
  6
Continuous
 62
     6
100
AcDbLine
 10
-236.0496766515976
 20
77.57905486390683
 30
0.0
 11
-236.0496766515973
 21
27.57905486390703
 31
0.0
  0
LINE
  5
25F
330
71
100
AcDbEntity
  8
1
  6
Continuous
 62
     2
100
AcDbLine
 10
-241.0496766515981
 20
27.57905486390703
 30
0.0
 11
-236.0496766515973
 21
27.57905486390703
 31
0.0
  0
LINE
  5
260
330
71
100
AcDbEntity
  8
1
  6
Continuous
 62
     2
100
AcDbLine
 10
-241.0496766515981
 20
27.57905486390703
 30
0.0
 11
-241.0496766515981
 21
-22.42094513609308
 31
0.0
  0
LINE
  5
261
330
71
100
AcDbEntity
  8
1
  6
Continuous
 62
     6
100
AcDbLine
 10
-236.0496766515973
 20
27.57905486390703
 30
0.0
 11
-236.0496766515972
 21
-22.42094513609308
 31
0.0
  0
LINE
  5
262
330
71
100
AcDbEntity
  8
1
  6
Continuous
 62
     2
100
AcDbLine
 10
-192.549676651599
 20
-27.4209451360932
 30
0.0
 11
-192.549676651599
 21
-22.42094513609308
 31
0.0
  0
LINE
  5
263
330
71
100
AcDbEntity
  8
1
  6
Continuous
 62
     2
100
AcDbLine
 10
-192.549676651599
 20
-27.4209451360932
 30
0.0
 11
-142.5496766515993
 21
-27.4209451360932
 31
0.0
  0
LINE
  5
264
330
71
100
AcDbEntity
  8
1
  6
Continuous
 62
     2
100
AcDbLine
 10
-142.5496766515993
 20
-27.4209451360932
 30
0.0
 11
-142.5496766515993
 21
-22.42094513609308
 31
0.0
  0
LINE
  5
265
330
71
100
AcDbEntity
  8
1
  6
Continuous
 62
     2
100
AcDbLine
 10
-142.5496766515993
 20
-27.4209451360932
 30
0.0
 11
-92.54967665159904
 21
-27.4209451360932
 31
0.0
  0
LINE
  5
266
330
71
100
AcDbEntity
  8
1
  6
Continuous
 62
     2
100
AcDbLine
 10
-92.54967665159904
 20
-27.4209451360932
 30
0.0
 11
-92.54967665159904
 21
-22.42094513609308
 31
0.0
  0
LINE
  5
267
330
71
100
AcDbEntity
  8
1
  6
Continuous
 62
     2
100
AcDbLine
 10
-92.54967665159904
 20
-27.4209451360932
 30
0.0
 11
-42.54967665159907
 21
-27.4209451360932
 31
0.0
  0
LINE
  5
268
330
71
100
AcDbEntity
  8
1
  6
Continuous
 62
     2
100
AcDbLine
 10
-42.54967665159907
 20
-27.4209451360932
 30
0.0
 11
-42.54967665159907
 21
-22.42094513609308
 31
0.0
  0
LINE
  5
269
330
71
100
AcDbEntity
  8
1
  6
Continuous
 62
     2
100
AcDbLine
 10
7.45032334840093
 20
-27.4209451360932
 30
0.0
 11
7.45032334840093
 21
-22.42094513609308
 31
0.0
  0
LINE
  5
26A
330
71
100
AcDbEntity
  8
1
  6
Continuous
 62
     2
100
AcDbLine
 10
7.45032334840093
 20
-27.4209451360932
 30
0.0
 11
-42.54967665159907
 21
-27.4209451360932
 31
0.0
  0
LINE
  5
26B
330
71
100
AcDbEntity
  8
1
  6
Continuous
 62
     2
100
AcDbLine
 10
-236.0496766515972
 20
-22.42094513609308
 30
0.0
 11
-236.0496766515972
 21
-27.4209451360932
 31
0.0
  0
LINE
  5
26C
330
71
100
AcDbEntity
  8
1
  6
Continuous
 62
     2
100
AcDbLine
 10
-236.0496766515972
 20
-27.4209451360932
 30
0.0
 11
-192.549676651599
 21
-27.4209451360932
 31
0.0
  0
LINE
  5
26D
330
71
100
AcDbEntity
  8
1
  6
Continuous
 62
     2
100
AcDbLine
 10
-236.0496766515972
 20
-22.42094513609308
 30
0.0
 11
-241.0496766515981
 21
-22.42094513609308
 31
0.0
  0
LINE
  5
26E
330
71
100
AcDbEntity
  8
1
  6
Continuous
 62
     2
100
AcDbLine
 10
-241.0496766515981
 20
-22.42094513609308
 30
0.0
 11
-241.0496766515981
 21
-27.4209451360932
 31
0.0
  0
LINE
  5
26F
330
71
100
AcDbEntity
  8
1
  6
Continuous
 62
     6
100
AcDbLine
 10
50.95032334840094
 20
-22.42094513609308
 30
0.0
 11
50.95032334840224
 21
-13.92094513609308
 31
0.0
  0
LINE
  5
270
330
71
100
AcDbEntity
  8
1
  6
Continuous
 62
     6
100
AcDbLine
 10
-42.19448117834915
 20
-22.4209451360932
 30
0.0
 11
7.45032334840093
 21
-22.42094513609308
 31
0.0
  0
LINE
  5
271
330
71
100
AcDbEntity
  8
1
  6
Continuous
 62
     6
100
AcDbLine
 10
-194.8496766515993
 20
-22.4209451360932
 30
0.0
 11
-192.549676651599
 21
-22.42094513609308
 31
0.0
  0
LINE
  5
272
330
71
100
AcDbEntity
  8
1
  6
Continuous
 62
     6
100
AcDbLine
 10
-92.54967665159904
 20
-22.42094513609308
 30
0.0
 11
-142.5496766515993
 21
-22.42094513609308
 31
0.0
  0
LINE
  5
273
330
71
100
AcDbEntity
  8
1
  6
Continuous
 62
     7
100
AcDbLine
 10
-78.59448117834907
 20
-5.42094513609308
 30
0.0
 11
-78.59448117834907
 21
-18.1709451360932
 31
0.0
  0
LINE
  5
274
330
71
100
AcDbEntity
  8
1
  6
Continuous
 62
     7
100
AcDbLine
 10
-42.19448117834915
 20
-5.42094513609308
 30
0.0
 11
-42.19448117834915
 21
-18.17094513609308
 31
0.0
  0
LINE
  5
275
330
71
100
AcDbEntity
  8
1
  6
Continuous
 62
     6
100
AcDbLine
 10
-194.8496766515993
 20
-22.4209451360932
 30
0.0
 11
-201.0496766515973
 21
-22.42094513609308
 31
0.0
  0
LINE
  5
276
330
71
100
AcDbEntity
  8
1
  6
Continuous
 62
     6
100
AcDbLine
 10
-42.19448117834915
 20
-22.4209451360932
 30
0.0
 11
-42.54967665159907
 21
-22.42094513609308
 31
0.0
  0
LINE
  5
277
330
71
100
AcDbEntity
  8
1
  6
Continuous
 62
     6
100
AcDbLine
 10
50.95032334840263
 20
-5.42094513609308
 30
0.0
 11
50.95032334840224
 21
-13.92094513609308
 31
0.0
  0
LINE
  5
278
330
71
100
AcDbEntity
  8
1
  6
Continuous
 62
     6
100
AcDbLine
 10
-201.0496766515973
 20
-22.42094513609308
 30
0.0
 11
-236.0496766515972
 21
-22.42094513609308
 31
0.0
  0
LINE
  5
279
330
71
100
AcDbEntity
  8
1
  6
Continuous
 62
     2
100
AcDbLine
 10
-74.35782629178647
 20
-0.04594513609317
 30
0.0
 11
-69.35782629178647
 21
1.20405486390683
 31
0.0
  0
LINE
  5
27A
330
71
100
AcDbEntity
  8
1
  6
Continuous
 62
     2
100
AcDbLine
 10
-74.35782629178647
 20
-2.54594513609317
 30
0.0
 11
-74.35782629178647
 21
-0.04594513609317
 31
0.0
  0
LINE
  5
27B
330
71
100
AcDbEntity
  8
1
  6
Continuous
 62
     2
100
AcDbLine
 10
-69.35782629178647
 20
-3.79594513609317
 30
0.0
 11
-74.35782629178647
 21
-2.54594513609317
 31
0.0
  0
LINE
  5
27C
330
71
100
AcDbEntity
  8
1
  6
Continuous
 62
     2
100
AcDbLine
 10
-69.35782629178647
 20
1.20405486390683
 30
0.0
 11
-69.35782629178647
 21
-3.79594513609317
 31
0.0
  0
LINE
  5
27D
330
71
100
AcDbEntity
  8
1
  6
Continuous
 62
     7
100
AcDbLine
 10
-78.59448117834907
 20
-18.1709451360932
 30
0.0
 11
-60.39448117834905
 21
-18.17094513609308
 31
0.0
  0
LINE
  5
27E
330
71
100
AcDbEntity
  8
1
  6
Continuous
 62
     7
100
AcDbLine
 10
-78.59448117834907
 20
-18.1709451360932
 30
0.0
 11
-78.59448117834907
 21
-22.4209451360932
 31
0.0
  0
LINE
  5
27F
330
71
100
AcDbEntity
  8
1
  6
Continuous
 62
     7
100
AcDbLine
 10
-42.19448117834915
 20
-18.17094513609308
 30
0.0
 11
-42.19448117834915
 21
-22.4209451360932
 31
0.0
  0
LINE
  5
280
330
71
100
AcDbEntity
  8
1
  6
Continuous
 62
     7
100
AcDbLine
 10
-60.39448117834905
 20
-18.17094513609308
 30
0.0
 11
-60.39448117834905
 21
-22.42094513609308
 31
0.0
  0
LINE
  5
281
330
71
100
AcDbEntity
  8
1
  6
Continuous
 62
     6
100
AcDbLine
 10
-60.39448117834905
 20
-22.42094513609308
 30
0.0
 11
-78.59448117834907
 21
-22.4209451360932
 31
0.0
  0
LINE
  5
282
330
71
100
AcDbEntity
  8
1
  6
Continuous
 62
     7
100
AcDbLine
 10
-60.39448117834905
 20
-18.17094513609308
 30
0.0
 11
-42.19448117834915
 21
-18.17094513609308
 31
0.0
  0
LINE
  5
283
330
71
100
AcDbEntity
  8
1
  6
Continuous
 62
     6
100
AcDbLine
 10
-78.59448117834907
 20
3.07905486390692
 30
0.0
 11
50.95032334840263
 21
3.07905486390692
 31
0.0
  0
ARC
  5
284
102
{ACAD_REACTORS
330
2EC
330
2ED
102
}
330
71
100
AcDbEntity
  8
0
  6
Continuous
 62
     2
100
AcDbCircle
 10
-63.20283317938907
 20
-13.60054037417149
 30
0.0
 40
0.7717997786796835
100
AcDbArc
 50
321.8795802028411
 51
38.12041979715435
  0
ARC
  5
285
102
{ACAD_REACTORS
330
2EC
330
2ED
102
}
330
71
100
AcDbEntity
  8
0
  6
Continuous
 62
     2
100
AcDbCircle
 10
-63.00309314304266
 20
-13.75727155229149
 30
0.0
 40
0.5179085730137287
100
AcDbArc
 50
218.1204197971935
 51
321.8795802028007
  0
ARC
  5
286
102
{ACAD_REACTORS
330
2EC
330
2ED
102
}
330
71
100
AcDbEntity
  8
0
  6
Continuous
 62
     2
100
AcDbCircle
 10
-62.80335310669656
 20
-13.60054037417149
 30
0.0
 40
0.771799778679462
100
AcDbArc
 50
141.8795802028356
 51
218.120419797169
  0
ARC
  5
287
102
{ACAD_REACTORS
330
2EC
330
2ED
102
}
330
71
100
AcDbEntity
  8
0
  6
Continuous
 62
     2
100
AcDbCircle
 10
-63.00309314304266
 20
-13.44380919605098
 30
0.0
 40
0.5179085730132976
100
AcDbArc
 50
38.12041979714799
 51
141.8795802028579
  0
ARC
  5
288
102
{ACAD_REACTORS
330
2E4
330
2E5
102
}
330
71
100
AcDbEntity
  8
0
  6
Continuous
 62
     2
100
AcDbCircle
 10
-66.06510727860655
 20
-15.01100673957967
 30
0.0
 40
2.227384008973474
100
AcDbArc
 50
58.06909105004068
 51
71.55192388186722
  0
ARC
  5
289
102
{ACAD_REACTORS
330
2E4
330
2E5
102
}
330
71
100
AcDbEntity
  8
0
  6
Continuous
 62
     2
100
AcDbCircle
 10
-65.80337957764777
 20
-13.39546894483249
 30
0.0
 40
0.5115800601948796
100
AcDbArc
 50
113.3722778881991
 51
151.4785267423044
  0
ARC
  5
28A
102
{ACAD_REACTORS
330
2E4
330
2E5
102
}
330
71
100
AcDbEntity
  8
0
  6
Continuous
 62
     2
100
AcDbCircle
 10
-65.42602231956747
 20
-13.60054037417149
 30
0.0
 40
0.9410597353332545
100
AcDbArc
 50
151.4785267422669
 51
208.5214732577058
  0
ARC
  5
28B
102
{ACAD_REACTORS
330
2E4
330
2E5
102
}
330
71
100
AcDbEntity
  8
0
  6
Continuous
 62
     2
100
AcDbCircle
 10
-66.22298015369947
 20
-10.28785942891508
 30
0.0
 40
4.852596863498145
100
AcDbArc
 50
275.1581447696249
 51
285.9799912583529
  0
ARC
  5
28C
102
{ACAD_REACTORS
330
2E4
330
2E5
102
}
330
71
100
AcDbEntity
  8
0
  6
Continuous
 62
     2
100
AcDbCircle
 10
-65.93412405896356
 20
-13.48775001213667
 30
0.0
 40
1.639695123939387
100
AcDbArc
 50
195.0618917770895
 51
275.1581447696395
  0
ARC
  5
28D
102
{ACAD_REACTORS
330
2E4
330
2E5
102
}
330
71
100
AcDbEntity
  8
0
  6
Continuous
 62
     2
100
AcDbCircle
 10
-66.35325190242636
 20
-13.60054037417149
 30
0.0
 40
1.205656168390943
100
AcDbArc
 50
164.9381082228765
 51
195.0618917770945
  0
ARC
  5
28E
102
{ACAD_REACTORS
330
2E4
330
2E5
102
}
330
71
100
AcDbEntity
  8
0
  6
Continuous
 62
     2
100
AcDbCircle
 10
-65.93412405896356
 20
-13.71333073620639
 30
0.0
 40
1.639695123940505
100
AcDbArc
 50
84.84185523036236
 51
164.9381082228866
  0
ARC
  5
28F
102
{ACAD_REACTORS
330
2E8
330
2E9
102
}
330
71
100
AcDbEntity
  8
0
  6
Continuous
 62
     2
100
AcDbCircle
 10
-70.76413831312547
 20
-12.56671357981719
 30
0.0
 40
0.3157169230765344
100
AcDbArc
 50
115.3740086783517
 51
180.0
  0
ARC
  5
290
102
{ACAD_REACTORS
330
2E8
330
2E9
102
}
330
71
100
AcDbEntity
  8
0
  6
Continuous
 62
     2
100
AcDbCircle
 10
-70.76413831312547
 20
-10.34843037988097
 30
0.0
 40
0.315716923076792
100
AcDbArc
 50
180.0
 51
244.6259913216483
  0
ARC
  5
291
102
{ACAD_REACTORS
330
2E8
330
2E9
102
}
330
71
100
AcDbEntity
  8
0
  6
Continuous
 62
     2
100
AcDbCircle
 10
-70.75852217781545
 20
-11.44573003894328
 30
0.0
 40
2.018561131933267
100
AcDbArc
 50
269.8110329575858
 51
90.18896704241416
  0
ARC
  5
292
102
{ACAD_REACTORS
330
2E8
330
2E9
102
}
330
71
100
AcDbEntity
  8
0
  6
Continuous
 62
     2
100
AcDbCircle
 10
-70.76413831312547
 20
-13.14856498651227
 30
0.0
 40
0.315716923076792
100
AcDbArc
 50
180.0
 51
269.8110329574542
  0
ARC
  5
293
102
{ACAD_REACTORS
330
2E6
330
2E7
102
}
330
71
100
AcDbEntity
  8
0
  6
Continuous
 62
     2
100
AcDbCircle
 10
-49.70067809839486
 20
-13.39546894483249
 30
0.0
 40
0.5115800601944217
100
AcDbArc
 50
109.3371432194858
 51
151.4785267424218
  0
ARC
  5
294
102
{ACAD_REACTORS
330
2E6
330
2E7
102
}
330
71
100
AcDbEntity
  8
0
  6
Continuous
 62
     2
100
AcDbCircle
 10
-49.70067809839486
 20
-13.80561180350998
 30
0.0
 40
0.5115800601960215
100
AcDbArc
 50
208.5214732576866
 51
246.6277221118447
  0
ARC
  5
295
102
{ACAD_REACTORS
330
2E6
330
2E7
102
}
330
71
100
AcDbEntity
  8
0
  6
Continuous
 62
     2
100
AcDbCircle
 10
-50.25055042317226
 20
-13.60054037417149
 30
0.0
 40
1.205656168393002
100
AcDbArc
 50
164.9381082229029
 51
195.0618917770957
  0
ARC
  5
296
102
{ACAD_REACTORS
330
2E6
330
2E7
102
}
330
71
100
AcDbEntity
  8
0
  6
Continuous
 62
     2
100
AcDbCircle
 10
-49.83142257971065
 20
-13.71333073620639
 30
0.0
 40
1.63969512394022
100
AcDbArc
 50
90.0
 51
164.9381082228951
  0
ARC
  5
297
102
{ACAD_REACTORS
330
2EA
330
2EB
102
}
330
71
100
AcDbEntity
  8
0
  6
Continuous
 62
     2
100
AcDbCircle
 10
-59.25841767241437
 20
-10.24134989799717
 30
0.0
 40
1.526904761905884
100
AcDbArc
 50
90.0
 51
270.0
  0
ARC
  5
298
102
{ACAD_REACTORS
330
2EE
330
2EF
102
}
330
71
100
AcDbEntity
  8
0
  6
Continuous
 62
     2
100
AcDbCircle
 10
-66.00110841764015
 20
-9.73041480620248
 30
0.0
 40
0.3528638246711147
100
AcDbArc
 50
270.0
 51
90.0
  0
ARC
  5
299
102
{ACAD_REACTORS
330
2E8
330
2E9
102
}
330
71
100
AcDbEntity
  8
0
  6
Continuous
 62
     2
100
AcDbCircle
 10
-73.33968699965718
 20
-9.74271761472608
 30
0.0
 40
0.3157169230761951
100
AcDbArc
 50
90.0
 51
180.0
  0
ARC
  5
29A
102
{ACAD_REACTORS
330
2E8
330
2E9
102
}
330
71
100
AcDbEntity
  8
0
  6
Continuous
 62
     2
100
AcDbCircle
 10
-71.34126929107256
 20
-11.45757197984878
 30
0.0
 40
0.9118975235576098
100
AcDbArc
 50
115.1944106485284
 51
244.8055893514878
  0
ARC
  5
29B
102
{ACAD_REACTORS
330
2E8
330
2E9
102
}
330
71
100
AcDbEntity
  8
0
  6
Continuous
 62
     2
100
AcDbCircle
 10
-71.86385373864755
 20
-12.56840172591157
 30
0.0
 40
0.315716923076593
100
AcDbArc
 50
0.0
 51
64.80558935146027
  0
ARC
  5
29C
102
{ACAD_REACTORS
330
2E8
330
2E9
102
}
330
71
100
AcDbEntity
  8
0
  6
Continuous
 62
     2
100
AcDbCircle
 10
-73.93358167640366
 20
-14.70320052069349
 30
0.0
 40
0.4242446153828041
100
AcDbArc
 50
180.0
 51
270.0
  0
ARC
  5
29D
102
{ACAD_REACTORS
330
2EA
330
2EB
102
}
330
71
100
AcDbEntity
  8
0
  6
Continuous
 62
     2
100
AcDbCircle
 10
-59.04214566224917
 20
-10.08461871987669
 30
0.0
 40
0.5179085730135288
100
AcDbArc
 50
38.12041979714365
 51
141.8795802028486
  0
ARC
  5
29E
102
{ACAD_REACTORS
330
2EA
330
2EB
102
}
330
71
100
AcDbEntity
  8
0
  6
Continuous
 62
     2
100
AcDbCircle
 10
-58.84240562590287
 20
-10.24134989799717
 30
0.0
 40
0.7717997786796735
100
AcDbArc
 50
141.8795802028403
 51
218.1204197971561
  0
ARC
  5
29F
102
{ACAD_REACTORS
330
2EC
330
2ED
102
}
330
71
100
AcDbEntity
  8
0
  6
Continuous
 62
     2
100
AcDbCircle
 10
-63.00309314304266
 20
-13.06196536386818
 30
0.0
 40
2.065479772208513
100
AcDbArc
 50
242.4518518243403
 51
297.5481481756868
  0
ARC
  5
2A0
102
{ACAD_REACTORS
330
2EC
330
2ED
102
}
330
71
100
AcDbEntity
  8
0
  6
Continuous
 62
     2
100
AcDbCircle
 10
-63.00309314304266
 20
-14.13911538447428
 30
0.0
 40
2.065479772208563
100
AcDbArc
 50
62.45185182430652
 51
117.5481481756664
  0
ARC
  5
2A1
102
{ACAD_REACTORS
330
2EC
330
2ED
102
}
330
71
100
AcDbEntity
  8
0
  6
Continuous
 62
     2
100
AcDbCircle
 10
-63.28403303487596
 20
-13.60054037417149
 30
0.0
 40
1.458034083651492
100
AcDbArc
 50
117.5481481756624
 51
242.4518518243375
  0
ARC
  5
2A2
102
{ACAD_REACTORS
330
2EC
330
2ED
102
}
330
71
100
AcDbEntity
  8
0
  6
Continuous
 62
     2
100
AcDbCircle
 10
-62.72215325120936
 20
-13.60054037417149
 30
0.0
 40
1.458034083651999
100
AcDbArc
 50
297.5481481757009
 51
62.45185182429923
  0
ARC
  5
2A3
102
{ACAD_REACTORS
330
2EA
330
2EB
102
}
330
71
100
AcDbEntity
  8
0
  6
Continuous
 62
     2
100
AcDbCircle
 10
-59.04214566224917
 20
-10.39808107611759
 30
0.0
 40
0.5179085730134382
100
AcDbArc
 50
218.1204197971512
 51
321.8795802028565
  0
ARC
  5
2A4
102
{ACAD_REACTORS
330
2EA
330
2EB
102
}
330
71
100
AcDbEntity
  8
0
  6
Continuous
 62
     2
100
AcDbCircle
 10
-59.24188569859535
 20
-10.24134989799717
 30
0.0
 40
0.7717997786796307
100
AcDbArc
 50
321.8795802028435
 51
38.12041979716
  0
ARC
  5
2A5
102
{ACAD_REACTORS
330
2E8
330
2E9
102
}
330
71
100
AcDbEntity
  8
0
  6
Continuous
 62
     2
100
AcDbCircle
 10
-68.46026958568686
 20
-14.70320052069349
 30
0.0
 40
0.4242446153832784
100
AcDbArc
 50
270.0
 51
0.0
  0
ARC
  5
2A6
102
{ACAD_REACTORS
330
2E8
330
2E9
102
}
330
71
100
AcDbEntity
  8
0
  6
Continuous
 62
     2
100
AcDbCircle
 10
-68.46026958568686
 20
-9.13868975149327
 30
0.0
 40
0.4242446153838841
100
AcDbArc
 50
0.0
 51
90.0
  0
ARC
  5
2A7
102
{ACAD_REACTORS
330
2E8
330
2E9
102
}
330
71
100
AcDbEntity
  8
0
  6
Continuous
 62
     2
100
AcDbCircle
 10
-73.93358167640366
 20
-9.13868975149327
 30
0.0
 40
0.4242446153837989
100
AcDbArc
 50
90.0
 51
180.0
  0
ARC
  5
2A8
102
{ACAD_REACTORS
330
2E8
330
2E9
102
}
330
71
100
AcDbEntity
  8
0
  6
Continuous
 62
     2
100
AcDbCircle
 10
-71.86385373864755
 20
-14.09917265744318
 30
0.0
 40
0.3157169230766996
100
AcDbArc
 50
270.0
 51
0.0
  0
ARC
  5
2A9
102
{ACAD_REACTORS
330
2E8
330
2E9
102
}
330
71
100
AcDbEntity
  8
0
  6
Continuous
 62
     2
100
AcDbCircle
 10
-71.86385373864755
 20
-10.34674223378659
 30
0.0
 40
0.3157169230761203
100
AcDbArc
 50
295.1944106485397
 51
0.0
  0
ARC
  5
2AA
102
{ACAD_REACTORS
330
2E8
330
2E9
102
}
330
71
100
AcDbEntity
  8
0
  6
Continuous
 62
     2
100
AcDbCircle
 10
-71.86385373864755
 20
-9.74271761472608
 30
0.0
 40
0.315716923076593
100
AcDbArc
 50
0.0
 51
90.0
  0
ARC
  5
2AB
102
{ACAD_REACTORS
330
2E8
330
2E9
102
}
330
71
100
AcDbEntity
  8
0
  6
Continuous
 62
     2
100
AcDbCircle
 10
-73.33968699965718
 20
-14.09917265744318
 30
0.0
 40
0.3157169230756836
100
AcDbArc
 50
180.0
 51
270.0
  0
ARC
  5
2AC
102
{ACAD_REACTORS
330
2EE
330
2EF
102
}
330
71
100
AcDbEntity
  8
0
  6
Continuous
 62
     2
100
AcDbCircle
 10
-65.55963589140177
 20
-9.76981077742496
 30
0.0
 40
1.055365641333704
100
AcDbArc
 50
270.0
 51
90.0
  0
ARC
  5
2AD
102
{ACAD_REACTORS
330
2E6
330
2E7
102
}
330
71
100
AcDbEntity
  8
0
  6
Continuous
 62
     2
100
AcDbCircle
 10
-49.83142257971065
 20
-13.48775001213667
 30
0.0
 40
1.639695123940448
100
AcDbArc
 50
195.0618917771012
 51
275.1581447696762
  0
ARC
  5
2AE
102
{ACAD_REACTORS
330
2E6
330
2E7
102
}
330
71
100
AcDbEntity
  8
0
  6
Continuous
 62
     2
100
AcDbCircle
 10
-50.12027867444647
 20
-10.28785942891508
 30
0.0
 40
4.852596863498825
100
AcDbArc
 50
275.1581447696364
 51
285.9799912583387
  0
ARC
  5
2AF
102
{ACAD_REACTORS
330
2E6
330
2E7
102
}
330
71
100
AcDbEntity
  8
0
  6
Continuous
 62
     2
100
AcDbCircle
 10
-49.96240579935366
 20
-12.19007400876339
 30
0.0
 40
2.227384008972748
100
AcDbArc
 50
288.4480761181335
 51
301.9309089499397
  0
ARC
  5
2B0
102
{ACAD_REACTORS
330
2E6
330
2E7
102
}
330
71
100
AcDbEntity
  8
0
  6
Continuous
 62
     2
100
AcDbCircle
 10
-49.54423806569176
 20
-13.44361978479998
 30
0.0
 40
0.9059297849852768
100
AcDbArc
 50
246.6277221118181
 51
288.4480761180817
  0
ARC
  5
2B1
102
{ACAD_REACTORS
330
2E6
330
2E7
102
}
330
71
100
AcDbEntity
  8
0
  6
Continuous
 62
     2
100
AcDbCircle
 10
-49.32332084031347
 20
-13.60054037417149
 30
0.0
 40
0.9410597353348958
100
AcDbArc
 50
151.478526742362
 51
208.5214732576695
  0
ARC
  5
2B2
102
{ACAD_REACTORS
330
2E6
330
2E7
102
}
330
71
100
AcDbEntity
  8
0
  6
Continuous
 62
     2
100
AcDbCircle
 10
-49.55400810029116
 20
-13.81342392521538
 30
0.0
 40
0.9545230068261006
100
AcDbArc
 50
90.0
 51
109.3371432194319
  0
ARC
  5
2B3
102
{ACAD_REACTORS
330
2E8
330
2E9
102
}
330
71
100
AcDbEntity
  8
0
  6
Continuous
 62
     2
100
AcDbCircle
 10
-70.76413831312547
 20
-9.74289509137418
 30
0.0
 40
0.3157169230760711
100
AcDbArc
 50
90.18896704254594
 51
180.0
  0
ARC
  5
2B4
102
{ACAD_REACTORS
330
2E8
330
2E9
102
}
330
71
100
AcDbEntity
  8
0
  6
Continuous
 62
     2
100
AcDbCircle
 10
-71.29018101121335
 20
-11.45757197984878
 30
0.0
 40
0.9118481501444573
100
AcDbArc
 50
295.3740086781765
 51
64.62599132180733
  0
ARC
  5
2B5
102
{ACAD_REACTORS
330
2E4
330
2E5
102
}
330
71
100
AcDbEntity
  8
0
  6
Continuous
 62
     2
100
AcDbCircle
 10
-66.06510727860655
 20
-12.19007400876279
 30
0.0
 40
2.227384008972737
100
AcDbArc
 50
288.4480761181328
 51
301.9309089499592
  0
ARC
  5
2B6
102
{ACAD_REACTORS
330
2E4
330
2E5
102
}
330
71
100
AcDbEntity
  8
0
  6
Continuous
 62
     2
100
AcDbCircle
 10
-65.64693954494575
 20
-13.44361978479998
 30
0.0
 40
0.905929784984916
100
AcDbArc
 50
246.6277221118709
 51
288.4480761181586
  0
ARC
  5
2B7
102
{ACAD_REACTORS
330
2E4
330
2E5
102
}
330
71
100
AcDbEntity
  8
0
  6
Continuous
 62
     2
100
AcDbCircle
 10
-65.80337957764777
 20
-13.80561180350998
 30
0.0
 40
0.5115800601948042
100
AcDbArc
 50
208.5214732576957
 51
246.6277221118272
  0
ARC
  5
2B8
102
{ACAD_REACTORS
330
2E4
330
2E5
102
}
330
71
100
AcDbEntity
  8
0
  6
Continuous
 62
     2
100
AcDbCircle
 10
-65.64693954494575
 20
-13.75746096354308
 30
0.0
 40
0.9059297849853228
100
AcDbArc
 50
71.55192388185348
 51
113.372277888129
  0
ARC
  5
2B9
102
{ACAD_REACTORS
330
2E4
330
2E5
102
}
330
71
100
AcDbEntity
  8
0
  6
Continuous
 62
     2
100
AcDbCircle
 10
-66.22298015369947
 20
-16.91322131942738
 30
0.0
 40
4.852596863498063
100
AcDbArc
 50
74.02000874164737
 51
84.84185523037506
  0
CIRCLE
  5
2BA
102
{ACAD_REACTORS
330
2E8
330
2E9
102
}
330
71
100
AcDbEntity
  8
0
  6
Continuous
 62
     2
100
AcDbCircle
 10
-71.31399602588615
 20
-11.45757197984878
 30
0.0
 40
0.4709789327785074
  0
CIRCLE
  5
2BB
330
71
100
AcDbEntity
  8
1
  6
Continuous
 62
     2
100
AcDbCircle
 10
-65.85782629178647
 20
-1.29594513609317
 30
0.0
 40
1.249999999999915
  0
CIRCLE
  5
2BC
330
71
100
AcDbEntity
  8
1
  6
Continuous
 62
     2
100
AcDbCircle
 10
-65.85782629178647
 20
-1.29594513609317
 30
0.0
 40
2.499999999999993
  0
TEXT
  5
2BD
330
71
100
AcDbEntity
  8
1
 62
     7
100
AcDbText
 10
-23.22093345633527
 20
-4.12094513609318
 30
0.0
 40
2.5
  1
/
 41
0.9
  7
CONVERTER_11
100
AcDbText
  0
TEXT
  5
2BF
330
71
100
AcDbEntity
  8
1
 62
     7
100
AcDbText
 10
-21.06456895929327
 20
-4.12094513609318
 30
0.0
 40
2.5
  1
00
 41
0.81
  7
CONVERTER_12
100
AcDbText
  0
TEXT
  5
2C0
330
71
100
AcDbEntity
  8
1
 62
     3
100
AcDbText
 10
16.53191506672383
 20
-4.12094513609318
 30
0.0
 40
2.5
  1
27.01.2018
 41
0.81
  7
CONVERTER_12
100
AcDbText
  0
MTEXT
  5
2C1
330
71
100
AcDbEntity
  8
1
 62
     2
100
AcDbMText
 10
16.53191506672383
 20
2.07905486390683
 30
0.0
 40
1.8
 41
0.0
 71
     1
 72
     1
  1
date
  7
CONVERTER_11
 73
     1
 44
1.32052821128451
  0
MTEXT
  5
2C2
330
71
100
AcDbEntity
  8
1
 62
     2
100
AcDbMText
 10
-13.29448117834906
 20
-6.42094513609317
 30
0.0
 40
1.8
 41
0.0
 71
     1
 72
     1
  1
document-type
  7
CONVERTER_11
 73
     1
 44
1.20048019207683
  0
TEXT
  5
2C3
330
71
100
AcDbEntity
  8
1
 62
     3
100
AcDbText
 10
-13.29448117834906
 20
-12.62094513609318
 30
0.0
 40
2.5
  1
 
 41
0.81
  7
CONVERTER_12
100
AcDbText
  0
MTEXT
  5
2C5
330
71
100
AcDbEntity
  8
1
 62
     2
100
AcDbMText
 10
-41.09448117834907
 20
2.07905486390692
 30
0.0
 40
1.8
 41
0.0
 71
     1
 72
     1
  1
document-No. / RI
  7
CONVERTER_13
 73
     1
 44
1.32052821128451
  0
TEXT
  5
2C6
330
71
100
AcDbEntity
  8
1
 62
     7
100
AcDbText
 10
-41.09448117834907
 20
-4.12094513609318
 30
0.0
 40
2.5
  1
00444412
 41
0.81
  7
CONVERTER_12
100
AcDbText
  0
MTEXT
  5
2C8
330
71
100
AcDbEntity
  8
1
 62
     3
100
AcDbMText
 10
46.49111920756324
 20
-4.12094513609298
 30
0.0
 40
2.5
 41
0.0
 71
     8
 72
     1
  1
1:1
  7
CONVERTER_14
 73
     1
 44
1.32052821128451
  0
MTEXT
  5
2C9
330
71
100
AcDbEntity
  8
1
 62
     2
100
AcDbMText
 10
43.13191506672365
 20
2.07905486390692
 30
0.0
 40
1.8
 41
0.0
 71
     1
 72
     1
  1
scale
  7
CONVERTER_11
 73
     1
 44
1.20048019207683
  0
MTEXT
  5
2CA
330
71
100
AcDbEntity
  8
1
 62
     2
100
AcDbMText
 10
-41.09448117834907
 20
-6.42094513609308
 30
0.0
 40
1.8
 41
0.0
 71
     1
 72
     1
  1
ident.-No.
  7
CONVERTER_11
 73
     1
 44
1.20048019207683
  0
TEXT
  5
2CB
330
71
100
AcDbEntity
  8
1
 62
     7
100
AcDbText
 10
-40.69448117834935
 20
-12.62094513609318
 30
0.0
 40
2.5
  1
0309549
 41
0.81
  7
CONVERTER_12
100
AcDbText
  0
MTEXT
  5
2CC
330
71
100
AcDbEntity
  8
1
 62
     2
100
AcDbMText
 10
-113.0324959033966
 20
-9.67094513609317
 30
0.0
 40
2.0
 41
0.0
 71
     5
 72
     1
  1
General Information\P- Simplified representation\P- Document excluded from change process\P- Linear dimensions [mm]
  7
CONVERTER_11
 73
     1
 44
1.20048019207683
  0
MTEXT
  5
2CD
330
71
100
AcDbEntity
  8
1
 62
     7
100
AcDbMText
 10
53.45032334839993
 20
52.57905486390882
 30
0.0
 40
3.5
 41
0.0
 71
     5
 72
     1
  1
C
  7
CONVERTER_11
 73
     1
 44
1.20048019207683
  0
MTEXT
  5
2CE
330
71
100
AcDbEntity
  8
1
 62
     7
100
AcDbMText
 10
53.45032334839993
 20
155.0790548639069
 30
0.0
 40
3.5
 41
0.0
 71
     5
 72
     1
  1
A
  7
CONVERTER_11
 73
     1
 44
1.20048019207683
  0
MTEXT
  5
2CF
330
71
100
AcDbEntity
  8
1
 62
     7
100
AcDbMText
 10
53.45032334839993
 20
102.5790548639088
 30
0.0
 40
3.5
 41
0.0
 71
     5
 72
     1
  1
B
  7
CONVERTER_11
 73
     1
 44
1.20048019207683
  0
MTEXT
  5
2D0
330
71
100
AcDbEntity
  8
1
 62
     7
100
AcDbMText
 10
53.45032334839993
 20
0.07905486390692
 30
0.0
 40
3.5
 41
0.0
 71
     5
 72
     1
  1
D
  7
CONVERTER_11
 73
     1
 44
1.20048019207683
  0
MTEXT
  5
2D1
330
71
100
AcDbEntity
  8
1
 62
     7
100
AcDbMText
 10
-216.7996766515987
 20
-24.9209451360932
 30
0.0
 40
3.5
 41
0.0
 71
     5
 72
     1
  1
1
  7
CONVERTER_11
 73
     1
 44
1.20048019207683
  0
MTEXT
  5
2D2
330
71
100
AcDbEntity
  8
1
 62
     7
100
AcDbMText
 10
-167.549676651599
 20
-24.9209451360932
 30
0.0
 40
3.5
 41
0.0
 71
     5
 72
     1
  1
2
  7
CONVERTER_11
 73
     1
 44
1.20048019207683
  0
MTEXT
  5
2D3
330
71
100
AcDbEntity
  8
1
 62
     7
100
AcDbMText
 10
-117.549676651599
 20
-24.9209451360932
 30
0.0
 40
3.5
 41
0.0
 71
     5
 72
     1
  1
3
  7
CONVERTER_11
 73
     1
 44
1.20048019207683
  0
MTEXT
  5
2D4
330
71
100
AcDbEntity
  8
1
 62
     7
100
AcDbMText
 10
-67.54967665159916
 20
-24.9209451360932
 30
0.0
 40
3.5
 41
0.0
 71
     5
 72
     1
  1
4
  7
CONVERTER_11
 73
     1
 44
1.20048019207683
  0
MTEXT
  5
2D5
330
71
100
AcDbEntity
  8
1
 62
     7
100
AcDbMText
 10
-17.54967665159907
 20
-24.9209451360932
 30
0.0
 40
3.5
 41
0.0
 71
     5
 72
     1
  1
5
  7
CONVERTER_11
 73
     1
 44
1.20048019207683
  0
MTEXT
  5
2D6
330
71
100
AcDbEntity
  8
1
 62
     7
100
AcDbMText
 10
31.70032334840013
 20
-24.9209451360932
 30
0.0
 40
3.5
 41
0.0
 71
     5
 72
     1
  1
6
  7
CONVERTER_11
 73
     1
 44
1.20048019207683
  0
MTEXT
  5
2D7
330
71
100
AcDbEntity
  8
1
 62
     7
100
AcDbMText
 10
-238.5496766515981
 20
155.0790548639069
 30
0.0
 40
3.5
 41
0.0
 71
     5
 72
     1
  1
A
  7
CONVERTER_11
 73
     1
 44
1.20048019207683
  0
MTEXT
  5
2D8
330
71
100
AcDbEntity
  8
1
 62
     7
100
AcDbMText
 10
-238.5496766515981
 20
102.5790548639069
 30
0.0
 40
3.5
 41
0.0
 71
     5
 72
     1
  1
B
  7
CONVERTER_11
 73
     1
 44
1.20048019207683
  0
MTEXT
  5
2D9
330
71
100
AcDbEntity
  8
1
 62
     7
100
AcDbMText
 10
-238.5496766515981
 20
52.57905486390692
 30
0.0
 40
3.5
 41
0.0
 71
     5
 72
     1
  1
C
  7
CONVERTER_11
 73
     1
 44
1.20048019207683
  0
MTEXT
  5
2DA
330
71
100
AcDbEntity
  8
1
 62
     7
100
AcDbMText
 10
-238.5496766515981
 20
0.07905486390692
 30
0.0
 40
3.5
 41
0.0
 71
     5
 72
     1
  1
D
  7
CONVERTER_11
 73
     1
 44
1.20048019207683
  0
MTEXT
  5
2DB
330
71
100
AcDbEntity
  8
1
 62
     3
100
AcDbMText
 10
-52.39448117834917
 20
-1.29594513609308
 30
0.0
 40
2.5
 41
0.0
 71
     5
 72
     1
  1
DIN A4
  7
CONVERTER_11
 73
     1
 44
1.20048019207683
  0
MTEXT
  5
2DC
330
71
100
AcDbEntity
  8
1
 62
     2
100
AcDbMText
 10
-41.19448117834915
 20
-14.92094513609308
 30
0.0
 40
1.8
 41
0.0
 71
     1
 72
     1
  1
description
  7
CONVERTER_11
 73
     1
 44
1.20048019207683
  0
MTEXT
  5
2DD
330
71
100
AcDbEntity
  8
1
 62
     7
100
AcDbMText
 10
4.37792108502643
 20
-19.17094513609285
 30
0.0
 40
3.0
 41
0.0
 71
     5
 72
     1
  1
KSS  4- 8
  7
CONVERTER_12
 73
     1
 44
1.20048019207683
  0
TEXT
  5
2DE
330
71
100
AcDbEntity
  8
1
 62
     2
100
AcDbText
 10
-54.15917236853557
 20
-21.1709451360932
 30
0.0
 40
1.8
  1
1
 41
0.9
  7
CONVERTER_11
100
AcDbText
  0
TEXT
  5
2DF
330
71
100
AcDbEntity
  8
1
 62
     2
100
AcDbText
 10
-68.94821620800707
 20
-21.22019378989509
 30
0.0
 40
1.8
  1
1
 41
0.9
  7
CONVERTER_11
100
AcDbText
  0
TEXT
  5
2E0
330
71
100
AcDbEntity
  8
1
 62
     2
100
AcDbText
 10
-77.59448117834907
 20
-21.17996235108475
 30
0.0
 40
1.8
  1
page
 41
0.9
  7
CONVERTER_11
100
AcDbText
  0
TEXT
  5
2E1
330
71
100
AcDbEntity
  8
1
 62
     2
100
AcDbText
 10
-59.39448117834925
 20
-21.1799623510847
 30
0.0
 40
1.8
  1
of
 41
0.9
  7
CONVERTER_11
100
AcDbText
  0
MTEXT
  5
2E2
330
71
100
AcDbEntity
  8
1
 62
     3
100
AcDbMText
 10
-53.19149902673917
 20
164.3703630192057
 30
0.0
 40
1.8
 41
0.0
 71
     7
 72
     1
  3
Transfer or duplication of this document as well as the utilisation or\Pcommunication of its content are not permitted unless express consent\Pis granted. Violations give rise to claims for damages. All rights reserved\Pin case of patent, utility mo
  1
del or design patent registrations.
  7
CONVERTER_11
 73
     1
 44
0.99639855942377
  0
MTEXT
  5
2E3
330
71
100
AcDbEntity
  8
1
 62
     3
100
AcDbMText
 10
-236.0446088655273
 20
164.3703630192057
 30
0.0
 40
1.8
 41
0.0
 71
     7
 72
     1
  3
Weitergabe sowie Vervielf\U+00e4ltigung dieses Dokuments, Verwertung und \PMitteilung seines Inhalts sind verboten, soweit nicht ausdr\U+00fccklich gestattet. \PZuwiderhandlungen verpflichten zu Schadenersatz. Alle Rechte f\U+00fcr den Fall\Pder Pat
  1
ent-, Gebrauchsmuster- oder Designeintragung vorbehalten.
  7
CONVERTER_11
 73
     1
 44
0.99639855942377
  0
HATCH
  5
2E4
330
71
100
AcDbEntity
  8
1
  6
Continuous
 62
     2
100
AcDbHatch
 10
0.0
 20
0.0
 30
0.0
210
0.0
220
0.0
230
1.0
  2
_USER
 70
     0
 71
     1
 91
        1
 92
        1
 93
       14
 72
     2
 10
-66.35325190242636
 20
-13.60054037417149
 40
1.205656168390943
 50
164.9381082228765
 51
195.0618917770945
 73
     1
 72
     2
 10
-65.93412405896356
 20
-13.48775001213667
 40
1.639695123939387
 50
195.0618917770895
 51
275.1581447696395
 73
     1
 72
     2
 10
-66.22298015369947
 20
-10.28785942891508
 40
4.852596863498145
 50
275.1581447696249
 51
285.9799912583529
 73
     1
 72
     1
 10
-64.88705223658167
 20
-14.95294173471589
 11
-64.88705223658167
 21
-14.08042472791269
 72
     2
 10
-66.06510727860655
 20
-12.19007400876279
 40
2.227384008972737
 50
58.0690910500408
 51
71.55192388186722
 73
     0
 72
     2
 10
-65.64693954494575
 20
-13.44361978479998
 40
0.905929784984916
 50
71.55192388184147
 51
113.3722778881291
 73
     0
 72
     2
 10
-65.80337957764777
 20
-13.80561180350998
 40
0.5115800601948042
 50
113.3722778881728
 51
151.4785267423043
 73
     0
 72
     2
 10
-65.42602231956747
 20
-13.60054037417149
 40
0.9410597353332545
 50
151.4785267422942
 51
208.5214732577331
 73
     0
 72
     2
 10
-65.80337957764777
 20
-13.39546894483249
 40
0.5115800601948796
 50
208.5214732576956
 51
246.6277221118009
 73
     0
 72
     2
 10
-65.64693954494575
 20
-13.75746096354308
 40
0.9059297849853228
 50
246.6277221118709
 51
288.4480761181465
 73
     0
 72
     2
 10
-66.06510727860655
 20
-15.01100673957967
 40
2.227384008973474
 50
288.4480761181328
 51
301.9309089499593
 73
     0
 72
     1
 10
-64.88705223658167
 20
-13.12065602042978
 11
-64.88705223658167
 21
-12.24813901362649
 72
     2
 10
-66.22298015369947
 20
-16.91322131942738
 40
4.852596863498063
 50
74.02000874164737
 51
84.84185523037506
 73
     1
 72
     2
 10
-65.93412405896356
 20
-13.71333073620639
 40
1.639695123940505
 50
84.84185523036236
 51
164.9381082228866
 73
     1
 97
       14
330
2B9
330
1D2
330
288
330
2B8
330
289
330
28A
330
2B7
330
2B6
330
2B5
330
1D3
330
28B
330
28C
330
28D
330
28E
 75
     1
 76
     0
 52
45.0
 41
0.1
 77
     0
 78
     1
 53
45.0
 43
0.0
 44
0.0
 45
-0.0707106781186548
 46
0.0707106781186548
 79
     0
 98
        1
 10
0.0
 20
0.0
  0
HATCH
  5
2E5
330
71
100
AcDbEntity
  8
1
  6
Continuous
 62
     2
100
AcDbHatch
 10
0.0
 20
0.0
 30
0.0
210
0.0
220
0.0
230
1.0
  2
_USER
 70
     0
 71
     1
 91
        1
 92
        1
 93
       14
 72
     2
 10
-66.35325190242636
 20
-13.60054037417149
 40
1.205656168390943
 50
164.9381082228765
 51
195.0618917770945
 73
     1
 72
     2
 10
-65.93412405896356
 20
-13.48775001213667
 40
1.639695123939387
 50
195.0618917770895
 51
275.1581447696395
 73
     1
 72
     2
 10
-66.22298015369947
 20
-10.28785942891508
 40
4.852596863498145
 50
275.1581447696249
 51
285.9799912583529
 73
     1
 72
     1
 10
-64.88705223658167
 20
-14.95294173471589
 11
-64.88705223658167
 21
-14.08042472791269
 72
     2
 10
-66.06510727860655
 20
-12.19007400876279
 40
2.227384008972737
 50
58.0690910500408
 51
71.55192388186722
 73
     0
 72
     2
 10
-65.64693954494575
 20
-13.44361978479998
 40
0.905929784984916
 50
71.55192388184147
 51
113.3722778881291
 73
     0
 72
     2
 10
-65.80337957764777
 20
-13.80561180350998
 40
0.5115800601948042
 50
113.3722778881728
 51
151.4785267423043
 73
     0
 72
     2
 10
-65.42602231956747
 20
-13.60054037417149
 40
0.9410597353332545
 50
151.4785267422942
 51
208.5214732577331
 73
     0
 72
     2
 10
-65.80337957764777
 20
-13.39546894483249
 40
0.5115800601948796
 50
208.5214732576956
 51
246.6277221118009
 73
     0
 72
     2
 10
-65.64693954494575
 20
-13.75746096354308
 40
0.9059297849853228
 50
246.6277221118709
 51
288.4480761181465
 73
     0
 72
     2
 10
-66.06510727860655
 20
-15.01100673957967
 40
2.227384008973474
 50
288.4480761181328
 51
301.9309089499593
 73
     0
 72
     1
 10
-64.88705223658167
 20
-13.12065602042978
 11
-64.88705223658167
 21
-12.24813901362649
 72
     2
 10
-66.22298015369947
 20
-16.91322131942738
 40
4.852596863498063
 50
74.02000874164737
 51
84.84185523037506
 73
     1
 72
     2
 10
-65.93412405896356
 20
-13.71333073620639
 40
1.639695123940505
 50
84.84185523036236
 51
164.9381082228866
 73
     1
 97
       14
330
2B9
330
1D2
330
288
330
2B8
330
289
330
28A
330
2B7
330
2B6
330
2B5
330
1D3
330
28B
330
28C
330
28D
330
28E
 75
     1
 76
     0
 52
45.0
 41
0.1
 77
     0
 78
     1
 53
45.0
 43
0.0
 44
0.0
 45
-0.0707106781186548
 46
0.0707106781186548
 79
     0
 98
        1
 10
0.0
 20
0.0
  0
HATCH
  5
2E6
330
71
100
AcDbEntity
  8
1
  6
Continuous
 62
     2
100
AcDbHatch
 10
0.0
 20
0.0
 30
0.0
210
0.0
220
0.0
230
1.0
  2
_USER
 70
     0
 71
     1
 91
        1
 92
        1
 93
       18
 72
     2
 10
-49.83142257971065
 20
-13.71333073620639
 40
1.63969512394022
 50
90.0
 51
164.9381082228951
 73
     1
 72
     2
 10
-50.25055042317226
 20
-13.60054037417149
 40
1.205656168393002
 50
164.9381082229029
 51
195.0618917770957
 73
     1
 72
     2
 10
-49.83142257971065
 20
-13.48775001213667
 40
1.639695123940448
 50
195.0618917771012
 51
275.1581447696762
 73
     1
 72
     2
 10
-50.12027867444647
 20
-10.28785942891508
 40
4.852596863498825
 50
275.1581447696364
 51
285.9799912583387
 73
     1
 72
     1
 10
-48.78435075732975
 20
-14.95294173471649
 11
-48.78435075732975
 21
-14.08042472791317
 72
     2
 10
-49.96240579935366
 20
-12.19007400876339
 40
2.227384008972748
 50
58.06909105006029
 51
71.55192388186651
 73
     0
 72
     2
 10
-49.54423806569176
 20
-13.44361978479998
 40
0.9059297849852768
 50
71.55192388191827
 51
113.3722778881818
 73
     0
 72
     2
 10
-49.70067809839486
 20
-13.80561180350998
 40
0.5115800601960215
 50
113.3722778881553
 51
151.4785267423134
 73
     0
 72
     2
 10
-49.32332084031347
 20
-13.60054037417149
 40
0.9410597353348958
 50
151.4785267423305
 51
208.521473257638
 73
     0
 72
     2
 10
-49.70067809839486
 20
-13.39546894483249
 40
0.5115800601944217
 50
208.5214732575782
 51
250.6628567805142
 73
     0
 72
     2
 10
-49.55400810029116
 20
-13.81342392521538
 40
0.9545230068261006
 50
250.6628567805681
 51
270.0
 73
     0
 72
     1
 10
-49.55400810029116
 20
-12.85890091838928
 11
-48.45036880072306
 21
-12.85890091838928
 72
     1
 10
-48.45036880072306
 20
-12.85890091838928
 11
-48.45036880072306
 21
-15.12744513607677
 72
     1
 10
-48.45036880072306
 20
-15.12744513607677
 11
-47.25757609855535
 21
-15.12744513607677
 72
     1
 10
-47.25757609855535
 20
-15.12744513607677
 11
-47.25757609855535
 21
-12.85890091838928
 72
     1
 10
-47.25757609855535
 20
-12.85890091838928
 11
-46.44647706108196
 21
-12.85890091838928
 72
     1
 10
-46.44647706108196
 20
-12.85890091838928
 11
-46.44647706108196
 21
-12.07363561226569
 72
     1
 10
-46.44647706108196
 20
-12.07363561226569
 11
-49.83142257971065
 21
-12.07363561226617
 97
       18
330
238
330
237
330
236
330
235
330
23A
330
1D4
330
2B2
330
293
330
2B1
330
294
330
2B0
330
2AF
330
1D5
330
2AE
330
2AD
330
295
330
296
330
239
 75
     1
 76
     0
 52
45.0
 41
0.1
 77
     0
 78
     1
 53
45.0
 43
0.0
 44
0.0
 45
-0.0707106781186548
 46
0.0707106781186548
 79
     0
 98
        1
 10
0.0
 20
0.0
  0
HATCH
  5
2E7
330
71
100
AcDbEntity
  8
1
  6
Continuous
 62
     2
100
AcDbHatch
 10
0.0
 20
0.0
 30
0.0
210
0.0
220
0.0
230
1.0
  2
_USER
 70
     0
 71
     1
 91
        1
 92
        1
 93
       18
 72
     2
 10
-49.83142257971065
 20
-13.71333073620639
 40
1.63969512394022
 50
90.0
 51
164.9381082228951
 73
     1
 72
     2
 10
-50.25055042317226
 20
-13.60054037417149
 40
1.205656168393002
 50
164.9381082229029
 51
195.0618917770957
 73
     1
 72
     2
 10
-49.83142257971065
 20
-13.48775001213667
 40
1.639695123940448
 50
195.0618917771012
 51
275.1581447696762
 73
     1
 72
     2
 10
-50.12027867444647
 20
-10.28785942891508
 40
4.852596863498825
 50
275.1581447696364
 51
285.9799912583387
 73
     1
 72
     1
 10
-48.78435075732975
 20
-14.95294173471649
 11
-48.78435075732975
 21
-14.08042472791317
 72
     2
 10
-49.96240579935366
 20
-12.19007400876339
 40
2.227384008972748
 50
58.06909105006029
 51
71.55192388186651
 73
     0
 72
     2
 10
-49.54423806569176
 20
-13.44361978479998
 40
0.9059297849852768
 50
71.55192388191827
 51
113.3722778881818
 73
     0
 72
     2
 10
-49.70067809839486
 20
-13.80561180350998
 40
0.5115800601960215
 50
113.3722778881553
 51
151.4785267423134
 73
     0
 72
     2
 10
-49.32332084031347
 20
-13.60054037417149
 40
0.9410597353348958
 50
151.4785267423305
 51
208.521473257638
 73
     0
 72
     2
 10
-49.70067809839486
 20
-13.39546894483249
 40
0.5115800601944217
 50
208.5214732575782
 51
250.6628567805142
 73
     0
 72
     2
 10
-49.55400810029116
 20
-13.81342392521538
 40
0.9545230068261006
 50
250.6628567805681
 51
270.0
 73
     0
 72
     1
 10
-49.55400810029116
 20
-12.85890091838928
 11
-48.45036880072306
 21
-12.85890091838928
 72
     1
 10
-48.45036880072306
 20
-12.85890091838928
 11
-48.45036880072306
 21
-15.12744513607677
 72
     1
 10
-48.45036880072306
 20
-15.12744513607677
 11
-47.25757609855535
 21
-15.12744513607677
 72
     1
 10
-47.25757609855535
 20
-15.12744513607677
 11
-47.25757609855535
 21
-12.85890091838928
 72
     1
 10
-47.25757609855535
 20
-12.85890091838928
 11
-46.44647706108196
 21
-12.85890091838928
 72
     1
 10
-46.44647706108196
 20
-12.85890091838928
 11
-46.44647706108196
 21
-12.07363561226569
 72
     1
 10
-46.44647706108196
 20
-12.07363561226569
 11
-49.83142257971065
 21
-12.07363561226617
 97
       18
330
238
330
237
330
236
330
235
330
23A
330
1D4
330
2B2
330
293
330
2B1
330
294
330
2B0
330
2AF
330
1D5
330
2AE
330
2AD
330
295
330
296
330
239
 75
     1
 76
     0
 52
45.0
 41
0.1
 77
     0
 78
     1
 53
45.0
 43
0.0
 44
0.0
 45
-0.0707106781186548
 46
0.0707106781186548
 79
     0
 98
        1
 10
0.0
 20
0.0
  0
HATCH
  5
2E8
330
71
100
AcDbEntity
  8
1
  6
Continuous
 62
     2
100
AcDbHatch
 10
0.0
 20
0.0
 30
0.0
210
0.0
220
0.0
230
1.0
  2
_USER
 70
     0
 71
     1
 91
        4
 92
        1
 93
        8
 72
     2
 10
-73.93358167640366
 20
-9.138689751493274
 40
0.4242446153837989
 50
90.0
 51
180.0
 73
     1
 72
     1
 10
-74.35782629178647
 20
-9.138689751493274
 11
-74.35782629178647
 21
-14.70320052069349
 72
     2
 10
-73.93358167640366
 20
-14.70320052069349
 40
0.4242446153828041
 50
180.0
 51
270.0
 73
     1
 72
     1
 10
-73.93358167640366
 20
-15.12744513607677
 11
-68.46026958568686
 21
-15.12744513607677
 72
     2
 10
-68.46026958568686
 20
-14.70320052069349
 40
0.4242446153832784
 50
270.0
 51
360.0
 73
     1
 72
     1
 10
-68.03602497030298
 20
-14.70320052069349
 11
-68.03602497030298
 21
-9.138689751493274
 72
     2
 10
-68.46026958568686
 20
-9.138689751493274
 40
0.4242446153838841
 50
0.0
 51
90.0
 73
     1
 72
     1
 10
-68.46026958568686
 20
-8.714445136109475
 11
-73.93358167640366
 21
-8.714445136109475
 97
        8
330
2A6
330
203
330
2A5
330
204
330
29C
330
201
330
2A7
330
202
 92
       16
 93
        1
 72
     2
 10
-71.31399602588615
 20
-11.45757197984878
 40
0.4709789327785074
 50
0.0
 51
360.0
 73
     1
 97
        1
330
2BA
 92
       16
 93
        8
 72
     2
 10
-71.29018101121335
 20
-11.45757197984878
 40
0.9118481501444573
 50
295.3740086781765
 51
424.6259913218073
 73
     1
 72
     2
 10
-70.76413831312547
 20
-10.34843037988097
 40
0.315716923076792
 50
115.3740086783517
 51
180.0
 73
     0
 72
     1
 10
-71.07985523620226
 20
-10.34843037988097
 11
-71.07985523620226
 21
-9.74289509137418
 72
     2
 10
-70.76413831312547
 20
-9.74289509137418
 40
0.3157169230760711
 50
180.0
 51
269.8110329574541
 73
     0
 72
     2
 10
-70.75852217781545
 20
-11.44573003894328
 40
2.018561131933267
 50
269.8110329575858
 51
450.1889670424142
 73
     0
 72
     2
 10
-70.76413831312547
 20
-13.14856498651227
 40
0.315716923076792
 50
90.18896704254585
 51
180.0
 73
     0
 72
     1
 10
-71.07985523620226
 20
-13.14856498651227
 11
-71.07985523620226
 21
-12.56671357981719
 72
     2
 10
-70.76413831312547
 20
-12.56671357981719
 40
0.3157169230765344
 50
180.0
 51
244.6259913216483
 73
     0
 97
        8
330
2B4
330
290
330
23C
330
2B3
330
291
330
292
330
23B
330
28F
 92
       16
 93
       12
 72
     1
 10
-73.33968699965718
 20
-14.41488958051988
 11
-71.86385373864755
 21
-14.41488958051988
 72
     2
 10
-71.86385373864755
 20
-14.09917265744318
 40
0.3157169230766996
 50
270.0
 51
360.0
 73
     1
 72
     1
 10
-71.54813681557096
 20
-14.09917265744318
 11
-71.54813681557096
 21
-12.56840172591157
 72
     2
 10
-71.86385373864755
 20
-12.56840172591157
 40
0.315716923076593
 50
0.0
 51
64.80558935146027
 73
     1
 72
     2
 10
-71.34126929107256
 20
-11.45757197984878
 40
0.9118975235576098
 50
115.1944106485122
 51
244.8055893514716
 73
     0
 72
     2
 10
-71.86385373864755
 20
-10.34674223378659
 40
0.3157169230761203
 50
295.1944106485397
 51
360.0
 73
     1
 72
     1
 10
-71.54813681557096
 20
-10.34674223378659
 11
-71.54813681557096
 21
-9.742717614726075
 72
     2
 10
-71.86385373864755
 20
-9.742717614726075
 40
0.315716923076593
 50
0.0
 51
90.0
 73
     1
 72
     1
 10
-71.86385373864755
 20
-9.42700069164988
 11
-73.33968699965718
 21
-9.42700069164988
 72
     2
 10
-73.33968699965718
 20
-9.742717614726075
 40
0.3157169230761951
 50
90.0
 51
180.0
 73
     1
 72
     1
 10
-73.65540392273286
 20
-9.742717614726075
 11
-73.65540392273286
 21
-14.09917265744318
 72
     2
 10
-73.33968699965718
 20
-14.09917265744318
 40
0.3157169230756836
 50
180.0
 51
270.0
 73
     1
 97
       12
330
208
330
299
330
207
330
2AA
330
206
330
2A9
330
29A
330
29B
330
205
330
2A8
330
200
330
2AB
 75
     1
 76
     0
 52
45.0
 41
0.1
 77
     0
 78
     1
 53
45.0
 43
0.0
 44
0.0
 45
-0.0707106781186548
 46
0.0707106781186548
 79
     0
 98
        1
 10
0.0
 20
0.0
  0
HATCH
  5
2E9
330
71
100
AcDbEntity
  8
1
  6
Continuous
 62
     2
100
AcDbHatch
 10
0.0
 20
0.0
 30
0.0
210
0.0
220
0.0
230
1.0
  2
_USER
 70
     0
 71
     1
 91
        4
 92
        1
 93
        8
 72
     2
 10
-73.93358167640366
 20
-9.138689751493274
 40
0.4242446153837989
 50
90.0
 51
180.0
 73
     1
 72
     1
 10
-74.35782629178647
 20
-9.138689751493274
 11
-74.35782629178647
 21
-14.70320052069349
 72
     2
 10
-73.93358167640366
 20
-14.70320052069349
 40
0.4242446153828041
 50
180.0
 51
270.0
 73
     1
 72
     1
 10
-73.93358167640366
 20
-15.12744513607677
 11
-68.46026958568686
 21
-15.12744513607677
 72
     2
 10
-68.46026958568686
 20
-14.70320052069349
 40
0.4242446153832784
 50
270.0
 51
360.0
 73
     1
 72
     1
 10
-68.03602497030298
 20
-14.70320052069349
 11
-68.03602497030298
 21
-9.138689751493274
 72
     2
 10
-68.46026958568686
 20
-9.138689751493274
 40
0.4242446153838841
 50
0.0
 51
90.0
 73
     1
 72
     1
 10
-68.46026958568686
 20
-8.714445136109475
 11
-73.93358167640366
 21
-8.714445136109475
 97
        8
330
2A6
330
203
330
2A5
330
204
330
29C
330
201
330
2A7
330
202
 92
       16
 93
        1
 72
     2
 10
-71.31399602588615
 20
-11.45757197984878
 40
0.4709789327785074
 50
0.0
 51
360.0
 73
     1
 97
        1
330
2BA
 92
       16
 93
        8
 72
     2
 10
-71.29018101121335
 20
-11.45757197984878
 40
0.9118481501444573
 50
295.3740086781765
 51
424.6259913218073
 73
     1
 72
     2
 10
-70.76413831312547
 20
-10.34843037988097
 40
0.315716923076792
 50
115.3740086783517
 51
180.0
 73
     0
 72
     1
 10
-71.07985523620226
 20
-10.34843037988097
 11
-71.07985523620226
 21
-9.74289509137418
 72
     2
 10
-70.76413831312547
 20
-9.74289509137418
 40
0.3157169230760711
 50
180.0
 51
269.8110329574541
 73
     0
 72
     2
 10
-70.75852217781545
 20
-11.44573003894328
 40
2.018561131933267
 50
269.8110329575858
 51
450.1889670424142
 73
     0
 72
     2
 10
-70.76413831312547
 20
-13.14856498651227
 40
0.315716923076792
 50
90.18896704254585
 51
180.0
 73
     0
 72
     1
 10
-71.07985523620226
 20
-13.14856498651227
 11
-71.07985523620226
 21
-12.56671357981719
 72
     2
 10
-70.76413831312547
 20
-12.56671357981719
 40
0.3157169230765344
 50
180.0
 51
244.6259913216483
 73
     0
 97
        8
330
2B4
330
290
330
23C
330
2B3
330
291
330
292
330
23B
330
28F
 92
       16
 93
       12
 72
     1
 10
-73.33968699965718
 20
-14.41488958051988
 11
-71.86385373864755
 21
-14.41488958051988
 72
     2
 10
-71.86385373864755
 20
-14.09917265744318
 40
0.3157169230766996
 50
270.0
 51
360.0
 73
     1
 72
     1
 10
-71.54813681557096
 20
-14.09917265744318
 11
-71.54813681557096
 21
-12.56840172591157
 72
     2
 10
-71.86385373864755
 20
-12.56840172591157
 40
0.315716923076593
 50
0.0
 51
64.80558935146027
 73
     1
 72
     2
 10
-71.34126929107256
 20
-11.45757197984878
 40
0.9118975235576098
 50
115.1944106485122
 51
244.8055893514716
 73
     0
 72
     2
 10
-71.86385373864755
 20
-10.34674223378659
 40
0.3157169230761203
 50
295.1944106485397
 51
360.0
 73
     1
 72
     1
 10
-71.54813681557096
 20
-10.34674223378659
 11
-71.54813681557096
 21
-9.742717614726075
 72
     2
 10
-71.86385373864755
 20
-9.742717614726075
 40
0.315716923076593
 50
0.0
 51
90.0
 73
     1
 72
     1
 10
-71.86385373864755
 20
-9.42700069164988
 11
-73.33968699965718
 21
-9.42700069164988
 72
     2
 10
-73.33968699965718
 20
-9.742717614726075
 40
0.3157169230761951
 50
90.0
 51
180.0
 73
     1
 72
     1
 10
-73.65540392273286
 20
-9.742717614726075
 11
-73.65540392273286
 21
-14.09917265744318
 72
     2
 10
-73.33968699965718
 20
-14.09917265744318
 40
0.3157169230756836
 50
180.0
 51
270.0
 73
     1
 97
       12
330
208
330
299
330
207
330
2AA
330
206
330
2A9
330
29A
330
29B
330
205
330
2A8
330
200
330
2AB
 75
     1
 76
     0
 52
45.0
 41
0.1
 77
     0
 78
     1
 53
45.0
 43
0.0
 44
0.0
 45
-0.0707106781186548
 46
0.0707106781186548
 79
     0
 98
        1
 10
0.0
 20
0.0
  0
HATCH
  5
2EA
330
71
100
AcDbEntity
  8
1
  6
Continuous
 62
     2
100
AcDbHatch
 10
0.0
 20
0.0
 30
0.0
210
0.0
220
0.0
230
1.0
  2
_USER
 70
     0
 71
     1
 91
        2
 92
        1
 93
       12
 72
     2
 10
-59.25841767241437
 20
-10.24134989799717
 40
1.526904761905884
 50
90.0
 51
270.0
 73
     1
 72
     1
 10
-59.25841767241437
 20
-11.76825465990248
 11
-56.10809794863337
 21
-11.76825465990248
 72
     1
 10
-56.10809794863337
 20
-11.76825465990248
 11
-56.10809794863337
 21
-11.07024105445998
 72
     1
 10
-56.10809794863337
 20
-11.07024105445998
 11
-57.44402577506105
 21
-11.07024105445998
 72
     1
 10
-57.44402577506105
 20
-11.07024105445998
 11
-57.44402577506105
 21
-10.59035670071827
 72
     1
 10
-57.44402577506105
 20
-10.59035670071827
 11
-56.10809794863337
 21
-10.59035670071827
 72
     1
 10
-56.10809794863337
 20
-10.59035670071827
 11
-56.10809794863337
 21
-9.892343095275976
 72
     1
 10
-56.10809794863337
 20
-9.892343095275976
 11
-57.44402577506105
 21
-9.892343095275976
 72
     1
 10
-57.44402577506105
 20
-9.892343095275976
 11
-57.44402577506105
 21
-9.412458741534266
 72
     1
 10
-57.44402577506105
 20
-9.412458741534266
 11
-56.10809794863337
 21
-9.412458741534266
 72
     1
 10
-56.10809794863337
 20
-9.412458741534266
 11
-56.10809794863337
 21
-8.714445136091285
 72
     1
 10
-56.10809794863337
 20
-8.714445136091285
 11
-59.25841767241437
 21
-8.714445136091285
 97
       12
330
1F7
330
1F1
330
218
330
217
330
216
330
215
330
1F2
330
1F3
330
1F4
330
1F5
330
297
330
1F6
 92
       16
 93
        4
 72
     2
 10
-58.84240562590287
 20
-10.24134989799717
 40
0.7717997786796735
 50
141.8795802028403
 51
218.1204197971561
 73
     1
 72
     2
 10
-59.04214566224917
 20
-10.39808107611759
 40
0.5179085730134382
 50
218.1204197971512
 51
321.8795802028565
 73
     1
 72
     2
 10
-59.24188569859535
 20
-10.24134989799717
 40
0.7717997786796307
 50
321.8795802028435
 51
398.12041979716
 73
     1
 72
     2
 10
-59.04214566224917
 20
-10.08461871987669
 40
0.5179085730135288
 50
38.12041979714365
 51
141.8795802028486
 73
     1
 97
        4
330
2A4
330
2A3
330
29E
330
29D
 75
     1
 76
     0
 52
45.0
 41
0.1
 77
     0
 78
     1
 53
45.0
 43
0.0
 44
0.0
 45
-0.0707106781186548
 46
0.0707106781186548
 79
     0
 98
        1
 10
0.0
 20
0.0
  0
HATCH
  5
2EB
330
71
100
AcDbEntity
  8
1
  6
Continuous
 62
     2
100
AcDbHatch
 10
0.0
 20
0.0
 30
0.0
210
0.0
220
0.0
230
1.0
  2
_USER
 70
     0
 71
     1
 91
        2
 92
        1
 93
       12
 72
     2
 10
-59.25841767241437
 20
-10.24134989799717
 40
1.526904761905884
 50
90.0
 51
270.0
 73
     1
 72
     1
 10
-59.25841767241437
 20
-11.76825465990248
 11
-56.10809794863337
 21
-11.76825465990248
 72
     1
 10
-56.10809794863337
 20
-11.76825465990248
 11
-56.10809794863337
 21
-11.07024105445998
 72
     1
 10
-56.10809794863337
 20
-11.07024105445998
 11
-57.44402577506105
 21
-11.07024105445998
 72
     1
 10
-57.44402577506105
 20
-11.07024105445998
 11
-57.44402577506105
 21
-10.59035670071827
 72
     1
 10
-57.44402577506105
 20
-10.59035670071827
 11
-56.10809794863337
 21
-10.59035670071827
 72
     1
 10
-56.10809794863337
 20
-10.59035670071827
 11
-56.10809794863337
 21
-9.892343095275976
 72
     1
 10
-56.10809794863337
 20
-9.892343095275976
 11
-57.44402577506105
 21
-9.892343095275976
 72
     1
 10
-57.44402577506105
 20
-9.892343095275976
 11
-57.44402577506105
 21
-9.412458741534266
 72
     1
 10
-57.44402577506105
 20
-9.412458741534266
 11
-56.10809794863337
 21
-9.412458741534266
 72
     1
 10
-56.10809794863337
 20
-9.412458741534266
 11
-56.10809794863337
 21
-8.714445136091285
 72
     1
 10
-56.10809794863337
 20
-8.714445136091285
 11
-59.25841767241437
 21
-8.714445136091285
 97
       12
330
1F7
330
1F1
330
218
330
217
330
216
330
215
330
1F2
330
1F3
330
1F4
330
1F5
330
297
330
1F6
 92
       16
 93
        4
 72
     2
 10
-58.84240562590287
 20
-10.24134989799717
 40
0.7717997786796735
 50
141.8795802028403
 51
218.1204197971561
 73
     1
 72
     2
 10
-59.04214566224917
 20
-10.39808107611759
 40
0.5179085730134382
 50
218.1204197971512
 51
321.8795802028565
 73
     1
 72
     2
 10
-59.24188569859535
 20
-10.24134989799717
 40
0.7717997786796307
 50
321.8795802028435
 51
398.12041979716
 73
     1
 72
     2
 10
-59.04214566224917
 20
-10.08461871987669
 40
0.5179085730135288
 50
38.12041979714365
 51
141.8795802028486
 73
     1
 97
        4
330
2A4
330
2A3
330
29E
330
29D
 75
     1
 76
     0
 52
45.0
 41
0.1
 77
     0
 78
     1
 53
45.0
 43
0.0
 44
0.0
 45
-0.0707106781186548
 46
0.0707106781186548
 79
     0
 98
        1
 10
0.0
 20
0.0
  0
HATCH
  5
2EC
330
71
100
AcDbEntity
  8
1
  6
Continuous
 62
     2
100
AcDbHatch
 10
0.0
 20
0.0
 30
0.0
210
0.0
220
0.0
230
1.0
  2
_USER
 70
     0
 71
     1
 91
        2
 92
        1
 93
        4
 72
     2
 10
-63.28403303487596
 20
-13.60054037417149
 40
1.458034083651492
 50
117.5481481756624
 51
242.4518518243375
 73
     1
 72
     2
 10
-63.00309314304266
 20
-13.06196536386818
 40
2.065479772208513
 50
242.4518518243403
 51
297.5481481756868
 73
     1
 72
     2
 10
-62.72215325120936
 20
-13.60054037417149
 40
1.458034083651999
 50
297.5481481757009
 51
422.4518518242992
 73
     1
 72
     2
 10
-63.00309314304266
 20
-14.13911538447428
 40
2.065479772208563
 50
62.45185182430652
 51
117.5481481756664
 73
     1
 97
        4
330
2A2
330
29F
330
2A1
330
2A0
 92
       16
 93
        4
 72
     2
 10
-63.00309314304266
 20
-13.44380919605098
 40
0.5179085730132976
 50
38.12041979714799
 51
141.8795802028579
 73
     1
 72
     2
 10
-62.80335310669656
 20
-13.60054037417149
 40
0.771799778679462
 50
141.8795802028356
 51
218.120419797169
 73
     1
 72
     2
 10
-63.00309314304266
 20
-13.75727155229149
 40
0.5179085730137287
 50
218.1204197971935
 51
321.8795802028007
 73
     1
 72
     2
 10
-63.20283317938907
 20
-13.60054037417149
 40
0.7717997786796835
 50
321.8795802028411
 51
398.1204197971543
 73
     1
 97
        4
330
285
330
286
330
287
330
284
 75
     1
 76
     0
 52
45.0
 41
0.1
 77
     0
 78
     1
 53
45.0
 43
0.0
 44
0.0
 45
-0.0707106781186548
 46
0.0707106781186548
 79
     0
 98
        1
 10
0.0
 20
0.0
  0
HATCH
  5
2ED
330
71
100
AcDbEntity
  8
1
  6
Continuous
 62
     2
100
AcDbHatch
 10
0.0
 20
0.0
 30
0.0
210
0.0
220
0.0
230
1.0
  2
_USER
 70
     0
 71
     1
 91
        2
 92
        1
 93
        4
 72
     2
 10
-63.28403303487596
 20
-13.60054037417149
 40
1.458034083651492
 50
117.5481481756624
 51
242.4518518243375
 73
     1
 72
     2
 10
-63.00309314304266
 20
-13.06196536386818
 40
2.065479772208513
 50
242.4518518243403
 51
297.5481481756868
 73
     1
 72
     2
 10
-62.72215325120936
 20
-13.60054037417149
 40
1.458034083651999
 50
297.5481481757009
 51
422.4518518242992
 73
     1
 72
     2
 10
-63.00309314304266
 20
-14.13911538447428
 40
2.065479772208563
 50
62.45185182430652
 51
117.5481481756664
 73
     1
 97
        4
330
2A2
330
29F
330
2A1
330
2A0
 92
       16
 93
        4
 72
     2
 10
-63.00309314304266
 20
-13.44380919605098
 40
0.5179085730132976
 50
38.12041979714799
 51
141.8795802028579
 73
     1
 72
     2
 10
-62.80335310669656
 20
-13.60054037417149
 40
0.771799778679462
 50
141.8795802028356
 51
218.120419797169
 73
     1
 72
     2
 10
-63.00309314304266
 20
-13.75727155229149
 40
0.5179085730137287
 50
218.1204197971935
 51
321.8795802028007
 73
     1
 72
     2
 10
-63.20283317938907
 20
-13.60054037417149
 40
0.7717997786796835
 50
321.8795802028411
 51
398.1204197971543
 73
     1
 97
        4
330
285
330
286
330
287
330
284
 75
     1
 76
     0
 52
45.0
 41
0.1
 77
     0
 78
     1
 53
45.0
 43
0.0
 44
0.0
 45
-0.0707106781186548
 46
0.0707106781186548
 79
     0
 98
        1
 10
0.0
 20
0.0
  0
HATCH
  5
2EE
330
71
100
AcDbEntity
  8
1
  6
Continuous
 62
     2
100
AcDbHatch
 10
0.0
 20
0.0
 30
0.0
210
0.0
220
0.0
230
1.0
  2
_USER
 70
     0
 71
     1
 91
        2
 92
        1
 93
        6
 72
     1
 10
-67.55890788943617
 20
-8.714445136091285
 11
-67.55890788943617
 21
-11.76825465990248
 72
     1
 10
-67.55890788943617
 20
-11.76825465990248
 11
-66.31840347918205
 21
-11.76825465990248
 72
     1
 10
-66.31840347918205
 20
-11.76825465990248
 11
-66.31840347918205
 21
-10.82517641875867
 72
     1
 10
-66.31840347918205
 20
-10.82517641875867
 11
-65.55963589140177
 21
-10.82517641875867
 72
     2
 10
-65.55963589140177
 20
-9.769810777424965
 40
1.055365641333704
 50
270.0
 51
450.0
 73
     1
 72
     1
 10
-65.55963589140177
 20
-8.714445136091285
 11
-67.55890788943617
 21
-8.714445136091285
 97
        6
330
2AC
330
209
330
1FF
330
1FE
330
20B
330
20A
 92
       16
 93
        4
 72
     1
 10
-66.00110841764015
 20
-9.377550981531385
 11
-66.31840347918205
 21
-9.377550981531385
 72
     1
 10
-66.31840347918205
 20
-9.377550981531385
 11
-66.31840347918205
 21
-10.08327863087359
 72
     1
 10
-66.31840347918205
 20
-10.08327863087359
 11
-66.00110841764015
 21
-10.08327863087359
 72
     2
 10
-66.00110841764015
 20
-9.730414806202475
 40
0.3528638246711147
 50
270.0
 51
450.0
 73
     1
 97
        4
330
20C
330
1FD
330
20D
330
298
 75
     1
 76
     0
 52
45.0
 41
0.1
 77
     0
 78
     1
 53
45.0
 43
0.0
 44
0.0
 45
-0.0707106781186548
 46
0.0707106781186548
 79
     0
 98
        1
 10
0.0
 20
0.0
  0
HATCH
  5
2EF
330
71
100
AcDbEntity
  8
1
  6
Continuous
 62
     2
100
AcDbHatch
 10
0.0
 20
0.0
 30
0.0
210
0.0
220
0.0
230
1.0
  2
_USER
 70
     0
 71
     1
 91
        2
 92
        1
 93
        6
 72
     1
 10
-67.55890788943617
 20
-8.714445136091285
 11
-67.55890788943617
 21
-11.76825465990248
 72
     1
 10
-67.55890788943617
 20
-11.76825465990248
 11
-66.31840347918205
 21
-11.76825465990248
 72
     1
 10
-66.31840347918205
 20
-11.76825465990248
 11
-66.31840347918205
 21
-10.82517641875867
 72
     1
 10
-66.31840347918205
 20
-10.82517641875867
 11
-65.55963589140177
 21
-10.82517641875867
 72
     2
 10
-65.55963589140177
 20
-9.769810777424965
 40
1.055365641333704
 50
270.0
 51
450.0
 73
     1
 72
     1
 10
-65.55963589140177
 20
-8.714445136091285
 11
-67.55890788943617
 21
-8.714445136091285
 97
        6
330
2AC
330
209
330
1FF
330
1FE
330
20B
330
20A
 92
       16
 93
        4
 72
     1
 10
-66.00110841764015
 20
-9.377550981531385
 11
-66.31840347918205
 21
-9.377550981531385
 72
     1
 10
-66.31840347918205
 20
-9.377550981531385
 11
-66.31840347918205
 21
-10.08327863087359
 72
     1
 10
-66.31840347918205
 20
-10.08327863087359
 11
-66.00110841764015
 21
-10.08327863087359
 72
     2
 10
-66.00110841764015
 20
-9.730414806202475
 40
0.3528638246711147
 50
270.0
 51
450.0
 73
     1
 97
        4
330
20C
330
1FD
330
20D
330
298
 75
     1
 76
     0
 52
45.0
 41
0.1
 77
     0
 78
     1
 53
45.0
 43
0.0
 44
0.0
 45
-0.0707106781186548
 46
0.0707106781186548
 79
     0
 98
        1
 10
0.0
 20
0.0
  0
HATCH
  5
2F0
330
71
100
AcDbEntity
  8
1
  6
Continuous
 62
     2
100
AcDbHatch
 10
0.0
 20
0.0
 30
0.0
210
0.0
220
0.0
230
1.0
  2
_USER
 70
     0
 71
     1
 91
        1
 92
        1
 93
       12
 72
     1
 10
-47.94462469500297
 20
-8.714445136091285
 11
-46.54190047725575
 21
-8.714445136091285
 72
     1
 10
-46.54190047725575
 20
-8.714445136091285
 11
-47.84443010802227
 21
-10.18739566612749
 72
     1
 10
-47.84443010802227
 20
-10.18739566612749
 11
-46.44647706108196
 21
-11.76825465990248
 72
     1
 10
-46.44647706108196
 20
-11.76825465990248
 11
-47.84920127883027
 21
-11.76825465990248
 72
     1
 10
-47.84920127883027
 20
-11.76825465990248
 11
-48.54579221689576
 21
-10.98052287460877
 72
     1
 10
-48.54579221689576
 20
-10.98052287460877
 11
-49.24238315496146
 21
-11.76825465990248
 72
     1
 10
-49.24238315496146
 20
-11.76825465990248
 11
-50.64510737270967
 21
-11.76825465990248
 72
     1
 10
-50.64510737270967
 20
-11.76825465990248
 11
-49.24715432576937
 21
-10.18739566612749
 72
     1
 10
-49.24715432576937
 20
-10.18739566612749
 11
-50.54968395653685
 21
-8.714445136091285
 72
     1
 10
-50.54968395653685
 20
-8.714445136091285
 11
-49.14695973878756
 21
-8.714445136091285
 72
     1
 10
-49.14695973878756
 20
-8.714445136091285
 11
-48.54579221689576
 21
-9.394268457646774
 72
     1
 10
-48.54579221689576
 20
-9.394268457646774
 11
-47.94462469500297
 21
-8.714445136091285
 97
       12
330
1D8
330
231
330
230
330
22F
330
22E
330
1D9
330
1DA
330
1D6
330
1D7
330
234
330
233
330
232
 75
     1
 76
     0
 52
45.0
 41
0.1
 77
     0
 78
     1
 53
45.0
 43
0.0
 44
0.0
 45
-0.0707106781186548
 46
0.0707106781186548
 79
     0
 98
        1
 10
0.0
 20
0.0
  0
HATCH
  5
2F1
330
71
100
AcDbEntity
  8
1
  6
Continuous
 62
     2
100
AcDbHatch
 10
0.0
 20
0.0
 30
0.0
210
0.0
220
0.0
230
1.0
  2
_USER
 70
     0
 71
     1
 91
        1
 92
        1
 93
       12
 72
     1
 10
-47.94462469500297
 20
-8.714445136091285
 11
-46.54190047725575
 21
-8.714445136091285
 72
     1
 10
-46.54190047725575
 20
-8.714445136091285
 11
-47.84443010802227
 21
-10.18739566612749
 72
     1
 10
-47.84443010802227
 20
-10.18739566612749
 11
-46.44647706108196
 21
-11.76825465990248
 72
     1
 10
-46.44647706108196
 20
-11.76825465990248
 11
-47.84920127883027
 21
-11.76825465990248
 72
     1
 10
-47.84920127883027
 20
-11.76825465990248
 11
-48.54579221689576
 21
-10.98052287460877
 72
     1
 10
-48.54579221689576
 20
-10.98052287460877
 11
-49.24238315496146
 21
-11.76825465990248
 72
     1
 10
-49.24238315496146
 20
-11.76825465990248
 11
-50.64510737270967
 21
-11.76825465990248
 72
     1
 10
-50.64510737270967
 20
-11.76825465990248
 11
-49.24715432576937
 21
-10.18739566612749
 72
     1
 10
-49.24715432576937
 20
-10.18739566612749
 11
-50.54968395653685
 21
-8.714445136091285
 72
     1
 10
-50.54968395653685
 20
-8.714445136091285
 11
-49.14695973878756
 21
-8.714445136091285
 72
     1
 10
-49.14695973878756
 20
-8.714445136091285
 11
-48.54579221689576
 21
-9.394268457646774
 72
     1
 10
-48.54579221689576
 20
-9.394268457646774
 11
-47.94462469500297
 21
-8.714445136091285
 97
       12
330
1D8
330
231
330
230
330
22F
330
22E
330
1D9
330
1DA
330
1D6
330
1D7
330
234
330
233
330
232
 75
     1
 76
     0
 52
45.0
 41
0.1
 77
     0
 78
     1
 53
45.0
 43
0.0
 44
0.0
 45
-0.0707106781186548
 46
0.0707106781186548
 79
     0
 98
        1
 10
0.0
 20
0.0
  0
HATCH
  5
2F2
330
71
100
AcDbEntity
  8
1
  6
Continuous
 62
     2
100
AcDbHatch
 10
0.0
 20
0.0
 30
0.0
210
0.0
220
0.0
230
1.0
  2
_USER
 70
     0
 71
     1
 91
        1
 92
        1
 93
        4
 72
     1
 10
-50.76438664292655
 20
-8.714445136091285
 11
-50.76438664292655
 21
-11.76825465990248
 72
     1
 10
-50.76438664292655
 20
-11.76825465990248
 11
-52.00489105317945
 21
-11.76825465990248
 72
     1
 10
-52.00489105317945
 20
-11.76825465990248
 11
-52.00489105317945
 21
-8.714445136091285
 72
     1
 10
-52.00489105317945
 20
-8.714445136091285
 11
-50.76438664292655
 21
-8.714445136091285
 97
        4
330
22C
330
1DB
330
22B
330
22D
 75
     1
 76
     0
 52
45.0
 41
0.1
 77
     0
 78
     1
 53
45.0
 43
0.0
 44
0.0
 45
-0.0707106781186548
 46
0.0707106781186548
 79
     0
 98
        1
 10
0.0
 20
0.0
  0
HATCH
  5
2F3
330
71
100
AcDbEntity
  8
1
  6
Continuous
 62
     2
100
AcDbHatch
 10
0.0
 20
0.0
 30
0.0
210
0.0
220
0.0
230
1.0
  2
_USER
 70
     0
 71
     1
 91
        1
 92
        1
 93
        4
 72
     1
 10
-50.76438664292655
 20
-8.714445136091285
 11
-50.76438664292655
 21
-11.76825465990248
 72
     1
 10
-50.76438664292655
 20
-11.76825465990248
 11
-52.00489105317945
 21
-11.76825465990248
 72
     1
 10
-52.00489105317945
 20
-11.76825465990248
 11
-52.00489105317945
 21
-8.714445136091285
 72
     1
 10
-52.00489105317945
 20
-8.714445136091285
 11
-50.76438664292655
 21
-8.714445136091285
 97
        4
330
22C
330
1DB
330
22B
330
22D
 75
     1
 76
     0
 52
45.0
 41
0.1
 77
     0
 78
     1
 53
45.0
 43
0.0
 44
0.0
 45
-0.0707106781186548
 46
0.0707106781186548
 79
     0
 98
        1
 10
0.0
 20
0.0
  0
HATCH
  5
2F4
330
71
100
AcDbEntity
  8
1
  6
Continuous
 62
     2
100
AcDbHatch
 10
0.0
 20
0.0
 30
0.0
210
0.0
220
0.0
230
1.0
  2
_USER
 70
     0
 71
     1
 91
        2
 92
        1
 93
        8
 72
     1
 10
-51.15483064645855
 20
-15.12744513607677
 11
-52.39533505671247
 21
-15.12744513607677
 72
     1
 10
-52.39533505671247
 20
-15.12744513607677
 11
-52.60681511018825
 21
-14.58648459185889
 72
     1
 10
-52.60681511018825
 20
-14.58648459185889
 11
-53.73925668686206
 21
-14.58648459185889
 72
     1
 10
-53.73925668686206
 20
-14.58648459185889
 11
-53.95073674033787
 21
-15.12744513607677
 72
     1
 10
-53.95073674033787
 20
-15.12744513607677
 11
-55.19124115059086
 21
-15.12744513607677
 72
     1
 10
-55.19124115059086
 20
-15.12744513607677
 11
-53.79328810365155
 21
-12.07363561226569
 72
     1
 10
-53.79328810365155
 20
-12.07363561226569
 11
-52.55278369339885
 21
-12.07363561226569
 72
     1
 10
-52.55278369339885
 20
-12.07363561226569
 11
-51.15483064645855
 21
-15.12744513607677
 97
        8
330
227
330
1E1
330
226
330
229
330
1DE
330
228
330
1DF
330
1E0
 92
       16
 93
        3
 72
     1
 10
-53.47320113571706
 20
-13.90592132655229
 11
-52.87287066133456
 21
-13.90592132655229
 72
     1
 10
-52.87287066133456
 20
-13.90592132655229
 11
-53.17303589852466
 21
-13.13810636056559
 72
     1
 10
-53.17303589852466
 20
-13.13810636056559
 11
-53.47320113571706
 21
-13.90592132655229
 97
        3
330
1DD
330
1DC
330
22A
 75
     1
 76
     0
 52
45.0
 41
0.1
 77
     0
 78
     1
 53
45.0
 43
0.0
 44
0.0
 45
-0.0707106781186548
 46
0.0707106781186548
 79
     0
 98
        1
 10
0.0
 20
0.0
  0
HATCH
  5
2F5
330
71
100
AcDbEntity
  8
1
  6
Continuous
 62
     2
100
AcDbHatch
 10
0.0
 20
0.0
 30
0.0
210
0.0
220
0.0
230
1.0
  2
_USER
 70
     0
 71
     1
 91
        2
 92
        1
 93
        8
 72
     1
 10
-51.15483064645855
 20
-15.12744513607677
 11
-52.39533505671247
 21
-15.12744513607677
 72
     1
 10
-52.39533505671247
 20
-15.12744513607677
 11
-52.60681511018825
 21
-14.58648459185889
 72
     1
 10
-52.60681511018825
 20
-14.58648459185889
 11
-53.73925668686206
 21
-14.58648459185889
 72
     1
 10
-53.73925668686206
 20
-14.58648459185889
 11
-53.95073674033787
 21
-15.12744513607677
 72
     1
 10
-53.95073674033787
 20
-15.12744513607677
 11
-55.19124115059086
 21
-15.12744513607677
 72
     1
 10
-55.19124115059086
 20
-15.12744513607677
 11
-53.79328810365155
 21
-12.07363561226569
 72
     1
 10
-53.79328810365155
 20
-12.07363561226569
 11
-52.55278369339885
 21
-12.07363561226569
 72
     1
 10
-52.55278369339885
 20
-12.07363561226569
 11
-51.15483064645855
 21
-15.12744513607677
 97
        8
330
227
330
1E1
330
226
330
229
330
1DE
330
228
330
1DF
330
1E0
 92
       16
 93
        3
 72
     1
 10
-53.47320113571706
 20
-13.90592132655229
 11
-52.87287066133456
 21
-13.90592132655229
 72
     1
 10
-52.87287066133456
 20
-13.90592132655229
 11
-53.17303589852466
 21
-13.13810636056559
 72
     1
 10
-53.17303589852466
 20
-13.13810636056559
 11
-53.47320113571706
 21
-13.90592132655229
 97
        3
330
1DD
330
1DC
330
22A
 75
     1
 76
     0
 52
45.0
 41
0.1
 77
     0
 78
     1
 53
45.0
 43
0.0
 44
0.0
 45
-0.0707106781186548
 46
0.0707106781186548
 79
     0
 98
        1
 10
0.0
 20
0.0
  0
HATCH
  5
2F6
330
71
100
AcDbEntity
  8
1
  6
Continuous
 62
     2
100
AcDbHatch
 10
0.0
 20
0.0
 30
0.0
210
0.0
220
0.0
230
1.0
  2
_USER
 70
     0
 71
     1
 91
        1
 92
        1
 93
        8
 72
     1
 10
-57.34875328977307
 20
-12.07363561226569
 11
-57.34875328977307
 21
-12.85890091838928
 72
     1
 10
-57.34875328977307
 20
-12.85890091838928
 11
-56.53765425229847
 21
-12.85890091838928
 72
     1
 10
-56.53765425229847
 20
-12.85890091838928
 11
-56.53765425229847
 21
-15.12744513607677
 72
     1
 10
-56.53765425229847
 20
-15.12744513607677
 11
-55.34486155013195
 21
-15.12744513607677
 72
     1
 10
-55.34486155013195
 20
-15.12744513607677
 11
-55.34486155013195
 21
-12.85890091838928
 72
     1
 10
-55.34486155013195
 20
-12.85890091838928
 11
-54.53376251265945
 21
-12.85890091838928
 72
     1
 10
-54.53376251265945
 20
-12.85890091838928
 11
-54.53376251265945
 21
-12.07363561226569
 72
     1
 10
-54.53376251265945
 20
-12.07363561226569
 11
-57.34875328977307
 21
-12.07363561226569
 97
        8
330
223
330
222
330
221
330
1E2
330
1E3
330
225
330
1E4
330
224
 75
     1
 76
     0
 52
45.0
 41
0.1
 77
     0
 78
     1
 53
45.0
 43
0.0
 44
0.0
 45
-0.0707106781186548
 46
0.0707106781186548
 79
     0
 98
        1
 10
0.0
 20
0.0
  0
HATCH
  5
2F7
330
71
100
AcDbEntity
  8
1
  6
Continuous
 62
     2
100
AcDbHatch
 10
0.0
 20
0.0
 30
0.0
210
0.0
220
0.0
230
1.0
  2
_USER
 70
     0
 71
     1
 91
        1
 92
        1
 93
        8
 72
     1
 10
-57.34875328977307
 20
-12.07363561226569
 11
-57.34875328977307
 21
-12.85890091838928
 72
     1
 10
-57.34875328977307
 20
-12.85890091838928
 11
-56.53765425229847
 21
-12.85890091838928
 72
     1
 10
-56.53765425229847
 20
-12.85890091838928
 11
-56.53765425229847
 21
-15.12744513607677
 72
     1
 10
-56.53765425229847
 20
-15.12744513607677
 11
-55.34486155013195
 21
-15.12744513607677
 72
     1
 10
-55.34486155013195
 20
-15.12744513607677
 11
-55.34486155013195
 21
-12.85890091838928
 72
     1
 10
-55.34486155013195
 20
-12.85890091838928
 11
-54.53376251265945
 21
-12.85890091838928
 72
     1
 10
-54.53376251265945
 20
-12.85890091838928
 11
-54.53376251265945
 21
-12.07363561226569
 72
     1
 10
-54.53376251265945
 20
-12.07363561226569
 11
-57.34875328977307
 21
-12.07363561226569
 97
        8
330
223
330
222
330
221
330
1E2
330
1E3
330
225
330
1E4
330
224
 75
     1
 76
     0
 52
45.0
 41
0.1
 77
     0
 78
     1
 53
45.0
 43
0.0
 44
0.0
 45
-0.0707106781186548
 46
0.0707106781186548
 79
     0
 98
        1
 10
0.0
 20
0.0
  0
HATCH
  5
2F8
330
71
100
AcDbEntity
  8
1
  6
Continuous
 62
     2
100
AcDbHatch
 10
0.0
 20
0.0
 30
0.0
210
0.0
220
0.0
230
1.0
  2
_USER
 70
     0
 71
     1
 91
        1
 92
        1
 93
       10
 72
     1
 10
-54.67674670603395
 20
-8.714445136091285
 11
-55.86953940820047
 21
-8.714445136091285
 72
     1
 10
-55.86953940820047
 20
-8.714445136091285
 11
-55.86953940820047
 21
-11.76825465990248
 72
     1
 10
-55.86953940820047
 20
-11.76825465990248
 11
-54.67674670603395
 21
-11.76825465990248
 72
     1
 10
-54.67674670603395
 20
-11.76825465990248
 11
-54.67674670603395
 21
-10.45947914969779
 72
     1
 10
-54.67674670603395
 20
-10.45947914969779
 11
-53.43624229577995
 21
-11.76825465990248
 72
     1
 10
-53.43624229577995
 20
-11.76825465990248
 11
-52.24344959361335
 21
-11.76825465990248
 72
     1
 10
-52.24344959361335
 20
-11.76825465990248
 11
-52.24344959361335
 21
-8.714445136091285
 72
     1
 10
-52.24344959361335
 20
-8.714445136091285
 11
-53.43624229577995
 21
-8.714445136091285
 72
     1
 10
-53.43624229577995
 20
-8.714445136091285
 11
-53.43624229577995
 21
-10.02322064629647
 72
     1
 10
-53.43624229577995
 20
-10.02322064629647
 11
-54.67674670603395
 21
-8.714445136091285
 97
       10
330
21D
330
1E7
330
1E8
330
1E9
330
1EA
330
220
330
1E5
330
21F
330
21E
330
1E6
 75
     1
 76
     0
 52
45.0
 41
0.1
 77
     0
 78
     1
 53
45.0
 43
0.0
 44
0.0
 45
-0.0707106781186548
 46
0.0707106781186548
 79
     0
 98
        1
 10
0.0
 20
0.0
  0
HATCH
  5
2F9
330
71
100
AcDbEntity
  8
1
  6
Continuous
 62
     2
100
AcDbHatch
 10
0.0
 20
0.0
 30
0.0
210
0.0
220
0.0
230
1.0
  2
_USER
 70
     0
 71
     1
 91
        1
 92
        1
 93
       10
 72
     1
 10
-54.67674670603395
 20
-8.714445136091285
 11
-55.86953940820047
 21
-8.714445136091285
 72
     1
 10
-55.86953940820047
 20
-8.714445136091285
 11
-55.86953940820047
 21
-11.76825465990248
 72
     1
 10
-55.86953940820047
 20
-11.76825465990248
 11
-54.67674670603395
 21
-11.76825465990248
 72
     1
 10
-54.67674670603395
 20
-11.76825465990248
 11
-54.67674670603395
 21
-10.45947914969779
 72
     1
 10
-54.67674670603395
 20
-10.45947914969779
 11
-53.43624229577995
 21
-11.76825465990248
 72
     1
 10
-53.43624229577995
 20
-11.76825465990248
 11
-52.24344959361335
 21
-11.76825465990248
 72
     1
 10
-52.24344959361335
 20
-11.76825465990248
 11
-52.24344959361335
 21
-8.714445136091285
 72
     1
 10
-52.24344959361335
 20
-8.714445136091285
 11
-53.43624229577995
 21
-8.714445136091285
 72
     1
 10
-53.43624229577995
 20
-8.714445136091285
 11
-53.43624229577995
 21
-10.02322064629647
 72
     1
 10
-53.43624229577995
 20
-10.02322064629647
 11
-54.67674670603395
 21
-8.714445136091285
 97
       10
330
21D
330
1E7
330
1E8
330
1E9
330
1EA
330
220
330
1E5
330
21F
330
21E
330
1E6
 75
     1
 76
     0
 52
45.0
 41
0.1
 77
     0
 78
     1
 53
45.0
 43
0.0
 44
0.0
 45
-0.0707106781186548
 46
0.0707106781186548
 79
     0
 98
        1
 10
0.0
 20
0.0
  0
HATCH
  5
2FA
330
71
100
AcDbEntity
  8
1
  6
Continuous
 62
     2
100
AcDbHatch
 10
0.0
 20
0.0
 30
0.0
210
0.0
220
0.0
230
1.0
  2
_USER
 70
     0
 71
     1
 91
        1
 92
        1
 93
       10
 72
     1
 10
-59.92518552645257
 20
-12.07363561226569
 11
-61.11797822862016
 21
-12.07363561226569
 72
     1
 10
-61.11797822862016
 20
-12.07363561226569
 11
-61.11797822862016
 21
-15.12744513607677
 72
     1
 10
-61.11797822862016
 20
-15.12744513607677
 11
-59.92518552645257
 21
-15.12744513607677
 72
     1
 10
-59.92518552645257
 20
-15.12744513607677
 11
-59.92518552645257
 21
-13.81866962587219
 72
     1
 10
-59.92518552645257
 20
-13.81866962587219
 11
-58.68468111619967
 21
-15.12744513607677
 72
     1
 10
-58.68468111619967
 20
-15.12744513607677
 11
-57.49188841403327
 21
-15.12744513607677
 72
     1
 10
-57.49188841403327
 20
-15.12744513607677
 11
-57.49188841403327
 21
-12.07363561226569
 72
     1
 10
-57.49188841403327
 20
-12.07363561226569
 11
-58.68468111619967
 21
-12.07363561226569
 72
     1
 10
-58.68468111619967
 20
-12.07363561226569
 11
-58.68468111619967
 21
-13.38241112247079
 72
     1
 10
-58.68468111619967
 20
-13.38241112247079
 11
-59.92518552645257
 21
-12.07363561226569
 97
       10
330
1EC
330
1ED
330
1EE
330
21A
330
1EF
330
1F0
330
219
330
21C
330
21B
330
1EB
 75
     1
 76
     0
 52
45.0
 41
0.1
 77
     0
 78
     1
 53
45.0
 43
0.0
 44
0.0
 45
-0.0707106781186548
 46
0.0707106781186548
 79
     0
 98
        1
 10
0.0
 20
0.0
  0
HATCH
  5
2FB
330
71
100
AcDbEntity
  8
1
  6
Continuous
 62
     2
100
AcDbHatch
 10
0.0
 20
0.0
 30
0.0
210
0.0
220
0.0
230
1.0
  2
_USER
 70
     0
 71
     1
 91
        1
 92
        1
 93
       10
 72
     1
 10
-59.92518552645257
 20
-12.07363561226569
 11
-61.11797822862016
 21
-12.07363561226569
 72
     1
 10
-61.11797822862016
 20
-12.07363561226569
 11
-61.11797822862016
 21
-15.12744513607677
 72
     1
 10
-61.11797822862016
 20
-15.12744513607677
 11
-59.92518552645257
 21
-15.12744513607677
 72
     1
 10
-59.92518552645257
 20
-15.12744513607677
 11
-59.92518552645257
 21
-13.81866962587219
 72
     1
 10
-59.92518552645257
 20
-13.81866962587219
 11
-58.68468111619967
 21
-15.12744513607677
 72
     1
 10
-58.68468111619967
 20
-15.12744513607677
 11
-57.49188841403327
 21
-15.12744513607677
 72
     1
 10
-57.49188841403327
 20
-15.12744513607677
 11
-57.49188841403327
 21
-12.07363561226569
 72
     1
 10
-57.49188841403327
 20
-12.07363561226569
 11
-58.68468111619967
 21
-12.07363561226569
 72
     1
 10
-58.68468111619967
 20
-12.07363561226569
 11
-58.68468111619967
 21
-13.38241112247079
 72
     1
 10
-58.68468111619967
 20
-13.38241112247079
 11
-59.92518552645257
 21
-12.07363561226569
 97
       10
330
1EC
330
1ED
330
1EE
330
21A
330
1EF
330
1F0
330
219
330
21C
330
21B
330
1EB
 75
     1
 76
     0
 52
45.0
 41
0.1
 77
     0
 78
     1
 53
45.0
 43
0.0
 44
0.0
 45
-0.0707106781186548
 46
0.0707106781186548
 79
     0
 98
        1
 10
0.0
 20
0.0
  0
HATCH
  5
2FC
330
71
100
AcDbEntity
  8
1
  6
Continuous
 62
     2
100
AcDbHatch
 10
0.0
 20
0.0
 30
0.0
210
0.0
220
0.0
230
1.0
  2
_USER
 70
     0
 71
     1
 91
        1
 92
        1
 93
       12
 72
     1
 10
-60.92698046538797
 20
-8.714445136091285
 11
-60.92698046538797
 21
-11.76825465990248
 72
     1
 10
-60.92698046538797
 20
-11.76825465990248
 11
-62.11977316755437
 21
-11.76825465990248
 72
     1
 10
-62.11977316755437
 20
-11.76825465990248
 11
-62.11977316755437
 21
-10.63398255105867
 72
     1
 10
-62.11977316755437
 20
-10.63398255105867
 11
-63.16943074546185
 21
-10.63398255105867
 72
     1
 10
-63.16943074546185
 20
-10.63398255105867
 11
-63.16943074546185
 21
-11.76825465990248
 72
     1
 10
-63.16943074546185
 20
-11.76825465990248
 11
-64.36222344762845
 21
-11.76825465990248
 72
     1
 10
-64.36222344762845
 20
-11.76825465990248
 11
-64.36222344762845
 21
-8.714445136091285
 72
     1
 10
-64.36222344762845
 20
-8.714445136091285
 11
-63.16943074546185
 21
-8.714445136091285
 72
     1
 10
-63.16943074546185
 20
-8.714445136091285
 11
-63.16943074546185
 21
-9.78327846942588
 72
     1
 10
-63.16943074546185
 20
-9.78327846942588
 11
-62.11977316755437
 21
-9.78327846942588
 72
     1
 10
-62.11977316755437
 20
-9.78327846942588
 11
-62.11977316755437
 21
-8.714445136091285
 72
     1
 10
-62.11977316755437
 20
-8.714445136091285
 11
-60.92698046538797
 21
-8.714445136091285
 97
       12
330
214
330
213
330
212
330
1FA
330
1FB
330
211
330
1FC
330
210
330
20F
330
20E
330
1F8
330
1F9
 75
     1
 76
     0
 52
45.0
 41
0.1
 77
     0
 78
     1
 53
45.0
 43
0.0
 44
0.0
 45
-0.0707106781186548
 46
0.0707106781186548
 79
     0
 98
        1
 10
0.0
 20
0.0
  0
HATCH
  5
2FD
330
71
100
AcDbEntity
  8
1
  6
Continuous
 62
     2
100
AcDbHatch
 10
0.0
 20
0.0
 30
0.0
210
0.0
220
0.0
230
1.0
  2
_USER
 70
     0
 71
     1
 91
        1
 92
        1
 93
       12
 72
     1
 10
-60.92698046538797
 20
-8.714445136091285
 11
-60.92698046538797
 21
-11.76825465990248
 72
     1
 10
-60.92698046538797
 20
-11.76825465990248
 11
-62.11977316755437
 21
-11.76825465990248
 72
     1
 10
-62.11977316755437
 20
-11.76825465990248
 11
-62.11977316755437
 21
-10.63398255105867
 72
     1
 10
-62.11977316755437
 20
-10.63398255105867
 11
-63.16943074546185
 21
-10.63398255105867
 72
     1
 10
-63.16943074546185
 20
-10.63398255105867
 11
-63.16943074546185
 21
-11.76825465990248
 72
     1
 10
-63.16943074546185
 20
-11.76825465990248
 11
-64.36222344762845
 21
-11.76825465990248
 72
     1
 10
-64.36222344762845
 20
-11.76825465990248
 11
-64.36222344762845
 21
-8.714445136091285
 72
     1
 10
-64.36222344762845
 20
-8.714445136091285
 11
-63.16943074546185
 21
-8.714445136091285
 72
     1
 10
-63.16943074546185
 20
-8.714445136091285
 11
-63.16943074546185
 21
-9.78327846942588
 72
     1
 10
-63.16943074546185
 20
-9.78327846942588
 11
-62.11977316755437
 21
-9.78327846942588
 72
     1
 10
-62.11977316755437
 20
-9.78327846942588
 11
-62.11977316755437
 21
-8.714445136091285
 72
     1
 10
-62.11977316755437
 20
-8.714445136091285
 11
-60.92698046538797
 21
-8.714445136091285
 97
       12
330
214
330
213
330
212
330
1FA
330
1FB
330
211
330
1FC
330
210
330
20F
330
20E
330
1F8
330
1F9
 75
     1
 76
     0
 52
45.0
 41
0.1
 77
     0
 78
     1
 53
45.0
 43
0.0
 44
0.0
 45
-0.0707106781186548
 46
0.0707106781186548
 79
     0
 98
        1
 10
0.0
 20
0.0
  0
ENDBLK
  5
73
330
71
100
AcDbEntity
  8
0
100
AcDbBlockEnd
  0
BLOCK
  5
75
330
74
100
AcDbEntity
  8
0
100
AcDbBlockBegin
  2
_punkt
 70
     0
 10
50.95032334840094
 20
-22.42094513609308
 30
0.0
  3
_punkt
  1

  0
LINE
  5
2FE
330
74
100
AcDbEntity
  8
1
  6
Continuous
 62
     2
100
AcDbLine
 10
50.95032334840094
 20
-22.42094513609308
 30
0.0
 11
50.95032334840094
 21
-27.4209451360932
 31
0.0
  0
LINE
  5
2FF
330
74
100
AcDbEntity
  8
1
  6
Continuous
 62
     2
100
AcDbLine
 10
50.95032334840094
 20
-22.42094513609308
 30
0.0
 11
55.95032334839993
 21
-22.42094513609308
 31
0.0
  0
ENDBLK
  5
76
330
74
100
AcDbEntity
  8
0
100
AcDbBlockEnd
  0
BLOCK
  5
7A
330
77
100
AcDbEntity
  8
0
100
AcDbBlockBegin
  2
A4I_CS
 70
     0
 10
50.95032334840094
 20
-27.4209451360932
 30
0.0
  3
A4I_CS
  1

  0
INSERT
  5
78
330
77
100
AcDbEntity
  8
1
100
AcDbBlockReference
  2
_rahmen
 10
50.95032334840094
 20
-27.4209451360932
 30
0.0
  0
INSERT
  5
79
330
77
100
AcDbEntity
  8
1
100
AcDbBlockReference
  2
_punkt
 10
50.95032334840094
 20
-22.42094513609308
 30
0.0
  0
ENDBLK
  5
7B
330
77
100
AcDbEntity
  8
0
100
AcDbBlockEnd
  0
BLOCK
  5
84
330
7C
100
AcDbEntity
  8
0
100
AcDbBlockBegin
  2
1
 70
     0
 10
0.0
 20
0.0
 30
0.0
  3
1
  1

  0
INSERT
  5
7D
330
7C
100
AcDbEntity
  8
0
100
AcDbBlockReference
  2
AllgSicht1
 10
-15.00000000001712
 20
46.0
 30
0.0
  0
INSERT
  5
7E
330
7C
100
AcDbEntity
  8
0
100
AcDbBlockReference
  2
Drfsicht1
 10
-136.0376695087421
 20
51.47821485958949
 30
0.0
  0
INSERT
  5
7F
330
7C
100
AcDbEntity
  8
0
100
AcDbBlockReference
  2
Rckans1
 10
-14.99999999998003
 20
107.282070999995
 30
0.0
  0
INSERT
  5
80
330
7C
100
AcDbEntity
  8
0
100
AcDbBlockReference
  2
SA_Rechts1
 10
-194.0
 20
107.2820709999951
 30
0.0
  0
INSERT
  5
81
330
7C
100
AcDbEntity
  8
0
100
AcDbBlockReference
  2
SA_links1
 10
-92.53767015237395
 20
107.2820713443958
 30
0.0
  0
INSERT
  5
82
330
7C
100
AcDbEntity
  8
0
100
AcDbBlockReference
  2
Vordans1
 10
-136.0376695087422
 20
107.282071344396
 30
0.0
  0
INSERT
  5
83
330
7C
100
AcDbEntity
  8
0
100
AcDbBlockReference
  2
A4I_CS
 10
50.95032334840094
 20
-27.4209451360932
 30
0.0
  0
ENDBLK
  5
85
330
7C
100
AcDbEntity
  8
0
100
AcDbBlockEnd
  0
BLOCK
  5
CA
330
C3
100
AcDbEntity
  8
0
100
AcDbBlockBegin
  2
*D17
 70
     1
 10
0.0
 20
0.0
 30
0.0
  3
*D17
  1

  0
LINE
  5
C4
330
C3
100
AcDbEntity
  8
1
  6
Continuous
 62
     2
100
AcDbLine
 10
-147.47569128621
 20
67.47821526490102
 30
0.0
 11
-147.47569128621
 21
35.47821526490102
 31
0.0
  0
LINE
  5
C5
330
C3
100
AcDbEntity
  8
1
  6
Continuous
 62
     2
100
AcDbLine
 10
-136.0376692704218
 20
67.47821526490102
 30
0.0
 11
-148.97569128621
 21
67.47821526490102
 31
0.0
  0
LINE
  5
C6
330
C3
100
AcDbEntity
  8
1
  6
Continuous
 62
     2
100
AcDbLine
 10
-136.0376692704218
 20
35.47821526490102
 30
0.0
 11
-148.97569128621
 21
35.47821526490102
 31
0.0
  0
SOLID
  5
C7
330
C3
100
AcDbEntity
  8
1
 62
     2
100
AcDbTrace
 10
-147.0149075446541
 20
63.97821526490102
 30
0.0
 11
-147.9364750277659
 21
63.97821526490102
 31
0.0
 12
-147.47569128621
 22
67.47821526490102
 32
0.0
 13
-147.47569128621
 23
67.47821526490102
 33
0.0
  0
SOLID
  5
C8
330
C3
100
AcDbEntity
  8
1
 62
     2
100
AcDbTrace
 10
-147.9364750277659
 20
38.97821526490102
 30
0.0
 11
-147.0149075446541
 21
38.97821526490102
 31
0.0
 12
-147.47569128621
 22
35.47821526490102
 32
0.0
 13
-147.47569128621
 23
35.47821526490102
 33
0.0
  0
MTEXT
  5
C9
330
C3
100
AcDbEntity
  8
1
 62
     3
100
AcDbMText
 10
-148.97569128621
 20
49.59540374162537
 30
0.0
 40
3.5
 41
0.0
 71
     7
 72
     1
  1
32
  7
CONVERTER_11
 11
0.0
 21
1.0
 31
0.0
 73
     1
 44
0.60024009603842
  0
ENDBLK
  5
CB
330
C3
100
AcDbEntity
  8
0
100
AcDbBlockEnd
  0
BLOCK
  5
1B8
330
1AF
100
AcDbEntity
  8
0
100
AcDbBlockBegin
  2
*D18
 70
     1
 10
0.0
 20
0.0
 30
0.0
  3
*D18
  1

  0
LINE
  5
1B0
330
1AF
100
AcDbEntity
  8
1
  6
Continuous
 62
     2
100
AcDbLine
 10
-147.5376692704219
 20
138.361955096808
 30
0.0
 11
-140.5376692704219
 21
138.361955096808
 31
0.0
  0
LINE
  5
1B1
330
1AF
100
AcDbEntity
  8
1
  6
Continuous
 62
     2
100
AcDbLine
 10
-140.5376692704219
 20
138.361955096808
 30
0.0
 11
-131.5376692704219
 21
138.361955096808
 31
0.0
  0
LINE
  5
1B2
330
1AF
100
AcDbEntity
  8
1
  6
Continuous
 62
     2
100
AcDbLine
 10
-131.5376692704219
 20
138.361955096808
 30
0.0
 11
-124.5376692704219
 21
138.361955096808
 31
0.0
  0
LINE
  5
1B3
330
1AF
100
AcDbEntity
  8
1
  6
Continuous
 62
     2
100
AcDbLine
 10
-140.5376692704219
 20
111.7782139285695
 30
0.0
 11
-140.5376692704219
 21
140.361955096808
 31
0.0
  0
LINE
  5
1B4
330
1AF
100
AcDbEntity
  8
1
  6
Continuous
 62
     2
100
AcDbLine
 10
-131.5376692704219
 20
111.7782139285695
 30
0.0
 11
-131.5376692704219
 21
140.361955096808
 31
0.0
  0
SOLID
  5
1B5
330
1AF
100
AcDbEntity
  8
1
 62
     2
100
AcDbTrace
 10
-144.0376692704219
 20
137.9011713552521
 30
0.0
 11
-144.0376692704219
 21
138.8227388383639
 31
0.0
 12
-140.5376692704219
 22
138.361955096808
 32
0.0
 13
-140.5376692704219
 23
138.361955096808
 33
0.0
  0
SOLID
  5
1B6
330
1AF
100
AcDbEntity
  8
1
 62
     2
100
AcDbTrace
 10
-128.0376692704219
 20
138.8227388383639
 30
0.0
 11
-128.0376692704219
 21
137.9011713552521
 31
0.0
 12
-131.5376692704219
 22
138.361955096808
 32
0.0
 13
-131.5376692704219
 23
138.361955096808
 33
0.0
  0
MTEXT
  5
1B7
330
1AF
100
AcDbEntity
  8
1
 62
     3
100
AcDbMText
 10
-137.0876692704219
 20
140.361955096808
 30
0.0
 40
3.5
 41
0.0
 71
     7
 72
     1
  1
9
  7
CONVERTER_11
 11
0.9999999999970619
 21
2.424068405545306E-6
 31
0.0
 73
     1
 44
0.60024009603842
  0
ENDBLK
  5
1B9
330
1AF
100
AcDbEntity
  8
0
100
AcDbBlockEnd
  0
BLOCK
  5
1C3
330
1BC
100
AcDbEntity
  8
0
100
AcDbBlockBegin
  2
*D19
 70
     1
 10
0.0
 20
0.0
 30
0.0
  3
*D19
  1

  0
LINE
  5
1BD
330
1BC
100
AcDbEntity
  8
1
  6
Continuous
 62
     2
100
AcDbLine
 10
-148.2770363911462
 20
127.0859272345124
 30
0.0
 11
-148.2770363911462
 21
87.47821392856962
 31
0.0
  0
LINE
  5
1BE
330
1BC
100
AcDbEntity
  8
1
  6
Continuous
 62
     2
100
AcDbLine
 10
-136.037669270422
 20
127.0859272345124
 30
0.0
 11
-149.7770363911462
 21
127.0859272345124
 31
0.0
  0
LINE
  5
1BF
330
1BC
100
AcDbEntity
  8
1
  6
Continuous
 62
     2
100
AcDbLine
 10
-133.9376692704219
 20
87.47821392856962
 30
0.0
 11
-149.7770363911462
 21
87.47821392856962
 31
0.0
  0
SOLID
  5
1C0
330
1BC
100
AcDbEntity
  8
1
 62
     2
100
AcDbTrace
 10
-147.8162526495903
 20
123.5859272345124
 30
0.0
 11
-148.7378201327021
 21
123.5859272345124
 31
0.0
 12
-148.2770363911462
 22
127.0859272345124
 32
0.0
 13
-148.2770363911462
 23
127.0859272345124
 33
0.0
  0
SOLID
  5
1C1
330
1BC
100
AcDbEntity
  8
1
 62
     2
100
AcDbTrace
 10
-148.7378201327021
 20
90.97821392856962
 30
0.0
 11
-147.8162526495903
 21
90.97821392856962
 31
0.0
 12
-148.2770363911462
 22
87.47821392856962
 32
0.0
 13
-148.2770363911462
 23
87.47821392856962
 33
0.0
  0
MTEXT
  5
1C2
330
1BC
100
AcDbEntity
  8
1
 62
     3
100
AcDbMText
 10
-150.1270363911462
 20
101.419570581541
 30
0.0
 40
3.5
 41
0.0
 71
     7
 72
     1
  1
39,61
  7
CONVERTER_11
 11
0.0
 21
1.0
 31
0.0
 73
     1
 44
0.60024009603842
  0
ENDBLK
  5
1C4
330
1BC
100
AcDbEntity
  8
0
100
AcDbBlockEnd
  0
ENDSEC
  0
SECTION
  2
ENTITIES
  0
INSERT
  5
86
330
1F
100
AcDbEntity
  8
1
100
AcDbBlockReference
  2
1
 10
0.0
 20
0.0
 30
0.0
  0
ENDSEC
  0
SECTION
  2
OBJECTS
  0
DICTIONARY
  5
C
330
0
100
AcDbDictionary
281
     1
  3
ACAD_GROUP
350
D
  3
ACAD_LAYOUT
350
1A
  3
ACAD_MATERIAL
350
3B
  3
ACAD_MLEADERSTYLE
350
327
  3
ACAD_MLINESTYLE
350
17
  3
ACAD_PLOTSETTINGS
350
19
  3
ACAD_PLOTSTYLENAME
350
E
  3
ACAD_TABLESTYLE
350
326
  3
ACAD_VISUALSTYLE
350
2A
  0
DICTIONARY
  5
D
102
{ACAD_REACTORS
330
C
102
}
330
C
100
AcDbDictionary
281
     1
  0
DICTIONARY
  5
1A
102
{ACAD_REACTORS
330
C
102
}
330
C
100
AcDbDictionary
281
     1
  3
Layout1
350
1E
  3
Layout2
350
26
  3
Model
350
22
  0
DICTIONARY
  5
3B
102
{ACAD_REACTORS
330
C
102
}
330
C
100
AcDbDictionary
281
     1
  3
ByBlock
350
3D
  3
ByLayer
350
3C
  3
Global
350
3E
  0
DICTIONARY
  5
327
102
{ACAD_REACTORS
330
C
102
}
330
C
100
AcDbDictionary
281
     1
  0
DICTIONARY
  5
17
102
{ACAD_REACTORS
330
C
102
}
330
C
100
AcDbDictionary
281
     1
  3
Standard
350
18
  0
DICTIONARY
  5
19
102
{ACAD_REACTORS
330
C
102
}
330
C
100
AcDbDictionary
281
     1
  0
ACDBDICTIONARYWDFLT
  5
E
102
{ACAD_REACTORS
330
C
102
}
330
C
100
AcDbDictionary
281
     1
  3
Normal
350
F
100
AcDbDictionaryWithDefault
340
F
  0
DICTIONARY
  5
326
102
{ACAD_REACTORS
330
C
102
}
330
C
100
AcDbDictionary
281
     1
  0
DICTIONARY
  5
2A
102
{ACAD_REACTORS
330
C
102
}
330
C
100
AcDbDictionary
281
     1
  3
2dWireframe
350
2F
  3
3D Hidden
350
31
  3
3dWireframe
350
30
  3
Basic
350
32
  3
Brighten
350
36
  3
ColorChange
350
3A
  3
Conceptual
350
34
  3
Dim
350
35
  3
Facepattern
350
39
  3
Flat
350
2B
  3
FlatWithEdges
350
2C
  3
Gouraud
350
2D
  3
GouraudWithEdges
350
2E
  3
Linepattern
350
38
  3
Realistic
350
33
  3
Thicken
350
37
  0
LAYOUT
  5
1E
102
{ACAD_REACTORS
330
1A
102
}
330
1A
100
AcDbPlotSettings
  1

  2
none_device
  4

  6

 40
0.0
 41
0.0
 42
0.0
 43
0.0
 44
0.0
 45
0.0
 46
0.0
 47
0.0
 48
0.0
 49
0.0
140
0.0
141
0.0
142
1.0
143
1.0
 70
   688
 72
     0
 73
     0
 74
     5
  7

 75
    16
 76
     0
 77
     2
 78
   300
147
1.0
148
0.0
149
0.0
100
AcDbLayout
  1
Layout1
 70
     1
 71
     1
 10
0.0
 20
0.0
 11
12.0
 21
9.0
 12
0.0
 22
0.0
 32
0.0
 14
1.00000000000000E+20
 24
1.00000000000000E+20
 34
1.00000000000000E+20
 15
-1.00000000000000E+20
 25
-1.00000000000000E+20
 35
-1.00000000000000E+20
146
0.0
 13
0.0
 23
0.0
 33
0.0
 16
1.0
 26
0.0
 36
0.0
 17
0.0
 27
1.0
 37
0.0
 76
     0
330
1B
  0
LAYOUT
  5
26
102
{ACAD_REACTORS
330
1A
102
}
330
1A
100
AcDbPlotSettings
  1

  2
none_device
  4

  6

 40
0.0
 41
0.0
 42
0.0
 43
0.0
 44
0.0
 45
0.0
 46
0.0
 47
0.0
 48
0.0
 49
0.0
140
0.0
141
0.0
142
1.0
143
1.0
 70
   688
 72
     0
 73
     0
 74
     5
  7

 75
    16
 76
     0
 77
     2
 78
   300
147
1.0
148
0.0
149
0.0
100
AcDbLayout
  1
Layout2
 70
     1
 71
     2
 10
0.0
 20
0.0
 11
0.0
 21
0.0
 12
0.0
 22
0.0
 32
0.0
 14
0.0
 24
0.0
 34
0.0
 15
0.0
 25
0.0
 35
0.0
146
0.0
 13
0.0
 23
0.0
 33
0.0
 16
1.0
 26
0.0
 36
0.0
 17
0.0
 27
1.0
 37
0.0
 76
     0
330
23
  0
LAYOUT
  5
22
102
{ACAD_REACTORS
330
1A
102
}
330
1A
100
AcDbPlotSettings
  1

  2
none_device
  4

  6

 40
0.0
 41
0.0
 42
0.0
 43
0.0
 44
0.0
 45
0.0
 46
0.0
 47
0.0
 48
0.0
 49
0.0
140
0.0
141
0.0
142
1.0
143
1.0
 70
  1712
 72
     0
 73
     0
 74
     0
  7

 75
     0
 76
     0
 77
     2
 78
   300
147
1.0
148
0.0
149
0.0
100
AcDbLayout
  1
Model
 70
     1
 71
     0
 10
0.0
 20
0.0
 11
12.0
 21
9.0
 12
0.0
 22
0.0
 32
0.0
 14
-241.0496766515981
 24
-27.4209451360932
 34
0.0
 15
55.95032334839993
 25
182.5790548639069
 35
0.0
146
0.0
 13
0.0
 23
0.0
 33
0.0
 16
1.0
 26
0.0
 36
0.0
 17
0.0
 27
1.0
 37
0.0
 76
     0
330
1F
331
29
  0
MATERIAL
  5
3D
102
{ACAD_REACTORS
330
3B
102
}
102
{ACAD_XDICTIONARY
360
322
102
}
330
3B
100
AcDbMaterial
  1
ByBlock
  0
MATERIAL
  5
3C
102
{ACAD_REACTORS
330
3B
102
}
102
{ACAD_XDICTIONARY
360
320
102
}
330
3B
100
AcDbMaterial
  1
ByLayer
  0
MATERIAL
  5
3E
102
{ACAD_REACTORS
330
3B
102
}
102
{ACAD_XDICTIONARY
360
324
102
}
330
3B
100
AcDbMaterial
  1
Global
  0
MLINESTYLE
  5
18
102
{ACAD_REACTORS
330
17
102
}
330
17
100
AcDbMlineStyle
  2
Standard
 70
     0
  3

 62
   256
 51
90.0
 52
90.0
 71
     2
 49
0.5
 62
   256
  6
BYLAYER
 49
-0.5
 62
   256
  6
BYLAYER
  0
ACDBPLACEHOLDER
  5
F
102
{ACAD_REACTORS
330
E
102
}
330
E
  0
VISUALSTYLE
  5
2F
102
{ACAD_REACTORS
330
2A
102
}
102
{ACAD_XDICTIONARY
360
308
102
}
330
2A
100
AcDbVisualStyle
  2
2dWireframe
 70
     4
 71
     0
 72
     2
 73
     0
 90
        0
 40
-0.6
 41
-30.0
 62
     5
 63
     7
421
 16777215
 74
     1
 91
        4
 64
     7
 65
   257
 75
     1
175
     1
 42
1.0
 92
        0
 66
   257
 43
1.0
 76
     1
 77
     6
 78
     2
 67
     7
 79
     5
170
     0
171
     0
290
     0
174
     0
 93
        1
 44
0.0
173
     0
291
     0
 45
0.0
1001
ACAD
1000
AcDbSavedByObjectVersion
1070
     0
  0
VISUALSTYLE
  5
31
102
{ACAD_REACTORS
330
2A
102
}
102
{ACAD_XDICTIONARY
360
30C
102
}
330
2A
100
AcDbVisualStyle
  2
3D Hidden
 70
     6
 71
     1
 72
     2
 73
     2
 90
        0
 40
-0.6
 41
-30.0
 62
     5
 63
     7
421
 16777215
 74
     2
 91
        2
 64
     7
 65
   257
 75
     2
175
     1
 42
40.0
 92
        0
 66
   257
 43
1.0
 76
     1
 77
     6
 78
     2
 67
     7
 79
     3
170
     0
171
     0
290
     0
174
     0
 93
        1
 44
0.0
173
     0
291
     0
 45
0.0
1001
ACAD
1000
AcDbSavedByObjectVersion
1070
     0
  0
VISUALSTYLE
  5
30
102
{ACAD_REACTORS
330
2A
102
}
102
{ACAD_XDICTIONARY
360
30A
102
}
330
2A
100
AcDbVisualStyle
  2
3dWireframe
 70
     5
 71
     0
 72
     2
 73
     0
 90
        0
 40
-0.6
 41
-30.0
 62
     5
 63
     7
421
 16777215
 74
     1
 91
        4
 64
     7
 65
   257
 75
     1
175
     1
 42
1.0
 92
        0
 66
   257
 43
1.0
 76
     1
 77
     6
 78
     2
 67
     7
 79
     5
170
     0
171
     0
290
     0
174
     0
 93
        1
 44
0.0
173
     0
291
     0
 45
0.0
1001
ACAD
1000
AcDbSavedByObjectVersion
1070
     0
  0
VISUALSTYLE
  5
32
102
{ACAD_REACTORS
330
2A
102
}
102
{ACAD_XDICTIONARY
360
30E
102
}
330
2A
100
AcDbVisualStyle
  2
Basic
 70
     7
 71
     1
 72
     0
 73
     1
 90
        0
 40
-0.6
 41
-30.0
 62
     5
 63
     7
421
 16777215
 74
     0
 91
        4
 64
     7
 65
   257
 75
     1
175
     1
 42
1.0
 92
        8
 66
     7
 43
1.0
 76
     1
 77
     6
 78
     2
 67
     7
 79
     5
170
     0
171
     0
290
     0
174
     0
 93
        1
 44
0.0
173
     0
291
     1
 45
0.0
1001
ACAD
1000
AcDbSavedByObjectVersion
1070
     0
  0
VISUALSTYLE
  5
36
102
{ACAD_REACTORS
330
2A
102
}
102
{ACAD_XDICTIONARY
360
316
102
}
330
2A
100
AcDbVisualStyle
  2
Brighten
 70
    12
 71
     2
 72
     2
 73
     0
 90
        0
 40
-0.6
 41
-30.0
 62
     5
 63
     7
421
 16777215
 74
     1
 91
        4
 64
     7
 65
   257
 75
     1
175
     1
 42
1.0
 92
        8
 66
     7
 43
1.0
 76
     1
 77
     6
 78
     2
 67
     7
 79
     5
170
     0
171
     0
290
     0
174
     0
 93
        1
 44
50.0
173
     0
291
     1
 45
0.0
1001
ACAD
1000
AcDbSavedByObjectVersion
1070
     0
  0
VISUALSTYLE
  5
3A
102
{ACAD_REACTORS
330
2A
102
}
102
{ACAD_XDICTIONARY
360
31E
102
}
330
2A
100
AcDbVisualStyle
  2
ColorChange
 70
    16
 71
     2
 72
     2
 73
     3
 90
        0
 40
-0.6
 41
-30.0
 62
     5
 63
     8
421
  8421504
 74
     1
 91
        4
 64
     7
 65
   257
 75
     1
175
     1
 42
1.0
 92
        8
 66
     8
424
  8421504
 43
1.0
 76
     1
 77
     6
 78
     2
 67
     7
 79
     5
170
     0
171
     0
290
     0
174
     0
 93
        1
 44
0.0
173
     0
291
     1
 45
0.0
1001
ACAD
1000
AcDbSavedByObjectVersion
1070
     0
  0
VISUALSTYLE
  5
34
102
{ACAD_REACTORS
330
2A
102
}
102
{ACAD_XDICTIONARY
360
312
102
}
330
2A
100
AcDbVisualStyle
  2
Conceptual
 70
     9
 71
     3
 72
     2
 73
     0
 90
        0
 40
-0.6
 41
-30.0
 62
     5
 63
     7
421
 16777215
 74
     2
 91
        2
 64
     7
 65
   257
 75
     1
175
     1
 42
40.0
 92
        8
 66
     7
 43
1.0
 76
     1
 77
     6
 78
     2
 67
     7
 79
     3
170
     0
171
     0
290
     0
174
     0
 93
        1
 44
0.0
173
     0
291
     0
 45
0.0
1001
ACAD
1000
AcDbSavedByObjectVersion
1070
     0
  0
VISUALSTYLE
  5
35
102
{ACAD_REACTORS
330
2A
102
}
102
{ACAD_XDICTIONARY
360
314
102
}
330
2A
100
AcDbVisualStyle
  2
Dim
 70
    11
 71
     2
 72
     2
 73
     0
 90
        0
 40
-0.6
 41
-30.0
 62
     5
 63
     7
421
 16777215
 74
     1
 91
        4
 64
     7
 65
   257
 75
     1
175
     1
 42
1.0
 92
        8
 66
     7
 43
1.0
 76
     1
 77
     6
 78
     2
 67
     7
 79
     5
170
     0
171
     0
290
     0
174
     0
 93
        1
 44
-50.0
173
     0
291
     1
 45
0.0
1001
ACAD
1000
AcDbSavedByObjectVersion
1070
     0
  0
VISUALSTYLE
  5
39
102
{ACAD_REACTORS
330
2A
102
}
102
{ACAD_XDICTIONARY
360
31C
102
}
330
2A
100
AcDbVisualStyle
  2
Facepattern
 70
    15
 71
     2
 72
     2
 73
     0
 90
        0
 40
-0.6
 41
-30.0
 62
     5
 63
     7
421
 16777215
 74
     1
 91
        4
 64
     7
 65
   257
 75
     1
175
     1
 42
1.0
 92
        8
 66
     7
 43
1.0
 76
     1
 77
     6
 78
     2
 67
     7
 79
     5
170
     0
171
     0
290
     0
174
     0
 93
        1
 44
0.0
173
     0
291
     1
 45
0.0
1001
ACAD
1000
AcDbSavedByObjectVersion
1070
     0
  0
VISUALSTYLE
  5
2B
102
{ACAD_REACTORS
330
2A
102
}
102
{ACAD_XDICTIONARY
360
300
102
}
330
2A
100
AcDbVisualStyle
  2
Flat
 70
     0
 71
     2
 72
     1
 73
     1
 90
        2
 40
-0.6
 41
30.0
 62
     5
 63
     7
421
 16777215
 74
     0
 91
        4
 64
     7
 65
   257
 75
     1
175
     1
 42
1.0
 92
        8
 66
     7
 43
1.0
 76
     1
 77
     6
 78
     2
 67
     7
 79
     5
170
     0
171
     0
290
     0
174
     0
 93
       13
 44
0.0
173
     0
291
     1
 45
0.0
1001
ACAD
1000
AcDbSavedByObjectVersion
1070
     0
  0
VISUALSTYLE
  5
2C
102
{ACAD_REACTORS
330
2A
102
}
102
{ACAD_XDICTIONARY
360
302
102
}
330
2A
100
AcDbVisualStyle
  2
FlatWithEdges
 70
     1
 71
     2
 72
     1
 73
     1
 90
        2
 40
-0.6
 41
30.0
 62
     5
 63
     7
421
 16777215
 74
     1
 91
        4
 64
     7
 65
   257
 75
     1
175
     1
 42
1.0
 92
        0
 66
   257
 43
1.0
 76
     1
 77
     6
 78
     2
 67
     7
 79
     5
170
     0
171
     0
290
     0
174
     0
 93
       13
 44
0.0
173
     0
291
     1
 45
0.0
1001
ACAD
1000
AcDbSavedByObjectVersion
1070
     0
  0
VISUALSTYLE
  5
2D
102
{ACAD_REACTORS
330
2A
102
}
102
{ACAD_XDICTIONARY
360
304
102
}
330
2A
100
AcDbVisualStyle
  2
Gouraud
 70
     2
 71
     2
 72
     2
 73
     1
 90
        2
 40
-0.6
 41
30.0
 62
     5
 63
     7
421
 16777215
 74
     0
 91
        4
 64
     7
 65
   257
 75
     1
175
     1
 42
1.0
 92
        0
 66
     7
 43
1.0
 76
     1
 77
     6
 78
     2
 67
     7
 79
     5
170
     0
171
     0
290
     0
174
     0
 93
       13
 44
0.0
173
     0
291
     1
 45
0.0
1001
ACAD
1000
AcDbSavedByObjectVersion
1070
     0
  0
VISUALSTYLE
  5
2E
102
{ACAD_REACTORS
330
2A
102
}
102
{ACAD_XDICTIONARY
360
306
102
}
330
2A
100
AcDbVisualStyle
  2
GouraudWithEdges
 70
     3
 71
     2
 72
     2
 73
     1
 90
        2
 40
-0.6
 41
30.0
 62
     5
 63
     7
421
 16777215
 74
     1
 91
        4
 64
     7
 65
   257
 75
     1
175
     1
 42
1.0
 92
        0
 66
   257
 43
1.0
 76
     1
 77
     6
 78
     2
 67
     7
 79
     5
170
     0
171
     0
290
     0
174
     0
 93
       13
 44
0.0
173
     0
291
     1
 45
0.0
1001
ACAD
1000
AcDbSavedByObjectVersion
1070
     0
  0
VISUALSTYLE
  5
38
102
{ACAD_REACTORS
330
2A
102
}
102
{ACAD_XDICTIONARY
360
31A
102
}
330
2A
100
AcDbVisualStyle
  2
Linepattern
 70
    14
 71
     2
 72
     2
 73
     0
 90
        0
 40
-0.6
 41
-30.0
 62
     5
 63
     7
421
 16777215
 74
     1
 91
        4
 64
     7
 65
   257
 75
     7
175
     7
 42
1.0
 92
        8
 66
     7
 43
1.0
 76
     1
 77
     6
 78
     2
 67
     7
 79
     5
170
     0
171
     0
290
     0
174
     0
 93
        1
 44
0.0
173
     0
291
     1
 45
0.0
1001
ACAD
1000
AcDbSavedByObjectVersion
1070
     0
  0
VISUALSTYLE
  5
33
102
{ACAD_REACTORS
330
2A
102
}
102
{ACAD_XDICTIONARY
360
310
102
}
330
2A
100
AcDbVisualStyle
  2
Realistic
 70
     8
 71
     2
 72
     2
 73
     0
 90
        0
 40
-0.6
 41
-30.0
 62
     5
 63
     7
421
 16777215
 74
     1
 91
        0
 64
     7
 65
   257
 75
     1
175
     1
 42
1.0
 92
        8
 66
     8
424
  7895160
 43
1.0
 76
     1
 77
     6
 78
     2
 67
     7
 79
     5
170
     0
171
     0
290
     0
174
     0
 93
       13
 44
0.0
173
     0
291
     0
 45
0.0
1001
ACAD
1000
AcDbSavedByObjectVersion
1070
     0
  0
VISUALSTYLE
  5
37
102
{ACAD_REACTORS
330
2A
102
}
102
{ACAD_XDICTIONARY
360
318
102
}
330
2A
100
AcDbVisualStyle
  2
Thicken
 70
    13
 71
     2
 72
     2
 73
     0
 90
        0
 40
-0.6
 41
-30.0
 62
     5
 63
     7
421
 16777215
 74
     1
 91
        4
 64
     7
 65
   257
 75
     1
175
     1
 42
1.0
 92
       12
 66
     7
 43
1.0
 76
     1
 77
     6
 78
     2
 67
     7
 79
     5
170
     0
171
     0
290
     0
174
     0
 93
        1
 44
0.0
173
     0
291
     1
 45
0.0
1001
ACAD
1000
AcDbSavedByObjectVersion
1070
     0
  0
DICTIONARY
  5
322
330
3D
100
AcDbDictionary
280
     1
281
     1
  3
ACAD_XREC_ROUNDTRIP
360
323
  0
DICTIONARY
  5
320
330
3C
100
AcDbDictionary
280
     1
281
     1
  3
ACAD_XREC_ROUNDTRIP
360
321
  0
DICTIONARY
  5
324
330
3E
100
AcDbDictionary
280
     1
281
     1
  3
ACAD_XREC_ROUNDTRIP
360
325
  0
DICTIONARY
  5
308
330
2F
100
AcDbDictionary
280
     1
281
     1
  3
ACAD_XREC_ROUNDTRIP
360
309
  0
DICTIONARY
  5
30C
330
31
100
AcDbDictionary
280
     1
281
     1
  3
ACAD_XREC_ROUNDTRIP
360
30D
  0
DICTIONARY
  5
30A
330
30
100
AcDbDictionary
280
     1
281
     1
  3
ACAD_XREC_ROUNDTRIP
360
30B
  0
DICTIONARY
  5
30E
330
32
100
AcDbDictionary
280
     1
281
     1
  3
ACAD_XREC_ROUNDTRIP
360
30F
  0
DICTIONARY
  5
316
330
36
100
AcDbDictionary
280
     1
281
     1
  3
ACAD_XREC_ROUNDTRIP
360
317
  0
DICTIONARY
  5
31E
330
3A
100
AcDbDictionary
280
     1
281
     1
  3
ACAD_XREC_ROUNDTRIP
360
31F
  0
DICTIONARY
  5
312
330
34
100
AcDbDictionary
280
     1
281
     1
  3
ACAD_XREC_ROUNDTRIP
360
313
  0
DICTIONARY
  5
314
330
35
100
AcDbDictionary
280
     1
281
     1
  3
ACAD_XREC_ROUNDTRIP
360
315
  0
DICTIONARY
  5
31C
330
39
100
AcDbDictionary
280
     1
281
     1
  3
ACAD_XREC_ROUNDTRIP
360
31D
  0
DICTIONARY
  5
300
330
2B
100
AcDbDictionary
280
     1
281
     1
  3
ACAD_XREC_ROUNDTRIP
360
301
  0
DICTIONARY
  5
302
330
2C
100
AcDbDictionary
280
     1
281
     1
  3
ACAD_XREC_ROUNDTRIP
360
303
  0
DICTIONARY
  5
304
330
2D
100
AcDbDictionary
280
     1
281
     1
  3
ACAD_XREC_ROUNDTRIP
360
305
  0
DICTIONARY
  5
306
330
2E
100
AcDbDictionary
280
     1
281
     1
  3
ACAD_XREC_ROUNDTRIP
360
307
  0
DICTIONARY
  5
31A
330
38
100
AcDbDictionary
280
     1
281
     1
  3
ACAD_XREC_ROUNDTRIP
360
31B
  0
DICTIONARY
  5
310
330
33
100
AcDbDictionary
280
     1
281
     1
  3
ACAD_XREC_ROUNDTRIP
360
311
  0
DICTIONARY
  5
318
330
37
100
AcDbDictionary
280
     1
281
     1
  3
ACAD_XREC_ROUNDTRIP
360
319
  0
XRECORD
  5
323
102
{ACAD_REACTORS
330
322
102
}
330
322
100
AcDbXrecord
280
     1
102
MATERIAL
148
0.0
149
0.0
149
0.0
 93
        0
 94
      127
282
     0
 72
     1
 77
     1
171
     1
175
     1
179
     1
273
     0
  0
XRECORD
  5
321
102
{ACAD_REACTORS
330
320
102
}
330
320
100
AcDbXrecord
280
     1
102
MATERIAL
148
0.0
149
0.0
149
0.0
 93
        0
 94
      127
282
     0
 72
     1
 77
     1
171
     1
175
     1
179
     1
273
     0
  0
XRECORD
  5
325
102
{ACAD_REACTORS
330
324
102
}
330
324
100
AcDbXrecord
280
     1
102
MATERIAL
148
0.0
149
0.0
149
0.0
 93
        0
 94
      127
282
     0
 72
     1
 77
     1
171
     1
175
     1
179
     1
273
     0
  0
XRECORD
  5
309
102
{ACAD_REACTORS
330
308
102
}
330
308
100
AcDbXrecord
280
     1
102
RTVSPropertyOp0
 70
     1
102
RTVSPropertyOp1
 70
     1
102
RTVSPropertyOp2
 70
     1
102
RTVSPropertyOp3
 70
     1
102
RTVSPropertyOp4
 70
     1
102
RTVSPropertyOp5
 70
     1
102
RTVSPropertyOp6
 70
     1
102
RTVSPropertyOp7
 70
     1
102
RTVSPropertyOp8
 70
     1
102
RTVSPropertyOp9
 70
     1
102
RTVSPropertyOp10
 70
     1
102
RTVSPropertyOp11
 70
     1
102
RTVSPropertyOp12
 70
     1
102
RTVSPropertyOp13
 70
     1
102
RTVSPropertyOp14
 70
     1
102
RTVSPropertyOp15
 70
     1
102
RTVSPropertyOp16
 70
     1
102
RTVSPropertyOp17
 70
     1
102
RTVSPropertyOp18
 70
     1
102
RTVSPropertyOp19
 70
     1
102
RTVSPropertyOp20
 70
     1
102
RTVSPropertyOp21
 70
     1
102
RTVSPropertyOp22
 70
     1
102
RTVSPropertyOp23
 70
     1
102
RTVSPropertyOp24
 70
     1
102
RTVSPropertyOp25
 70
     1
102
RTVSPropertyOp26
 70
     1
102
RTVSPropertyOp27
 70
     1
102
RTVSPropertyOp28
 70
     1
102
RTVSPropertyOp29
 70
     1
102
RTVSPropertyOp30
 70
     1
102
RTVSPropertyOp31
 70
     1
102
RTVSPropertyOp32
 70
     1
  0
XRECORD
  5
30D
102
{ACAD_REACTORS
330
30C
102
}
330
30C
100
AcDbXrecord
280
     1
102
RTVSPropertyOp0
 70
     1
102
RTVSPropertyOp1
 70
     1
102
RTVSPropertyOp2
 70
     1
102
RTVSPropertyOp3
 70
     1
102
RTVSPropertyOp4
 70
     1
102
RTVSPropertyOp5
 70
     1
102
RTVSPropertyOp6
 70
     1
102
RTVSPropertyOp7
 70
     1
102
RTVSPropertyOp8
 70
     1
102
RTVSPropertyOp9
 70
     1
102
RTVSPropertyOp10
 70
     1
102
RTVSPropertyOp11
 70
     1
102
RTVSPropertyOp12
 70
     1
102
RTVSPropertyOp13
 70
     1
102
RTVSPropertyOp14
 70
     1
102
RTVSPropertyOp15
 70
     1
102
RTVSPropertyOp16
 70
     1
102
RTVSPropertyOp17
 70
     1
102
RTVSPropertyOp18
 70
     1
102
RTVSPropertyOp19
 70
     1
102
RTVSPropertyOp20
 70
     1
102
RTVSPropertyOp21
 70
     1
102
RTVSPropertyOp22
 70
     1
102
RTVSPropertyOp23
 70
     1
102
RTVSPropertyOp24
 70
     1
102
RTVSPropertyOp25
 70
     1
102
RTVSPropertyOp26
 70
     1
102
RTVSPropertyOp27
 70
     1
102
RTVSPropertyOp28
 70
     1
102
RTVSPropertyOp29
 70
     1
102
RTVSPropertyOp30
 70
     1
102
RTVSPropertyOp31
 70
     1
102
RTVSPropertyOp32
 70
     1
  0
XRECORD
  5
30B
102
{ACAD_REACTORS
330
30A
102
}
330
30A
100
AcDbXrecord
280
     1
102
RTVSPropertyOp0
 70
     1
102
RTVSPropertyOp1
 70
     1
102
RTVSPropertyOp2
 70
     1
102
RTVSPropertyOp3
 70
     1
102
RTVSPropertyOp4
 70
     1
102
RTVSPropertyOp5
 70
     1
102
RTVSPropertyOp6
 70
     1
102
RTVSPropertyOp7
 70
     1
102
RTVSPropertyOp8
 70
     1
102
RTVSPropertyOp9
 70
     1
102
RTVSPropertyOp10
 70
     1
102
RTVSPropertyOp11
 70
     1
102
RTVSPropertyOp12
 70
     1
102
RTVSPropertyOp13
 70
     1
102
RTVSPropertyOp14
 70
     1
102
RTVSPropertyOp15
 70
     1
102
RTVSPropertyOp16
 70
     1
102
RTVSPropertyOp17
 70
     1
102
RTVSPropertyOp18
 70
     1
102
RTVSPropertyOp19
 70
     1
102
RTVSPropertyOp20
 70
     1
102
RTVSPropertyOp21
 70
     1
102
RTVSPropertyOp22
 70
     1
102
RTVSPropertyOp23
 70
     1
102
RTVSPropertyOp24
 70
     1
102
RTVSPropertyOp25
 70
     1
102
RTVSPropertyOp26
 70
     1
102
RTVSPropertyOp27
 70
     1
102
RTVSPropertyOp28
 70
     1
102
RTVSPropertyOp29
 70
     1
102
RTVSPropertyOp30
 70
     1
102
RTVSPropertyOp31
 70
     1
102
RTVSPropertyOp32
 70
     1
  0
XRECORD
  5
30F
102
{ACAD_REACTORS
330
30E
102
}
330
30E
100
AcDbXrecord
280
     1
102
RTVSPropertyOp0
 70
     1
102
RTVSPropertyOp1
 70
     1
102
RTVSPropertyOp2
 70
     1
102
RTVSPropertyOp3
 70
     1
102
RTVSPropertyOp4
 70
     1
102
RTVSPropertyOp5
 70
     1
102
RTVSPropertyOp6
 70
     1
102
RTVSPropertyOp7
 70
     1
102
RTVSPropertyOp8
 70
     1
102
RTVSPropertyOp9
 70
     1
102
RTVSPropertyOp10
 70
     1
102
RTVSPropertyOp11
 70
     1
102
RTVSPropertyOp12
 70
     1
102
RTVSPropertyOp13
 70
     1
102
RTVSPropertyOp14
 70
     1
102
RTVSPropertyOp15
 70
     1
102
RTVSPropertyOp16
 70
     1
102
RTVSPropertyOp17
 70
     1
102
RTVSPropertyOp18
 70
     1
102
RTVSPropertyOp19
 70
     1
102
RTVSPropertyOp20
 70
     1
102
RTVSPropertyOp21
 70
     1
102
RTVSPropertyOp22
 70
     1
102
RTVSPropertyOp23
 70
     1
102
RTVSPropertyOp24
 70
     1
102
RTVSPropertyOp25
 70
     1
102
RTVSPropertyOp26
 70
     1
102
RTVSPropertyOp27
 70
     1
102
RTVSPropertyOp28
 70
     1
102
RTVSPropertyOp29
 70
     1
102
RTVSPropertyOp30
 70
     1
102
RTVSPropertyOp31
 70
     1
102
RTVSPropertyOp32
 70
     1
  0
XRECORD
  5
317
102
{ACAD_REACTORS
330
316
102
}
330
316
100
AcDbXrecord
280
     1
102
RTVSPropertyOp0
 70
     1
102
RTVSPropertyOp1
 70
     1
102
RTVSPropertyOp2
 70
     1
102
RTVSPropertyOp3
 70
     1
102
RTVSPropertyOp4
 70
     1
102
RTVSPropertyOp5
 70
     1
102
RTVSPropertyOp6
 70
     1
102
RTVSPropertyOp7
 70
     1
102
RTVSPropertyOp8
 70
     1
102
RTVSPropertyOp9
 70
     1
102
RTVSPropertyOp10
 70
     1
102
RTVSPropertyOp11
 70
     1
102
RTVSPropertyOp12
 70
     1
102
RTVSPropertyOp13
 70
     1
102
RTVSPropertyOp14
 70
     1
102
RTVSPropertyOp15
 70
     1
102
RTVSPropertyOp16
 70
     1
102
RTVSPropertyOp17
 70
     1
102
RTVSPropertyOp18
 70
     1
102
RTVSPropertyOp19
 70
     1
102
RTVSPropertyOp20
 70
     1
102
RTVSPropertyOp21
 70
     1
102
RTVSPropertyOp22
 70
     1
102
RTVSPropertyOp23
 70
     1
102
RTVSPropertyOp24
 70
     1
102
RTVSPropertyOp25
 70
     1
102
RTVSPropertyOp26
 70
     1
102
RTVSPropertyOp27
 70
     1
102
RTVSPropertyOp28
 70
     1
102
RTVSPropertyOp29
 70
     1
102
RTVSPropertyOp30
 70
     1
102
RTVSPropertyOp31
 70
     1
102
RTVSPropertyOp32
 70
     1
  0
XRECORD
  5
31F
102
{ACAD_REACTORS
330
31E
102
}
330
31E
100
AcDbXrecord
280
     1
102
RTVSPropertyOp0
 70
     1
102
RTVSPropertyOp1
 70
     1
102
RTVSPropertyOp2
 70
     1
102
RTVSPropertyOp3
 70
     1
102
RTVSPropertyOp4
 70
     1
102
RTVSPropertyOp5
 70
     1
102
RTVSPropertyOp6
 70
     1
102
RTVSPropertyOp7
 70
     1
102
RTVSPropertyOp8
 70
     1
102
RTVSPropertyOp9
 70
     1
102
RTVSPropertyOp10
 70
     1
102
RTVSPropertyOp11
 70
     1
102
RTVSPropertyOp12
 70
     1
102
RTVSPropertyOp13
 70
     1
102
RTVSPropertyOp14
 70
     1
102
RTVSPropertyOp15
 70
     1
102
RTVSPropertyOp16
 70
     1
102
RTVSPropertyOp17
 70
     1
102
RTVSPropertyOp18
 70
     1
102
RTVSPropertyOp19
 70
     1
102
RTVSPropertyOp20
 70
     1
102
RTVSPropertyOp21
 70
     1
102
RTVSPropertyOp22
 70
     1
102
RTVSPropertyOp23
 70
     1
102
RTVSPropertyOp24
 70
     1
102
RTVSPropertyOp25
 70
     1
102
RTVSPropertyOp26
 70
     1
102
RTVSPropertyOp27
 70
     1
102
RTVSPropertyOp28
 70
     1
102
RTVSPropertyOp29
 70
     1
102
RTVSPropertyOp30
 70
     1
102
RTVSPropertyOp31
 70
     1
102
RTVSPropertyOp32
 70
     1
  0
XRECORD
  5
313
102
{ACAD_REACTORS
330
312
102
}
330
312
100
AcDbXrecord
280
     1
102
RTVSPropertyOp0
 70
     1
102
RTVSPropertyOp1
 70
     1
102
RTVSPropertyOp2
 70
     1
102
RTVSPropertyOp3
 70
     1
102
RTVSPropertyOp4
 70
     1
102
RTVSPropertyOp5
 70
     1
102
RTVSPropertyOp6
 70
     1
102
RTVSPropertyOp7
 70
     1
102
RTVSPropertyOp8
 70
     1
102
RTVSPropertyOp9
 70
     1
102
RTVSPropertyOp10
 70
     1
102
RTVSPropertyOp11
 70
     1
102
RTVSPropertyOp12
 70
     1
102
RTVSPropertyOp13
 70
     1
102
RTVSPropertyOp14
 70
     1
102
RTVSPropertyOp15
 70
     1
102
RTVSPropertyOp16
 70
     1
102
RTVSPropertyOp17
 70
     1
102
RTVSPropertyOp18
 70
     1
102
RTVSPropertyOp19
 70
     1
102
RTVSPropertyOp20
 70
     1
102
RTVSPropertyOp21
 70
     1
102
RTVSPropertyOp22
 70
     1
102
RTVSPropertyOp23
 70
     1
102
RTVSPropertyOp24
 70
     1
102
RTVSPropertyOp25
 70
     1
102
RTVSPropertyOp26
 70
     1
102
RTVSPropertyOp27
 70
     1
102
RTVSPropertyOp28
 70
     1
102
RTVSPropertyOp29
 70
     1
102
RTVSPropertyOp30
 70
     1
102
RTVSPropertyOp31
 70
     1
102
RTVSPropertyOp32
 70
     1
  0
XRECORD
  5
315
102
{ACAD_REACTORS
330
314
102
}
330
314
100
AcDbXrecord
280
     1
102
RTVSPropertyOp0
 70
     1
102
RTVSPropertyOp1
 70
     1
102
RTVSPropertyOp2
 70
     1
102
RTVSPropertyOp3
 70
     1
102
RTVSPropertyOp4
 70
     1
102
RTVSPropertyOp5
 70
     1
102
RTVSPropertyOp6
 70
     1
102
RTVSPropertyOp7
 70
     1
102
RTVSPropertyOp8
 70
     1
102
RTVSPropertyOp9
 70
     1
102
RTVSPropertyOp10
 70
     1
102
RTVSPropertyOp11
 70
     1
102
RTVSPropertyOp12
 70
     1
102
RTVSPropertyOp13
 70
     1
102
RTVSPropertyOp14
 70
     1
102
RTVSPropertyOp15
 70
     1
102
RTVSPropertyOp16
 70
     1
102
RTVSPropertyOp17
 70
     1
102
RTVSPropertyOp18
 70
     1
102
RTVSPropertyOp19
 70
     1
102
RTVSPropertyOp20
 70
     1
102
RTVSPropertyOp21
 70
     1
102
RTVSPropertyOp22
 70
     1
102
RTVSPropertyOp23
 70
     1
102
RTVSPropertyOp24
 70
     1
102
RTVSPropertyOp25
 70
     1
102
RTVSPropertyOp26
 70
     1
102
RTVSPropertyOp27
 70
     1
102
RTVSPropertyOp28
 70
     1
102
RTVSPropertyOp29
 70
     1
102
RTVSPropertyOp30
 70
     1
102
RTVSPropertyOp31
 70
     1
102
RTVSPropertyOp32
 70
     1
  0
XRECORD
  5
31D
102
{ACAD_REACTORS
330
31C
102
}
330
31C
100
AcDbXrecord
280
     1
102
RTVSPropertyOp0
 70
     1
102
RTVSPropertyOp1
 70
     1
102
RTVSPropertyOp2
 70
     1
102
RTVSPropertyOp3
 70
     1
102
RTVSPropertyOp4
 70
     1
102
RTVSPropertyOp5
 70
     1
102
RTVSPropertyOp6
 70
     1
102
RTVSPropertyOp7
 70
     1
102
RTVSPropertyOp8
 70
     1
102
RTVSPropertyOp9
 70
     1
102
RTVSPropertyOp10
 70
     1
102
RTVSPropertyOp11
 70
     1
102
RTVSPropertyOp12
 70
     1
102
RTVSPropertyOp13
 70
     1
102
RTVSPropertyOp14
 70
     1
102
RTVSPropertyOp15
 70
     1
102
RTVSPropertyOp16
 70
     1
102
RTVSPropertyOp17
 70
     1
102
RTVSPropertyOp18
 70
     1
102
RTVSPropertyOp19
 70
     1
102
RTVSPropertyOp20
 70
     1
102
RTVSPropertyOp21
 70
     1
102
RTVSPropertyOp22
 70
     1
102
RTVSPropertyOp23
 70
     1
102
RTVSPropertyOp24
 70
     1
102
RTVSPropertyOp25
 70
     1
102
RTVSPropertyOp26
 70
     1
102
RTVSPropertyOp27
 70
     1
102
RTVSPropertyOp28
 70
     1
102
RTVSPropertyOp29
 70
     1
102
RTVSPropertyOp30
 70
     1
102
RTVSPropertyOp31
 70
     1
102
RTVSPropertyOp32
 70
     1
  0
XRECORD
  5
301
102
{ACAD_REACTORS
330
300
102
}
330
300
100
AcDbXrecord
280
     1
102
RTVSPropertyOp0
 70
     1
102
RTVSPropertyOp1
 70
     1
102
RTVSPropertyOp2
 70
     1
102
RTVSPropertyOp3
 70
     1
102
RTVSPropertyOp4
 70
     1
102
RTVSPropertyOp5
 70
     1
102
RTVSPropertyOp6
 70
     1
102
RTVSPropertyOp7
 70
     1
102
RTVSPropertyOp8
 70
     1
102
RTVSPropertyOp9
 70
     1
102
RTVSPropertyOp10
 70
     1
102
RTVSPropertyOp11
 70
     1
102
RTVSPropertyOp12
 70
     1
102
RTVSPropertyOp13
 70
     1
102
RTVSPropertyOp14
 70
     1
102
RTVSPropertyOp15
 70
     1
102
RTVSPropertyOp16
 70
     1
102
RTVSPropertyOp17
 70
     1
102
RTVSPropertyOp18
 70
     1
102
RTVSPropertyOp19
 70
     1
102
RTVSPropertyOp20
 70
     1
102
RTVSPropertyOp21
 70
     1
102
RTVSPropertyOp22
 70
     1
102
RTVSPropertyOp23
 70
     1
102
RTVSPropertyOp24
 70
     1
102
RTVSPropertyOp25
 70
     1
102
RTVSPropertyOp26
 70
     1
102
RTVSPropertyOp27
 70
     1
102
RTVSPropertyOp28
 70
     1
102
RTVSPropertyOp29
 70
     1
102
RTVSPropertyOp30
 70
     1
102
RTVSPropertyOp31
 70
     1
102
RTVSPropertyOp32
 70
     1
  0
XRECORD
  5
303
102
{ACAD_REACTORS
330
302
102
}
330
302
100
AcDbXrecord
280
     1
102
RTVSPropertyOp0
 70
     1
102
RTVSPropertyOp1
 70
     1
102
RTVSPropertyOp2
 70
     1
102
RTVSPropertyOp3
 70
     1
102
RTVSPropertyOp4
 70
     1
102
RTVSPropertyOp5
 70
     1
102
RTVSPropertyOp6
 70
     1
102
RTVSPropertyOp7
 70
     1
102
RTVSPropertyOp8
 70
     1
102
RTVSPropertyOp9
 70
     1
102
RTVSPropertyOp10
 70
     1
102
RTVSPropertyOp11
 70
     1
102
RTVSPropertyOp12
 70
     1
102
RTVSPropertyOp13
 70
     1
102
RTVSPropertyOp14
 70
     1
102
RTVSPropertyOp15
 70
     1
102
RTVSPropertyOp16
 70
     1
102
RTVSPropertyOp17
 70
     1
102
RTVSPropertyOp18
 70
     1
102
RTVSPropertyOp19
 70
     1
102
RTVSPropertyOp20
 70
     1
102
RTVSPropertyOp21
 70
     1
102
RTVSPropertyOp22
 70
     1
102
RTVSPropertyOp23
 70
     1
102
RTVSPropertyOp24
 70
     1
102
RTVSPropertyOp25
 70
     1
102
RTVSPropertyOp26
 70
     1
102
RTVSPropertyOp27
 70
     1
102
RTVSPropertyOp28
 70
     1
102
RTVSPropertyOp29
 70
     1
102
RTVSPropertyOp30
 70
     1
102
RTVSPropertyOp31
 70
     1
102
RTVSPropertyOp32
 70
     1
  0
XRECORD
  5
305
102
{ACAD_REACTORS
330
304
102
}
330
304
100
AcDbXrecord
280
     1
102
RTVSPropertyOp0
 70
     1
102
RTVSPropertyOp1
 70
     1
102
RTVSPropertyOp2
 70
     1
102
RTVSPropertyOp3
 70
     1
102
RTVSPropertyOp4
 70
     1
102
RTVSPropertyOp5
 70
     1
102
RTVSPropertyOp6
 70
     1
102
RTVSPropertyOp7
 70
     1
102
RTVSPropertyOp8
 70
     1
102
RTVSPropertyOp9
 70
     1
102
RTVSPropertyOp10
 70
     1
102
RTVSPropertyOp11
 70
     1
102
RTVSPropertyOp12
 70
     1
102
RTVSPropertyOp13
 70
     1
102
RTVSPropertyOp14
 70
     1
102
RTVSPropertyOp15
 70
     1
102
RTVSPropertyOp16
 70
     1
102
RTVSPropertyOp17
 70
     1
102
RTVSPropertyOp18
 70
     1
102
RTVSPropertyOp19
 70
     1
102
RTVSPropertyOp20
 70
     1
102
RTVSPropertyOp21
 70
     1
102
RTVSPropertyOp22
 70
     1
102
RTVSPropertyOp23
 70
     1
102
RTVSPropertyOp24
 70
     1
102
RTVSPropertyOp25
 70
     1
102
RTVSPropertyOp26
 70
     1
102
RTVSPropertyOp27
 70
     1
102
RTVSPropertyOp28
 70
     1
102
RTVSPropertyOp29
 70
     1
102
RTVSPropertyOp30
 70
     1
102
RTVSPropertyOp31
 70
     1
102
RTVSPropertyOp32
 70
     1
  0
XRECORD
  5
307
102
{ACAD_REACTORS
330
306
102
}
330
306
100
AcDbXrecord
280
     1
102
RTVSPropertyOp0
 70
     1
102
RTVSPropertyOp1
 70
     1
102
RTVSPropertyOp2
 70
     1
102
RTVSPropertyOp3
 70
     1
102
RTVSPropertyOp4
 70
     1
102
RTVSPropertyOp5
 70
     1
102
RTVSPropertyOp6
 70
     1
102
RTVSPropertyOp7
 70
     1
102
RTVSPropertyOp8
 70
     1
102
RTVSPropertyOp9
 70
     1
102
RTVSPropertyOp10
 70
     1
102
RTVSPropertyOp11
 70
     1
102
RTVSPropertyOp12
 70
     1
102
RTVSPropertyOp13
 70
     1
102
RTVSPropertyOp14
 70
     1
102
RTVSPropertyOp15
 70
     1
102
RTVSPropertyOp16
 70
     1
102
RTVSPropertyOp17
 70
     1
102
RTVSPropertyOp18
 70
     1
102
RTVSPropertyOp19
 70
     1
102
RTVSPropertyOp20
 70
     1
102
RTVSPropertyOp21
 70
     1
102
RTVSPropertyOp22
 70
     1
102
RTVSPropertyOp23
 70
     1
102
RTVSPropertyOp24
 70
     1
102
RTVSPropertyOp25
 70
     1
102
RTVSPropertyOp26
 70
     1
102
RTVSPropertyOp27
 70
     1
102
RTVSPropertyOp28
 70
     1
102
RTVSPropertyOp29
 70
     1
102
RTVSPropertyOp30
 70
     1
102
RTVSPropertyOp31
 70
     1
102
RTVSPropertyOp32
 70
     1
  0
XRECORD
  5
31B
102
{ACAD_REACTORS
330
31A
102
}
330
31A
100
AcDbXrecord
280
     1
102
RTVSPropertyOp0
 70
     1
102
RTVSPropertyOp1
 70
     1
102
RTVSPropertyOp2
 70
     1
102
RTVSPropertyOp3
 70
     1
102
RTVSPropertyOp4
 70
     1
102
RTVSPropertyOp5
 70
     1
102
RTVSPropertyOp6
 70
     1
102
RTVSPropertyOp7
 70
     1
102
RTVSPropertyOp8
 70
     1
102
RTVSPropertyOp9
 70
     1
102
RTVSPropertyOp10
 70
     1
102
RTVSPropertyOp11
 70
     1
102
RTVSPropertyOp12
 70
     1
102
RTVSPropertyOp13
 70
     1
102
RTVSPropertyOp14
 70
     1
102
RTVSPropertyOp15
 70
     1
102
RTVSPropertyOp16
 70
     1
102
RTVSPropertyOp17
 70
     1
102
RTVSPropertyOp18
 70
     1
102
RTVSPropertyOp19
 70
     1
102
RTVSPropertyOp20
 70
     1
102
RTVSPropertyOp21
 70
     1
102
RTVSPropertyOp22
 70
     1
102
RTVSPropertyOp23
 70
     1
102
RTVSPropertyOp24
 70
     1
102
RTVSPropertyOp25
 70
     1
102
RTVSPropertyOp26
 70
     1
102
RTVSPropertyOp27
 70
     1
102
RTVSPropertyOp28
 70
     1
102
RTVSPropertyOp29
 70
     1
102
RTVSPropertyOp30
 70
     1
102
RTVSPropertyOp31
 70
     1
102
RTVSPropertyOp32
 70
     1
  0
XRECORD
  5
311
102
{ACAD_REACTORS
330
310
102
}
330
310
100
AcDbXrecord
280
     1
102
RTVSPropertyOp0
 70
     1
102
RTVSPropertyOp1
 70
     1
102
RTVSPropertyOp2
 70
     1
102
RTVSPropertyOp3
 70
     1
102
RTVSPropertyOp4
 70
     1
102
RTVSPropertyOp5
 70
     1
102
RTVSPropertyOp6
 70
     1
102
RTVSPropertyOp7
 70
     1
102
RTVSPropertyOp8
 70
     1
102
RTVSPropertyOp9
 70
     1
102
RTVSPropertyOp10
 70
     1
102
RTVSPropertyOp11
 70
     1
102
RTVSPropertyOp12
 70
     1
102
RTVSPropertyOp13
 70
     1
102
RTVSPropertyOp14
 70
     1
102
RTVSPropertyOp15
 70
     1
102
RTVSPropertyOp16
 70
     1
102
RTVSPropertyOp17
 70
     1
102
RTVSPropertyOp18
 70
     1
102
RTVSPropertyOp19
 70
     1
102
RTVSPropertyOp20
 70
     1
102
RTVSPropertyOp21
 70
     1
102
RTVSPropertyOp22
 70
     1
102
RTVSPropertyOp23
 70
     1
102
RTVSPropertyOp24
 70
     1
102
RTVSPropertyOp25
 70
     1
102
RTVSPropertyOp26
 70
     1
102
RTVSPropertyOp27
 70
     1
102
RTVSPropertyOp28
 70
     1
102
RTVSPropertyOp29
 70
     1
102
RTVSPropertyOp30
 70
     1
102
RTVSPropertyOp31
 70
     1
102
RTVSPropertyOp32
 70
     1
  0
XRECORD
  5
319
102
{ACAD_REACTORS
330
318
102
}
330
318
100
AcDbXrecord
280
     1
102
RTVSPropertyOp0
 70
     1
102
RTVSPropertyOp1
 70
     1
102
RTVSPropertyOp2
 70
     1
102
RTVSPropertyOp3
 70
     1
102
RTVSPropertyOp4
 70
     1
102
RTVSPropertyOp5
 70
     1
102
RTVSPropertyOp6
 70
     1
102
RTVSPropertyOp7
 70
     1
102
RTVSPropertyOp8
 70
     1
102
RTVSPropertyOp9
 70
     1
102
RTVSPropertyOp10
 70
     1
102
RTVSPropertyOp11
 70
     1
102
RTVSPropertyOp12
 70
     1
102
RTVSPropertyOp13
 70
     1
102
RTVSPropertyOp14
 70
     1
102
RTVSPropertyOp15
 70
     1
102
RTVSPropertyOp16
 70
     1
102
RTVSPropertyOp17
 70
     1
102
RTVSPropertyOp18
 70
     1
102
RTVSPropertyOp19
 70
     1
102
RTVSPropertyOp20
 70
     1
102
RTVSPropertyOp21
 70
     1
102
RTVSPropertyOp22
 70
     1
102
RTVSPropertyOp23
 70
     1
102
RTVSPropertyOp24
 70
     1
102
RTVSPropertyOp25
 70
     1
102
RTVSPropertyOp26
 70
     1
102
RTVSPropertyOp27
 70
     1
102
RTVSPropertyOp28
 70
     1
102
RTVSPropertyOp29
 70
     1
102
RTVSPropertyOp30
 70
     1
102
RTVSPropertyOp31
 70
     1
102
RTVSPropertyOp32
 70
     1
  0
ENDSEC
  0
EOF
