  0
SECTION
  2
HEADER
  9
$ACADVER
  1
AC1018
  9
$ACADMAINTVER
 70
     0
  9
$DWGCODEPAGE
  3
ANSI_1252
  9
$INSBASE
 10
0.0
 20
0.0
 30
0.0
  9
$EXTMIN
 10
-153.5165448640808
 20
-113.7027458884743
 30
0.0
  9
$EXTMAX
 10
143.4834551359173
 20
96.29725411152586
 30
0.0
  9
$LIMMIN
 10
0.0
 20
0.0
  9
$LIMMAX
 10
12.0
 20
9.0
  9
$ORTHOMODE
 70
     0
  9
$REGENMODE
 70
     1
  9
$FILLMODE
 70
     1
  9
$QTEXTMODE
 70
     0
  9
$MIRRTEXT
 70
     1
  9
$LTSCALE
 40
1.0
  9
$ATTMODE
 70
     1
  9
$TEXTSIZE
 40
0.2
  9
$TRACEWID
 40
0.05
  9
$TEXTSTYLE
  7
Standard
  9
$CLAYER
  8
0
  9
$CELTYPE
  6
ByLayer
  9
$CECOLOR
 62
   256
  9
$CELTSCALE
 40
1.0
  9
$DISPSILH
 70
     0
  9
$DIMSCALE
 40
1.0
  9
$DIMASZ
 40
0.18
  9
$DIMEXO
 40
0.0625
  9
$DIMDLI
 40
0.38
  9
$DIMRND
 40
0.0
  9
$DIMDLE
 40
0.0
  9
$DIMEXE
 40
0.18
  9
$DIMTP
 40
0.0
  9
$DIMTM
 40
0.0
  9
$DIMTXT
 40
0.18
  9
$DIMCEN
 40
0.09
  9
$DIMTSZ
 40
0.0
  9
$DIMTOL
 70
     0
  9
$DIMLIM
 70
     0
  9
$DIMTIH
 70
     1
  9
$DIMTOH
 70
     1
  9
$DIMSE1
 70
     0
  9
$DIMSE2
 70
     0
  9
$DIMTAD
 70
     0
  9
$DIMZIN
 70
     0
  9
$DIMBLK
  1

  9
$DIMASO
 70
     1
  9
$DIMSHO
 70
     1
  9
$DIMPOST
  1

  9
$DIMAPOST
  1

  9
$DIMALT
 70
     0
  9
$DIMALTD
 70
     2
  9
$DIMALTF
 40
25.4
  9
$DIMLFAC
 40
1.0
  9
$DIMTOFL
 70
     0
  9
$DIMTVP
 40
0.0
  9
$DIMTIX
 70
     0
  9
$DIMSOXD
 70
     0
  9
$DIMSAH
 70
     0
  9
$DIMBLK1
  1

  9
$DIMBLK2
  1

  9
$DIMSTYLE
  2
Standard
  9
$DIMCLRD
 70
     0
  9
$DIMCLRE
 70
     0
  9
$DIMCLRT
 70
     0
  9
$DIMTFAC
 40
1.0
  9
$DIMGAP
 40
0.09
  9
$DIMJUST
 70
     0
  9
$DIMSD1
 70
     0
  9
$DIMSD2
 70
     0
  9
$DIMTOLJ
 70
     1
  9
$DIMTZIN
 70
     0
  9
$DIMALTZ
 70
     0
  9
$DIMALTTZ
 70
     0
  9
$DIMUPT
 70
     0
  9
$DIMDEC
 70
     4
  9
$DIMTDEC
 70
     4
  9
$DIMALTU
 70
     2
  9
$DIMALTTD
 70
     2
  9
$DIMTXSTY
  7
Standard
  9
$DIMAUNIT
 70
     0
  9
$DIMADEC
 70
     0
  9
$DIMALTRND
 40
0.0
  9
$DIMAZIN
 70
     0
  9
$DIMDSEP
 70
    46
  9
$DIMATFIT
 70
     3
  9
$DIMFRAC
 70
     0
  9
$DIMLDRBLK
  1

  9
$DIMLUNIT
 70
     2
  9
$DIMLWD
 70
    -2
  9
$DIMLWE
 70
    -2
  9
$DIMTMOVE
 70
     0
  9
$LUNITS
 70
     2
  9
$LUPREC
 70
     4
  9
$SKETCHINC
 40
0.1
  9
$FILLETRAD
 40
0.5
  9
$AUNITS
 70
     0
  9
$AUPREC
 70
     0
  9
$MENU
  1
.
  9
$ELEVATION
 40
0.0
  9
$PELEVATION
 40
0.0
  9
$THICKNESS
 40
0.0
  9
$LIMCHECK
 70
     0
  9
$CHAMFERA
 40
0.5
  9
$CHAMFERB
 40
0.5
  9
$CHAMFERC
 40
1.0
  9
$CHAMFERD
 40
0.0
  9
$SKPOLY
 70
     0
  9
$TDCREATE
 40
2458146.456792569
  9
$TDUCREATE
 40
2458146.415125903
  9
$TDUPDATE
 40
2458146.456793114
  9
$TDUUPDATE
 40
2458146.415126447
  9
$TDINDWG
 40
0.0000000116
  9
$TDUSRTIMER
 40
0.0000000116
  9
$USRTIMER
 70
     1
  9
$ANGBASE
 50
0.0
  9
$ANGDIR
 70
     0
  9
$PDMODE
 70
     0
  9
$PDSIZE
 40
0.0
  9
$PLINEWID
 40
0.0
  9
$SPLFRAME
 70
     0
  9
$SPLINETYPE
 70
     6
  9
$SPLINESEGS
 70
     8
  9
$HANDSEED
  5
2DE
  9
$SURFTAB1
 70
     6
  9
$SURFTAB2
 70
     6
  9
$SURFTYPE
 70
     6
  9
$SURFU
 70
     6
  9
$SURFV
 70
     6
  9
$UCSBASE
  2

  9
$UCSNAME
  2

  9
$UCSORG
 10
0.0
 20
0.0
 30
0.0
  9
$UCSXDIR
 10
1.0
 20
0.0
 30
0.0
  9
$UCSYDIR
 10
0.0
 20
1.0
 30
0.0
  9
$UCSORTHOREF
  2

  9
$UCSORTHOVIEW
 70
     0
  9
$UCSORGTOP
 10
0.0
 20
0.0
 30
0.0
  9
$UCSORGBOTTOM
 10
0.0
 20
0.0
 30
0.0
  9
$UCSORGLEFT
 10
0.0
 20
0.0
 30
0.0
  9
$UCSORGRIGHT
 10
0.0
 20
0.0
 30
0.0
  9
$UCSORGFRONT
 10
0.0
 20
0.0
 30
0.0
  9
$UCSORGBACK
 10
0.0
 20
0.0
 30
0.0
  9
$PUCSBASE
  2

  9
$PUCSNAME
  2

  9
$PUCSORG
 10
0.0
 20
0.0
 30
0.0
  9
$PUCSXDIR
 10
1.0
 20
0.0
 30
0.0
  9
$PUCSYDIR
 10
0.0
 20
1.0
 30
0.0
  9
$PUCSORTHOREF
  2

  9
$PUCSORTHOVIEW
 70
     0
  9
$PUCSORGTOP
 10
0.0
 20
0.0
 30
0.0
  9
$PUCSORGBOTTOM
 10
0.0
 20
0.0
 30
0.0
  9
$PUCSORGLEFT
 10
0.0
 20
0.0
 30
0.0
  9
$PUCSORGRIGHT
 10
0.0
 20
0.0
 30
0.0
  9
$PUCSORGFRONT
 10
0.0
 20
0.0
 30
0.0
  9
$PUCSORGBACK
 10
0.0
 20
0.0
 30
0.0
  9
$USERI1
 70
     0
  9
$USERI2
 70
     0
  9
$USERI3
 70
     0
  9
$USERI4
 70
     0
  9
$USERI5
 70
     0
  9
$USERR1
 40
18.1
  9
$USERR2
 40
0.0
  9
$USERR3
 40
0.0
  9
$USERR4
 40
0.0
  9
$USERR5
 40
0.0
  9
$WORLDVIEW
 70
     1
  9
$SHADEDGE
 70
     3
  9
$SHADEDIF
 70
    70
  9
$TILEMODE
 70
     1
  9
$MAXACTVP
 70
    64
  9
$PINSBASE
 10
0.0
 20
0.0
 30
0.0
  9
$PLIMCHECK
 70
     0
  9
$PEXTMIN
 10
1.00000000000000E+20
 20
1.00000000000000E+20
 30
1.00000000000000E+20
  9
$PEXTMAX
 10
-1.00000000000000E+20
 20
-1.00000000000000E+20
 30
-1.00000000000000E+20
  9
$PLIMMIN
 10
0.0
 20
0.0
  9
$PLIMMAX
 10
12.0
 20
9.0
  9
$UNITMODE
 70
     0
  9
$VISRETAIN
 70
     1
  9
$PLINEGEN
 70
     0
  9
$PSLTSCALE
 70
     1
  9
$TREEDEPTH
 70
  3020
  9
$CMLSTYLE
  2
Standard
  9
$CMLJUST
 70
     0
  9
$CMLSCALE
 40
1.0
  9
$PROXYGRAPHICS
 70
     1
  9
$MEASUREMENT
 70
     1
  9
$CELWEIGHT
370
    -1
  9
$ENDCAPS
280
     0
  9
$JOINSTYLE
280
     0
  9
$LWDISPLAY
290
     0
  9
$INSUNITS
 70
     4
  9
$HYPERLINKBASE
  1

  9
$STYLESHEET
  1

  9
$XEDIT
290
     1
  9
$CEPSNTYPE
380
     0
  9
$PSTYLEMODE
290
     1
  9
$FINGERPRINTGUID
  2
{8DA4A2E8-1BF0-41ED-9586-2A21C543C647}
  9
$VERSIONGUID
  2
{FAEB1C32-E019-11D5-929B-00C0DF256EC4}
  9
$EXTNAMES
290
     1
  9
$PSVPSCALE
 40
0.0
  9
$OLESTARTUP
290
     0
  9
$SORTENTS
280
   127
  9
$INDEXCTL
280
     0
  9
$HIDETEXT
280
     1
  9
$XCLIPFRAME
290
     0
  9
$HALOGAP
280
     0
  9
$OBSCOLOR
 70
   257
  9
$OBSLTYPE
280
     0
  9
$INTERSECTIONDISPLAY
280
     0
  9
$INTERSECTIONCOLOR
 70
   257
  9
$DIMASSOC
280
     2
  9
$PROJECTNAME
  1

  0
ENDSEC
  0
SECTION
  2
CLASSES
  0
CLASS
  1
ACDBDICTIONARYWDFLT
  2
AcDbDictionaryWithDefault
  3
ObjectDBX Classes
 90
        0
 91
        4
280
     0
281
     0
  0
CLASS
  1
VISUALSTYLE
  2
AcDbVisualStyle
  3
ObjectDBX Classes
 90
     4095
 91
        4
280
     0
281
     0
  0
CLASS
  1
MATERIAL
  2
AcDbMaterial
  3
ObjectDBX Classes
 90
     1153
 91
        4
280
     0
281
     0
  0
ENDSEC
  0
SECTION
  2
TABLES
  0
TABLE
  2
VPORT
  5
8
330
0
100
AcDbSymbolTable
 70
     1
  0
VPORT
  5
29
330
8
100
AcDbSymbolTableRecord
100
AcDbViewportTableRecord
  2
*Active
 70
     0
 10
0.0
 20
0.0
 11
1.0
 21
1.0
 12
-5.01654486408175
 22
-8.70274588847422
 13
0.0
 23
0.0
 14
0.5
 24
0.5
 15
0.5
 25
0.5
 16
0.0
 26
0.0
 36
1.0
 17
0.0
 27
0.0
 37
0.0
 40
231.0000000000002
 41
1.60267857142857
 42
50.0
 43
0.0
 44
0.0
 50
0.0
 51
0.0
 71
     0
 72
   100
 73
     1
 74
     3
 75
     0
 76
     0
 77
     0
 78
     0
281
     0
 65
     1
110
0.0
120
0.0
130
0.0
111
1.0
121
0.0
131
0.0
112
0.0
122
1.0
132
0.0
 79
     0
146
0.0
  0
ENDTAB
  0
TABLE
  2
LTYPE
  5
5
330
0
100
AcDbSymbolTable
 70
     8
  0
LTYPE
  5
14
330
5
100
AcDbSymbolTableRecord
100
AcDbLinetypeTableRecord
  2
ByBlock
 70
     0
  3

 72
    65
 73
     0
 40
0.0
  0
LTYPE
  5
15
330
5
100
AcDbSymbolTableRecord
100
AcDbLinetypeTableRecord
  2
ByLayer
 70
     0
  3

 72
    65
 73
     0
 40
0.0
  0
LTYPE
  5
16
330
5
100
AcDbSymbolTableRecord
100
AcDbLinetypeTableRecord
  2
Continuous
 70
     0
  3
Solid line
 72
    65
 73
     0
 40
0.0
  0
LTYPE
  5
3F
330
5
100
AcDbSymbolTableRecord
100
AcDbLinetypeTableRecord
  2
DASHED
 70
     0
  3
Dashed
 72
    65
 73
     2
 40
15.0
 49
7.0
 74
     0
 49
-8.0
 74
     0
  0
LTYPE
  5
40
330
5
100
AcDbSymbolTableRecord
100
AcDbLinetypeTableRecord
  2
DOTTED
 70
     0
  3
Dotted
 72
    65
 73
     2
 40
1.0
 49
0.0
 74
     0
 49
-1.0
 74
     0
  0
LTYPE
  5
41
330
5
100
AcDbSymbolTableRecord
100
AcDbLinetypeTableRecord
  2
DOT_CENTER
 70
     0
  3
Dot_Center
 72
    65
 73
     4
 40
14.0
 49
12.0
 74
     0
 49
-1.0
 74
     0
 49
0.0
 74
     0
 49
-1.0
 74
     0
  0
LTYPE
  5
42
330
5
100
AcDbSymbolTableRecord
100
AcDbLinetypeTableRecord
  2
LONG_DASHED
 70
     0
  3
Long_Dashed
 72
    65
 73
     2
 40
15.0
 49
10.0
 74
     0
 49
-5.0
 74
     0
  0
LTYPE
  5
43
330
5
100
AcDbSymbolTableRecord
100
AcDbLinetypeTableRecord
  2
DASH_CENTER
 70
     0
  3
Dash_Center
 72
    65
 73
     4
 40
14.0
 49
11.0
 74
     0
 49
-1.0
 74
     0
 49
1.0
 74
     0
 49
-1.0
 74
     0
  0
LTYPE
  5
44
330
5
100
AcDbSymbolTableRecord
100
AcDbLinetypeTableRecord
  2
PHANTOM
 70
     0
  3
Phantom
 72
    65
 73
     6
 40
13.0
 49
10.0
 74
     0
 49
-1.0
 74
     0
 49
0.0
 74
     0
 49
-1.0
 74
     0
 49
0.0
 74
     0
 49
-1.0
 74
     0
  0
LTYPE
  5
45
330
5
100
AcDbSymbolTableRecord
100
AcDbLinetypeTableRecord
  2
CENTER_DASH_DASH
 70
     0
  3
Center_Dash_Dash
 72
    65
 73
     6
 40
14.0
 49
9.0
 74
     0
 49
-1.0
 74
     0
 49
1.0
 74
     0
 49
-1.0
 74
     0
 49
1.0
 74
     0
 49
-1.0
 74
     0
  0
ENDTAB
  0
TABLE
  2
LAYER
  5
2
330
0
100
AcDbSymbolTable
 70
     2
  0
LAYER
  5
10
330
2
100
AcDbSymbolTableRecord
100
AcDbLayerTableRecord
  2
0
 70
     0
 62
     7
  6
Continuous
370
    -3
390
F
  0
LAYER
  5
46
330
2
100
AcDbSymbolTableRecord
100
AcDbLayerTableRecord
  2
1
 70
     0
 62
     7
  6
Continuous
370
    -3
390
F
  0
ENDTAB
  0
TABLE
  2
STYLE
  5
3
330
0
100
AcDbSymbolTable
 70
     5
  0
STYLE
  5
11
330
3
100
AcDbSymbolTableRecord
100
AcDbTextStyleTableRecord
  2
Standard
 70
     0
 40
0.0
 41
1.0
 50
0.0
 71
     0
 42
0.2
  3
txt
  4

  0
STYLE
  5
B2
330
3
100
AcDbSymbolTableRecord
100
AcDbTextStyleTableRecord
  2
CONVERTER_11
 70
     0
 40
0.0
 41
0.9
 50
0.0
 71
     0
 42
0.2
  3
txt.shx
  4

  0
STYLE
  5
274
330
3
100
AcDbSymbolTableRecord
100
AcDbTextStyleTableRecord
  2
CONVERTER_12
 70
     0
 40
0.0
 41
0.81
 50
0.0
 71
     0
 42
0.2
  3
txt.shx
  4

  0
STYLE
  5
27A
330
3
100
AcDbSymbolTableRecord
100
AcDbTextStyleTableRecord
  2
CONVERTER_13
 70
     0
 40
0.0
 41
0.855
 50
0.0
 71
     0
 42
0.2
  3
txt.shx
  4

  0
STYLE
  5
27D
330
3
100
AcDbSymbolTableRecord
100
AcDbTextStyleTableRecord
  2
CONVERTER_14
 70
     0
 40
0.0
 41
0.72
 50
0.0
 71
     0
 42
0.2
  3
txt.shx
  4

  0
ENDTAB
  0
TABLE
  2
VIEW
  5
6
330
0
100
AcDbSymbolTable
 70
     0
  0
ENDTAB
  0
TABLE
  2
UCS
  5
7
330
0
100
AcDbSymbolTable
 70
     0
  0
ENDTAB
  0
TABLE
  2
APPID
  5
9
330
0
100
AcDbSymbolTable
 70
     1
  0
APPID
  5
12
330
9
100
AcDbSymbolTableRecord
100
AcDbRegAppTableRecord
  2
ACAD
 70
     0
  0
ENDTAB
  0
TABLE
  2
DIMSTYLE
  5
A
330
0
100
AcDbSymbolTable
 70
     4
100
AcDbDimStyleTable
  0
DIMSTYLE
105
27
330
A
100
AcDbSymbolTableRecord
100
AcDbDimStyleTableRecord
  2
Standard
 70
     0
178
     0
340
11
  0
DIMSTYLE
105
C4
102
{ACAD_REACTORS
330
C5
102
}
330
A
100
AcDbSymbolTableRecord
100
AcDbDimStyleTableRecord
  2
ME10_DIM_10
 70
     0
 41
3.5
 42
0.0
 44
1.5
 73
     0
 74
     0
 77
     1
 78
     8
140
3.5
147
1.5
172
     1
173
     1
174
     1
175
     1
176
     2
177
     2
178
     3
340
B2
  0
DIMSTYLE
105
170
102
{ACAD_REACTORS
330
171
102
}
330
A
100
AcDbSymbolTableRecord
100
AcDbDimStyleTableRecord
  2
ME10_DIM_11
 70
     0
 41
3.5
 42
0.0
 44
1.5
 73
     0
 74
     0
 77
     1
 78
     8
140
3.5
147
1.5
172
     1
173
     1
174
     1
175
     1
176
     2
177
     2
178
     3
340
B2
  0
DIMSTYLE
105
17B
102
{ACAD_REACTORS
330
17C
102
}
330
A
100
AcDbSymbolTableRecord
100
AcDbDimStyleTableRecord
  2
ME10_DIM_12
 70
     0
 41
3.5
 42
0.0
 44
1.5
 73
     0
 74
     0
 77
     1
 78
     8
140
3.5
147
1.5
172
     1
173
     1
174
     1
175
     1
176
     2
177
     2
178
     3
340
B2
  0
ENDTAB
  0
TABLE
  2
BLOCK_RECORD
  5
1
330
0
100
AcDbSymbolTable
 70
    20
  0
BLOCK_RECORD
  5
1F
330
1
100
AcDbSymbolTableRecord
100
AcDbBlockTableRecord
  2
*Model_Space
340
22
  0
BLOCK_RECORD
  5
1B
330
1
100
AcDbSymbolTableRecord
100
AcDbBlockTableRecord
  2
*Paper_Space
340
1E
  0
BLOCK_RECORD
  5
23
330
1
100
AcDbSymbolTableRecord
100
AcDbBlockTableRecord
  2
*Paper_Space0
340
26
  0
BLOCK_RECORD
  5
47
330
1
100
AcDbSymbolTableRecord
100
AcDbBlockTableRecord
  2
KSS-3-6-select__1
340
0
102
{BLKREFS
331
4B
102
}
  0
BLOCK_RECORD
  5
4A
330
1
100
AcDbSymbolTableRecord
100
AcDbBlockTableRecord
  2
AllgSicht1
340
0
102
{BLKREFS
331
7D
102
}
  0
BLOCK_RECORD
  5
4E
330
1
100
AcDbSymbolTableRecord
100
AcDbBlockTableRecord
  2
KSS-3-6-select__2
340
0
102
{BLKREFS
331
52
102
}
  0
BLOCK_RECORD
  5
51
330
1
100
AcDbSymbolTableRecord
100
AcDbBlockTableRecord
  2
Drfsicht1
340
0
102
{BLKREFS
331
7E
102
}
  0
BLOCK_RECORD
  5
55
330
1
100
AcDbSymbolTableRecord
100
AcDbBlockTableRecord
  2
KSS-3-6-select__3
340
0
102
{BLKREFS
331
59
102
}
  0
BLOCK_RECORD
  5
58
330
1
100
AcDbSymbolTableRecord
100
AcDbBlockTableRecord
  2
Rckans1
340
0
102
{BLKREFS
331
7F
102
}
  0
BLOCK_RECORD
  5
5C
330
1
100
AcDbSymbolTableRecord
100
AcDbBlockTableRecord
  2
KSS-3-6-select__4
340
0
102
{BLKREFS
331
60
102
}
  0
BLOCK_RECORD
  5
5F
330
1
100
AcDbSymbolTableRecord
100
AcDbBlockTableRecord
  2
SA_Rechts1
340
0
102
{BLKREFS
331
80
102
}
  0
BLOCK_RECORD
  5
63
330
1
100
AcDbSymbolTableRecord
100
AcDbBlockTableRecord
  2
KSS-3-6-select__5
340
0
102
{BLKREFS
331
67
102
}
  0
BLOCK_RECORD
  5
66
330
1
100
AcDbSymbolTableRecord
100
AcDbBlockTableRecord
  2
SA_links1
340
0
102
{BLKREFS
331
81
102
}
  0
BLOCK_RECORD
  5
6A
330
1
100
AcDbSymbolTableRecord
100
AcDbBlockTableRecord
  2
KSS-3-6-select__6
340
0
102
{BLKREFS
331
6E
102
}
  0
BLOCK_RECORD
  5
6D
330
1
100
AcDbSymbolTableRecord
100
AcDbBlockTableRecord
  2
Vordans1
340
0
102
{BLKREFS
331
82
102
}
  0
BLOCK_RECORD
  5
71
330
1
100
AcDbSymbolTableRecord
100
AcDbBlockTableRecord
  2
_rahmen
340
0
102
{BLKREFS
331
78
102
}
  0
BLOCK_RECORD
  5
74
330
1
100
AcDbSymbolTableRecord
100
AcDbBlockTableRecord
  2
_punkt
340
0
102
{BLKREFS
331
79
102
}
  0
BLOCK_RECORD
  5
77
330
1
100
AcDbSymbolTableRecord
100
AcDbBlockTableRecord
  2
A4I_CS
340
0
102
{BLKREFS
331
83
102
}
  0
BLOCK_RECORD
  5
7C
330
1
100
AcDbSymbolTableRecord
100
AcDbBlockTableRecord
  2
1
340
0
102
{BLKREFS
331
86
102
}
  0
BLOCK_RECORD
  5
BB
330
1
100
AcDbSymbolTableRecord
100
AcDbBlockTableRecord
  2
*D17
340
0
  0
BLOCK_RECORD
  5
165
330
1
100
AcDbSymbolTableRecord
100
AcDbBlockTableRecord
  2
*D18
340
0
  0
BLOCK_RECORD
  5
172
330
1
100
AcDbSymbolTableRecord
100
AcDbBlockTableRecord
  2
*D19
340
0
  0
ENDTAB
  0
ENDSEC
  0
SECTION
  2
BLOCKS
  0
BLOCK
  5
20
330
1F
100
AcDbEntity
  8
0
100
AcDbBlockBegin
  2
*Model_Space
 70
     0
 10
0.0
 20
0.0
 30
0.0
  3
*Model_Space
  1

  0
ENDBLK
  5
21
330
1F
100
AcDbEntity
  8
0
100
AcDbBlockEnd
  0
BLOCK
  5
1C
330
1B
100
AcDbEntity
 67
     1
  8
0
100
AcDbBlockBegin
  2
*Paper_Space
 70
     0
 10
0.0
 20
0.0
 30
0.0
  3
*Paper_Space
  1

  0
ENDBLK
  5
1D
330
1B
100
AcDbEntity
 67
     1
  8
0
100
AcDbBlockEnd
  0
BLOCK
  5
24
330
23
100
AcDbEntity
  8
0
100
AcDbBlockBegin
  2
*Paper_Space0
 70
     0
 10
0.0
 20
0.0
 30
0.0
  3
*Paper_Space0
  1

  0
ENDBLK
  5
25
330
23
100
AcDbEntity
  8
0
100
AcDbBlockEnd
  0
BLOCK
  5
48
330
47
100
AcDbEntity
  8
0
100
AcDbBlockBegin
  2
KSS-3-6-select__1
 70
     0
 10
53.42740468814348
 20
-44.8229600222431
 30
0.0
  3
KSS-3-6-select__1
  1

  0
LINE
  5
87
330
47
100
AcDbEntity
  8
0
  6
Continuous
 62
     7
100
AcDbLine
 10
61.91746819760456
 20
-31.45063976208491
 30
0.0
 11
61.91746819760456
 21
-28.18749969154114
 31
0.0
  0
LINE
  5
88
330
47
100
AcDbEntity
  8
0
  6
Continuous
 62
     7
100
AcDbLine
 10
58.84246819760458
 20
-34.11366787872206
 30
0.0
 11
58.84246819760457
 21
-30.85052780817829
 31
0.0
  0
LINE
  5
89
330
47
100
AcDbEntity
  8
0
  6
Continuous
 62
     7
100
AcDbLine
 10
64.49246819760458
 20
-29.44904947321391
 30
0.0
 11
64.49246819760458
 21
-38.7469037889688
 31
0.0
  0
LINE
  5
8A
330
47
100
AcDbEntity
  8
0
  6
Continuous
 62
     7
100
AcDbLine
 10
58.62355711085009
 20
-16.58562804830273
 30
0.0
 11
53.42740468814348
 21
-15.08562804830273
 31
0.0
  0
LINE
  5
8B
330
47
100
AcDbEntity
  8
0
  6
Continuous
 62
     7
100
AcDbLine
 10
62.07740468814347
 20
-7.59450830556733
 30
0.0
 11
53.42740468814348
 21
-15.08562804830273
 31
0.0
  0
LINE
  5
8C
330
47
100
AcDbEntity
  8
0
  6
Continuous
 62
     7
100
AcDbLine
 10
67.2735571108501
 20
-9.09450830556733
 30
0.0
 11
62.07740468814347
 21
-7.59450830556733
 31
0.0
  0
LINE
  5
8D
330
47
100
AcDbEntity
  8
0
  6
Continuous
 62
     7
100
AcDbLine
 10
58.62355711085011
 20
-17.72989073281104
 30
0.0
 11
58.62355711085009
 21
-16.58562804830273
 31
0.0
  0
LINE
  5
8E
330
47
100
AcDbEntity
  8
0
  6
Continuous
 62
     7
100
AcDbLine
 10
67.2735571108501
 20
-10.23877099007565
 30
0.0
 11
67.2735571108501
 21
-9.09450830556733
 31
0.0
  0
LINE
  5
8F
330
47
100
AcDbEntity
  8
0
  6
Continuous
 62
     7
100
AcDbLine
 10
58.62355711085009
 20
-16.58562804830273
 30
0.0
 11
67.2735571108501
 21
-9.09450830556733
 31
0.0
  0
LINE
  5
90
330
47
100
AcDbEntity
  8
0
  6
Continuous
 62
     7
100
AcDbLine
 10
54.34246819760457
 20
-25.7420889754307
 30
0.0
 11
54.34246819760457
 21
-30.10052780817829
 31
0.0
  0
LINE
  5
91
330
47
100
AcDbEntity
  8
0
  6
Continuous
 62
     7
100
AcDbLine
 10
54.84246819760458
 20
-34.11366787872206
 30
0.0
 11
54.84246819760457
 21
-30.85052780817829
 31
0.0
  0
LINE
  5
92
330
47
100
AcDbEntity
  8
0
  6
Continuous
 62
     7
100
AcDbLine
 10
53.42740468814348
 20
-15.08562804830273
 30
0.0
 11
53.42740468814348
 21
-25.47793289367422
 31
0.0
  0
LINE
  5
93
330
47
100
AcDbEntity
  8
0
  6
Continuous
 62
     7
100
AcDbLine
 10
55.34246819760457
 20
-34.7751057064882
 30
0.0
 11
55.34246819760458
 21
-44.0729600222431
 31
0.0
  0
LINE
  5
94
330
47
100
AcDbEntity
  8
0
  6
Continuous
 62
     7
100
AcDbLine
 10
68.13958251463454
 20
-19.73681315093883
 30
0.0
 11
68.13958251463454
 21
-18.13056834105033
 31
0.0
  0
LINE
  5
95
330
47
100
AcDbEntity
  8
0
  6
Continuous
 62
     7
100
AcDbLine
 10
65.49246819760457
 20
-22.02928139620828
 30
0.0
 11
65.49246819760457
 21
-24.77447157490399
 31
0.0
  0
LINE
  5
96
330
47
100
AcDbEntity
  8
0
  6
Continuous
 62
     7
100
AcDbLine
 10
59.48958251463455
 20
-27.22793289367422
 30
0.0
 11
59.48958251463453
 21
-25.62168808378573
 31
0.0
  0
LINE
  5
97
330
47
100
AcDbEntity
  8
0
  6
Continuous
 62
     7
100
AcDbLine
 10
68.13958251463454
 20
-19.73681315093883
 30
0.0
 11
59.48958251463455
 21
-27.22793289367422
 31
0.0
  0
LINE
  5
98
330
47
100
AcDbEntity
  8
0
  6
Continuous
 62
     7
100
AcDbLine
 10
68.13958251463454
 20
-18.13056834105033
 30
0.0
 11
59.48958251463453
 21
-25.62168808378573
 31
0.0
  0
LINE
  5
99
330
47
100
AcDbEntity
  8
0
  6
Continuous
 62
     7
100
AcDbLine
 10
61.49246819760457
 20
-32.06695441386595
 30
0.0
 11
61.49246819760457
 21
-38.7469037889688
 31
0.0
  0
LINE
  5
9A
330
47
100
AcDbEntity
  8
0
  6
Continuous
 62
     7
100
AcDbLine
 10
61.41746819760456
 20
-32.11207758985105
 30
0.0
 11
61.41746819760458
 21
-41.40993190560595
 31
0.0
  0
LINE
  5
9B
330
47
100
AcDbEntity
  8
0
  6
Continuous
 62
     7
100
AcDbLine
 10
64.99246819760458
 20
-28.78761164544776
 30
0.0
 11
64.99246819760458
 21
-25.524471574904
 31
0.0
  0
LINE
  5
9C
330
47
100
AcDbEntity
  8
0
  6
Continuous
 62
     7
100
AcDbLine
 10
53.42740468814348
 20
-25.47793289367422
 30
0.0
 11
59.48958251463455
 21
-27.22793289367422
 31
0.0
  0
LINE
  5
9D
330
47
100
AcDbEntity
  8
0
  6
Continuous
 62
     7
100
AcDbLine
 10
62.41746819760456
 20
-24.69230951284543
 30
0.0
 11
62.41746819760456
 21
-27.43749969154114
 31
0.0
  0
LINE
  5
9E
330
47
100
AcDbEntity
  8
0
  6
Continuous
 62
     7
100
AcDbLine
 10
58.41746819760456
 20
-34.72998253050311
 30
0.0
 11
58.41746819760456
 21
-41.40993190560595
 31
0.0
  0
LINE
  5
9F
330
47
100
AcDbEntity
  8
0
  6
Continuous
 62
     7
100
AcDbLine
 10
59.34246819760457
 20
-27.18546464840477
 30
0.0
 11
59.34246819760457
 21
-30.10052780817829
 31
0.0
  0
LINE
  5
A0
330
47
100
AcDbEntity
  8
0
  6
Continuous
 62
     7
100
AcDbLine
 10
58.34246819760458
 20
-34.7751057064882
 30
0.0
 11
58.34246819760458
 21
-44.0729600222431
 31
0.0
  0
LINE
  5
A1
330
47
100
AcDbEntity
  8
0
  6
Continuous
 62
     7
100
AcDbLine
 10
67.2735571108501
 20
-10.23877099007565
 30
0.0
 11
58.62355711085011
 21
-17.72989073281104
 31
0.0
  0
SPLINE
  5
A2
330
47
100
AcDbEntity
  8
0
  6
Continuous
 62
     7
100
AcDbSpline
210
0.0
220
0.0
230
1.0
 70
     8
 71
     3
 72
    13
 73
     9
 74
     7
 42
0.000000001
 43
0.0000000001
 44
0.00000001
 40
0.0
 40
0.0
 40
0.0
 40
0.0
 40
0.3801131833849257
 40
0.8150773156522495
 40
1.296430501182448
 40
1.810622866580967
 40
2.34111095056851
 40
2.869999575745614
 40
2.869999575745614
 40
2.869999575745614
 40
2.869999575745614
 10
62.08253170706567
 20
-28.06249969154115
 30
0.0
 10
61.98049079153331
 20
-28.13828293544031
 30
0.0
 10
61.76168428225354
 20
-28.3007850556535
 30
0.0
 10
61.35951273863128
 20
-28.46829280212875
 30
0.0
 10
60.89997979356177
 20
-28.59761033324028
 30
0.0
 10
60.3957616454671
 20
-28.67308471718509
 30
0.0
 10
59.87047725530667
 20
-28.69923190952149
 30
0.0
 10
59.51829397314455
 20
-28.66905410539231
 30
0.0
 10
59.34246819760457
 20
-28.65398797755133
 30
0.0
 11
62.08253170706567
 21
-28.06249969154115
 31
0.0
 11
61.76900528570088
 21
-28.27741180588897
 31
0.0
 11
61.3716274135936
 21
-28.45428641629641
 31
0.0
 11
60.90839389148508
 21
-28.58511300807208
 31
0.0
 11
60.40028384081869
 21
-28.66396708355242
 31
0.0
 11
59.87030813908395
 21
-28.6872771674133
 31
0.0
 11
59.34246819760457
 21
-28.65398797755133
 31
0.0
  0
SPLINE
  5
A3
330
47
100
AcDbEntity
  8
0
  6
Continuous
 62
     7
100
AcDbSpline
210
0.0
220
0.0
230
1.0
 70
     8
 71
     3
 72
    13
 73
     9
 74
     7
 42
0.000000001
 43
0.0000000001
 44
0.00000001
 40
0.0
 40
0.0
 40
0.0
 40
0.0
 40
0.4999324663630964
 40
1.031154094889874
 40
1.565525777480646
 40
2.074498546397044
 40
2.532962535004283
 40
2.923832126208208
 40
2.923832126208208
 40
2.923832126208208
 40
2.923832126208208
 10
61.91746819760456
 20
-29.63087539422391
 30
0.0
 10
62.07892915001872
 20
-29.67337104175885
 30
0.0
 10
62.4119563789108
 20
-29.76102198771981
 30
0.0
 10
62.93509817594862
 20
-29.79765974618064
 30
0.0
 10
63.46088356501882
 20
-29.77266187074333
 30
0.0
 10
63.95273866605409
 20
-29.67596478334116
 30
0.0
 10
64.3861954789902
 20
-29.52836310231588
 30
0.0
 10
64.61789101213053
 20
-29.36348826859019
 30
0.0
 10
64.72451900517345
 20
-29.28761164544776
 30
0.0
 11
61.91746819760456
 21
-29.63087539422391
 31
0.0
 11
62.4045652662547
 21
-29.74343166341858
 31
0.0
 11
62.9339820679816
 21
-29.78718397557721
 31
0.0
 11
63.46760901897919
 21
-29.75898164235524
 31
0.0
 11
63.96703332926485
 21
-29.66085599901553
 31
0.0
 11
64.39630314813934
 21
-29.49986948418346
 31
0.0
 11
64.72451900517345
 21
-29.28761164544776
 31
0.0
  0
SPLINE
  5
A4
330
47
100
AcDbEntity
  8
0
  6
Continuous
 62
     7
100
AcDbSpline
210
0.0
220
0.0
230
1.0
 70
     8
 71
     3
 72
     9
 73
     5
 74
     3
 42
0.000000001
 43
0.0000000001
 44
0.00000001
 40
0.0
 40
0.0
 40
0.0
 40
0.0
 40
0.3131907674157876
 40
0.5808314382623054
 40
0.5808314382623054
 40
0.5808314382623054
 40
0.5808314382623054
 10
64.72451900517345
 20
-29.28761164544776
 30
0.0
 10
64.80190811149893
 20
-29.21276166130591
 30
0.0
 10
64.94543092737544
 20
-29.07394777627506
 30
0.0
 10
64.9776308428426
 20
-28.87793305388178
 30
0.0
 10
64.99246819760458
 20
-28.78761164544776
 30
0.0
 11
64.72451900517345
 21
-29.28761164544776
 31
0.0
 11
64.92431933513993
 21
-29.04643062154763
 31
0.0
 11
64.99246819760458
 21
-28.78761164544776
 31
0.0
  0
SPLINE
  5
A5
330
47
100
AcDbEntity
  8
0
  6
Continuous
 62
     7
100
AcDbSpline
210
0.0
220
0.0
230
1.0
 70
     8
 71
     3
 72
    19
 73
    15
 74
    13
 42
0.000000001
 43
0.0000000001
 44
0.00000001
 40
0.0
 40
0.0
 40
0.0
 40
0.0
 40
0.2007305004267764
 40
0.4356235739691004
 40
0.720143463065779
 40
1.052883018584666
 40
1.422331824992785
 40
1.811400512172318
 40
2.200469199351838
 40
2.569918005759958
 40
2.902657561278847
 40
3.187177450375534
 40
3.422070523917859
 40
3.622801024344629
 40
3.622801024344629
 40
3.622801024344629
 40
3.622801024344629
 10
64.49246819760458
 20
-38.7469037889688
 30
0.0
 10
64.48103853785477
 20
-38.81411448565092
 30
0.0
 10
64.45623397211222
 20
-38.95997454348417
 30
0.0
 10
64.28425075982291
 20
-39.14256794528448
 30
0.0
 10
64.04386991076679
 20
-39.2938039666487
 30
0.0
 10
63.7328502009274
 20
-39.40863723471117
 30
0.0
 10
63.37535824628711
 20
-39.48066986675166
 30
0.0
 10
62.99246819760458
 20
-39.50523071924273
 30
0.0
 10
62.60957814892203
 20
-39.48066986675167
 30
0.0
 10
62.25208619428176
 20
-39.40863723471117
 30
0.0
 10
61.94106648444238
 20
-39.29380396664867
 30
0.0
 10
61.70068563538621
 20
-39.1425679452845
 30
0.0
 10
61.52870242309695
 20
-38.95997454348417
 30
0.0
 10
61.50389785735437
 20
-38.81411448565093
 30
0.0
 10
61.49246819760457
 20
-38.7469037889688
 30
0.0
 11
64.49246819760458
 21
-38.7469037889688
 31
0.0
 11
64.44135655075608
 21
-38.94101802104371
 31
0.0
 11
64.29150630328124
 21
-39.12190378896881
 31
0.0
 11
64.05312808660628
 21
-39.27723373346966
 31
0.0
 11
63.74246819760458
 21
-39.39642284180714
 31
0.0
 11
63.38069666175439
 21
-39.47134796554456
 31
0.0
 11
62.99246819760457
 21
-39.4969037889688
 31
0.0
 11
62.60423973345477
 21
-39.47134796554457
 31
0.0
 11
62.24246819760458
 21
-39.39642284180714
 31
0.0
 11
61.93180830860288
 21
-39.27723373346965
 31
0.0
 11
61.69343009192791
 21
-39.12190378896881
 31
0.0
 11
61.54357984445306
 21
-38.9410180210437
 31
0.0
 11
61.49246819760457
 21
-38.7469037889688
 31
0.0
  0
SPLINE
  5
A6
330
47
100
AcDbEntity
  8
0
  6
Continuous
 62
     7
100
AcDbSpline
210
0.0
220
0.0
230
1.0
 70
     8
 71
     3
 72
    11
 73
     7
 74
     5
 42
0.000000001
 43
0.0000000001
 44
0.00000001
 40
0.0
 40
0.0
 40
0.0
 40
0.0
 40
1.865307912654701
 40
3.846002751717378
 40
5.941513390892441
 40
8.133261652709097
 40
8.133261652709097
 40
8.133261652709097
 40
8.133261652709097
 10
67.2735571108501
 20
-10.23877099007565
 30
0.0
 10
67.1146654019429
 20
-10.84287224338896
 30
0.0
 10
66.78705304470472
 20
-12.08844412583862
 30
0.0
 10
66.84927511311716
 20
-14.08982809831356
 30
0.0
 10
67.26048275916338
 20
-16.15093433864192
 30
0.0
 10
67.84219661232284
 20
-17.46088867203883
 30
0.0
 10
68.13958251463454
 20
-18.13056834105033
 30
0.0
 11
67.2735571108501
 21
-10.23877099007565
 31
0.0
 11
66.8834184414625
 21
-12.06282291735254
 31
0.0
 11
66.90113493279837
 21
-14.04343852391263
 31
0.0
 11
67.32594711334701
 21
-16.09543741716682
 31
0.0
 11
68.13958251463454
 21
-18.13056834105033
 31
0.0
  0
SPLINE
  5
A7
330
47
100
AcDbEntity
  8
0
  6
Continuous
 62
     7
100
AcDbSpline
210
0.0
220
0.0
230
1.0
 70
     8
 71
     3
 72
    15
 73
    11
 74
     9
 42
0.000000001
 43
0.0000000001
 44
0.00000001
 40
0.0
 40
0.0
 40
0.0
 40
0.0
 40
0.2863847485156488
 40
0.6105627619022622
 40
0.9934899359585059
 40
1.438848103349066
 40
1.938744048132261
 40
2.478180846632152
 40
3.038024261634709
 40
3.597231653509017
 40
3.597231653509017
 40
3.597231653509017
 40
3.597231653509017
 10
65.49246819760457
 20
-24.77447157490399
 30
0.0
 10
65.47879831006254
 20
-24.8703955987543
 30
0.0
 10
65.44965455119053
 20
-25.07490242364813
 30
0.0
 10
65.2379992171397
 20
-25.34516363306149
 30
0.0
 10
64.93268068093121
 20
-25.5796160876508
 30
0.0
 10
64.53076966416776
 20
-25.77275835863002
 30
0.0
 10
64.05605782940253
 20
-25.91732498600937
 30
0.0
 10
63.52914630390154
 20
-26.00518113158446
 30
0.0
 10
62.97552259126829
 20
-26.03773432163847
 30
0.0
 10
62.60341583197214
 20
-26.00654544038965
 30
0.0
 10
62.41746819760456
 20
-25.99095986091419
 30
0.0
 11
65.49246819760457
 21
-24.77447157490399
 31
0.0
 11
65.42925266569208
 21
-25.05379222422185
 31
0.0
 11
65.24280406302245
 21
-25.31898706890163
 31
0.0
 11
64.94255051738152
 21
-25.55664444431128
 31
0.0
 11
64.54367740335343
 21
-25.75474577123888
 31
0.0
 11
64.06635587728616
 21
-25.90327225437337
 31
0.0
 11
63.53472570055712
 21
-25.99471302647123
 31
0.0
 11
62.97567224664192
 21
-26.02444322863111
 31
0.0
 11
62.41746819760456
 21
-25.99095986091419
 31
0.0
  0
SPLINE
  5
A8
330
47
100
AcDbEntity
  8
0
  6
Continuous
 62
     7
100
AcDbSpline
210
0.0
220
0.0
230
1.0
 70
     8
 71
     3
 72
    19
 73
    15
 74
    13
 42
0.000000001
 43
0.0000000001
 44
0.00000001
 40
0.0
 40
0.0
 40
0.0
 40
0.0
 40
0.2007305004267782
 40
0.4356235739691022
 40
0.720143463065771
 40
1.052883018584658
 40
1.42233182499279
 40
1.811400512172303
 40
2.200469199351824
 40
2.569918005759948
 40
2.902657561278848
 40
3.187177450375517
 40
3.422070523917841
 40
3.622801024344619
 40
3.622801024344619
 40
3.622801024344619
 40
3.622801024344619
 10
61.41746819760458
 20
-41.40993190560595
 30
0.0
 10
61.40603853785477
 20
-41.47714260228806
 30
0.0
 10
61.3812339721122
 20
-41.62300266012132
 30
0.0
 10
61.20925075982295
 20
-41.80559606192166
 30
0.0
 10
60.96886991076678
 20
-41.95683208328583
 30
0.0
 10
60.65785020092738
 20
-42.0716653513483
 30
0.0
 10
60.30035824628711
 20
-42.1436979833888
 30
0.0
 10
59.91746819760456
 20
-42.16825883587988
 30
0.0
 10
59.53457814892205
 20
-42.14369798338878
 30
0.0
 10
59.17708619428176
 20
-42.07166535134832
 30
0.0
 10
58.86606648444237
 20
-41.95683208328585
 30
0.0
 10
58.62568563538618
 20
-41.80559606192163
 30
0.0
 10
58.45370242309696
 20
-41.62300266012133
 30
0.0
 10
58.42889785735435
 20
-41.47714260228807
 30
0.0
 10
58.41746819760456
 20
-41.40993190560595
 30
0.0
 11
61.41746819760458
 21
-41.40993190560595
 31
0.0
 11
61.36635655075608
 21
-41.60404613768086
 31
0.0
 11
61.21650630328123
 21
-41.78493190560596
 31
0.0
 11
60.97812808660628
 21
-41.9402618501068
 31
0.0
 11
60.66746819760458
 21
-42.05945095844428
 31
0.0
 11
60.30569666175438
 21
-42.1343760821817
 31
0.0
 11
59.91746819760458
 21
-42.15993190560595
 31
0.0
 11
59.52923973345477
 21
-42.1343760821817
 31
0.0
 11
59.16746819760458
 21
-42.05945095844428
 31
0.0
 11
58.85680830860287
 21
-41.9402618501068
 31
0.0
 11
58.61843009192791
 21
-41.78493190560596
 31
0.0
 11
58.46857984445306
 21
-41.60404613768086
 31
0.0
 11
58.41746819760456
 21
-41.40993190560595
 31
0.0
  0
SPLINE
  5
A9
330
47
100
AcDbEntity
  8
0
  6
Continuous
 62
     7
100
AcDbSpline
210
0.0
220
0.0
230
1.0
 70
     8
 71
     3
 72
     9
 73
     5
 74
     3
 42
0.000000001
 43
0.0000000001
 44
0.00000001
 40
0.0
 40
0.0
 40
0.0
 40
0.0
 40
0.3131907674157885
 40
0.5808314382623012
 40
0.5808314382623012
 40
0.5808314382623012
 40
0.5808314382623012
 10
58.57451900517345
 20
-34.61366787872206
 30
0.0
 10
58.65190811149893
 20
-34.53881789458021
 30
0.0
 10
58.79543092737541
 20
-34.40000400954935
 30
0.0
 10
58.82763084284263
 20
-34.20398928715608
 30
0.0
 10
58.84246819760458
 20
-34.11366787872206
 30
0.0
 11
58.57451900517345
 21
-34.61366787872206
 31
0.0
 11
58.77431933513992
 21
-34.37248685482192
 31
0.0
 11
58.84246819760458
 21
-34.11366787872206
 31
0.0
  0
SPLINE
  5
AA
330
47
100
AcDbEntity
  8
0
  6
Continuous
 62
     7
100
AcDbSpline
210
0.0
220
0.0
230
1.0
 70
     8
 71
     3
 72
    17
 73
    13
 74
    11
 42
0.000000001
 43
0.0000000001
 44
0.00000001
 40
0.0
 40
0.0
 40
0.0
 40
0.0
 40
0.2676406640560782
 40
0.580831433528608
 40
0.9601912837643115
 40
1.403844022024219
 40
1.896442427118191
 40
2.415200672236043
 40
2.933958917130848
 40
3.426557321315723
 40
3.87021006018283
 40
4.249569916092177
 40
4.249569916092177
 40
4.249569916092177
 40
4.249569916092177
 10
54.84246819760458
 20
-34.11366787872206
 30
0.0
 10
54.85770775541141
 20
-34.20328216039208
 30
0.0
 10
54.89078052172788
 20
-34.39776228735229
 30
0.0
 10
55.1200912605801
 20
-34.64121973825625
 30
0.0
 10
55.44060020458958
 20
-34.8428697968232
 30
0.0
 10
55.85528776395034
 20
-34.9959713458052
 30
0.0
 10
56.33196700564677
 20
-35.0920558319758
 30
0.0
 10
56.84239385919714
 20
-35.12463975527266
 30
0.0
 10
57.35325919480418
 20
-35.09249902558284
 30
0.0
 10
57.82872961090545
 20
-34.99437110470082
 30
0.0
 10
58.24719556577571
 20
-34.84789388522923
 30
0.0
 10
58.47124537291099
 20
-34.6875683977708
 30
0.0
 10
58.57451900517345
 20
-34.61366787872206
 30
0.0
 11
54.84246819760458
 21
-34.11366787872206
 31
0.0
 11
54.91061706006924
 21
-34.37248685482192
 31
0.0
 11
55.11041739003569
 21
-34.61366787872205
 31
0.0
 11
55.42825501226896
 21
-34.82077447138985
 31
0.0
 11
55.84246819760456
 21
-34.9796932825065
 31
0.0
 11
56.32483024540483
 21
-35.07959344748973
 31
0.0
 11
56.84246819760457
 21
-35.11366787872206
 31
0.0
 11
57.3601061498043
 21
-35.07959344748974
 31
0.0
 11
57.84246819760456
 21
-34.9796932825065
 31
0.0
 11
58.25668138294017
 21
-34.82077447138985
 31
0.0
 11
58.57451900517345
 21
-34.61366787872206
 31
0.0
  0
SPLINE
  5
AB
330
47
100
AcDbEntity
  8
0
  6
Continuous
 62
     7
100
AcDbSpline
210
0.0
220
0.0
230
1.0
 70
     8
 71
     3
 72
    13
 73
     9
 74
     7
 42
0.000000001
 43
0.0000000001
 44
0.00000001
 40
0.0
 40
0.0
 40
0.0
 40
0.0
 40
0.4999324663630903
 40
1.031154094889875
 40
1.565525777480641
 40
2.074498546397038
 40
2.532962535004275
 40
2.923832126208217
 40
2.923832126208217
 40
2.923832126208217
 40
2.923832126208217
 10
58.84246819760457
 20
-32.29390351086105
 30
0.0
 10
59.00392915001872
 20
-32.33639915839599
 30
0.0
 10
59.33695637891081
 20
-32.42405010435695
 30
0.0
 10
59.86009817594864
 20
-32.46068786281781
 30
0.0
 10
60.38588356501882
 20
-32.43568998738044
 30
0.0
 10
60.87773866605407
 20
-32.3389928999783
 30
0.0
 10
61.31119547899022
 20
-32.19139121895303
 30
0.0
 10
61.54289101213053
 20
-32.02651638522733
 30
0.0
 10
61.64951900517346
 20
-31.9506397620849
 30
0.0
 11
58.84246819760457
 21
-32.29390351086105
 31
0.0
 11
59.3295652662547
 21
-32.40645978005572
 31
0.0
 11
59.8589820679816
 21
-32.45021209221436
 31
0.0
 11
60.39260901897919
 21
-32.42200975899239
 31
0.0
 11
60.89203332926485
 21
-32.32388411565267
 31
0.0
 11
61.32130314813934
 21
-32.16289760082061
 31
0.0
 11
61.64951900517346
 21
-31.9506397620849
 31
0.0
  0
SPLINE
  5
AC
330
47
100
AcDbEntity
  8
0
  6
Continuous
 62
     7
100
AcDbSpline
210
0.0
220
0.0
230
1.0
 70
     8
 71
     3
 72
     9
 73
     5
 74
     3
 42
0.000000001
 43
0.0000000001
 44
0.00000001
 40
0.0
 40
0.0
 40
0.0
 40
0.0
 40
0.3131907674157612
 40
0.580831438262279
 40
0.580831438262279
 40
0.580831438262279
 40
0.580831438262279
 10
61.64951900517346
 20
-31.9506397620849
 30
0.0
 10
61.72690811149894
 20
-31.87578977794305
 30
0.0
 10
61.87043092737541
 20
-31.7369758929122
 30
0.0
 10
61.9026308428426
 20
-31.54096117051893
 30
0.0
 10
61.91746819760456
 20
-31.45063976208491
 30
0.0
 11
61.64951900517346
 21
-31.9506397620849
 31
0.0
 11
61.84931933513991
 21
-31.70945873818478
 31
0.0
 11
61.91746819760456
 21
-31.45063976208491
 31
0.0
  0
SPLINE
  5
AD
330
47
100
AcDbEntity
  8
0
  6
Continuous
 62
     7
100
AcDbSpline
210
0.0
220
0.0
230
1.0
 70
     8
 71
     3
 72
    15
 73
    11
 74
     9
 42
0.000000001
 43
0.0000000001
 44
0.00000001
 40
0.0
 40
0.0
 40
0.0
 40
0.0
 40
0.3345508330470489
 40
0.7260392919910622
 40
1.200239104146013
 40
1.754805026418755
 40
2.370553032197554
 40
3.019000837957115
 40
3.667448643993199
 40
4.283196659028623
 40
4.283196659028623
 40
4.283196659028623
 40
4.283196659028623
 10
59.34246819760457
 20
-30.10052780817829
 30
0.0
 10
59.32341871574212
 20
-30.21254583491532
 30
0.0
 10
59.28207768444043
 20
-30.45564637161373
 30
0.0
 10
58.99543993538356
 20
-30.75996474648304
 30
0.0
 10
58.59480035537742
 20
-31.0120444851991
 30
0.0
 10
58.0764568224954
 20
-31.20334115227072
 30
0.0
 10
57.48053891240297
 20
-31.32379401377453
 30
0.0
 10
56.84278072888131
 20
-31.36313515977296
 30
0.0
 10
56.20317893299615
 20
-31.32810372649952
 30
0.0
 10
55.79249753635436
 20
-31.23056665205608
 30
0.0
 10
55.59246819760457
 20
-31.18305956290884
 30
0.0
 11
59.34246819760457
 21
-30.10052780817829
 31
0.0
 11
59.25728211952374
 21
-30.42405152830313
 31
0.0
 11
59.00753170706565
 21
-30.72552780817829
 31
0.0
 11
58.61023467927406
 21
-30.98441104901303
 31
0.0
 11
58.09246819760456
 21
-31.18305956290883
 31
0.0
 11
57.48951563785424
 21
-31.30793476913788
 31
0.0
 11
56.84246819760456
 21
-31.35052780817829
 31
0.0
 11
56.19542075735489
 21
-31.30793476913788
 31
0.0
 11
55.59246819760457
 21
-31.18305956290884
 31
0.0
  0
SPLINE
  5
AE
330
47
100
AcDbEntity
  8
0
  6
Continuous
 62
     7
100
AcDbSpline
210
0.0
220
0.0
230
1.0
 70
     8
 71
     3
 72
    11
 73
     7
 74
     5
 42
0.000000001
 43
0.0000000001
 44
0.00000001
 40
0.0
 40
0.0
 40
0.0
 40
0.0
 40
0.5545659274521826
 40
1.028765735100635
 40
1.42025419011076
 40
1.754805027539331
 40
1.754805027539331
 40
1.754805027539331
 40
1.754805027539331
 10
55.59246819760457
 20
-31.18305956290884
 30
0.0
 10
55.41626522168242
 20
-31.12420635159413
 30
0.0
 10
55.08939410929268
 20
-31.01502875912713
 30
0.0
 10
54.68964622749623
 20
-30.75936238938461
 30
0.0
 10
54.40283011311656
 20
-30.45576141042587
 30
0.0
 10
54.36150865824037
 20
-30.21258212316073
 30
0.0
 10
54.34246819760457
 20
-30.10052780817829
 30
0.0
 11
55.59246819760457
 21
-31.18305956290884
 31
0.0
 11
55.07470171593507
 21
-30.98441104901304
 31
0.0
 11
54.67740468814347
 21
-30.72552780817829
 31
0.0
 11
54.42765427568538
 21
-30.42405152830313
 31
0.0
 11
54.34246819760457
 21
-30.10052780817829
 31
0.0
  0
SPLINE
  5
AF
330
47
100
AcDbEntity
  8
0
  6
Continuous
 62
     7
100
AcDbSpline
210
0.0
220
0.0
230
1.0
 70
     8
 71
     3
 72
    19
 73
    15
 74
    13
 42
0.000000001
 43
0.0000000001
 44
0.00000001
 40
0.0
 40
0.0
 40
0.0
 40
0.0
 40
0.20073050042678
 40
0.4356235739690995
 40
0.7201434630657781
 40
1.052883018584662
 40
1.422331824992789
 40
1.811400512172309
 40
2.200469199351829
 40
2.569918005759955
 40
2.902657561278846
 40
3.187177450375525
 40
3.422070523917845
 40
3.622801024344614
 40
3.622801024344614
 40
3.622801024344614
 40
3.622801024344614
 10
58.34246819760458
 20
-44.0729600222431
 30
0.0
 10
58.33103853785478
 20
-44.14017071892522
 30
0.0
 10
58.30623397211218
 20
-44.28603077675847
 30
0.0
 10
58.13425075982292
 20
-44.4686241785588
 30
0.0
 10
57.89386991076679
 20
-44.619860199923
 30
0.0
 10
57.5828502009274
 20
-44.73469346798547
 30
0.0
 10
57.2253582462871
 20
-44.80672610002597
 30
0.0
 10
56.84246819760457
 20
-44.83128695251703
 30
0.0
 10
56.45957814892206
 20
-44.80672610002596
 30
0.0
 10
56.10208619428174
 20
-44.73469346798545
 30
0.0
 10
55.79106648444237
 20
-44.61986019992299
 30
0.0
 10
55.5506856353862
 20
-44.46862417855881
 30
0.0
 10
55.37870242309695
 20
-44.28603077675845
 30
0.0
 10
55.35389785735439
 20
-44.14017071892523
 30
0.0
 10
55.34246819760458
 20
-44.0729600222431
 30
0.0
 11
58.34246819760458
 21
-44.0729600222431
 31
0.0
 11
58.29135655075608
 21
-44.26707425431801
 31
0.0
 11
58.14150630328123
 21
-44.44796002224311
 31
0.0
 11
57.90312808660627
 21
-44.60328996674396
 31
0.0
 11
57.59246819760457
 21
-44.72247907508143
 31
0.0
 11
57.23069666175438
 21
-44.79740419881886
 31
0.0
 11
56.84246819760457
 21
-44.8229600222431
 31
0.0
 11
56.45423973345477
 21
-44.79740419881885
 31
0.0
 11
56.09246819760457
 21
-44.72247907508143
 31
0.0
 11
55.78180830860287
 21
-44.60328996674396
 31
0.0
 11
55.54343009192791
 21
-44.44796002224311
 31
0.0
 11
55.39357984445307
 21
-44.267074254318
 31
0.0
 11
55.34246819760458
 21
-44.0729600222431
 31
0.0
  0
SPLINE
  5
B0
330
47
100
AcDbEntity
  8
0
  6
Continuous
 62
     7
100
AcDbSpline
210
0.0
220
0.0
230
1.0
 70
     8
 71
     3
 72
     9
 73
     5
 74
     3
 42
0.000000001
 43
0.0000000001
 44
0.00000001
 40
0.0
 40
0.0
 40
0.0
 40
0.0
 40
0.3345508390968631
 40
0.7260392989052833
 40
0.7260392989052833
 40
0.7260392989052833
 40
0.7260392989052833
 10
62.41746819760456
 20
-27.43749969154114
 30
0.0
 10
62.39892150412224
 20
-27.55040145226548
 30
0.0
 10
62.35867161427797
 20
-27.79541985727351
 30
0.0
 10
62.17926809010562
 20
-27.96893721123507
 30
0.0
 10
62.08253170706567
 20
-28.06249969154115
 30
0.0
 11
62.41746819760456
 21
-27.43749969154114
 31
0.0
 11
62.33228211952374
 21
-27.76102341166598
 31
0.0
 11
62.08253170706567
 21
-28.06249969154115
 31
0.0
  0
SPLINE
  5
B1
330
47
100
AcDbEntity
  8
0
  6
Continuous
 62
     7
100
AcDbSpline
210
0.0
220
0.0
230
1.0
 70
     8
 71
     3
 72
    11
 73
     7
 74
     5
 42
0.000000001
 43
0.0000000001
 44
0.00000001
 40
0.0
 40
0.0
 40
0.0
 40
0.0
 40
1.865307912654707
 40
3.846002751717387
 40
5.941513390892451
 40
8.133261652709106
 40
8.133261652709106
 40
8.133261652709106
 40
8.133261652709106
 10
58.62355711085011
 20
-17.72989073281104
 30
0.0
 10
58.46466540194289
 20
-18.33399198612435
 30
0.0
 10
58.13705304470471
 20
-19.57956386857401
 30
0.0
 10
58.19927511311719
 20
-21.58094784104897
 30
0.0
 10
58.61048275916338
 20
-23.64205408137731
 30
0.0
 10
59.19219661232284
 20
-24.95200841477422
 30
0.0
 10
59.48958251463453
 20
-25.62168808378573
 30
0.0
 11
58.62355711085011
 21
-17.72989073281104
 31
0.0
 11
58.23341844146249
 21
-19.55394266008793
 31
0.0
 11
58.25113493279837
 21
-21.53455826664803
 31
0.0
 11
58.67594711334701
 21
-23.58655715990222
 31
0.0
 11
59.48958251463453
 21
-25.62168808378573
 31
0.0
  0
ENDBLK
  5
49
330
47
100
AcDbEntity
  8
0
100
AcDbBlockEnd
  0
BLOCK
  5
4C
330
4A
100
AcDbEntity
  8
0
100
AcDbBlockBegin
  2
AllgSicht1
 70
     0
 10
61.00000000001015
 20
-26.99999999999
 30
0.0
  3
AllgSicht1
  1

  0
INSERT
  5
4B
330
4A
100
AcDbEntity
  8
0
100
AcDbBlockReference
  2
KSS-3-6-select__1
 10
53.42740468814348
 20
-44.8229600222431
 30
0.0
  0
MTEXT
  5
B3
330
4A
100
AcDbEntity
  8
1
 62
     6
100
AcDbMText
 10
61.00000000001012
 20
-51.40549177698836
 30
0.0
 40
5.0
 41
0.0
 71
     2
 72
     1
  1
 
  7
CONVERTER_11
 73
     1
 44
1.32052821128451
  0
ENDBLK
  5
4D
330
4A
100
AcDbEntity
  8
0
100
AcDbBlockEnd
  0
BLOCK
  5
4F
330
4E
100
AcDbEntity
  8
0
100
AcDbBlockBegin
  2
KSS-3-6-select__2
 70
     0
 10
-42.14999999997989
 20
-43.30000019073411
 30
0.0
  3
KSS-3-6-select__2
  1

  0
LINE
  5
B4
330
4E
100
AcDbEntity
  8
0
  6
Continuous
 62
     7
100
AcDbLine
 10
-36.14999999997989
 20
-26.00000019073412
 30
0.0
 11
-35.14999999997991
 21
-26.00000019073412
 31
0.0
  0
LINE
  5
B5
330
4E
100
AcDbEntity
  8
0
  6
Continuous
 62
     7
100
AcDbLine
 10
-35.14999999997991
 20
-26.00000019073412
 30
0.0
 11
-35.14999999997991
 21
-43.30000019073411
 31
0.0
  0
LINE
  5
B6
330
4E
100
AcDbEntity
  8
0
  6
Continuous
 62
     7
100
AcDbLine
 10
-36.14999999997989
 20
-43.30000019073411
 30
0.0
 11
-35.14999999997991
 21
-43.30000019073411
 31
0.0
  0
LINE
  5
B7
330
4E
100
AcDbEntity
  8
0
  6
Continuous
 62
     7
100
AcDbLine
 10
-36.14999999997989
 20
-43.30000019073411
 30
0.0
 11
-42.14999999997989
 21
-43.30000019073411
 31
0.0
  0
LINE
  5
B8
330
4E
100
AcDbEntity
  8
0
  6
Continuous
 62
     7
100
AcDbLine
 10
-42.14999999997989
 20
-26.00000019073412
 30
0.0
 11
-42.14999999997989
 21
-43.30000019073411
 31
0.0
  0
LINE
  5
B9
330
4E
100
AcDbEntity
  8
0
  6
Continuous
 62
     7
100
AcDbLine
 10
-36.14999999997989
 20
-26.00000019073412
 30
0.0
 11
-42.14999999997989
 21
-26.00000019073412
 31
0.0
  0
LINE
  5
BA
330
4E
100
AcDbEntity
  8
0
  6
Continuous
 62
     7
100
AcDbLine
 10
-36.14999999997989
 20
-43.30000019073411
 30
0.0
 11
-36.14999999997989
 21
-26.00000019073412
 31
0.0
  0
ENDBLK
  5
50
330
4E
100
AcDbEntity
  8
0
100
AcDbBlockEnd
  0
BLOCK
  5
53
330
51
100
AcDbEntity
  8
0
100
AcDbBlockBegin
  2
Drfsicht1
 70
     0
 10
-38.39999999998989
 20
-34.65000009536669
 30
0.0
  3
Drfsicht1
  1

  0
INSERT
  5
52
330
51
100
AcDbEntity
  8
0
100
AcDbBlockReference
  2
KSS-3-6-select__2
 10
-42.14999999997989
 20
-43.30000019073411
 30
0.0
  0
DIMENSION
  5
C5
330
51
100
AcDbEntity
  8
1
100
AcDbDimension
  2
*D17
 10
-52.1499999999799
 20
-43.3000001907341
 30
0.0
 11
-55.5749999999799
 21
-34.23520286531986
 31
0.0
 70
    32
  1
<>
 71
     5
 42
-1.0
 53
90.0
  3
ME10_DIM_10
100
AcDbAlignedDimension
 13
-42.14999999997989
 23
-26.00000019073412
 33
0.0
 14
-36.14999999997989
 24
-43.30000019073411
 34
0.0
 50
90.0
100
AcDbRotatedDimension
  0
ENDBLK
  5
54
330
51
100
AcDbEntity
  8
0
100
AcDbBlockEnd
  0
BLOCK
  5
56
330
55
100
AcDbEntity
  8
0
100
AcDbBlockBegin
  2
KSS-3-6-select__3
 70
     0
 10
56.74999999998001
 20
5.00000000003999
 30
0.0
  3
KSS-3-6-select__3
  1

  0
LINE
  5
C6
330
55
100
AcDbEntity
  8
0
  6
Continuous
 62
     7
100
AcDbLine
 10
62.74999999998001
 20
5.00000000003999
 30
0.0
 11
59.74999999998001
 21
5.00000000003999
 31
0.0
  0
LINE
  5
C7
330
55
100
AcDbEntity
  8
0
  6
Continuous
 62
     7
100
AcDbLine
 10
57.74999999998001
 20
37.67871926219095
 30
0.0
 11
57.74999999998001
 21
39.00000000003999
 31
0.0
  0
LINE
  5
C8
330
55
100
AcDbEntity
  8
0
  6
Continuous
 62
     7
100
AcDbLine
 10
57.74999999998001
 20
39.00000000003999
 30
0.0
 11
63.74999999998001
 21
39.00000000003999
 31
0.0
  0
LINE
  5
C9
330
55
100
AcDbEntity
  8
0
  6
Continuous
 62
     7
100
AcDbLine
 10
63.24999999998001
 20
21.13397500008822
 30
0.0
 11
61.24999999998001
 21
21.13397500008822
 31
0.0
  0
LINE
  5
CA
330
55
100
AcDbEntity
  8
0
  6
Continuous
 62
     7
100
AcDbLine
 10
61.24999999998001
 20
21.13397500008822
 30
0.0
 11
59.24999999998001
 21
21.13397500008822
 31
0.0
  0
LINE
  5
CB
330
55
100
AcDbEntity
  8
0
  6
Continuous
 62
     7
100
AcDbLine
 10
59.74999999998001
 20
16.50000000003999
 30
0.0
 11
62.74999999998001
 21
16.50000000003999
 31
0.0
  0
LINE
  5
CC
330
55
100
AcDbEntity
  8
0
  6
Continuous
 62
     7
100
AcDbLine
 10
63.74999999998001
 20
27.00000000008822
 30
0.0
 11
58.74999999998001
 21
27.00000000008822
 31
0.0
  0
LINE
  5
CD
330
55
100
AcDbEntity
  8
0
  6
Continuous
 62
     7
100
AcDbLine
 10
63.74999999998001
 20
39.00000000003999
 30
0.0
 11
63.74999999998001
 21
27.00000000008822
 31
0.0
  0
LINE
  5
CE
330
55
100
AcDbEntity
  8
0
  6
Continuous
 62
     7
100
AcDbLine
 10
63.74999999998001
 20
21.13397500008822
 30
0.0
 11
63.24999999998001
 21
21.13397500008822
 31
0.0
  0
LINE
  5
CF
330
55
100
AcDbEntity
  8
0
  6
Continuous
 62
     7
100
AcDbLine
 10
63.24999999998001
 20
16.50000000003999
 30
0.0
 11
63.24999999998001
 21
21.13397500008822
 31
0.0
  0
LINE
  5
D0
330
55
100
AcDbEntity
  8
0
  6
Continuous
 62
     7
100
AcDbLine
 10
62.74999999998001
 20
16.50000000003999
 30
0.0
 11
63.24999999998001
 21
16.50000000003999
 31
0.0
  0
LINE
  5
D1
330
55
100
AcDbEntity
  8
0
  6
Continuous
 62
     7
100
AcDbLine
 10
63.74999999998001
 20
27.00000000008822
 30
0.0
 11
63.74999999998001
 21
21.13397500008822
 31
0.0
  0
LINE
  5
D2
330
55
100
AcDbEntity
  8
0
  6
Continuous
 62
     7
100
AcDbLine
 10
62.74999999998001
 20
16.50000000003999
 30
0.0
 11
62.74999999998001
 21
5.00000000003999
 31
0.0
  0
LINE
  5
D3
330
55
100
AcDbEntity
  8
0
  6
Continuous
 62
     7
100
AcDbLine
 10
58.74999999998001
 20
27.00000000008822
 30
0.0
 11
56.74999999998001
 21
27.00000000008822
 31
0.0
  0
LINE
  5
D4
330
55
100
AcDbEntity
  8
0
  6
Continuous
 62
     7
100
AcDbLine
 10
56.74999999998001
 20
27.00000000008822
 30
0.0
 11
56.74999999998002
 21
28.85473174683535
 31
0.0
  0
LINE
  5
D5
330
55
100
AcDbEntity
  8
0
  6
Continuous
 62
     7
100
AcDbLine
 10
59.24999999998001
 20
16.50000000003999
 30
0.0
 11
59.74999999998001
 21
16.50000000003999
 31
0.0
  0
LINE
  5
D6
330
55
100
AcDbEntity
  8
0
  6
Continuous
 62
     7
100
AcDbLine
 10
59.24999999998001
 20
21.13397500008822
 30
0.0
 11
58.74999999998001
 21
21.13397500008822
 31
0.0
  0
LINE
  5
D7
330
55
100
AcDbEntity
  8
0
  6
Continuous
 62
     7
100
AcDbLine
 10
59.24999999998001
 20
16.50000000003999
 30
0.0
 11
59.24999999998001
 21
21.13397500008822
 31
0.0
  0
LINE
  5
D8
330
55
100
AcDbEntity
  8
0
  6
Continuous
 62
     7
100
AcDbLine
 10
58.74999999998001
 20
27.00000000008822
 30
0.0
 11
58.74999999998001
 21
21.13397500008822
 31
0.0
  0
LINE
  5
D9
330
55
100
AcDbEntity
  8
0
  6
Continuous
 62
     7
100
AcDbLine
 10
59.74999999998001
 20
16.50000000003999
 30
0.0
 11
59.74999999998001
 21
5.00000000003999
 31
0.0
  0
LINE
  5
DA
330
55
100
AcDbEntity
  8
1
  6
DOT_CENTER
 62
     2
100
AcDbLine
 10
61.24999999997999
 20
5.00000000003999
 30
0.0
 11
61.24999999998001
 21
27.00000000008822
 31
0.0
  0
ARC
  5
DB
330
55
100
AcDbEntity
  8
0
  6
Continuous
 62
     7
100
AcDbCircle
 10
47.24999999998001
 20
34.40000000004
 30
0.0
 40
10.99999999999998
100
AcDbArc
 50
329.7273586810907
 51
17.34144280275952
  0
ENDBLK
  5
57
330
55
100
AcDbEntity
  8
0
100
AcDbBlockEnd
  0
BLOCK
  5
5A
330
58
100
AcDbEntity
  8
0
100
AcDbBlockBegin
  2
Rckans1
 70
     0
 10
59.99999999999
 20
22.00000000002001
 30
0.0
  3
Rckans1
  1

  0
INSERT
  5
59
330
58
100
AcDbEntity
  8
0
100
AcDbBlockReference
  2
KSS-3-6-select__3
 10
56.74999999998001
 20
5.00000000003999
 30
0.0
  0
MTEXT
  5
DC
330
58
100
AcDbEntity
  8
1
 62
     6
100
AcDbMText
 10
59.99999999999
 20
0.00000000002001
 30
0.0
 40
5.0
 41
0.0
 71
     2
 72
     1
  1
 
  7
CONVERTER_11
 73
     1
 44
1.32052821128451
  0
ENDBLK
  5
5B
330
58
100
AcDbEntity
  8
0
100
AcDbBlockEnd
  0
BLOCK
  5
5D
330
5C
100
AcDbEntity
  8
0
100
AcDbBlockBegin
  2
KSS-3-6-select__4
 70
     0
 10
-98.65000009536735
 20
5.00000000003988
 30
0.0
  3
KSS-3-6-select__4
  1

  0
LINE
  5
DD
330
5C
100
AcDbEntity
  8
0
  6
Continuous
 62
     7
100
AcDbLine
 10
-88.50000009536735
 20
5.00000000003988
 30
0.0
 11
-91.50000009536735
 21
5.00000000003988
 31
0.0
  0
LINE
  5
DE
330
5C
100
AcDbEntity
  8
0
  6
Continuous
 62
     7
100
AcDbLine
 10
-91.50000009536735
 20
16.50000000003988
 30
0.0
 11
-91.50000009536735
 21
5.00000000003988
 31
0.0
  0
LINE
  5
DF
330
5C
100
AcDbEntity
  8
0
  6
Continuous
 62
     7
100
AcDbLine
 10
-94.65000009536735
 20
5.00000000003988
 30
0.0
 11
-97.65000009536735
 21
5.00000000003988
 31
0.0
  0
LINE
  5
E0
330
5C
100
AcDbEntity
  8
0
  6
Continuous
 62
     7
100
AcDbLine
 10
-97.65000009536735
 20
16.50000000003988
 30
0.0
 11
-97.65000009536735
 21
5.00000000003988
 31
0.0
  0
LINE
  5
E1
330
5C
100
AcDbEntity
  8
0
  6
Continuous
 62
     7
100
AcDbLine
 10
-98.15000009536735
 20
16.50000000003988
 30
0.0
 11
-97.65000009536735
 21
16.50000000003988
 31
0.0
  0
LINE
  5
E2
330
5C
100
AcDbEntity
  8
0
  6
Continuous
 62
     7
100
AcDbLine
 10
-97.65000009536735
 20
16.50000000003988
 30
0.0
 11
-96.15000009536735
 21
16.50000000003988
 31
0.0
  0
LINE
  5
E3
330
5C
100
AcDbEntity
  8
0
  6
Continuous
 62
     7
100
AcDbLine
 10
-94.15000009536735
 20
21.1339750000881
 30
0.0
 11
-98.15000009536735
 21
21.1339750000881
 31
0.0
  0
LINE
  5
E4
330
5C
100
AcDbEntity
  8
0
  6
Continuous
 62
     7
100
AcDbLine
 10
-94.65000009536735
 20
16.50000000003988
 30
0.0
 11
-94.65000009536735
 21
5.00000000003988
 31
0.0
  0
LINE
  5
E5
330
5C
100
AcDbEntity
  8
0
  6
Continuous
 62
     7
100
AcDbLine
 10
-88.50000009536735
 20
16.50000000003988
 30
0.0
 11
-88.50000009536735
 21
5.00000000003988
 31
0.0
  0
LINE
  5
E6
330
5C
100
AcDbEntity
  8
0
  6
Continuous
 62
     7
100
AcDbLine
 10
-85.85000009536735
 20
16.50000000003988
 30
0.0
 11
-85.35000009536735
 21
16.50000000003988
 31
0.0
  0
LINE
  5
E7
330
5C
100
AcDbEntity
  8
0
  6
Continuous
 62
     7
100
AcDbLine
 10
-85.85000009536735
 20
21.1339750000881
 30
0.0
 11
-86.35000009536735
 21
21.1339750000881
 31
0.0
  0
LINE
  5
E8
330
5C
100
AcDbEntity
  8
0
  6
Continuous
 62
     7
100
AcDbLine
 10
-94.65000009536735
 20
16.50000000003988
 30
0.0
 11
-94.15000009536735
 21
16.50000000003988
 31
0.0
  0
LINE
  5
E9
330
5C
100
AcDbEntity
  8
0
  6
Continuous
 62
     7
100
AcDbLine
 10
-96.15000009536735
 20
16.50000000003988
 30
0.0
 11
-94.65000009536735
 21
16.50000000003988
 31
0.0
  0
LINE
  5
EA
330
5C
100
AcDbEntity
  8
0
  6
Continuous
 62
     7
100
AcDbLine
 10
-91.50000009536735
 20
16.50000000003988
 30
0.0
 11
-90.00000009536735
 21
16.50000000003988
 31
0.0
  0
LINE
  5
EB
330
5C
100
AcDbEntity
  8
0
  6
Continuous
 62
     7
100
AcDbLine
 10
-88.50000009536735
 20
16.50000000003988
 30
0.0
 11
-88.00000009536735
 21
16.50000000003988
 31
0.0
  0
LINE
  5
EC
330
5C
100
AcDbEntity
  8
0
  6
Continuous
 62
     7
100
AcDbLine
 10
-85.85000009536735
 20
16.50000000003988
 30
0.0
 11
-85.85000009536735
 21
21.1339750000881
 31
0.0
  0
LINE
  5
ED
330
5C
100
AcDbEntity
  8
0
  6
Continuous
 62
     7
100
AcDbLine
 10
-85.35000009536735
 20
16.50000000003988
 30
0.0
 11
-83.85000009536735
 21
16.50000000003988
 31
0.0
  0
LINE
  5
EE
330
5C
100
AcDbEntity
  8
0
  6
Continuous
 62
     7
100
AcDbLine
 10
-81.85000009536735
 20
21.1339750000881
 30
0.0
 11
-85.85000009536735
 21
21.1339750000881
 31
0.0
  0
LINE
  5
EF
330
5C
100
AcDbEntity
  8
0
  6
Continuous
 62
     7
100
AcDbLine
 10
-92.50000009536735
 20
27.0000000000881
 30
0.0
 11
-93.65000009536735
 21
27.0000000000881
 31
0.0
  0
LINE
  5
F0
330
5C
100
AcDbEntity
  8
0
  6
Continuous
 62
     7
100
AcDbLine
 10
-93.65000009536735
 20
27.0000000000881
 30
0.0
 11
-93.65000009536735
 21
21.1339750000881
 31
0.0
  0
LINE
  5
F1
330
5C
100
AcDbEntity
  8
0
  6
Continuous
 62
     7
100
AcDbLine
 10
-92.50000009536735
 20
27.0000000000881
 30
0.0
 11
-92.50000009536735
 21
21.1339750000881
 31
0.0
  0
LINE
  5
F2
330
5C
100
AcDbEntity
  8
0
  6
Continuous
 62
     7
100
AcDbLine
 10
-87.50000009536735
 20
21.1339750000881
 30
0.0
 11
-88.00000009536735
 21
21.1339750000881
 31
0.0
  0
LINE
  5
F3
330
5C
100
AcDbEntity
  8
0
  6
Continuous
 62
     7
100
AcDbLine
 10
-92.00000009536735
 20
16.50000000003988
 30
0.0
 11
-91.50000009536735
 21
16.50000000003988
 31
0.0
  0
LINE
  5
F4
330
5C
100
AcDbEntity
  8
0
  6
Continuous
 62
     7
100
AcDbLine
 10
-90.00000009536735
 20
16.50000000003988
 30
0.0
 11
-88.50000009536735
 21
16.50000000003988
 31
0.0
  0
LINE
  5
F5
330
5C
100
AcDbEntity
  8
0
  6
Continuous
 62
     7
100
AcDbLine
 10
-88.00000009536735
 20
21.1339750000881
 30
0.0
 11
-90.00000009536735
 21
21.1339750000881
 31
0.0
  0
LINE
  5
F6
330
5C
100
AcDbEntity
  8
0
  6
Continuous
 62
     7
100
AcDbLine
 10
-93.65000009536735
 20
21.1339750000881
 30
0.0
 11
-94.15000009536735
 21
21.1339750000881
 31
0.0
  0
LINE
  5
F7
330
5C
100
AcDbEntity
  8
0
  6
Continuous
 62
     7
100
AcDbLine
 10
-92.00000009536735
 20
21.1339750000881
 30
0.0
 11
-92.50000009536735
 21
21.1339750000881
 31
0.0
  0
LINE
  5
F8
330
5C
100
AcDbEntity
  8
0
  6
Continuous
 62
     7
100
AcDbLine
 10
-94.15000009536735
 20
16.50000000003988
 30
0.0
 11
-94.15000009536735
 21
21.1339750000881
 31
0.0
  0
LINE
  5
F9
330
5C
100
AcDbEntity
  8
0
  6
Continuous
 62
     7
100
AcDbLine
 10
-92.00000009536735
 20
16.50000000003988
 30
0.0
 11
-92.00000009536735
 21
21.1339750000881
 31
0.0
  0
LINE
  5
FA
330
5C
100
AcDbEntity
  8
0
  6
Continuous
 62
     7
100
AcDbLine
 10
-88.00000009536735
 20
16.50000000003988
 30
0.0
 11
-88.00000009536735
 21
21.1339750000881
 31
0.0
  0
LINE
  5
FB
330
5C
100
AcDbEntity
  8
0
  6
Continuous
 62
     7
100
AcDbLine
 10
-90.00000009536735
 20
21.1339750000881
 30
0.0
 11
-92.00000009536735
 21
21.1339750000881
 31
0.0
  0
LINE
  5
FC
330
5C
100
AcDbEntity
  8
0
  6
Continuous
 62
     7
100
AcDbLine
 10
-87.50000009536735
 20
27.0000000000881
 30
0.0
 11
-87.50000009536735
 21
21.1339750000881
 31
0.0
  0
LINE
  5
FD
330
5C
100
AcDbEntity
  8
0
  6
Continuous
 62
     7
100
AcDbLine
 10
-86.35000009536735
 20
27.0000000000881
 30
0.0
 11
-86.35000009536735
 21
21.1339750000881
 31
0.0
  0
LINE
  5
FE
330
5C
100
AcDbEntity
  8
0
  6
Continuous
 62
     7
100
AcDbLine
 10
-81.35000009536735
 20
28.85473174683522
 30
0.0
 11
-98.65000009536735
 21
28.85473174683522
 31
0.0
  0
LINE
  5
FF
330
5C
100
AcDbEntity
  8
0
  6
Continuous
 62
     7
100
AcDbLine
 10
-93.65000009536735
 20
27.0000000000881
 30
0.0
 11
-98.65000009536735
 21
27.0000000000881
 31
0.0
  0
LINE
  5
100
330
5C
100
AcDbEntity
  8
0
  6
Continuous
 62
     7
100
AcDbLine
 10
-87.50000009536735
 20
27.0000000000881
 30
0.0
 11
-92.50000009536735
 21
27.0000000000881
 31
0.0
  0
LINE
  5
101
330
5C
100
AcDbEntity
  8
0
  6
Continuous
 62
     7
100
AcDbLine
 10
-86.35000009536735
 20
27.0000000000881
 30
0.0
 11
-87.50000009536735
 21
27.0000000000881
 31
0.0
  0
LINE
  5
102
330
5C
100
AcDbEntity
  8
0
  6
Continuous
 62
     7
100
AcDbLine
 10
-81.35000009536735
 20
27.0000000000881
 30
0.0
 11
-86.35000009536735
 21
27.0000000000881
 31
0.0
  0
LINE
  5
103
330
5C
100
AcDbEntity
  8
0
  6
Continuous
 62
     7
100
AcDbLine
 10
-81.35000009536735
 20
37.67871926219083
 30
0.0
 11
-98.65000009536735
 21
37.67871926219083
 31
0.0
  0
LINE
  5
104
330
5C
100
AcDbEntity
  8
0
  6
Continuous
 62
     7
100
AcDbLine
 10
-82.35000009536735
 20
5.00000000003988
 30
0.0
 11
-85.35000009536735
 21
5.00000000003988
 31
0.0
  0
LINE
  5
105
330
5C
100
AcDbEntity
  8
0
  6
Continuous
 62
     7
100
AcDbLine
 10
-81.35000009536735
 20
21.1339750000881
 30
0.0
 11
-81.85000009536735
 21
21.1339750000881
 31
0.0
  0
LINE
  5
106
330
5C
100
AcDbEntity
  8
0
  6
Continuous
 62
     7
100
AcDbLine
 10
-81.85000009536735
 20
16.50000000003988
 30
0.0
 11
-81.85000009536735
 21
21.1339750000881
 31
0.0
  0
LINE
  5
107
330
5C
100
AcDbEntity
  8
0
  6
Continuous
 62
     7
100
AcDbLine
 10
-82.35000009536735
 20
16.50000000003988
 30
0.0
 11
-81.85000009536735
 21
16.50000000003988
 31
0.0
  0
LINE
  5
108
330
5C
100
AcDbEntity
  8
0
  6
Continuous
 62
     7
100
AcDbLine
 10
-83.85000009536735
 20
16.50000000003988
 30
0.0
 11
-82.35000009536735
 21
16.50000000003988
 31
0.0
  0
LINE
  5
109
330
5C
100
AcDbEntity
  8
0
  6
Continuous
 62
     7
100
AcDbLine
 10
-81.35000009536735
 20
27.0000000000881
 30
0.0
 11
-81.35000009536735
 21
28.85473174683522
 31
0.0
  0
LINE
  5
10A
330
5C
100
AcDbEntity
  8
0
  6
Continuous
 62
     7
100
AcDbLine
 10
-81.35000009536735
 20
37.67871926219083
 30
0.0
 11
-81.35000009536735
 21
28.85473174683522
 31
0.0
  0
LINE
  5
10B
330
5C
100
AcDbEntity
  8
0
  6
Continuous
 62
     7
100
AcDbLine
 10
-81.35000009536735
 20
27.0000000000881
 30
0.0
 11
-81.35000009536735
 21
21.1339750000881
 31
0.0
  0
LINE
  5
10C
330
5C
100
AcDbEntity
  8
0
  6
Continuous
 62
     7
100
AcDbLine
 10
-85.35000009536735
 20
16.50000000003988
 30
0.0
 11
-85.35000009536735
 21
5.00000000003988
 31
0.0
  0
LINE
  5
10D
330
5C
100
AcDbEntity
  8
0
  6
Continuous
 62
     7
100
AcDbLine
 10
-81.35000009536735
 20
37.67871926219083
 30
0.0
 11
-81.35000009536735
 21
39.00000000003988
 31
0.0
  0
LINE
  5
10E
330
5C
100
AcDbEntity
  8
0
  6
Continuous
 62
     7
100
AcDbLine
 10
-82.35000009536735
 20
16.50000000003988
 30
0.0
 11
-82.35000009536735
 21
5.00000000003988
 31
0.0
  0
LINE
  5
10F
330
5C
100
AcDbEntity
  8
0
  6
Continuous
 62
     7
100
AcDbLine
 10
-98.65000009536735
 20
27.0000000000881
 30
0.0
 11
-98.65000009536735
 21
28.85473174683522
 31
0.0
  0
LINE
  5
110
330
5C
100
AcDbEntity
  8
0
  6
Continuous
 62
     7
100
AcDbLine
 10
-98.65000009536735
 20
37.67871926219083
 30
0.0
 11
-98.65000009536735
 21
28.85473174683522
 31
0.0
  0
LINE
  5
111
330
5C
100
AcDbEntity
  8
0
  6
Continuous
 62
     7
100
AcDbLine
 10
-98.65000009536735
 20
37.67871926219083
 30
0.0
 11
-98.65000009536735
 21
39.00000000003988
 31
0.0
  0
LINE
  5
112
330
5C
100
AcDbEntity
  8
0
  6
Continuous
 62
     7
100
AcDbLine
 10
-98.65000009536735
 20
27.0000000000881
 30
0.0
 11
-98.65000009536735
 21
21.1339750000881
 31
0.0
  0
LINE
  5
113
330
5C
100
AcDbEntity
  8
0
  6
Continuous
 62
     7
100
AcDbLine
 10
-98.15000009536735
 20
16.50000000003988
 30
0.0
 11
-98.15000009536735
 21
21.1339750000881
 31
0.0
  0
LINE
  5
114
330
5C
100
AcDbEntity
  8
0
  6
Continuous
 62
     7
100
AcDbLine
 10
-98.15000009536735
 20
21.1339750000881
 30
0.0
 11
-98.65000009536735
 21
21.1339750000881
 31
0.0
  0
LINE
  5
115
330
5C
100
AcDbEntity
  8
0
  6
Continuous
 62
     7
100
AcDbLine
 10
-98.65000009536735
 20
39.00000000003988
 30
0.0
 11
-81.35000009536735
 21
39.00000000003988
 31
0.0
  0
LINE
  5
116
330
5C
100
AcDbEntity
  8
1
  6
DOT_CENTER
 62
     2
100
AcDbLine
 10
-90.00000009536735
 20
27.00000000008814
 30
0.0
 11
-90.00000009536735
 21
3.80000000003996
 31
0.0
  0
LINE
  5
117
330
5C
100
AcDbEntity
  8
1
  6
DOT_CENTER
 62
     2
100
AcDbLine
 10
-83.85000009536735
 20
27.00000000008814
 30
0.0
 11
-83.85000009536735
 21
3.80000000003997
 31
0.0
  0
LINE
  5
118
330
5C
100
AcDbEntity
  8
1
  6
DOT_CENTER
 62
     2
100
AcDbLine
 10
-96.15000009536737
 20
5.00000000003998
 30
0.0
 11
-96.15000009536735
 21
27.0000000000881
 31
0.0
  0
ENDBLK
  5
5E
330
5C
100
AcDbEntity
  8
0
100
AcDbBlockEnd
  0
BLOCK
  5
61
330
5F
100
AcDbEntity
  8
0
100
AcDbBlockBegin
  2
SA_Rechts1
 70
     0
 10
-89.99999999999993
 20
22.0000000000199
 30
0.0
  3
SA_Rechts1
  1

  0
INSERT
  5
60
330
5F
100
AcDbEntity
  8
0
100
AcDbBlockReference
  2
KSS-3-6-select__4
 10
-98.65000009536735
 20
5.00000000003988
 30
0.0
  0
MTEXT
  5
119
330
5F
100
AcDbEntity
  8
1
 62
     6
100
AcDbMText
 10
-89.99999999999989
 20
0.00000000002001
 30
0.0
 40
5.0
 41
0.0
 71
     2
 72
     1
  1
 
  7
CONVERTER_11
 73
     1
 44
1.32052821128451
  0
ENDBLK
  5
62
330
5F
100
AcDbEntity
  8
0
100
AcDbBlockEnd
  0
BLOCK
  5
64
330
63
100
AcDbEntity
  8
0
100
AcDbBlockBegin
  2
KSS-3-6-select__5
 70
     0
 10
-0.64999980926262
 20
5.00000000003988
 30
0.0
  3
KSS-3-6-select__5
  1

  0
LINE
  5
11A
330
63
100
AcDbEntity
  8
0
  6
Continuous
 62
     7
100
AcDbLine
 10
0.35000019073738
 20
16.50000000003988
 30
0.0
 11
3.35000019073738
 21
16.50000000003988
 31
0.0
  0
LINE
  5
11B
330
63
100
AcDbEntity
  8
0
  6
Continuous
 62
     7
100
AcDbLine
 10
6.50000019073738
 20
16.50000000003988
 30
0.0
 11
9.50000019073738
 21
16.50000000003988
 31
0.0
  0
LINE
  5
11C
330
63
100
AcDbEntity
  8
0
  6
Continuous
 62
     7
100
AcDbLine
 10
10.00000019073738
 20
21.1339750000881
 30
0.0
 11
6.00000019073738
 21
21.1339750000881
 31
0.0
  0
LINE
  5
11D
330
63
100
AcDbEntity
  8
0
  6
Continuous
 62
     7
100
AcDbLine
 10
16.65000019073739
 20
21.1339750000881
 30
0.0
 11
16.15000019073738
 21
21.1339750000881
 31
0.0
  0
LINE
  5
11E
330
63
100
AcDbEntity
  8
0
  6
Continuous
 62
     7
100
AcDbLine
 10
-0.14999980926262
 20
21.1339750000881
 30
0.0
 11
-0.64999980926262
 21
21.1339750000881
 31
0.0
  0
LINE
  5
11F
330
63
100
AcDbEntity
  8
0
  6
Continuous
 62
     7
100
AcDbLine
 10
16.15000019073738
 20
21.1339750000881
 30
0.0
 11
12.15000019073738
 21
21.1339750000881
 31
0.0
  0
LINE
  5
120
330
63
100
AcDbEntity
  8
0
  6
Continuous
 62
     7
100
AcDbLine
 10
3.85000019073738
 20
21.1339750000881
 30
0.0
 11
-0.14999980926262
 21
21.1339750000881
 31
0.0
  0
LINE
  5
121
330
63
100
AcDbEntity
  8
0
  6
Continuous
 62
     7
100
AcDbLine
 10
16.65000019073738
 20
39.00000000003988
 30
0.0
 11
16.65000019073738
 21
27.0000000000881
 31
0.0
  0
LINE
  5
122
330
63
100
AcDbEntity
  8
0
  6
Continuous
 62
     7
100
AcDbLine
 10
16.65000019073738
 20
27.0000000000881
 30
0.0
 11
16.65000019073739
 21
21.1339750000881
 31
0.0
  0
LINE
  5
123
330
63
100
AcDbEntity
  8
0
  6
Continuous
 62
     7
100
AcDbLine
 10
-0.14999980926262
 20
16.50000000003988
 30
0.0
 11
0.35000019073738
 21
16.50000000003988
 31
0.0
  0
LINE
  5
124
330
63
100
AcDbEntity
  8
0
  6
Continuous
 62
     7
100
AcDbLine
 10
-0.14999980926262
 20
16.50000000003988
 30
0.0
 11
-0.14999980926262
 21
21.1339750000881
 31
0.0
  0
LINE
  5
125
330
63
100
AcDbEntity
  8
0
  6
Continuous
 62
     7
100
AcDbLine
 10
-0.64999980926262
 20
27.0000000000881
 30
0.0
 11
-0.64999980926262
 21
21.1339750000881
 31
0.0
  0
LINE
  5
126
330
63
100
AcDbEntity
  8
0
  6
Continuous
 62
     7
100
AcDbLine
 10
0.35000019073738
 20
16.50000000003988
 30
0.0
 11
0.35000019073738
 21
5.00000000003988
 31
0.0
  0
LINE
  5
127
330
63
100
AcDbEntity
  8
0
  6
Continuous
 62
     7
100
AcDbLine
 10
-0.64999980926262
 20
39.00000000003988
 30
0.0
 11
-0.64999980926262
 21
27.0000000000881
 31
0.0
  0
LINE
  5
128
330
63
100
AcDbEntity
  8
0
  6
Continuous
 62
     7
100
AcDbLine
 10
4.35000019073738
 20
21.1339750000881
 30
0.0
 11
3.85000019073738
 21
21.1339750000881
 31
0.0
  0
LINE
  5
129
330
63
100
AcDbEntity
  8
0
  6
Continuous
 62
     7
100
AcDbLine
 10
3.85000019073738
 20
16.50000000003988
 30
0.0
 11
3.85000019073738
 21
21.1339750000881
 31
0.0
  0
LINE
  5
12A
330
63
100
AcDbEntity
  8
0
  6
Continuous
 62
     7
100
AcDbLine
 10
3.35000019073738
 20
16.50000000003988
 30
0.0
 11
3.85000019073738
 21
16.50000000003988
 31
0.0
  0
LINE
  5
12B
330
63
100
AcDbEntity
  8
0
  6
Continuous
 62
     7
100
AcDbLine
 10
6.00000019073738
 20
21.1339750000881
 30
0.0
 11
5.50000019073738
 21
21.1339750000881
 31
0.0
  0
LINE
  5
12C
330
63
100
AcDbEntity
  8
0
  6
Continuous
 62
     7
100
AcDbLine
 10
5.50000019073738
 20
27.0000000000881
 30
0.0
 11
5.50000019073738
 21
21.1339750000881
 31
0.0
  0
LINE
  5
12D
330
63
100
AcDbEntity
  8
0
  6
Continuous
 62
     7
100
AcDbLine
 10
6.00000019073738
 20
16.50000000003988
 30
0.0
 11
6.50000019073738
 21
16.50000000003988
 31
0.0
  0
LINE
  5
12E
330
63
100
AcDbEntity
  8
0
  6
Continuous
 62
     7
100
AcDbLine
 10
6.00000019073738
 20
16.50000000003988
 30
0.0
 11
6.00000019073738
 21
21.1339750000881
 31
0.0
  0
LINE
  5
12F
330
63
100
AcDbEntity
  8
0
  6
Continuous
 62
     7
100
AcDbLine
 10
4.35000019073738
 20
27.0000000000881
 30
0.0
 11
4.35000019073738
 21
21.1339750000881
 31
0.0
  0
LINE
  5
130
330
63
100
AcDbEntity
  8
0
  6
Continuous
 62
     7
100
AcDbLine
 10
6.50000019073738
 20
16.50000000003988
 30
0.0
 11
6.50000019073738
 21
5.00000000003988
 31
0.0
  0
LINE
  5
131
330
63
100
AcDbEntity
  8
0
  6
Continuous
 62
     7
100
AcDbLine
 10
3.35000019073738
 20
16.50000000003988
 30
0.0
 11
3.35000019073738
 21
5.00000000003988
 31
0.0
  0
LINE
  5
132
330
63
100
AcDbEntity
  8
0
  6
Continuous
 62
     7
100
AcDbLine
 10
10.50000019073739
 20
27.0000000000881
 30
0.0
 11
11.65000019073738
 21
27.0000000000881
 31
0.0
  0
LINE
  5
133
330
63
100
AcDbEntity
  8
0
  6
Continuous
 62
     7
100
AcDbLine
 10
11.65000019073738
 20
27.0000000000881
 30
0.0
 11
16.65000019073738
 21
27.0000000000881
 31
0.0
  0
LINE
  5
134
330
63
100
AcDbEntity
  8
0
  6
Continuous
 62
     7
100
AcDbLine
 10
4.35000019073738
 20
27.0000000000881
 30
0.0
 11
5.50000019073738
 21
27.0000000000881
 31
0.0
  0
LINE
  5
135
330
63
100
AcDbEntity
  8
0
  6
Continuous
 62
     7
100
AcDbLine
 10
5.50000019073738
 20
27.0000000000881
 30
0.0
 11
10.50000019073739
 21
27.0000000000881
 31
0.0
  0
LINE
  5
136
330
63
100
AcDbEntity
  8
0
  6
Continuous
 62
     7
100
AcDbLine
 10
-0.64999980926262
 20
27.0000000000881
 30
0.0
 11
4.35000019073738
 21
27.0000000000881
 31
0.0
  0
LINE
  5
137
330
63
100
AcDbEntity
  8
0
  6
Continuous
 62
     7
100
AcDbLine
 10
10.50000019073739
 20
27.0000000000881
 30
0.0
 11
10.50000019073739
 21
21.1339750000881
 31
0.0
  0
LINE
  5
138
330
63
100
AcDbEntity
  8
0
  6
Continuous
 62
     7
100
AcDbLine
 10
10.50000019073739
 20
21.1339750000881
 30
0.0
 11
10.00000019073738
 21
21.1339750000881
 31
0.0
  0
LINE
  5
139
330
63
100
AcDbEntity
  8
0
  6
Continuous
 62
     7
100
AcDbLine
 10
10.00000019073738
 20
16.50000000003988
 30
0.0
 11
10.00000019073738
 21
21.1339750000881
 31
0.0
  0
LINE
  5
13A
330
63
100
AcDbEntity
  8
0
  6
Continuous
 62
     7
100
AcDbLine
 10
12.15000019073738
 20
21.1339750000881
 30
0.0
 11
11.65000019073738
 21
21.1339750000881
 31
0.0
  0
LINE
  5
13B
330
63
100
AcDbEntity
  8
0
  6
Continuous
 62
     7
100
AcDbLine
 10
9.50000019073738
 20
16.50000000003988
 30
0.0
 11
10.00000019073738
 21
16.50000000003988
 31
0.0
  0
LINE
  5
13C
330
63
100
AcDbEntity
  8
0
  6
Continuous
 62
     7
100
AcDbLine
 10
12.15000019073738
 20
16.50000000003988
 30
0.0
 11
12.65000019073738
 21
16.50000000003988
 31
0.0
  0
LINE
  5
13D
330
63
100
AcDbEntity
  8
0
  6
Continuous
 62
     7
100
AcDbLine
 10
12.65000019073738
 20
16.50000000003988
 30
0.0
 11
12.65000019073738
 21
5.00000000003988
 31
0.0
  0
LINE
  5
13E
330
63
100
AcDbEntity
  8
0
  6
Continuous
 62
     7
100
AcDbLine
 10
9.50000019073738
 20
16.50000000003988
 30
0.0
 11
9.50000019073738
 21
5.00000000003988
 31
0.0
  0
LINE
  5
13F
330
63
100
AcDbEntity
  8
0
  6
Continuous
 62
     7
100
AcDbLine
 10
12.15000019073738
 20
16.50000000003988
 30
0.0
 11
12.15000019073738
 21
21.1339750000881
 31
0.0
  0
LINE
  5
140
330
63
100
AcDbEntity
  8
0
  6
Continuous
 62
     7
100
AcDbLine
 10
11.65000019073738
 20
27.0000000000881
 30
0.0
 11
11.65000019073738
 21
21.1339750000881
 31
0.0
  0
LINE
  5
141
330
63
100
AcDbEntity
  8
0
  6
Continuous
 62
     7
100
AcDbLine
 10
15.65000019073738
 20
16.50000000003988
 30
0.0
 11
15.65000019073738
 21
5.00000000003988
 31
0.0
  0
LINE
  5
142
330
63
100
AcDbEntity
  8
0
  6
Continuous
 62
     7
100
AcDbLine
 10
15.65000019073738
 20
16.50000000003988
 30
0.0
 11
16.15000019073738
 21
16.50000000003988
 31
0.0
  0
LINE
  5
143
330
63
100
AcDbEntity
  8
0
  6
Continuous
 62
     7
100
AcDbLine
 10
16.15000019073738
 20
16.50000000003988
 30
0.0
 11
16.15000019073738
 21
21.1339750000881
 31
0.0
  0
LINE
  5
144
330
63
100
AcDbEntity
  8
0
  6
Continuous
 62
     7
100
AcDbLine
 10
15.65000019073738
 20
5.00000000003988
 30
0.0
 11
14.15000019073738
 21
5.00000000003988
 31
0.0
  0
LINE
  5
145
330
63
100
AcDbEntity
  8
0
  6
Continuous
 62
     7
100
AcDbLine
 10
12.65000019073738
 20
16.50000000003988
 30
0.0
 11
15.65000019073738
 21
16.50000000003988
 31
0.0
  0
LINE
  5
146
330
63
100
AcDbEntity
  8
0
  6
Continuous
 62
     7
100
AcDbLine
 10
3.35000019073738
 20
5.00000000003988
 30
0.0
 11
1.85000019073738
 21
5.00000000003988
 31
0.0
  0
LINE
  5
147
330
63
100
AcDbEntity
  8
0
  6
Continuous
 62
     7
100
AcDbLine
 10
9.50000019073738
 20
5.00000000003988
 30
0.0
 11
8.00000019073738
 21
5.00000000003988
 31
0.0
  0
LINE
  5
148
330
63
100
AcDbEntity
  8
0
  6
Continuous
 62
     7
100
AcDbLine
 10
14.15000019073738
 20
5.00000000003988
 30
0.0
 11
12.65000019073738
 21
5.00000000003988
 31
0.0
  0
LINE
  5
149
330
63
100
AcDbEntity
  8
0
  6
Continuous
 62
     7
100
AcDbLine
 10
8.00000019073738
 20
5.00000000003988
 30
0.0
 11
6.50000019073738
 21
5.00000000003988
 31
0.0
  0
LINE
  5
14A
330
63
100
AcDbEntity
  8
0
  6
Continuous
 62
     7
100
AcDbLine
 10
1.85000019073738
 20
5.00000000003988
 30
0.0
 11
0.35000019073738
 21
5.00000000003988
 31
0.0
  0
LINE
  5
14B
330
63
100
AcDbEntity
  8
0
  6
Continuous
 62
     7
100
AcDbLine
 10
-0.64999980926262
 20
39.00000000003988
 30
0.0
 11
16.65000019073738
 21
39.00000000003988
 31
0.0
  0
LINE
  5
14C
330
63
100
AcDbEntity
  8
1
  6
DOT_CENTER
 62
     2
100
AcDbLine
 10
8.00000019073738
 20
27.00000000008814
 30
0.0
 11
8.00000019073738
 21
3.80000000003988
 31
0.0
  0
LINE
  5
14D
330
63
100
AcDbEntity
  8
1
  6
DOT_CENTER
 62
     2
100
AcDbLine
 10
1.85000019073738
 20
27.00000000008814
 30
0.0
 11
1.85000019073738
 21
3.80000000003988
 31
0.0
  0
LINE
  5
14E
330
63
100
AcDbEntity
  8
1
  6
DOT_CENTER
 62
     2
100
AcDbLine
 10
14.15000019073738
 20
5.00000000003988
 30
0.0
 11
14.15000019073738
 21
27.0000000000881
 31
0.0
  0
ENDBLK
  5
65
330
63
100
AcDbEntity
  8
0
100
AcDbBlockEnd
  0
BLOCK
  5
68
330
66
100
AcDbEntity
  8
0
100
AcDbBlockBegin
  2
SA_links1
 70
     0
 10
8.00000009536996
 20
22.0000000000199
 30
0.0
  3
SA_links1
  1

  0
INSERT
  5
67
330
66
100
AcDbEntity
  8
0
100
AcDbBlockReference
  2
KSS-3-6-select__5
 10
-0.64999980926262
 20
5.00000000003988
 30
0.0
  0
ENDBLK
  5
69
330
66
100
AcDbEntity
  8
0
100
AcDbBlockEnd
  0
BLOCK
  5
6B
330
6A
100
AcDbEntity
  8
0
100
AcDbBlockBegin
  2
KSS-3-6-select__6
 70
     0
 10
-42.14999999997989
 20
5.00000000003999
 30
0.0
  3
KSS-3-6-select__6
  1

  0
LINE
  5
14F
330
6A
100
AcDbEntity
  8
0
  6
Continuous
 62
     7
100
AcDbLine
 10
-39.64999999997989
 20
21.13397500008822
 30
0.0
 11
-41.64999999997989
 21
21.13397500008822
 31
0.0
  0
LINE
  5
150
330
6A
100
AcDbEntity
  8
0
  6
Continuous
 62
     7
100
AcDbLine
 10
-41.64999999997989
 20
16.50000000003999
 30
0.0
 11
-41.14999999997989
 21
16.50000000003999
 31
0.0
  0
LINE
  5
151
330
6A
100
AcDbEntity
  8
0
  6
Continuous
 62
     7
100
AcDbLine
 10
-41.14999999997989
 20
16.50000000003999
 30
0.0
 11
-38.14999999997989
 21
16.50000000003999
 31
0.0
  0
LINE
  5
152
330
6A
100
AcDbEntity
  8
0
  6
Continuous
 62
     7
100
AcDbLine
 10
-36.14999999997989
 20
37.67871926219095
 30
0.0
 11
-36.14999999997989
 21
39.00000000003999
 31
0.0
  0
LINE
  5
153
330
6A
100
AcDbEntity
  8
0
  6
Continuous
 62
     7
100
AcDbLine
 10
-41.14999999997989
 20
16.50000000003999
 30
0.0
 11
-41.14999999997989
 21
5.00000000003999
 31
0.0
  0
LINE
  5
154
330
6A
100
AcDbEntity
  8
0
  6
Continuous
 62
     7
100
AcDbLine
 10
-37.14999999997989
 20
21.13397500008822
 30
0.0
 11
-37.64999999997989
 21
21.13397500008822
 31
0.0
  0
LINE
  5
155
330
6A
100
AcDbEntity
  8
0
  6
Continuous
 62
     7
100
AcDbLine
 10
-38.14999999997989
 20
16.50000000003999
 30
0.0
 11
-37.64999999997989
 21
16.50000000003999
 31
0.0
  0
LINE
  5
156
330
6A
100
AcDbEntity
  8
0
  6
Continuous
 62
     7
100
AcDbLine
 10
-37.64999999997989
 20
21.13397500008822
 30
0.0
 11
-39.64999999997989
 21
21.13397500008822
 31
0.0
  0
LINE
  5
157
330
6A
100
AcDbEntity
  8
0
  6
Continuous
 62
     7
100
AcDbLine
 10
-37.64999999997989
 20
16.50000000003999
 30
0.0
 11
-37.64999999997989
 21
21.13397500008822
 31
0.0
  0
LINE
  5
158
330
6A
100
AcDbEntity
  8
0
  6
Continuous
 62
     7
100
AcDbLine
 10
-35.1499999999799
 20
27.00000000008822
 30
0.0
 11
-35.14999999997991
 21
28.85473174683535
 31
0.0
  0
LINE
  5
159
330
6A
100
AcDbEntity
  8
0
  6
Continuous
 62
     7
100
AcDbLine
 10
-37.14999999997989
 20
27.00000000008822
 30
0.0
 11
-37.14999999997989
 21
21.13397500008822
 31
0.0
  0
LINE
  5
15A
330
6A
100
AcDbEntity
  8
0
  6
Continuous
 62
     7
100
AcDbLine
 10
-42.14999999997989
 20
27.00000000008822
 30
0.0
 11
-37.14999999997989
 21
27.00000000008822
 31
0.0
  0
LINE
  5
15B
330
6A
100
AcDbEntity
  8
0
  6
Continuous
 62
     7
100
AcDbLine
 10
-37.14999999997989
 20
27.00000000008822
 30
0.0
 11
-35.1499999999799
 21
27.00000000008822
 31
0.0
  0
LINE
  5
15C
330
6A
100
AcDbEntity
  8
0
  6
Continuous
 62
     7
100
AcDbLine
 10
-41.64999999997989
 20
21.13397500008822
 30
0.0
 11
-42.14999999997989
 21
21.13397500008822
 31
0.0
  0
LINE
  5
15D
330
6A
100
AcDbEntity
  8
0
  6
Continuous
 62
     7
100
AcDbLine
 10
-41.64999999997989
 20
16.50000000003999
 30
0.0
 11
-41.64999999997989
 21
21.13397500008822
 31
0.0
  0
LINE
  5
15E
330
6A
100
AcDbEntity
  8
0
  6
Continuous
 62
     7
100
AcDbLine
 10
-42.14999999997989
 20
39.00000000003999
 30
0.0
 11
-42.14999999997989
 21
27.00000000008822
 31
0.0
  0
LINE
  5
15F
330
6A
100
AcDbEntity
  8
0
  6
Continuous
 62
     7
100
AcDbLine
 10
-42.14999999997989
 20
27.00000000008822
 30
0.0
 11
-42.14999999997989
 21
21.13397500008822
 31
0.0
  0
LINE
  5
160
330
6A
100
AcDbEntity
  8
0
  6
Continuous
 62
     7
100
AcDbLine
 10
-36.14999999997989
 20
39.00000000003999
 30
0.0
 11
-42.14999999997989
 21
39.00000000003999
 31
0.0
  0
LINE
  5
161
330
6A
100
AcDbEntity
  8
0
  6
Continuous
 62
     7
100
AcDbLine
 10
-38.14999999997989
 20
16.50000000003999
 30
0.0
 11
-38.14999999997989
 21
5.00000000003999
 31
0.0
  0
LINE
  5
162
330
6A
100
AcDbEntity
  8
0
  6
Continuous
 62
     7
100
AcDbLine
 10
-38.14999999997989
 20
5.00000000003999
 30
0.0
 11
-41.14999999997989
 21
5.00000000003999
 31
0.0
  0
LINE
  5
163
330
6A
100
AcDbEntity
  8
1
  6
DOT_CENTER
 62
     2
100
AcDbLine
 10
-39.64999999997991
 20
5.00000000003999
 30
0.0
 11
-39.64999999997989
 21
27.00000000008822
 31
0.0
  0
ARC
  5
164
330
6A
100
AcDbEntity
  8
0
  6
Continuous
 62
     7
100
AcDbCircle
 10
-25.64999999997989
 20
34.40000000004
 30
0.0
 40
10.99999999999999
100
AcDbArc
 50
162.6585571972405
 51
210.2726413189092
  0
ENDBLK
  5
6C
330
6A
100
AcDbEntity
  8
0
100
AcDbBlockEnd
  0
BLOCK
  5
6F
330
6D
100
AcDbEntity
  8
0
100
AcDbBlockBegin
  2
Vordans1
 70
     0
 10
-38.39999999998989
 20
22.00000000002001
 30
0.0
  3
Vordans1
  1

  0
INSERT
  5
6E
330
6D
100
AcDbEntity
  8
0
100
AcDbBlockReference
  2
KSS-3-6-select__6
 10
-42.14999999997989
 20
5.00000000003999
 30
0.0
  0
DIMENSION
  5
171
330
6D
100
AcDbEntity
  8
1
100
AcDbDimension
  2
*D18
 10
-42.14999999997989
 20
49.00000000003999
 30
0.0
 11
-38.2190542588587
 21
52.25000000003999
 31
0.0
 70
    32
  1
<>
 71
     5
 42
-1.0
 53
0.00013888888889
  3
ME10_DIM_11
100
AcDbAlignedDimension
 13
-35.14999999997991
 23
28.85473174683535
 33
0.0
 14
-42.14999999997989
 24
39.00000000003999
 34
0.0
100
AcDbRotatedDimension
  0
DIMENSION
  5
17C
330
6D
100
AcDbEntity
  8
1
100
AcDbDimension
  2
*D19
 10
-52.14999999997988
 20
39.00000000003999
 30
0.0
 11
-55.39999999997988
 21
23.00000000003999
 31
0.0
 70
    32
  1
<>
 71
     5
 42
-1.0
 53
90.0
  3
ME10_DIM_12
100
AcDbAlignedDimension
 13
-38.14999999997989
 23
5.00000000003999
 33
0.0
 14
-36.14999999997989
 24
39.00000000003999
 34
0.0
 50
90.0
100
AcDbRotatedDimension
  0
ENDBLK
  5
70
330
6D
100
AcDbEntity
  8
0
100
AcDbBlockEnd
  0
BLOCK
  5
72
330
71
100
AcDbEntity
  8
0
100
AcDbBlockBegin
  2
_rahmen
 70
     0
 10
138.4834551359183
 20
-113.7027458884743
 30
0.0
  3
_rahmen
  1

  0
LINE
  5
17D
330
71
100
AcDbEntity
  8
1
  6
DOT_CENTER
 62
     2
100
AcDbLine
 10
12.92530549573087
 20
-87.57774588847423
 30
0.0
 11
18.42530549573087
 21
-87.57774588847423
 31
0.0
  0
LINE
  5
17E
330
71
100
AcDbEntity
  8
1
  6
PHANTOM
 62
     2
100
AcDbLine
 10
21.67530549573087
 20
-84.82774588847423
 30
0.0
 11
21.67530549573087
 21
-90.32774588847423
 31
0.0
  0
LINE
  5
17F
330
71
100
AcDbEntity
  8
1
  6
PHANTOM
 62
     2
100
AcDbLine
 10
24.42530549573087
 20
-87.57774588847423
 30
0.0
 11
18.92530549573087
 21
-87.57774588847423
 31
0.0
  0
LINE
  5
180
330
71
100
AcDbEntity
  8
1
  6
Continuous
 62
     7
100
AcDbLine
 10
73.23865060916827
 20
-100.2027458884742
 30
0.0
 11
73.23865060916827
 21
-91.70274588847414
 31
0.0
  0
LINE
  5
181
330
71
100
AcDbEntity
  8
1
  6
Continuous
 62
     6
100
AcDbLine
 10
45.33865060916818
 20
-91.70274588847414
 30
0.0
 11
138.48345513592
 21
-91.70274588847414
 31
0.0
  0
LINE
  5
182
330
71
100
AcDbEntity
  8
1
  6
Continuous
 62
     7
100
AcDbLine
 10
8.93865060916826
 20
-91.70274588847414
 30
0.0
 11
8.93865060916826
 21
-83.20274588847414
 31
0.0
  0
LINE
  5
183
330
71
100
AcDbEntity
  8
1
  6
Continuous
 62
     7
100
AcDbLine
 10
45.33865060916818
 20
-91.70274588847414
 30
0.0
 11
45.33865060916818
 21
-83.20274588847414
 31
0.0
  0
LINE
  5
184
330
71
100
AcDbEntity
  8
1
  6
Continuous
 62
     7
100
AcDbLine
 10
103.0650468542412
 20
-83.20274588847414
 30
0.0
 11
103.0650468542412
 21
-91.70274588847414
 31
0.0
  0
LINE
  5
185
330
71
100
AcDbEntity
  8
1
  6
Continuous
 62
     7
100
AcDbLine
 10
129.5650468542408
 20
-83.20274588847414
 30
0.0
 11
129.5650468542408
 21
-91.70274588847414
 31
0.0
  0
LINE
  5
186
330
71
100
AcDbEntity
  8
1
  6
Continuous
 62
     6
100
AcDbLine
 10
-60.06134939083171
 20
-108.7027458884741
 30
0.0
 11
-105.0165448640817
 21
-108.7027458884741
 31
0.0
  0
LINE
  5
187
330
71
100
AcDbEntity
  8
1
  6
Continuous
 62
     7
100
AcDbLine
 10
138.4834551359196
 20
-100.2027458884741
 30
0.0
 11
45.33865060916818
 21
-100.2027458884741
 31
0.0
  0
LINE
  5
188
102
{ACAD_REACTORS
330
29A
330
29B
102
}
330
71
100
AcDbEntity
  8
0
  6
Continuous
 62
     2
100
AcDbLine
 10
22.64607955093567
 20
-99.40245677281084
 30
0.0
 11
22.64607955093567
 21
-98.52993976600754
 31
0.0
  0
LINE
  5
189
102
{ACAD_REACTORS
330
29A
330
29B
102
}
330
71
100
AcDbEntity
  8
0
  6
Continuous
 62
     2
100
AcDbLine
 10
22.64607955093567
 20
-100.3622254802937
 30
0.0
 11
22.64607955093567
 21
-101.234742487097
 31
0.0
  0
LINE
  5
18A
102
{ACAD_REACTORS
330
29C
330
29D
102
}
330
71
100
AcDbEntity
  8
0
  6
Continuous
 62
     2
100
AcDbLine
 10
37.97912368722618
 20
-99.14070167077034
 30
0.0
 11
39.08276298679428
 21
-99.14070167077034
 31
0.0
  0
LINE
  5
18B
102
{ACAD_REACTORS
330
29C
330
29D
102
}
330
71
100
AcDbEntity
  8
0
  6
Continuous
 62
     2
100
AcDbLine
 10
38.74878103018759
 20
-100.3622254802942
 30
0.0
 11
38.74878103018759
 21
-101.2347424870976
 31
0.0
  0
LINE
  5
18C
102
{ACAD_REACTORS
330
2A6
330
2A7
102
}
330
71
100
AcDbEntity
  8
0
  6
Continuous
 62
     2
100
AcDbLine
 10
36.88802441480766
 20
-98.05005541228354
 30
0.0
 11
38.28597746174796
 21
-96.46919641850855
 31
0.0
  0
LINE
  5
18D
102
{ACAD_REACTORS
330
2A6
330
2A7
102
}
330
71
100
AcDbEntity
  8
0
  6
Continuous
 62
     2
100
AcDbLine
 10
36.98344783098048
 20
-94.99624588847234
 30
0.0
 11
38.28597746174796
 21
-96.46919641850855
 31
0.0
  0
LINE
  5
18E
102
{ACAD_REACTORS
330
2A6
330
2A7
102
}
330
71
100
AcDbEntity
  8
0
  6
Continuous
 62
     2
100
AcDbLine
 10
39.58850709251436
 20
-94.99624588847234
 30
0.0
 11
40.99123131026158
 21
-94.99624588847234
 31
0.0
  0
LINE
  5
18F
102
{ACAD_REACTORS
330
2A6
330
2A7
102
}
330
71
100
AcDbEntity
  8
0
  6
Continuous
 62
     2
100
AcDbLine
 10
38.29074863255588
 20
-98.05005541228354
 30
0.0
 11
38.98733957062157
 21
-97.26232362698983
 31
0.0
  0
LINE
  5
190
102
{ACAD_REACTORS
330
2A6
330
2A7
102
}
330
71
100
AcDbEntity
  8
0
  6
Continuous
 62
     2
100
AcDbLine
 10
38.29074863255588
 20
-98.05005541228354
 30
0.0
 11
36.88802441480766
 21
-98.05005541228354
 31
0.0
  0
LINE
  5
191
102
{ACAD_REACTORS
330
2A8
330
2A9
102
}
330
71
100
AcDbEntity
  8
0
  6
Continuous
 62
     2
100
AcDbLine
 10
36.76874514459078
 20
-98.05005541228354
 30
0.0
 11
35.52824073433789
 21
-98.05005541228354
 31
0.0
  0
LINE
  5
192
102
{ACAD_REACTORS
330
2AA
330
2AB
102
}
330
71
100
AcDbEntity
  8
0
  6
Continuous
 62
     2
100
AcDbLine
 10
34.66026112618278
 20
-100.1877220789334
 30
0.0
 11
34.36009588899267
 21
-99.41990711294665
 31
0.0
  0
LINE
  5
193
102
{ACAD_REACTORS
330
2AA
330
2AB
102
}
330
71
100
AcDbEntity
  8
0
  6
Continuous
 62
     2
100
AcDbLine
 10
34.05993065180027
 20
-100.1877220789334
 30
0.0
 11
34.66026112618278
 21
-100.1877220789334
 31
0.0
  0
LINE
  5
194
102
{ACAD_REACTORS
330
2AA
330
2AB
102
}
330
71
100
AcDbEntity
  8
0
  6
Continuous
 62
     2
100
AcDbLine
 10
32.34189063692648
 20
-101.4092458884578
 30
0.0
 11
33.58239504717946
 21
-101.4092458884578
 31
0.0
  0
LINE
  5
195
102
{ACAD_REACTORS
330
2AA
330
2AB
102
}
330
71
100
AcDbEntity
  8
0
  6
Continuous
 62
     2
100
AcDbLine
 10
33.73984368386579
 20
-98.35543636464675
 30
0.0
 11
34.98034809411848
 21
-98.35543636464675
 31
0.0
  0
LINE
  5
196
102
{ACAD_REACTORS
330
2AA
330
2AB
102
}
330
71
100
AcDbEntity
  8
0
  6
Continuous
 62
     2
100
AcDbLine
 10
34.98034809411848
 20
-98.35543636464675
 30
0.0
 11
36.37830114105879
 21
-101.4092458884578
 31
0.0
  0
LINE
  5
197
102
{ACAD_REACTORS
330
2AA
330
2AB
102
}
330
71
100
AcDbEntity
  8
0
  6
Continuous
 62
     2
100
AcDbLine
 10
35.13779673080487
 20
-101.4092458884578
 30
0.0
 11
34.92631667732908
 21
-100.86828534424
 31
0.0
  0
LINE
  5
198
102
{ACAD_REACTORS
330
2AC
330
2AD
102
}
330
71
100
AcDbEntity
  8
0
  6
Continuous
 62
     2
100
AcDbLine
 10
30.99547753521887
 20
-101.4092458884578
 30
0.0
 11
32.18827023738538
 21
-101.4092458884578
 31
0.0
  0
LINE
  5
199
102
{ACAD_REACTORS
330
2AC
330
2AD
102
}
330
71
100
AcDbEntity
  8
0
  6
Continuous
 62
     2
100
AcDbLine
 10
30.99547753521887
 20
-99.14070167077034
 30
0.0
 11
30.99547753521887
 21
-101.4092458884578
 31
0.0
  0
LINE
  5
19A
102
{ACAD_REACTORS
330
2AC
330
2AD
102
}
330
71
100
AcDbEntity
  8
0
  6
Continuous
 62
     2
100
AcDbLine
 10
30.18437849774426
 20
-98.35543636464675
 30
0.0
 11
30.18437849774426
 21
-99.14070167077034
 31
0.0
  0
LINE
  5
19B
102
{ACAD_REACTORS
330
2AE
330
2AF
102
}
330
71
100
AcDbEntity
  8
0
  6
Continuous
 62
     2
100
AcDbLine
 10
31.66359237931687
 20
-98.05005541228354
 30
0.0
 11
32.85638508148338
 21
-98.05005541228354
 31
0.0
  0
LINE
  5
19C
102
{ACAD_REACTORS
330
2AE
330
2AF
102
}
330
71
100
AcDbEntity
  8
0
  6
Continuous
 62
     2
100
AcDbLine
 10
34.09688949173739
 20
-96.30502139867752
 30
0.0
 11
32.85638508148338
 21
-94.99624588847234
 31
0.0
  0
LINE
  5
19D
102
{ACAD_REACTORS
330
2AE
330
2AF
102
}
330
71
100
AcDbEntity
  8
0
  6
Continuous
 62
     2
100
AcDbLine
 10
35.28968219390399
 20
-94.99624588847234
 30
0.0
 11
34.09688949173739
 21
-94.99624588847234
 31
0.0
  0
LINE
  5
19E
102
{ACAD_REACTORS
330
2AE
330
2AF
102
}
330
71
100
AcDbEntity
  8
0
  6
Continuous
 62
     2
100
AcDbLine
 10
35.28968219390399
 20
-98.05005541228354
 30
0.0
 11
35.28968219390399
 21
-94.99624588847234
 31
0.0
  0
LINE
  5
19F
102
{ACAD_REACTORS
330
2AE
330
2AF
102
}
330
71
100
AcDbEntity
  8
0
  6
Continuous
 62
     2
100
AcDbLine
 10
34.09688949173739
 20
-98.05005541228354
 30
0.0
 11
35.28968219390399
 21
-98.05005541228354
 31
0.0
  0
LINE
  5
1A0
102
{ACAD_REACTORS
330
2AE
330
2AF
102
}
330
71
100
AcDbEntity
  8
0
  6
Continuous
 62
     2
100
AcDbLine
 10
32.85638508148338
 20
-96.74127990207884
 30
0.0
 11
34.09688949173739
 21
-98.05005541228354
 31
0.0
  0
LINE
  5
1A1
102
{ACAD_REACTORS
330
2B0
330
2B1
102
}
330
71
100
AcDbEntity
  8
0
  6
Continuous
 62
     2
100
AcDbLine
 10
28.84845067131766
 20
-99.66421187485184
 30
0.0
 11
27.60794626106477
 21
-98.35543636464675
 31
0.0
  0
LINE
  5
1A2
102
{ACAD_REACTORS
330
2B0
330
2B1
102
}
330
71
100
AcDbEntity
  8
0
  6
Continuous
 62
     2
100
AcDbLine
 10
28.84845067131766
 20
-98.35543636464675
 30
0.0
 11
28.84845067131766
 21
-99.66421187485184
 31
0.0
  0
LINE
  5
1A3
102
{ACAD_REACTORS
330
2B0
330
2B1
102
}
330
71
100
AcDbEntity
  8
0
  6
Continuous
 62
     2
100
AcDbLine
 10
30.04124337348407
 20
-98.35543636464675
 30
0.0
 11
28.84845067131766
 21
-98.35543636464675
 31
0.0
  0
LINE
  5
1A4
102
{ACAD_REACTORS
330
2B0
330
2B1
102
}
330
71
100
AcDbEntity
  8
0
  6
Continuous
 62
     2
100
AcDbLine
 10
30.04124337348407
 20
-101.4092458884578
 30
0.0
 11
30.04124337348407
 21
-98.35543636464675
 31
0.0
  0
LINE
  5
1A5
102
{ACAD_REACTORS
330
2B0
330
2B1
102
}
330
71
100
AcDbEntity
  8
0
  6
Continuous
 62
     2
100
AcDbLine
 10
27.60794626106477
 20
-100.1004703782533
 30
0.0
 11
28.84845067131766
 21
-101.4092458884578
 31
0.0
  0
LINE
  5
1A6
102
{ACAD_REACTORS
330
2B0
330
2B1
102
}
330
71
100
AcDbEntity
  8
0
  6
Continuous
 62
     2
100
AcDbLine
 10
27.60794626106477
 20
-101.4092458884578
 30
0.0
 11
27.60794626106477
 21
-100.1004703782533
 31
0.0
  0
LINE
  5
1A7
102
{ACAD_REACTORS
330
2A0
330
2A1
102
}
330
71
100
AcDbEntity
  8
0
  6
Continuous
 62
     2
100
AcDbLine
 10
30.08910601245628
 20
-95.69425949391533
 30
0.0
 11
31.42503383888396
 21
-95.69425949391533
 31
0.0
  0
LINE
  5
1A8
102
{ACAD_REACTORS
330
2A0
330
2A1
102
}
330
71
100
AcDbEntity
  8
0
  6
Continuous
 62
     2
100
AcDbLine
 10
30.08910601245628
 20
-97.35204180684104
 30
0.0
 11
30.08910601245628
 21
-96.87215745309933
 31
0.0
  0
LINE
  5
1A9
102
{ACAD_REACTORS
330
2A0
330
2A1
102
}
330
71
100
AcDbEntity
  8
0
  6
Continuous
 62
     2
100
AcDbLine
 10
31.42503383888396
 20
-97.35204180684104
 30
0.0
 11
30.08910601245628
 21
-97.35204180684104
 31
0.0
  0
LINE
  5
1AA
102
{ACAD_REACTORS
330
2A0
330
2A1
102
}
330
71
100
AcDbEntity
  8
0
  6
Continuous
 62
     2
100
AcDbLine
 10
31.42503383888396
 20
-98.05005541228354
 30
0.0
 11
31.42503383888396
 21
-97.35204180684104
 31
0.0
  0
LINE
  5
1AB
102
{ACAD_REACTORS
330
2A0
330
2A1
102
}
330
71
100
AcDbEntity
  8
0
  6
Continuous
 62
     2
100
AcDbLine
 10
28.27471411510297
 20
-98.05005541228354
 30
0.0
 11
31.42503383888396
 21
-98.05005541228354
 31
0.0
  0
LINE
  5
1AC
102
{ACAD_REACTORS
330
2A0
330
2A1
102
}
330
71
100
AcDbEntity
  8
0
  6
Continuous
 62
     2
100
AcDbLine
 10
28.27471411510297
 20
-94.99624588847234
 30
0.0
 11
31.42503383888396
 21
-94.99624588847234
 31
0.0
  0
LINE
  5
1AD
102
{ACAD_REACTORS
330
2A0
330
2A1
102
}
330
71
100
AcDbEntity
  8
0
  6
Continuous
 62
     2
100
AcDbLine
 10
31.42503383888396
 20
-95.69425949391533
 30
0.0
 11
31.42503383888396
 21
-94.99624588847234
 31
0.0
  0
LINE
  5
1AE
102
{ACAD_REACTORS
330
2B2
330
2B3
102
}
330
71
100
AcDbEntity
  8
0
  6
Continuous
 62
     2
100
AcDbLine
 10
25.41335861996296
 20
-96.06507922180694
 30
0.0
 11
25.41335861996296
 21
-94.99624588847234
 31
0.0
  0
LINE
  5
1AF
102
{ACAD_REACTORS
330
2B2
330
2B3
102
}
330
71
100
AcDbEntity
  8
0
  6
Continuous
 62
     2
100
AcDbLine
 10
25.41335861996296
 20
-94.99624588847234
 30
0.0
 11
26.60615132212936
 21
-94.99624588847234
 31
0.0
  0
LINE
  5
1B0
102
{ACAD_REACTORS
330
2B2
330
2B3
102
}
330
71
100
AcDbEntity
  8
0
  6
Continuous
 62
     2
100
AcDbLine
 10
25.41335861996296
 20
-96.91578330343972
 30
0.0
 11
24.36370104205548
 21
-96.91578330343972
 31
0.0
  0
LINE
  5
1B1
102
{ACAD_REACTORS
330
2B2
330
2B3
102
}
330
71
100
AcDbEntity
  8
0
  6
Continuous
 62
     2
100
AcDbLine
 10
24.36370104205548
 20
-96.91578330343972
 30
0.0
 11
24.36370104205548
 21
-98.05005541228354
 31
0.0
  0
LINE
  5
1B2
102
{ACAD_REACTORS
330
2B2
330
2B3
102
}
330
71
100
AcDbEntity
  8
0
  6
Continuous
 62
     2
100
AcDbLine
 10
23.17090833988888
 20
-94.99624588847234
 30
0.0
 11
23.17090833988888
 21
-98.05005541228354
 31
0.0
  0
LINE
  5
1B3
102
{ACAD_REACTORS
330
2A4
330
2A5
102
}
330
71
100
AcDbEntity
  8
0
  6
Continuous
 62
     2
100
AcDbLine
 10
21.21472830833528
 20
-96.36507938325465
 30
0.0
 11
21.21472830833528
 21
-95.65935173391244
 31
0.0
  0
LINE
  5
1B4
102
{ACAD_REACTORS
330
2A4
330
2A5
102
}
330
71
100
AcDbEntity
  8
0
  6
Continuous
 62
     2
100
AcDbLine
 10
19.97422389808116
 20
-98.05005541228354
 30
0.0
 11
21.21472830833528
 21
-98.05005541228354
 31
0.0
  0
LINE
  5
1B5
102
{ACAD_REACTORS
330
2A4
330
2A5
102
}
330
71
100
AcDbEntity
  8
0
  6
Continuous
 62
     2
100
AcDbLine
 10
21.21472830833528
 20
-98.05005541228354
 30
0.0
 11
21.21472830833528
 21
-97.10697717113973
 31
0.0
  0
LINE
  5
1B6
102
{ACAD_REACTORS
330
29E
330
29F
102
}
330
71
100
AcDbEntity
  8
0
  6
Continuous
 62
     2
100
AcDbLine
 10
15.66927804886979
 20
-100.6966903329009
 30
0.0
 11
14.19344478786016
 21
-100.6966903329009
 31
0.0
  0
LINE
  5
1B7
102
{ACAD_REACTORS
330
29E
330
29F
102
}
330
71
100
AcDbEntity
  8
0
  6
Continuous
 62
     2
100
AcDbLine
 10
13.17530549573087
 20
-95.42049050387433
 30
0.0
 11
13.17530549573087
 21
-100.9850012730745
 31
0.0
  0
LINE
  5
1B8
102
{ACAD_REACTORS
330
29E
330
29F
102
}
330
71
100
AcDbEntity
  8
0
  6
Continuous
 62
     2
100
AcDbLine
 10
13.59955011111367
 20
-94.99624588849053
 30
0.0
 11
19.07286220183048
 21
-94.99624588849053
 31
0.0
  0
LINE
  5
1B9
102
{ACAD_REACTORS
330
29E
330
29F
102
}
330
71
100
AcDbEntity
  8
0
  6
Continuous
 62
     2
100
AcDbLine
 10
19.49710681721436
 20
-95.42049050387433
 30
0.0
 11
19.49710681721436
 21
-100.9850012730745
 31
0.0
  0
LINE
  5
1BA
102
{ACAD_REACTORS
330
29E
330
29F
102
}
330
71
100
AcDbEntity
  8
0
  6
Continuous
 62
     2
100
AcDbLine
 10
19.07286220183048
 20
-101.4092458884578
 30
0.0
 11
13.59955011111367
 21
-101.4092458884578
 31
0.0
  0
LINE
  5
1BB
102
{ACAD_REACTORS
330
29E
330
29F
102
}
330
71
100
AcDbEntity
  8
0
  6
Continuous
 62
     2
100
AcDbLine
 10
15.98499497194638
 20
-100.3809734098242
 30
0.0
 11
15.98499497194638
 21
-98.85020247829263
 31
0.0
  0
LINE
  5
1BC
102
{ACAD_REACTORS
330
29E
330
29F
102
}
330
71
100
AcDbEntity
  8
0
  6
Continuous
 62
     2
100
AcDbLine
 10
15.98499497194638
 20
-96.62854298616764
 30
0.0
 11
15.98499497194638
 21
-96.02451836710713
 31
0.0
  0
LINE
  5
1BD
102
{ACAD_REACTORS
330
29E
330
29F
102
}
330
71
100
AcDbEntity
  8
0
  6
Continuous
 62
     2
100
AcDbLine
 10
14.19344478786016
 20
-95.70880144403094
 30
0.0
 11
15.66927804886979
 21
-95.70880144403094
 31
0.0
  0
LINE
  5
1BE
102
{ACAD_REACTORS
330
29E
330
29F
102
}
330
71
100
AcDbEntity
  8
0
  6
Continuous
 62
     2
100
AcDbLine
 10
13.87772786478448
 20
-96.02451836710713
 30
0.0
 11
13.87772786478448
 21
-100.3809734098242
 31
0.0
  0
LINE
  5
1BF
102
{ACAD_REACTORS
330
2A4
330
2A5
102
}
330
71
100
AcDbEntity
  8
0
  6
Continuous
 62
     2
100
AcDbLine
 10
21.21472830833528
 20
-97.10697717113973
 30
0.0
 11
21.97349589611557
 21
-97.10697717113973
 31
0.0
  0
LINE
  5
1C0
102
{ACAD_REACTORS
330
2A4
330
2A5
102
}
330
71
100
AcDbEntity
  8
0
  6
Continuous
 62
     2
100
AcDbLine
 10
19.97422389808116
 20
-94.99624588847234
 30
0.0
 11
21.97349589611557
 21
-94.99624588847234
 31
0.0
  0
LINE
  5
1C1
102
{ACAD_REACTORS
330
2A4
330
2A5
102
}
330
71
100
AcDbEntity
  8
0
  6
Continuous
 62
     2
100
AcDbLine
 10
19.97422389808116
 20
-94.99624588847234
 30
0.0
 11
19.97422389808116
 21
-98.05005541228354
 31
0.0
  0
LINE
  5
1C2
102
{ACAD_REACTORS
330
2A4
330
2A5
102
}
330
71
100
AcDbEntity
  8
0
  6
Continuous
 62
     2
100
AcDbLine
 10
21.21472830833528
 20
-96.36507938325465
 30
0.0
 11
21.53202336987718
 21
-96.36507938325465
 31
0.0
  0
LINE
  5
1C3
102
{ACAD_REACTORS
330
2A4
330
2A5
102
}
330
71
100
AcDbEntity
  8
0
  6
Continuous
 62
     2
100
AcDbLine
 10
21.21472830833528
 20
-95.65935173391244
 30
0.0
 11
21.53202336987718
 21
-95.65935173391244
 31
0.0
  0
LINE
  5
1C4
102
{ACAD_REACTORS
330
2B2
330
2B3
102
}
330
71
100
AcDbEntity
  8
0
  6
Continuous
 62
     2
100
AcDbLine
 10
24.36370104205548
 20
-96.06507922180694
 30
0.0
 11
25.41335861996296
 21
-96.06507922180694
 31
0.0
  0
LINE
  5
1C5
102
{ACAD_REACTORS
330
2B2
330
2B3
102
}
330
71
100
AcDbEntity
  8
0
  6
Continuous
 62
     2
100
AcDbLine
 10
24.36370104205548
 20
-94.99624588847234
 30
0.0
 11
24.36370104205548
 21
-96.06507922180694
 31
0.0
  0
LINE
  5
1C6
102
{ACAD_REACTORS
330
2B2
330
2B3
102
}
330
71
100
AcDbEntity
  8
0
  6
Continuous
 62
     2
100
AcDbLine
 10
23.17090833988888
 20
-94.99624588847234
 30
0.0
 11
24.36370104205548
 21
-94.99624588847234
 31
0.0
  0
LINE
  5
1C7
102
{ACAD_REACTORS
330
2B2
330
2B3
102
}
330
71
100
AcDbEntity
  8
0
  6
Continuous
 62
     2
100
AcDbLine
 10
24.36370104205548
 20
-98.05005541228354
 30
0.0
 11
23.17090833988888
 21
-98.05005541228354
 31
0.0
  0
LINE
  5
1C8
102
{ACAD_REACTORS
330
2B2
330
2B3
102
}
330
71
100
AcDbEntity
  8
0
  6
Continuous
 62
     2
100
AcDbLine
 10
25.41335861996296
 20
-98.05005541228354
 30
0.0
 11
25.41335861996296
 21
-96.91578330343972
 31
0.0
  0
LINE
  5
1C9
102
{ACAD_REACTORS
330
2B2
330
2B3
102
}
330
71
100
AcDbEntity
  8
0
  6
Continuous
 62
     2
100
AcDbLine
 10
26.60615132212936
 20
-98.05005541228354
 30
0.0
 11
25.41335861996296
 21
-98.05005541228354
 31
0.0
  0
LINE
  5
1CA
102
{ACAD_REACTORS
330
2B2
330
2B3
102
}
330
71
100
AcDbEntity
  8
0
  6
Continuous
 62
     2
100
AcDbLine
 10
26.60615132212936
 20
-94.99624588847234
 30
0.0
 11
26.60615132212936
 21
-98.05005541228354
 31
0.0
  0
LINE
  5
1CB
102
{ACAD_REACTORS
330
2A0
330
2A1
102
}
330
71
100
AcDbEntity
  8
0
  6
Continuous
 62
     2
100
AcDbLine
 10
30.08910601245628
 20
-96.87215745309933
 30
0.0
 11
31.42503383888396
 21
-96.87215745309933
 31
0.0
  0
LINE
  5
1CC
102
{ACAD_REACTORS
330
2A0
330
2A1
102
}
330
71
100
AcDbEntity
  8
0
  6
Continuous
 62
     2
100
AcDbLine
 10
31.42503383888396
 20
-96.87215745309933
 30
0.0
 11
31.42503383888396
 21
-96.17414384765704
 31
0.0
  0
LINE
  5
1CD
102
{ACAD_REACTORS
330
2A0
330
2A1
102
}
330
71
100
AcDbEntity
  8
0
  6
Continuous
 62
     2
100
AcDbLine
 10
31.42503383888396
 20
-96.17414384765704
 30
0.0
 11
30.08910601245628
 21
-96.17414384765704
 31
0.0
  0
LINE
  5
1CE
102
{ACAD_REACTORS
330
2A0
330
2A1
102
}
330
71
100
AcDbEntity
  8
0
  6
Continuous
 62
     2
100
AcDbLine
 10
30.08910601245628
 20
-96.17414384765704
 30
0.0
 11
30.08910601245628
 21
-95.69425949391533
 31
0.0
  0
LINE
  5
1CF
102
{ACAD_REACTORS
330
2B0
330
2B1
102
}
330
71
100
AcDbEntity
  8
0
  6
Continuous
 62
     2
100
AcDbLine
 10
26.41515355889717
 20
-101.4092458884578
 30
0.0
 11
27.60794626106477
 21
-101.4092458884578
 31
0.0
  0
LINE
  5
1D0
102
{ACAD_REACTORS
330
2B0
330
2B1
102
}
330
71
100
AcDbEntity
  8
0
  6
Continuous
 62
     2
100
AcDbLine
 10
28.84845067131766
 20
-101.4092458884578
 30
0.0
 11
30.04124337348407
 21
-101.4092458884578
 31
0.0
  0
LINE
  5
1D1
102
{ACAD_REACTORS
330
2B0
330
2B1
102
}
330
71
100
AcDbEntity
  8
0
  6
Continuous
 62
     2
100
AcDbLine
 10
27.60794626106477
 20
-98.35543636464675
 30
0.0
 11
26.41515355889717
 21
-98.35543636464675
 31
0.0
  0
LINE
  5
1D2
102
{ACAD_REACTORS
330
2B0
330
2B1
102
}
330
71
100
AcDbEntity
  8
0
  6
Continuous
 62
     2
100
AcDbLine
 10
26.41515355889717
 20
-98.35543636464675
 30
0.0
 11
26.41515355889717
 21
-101.4092458884578
 31
0.0
  0
LINE
  5
1D3
102
{ACAD_REACTORS
330
2AE
330
2AF
102
}
330
71
100
AcDbEntity
  8
0
  6
Continuous
 62
     2
100
AcDbLine
 10
34.09688949173739
 20
-94.99624588847234
 30
0.0
 11
34.09688949173739
 21
-96.30502139867752
 31
0.0
  0
LINE
  5
1D4
102
{ACAD_REACTORS
330
2AE
330
2AF
102
}
330
71
100
AcDbEntity
  8
0
  6
Continuous
 62
     2
100
AcDbLine
 10
32.85638508148338
 20
-94.99624588847234
 30
0.0
 11
31.66359237931687
 21
-94.99624588847234
 31
0.0
  0
LINE
  5
1D5
102
{ACAD_REACTORS
330
2AE
330
2AF
102
}
330
71
100
AcDbEntity
  8
0
  6
Continuous
 62
     2
100
AcDbLine
 10
31.66359237931687
 20
-94.99624588847234
 30
0.0
 11
31.66359237931687
 21
-98.05005541228354
 31
0.0
  0
LINE
  5
1D6
102
{ACAD_REACTORS
330
2AE
330
2AF
102
}
330
71
100
AcDbEntity
  8
0
  6
Continuous
 62
     2
100
AcDbLine
 10
32.85638508148338
 20
-98.05005541228354
 30
0.0
 11
32.85638508148338
 21
-96.74127990207884
 31
0.0
  0
LINE
  5
1D7
102
{ACAD_REACTORS
330
2AC
330
2AD
102
}
330
71
100
AcDbEntity
  8
0
  6
Continuous
 62
     2
100
AcDbLine
 10
32.18827023738538
 20
-101.4092458884578
 30
0.0
 11
32.18827023738538
 21
-99.14070167077034
 31
0.0
  0
LINE
  5
1D8
102
{ACAD_REACTORS
330
2AC
330
2AD
102
}
330
71
100
AcDbEntity
  8
0
  6
Continuous
 62
     2
100
AcDbLine
 10
32.18827023738538
 20
-99.14070167077034
 30
0.0
 11
32.99936927485788
 21
-99.14070167077034
 31
0.0
  0
LINE
  5
1D9
102
{ACAD_REACTORS
330
2AC
330
2AD
102
}
330
71
100
AcDbEntity
  8
0
  6
Continuous
 62
     2
100
AcDbLine
 10
32.99936927485788
 20
-99.14070167077034
 30
0.0
 11
32.99936927485788
 21
-98.35543636464675
 31
0.0
  0
LINE
  5
1DA
102
{ACAD_REACTORS
330
2AC
330
2AD
102
}
330
71
100
AcDbEntity
  8
0
  6
Continuous
 62
     2
100
AcDbLine
 10
32.99936927485788
 20
-98.35543636464675
 30
0.0
 11
30.18437849774426
 21
-98.35543636464675
 31
0.0
  0
LINE
  5
1DB
102
{ACAD_REACTORS
330
2AC
330
2AD
102
}
330
71
100
AcDbEntity
  8
0
  6
Continuous
 62
     2
100
AcDbLine
 10
30.18437849774426
 20
-99.14070167077034
 30
0.0
 11
30.99547753521887
 21
-99.14070167077034
 31
0.0
  0
LINE
  5
1DC
102
{ACAD_REACTORS
330
2AA
330
2AB
102
}
330
71
100
AcDbEntity
  8
0
  6
Continuous
 62
     2
100
AcDbLine
 10
33.79387510065527
 20
-100.86828534424
 30
0.0
 11
34.92631667732908
 21
-100.86828534424
 31
0.0
  0
LINE
  5
1DD
102
{ACAD_REACTORS
330
2AA
330
2AB
102
}
330
71
100
AcDbEntity
  8
0
  6
Continuous
 62
     2
100
AcDbLine
 10
36.37830114105879
 20
-101.4092458884578
 30
0.0
 11
35.13779673080487
 21
-101.4092458884578
 31
0.0
  0
LINE
  5
1DE
102
{ACAD_REACTORS
330
2AA
330
2AB
102
}
330
71
100
AcDbEntity
  8
0
  6
Continuous
 62
     2
100
AcDbLine
 10
33.73984368386579
 20
-98.35543636464675
 30
0.0
 11
32.34189063692648
 21
-101.4092458884578
 31
0.0
  0
LINE
  5
1DF
102
{ACAD_REACTORS
330
2AA
330
2AB
102
}
330
71
100
AcDbEntity
  8
0
  6
Continuous
 62
     2
100
AcDbLine
 10
33.58239504717946
 20
-101.4092458884578
 30
0.0
 11
33.79387510065527
 21
-100.86828534424
 31
0.0
  0
LINE
  5
1E0
102
{ACAD_REACTORS
330
2AA
330
2AB
102
}
330
71
100
AcDbEntity
  8
0
  6
Continuous
 62
     2
100
AcDbLine
 10
34.05993065180027
 20
-100.1877220789334
 30
0.0
 11
34.36009588899267
 21
-99.41990711294665
 31
0.0
  0
LINE
  5
1E1
102
{ACAD_REACTORS
330
2A8
330
2A9
102
}
330
71
100
AcDbEntity
  8
0
  6
Continuous
 62
     2
100
AcDbLine
 10
35.52824073433789
 20
-98.05005541228354
 30
0.0
 11
35.52824073433789
 21
-94.99624588847234
 31
0.0
  0
LINE
  5
1E2
102
{ACAD_REACTORS
330
2A8
330
2A9
102
}
330
71
100
AcDbEntity
  8
0
  6
Continuous
 62
     2
100
AcDbLine
 10
36.76874514459078
 20
-94.99624588847234
 30
0.0
 11
36.76874514459078
 21
-98.05005541228354
 31
0.0
  0
LINE
  5
1E3
102
{ACAD_REACTORS
330
2A8
330
2A9
102
}
330
71
100
AcDbEntity
  8
0
  6
Continuous
 62
     2
100
AcDbLine
 10
35.52824073433789
 20
-94.99624588847234
 30
0.0
 11
36.76874514459078
 21
-94.99624588847234
 31
0.0
  0
LINE
  5
1E4
102
{ACAD_REACTORS
330
2A6
330
2A7
102
}
330
71
100
AcDbEntity
  8
0
  6
Continuous
 62
     2
100
AcDbLine
 10
38.98733957062157
 20
-97.26232362698983
 30
0.0
 11
39.68393050868707
 21
-98.05005541228354
 31
0.0
  0
LINE
  5
1E5
102
{ACAD_REACTORS
330
2A6
330
2A7
102
}
330
71
100
AcDbEntity
  8
0
  6
Continuous
 62
     2
100
AcDbLine
 10
39.68393050868707
 20
-98.05005541228354
 30
0.0
 11
41.08665472643537
 21
-98.05005541228354
 31
0.0
  0
LINE
  5
1E6
102
{ACAD_REACTORS
330
2A6
330
2A7
102
}
330
71
100
AcDbEntity
  8
0
  6
Continuous
 62
     2
100
AcDbLine
 10
39.68870167949507
 20
-96.46919641850855
 30
0.0
 11
41.08665472643537
 21
-98.05005541228354
 31
0.0
  0
LINE
  5
1E7
102
{ACAD_REACTORS
330
2A6
330
2A7
102
}
330
71
100
AcDbEntity
  8
0
  6
Continuous
 62
     2
100
AcDbLine
 10
39.68870167949507
 20
-96.46919641850855
 30
0.0
 11
40.99123131026158
 21
-94.99624588847234
 31
0.0
  0
LINE
  5
1E8
102
{ACAD_REACTORS
330
2A6
330
2A7
102
}
330
71
100
AcDbEntity
  8
0
  6
Continuous
 62
     2
100
AcDbLine
 10
38.98733957062157
 20
-95.67606921002783
 30
0.0
 11
39.58850709251436
 21
-94.99624588847234
 31
0.0
  0
LINE
  5
1E9
102
{ACAD_REACTORS
330
2A6
330
2A7
102
}
330
71
100
AcDbEntity
  8
0
  6
Continuous
 62
     2
100
AcDbLine
 10
38.38617204872978
 20
-94.99624588847234
 30
0.0
 11
38.98733957062157
 21
-95.67606921002783
 31
0.0
  0
LINE
  5
1EA
102
{ACAD_REACTORS
330
2A6
330
2A7
102
}
330
71
100
AcDbEntity
  8
0
  6
Continuous
 62
     2
100
AcDbLine
 10
38.38617204872978
 20
-94.99624588847234
 30
0.0
 11
36.98344783098048
 21
-94.99624588847234
 31
0.0
  0
LINE
  5
1EB
102
{ACAD_REACTORS
330
29C
330
29D
102
}
330
71
100
AcDbEntity
  8
0
  6
Continuous
 62
     2
100
AcDbLine
 10
39.08276298679428
 20
-101.4092458884578
 30
0.0
 11
40.27555568896199
 21
-101.4092458884578
 31
0.0
  0
LINE
  5
1EC
102
{ACAD_REACTORS
330
29C
330
29D
102
}
330
71
100
AcDbEntity
  8
0
  6
Continuous
 62
     2
100
AcDbLine
 10
40.27555568896199
 20
-101.4092458884578
 30
0.0
 11
40.27555568896199
 21
-99.14070167077034
 31
0.0
  0
LINE
  5
1ED
102
{ACAD_REACTORS
330
29C
330
29D
102
}
330
71
100
AcDbEntity
  8
0
  6
Continuous
 62
     2
100
AcDbLine
 10
40.27555568896199
 20
-99.14070167077034
 30
0.0
 11
41.08665472643537
 21
-99.14070167077034
 31
0.0
  0
LINE
  5
1EE
102
{ACAD_REACTORS
330
29C
330
29D
102
}
330
71
100
AcDbEntity
  8
0
  6
Continuous
 62
     2
100
AcDbLine
 10
41.08665472643537
 20
-99.14070167077034
 30
0.0
 11
41.08665472643537
 21
-98.35543636464675
 31
0.0
  0
LINE
  5
1EF
102
{ACAD_REACTORS
330
29C
330
29D
102
}
330
71
100
AcDbEntity
  8
0
  6
Continuous
 62
     2
100
AcDbLine
 10
37.70170920780669
 20
-98.35543636464723
 30
0.0
 11
41.08665472643537
 21
-98.35543636464675
 31
0.0
  0
LINE
  5
1F0
102
{ACAD_REACTORS
330
29C
330
29D
102
}
330
71
100
AcDbEntity
  8
0
  6
Continuous
 62
     2
100
AcDbLine
 10
39.08276298679428
 20
-99.14070167077034
 30
0.0
 11
39.08276298679428
 21
-101.4092458884578
 31
0.0
  0
LINE
  5
1F1
102
{ACAD_REACTORS
330
29E
330
29F
102
}
330
71
100
AcDbEntity
  8
0
  6
Continuous
 62
     2
100
AcDbLine
 10
16.45327655131507
 20
-99.43036573889333
 30
0.0
 11
16.45327655131507
 21
-98.84851433219825
 31
0.0
  0
LINE
  5
1F2
102
{ACAD_REACTORS
330
29E
330
29F
102
}
330
71
100
AcDbEntity
  8
0
  6
Continuous
 62
     2
100
AcDbLine
 10
16.45327655131507
 20
-96.63023113226203
 30
0.0
 11
16.45327655131507
 21
-96.02469584375524
 31
0.0
  0
LINE
  5
1F3
330
71
100
AcDbEntity
  8
1
  6
Continuous
 62
     6
100
AcDbLine
 10
-5.01654486408171
 20
-108.7027458884741
 30
0.0
 11
8.93865060916826
 21
-108.7027458884743
 31
0.0
  0
LINE
  5
1F4
330
71
100
AcDbEntity
  8
1
  6
Continuous
 62
     6
100
AcDbLine
 10
-55.01654486408194
 20
-108.7027458884741
 30
0.0
 11
-60.06134939083171
 21
-108.7027458884741
 31
0.0
  0
LINE
  5
1F5
330
71
100
AcDbEntity
  8
1
  6
Continuous
 62
     6
100
AcDbLine
 10
94.98345513591826
 20
-108.7027458884741
 30
0.0
 11
138.4834551359183
 21
-108.7027458884741
 31
0.0
  0
LINE
  5
1F6
330
71
100
AcDbEntity
  8
1
  6
Continuous
 62
     6
100
AcDbLine
 10
44.98345513591826
 20
-108.7027458884741
 30
0.0
 11
27.13865060916828
 21
-108.7027458884741
 31
0.0
  0
LINE
  5
1F7
330
71
100
AcDbEntity
  8
1
  6
Continuous
 62
     2
100
AcDbLine
 10
138.4834551359183
 20
-108.7027458884741
 30
0.0
 11
143.4834551359173
 21
-108.7027458884741
 31
0.0
  0
LINE
  5
1F8
330
71
100
AcDbEntity
  8
1
  6
Continuous
 62
     2
100
AcDbLine
 10
138.4834551359183
 20
-108.7027458884741
 30
0.0
 11
138.4834551359183
 21
-113.7027458884743
 31
0.0
  0
LINE
  5
1F9
330
71
100
AcDbEntity
  8
1
  6
Continuous
 62
     6
100
AcDbLine
 10
8.93865060916826
 20
-91.70274588847414
 30
0.0
 11
45.33865060916818
 21
-91.70274588847414
 31
0.0
  0
LINE
  5
1FA
330
71
100
AcDbEntity
  8
1
  6
Continuous
 62
     2
100
AcDbLine
 10
143.4834551359173
 20
-113.7027458884743
 30
0.0
 11
143.4834551359173
 21
-108.7027458884741
 31
0.0
  0
LINE
  5
1FB
330
71
100
AcDbEntity
  8
1
  6
Continuous
 62
     2
100
AcDbLine
 10
143.4834551359173
 20
-113.7027458884743
 30
0.0
 11
138.4834551359183
 21
-113.7027458884743
 31
0.0
  0
LINE
  5
1FC
330
71
100
AcDbEntity
  8
1
  6
Continuous
 62
     2
100
AcDbLine
 10
138.4834551359183
 20
-113.7027458884743
 30
0.0
 11
94.98345513591826
 21
-113.7027458884743
 31
0.0
  0
LINE
  5
1FD
330
71
100
AcDbEntity
  8
1
  6
Continuous
 62
     6
100
AcDbLine
 10
138.48345513592
 20
-91.70274588847414
 30
0.0
 11
138.4834551359192
 21
-58.70274588847403
 31
0.0
  0
LINE
  5
1FE
330
71
100
AcDbEntity
  8
1
  6
Continuous
 62
     2
100
AcDbLine
 10
143.4834551359173
 20
96.29725411152586
 30
0.0
 11
-5.01654486408171
 21
96.29725411152586
 31
0.0
  0
LINE
  5
1FF
330
71
100
AcDbEntity
  8
1
  6
Continuous
 62
     6
100
AcDbLine
 10
138.4834551359173
 20
76.29725411152586
 30
0.0
 11
-148.5165448640808
 21
76.29725411152586
 31
0.0
  0
LINE
  5
200
330
71
100
AcDbEntity
  8
1
  6
Continuous
 62
     2
100
AcDbLine
 10
138.4834551359192
 20
-58.70274588847403
 30
0.0
 11
143.4834551359173
 21
-58.70274588847403
 31
0.0
  0
LINE
  5
201
330
71
100
AcDbEntity
  8
1
  6
Continuous
 62
     6
100
AcDbLine
 10
138.4834551359192
 20
-58.70274588847403
 30
0.0
 11
138.4834551359187
 21
-8.70274588847423
 31
0.0
  0
LINE
  5
202
330
71
100
AcDbEntity
  8
1
  6
Continuous
 62
     2
100
AcDbLine
 10
143.4834551359173
 20
-58.70274588847403
 30
0.0
 11
143.4834551359173
 21
-8.70274588847423
 31
0.0
  0
LINE
  5
203
330
71
100
AcDbEntity
  8
1
  6
Continuous
 62
     2
100
AcDbLine
 10
138.4834551359187
 20
-8.70274588847423
 30
0.0
 11
143.4834551359173
 21
-8.70274588847423
 31
0.0
  0
LINE
  5
204
330
71
100
AcDbEntity
  8
1
  6
Continuous
 62
     6
100
AcDbLine
 10
138.4834551359187
 20
-8.70274588847423
 30
0.0
 11
138.4834551359175
 21
41.29725411152586
 31
0.0
  0
LINE
  5
205
330
71
100
AcDbEntity
  8
1
  6
Continuous
 62
     2
100
AcDbLine
 10
143.4834551359173
 20
-8.70274588847423
 30
0.0
 11
143.4834551359173
 21
41.29725411152586
 31
0.0
  0
LINE
  5
206
330
71
100
AcDbEntity
  8
1
  6
Continuous
 62
     2
100
AcDbLine
 10
138.4834551359175
 20
41.29725411152586
 30
0.0
 11
143.4834551359173
 21
41.29725411152586
 31
0.0
  0
LINE
  5
207
330
71
100
AcDbEntity
  8
1
  6
Continuous
 62
     6
100
AcDbLine
 10
138.4834551359175
 20
41.29725411152586
 30
0.0
 11
138.4834551359173
 21
76.29725411152586
 31
0.0
  0
LINE
  5
208
330
71
100
AcDbEntity
  8
1
  6
Continuous
 62
     2
100
AcDbLine
 10
143.4834551359173
 20
41.29725411152586
 30
0.0
 11
143.4834551359173
 21
96.29725411152586
 31
0.0
  0
LINE
  5
209
330
71
100
AcDbEntity
  8
1
  6
Continuous
 62
     2
100
AcDbLine
 10
143.4834551359173
 20
-108.7027458884741
 30
0.0
 11
143.4834551359173
 21
-58.70274588847403
 31
0.0
  0
LINE
  5
20A
330
71
100
AcDbEntity
  8
1
  6
Continuous
 62
     2
100
AcDbLine
 10
-5.01654486408171
 20
96.29725411152586
 30
0.0
 11
-153.5165448640808
 21
96.29725411152586
 31
0.0
  0
LINE
  5
20B
330
71
100
AcDbEntity
  8
1
  6
Continuous
 62
     2
100
AcDbLine
 10
-5.01654486408171
 20
96.29725411152586
 30
0.0
 11
-5.01654486408171
 21
87.08856226682454
 31
0.0
  0
LINE
  5
20C
330
71
100
AcDbEntity
  8
1
  6
Continuous
 62
     2
100
AcDbLine
 10
-153.5165448640808
 20
-113.7027458884743
 30
0.0
 11
-148.5165448640798
 21
-113.7027458884743
 31
0.0
  0
LINE
  5
20D
330
71
100
AcDbEntity
  8
1
  6
Continuous
 62
     2
100
AcDbLine
 10
-153.5165448640808
 20
96.29725411152586
 30
0.0
 11
-153.5165448640808
 21
41.29725411152586
 31
0.0
  0
LINE
  5
20E
330
71
100
AcDbEntity
  8
1
  6
Continuous
 62
     6
100
AcDbLine
 10
-148.5165448640808
 20
76.29725411152586
 30
0.0
 11
-148.5165448640807
 21
41.29725411152586
 31
0.0
  0
LINE
  5
20F
330
71
100
AcDbEntity
  8
1
  6
Continuous
 62
     2
100
AcDbLine
 10
-153.5165448640808
 20
41.29725411152586
 30
0.0
 11
-148.5165448640807
 21
41.29725411152586
 31
0.0
  0
LINE
  5
210
330
71
100
AcDbEntity
  8
1
  6
Continuous
 62
     2
100
AcDbLine
 10
-153.5165448640808
 20
41.29725411152586
 30
0.0
 11
-153.5165448640808
 21
-8.70274588847423
 31
0.0
  0
LINE
  5
211
330
71
100
AcDbEntity
  8
1
  6
Continuous
 62
     6
100
AcDbLine
 10
-148.5165448640807
 20
41.29725411152586
 30
0.0
 11
-148.5165448640802
 21
-8.70274588847423
 31
0.0
  0
LINE
  5
212
330
71
100
AcDbEntity
  8
1
  6
Continuous
 62
     2
100
AcDbLine
 10
-153.5165448640808
 20
-8.70274588847423
 30
0.0
 11
-148.5165448640802
 21
-8.70274588847423
 31
0.0
  0
LINE
  5
213
330
71
100
AcDbEntity
  8
1
  6
Continuous
 62
     2
100
AcDbLine
 10
-153.5165448640808
 20
-8.70274588847423
 30
0.0
 11
-153.5165448640808
 21
-58.70274588847403
 31
0.0
  0
LINE
  5
214
330
71
100
AcDbEntity
  8
1
  6
Continuous
 62
     6
100
AcDbLine
 10
-148.5165448640802
 20
-8.70274588847423
 30
0.0
 11
-148.51654486408
 21
-58.70274588847403
 31
0.0
  0
LINE
  5
215
330
71
100
AcDbEntity
  8
1
  6
Continuous
 62
     2
100
AcDbLine
 10
-153.5165448640808
 20
-58.70274588847403
 30
0.0
 11
-148.51654486408
 21
-58.70274588847403
 31
0.0
  0
LINE
  5
216
330
71
100
AcDbEntity
  8
1
  6
Continuous
 62
     2
100
AcDbLine
 10
-153.5165448640808
 20
-58.70274588847403
 30
0.0
 11
-153.5165448640808
 21
-108.7027458884741
 31
0.0
  0
LINE
  5
217
330
71
100
AcDbEntity
  8
1
  6
Continuous
 62
     6
100
AcDbLine
 10
-148.51654486408
 20
-58.70274588847403
 30
0.0
 11
-148.5165448640798
 21
-108.7027458884741
 31
0.0
  0
LINE
  5
218
330
71
100
AcDbEntity
  8
1
  6
Continuous
 62
     2
100
AcDbLine
 10
-105.0165448640817
 20
-113.7027458884743
 30
0.0
 11
-105.0165448640817
 21
-108.7027458884741
 31
0.0
  0
LINE
  5
219
330
71
100
AcDbEntity
  8
1
  6
Continuous
 62
     2
100
AcDbLine
 10
-105.0165448640817
 20
-113.7027458884743
 30
0.0
 11
-55.01654486408194
 21
-113.7027458884743
 31
0.0
  0
LINE
  5
21A
330
71
100
AcDbEntity
  8
1
  6
Continuous
 62
     2
100
AcDbLine
 10
-55.01654486408194
 20
-113.7027458884743
 30
0.0
 11
-55.01654486408194
 21
-108.7027458884741
 31
0.0
  0
LINE
  5
21B
330
71
100
AcDbEntity
  8
1
  6
Continuous
 62
     2
100
AcDbLine
 10
-55.01654486408194
 20
-113.7027458884743
 30
0.0
 11
-5.01654486408171
 21
-113.7027458884743
 31
0.0
  0
LINE
  5
21C
330
71
100
AcDbEntity
  8
1
  6
Continuous
 62
     2
100
AcDbLine
 10
-5.01654486408171
 20
-113.7027458884743
 30
0.0
 11
-5.01654486408171
 21
-108.7027458884741
 31
0.0
  0
LINE
  5
21D
330
71
100
AcDbEntity
  8
1
  6
Continuous
 62
     2
100
AcDbLine
 10
-5.01654486408171
 20
-113.7027458884743
 30
0.0
 11
44.98345513591826
 21
-113.7027458884743
 31
0.0
  0
LINE
  5
21E
330
71
100
AcDbEntity
  8
1
  6
Continuous
 62
     2
100
AcDbLine
 10
44.98345513591826
 20
-113.7027458884743
 30
0.0
 11
44.98345513591826
 21
-108.7027458884741
 31
0.0
  0
LINE
  5
21F
330
71
100
AcDbEntity
  8
1
  6
Continuous
 62
     2
100
AcDbLine
 10
94.98345513591826
 20
-113.7027458884743
 30
0.0
 11
94.98345513591826
 21
-108.7027458884741
 31
0.0
  0
LINE
  5
220
330
71
100
AcDbEntity
  8
1
  6
Continuous
 62
     2
100
AcDbLine
 10
94.98345513591826
 20
-113.7027458884743
 30
0.0
 11
44.98345513591826
 21
-113.7027458884743
 31
0.0
  0
LINE
  5
221
330
71
100
AcDbEntity
  8
1
  6
Continuous
 62
     2
100
AcDbLine
 10
-148.5165448640798
 20
-108.7027458884741
 30
0.0
 11
-148.5165448640798
 21
-113.7027458884743
 31
0.0
  0
LINE
  5
222
330
71
100
AcDbEntity
  8
1
  6
Continuous
 62
     2
100
AcDbLine
 10
-148.5165448640798
 20
-113.7027458884743
 30
0.0
 11
-105.0165448640817
 21
-113.7027458884743
 31
0.0
  0
LINE
  5
223
330
71
100
AcDbEntity
  8
1
  6
Continuous
 62
     2
100
AcDbLine
 10
-148.5165448640798
 20
-108.7027458884741
 30
0.0
 11
-153.5165448640808
 21
-108.7027458884741
 31
0.0
  0
LINE
  5
224
330
71
100
AcDbEntity
  8
1
  6
Continuous
 62
     2
100
AcDbLine
 10
-153.5165448640808
 20
-108.7027458884741
 30
0.0
 11
-153.5165448640808
 21
-113.7027458884743
 31
0.0
  0
LINE
  5
225
330
71
100
AcDbEntity
  8
1
  6
Continuous
 62
     6
100
AcDbLine
 10
138.4834551359183
 20
-108.7027458884741
 30
0.0
 11
138.4834551359196
 21
-100.2027458884741
 31
0.0
  0
LINE
  5
226
330
71
100
AcDbEntity
  8
1
  6
Continuous
 62
     6
100
AcDbLine
 10
45.33865060916818
 20
-108.7027458884743
 30
0.0
 11
94.98345513591826
 21
-108.7027458884741
 31
0.0
  0
LINE
  5
227
330
71
100
AcDbEntity
  8
1
  6
Continuous
 62
     6
100
AcDbLine
 10
-107.316544864082
 20
-108.7027458884743
 30
0.0
 11
-105.0165448640817
 21
-108.7027458884741
 31
0.0
  0
LINE
  5
228
330
71
100
AcDbEntity
  8
1
  6
Continuous
 62
     6
100
AcDbLine
 10
-5.01654486408171
 20
-108.7027458884741
 30
0.0
 11
-55.01654486408194
 21
-108.7027458884741
 31
0.0
  0
LINE
  5
229
330
71
100
AcDbEntity
  8
1
  6
Continuous
 62
     7
100
AcDbLine
 10
8.93865060916826
 20
-91.70274588847414
 30
0.0
 11
8.93865060916826
 21
-104.4527458884743
 31
0.0
  0
LINE
  5
22A
330
71
100
AcDbEntity
  8
1
  6
Continuous
 62
     7
100
AcDbLine
 10
45.33865060916818
 20
-91.70274588847414
 30
0.0
 11
45.33865060916818
 21
-104.4527458884741
 31
0.0
  0
LINE
  5
22B
330
71
100
AcDbEntity
  8
1
  6
Continuous
 62
     6
100
AcDbLine
 10
-107.316544864082
 20
-108.7027458884743
 30
0.0
 11
-113.51654486408
 21
-108.7027458884741
 31
0.0
  0
LINE
  5
22C
330
71
100
AcDbEntity
  8
1
  6
Continuous
 62
     6
100
AcDbLine
 10
45.33865060916818
 20
-108.7027458884743
 30
0.0
 11
44.98345513591826
 21
-108.7027458884741
 31
0.0
  0
LINE
  5
22D
330
71
100
AcDbEntity
  8
1
  6
Continuous
 62
     6
100
AcDbLine
 10
138.48345513592
 20
-91.70274588847414
 30
0.0
 11
138.4834551359196
 21
-100.2027458884741
 31
0.0
  0
LINE
  5
22E
330
71
100
AcDbEntity
  8
1
  6
Continuous
 62
     6
100
AcDbLine
 10
-113.51654486408
 20
-108.7027458884741
 30
0.0
 11
-148.5165448640798
 21
-108.7027458884741
 31
0.0
  0
LINE
  5
22F
330
71
100
AcDbEntity
  8
1
  6
Continuous
 62
     2
100
AcDbLine
 10
13.17530549573087
 20
-86.32774588847423
 30
0.0
 11
18.17530549573087
 21
-85.07774588847423
 31
0.0
  0
LINE
  5
230
330
71
100
AcDbEntity
  8
1
  6
Continuous
 62
     2
100
AcDbLine
 10
13.17530549573087
 20
-88.82774588847423
 30
0.0
 11
13.17530549573087
 21
-86.32774588847423
 31
0.0
  0
LINE
  5
231
330
71
100
AcDbEntity
  8
1
  6
Continuous
 62
     2
100
AcDbLine
 10
18.17530549573087
 20
-90.07774588847423
 30
0.0
 11
13.17530549573087
 21
-88.82774588847423
 31
0.0
  0
LINE
  5
232
330
71
100
AcDbEntity
  8
1
  6
Continuous
 62
     2
100
AcDbLine
 10
18.17530549573087
 20
-85.07774588847423
 30
0.0
 11
18.17530549573087
 21
-90.07774588847423
 31
0.0
  0
LINE
  5
233
330
71
100
AcDbEntity
  8
1
  6
Continuous
 62
     7
100
AcDbLine
 10
8.93865060916826
 20
-104.4527458884743
 30
0.0
 11
27.13865060916828
 21
-104.4527458884741
 31
0.0
  0
LINE
  5
234
330
71
100
AcDbEntity
  8
1
  6
Continuous
 62
     7
100
AcDbLine
 10
8.93865060916826
 20
-104.4527458884743
 30
0.0
 11
8.93865060916826
 21
-108.7027458884743
 31
0.0
  0
LINE
  5
235
330
71
100
AcDbEntity
  8
1
  6
Continuous
 62
     7
100
AcDbLine
 10
45.33865060916818
 20
-104.4527458884741
 30
0.0
 11
45.33865060916818
 21
-108.7027458884743
 31
0.0
  0
LINE
  5
236
330
71
100
AcDbEntity
  8
1
  6
Continuous
 62
     7
100
AcDbLine
 10
27.13865060916828
 20
-104.4527458884741
 30
0.0
 11
27.13865060916828
 21
-108.7027458884741
 31
0.0
  0
LINE
  5
237
330
71
100
AcDbEntity
  8
1
  6
Continuous
 62
     6
100
AcDbLine
 10
27.13865060916828
 20
-108.7027458884741
 30
0.0
 11
8.93865060916826
 21
-108.7027458884743
 31
0.0
  0
LINE
  5
238
330
71
100
AcDbEntity
  8
1
  6
Continuous
 62
     7
100
AcDbLine
 10
27.13865060916828
 20
-104.4527458884741
 30
0.0
 11
45.33865060916818
 21
-104.4527458884741
 31
0.0
  0
LINE
  5
239
330
71
100
AcDbEntity
  8
1
  6
Continuous
 62
     6
100
AcDbLine
 10
8.93865060916826
 20
-83.20274588847414
 30
0.0
 11
138.48345513592
 21
-83.20274588847414
 31
0.0
  0
ARC
  5
23A
102
{ACAD_REACTORS
330
2A2
330
2A3
102
}
330
71
100
AcDbEntity
  8
0
  6
Continuous
 62
     2
100
AcDbCircle
 10
24.33029860812826
 20
-99.88234112655255
 30
0.0
 40
0.7717997786796772
100
AcDbArc
 50
321.8795802028434
 51
38.12041979715329
  0
ARC
  5
23B
102
{ACAD_REACTORS
330
2A2
330
2A3
102
}
330
71
100
AcDbEntity
  8
0
  6
Continuous
 62
     2
100
AcDbCircle
 10
24.53003864447467
 20
-100.0390723046725
 30
0.0
 40
0.5179085730137413
100
AcDbArc
 50
218.1204197971946
 51
321.8795802028
  0
ARC
  5
23C
102
{ACAD_REACTORS
330
2A2
330
2A3
102
}
330
71
100
AcDbEntity
  8
0
  6
Continuous
 62
     2
100
AcDbCircle
 10
24.72977868082077
 20
-99.88234112655255
 30
0.0
 40
0.7717997786794605
100
AcDbArc
 50
141.8795802028361
 51
218.1204197971672
  0
ARC
  5
23D
102
{ACAD_REACTORS
330
2A2
330
2A3
102
}
330
71
100
AcDbEntity
  8
0
  6
Continuous
 62
     2
100
AcDbCircle
 10
24.53003864447467
 20
-99.72560994843204
 30
0.0
 40
0.5179085730133026
100
AcDbArc
 50
38.12041979714679
 51
141.8795802028585
  0
ARC
  5
23E
102
{ACAD_REACTORS
330
29A
330
29B
102
}
330
71
100
AcDbEntity
  8
0
  6
Continuous
 62
     2
100
AcDbCircle
 10
21.46802450891079
 20
-101.2928074919607
 30
0.0
 40
2.227384008973453
100
AcDbArc
 50
58.06909105004033
 51
71.55192388186708
  0
ARC
  5
23F
102
{ACAD_REACTORS
330
29A
330
29B
102
}
330
71
100
AcDbEntity
  8
0
  6
Continuous
 62
     2
100
AcDbCircle
 10
21.72975220986956
 20
-99.67726969721355
 30
0.0
 40
0.5115800601948765
100
AcDbArc
 50
113.3722778881988
 51
151.4785267423044
  0
ARC
  5
240
102
{ACAD_REACTORS
330
29A
330
29B
102
}
330
71
100
AcDbEntity
  8
0
  6
Continuous
 62
     2
100
AcDbCircle
 10
22.10710946794987
 20
-99.88234112655255
 30
0.0
 40
0.9410597353332545
100
AcDbArc
 50
151.4785267422669
 51
208.5214732577043
  0
ARC
  5
241
102
{ACAD_REACTORS
330
29A
330
29B
102
}
330
71
100
AcDbEntity
  8
0
  6
Continuous
 62
     2
100
AcDbCircle
 10
21.31015163381787
 20
-96.56966018129614
 30
0.0
 40
4.852596863498095
100
AcDbArc
 50
275.1581447696249
 51
285.9799912583528
  0
ARC
  5
242
102
{ACAD_REACTORS
330
29A
330
29B
102
}
330
71
100
AcDbEntity
  8
0
  6
Continuous
 62
     2
100
AcDbCircle
 10
21.59900772855377
 20
-99.76955076451773
 30
0.0
 40
1.639695123939369
100
AcDbArc
 50
195.0618917770882
 51
275.1581447696398
  0
ARC
  5
243
102
{ACAD_REACTORS
330
29A
330
29B
102
}
330
71
100
AcDbEntity
  8
0
  6
Continuous
 62
     2
100
AcDbCircle
 10
21.17987988509097
 20
-99.88234112655255
 30
0.0
 40
1.205656168390941
100
AcDbArc
 50
164.9381082228764
 51
195.061891777093
  0
ARC
  5
244
102
{ACAD_REACTORS
330
29A
330
29B
102
}
330
71
100
AcDbEntity
  8
0
  6
Continuous
 62
     2
100
AcDbCircle
 10
21.59900772855377
 20
-99.99513148858745
 30
0.0
 40
1.639695123940507
100
AcDbArc
 50
84.84185523036223
 51
164.9381082228864
  0
ARC
  5
245
102
{ACAD_REACTORS
330
29E
330
29F
102
}
330
71
100
AcDbEntity
  8
0
  6
Continuous
 62
     2
100
AcDbCircle
 10
16.76899347439186
 20
-98.84851433219825
 30
0.0
 40
0.3157169230765298
100
AcDbArc
 50
115.3740086783507
 51
180.0
  0
ARC
  5
246
102
{ACAD_REACTORS
330
29E
330
29F
102
}
330
71
100
AcDbEntity
  8
0
  6
Continuous
 62
     2
100
AcDbCircle
 10
16.76899347439186
 20
-96.63023113226203
 30
0.0
 40
0.3157169230767884
100
AcDbArc
 50
180.0
 51
244.6259913216493
  0
ARC
  5
247
102
{ACAD_REACTORS
330
29E
330
29F
102
}
330
71
100
AcDbEntity
  8
0
  6
Continuous
 62
     2
100
AcDbCircle
 10
16.77460960970188
 20
-97.72753079132434
 30
0.0
 40
2.018561131933266
100
AcDbArc
 50
269.8110329575861
 51
90.18896704241386
  0
ARC
  5
248
102
{ACAD_REACTORS
330
29E
330
29F
102
}
330
71
100
AcDbEntity
  8
0
  6
Continuous
 62
     2
100
AcDbCircle
 10
16.76899347439186
 20
-99.43036573889333
 30
0.0
 40
0.3157169230767884
100
AcDbArc
 50
180.0
 51
269.8110329574561
  0
ARC
  5
249
102
{ACAD_REACTORS
330
29C
330
29D
102
}
330
71
100
AcDbEntity
  8
0
  6
Continuous
 62
     2
100
AcDbCircle
 10
37.83245368912247
 20
-99.67726969721355
 30
0.0
 40
0.5115800601944119
100
AcDbArc
 50
109.3371432194845
 51
151.4785267424221
  0
ARC
  5
24A
102
{ACAD_REACTORS
330
29C
330
29D
102
}
330
71
100
AcDbEntity
  8
0
  6
Continuous
 62
     2
100
AcDbCircle
 10
37.83245368912247
 20
-100.087412555891
 30
0.0
 40
0.5115800601960561
100
AcDbArc
 50
208.5214732576954
 51
246.627722111845
  0
ARC
  5
24B
102
{ACAD_REACTORS
330
29C
330
29D
102
}
330
71
100
AcDbEntity
  8
0
  6
Continuous
 62
     2
100
AcDbCircle
 10
37.28258136434508
 20
-99.88234112655255
 30
0.0
 40
1.205656168393002
100
AcDbArc
 50
164.9381082229028
 51
195.061891777094
  0
ARC
  5
24C
102
{ACAD_REACTORS
330
29C
330
29D
102
}
330
71
100
AcDbEntity
  8
0
  6
Continuous
 62
     2
100
AcDbCircle
 10
37.70170920780669
 20
-99.99513148858745
 30
0.0
 40
1.639695123940214
100
AcDbArc
 50
90.0
 51
164.938108222895
  0
ARC
  5
24D
102
{ACAD_REACTORS
330
2A0
330
2A1
102
}
330
71
100
AcDbEntity
  8
0
  6
Continuous
 62
     2
100
AcDbCircle
 10
28.27471411510297
 20
-96.52315065037823
 30
0.0
 40
1.526904761905882
100
AcDbArc
 50
90.0
 51
270.0
  0
ARC
  5
24E
102
{ACAD_REACTORS
330
2A4
330
2A5
102
}
330
71
100
AcDbEntity
  8
0
  6
Continuous
 62
     2
100
AcDbCircle
 10
21.53202336987718
 20
-96.01221555858353
 30
0.0
 40
0.3528638246711182
100
AcDbArc
 50
270.0
 51
90.0
  0
ARC
  5
24F
102
{ACAD_REACTORS
330
29E
330
29F
102
}
330
71
100
AcDbEntity
  8
0
  6
Continuous
 62
     2
100
AcDbCircle
 10
14.19344478786016
 20
-96.02451836710713
 30
0.0
 40
0.3157169230761951
100
AcDbArc
 50
90.0
 51
180.0
  0
ARC
  5
250
102
{ACAD_REACTORS
330
29E
330
29F
102
}
330
71
100
AcDbEntity
  8
0
  6
Continuous
 62
     2
100
AcDbCircle
 10
16.19186249644477
 20
-97.73937273222984
 30
0.0
 40
0.9118975235576154
100
AcDbArc
 50
115.1944106485283
 51
244.8055893514877
  0
ARC
  5
251
102
{ACAD_REACTORS
330
29E
330
29F
102
}
330
71
100
AcDbEntity
  8
0
  6
Continuous
 62
     2
100
AcDbCircle
 10
15.66927804886979
 20
-98.85020247829263
 30
0.0
 40
0.3157169230765895
100
AcDbArc
 50
0.0
 51
64.80558935146145
  0
ARC
  5
252
102
{ACAD_REACTORS
330
29E
330
29F
102
}
330
71
100
AcDbEntity
  8
0
  6
Continuous
 62
     2
100
AcDbCircle
 10
13.59955011111367
 20
-100.9850012730745
 30
0.0
 40
0.4242446153828006
100
AcDbArc
 50
180.0
 51
270.0
  0
ARC
  5
253
102
{ACAD_REACTORS
330
2A0
330
2A1
102
}
330
71
100
AcDbEntity
  8
0
  6
Continuous
 62
     2
100
AcDbCircle
 10
28.49098612526817
 20
-96.36641947225775
 30
0.0
 40
0.5179085730135238
100
AcDbArc
 50
38.12041979714358
 51
141.8795802028494
  0
ARC
  5
254
102
{ACAD_REACTORS
330
2A0
330
2A1
102
}
330
71
100
AcDbEntity
  8
0
  6
Continuous
 62
     2
100
AcDbCircle
 10
28.69072616161446
 20
-96.52315065037823
 30
0.0
 40
0.7717997786796724
100
AcDbArc
 50
141.8795802028404
 51
218.1204197971562
  0
ARC
  5
255
102
{ACAD_REACTORS
330
2A2
330
2A3
102
}
330
71
100
AcDbEntity
  8
0
  6
Continuous
 62
     2
100
AcDbCircle
 10
24.53003864447467
 20
-99.34376611624924
 30
0.0
 40
2.065479772208556
100
AcDbArc
 50
242.4518518243411
 51
297.5481481756865
  0
ARC
  5
256
102
{ACAD_REACTORS
330
2A2
330
2A3
102
}
330
71
100
AcDbEntity
  8
0
  6
Continuous
 62
     2
100
AcDbCircle
 10
24.53003864447467
 20
-100.4209161368553
 30
0.0
 40
2.065479772208533
100
AcDbArc
 50
62.45185182430564
 51
117.5481481756667
  0
ARC
  5
257
102
{ACAD_REACTORS
330
2A2
330
2A3
102
}
330
71
100
AcDbEntity
  8
0
  6
Continuous
 62
     2
100
AcDbCircle
 10
24.24909875264137
 20
-99.88234112655255
 30
0.0
 40
1.458034083651487
100
AcDbArc
 50
117.5481481756622
 51
242.4518518243388
  0
ARC
  5
258
102
{ACAD_REACTORS
330
2A2
330
2A3
102
}
330
71
100
AcDbEntity
  8
0
  6
Continuous
 62
     2
100
AcDbCircle
 10
24.81097853630797
 20
-99.88234112655255
 30
0.0
 40
1.458034083652055
100
AcDbArc
 50
297.5481481757001
 51
62.45185182429882
  0
ARC
  5
259
102
{ACAD_REACTORS
330
2A0
330
2A1
102
}
330
71
100
AcDbEntity
  8
0
  6
Continuous
 62
     2
100
AcDbCircle
 10
28.49098612526817
 20
-96.67988182849865
 30
0.0
 40
0.5179085730134427
100
AcDbArc
 50
218.1204197971506
 51
321.8795802028564
  0
ARC
  5
25A
102
{ACAD_REACTORS
330
2A0
330
2A1
102
}
330
71
100
AcDbEntity
  8
0
  6
Continuous
 62
     2
100
AcDbCircle
 10
28.29124608892198
 20
-96.52315065037823
 30
0.0
 40
0.7717997786796373
100
AcDbArc
 50
321.8795802028437
 51
38.12041979715956
  0
ARC
  5
25B
102
{ACAD_REACTORS
330
29E
330
29F
102
}
330
71
100
AcDbEntity
  8
0
  6
Continuous
 62
     2
100
AcDbCircle
 10
19.07286220183048
 20
-100.9850012730745
 30
0.0
 40
0.4242446153833015
100
AcDbArc
 50
270.0
 51
0.0
  0
ARC
  5
25C
102
{ACAD_REACTORS
330
29E
330
29F
102
}
330
71
100
AcDbEntity
  8
0
  6
Continuous
 62
     2
100
AcDbCircle
 10
19.07286220183048
 20
-95.42049050387433
 30
0.0
 40
0.4242446153838806
100
AcDbArc
 50
0.0
 51
90.0
  0
ARC
  5
25D
102
{ACAD_REACTORS
330
29E
330
29F
102
}
330
71
100
AcDbEntity
  8
0
  6
Continuous
 62
     2
100
AcDbCircle
 10
13.59955011111367
 20
-95.42049050387433
 30
0.0
 40
0.4242446153837989
100
AcDbArc
 50
90.0
 51
180.0
  0
ARC
  5
25E
102
{ACAD_REACTORS
330
29E
330
29F
102
}
330
71
100
AcDbEntity
  8
0
  6
Continuous
 62
     2
100
AcDbCircle
 10
15.66927804886979
 20
-100.3809734098242
 30
0.0
 40
0.3157169230767067
100
AcDbArc
 50
270.0
 51
0.0
  0
ARC
  5
25F
102
{ACAD_REACTORS
330
29E
330
29F
102
}
330
71
100
AcDbEntity
  8
0
  6
Continuous
 62
     2
100
AcDbCircle
 10
15.66927804886979
 20
-96.62854298616764
 30
0.0
 40
0.3157169230761172
100
AcDbArc
 50
295.1944106485386
 51
0.0
  0
ARC
  5
260
102
{ACAD_REACTORS
330
29E
330
29F
102
}
330
71
100
AcDbEntity
  8
0
  6
Continuous
 62
     2
100
AcDbCircle
 10
15.66927804886979
 20
-96.02451836710713
 30
0.0
 40
0.3157169230765895
100
AcDbArc
 50
0.0
 51
90.0
  0
ARC
  5
261
102
{ACAD_REACTORS
330
29E
330
29F
102
}
330
71
100
AcDbEntity
  8
0
  6
Continuous
 62
     2
100
AcDbCircle
 10
14.19344478786016
 20
-100.3809734098242
 30
0.0
 40
0.31571692307568
100
AcDbArc
 50
180.0
 51
270.0
  0
ARC
  5
262
102
{ACAD_REACTORS
330
2A4
330
2A5
102
}
330
71
100
AcDbEntity
  8
0
  6
Continuous
 62
     2
100
AcDbCircle
 10
21.97349589611557
 20
-96.05161152980602
 30
0.0
 40
1.055365641333708
100
AcDbArc
 50
270.0
 51
90.0
  0
ARC
  5
263
102
{ACAD_REACTORS
330
29C
330
29D
102
}
330
71
100
AcDbEntity
  8
0
  6
Continuous
 62
     2
100
AcDbCircle
 10
37.70170920780669
 20
-99.76955076451773
 30
0.0
 40
1.639695123940437
100
AcDbArc
 50
195.0618917770998
 51
275.1581447696763
  0
ARC
  5
264
102
{ACAD_REACTORS
330
29C
330
29D
102
}
330
71
100
AcDbEntity
  8
0
  6
Continuous
 62
     2
100
AcDbCircle
 10
37.41285311307087
 20
-96.56966018129614
 30
0.0
 40
4.852596863498796
100
AcDbArc
 50
275.1581447696364
 51
285.9799912583385
  0
ARC
  5
265
102
{ACAD_REACTORS
330
29C
330
29D
102
}
330
71
100
AcDbEntity
  8
0
  6
Continuous
 62
     2
100
AcDbCircle
 10
37.57072598816367
 20
-98.47187476114445
 30
0.0
 40
2.227384008972721
100
AcDbArc
 50
288.4480761181339
 51
301.9309089499401
  0
ARC
  5
266
102
{ACAD_REACTORS
330
29C
330
29D
102
}
330
71
100
AcDbEntity
  8
0
  6
Continuous
 62
     2
100
AcDbCircle
 10
37.98889372182558
 20
-99.72542053718104
 30
0.0
 40
0.9059297849852437
100
AcDbArc
 50
246.6277221118168
 51
288.4480761180823
  0
ARC
  5
267
102
{ACAD_REACTORS
330
29C
330
29D
102
}
330
71
100
AcDbEntity
  8
0
  6
Continuous
 62
     2
100
AcDbCircle
 10
38.20981094720386
 20
-99.88234112655255
 30
0.0
 40
0.9410597353348924
100
AcDbArc
 50
151.4785267423624
 51
208.5214732576725
  0
ARC
  5
268
102
{ACAD_REACTORS
330
29C
330
29D
102
}
330
71
100
AcDbEntity
  8
0
  6
Continuous
 62
     2
100
AcDbCircle
 10
37.97912368722618
 20
-100.0952246775964
 30
0.0
 40
0.9545230068260651
100
AcDbArc
 50
90.0
 51
109.3371432194326
  0
ARC
  5
269
102
{ACAD_REACTORS
330
29E
330
29F
102
}
330
71
100
AcDbEntity
  8
0
  6
Continuous
 62
     2
100
AcDbCircle
 10
16.76899347439186
 20
-96.02469584375524
 30
0.0
 40
0.315716923076071
100
AcDbArc
 50
90.188967042544
 51
180.0
  0
ARC
  5
26A
102
{ACAD_REACTORS
330
29E
330
29F
102
}
330
71
100
AcDbEntity
  8
0
  6
Continuous
 62
     2
100
AcDbCircle
 10
16.24295077630399
 20
-97.73937273222984
 30
0.0
 40
0.911848150144459
100
AcDbArc
 50
295.3740086781764
 51
64.62599132180748
  0
ARC
  5
26B
102
{ACAD_REACTORS
330
29A
330
29B
102
}
330
71
100
AcDbEntity
  8
0
  6
Continuous
 62
     2
100
AcDbCircle
 10
21.46802450891079
 20
-98.47187476114385
 30
0.0
 40
2.227384008972709
100
AcDbArc
 50
288.4480761181329
 51
301.9309089499599
  0
ARC
  5
26C
102
{ACAD_REACTORS
330
29A
330
29B
102
}
330
71
100
AcDbEntity
  8
0
  6
Continuous
 62
     2
100
AcDbCircle
 10
21.88619224257158
 20
-99.72542053718104
 30
0.0
 40
0.9059297849848773
100
AcDbArc
 50
246.6277221118704
 51
288.4480761181592
  0
ARC
  5
26D
102
{ACAD_REACTORS
330
29A
330
29B
102
}
330
71
100
AcDbEntity
  8
0
  6
Continuous
 62
     2
100
AcDbCircle
 10
21.72975220986956
 20
-100.087412555891
 30
0.0
 40
0.5115800601948034
100
AcDbArc
 50
208.5214732576956
 51
246.6277221118271
  0
ARC
  5
26E
102
{ACAD_REACTORS
330
29A
330
29B
102
}
330
71
100
AcDbEntity
  8
0
  6
Continuous
 62
     2
100
AcDbCircle
 10
21.88619224257158
 20
-100.0392617159241
 30
0.0
 40
0.9059297849852835
100
AcDbArc
 50
71.55192388185242
 51
113.3722778881296
  0
ARC
  5
26F
102
{ACAD_REACTORS
330
29A
330
29B
102
}
330
71
100
AcDbEntity
  8
0
  6
Continuous
 62
     2
100
AcDbCircle
 10
21.31015163381787
 20
-103.1950220718084
 30
0.0
 40
4.852596863498027
100
AcDbArc
 50
74.02000874164725
 51
84.84185523037506
  0
CIRCLE
  5
270
102
{ACAD_REACTORS
330
29E
330
29F
102
}
330
71
100
AcDbEntity
  8
0
  6
Continuous
 62
     2
100
AcDbCircle
 10
16.21913576163118
 20
-97.73937273222984
 30
0.0
 40
0.470978932778511
  0
CIRCLE
  5
271
330
71
100
AcDbEntity
  8
1
  6
Continuous
 62
     2
100
AcDbCircle
 10
21.67530549573087
 20
-87.57774588847423
 30
0.0
 40
1.249999999999908
  0
CIRCLE
  5
272
330
71
100
AcDbEntity
  8
1
  6
Continuous
 62
     2
100
AcDbCircle
 10
21.67530549573087
 20
-87.57774588847423
 30
0.0
 40
2.5
  0
TEXT
  5
273
330
71
100
AcDbEntity
  8
1
 62
     7
100
AcDbText
 10
64.31219833118206
 20
-90.40274588847424
 30
0.0
 40
2.5
  1
/
 41
0.9
  7
CONVERTER_11
100
AcDbText
  0
TEXT
  5
275
330
71
100
AcDbEntity
  8
1
 62
     7
100
AcDbText
 10
66.46856282822407
 20
-90.40274588847424
 30
0.0
 40
2.5
  1
00
 41
0.81
  7
CONVERTER_12
100
AcDbText
  0
TEXT
  5
276
330
71
100
AcDbEntity
  8
1
 62
     3
100
AcDbText
 10
104.0650468542412
 20
-90.40274588847424
 30
0.0
 40
2.5
  1
27.01.2018
 41
0.81
  7
CONVERTER_12
100
AcDbText
  0
MTEXT
  5
277
330
71
100
AcDbEntity
  8
1
 62
     2
100
AcDbMText
 10
104.0650468542412
 20
-84.20274588847423
 30
0.0
 40
1.8
 41
0.0
 71
     1
 72
     1
  1
date
  7
CONVERTER_11
 73
     1
 44
1.32052821128451
  0
MTEXT
  5
278
330
71
100
AcDbEntity
  8
1
 62
     2
100
AcDbMText
 10
74.23865060916827
 20
-92.70274588847423
 30
0.0
 40
1.8
 41
0.0
 71
     1
 72
     1
  1
document-type
  7
CONVERTER_11
 73
     1
 44
1.20048019207683
  0
TEXT
  5
279
330
71
100
AcDbEntity
  8
1
 62
     3
100
AcDbText
 10
74.23865060916827
 20
-98.90274588847424
 30
0.0
 40
2.5
  1
 
 41
0.81
  7
CONVERTER_12
100
AcDbText
  0
MTEXT
  5
27B
330
71
100
AcDbEntity
  8
1
 62
     2
100
AcDbMText
 10
46.43865060916826
 20
-84.20274588847414
 30
0.0
 40
1.8
 41
0.0
 71
     1
 72
     1
  1
document-No. / RI
  7
CONVERTER_13
 73
     1
 44
1.32052821128451
  0
TEXT
  5
27C
330
71
100
AcDbEntity
  8
1
 62
     7
100
AcDbText
 10
46.43865060916826
 20
-90.40274588847424
 30
0.0
 40
2.5
  1
00444411
 41
0.81
  7
CONVERTER_12
100
AcDbText
  0
MTEXT
  5
27E
330
71
100
AcDbEntity
  8
1
 62
     3
100
AcDbMText
 10
134.0242509950806
 20
-90.40274588847404
 30
0.0
 40
2.5
 41
0.0
 71
     8
 72
     1
  1
1:1
  7
CONVERTER_14
 73
     1
 44
1.32052821128451
  0
MTEXT
  5
27F
330
71
100
AcDbEntity
  8
1
 62
     2
100
AcDbMText
 10
130.665046854241
 20
-84.20274588847414
 30
0.0
 40
1.8
 41
0.0
 71
     1
 72
     1
  1
scale
  7
CONVERTER_11
 73
     1
 44
1.20048019207683
  0
MTEXT
  5
280
330
71
100
AcDbEntity
  8
1
 62
     2
100
AcDbMText
 10
46.43865060916826
 20
-92.70274588847414
 30
0.0
 40
1.8
 41
0.0
 71
     1
 72
     1
  1
ident.-No.
  7
CONVERTER_11
 73
     1
 44
1.20048019207683
  0
TEXT
  5
281
330
71
100
AcDbEntity
  8
1
 62
     7
100
AcDbText
 10
46.83865060916799
 20
-98.90274588847424
 30
0.0
 40
2.5
  1
0309523
 41
0.81
  7
CONVERTER_12
100
AcDbText
  0
MTEXT
  5
282
330
71
100
AcDbEntity
  8
1
 62
     2
100
AcDbMText
 10
-25.49936411587925
 20
-95.95274588847423
 30
0.0
 40
2.0
 41
0.0
 71
     5
 72
     1
  1
General Information\P- Simplified representation\P- Document excluded from change process\P- Linear dimensions [mm]
  7
CONVERTER_11
 73
     1
 44
1.20048019207683
  0
MTEXT
  5
283
330
71
100
AcDbEntity
  8
1
 62
     7
100
AcDbMText
 10
140.9834551359173
 20
-33.70274588847224
 30
0.0
 40
3.5
 41
0.0
 71
     5
 72
     1
  1
C
  7
CONVERTER_11
 73
     1
 44
1.20048019207683
  0
MTEXT
  5
284
330
71
100
AcDbEntity
  8
1
 62
     7
100
AcDbMText
 10
140.9834551359173
 20
68.79725411152586
 30
0.0
 40
3.5
 41
0.0
 71
     5
 72
     1
  1
A
  7
CONVERTER_11
 73
     1
 44
1.20048019207683
  0
MTEXT
  5
285
330
71
100
AcDbEntity
  8
1
 62
     7
100
AcDbMText
 10
140.9834551359173
 20
16.29725411152776
 30
0.0
 40
3.5
 41
0.0
 71
     5
 72
     1
  1
B
  7
CONVERTER_11
 73
     1
 44
1.20048019207683
  0
MTEXT
  5
286
330
71
100
AcDbEntity
  8
1
 62
     7
100
AcDbMText
 10
140.9834551359173
 20
-86.20274588847414
 30
0.0
 40
3.5
 41
0.0
 71
     5
 72
     1
  1
D
  7
CONVERTER_11
 73
     1
 44
1.20048019207683
  0
MTEXT
  5
287
330
71
100
AcDbEntity
  8
1
 62
     7
100
AcDbMText
 10
-129.2665448640813
 20
-111.2027458884743
 30
0.0
 40
3.5
 41
0.0
 71
     5
 72
     1
  1
1
  7
CONVERTER_11
 73
     1
 44
1.20048019207683
  0
MTEXT
  5
288
330
71
100
AcDbEntity
  8
1
 62
     7
100
AcDbMText
 10
-80.01654486408171
 20
-111.2027458884743
 30
0.0
 40
3.5
 41
0.0
 71
     5
 72
     1
  1
2
  7
CONVERTER_11
 73
     1
 44
1.20048019207683
  0
MTEXT
  5
289
330
71
100
AcDbEntity
  8
1
 62
     7
100
AcDbMText
 10
-30.01654486408171
 20
-111.2027458884743
 30
0.0
 40
3.5
 41
0.0
 71
     5
 72
     1
  1
3
  7
CONVERTER_11
 73
     1
 44
1.20048019207683
  0
MTEXT
  5
28A
330
71
100
AcDbEntity
  8
1
 62
     7
100
AcDbMText
 10
19.98345513591818
 20
-111.2027458884743
 30
0.0
 40
3.5
 41
0.0
 71
     5
 72
     1
  1
4
  7
CONVERTER_11
 73
     1
 44
1.20048019207683
  0
MTEXT
  5
28B
330
71
100
AcDbEntity
  8
1
 62
     7
100
AcDbMText
 10
69.98345513591826
 20
-111.2027458884743
 30
0.0
 40
3.5
 41
0.0
 71
     5
 72
     1
  1
5
  7
CONVERTER_11
 73
     1
 44
1.20048019207683
  0
MTEXT
  5
28C
330
71
100
AcDbEntity
  8
1
 62
     7
100
AcDbMText
 10
119.2334551359175
 20
-111.2027458884743
 30
0.0
 40
3.5
 41
0.0
 71
     5
 72
     1
  1
6
  7
CONVERTER_11
 73
     1
 44
1.20048019207683
  0
MTEXT
  5
28D
330
71
100
AcDbEntity
  8
1
 62
     7
100
AcDbMText
 10
-151.0165448640808
 20
68.79725411152586
 30
0.0
 40
3.5
 41
0.0
 71
     5
 72
     1
  1
A
  7
CONVERTER_11
 73
     1
 44
1.20048019207683
  0
MTEXT
  5
28E
330
71
100
AcDbEntity
  8
1
 62
     7
100
AcDbMText
 10
-151.0165448640808
 20
16.29725411152586
 30
0.0
 40
3.5
 41
0.0
 71
     5
 72
     1
  1
B
  7
CONVERTER_11
 73
     1
 44
1.20048019207683
  0
MTEXT
  5
28F
330
71
100
AcDbEntity
  8
1
 62
     7
100
AcDbMText
 10
-151.0165448640808
 20
-33.70274588847414
 30
0.0
 40
3.5
 41
0.0
 71
     5
 72
     1
  1
C
  7
CONVERTER_11
 73
     1
 44
1.20048019207683
  0
MTEXT
  5
290
330
71
100
AcDbEntity
  8
1
 62
     7
100
AcDbMText
 10
-151.0165448640808
 20
-86.20274588847414
 30
0.0
 40
3.5
 41
0.0
 71
     5
 72
     1
  1
D
  7
CONVERTER_11
 73
     1
 44
1.20048019207683
  0
MTEXT
  5
291
330
71
100
AcDbEntity
  8
1
 62
     3
100
AcDbMText
 10
35.13865060916817
 20
-87.57774588847414
 30
0.0
 40
2.5
 41
0.0
 71
     5
 72
     1
  1
DIN A4
  7
CONVERTER_11
 73
     1
 44
1.20048019207683
  0
MTEXT
  5
292
330
71
100
AcDbEntity
  8
1
 62
     2
100
AcDbMText
 10
46.33865060916818
 20
-101.2027458884741
 30
0.0
 40
1.8
 41
0.0
 71
     1
 72
     1
  1
description
  7
CONVERTER_11
 73
     1
 44
1.20048019207683
  0
MTEXT
  5
293
330
71
100
AcDbEntity
  8
1
 62
     7
100
AcDbMText
 10
91.91105287254376
 20
-105.4527458884739
 30
0.0
 40
3.0
 41
0.0
 71
     5
 72
     1
  1
KSS  3- 6
  7
CONVERTER_12
 73
     1
 44
1.20048019207683
  0
TEXT
  5
294
330
71
100
AcDbEntity
  8
1
 62
     2
100
AcDbText
 10
33.37395941898177
 20
-107.4527458884743
 30
0.0
 40
1.8
  1
1
 41
0.9
  7
CONVERTER_11
100
AcDbText
  0
TEXT
  5
295
330
71
100
AcDbEntity
  8
1
 62
     2
100
AcDbText
 10
18.58491557951027
 20
-107.5019945422762
 30
0.0
 40
1.8
  1
1
 41
0.9
  7
CONVERTER_11
100
AcDbText
  0
TEXT
  5
296
330
71
100
AcDbEntity
  8
1
 62
     2
100
AcDbText
 10
9.93865060916826
 20
-107.4617631034658
 30
0.0
 40
1.8
  1
page
 41
0.9
  7
CONVERTER_11
100
AcDbText
  0
TEXT
  5
297
330
71
100
AcDbEntity
  8
1
 62
     2
100
AcDbText
 10
28.13865060916808
 20
-107.4617631034658
 30
0.0
 40
1.8
  1
of
 41
0.9
  7
CONVERTER_11
100
AcDbText
  0
MTEXT
  5
298
330
71
100
AcDbEntity
  8
1
 62
     3
100
AcDbMText
 10
34.34163276077817
 20
78.08856226682465
 30
0.0
 40
1.8
 41
0.0
 71
     7
 72
     1
  3
Transfer or duplication of this document as well as the utilisation or\Pcommunication of its content are not permitted unless express consent\Pis granted. Violations give rise to claims for damages. All rights reserved\Pin case of patent, utility mo
  1
del or design patent registrations.
  7
CONVERTER_11
 73
     1
 44
0.99639855942377
  0
MTEXT
  5
299
330
71
100
AcDbEntity
  8
1
 62
     3
100
AcDbMText
 10
-148.5114770780099
 20
78.08856226682465
 30
0.0
 40
1.8
 41
0.0
 71
     7
 72
     1
  3
Weitergabe sowie Vervielf\U+00e4ltigung dieses Dokuments, Verwertung und \PMitteilung seines Inhalts sind verboten, soweit nicht ausdr\U+00fccklich gestattet. \PZuwiderhandlungen verpflichten zu Schadenersatz. Alle Rechte f\U+00fcr den Fall\Pder Pat
  1
ent-, Gebrauchsmuster- oder Designeintragung vorbehalten.
  7
CONVERTER_11
 73
     1
 44
0.99639855942377
  0
HATCH
  5
29A
330
71
100
AcDbEntity
  8
1
  6
Continuous
 62
     2
100
AcDbHatch
 10
0.0
 20
0.0
 30
0.0
210
0.0
220
0.0
230
1.0
  2
_USER
 70
     0
 71
     1
 91
        1
 92
        1
 93
       14
 72
     2
 10
21.17987988509097
 20
-99.88234112655255
 40
1.205656168390941
 50
164.9381082228764
 51
195.061891777093
 73
     1
 72
     2
 10
21.59900772855377
 20
-99.76955076451773
 40
1.639695123939369
 50
195.0618917770882
 51
275.1581447696398
 73
     1
 72
     2
 10
21.31015163381787
 20
-96.56966018129614
 40
4.852596863498095
 50
275.1581447696249
 51
285.9799912583528
 73
     1
 72
     1
 10
22.64607955093567
 20
-101.234742487097
 11
22.64607955093567
 21
-100.3622254802937
 72
     2
 10
21.46802450891079
 20
-98.47187476114385
 40
2.227384008972709
 50
58.06909105004014
 51
71.55192388186708
 73
     0
 72
     2
 10
21.88619224257158
 20
-99.72542053718104
 40
0.9059297849848773
 50
71.55192388184076
 51
113.3722778881296
 73
     0
 72
     2
 10
21.72975220986956
 20
-100.087412555891
 40
0.5115800601948034
 50
113.3722778881729
 51
151.4785267423044
 73
     0
 72
     2
 10
22.10710946794987
 20
-99.88234112655255
 40
0.9410597353332545
 50
151.4785267422958
 51
208.5214732577331
 73
     0
 72
     2
 10
21.72975220986956
 20
-99.67726969721355
 40
0.5115800601948765
 50
208.5214732576956
 51
246.6277221118012
 73
     0
 72
     2
 10
21.88619224257158
 20
-100.0392617159241
 40
0.9059297849852835
 50
246.6277221118704
 51
288.4480761181476
 73
     0
 72
     2
 10
21.46802450891079
 20
-101.2928074919607
 40
2.227384008973453
 50
288.4480761181329
 51
301.9309089499596
 73
     0
 72
     1
 10
22.64607955093567
 20
-99.40245677281084
 11
22.64607955093567
 21
-98.52993976600754
 72
     2
 10
21.31015163381787
 20
-103.1950220718084
 40
4.852596863498027
 50
74.02000874164725
 51
84.84185523037506
 73
     1
 72
     2
 10
21.59900772855377
 20
-99.99513148858745
 40
1.639695123940507
 50
84.84185523036223
 51
164.9381082228864
 73
     1
 97
       14
330
26F
330
188
330
23E
330
26E
330
23F
330
240
330
26D
330
26C
330
26B
330
189
330
241
330
242
330
243
330
244
 75
     1
 76
     0
 52
45.0
 41
0.1
 77
     0
 78
     1
 53
45.0
 43
0.0
 44
0.0
 45
-0.0707106781186548
 46
0.0707106781186548
 79
     0
 98
        1
 10
0.0
 20
0.0
  0
HATCH
  5
29B
330
71
100
AcDbEntity
  8
1
  6
Continuous
 62
     2
100
AcDbHatch
 10
0.0
 20
0.0
 30
0.0
210
0.0
220
0.0
230
1.0
  2
_USER
 70
     0
 71
     1
 91
        1
 92
        1
 93
       14
 72
     2
 10
21.17987988509097
 20
-99.88234112655255
 40
1.205656168390941
 50
164.9381082228764
 51
195.061891777093
 73
     1
 72
     2
 10
21.59900772855377
 20
-99.76955076451773
 40
1.639695123939369
 50
195.0618917770882
 51
275.1581447696398
 73
     1
 72
     2
 10
21.31015163381787
 20
-96.56966018129614
 40
4.852596863498095
 50
275.1581447696249
 51
285.9799912583528
 73
     1
 72
     1
 10
22.64607955093567
 20
-101.234742487097
 11
22.64607955093567
 21
-100.3622254802937
 72
     2
 10
21.46802450891079
 20
-98.47187476114385
 40
2.227384008972709
 50
58.06909105004014
 51
71.55192388186708
 73
     0
 72
     2
 10
21.88619224257158
 20
-99.72542053718104
 40
0.9059297849848773
 50
71.55192388184076
 51
113.3722778881296
 73
     0
 72
     2
 10
21.72975220986956
 20
-100.087412555891
 40
0.5115800601948034
 50
113.3722778881729
 51
151.4785267423044
 73
     0
 72
     2
 10
22.10710946794987
 20
-99.88234112655255
 40
0.9410597353332545
 50
151.4785267422958
 51
208.5214732577331
 73
     0
 72
     2
 10
21.72975220986956
 20
-99.67726969721355
 40
0.5115800601948765
 50
208.5214732576956
 51
246.6277221118012
 73
     0
 72
     2
 10
21.88619224257158
 20
-100.0392617159241
 40
0.9059297849852835
 50
246.6277221118704
 51
288.4480761181476
 73
     0
 72
     2
 10
21.46802450891079
 20
-101.2928074919607
 40
2.227384008973453
 50
288.4480761181329
 51
301.9309089499596
 73
     0
 72
     1
 10
22.64607955093567
 20
-99.40245677281084
 11
22.64607955093567
 21
-98.52993976600754
 72
     2
 10
21.31015163381787
 20
-103.1950220718084
 40
4.852596863498027
 50
74.02000874164725
 51
84.84185523037506
 73
     1
 72
     2
 10
21.59900772855377
 20
-99.99513148858745
 40
1.639695123940507
 50
84.84185523036223
 51
164.9381082228864
 73
     1
 97
       14
330
26F
330
188
330
23E
330
26E
330
23F
330
240
330
26D
330
26C
330
26B
330
189
330
241
330
242
330
243
330
244
 75
     1
 76
     0
 52
45.0
 41
0.1
 77
     0
 78
     1
 53
45.0
 43
0.0
 44
0.0
 45
-0.0707106781186548
 46
0.0707106781186548
 79
     0
 98
        1
 10
0.0
 20
0.0
  0
HATCH
  5
29C
330
71
100
AcDbEntity
  8
1
  6
Continuous
 62
     2
100
AcDbHatch
 10
0.0
 20
0.0
 30
0.0
210
0.0
220
0.0
230
1.0
  2
_USER
 70
     0
 71
     1
 91
        1
 92
        1
 93
       18
 72
     2
 10
37.70170920780669
 20
-99.99513148858745
 40
1.639695123940214
 50
90.0
 51
164.938108222895
 73
     1
 72
     2
 10
37.28258136434508
 20
-99.88234112655255
 40
1.205656168393002
 50
164.9381082229028
 51
195.061891777094
 73
     1
 72
     2
 10
37.70170920780669
 20
-99.76955076451773
 40
1.639695123940437
 50
195.0618917770998
 51
275.1581447696763
 73
     1
 72
     2
 10
37.41285311307087
 20
-96.56966018129614
 40
4.852596863498796
 50
275.1581447696364
 51
285.9799912583385
 73
     1
 72
     1
 10
38.74878103018759
 20
-101.2347424870976
 11
38.74878103018759
 21
-100.3622254802942
 72
     2
 10
37.57072598816367
 20
-98.47187476114445
 40
2.227384008972721
 50
58.06909105005989
 51
71.55192388186612
 73
     0
 72
     2
 10
37.98889372182558
 20
-99.72542053718104
 40
0.9059297849852437
 50
71.55192388191772
 51
113.3722778881832
 73
     0
 72
     2
 10
37.83245368912247
 20
-100.087412555891
 40
0.5115800601960561
 50
113.372277888155
 51
151.4785267423046
 73
     0
 72
     2
 10
38.20981094720386
 20
-99.88234112655255
 40
0.9410597353348924
 50
151.4785267423275
 51
208.5214732576376
 73
     0
 72
     2
 10
37.83245368912247
 20
-99.67726969721355
 40
0.5115800601944119
 50
208.5214732575779
 51
250.6628567805155
 73
     0
 72
     2
 10
37.97912368722618
 20
-100.0952246775964
 40
0.9545230068260651
 50
250.6628567805674
 51
270.0
 73
     0
 72
     1
 10
37.97912368722618
 20
-99.14070167077034
 11
39.08276298679428
 21
-99.14070167077034
 72
     1
 10
39.08276298679428
 20
-99.14070167077034
 11
39.08276298679428
 21
-101.4092458884578
 72
     1
 10
39.08276298679428
 20
-101.4092458884578
 11
40.27555568896199
 21
-101.4092458884578
 72
     1
 10
40.27555568896199
 20
-101.4092458884578
 11
40.27555568896199
 21
-99.14070167077034
 72
     1
 10
40.27555568896199
 20
-99.14070167077034
 11
41.08665472643537
 21
-99.14070167077034
 72
     1
 10
41.08665472643537
 20
-99.14070167077034
 11
41.08665472643537
 21
-98.35543636464675
 72
     1
 10
41.08665472643537
 20
-98.35543636464675
 11
37.70170920780669
 21
-98.35543636464723
 97
       18
330
1EE
330
1ED
330
1EC
330
1EB
330
1F0
330
18A
330
268
330
249
330
267
330
24A
330
266
330
265
330
18B
330
264
330
263
330
24B
330
24C
330
1EF
 75
     1
 76
     0
 52
45.0
 41
0.1
 77
     0
 78
     1
 53
45.0
 43
0.0
 44
0.0
 45
-0.0707106781186548
 46
0.0707106781186548
 79
     0
 98
        1
 10
0.0
 20
0.0
  0
HATCH
  5
29D
330
71
100
AcDbEntity
  8
1
  6
Continuous
 62
     2
100
AcDbHatch
 10
0.0
 20
0.0
 30
0.0
210
0.0
220
0.0
230
1.0
  2
_USER
 70
     0
 71
     1
 91
        1
 92
        1
 93
       18
 72
     2
 10
37.70170920780669
 20
-99.99513148858745
 40
1.639695123940214
 50
90.0
 51
164.938108222895
 73
     1
 72
     2
 10
37.28258136434508
 20
-99.88234112655255
 40
1.205656168393002
 50
164.9381082229028
 51
195.061891777094
 73
     1
 72
     2
 10
37.70170920780669
 20
-99.76955076451773
 40
1.639695123940437
 50
195.0618917770998
 51
275.1581447696763
 73
     1
 72
     2
 10
37.41285311307087
 20
-96.56966018129614
 40
4.852596863498796
 50
275.1581447696364
 51
285.9799912583385
 73
     1
 72
     1
 10
38.74878103018759
 20
-101.2347424870976
 11
38.74878103018759
 21
-100.3622254802942
 72
     2
 10
37.57072598816367
 20
-98.47187476114445
 40
2.227384008972721
 50
58.06909105005989
 51
71.55192388186612
 73
     0
 72
     2
 10
37.98889372182558
 20
-99.72542053718104
 40
0.9059297849852437
 50
71.55192388191772
 51
113.3722778881832
 73
     0
 72
     2
 10
37.83245368912247
 20
-100.087412555891
 40
0.5115800601960561
 50
113.372277888155
 51
151.4785267423046
 73
     0
 72
     2
 10
38.20981094720386
 20
-99.88234112655255
 40
0.9410597353348924
 50
151.4785267423275
 51
208.5214732576376
 73
     0
 72
     2
 10
37.83245368912247
 20
-99.67726969721355
 40
0.5115800601944119
 50
208.5214732575779
 51
250.6628567805155
 73
     0
 72
     2
 10
37.97912368722618
 20
-100.0952246775964
 40
0.9545230068260651
 50
250.6628567805674
 51
270.0
 73
     0
 72
     1
 10
37.97912368722618
 20
-99.14070167077034
 11
39.08276298679428
 21
-99.14070167077034
 72
     1
 10
39.08276298679428
 20
-99.14070167077034
 11
39.08276298679428
 21
-101.4092458884578
 72
     1
 10
39.08276298679428
 20
-101.4092458884578
 11
40.27555568896199
 21
-101.4092458884578
 72
     1
 10
40.27555568896199
 20
-101.4092458884578
 11
40.27555568896199
 21
-99.14070167077034
 72
     1
 10
40.27555568896199
 20
-99.14070167077034
 11
41.08665472643537
 21
-99.14070167077034
 72
     1
 10
41.08665472643537
 20
-99.14070167077034
 11
41.08665472643537
 21
-98.35543636464675
 72
     1
 10
41.08665472643537
 20
-98.35543636464675
 11
37.70170920780669
 21
-98.35543636464723
 97
       18
330
1EE
330
1ED
330
1EC
330
1EB
330
1F0
330
18A
330
268
330
249
330
267
330
24A
330
266
330
265
330
18B
330
264
330
263
330
24B
330
24C
330
1EF
 75
     1
 76
     0
 52
45.0
 41
0.1
 77
     0
 78
     1
 53
45.0
 43
0.0
 44
0.0
 45
-0.0707106781186548
 46
0.0707106781186548
 79
     0
 98
        1
 10
0.0
 20
0.0
  0
HATCH
  5
29E
330
71
100
AcDbEntity
  8
1
  6
Continuous
 62
     2
100
AcDbHatch
 10
0.0
 20
0.0
 30
0.0
210
0.0
220
0.0
230
1.0
  2
_USER
 70
     0
 71
     1
 91
        4
 92
        1
 93
        8
 72
     2
 10
13.59955011111367
 20
-95.42049050387433
 40
0.4242446153837989
 50
90.0
 51
180.0
 73
     1
 72
     1
 10
13.17530549573087
 20
-95.42049050387433
 11
13.17530549573087
 21
-100.9850012730745
 72
     2
 10
13.59955011111367
 20
-100.9850012730745
 40
0.4242446153828006
 50
180.0
 51
270.0
 73
     1
 72
     1
 10
13.59955011111367
 20
-101.4092458884578
 11
19.07286220183048
 21
-101.4092458884578
 72
     2
 10
19.07286220183048
 20
-100.9850012730745
 40
0.4242446153833015
 50
270.0
 51
360.0
 73
     1
 72
     1
 10
19.49710681721436
 20
-100.9850012730745
 11
19.49710681721436
 21
-95.42049050387433
 72
     2
 10
19.07286220183048
 20
-95.42049050387433
 40
0.4242446153838806
 50
0.0
 51
90.0
 73
     1
 72
     1
 10
19.07286220183048
 20
-94.99624588849053
 11
13.59955011111367
 21
-94.99624588849053
 97
        8
330
25C
330
1B9
330
25B
330
1BA
330
252
330
1B7
330
25D
330
1B8
 92
       16
 93
        1
 72
     2
 10
16.21913576163118
 20
-97.73937273222984
 40
0.470978932778511
 50
0.0
 51
360.0
 73
     1
 97
        1
330
270
 92
       16
 93
        8
 72
     2
 10
16.24295077630399
 20
-97.73937273222984
 40
0.911848150144459
 50
295.3740086781764
 51
424.6259913218075
 73
     1
 72
     2
 10
16.76899347439186
 20
-96.63023113226203
 40
0.3157169230767884
 50
115.3740086783507
 51
180.0
 73
     0
 72
     1
 10
16.45327655131507
 20
-96.63023113226203
 11
16.45327655131507
 21
-96.02469584375524
 72
     2
 10
16.76899347439186
 20
-96.02469584375524
 40
0.315716923076071
 50
180.0
 51
269.8110329574561
 73
     0
 72
     2
 10
16.77460960970188
 20
-97.72753079132434
 40
2.018561131933266
 50
269.8110329575861
 51
450.1889670424139
 73
     0
 72
     2
 10
16.76899347439186
 20
-99.43036573889333
 40
0.3157169230767884
 50
90.18896704254391
 51
180.0
 73
     0
 72
     1
 10
16.45327655131507
 20
-99.43036573889333
 11
16.45327655131507
 21
-98.84851433219825
 72
     2
 10
16.76899347439186
 20
-98.84851433219825
 40
0.3157169230765298
 50
180.0
 51
244.6259913216493
 73
     0
 97
        8
330
26A
330
246
330
1F2
330
269
330
247
330
248
330
1F1
330
245
 92
       16
 93
       12
 72
     1
 10
14.19344478786016
 20
-100.6966903329009
 11
15.66927804886979
 21
-100.6966903329009
 72
     2
 10
15.66927804886979
 20
-100.3809734098242
 40
0.3157169230767067
 50
270.0
 51
360.0
 73
     1
 72
     1
 10
15.98499497194638
 20
-100.3809734098242
 11
15.98499497194638
 21
-98.85020247829263
 72
     2
 10
15.66927804886979
 20
-98.85020247829263
 40
0.3157169230765895
 50
0.0
 51
64.80558935146145
 73
     1
 72
     2
 10
16.19186249644477
 20
-97.73937273222984
 40
0.9118975235576154
 50
115.1944106485123
 51
244.8055893514717
 73
     0
 72
     2
 10
15.66927804886979
 20
-96.62854298616764
 40
0.3157169230761172
 50
295.1944106485386
 51
360.0
 73
     1
 72
     1
 10
15.98499497194638
 20
-96.62854298616764
 11
15.98499497194638
 21
-96.02451836710713
 72
     2
 10
15.66927804886979
 20
-96.02451836710713
 40
0.3157169230765895
 50
0.0
 51
90.0
 73
     1
 72
     1
 10
15.66927804886979
 20
-95.70880144403094
 11
14.19344478786016
 21
-95.70880144403094
 72
     2
 10
14.19344478786016
 20
-96.02451836710713
 40
0.3157169230761951
 50
90.0
 51
180.0
 73
     1
 72
     1
 10
13.87772786478448
 20
-96.02451836710713
 11
13.87772786478448
 21
-100.3809734098242
 72
     2
 10
14.19344478786016
 20
-100.3809734098242
 40
0.31571692307568
 50
180.0
 51
270.0
 73
     1
 97
       12
330
1BE
330
24F
330
1BD
330
260
330
1BC
330
25F
330
250
330
251
330
1BB
330
25E
330
1B6
330
261
 75
     1
 76
     0
 52
45.0
 41
0.1
 77
     0
 78
     1
 53
45.0
 43
0.0
 44
0.0
 45
-0.0707106781186548
 46
0.0707106781186548
 79
     0
 98
        1
 10
0.0
 20
0.0
  0
HATCH
  5
29F
330
71
100
AcDbEntity
  8
1
  6
Continuous
 62
     2
100
AcDbHatch
 10
0.0
 20
0.0
 30
0.0
210
0.0
220
0.0
230
1.0
  2
_USER
 70
     0
 71
     1
 91
        4
 92
        1
 93
        8
 72
     2
 10
13.59955011111367
 20
-95.42049050387433
 40
0.4242446153837989
 50
90.0
 51
180.0
 73
     1
 72
     1
 10
13.17530549573087
 20
-95.42049050387433
 11
13.17530549573087
 21
-100.9850012730745
 72
     2
 10
13.59955011111367
 20
-100.9850012730745
 40
0.4242446153828006
 50
180.0
 51
270.0
 73
     1
 72
     1
 10
13.59955011111367
 20
-101.4092458884578
 11
19.07286220183048
 21
-101.4092458884578
 72
     2
 10
19.07286220183048
 20
-100.9850012730745
 40
0.4242446153833015
 50
270.0
 51
360.0
 73
     1
 72
     1
 10
19.49710681721436
 20
-100.9850012730745
 11
19.49710681721436
 21
-95.42049050387433
 72
     2
 10
19.07286220183048
 20
-95.42049050387433
 40
0.4242446153838806
 50
0.0
 51
90.0
 73
     1
 72
     1
 10
19.07286220183048
 20
-94.99624588849053
 11
13.59955011111367
 21
-94.99624588849053
 97
        8
330
25C
330
1B9
330
25B
330
1BA
330
252
330
1B7
330
25D
330
1B8
 92
       16
 93
        1
 72
     2
 10
16.21913576163118
 20
-97.73937273222984
 40
0.470978932778511
 50
0.0
 51
360.0
 73
     1
 97
        1
330
270
 92
       16
 93
        8
 72
     2
 10
16.24295077630399
 20
-97.73937273222984
 40
0.911848150144459
 50
295.3740086781764
 51
424.6259913218075
 73
     1
 72
     2
 10
16.76899347439186
 20
-96.63023113226203
 40
0.3157169230767884
 50
115.3740086783507
 51
180.0
 73
     0
 72
     1
 10
16.45327655131507
 20
-96.63023113226203
 11
16.45327655131507
 21
-96.02469584375524
 72
     2
 10
16.76899347439186
 20
-96.02469584375524
 40
0.315716923076071
 50
180.0
 51
269.8110329574561
 73
     0
 72
     2
 10
16.77460960970188
 20
-97.72753079132434
 40
2.018561131933266
 50
269.8110329575861
 51
450.1889670424139
 73
     0
 72
     2
 10
16.76899347439186
 20
-99.43036573889333
 40
0.3157169230767884
 50
90.18896704254391
 51
180.0
 73
     0
 72
     1
 10
16.45327655131507
 20
-99.43036573889333
 11
16.45327655131507
 21
-98.84851433219825
 72
     2
 10
16.76899347439186
 20
-98.84851433219825
 40
0.3157169230765298
 50
180.0
 51
244.6259913216493
 73
     0
 97
        8
330
26A
330
246
330
1F2
330
269
330
247
330
248
330
1F1
330
245
 92
       16
 93
       12
 72
     1
 10
14.19344478786016
 20
-100.6966903329009
 11
15.66927804886979
 21
-100.6966903329009
 72
     2
 10
15.66927804886979
 20
-100.3809734098242
 40
0.3157169230767067
 50
270.0
 51
360.0
 73
     1
 72
     1
 10
15.98499497194638
 20
-100.3809734098242
 11
15.98499497194638
 21
-98.85020247829263
 72
     2
 10
15.66927804886979
 20
-98.85020247829263
 40
0.3157169230765895
 50
0.0
 51
64.80558935146145
 73
     1
 72
     2
 10
16.19186249644477
 20
-97.73937273222984
 40
0.9118975235576154
 50
115.1944106485123
 51
244.8055893514717
 73
     0
 72
     2
 10
15.66927804886979
 20
-96.62854298616764
 40
0.3157169230761172
 50
295.1944106485386
 51
360.0
 73
     1
 72
     1
 10
15.98499497194638
 20
-96.62854298616764
 11
15.98499497194638
 21
-96.02451836710713
 72
     2
 10
15.66927804886979
 20
-96.02451836710713
 40
0.3157169230765895
 50
0.0
 51
90.0
 73
     1
 72
     1
 10
15.66927804886979
 20
-95.70880144403094
 11
14.19344478786016
 21
-95.70880144403094
 72
     2
 10
14.19344478786016
 20
-96.02451836710713
 40
0.3157169230761951
 50
90.0
 51
180.0
 73
     1
 72
     1
 10
13.87772786478448
 20
-96.02451836710713
 11
13.87772786478448
 21
-100.3809734098242
 72
     2
 10
14.19344478786016
 20
-100.3809734098242
 40
0.31571692307568
 50
180.0
 51
270.0
 73
     1
 97
       12
330
1BE
330
24F
330
1BD
330
260
330
1BC
330
25F
330
250
330
251
330
1BB
330
25E
330
1B6
330
261
 75
     1
 76
     0
 52
45.0
 41
0.1
 77
     0
 78
     1
 53
45.0
 43
0.0
 44
0.0
 45
-0.0707106781186548
 46
0.0707106781186548
 79
     0
 98
        1
 10
0.0
 20
0.0
  0
HATCH
  5
2A0
330
71
100
AcDbEntity
  8
1
  6
Continuous
 62
     2
100
AcDbHatch
 10
0.0
 20
0.0
 30
0.0
210
0.0
220
0.0
230
1.0
  2
_USER
 70
     0
 71
     1
 91
        2
 92
        1
 93
       12
 72
     2
 10
28.27471411510297
 20
-96.52315065037823
 40
1.526904761905882
 50
90.0
 51
270.0
 73
     1
 72
     1
 10
28.27471411510297
 20
-98.05005541228354
 11
31.42503383888396
 21
-98.05005541228354
 72
     1
 10
31.42503383888396
 20
-98.05005541228354
 11
31.42503383888396
 21
-97.35204180684104
 72
     1
 10
31.42503383888396
 20
-97.35204180684104
 11
30.08910601245628
 21
-97.35204180684104
 72
     1
 10
30.08910601245628
 20
-97.35204180684104
 11
30.08910601245628
 21
-96.87215745309933
 72
     1
 10
30.08910601245628
 20
-96.87215745309933
 11
31.42503383888396
 21
-96.87215745309933
 72
     1
 10
31.42503383888396
 20
-96.87215745309933
 11
31.42503383888396
 21
-96.17414384765704
 72
     1
 10
31.42503383888396
 20
-96.17414384765704
 11
30.08910601245628
 21
-96.17414384765704
 72
     1
 10
30.08910601245628
 20
-96.17414384765704
 11
30.08910601245628
 21
-95.69425949391533
 72
     1
 10
30.08910601245628
 20
-95.69425949391533
 11
31.42503383888396
 21
-95.69425949391533
 72
     1
 10
31.42503383888396
 20
-95.69425949391533
 11
31.42503383888396
 21
-94.99624588847234
 72
     1
 10
31.42503383888396
 20
-94.99624588847234
 11
28.27471411510297
 21
-94.99624588847234
 97
       12
330
1AD
330
1A7
330
1CE
330
1CD
330
1CC
330
1CB
330
1A8
330
1A9
330
1AA
330
1AB
330
24D
330
1AC
 92
       16
 93
        4
 72
     2
 10
28.69072616161446
 20
-96.52315065037823
 40
0.7717997786796724
 50
141.8795802028404
 51
218.1204197971562
 73
     1
 72
     2
 10
28.49098612526817
 20
-96.67988182849865
 40
0.5179085730134427
 50
218.1204197971506
 51
321.8795802028564
 73
     1
 72
     2
 10
28.29124608892198
 20
-96.52315065037823
 40
0.7717997786796373
 50
321.8795802028437
 51
398.1204197971596
 73
     1
 72
     2
 10
28.49098612526817
 20
-96.36641947225775
 40
0.5179085730135238
 50
38.12041979714358
 51
141.8795802028494
 73
     1
 97
        4
330
25A
330
259
330
254
330
253
 75
     1
 76
     0
 52
45.0
 41
0.1
 77
     0
 78
     1
 53
45.0
 43
0.0
 44
0.0
 45
-0.0707106781186548
 46
0.0707106781186548
 79
     0
 98
        1
 10
0.0
 20
0.0
  0
HATCH
  5
2A1
330
71
100
AcDbEntity
  8
1
  6
Continuous
 62
     2
100
AcDbHatch
 10
0.0
 20
0.0
 30
0.0
210
0.0
220
0.0
230
1.0
  2
_USER
 70
     0
 71
     1
 91
        2
 92
        1
 93
       12
 72
     2
 10
28.27471411510297
 20
-96.52315065037823
 40
1.526904761905882
 50
90.0
 51
270.0
 73
     1
 72
     1
 10
28.27471411510297
 20
-98.05005541228354
 11
31.42503383888396
 21
-98.05005541228354
 72
     1
 10
31.42503383888396
 20
-98.05005541228354
 11
31.42503383888396
 21
-97.35204180684104
 72
     1
 10
31.42503383888396
 20
-97.35204180684104
 11
30.08910601245628
 21
-97.35204180684104
 72
     1
 10
30.08910601245628
 20
-97.35204180684104
 11
30.08910601245628
 21
-96.87215745309933
 72
     1
 10
30.08910601245628
 20
-96.87215745309933
 11
31.42503383888396
 21
-96.87215745309933
 72
     1
 10
31.42503383888396
 20
-96.87215745309933
 11
31.42503383888396
 21
-96.17414384765704
 72
     1
 10
31.42503383888396
 20
-96.17414384765704
 11
30.08910601245628
 21
-96.17414384765704
 72
     1
 10
30.08910601245628
 20
-96.17414384765704
 11
30.08910601245628
 21
-95.69425949391533
 72
     1
 10
30.08910601245628
 20
-95.69425949391533
 11
31.42503383888396
 21
-95.69425949391533
 72
     1
 10
31.42503383888396
 20
-95.69425949391533
 11
31.42503383888396
 21
-94.99624588847234
 72
     1
 10
31.42503383888396
 20
-94.99624588847234
 11
28.27471411510297
 21
-94.99624588847234
 97
       12
330
1AD
330
1A7
330
1CE
330
1CD
330
1CC
330
1CB
330
1A8
330
1A9
330
1AA
330
1AB
330
24D
330
1AC
 92
       16
 93
        4
 72
     2
 10
28.69072616161446
 20
-96.52315065037823
 40
0.7717997786796724
 50
141.8795802028404
 51
218.1204197971562
 73
     1
 72
     2
 10
28.49098612526817
 20
-96.67988182849865
 40
0.5179085730134427
 50
218.1204197971506
 51
321.8795802028564
 73
     1
 72
     2
 10
28.29124608892198
 20
-96.52315065037823
 40
0.7717997786796373
 50
321.8795802028437
 51
398.1204197971596
 73
     1
 72
     2
 10
28.49098612526817
 20
-96.36641947225775
 40
0.5179085730135238
 50
38.12041979714358
 51
141.8795802028494
 73
     1
 97
        4
330
25A
330
259
330
254
330
253
 75
     1
 76
     0
 52
45.0
 41
0.1
 77
     0
 78
     1
 53
45.0
 43
0.0
 44
0.0
 45
-0.0707106781186548
 46
0.0707106781186548
 79
     0
 98
        1
 10
0.0
 20
0.0
  0
HATCH
  5
2A2
330
71
100
AcDbEntity
  8
1
  6
Continuous
 62
     2
100
AcDbHatch
 10
0.0
 20
0.0
 30
0.0
210
0.0
220
0.0
230
1.0
  2
_USER
 70
     0
 71
     1
 91
        2
 92
        1
 93
        4
 72
     2
 10
24.24909875264137
 20
-99.88234112655255
 40
1.458034083651487
 50
117.5481481756622
 51
242.4518518243388
 73
     1
 72
     2
 10
24.53003864447467
 20
-99.34376611624924
 40
2.065479772208556
 50
242.4518518243411
 51
297.5481481756865
 73
     1
 72
     2
 10
24.81097853630797
 20
-99.88234112655255
 40
1.458034083652055
 50
297.5481481757001
 51
422.4518518242988
 73
     1
 72
     2
 10
24.53003864447467
 20
-100.4209161368553
 40
2.065479772208533
 50
62.45185182430564
 51
117.5481481756667
 73
     1
 97
        4
330
258
330
255
330
257
330
256
 92
       16
 93
        4
 72
     2
 10
24.53003864447467
 20
-99.72560994843204
 40
0.5179085730133026
 50
38.12041979714679
 51
141.8795802028585
 73
     1
 72
     2
 10
24.72977868082077
 20
-99.88234112655255
 40
0.7717997786794605
 50
141.8795802028361
 51
218.1204197971672
 73
     1
 72
     2
 10
24.53003864447467
 20
-100.0390723046725
 40
0.5179085730137413
 50
218.1204197971946
 51
321.8795802028
 73
     1
 72
     2
 10
24.33029860812826
 20
-99.88234112655255
 40
0.7717997786796772
 50
321.8795802028434
 51
398.1204197971533
 73
     1
 97
        4
330
23B
330
23C
330
23D
330
23A
 75
     1
 76
     0
 52
45.0
 41
0.1
 77
     0
 78
     1
 53
45.0
 43
0.0
 44
0.0
 45
-0.0707106781186548
 46
0.0707106781186548
 79
     0
 98
        1
 10
0.0
 20
0.0
  0
HATCH
  5
2A3
330
71
100
AcDbEntity
  8
1
  6
Continuous
 62
     2
100
AcDbHatch
 10
0.0
 20
0.0
 30
0.0
210
0.0
220
0.0
230
1.0
  2
_USER
 70
     0
 71
     1
 91
        2
 92
        1
 93
        4
 72
     2
 10
24.24909875264137
 20
-99.88234112655255
 40
1.458034083651487
 50
117.5481481756622
 51
242.4518518243388
 73
     1
 72
     2
 10
24.53003864447467
 20
-99.34376611624924
 40
2.065479772208556
 50
242.4518518243411
 51
297.5481481756865
 73
     1
 72
     2
 10
24.81097853630797
 20
-99.88234112655255
 40
1.458034083652055
 50
297.5481481757001
 51
422.4518518242988
 73
     1
 72
     2
 10
24.53003864447467
 20
-100.4209161368553
 40
2.065479772208533
 50
62.45185182430564
 51
117.5481481756667
 73
     1
 97
        4
330
258
330
255
330
257
330
256
 92
       16
 93
        4
 72
     2
 10
24.53003864447467
 20
-99.72560994843204
 40
0.5179085730133026
 50
38.12041979714679
 51
141.8795802028585
 73
     1
 72
     2
 10
24.72977868082077
 20
-99.88234112655255
 40
0.7717997786794605
 50
141.8795802028361
 51
218.1204197971672
 73
     1
 72
     2
 10
24.53003864447467
 20
-100.0390723046725
 40
0.5179085730137413
 50
218.1204197971946
 51
321.8795802028
 73
     1
 72
     2
 10
24.33029860812826
 20
-99.88234112655255
 40
0.7717997786796772
 50
321.8795802028434
 51
398.1204197971533
 73
     1
 97
        4
330
23B
330
23C
330
23D
330
23A
 75
     1
 76
     0
 52
45.0
 41
0.1
 77
     0
 78
     1
 53
45.0
 43
0.0
 44
0.0
 45
-0.0707106781186548
 46
0.0707106781186548
 79
     0
 98
        1
 10
0.0
 20
0.0
  0
HATCH
  5
2A4
330
71
100
AcDbEntity
  8
1
  6
Continuous
 62
     2
100
AcDbHatch
 10
0.0
 20
0.0
 30
0.0
210
0.0
220
0.0
230
1.0
  2
_USER
 70
     0
 71
     1
 91
        2
 92
        1
 93
        6
 72
     1
 10
19.97422389808116
 20
-94.99624588847234
 11
19.97422389808116
 21
-98.05005541228354
 72
     1
 10
19.97422389808116
 20
-98.05005541228354
 11
21.21472830833528
 21
-98.05005541228354
 72
     1
 10
21.21472830833528
 20
-98.05005541228354
 11
21.21472830833528
 21
-97.10697717113973
 72
     1
 10
21.21472830833528
 20
-97.10697717113973
 11
21.97349589611557
 21
-97.10697717113973
 72
     2
 10
21.97349589611557
 20
-96.05161152980602
 40
1.055365641333708
 50
270.0
 51
450.0
 73
     1
 72
     1
 10
21.97349589611557
 20
-94.99624588847234
 11
19.97422389808116
 21
-94.99624588847234
 97
        6
330
262
330
1BF
330
1B5
330
1B4
330
1C1
330
1C0
 92
       16
 93
        4
 72
     1
 10
21.53202336987718
 20
-95.65935173391244
 11
21.21472830833528
 21
-95.65935173391244
 72
     1
 10
21.21472830833528
 20
-95.65935173391244
 11
21.21472830833528
 21
-96.36507938325465
 72
     1
 10
21.21472830833528
 20
-96.36507938325465
 11
21.53202336987718
 21
-96.36507938325465
 72
     2
 10
21.53202336987718
 20
-96.01221555858353
 40
0.3528638246711182
 50
270.0
 51
450.0
 73
     1
 97
        4
330
1C2
330
1B3
330
1C3
330
24E
 75
     1
 76
     0
 52
45.0
 41
0.1
 77
     0
 78
     1
 53
45.0
 43
0.0
 44
0.0
 45
-0.0707106781186548
 46
0.0707106781186548
 79
     0
 98
        1
 10
0.0
 20
0.0
  0
HATCH
  5
2A5
330
71
100
AcDbEntity
  8
1
  6
Continuous
 62
     2
100
AcDbHatch
 10
0.0
 20
0.0
 30
0.0
210
0.0
220
0.0
230
1.0
  2
_USER
 70
     0
 71
     1
 91
        2
 92
        1
 93
        6
 72
     1
 10
19.97422389808116
 20
-94.99624588847234
 11
19.97422389808116
 21
-98.05005541228354
 72
     1
 10
19.97422389808116
 20
-98.05005541228354
 11
21.21472830833528
 21
-98.05005541228354
 72
     1
 10
21.21472830833528
 20
-98.05005541228354
 11
21.21472830833528
 21
-97.10697717113973
 72
     1
 10
21.21472830833528
 20
-97.10697717113973
 11
21.97349589611557
 21
-97.10697717113973
 72
     2
 10
21.97349589611557
 20
-96.05161152980602
 40
1.055365641333708
 50
270.0
 51
450.0
 73
     1
 72
     1
 10
21.97349589611557
 20
-94.99624588847234
 11
19.97422389808116
 21
-94.99624588847234
 97
        6
330
262
330
1BF
330
1B5
330
1B4
330
1C1
330
1C0
 92
       16
 93
        4
 72
     1
 10
21.53202336987718
 20
-95.65935173391244
 11
21.21472830833528
 21
-95.65935173391244
 72
     1
 10
21.21472830833528
 20
-95.65935173391244
 11
21.21472830833528
 21
-96.36507938325465
 72
     1
 10
21.21472830833528
 20
-96.36507938325465
 11
21.53202336987718
 21
-96.36507938325465
 72
     2
 10
21.53202336987718
 20
-96.01221555858353
 40
0.3528638246711182
 50
270.0
 51
450.0
 73
     1
 97
        4
330
1C2
330
1B3
330
1C3
330
24E
 75
     1
 76
     0
 52
45.0
 41
0.1
 77
     0
 78
     1
 53
45.0
 43
0.0
 44
0.0
 45
-0.0707106781186548
 46
0.0707106781186548
 79
     0
 98
        1
 10
0.0
 20
0.0
  0
HATCH
  5
2A6
330
71
100
AcDbEntity
  8
1
  6
Continuous
 62
     2
100
AcDbHatch
 10
0.0
 20
0.0
 30
0.0
210
0.0
220
0.0
230
1.0
  2
_USER
 70
     0
 71
     1
 91
        1
 92
        1
 93
       12
 72
     1
 10
39.58850709251436
 20
-94.99624588847234
 11
40.99123131026158
 21
-94.99624588847234
 72
     1
 10
40.99123131026158
 20
-94.99624588847234
 11
39.68870167949507
 21
-96.46919641850855
 72
     1
 10
39.68870167949507
 20
-96.46919641850855
 11
41.08665472643537
 21
-98.05005541228354
 72
     1
 10
41.08665472643537
 20
-98.05005541228354
 11
39.68393050868707
 21
-98.05005541228354
 72
     1
 10
39.68393050868707
 20
-98.05005541228354
 11
38.98733957062157
 21
-97.26232362698983
 72
     1
 10
38.98733957062157
 20
-97.26232362698983
 11
38.29074863255588
 21
-98.05005541228354
 72
     1
 10
38.29074863255588
 20
-98.05005541228354
 11
36.88802441480766
 21
-98.05005541228354
 72
     1
 10
36.88802441480766
 20
-98.05005541228354
 11
38.28597746174796
 21
-96.46919641850855
 72
     1
 10
38.28597746174796
 20
-96.46919641850855
 11
36.98344783098048
 21
-94.99624588847234
 72
     1
 10
36.98344783098048
 20
-94.99624588847234
 11
38.38617204872978
 21
-94.99624588847234
 72
     1
 10
38.38617204872978
 20
-94.99624588847234
 11
38.98733957062157
 21
-95.67606921002783
 72
     1
 10
38.98733957062157
 20
-95.67606921002783
 11
39.58850709251436
 21
-94.99624588847234
 97
       12
330
18E
330
1E7
330
1E6
330
1E5
330
1E4
330
18F
330
190
330
18C
330
18D
330
1EA
330
1E9
330
1E8
 75
     1
 76
     0
 52
45.0
 41
0.1
 77
     0
 78
     1
 53
45.0
 43
0.0
 44
0.0
 45
-0.0707106781186548
 46
0.0707106781186548
 79
     0
 98
        1
 10
0.0
 20
0.0
  0
HATCH
  5
2A7
330
71
100
AcDbEntity
  8
1
  6
Continuous
 62
     2
100
AcDbHatch
 10
0.0
 20
0.0
 30
0.0
210
0.0
220
0.0
230
1.0
  2
_USER
 70
     0
 71
     1
 91
        1
 92
        1
 93
       12
 72
     1
 10
39.58850709251436
 20
-94.99624588847234
 11
40.99123131026158
 21
-94.99624588847234
 72
     1
 10
40.99123131026158
 20
-94.99624588847234
 11
39.68870167949507
 21
-96.46919641850855
 72
     1
 10
39.68870167949507
 20
-96.46919641850855
 11
41.08665472643537
 21
-98.05005541228354
 72
     1
 10
41.08665472643537
 20
-98.05005541228354
 11
39.68393050868707
 21
-98.05005541228354
 72
     1
 10
39.68393050868707
 20
-98.05005541228354
 11
38.98733957062157
 21
-97.26232362698983
 72
     1
 10
38.98733957062157
 20
-97.26232362698983
 11
38.29074863255588
 21
-98.05005541228354
 72
     1
 10
38.29074863255588
 20
-98.05005541228354
 11
36.88802441480766
 21
-98.05005541228354
 72
     1
 10
36.88802441480766
 20
-98.05005541228354
 11
38.28597746174796
 21
-96.46919641850855
 72
     1
 10
38.28597746174796
 20
-96.46919641850855
 11
36.98344783098048
 21
-94.99624588847234
 72
     1
 10
36.98344783098048
 20
-94.99624588847234
 11
38.38617204872978
 21
-94.99624588847234
 72
     1
 10
38.38617204872978
 20
-94.99624588847234
 11
38.98733957062157
 21
-95.67606921002783
 72
     1
 10
38.98733957062157
 20
-95.67606921002783
 11
39.58850709251436
 21
-94.99624588847234
 97
       12
330
18E
330
1E7
330
1E6
330
1E5
330
1E4
330
18F
330
190
330
18C
330
18D
330
1EA
330
1E9
330
1E8
 75
     1
 76
     0
 52
45.0
 41
0.1
 77
     0
 78
     1
 53
45.0
 43
0.0
 44
0.0
 45
-0.0707106781186548
 46
0.0707106781186548
 79
     0
 98
        1
 10
0.0
 20
0.0
  0
HATCH
  5
2A8
330
71
100
AcDbEntity
  8
1
  6
Continuous
 62
     2
100
AcDbHatch
 10
0.0
 20
0.0
 30
0.0
210
0.0
220
0.0
230
1.0
  2
_USER
 70
     0
 71
     1
 91
        1
 92
        1
 93
        4
 72
     1
 10
36.76874514459078
 20
-94.99624588847234
 11
36.76874514459078
 21
-98.05005541228354
 72
     1
 10
36.76874514459078
 20
-98.05005541228354
 11
35.52824073433789
 21
-98.05005541228354
 72
     1
 10
35.52824073433789
 20
-98.05005541228354
 11
35.52824073433789
 21
-94.99624588847234
 72
     1
 10
35.52824073433789
 20
-94.99624588847234
 11
36.76874514459078
 21
-94.99624588847234
 97
        4
330
1E2
330
191
330
1E1
330
1E3
 75
     1
 76
     0
 52
45.0
 41
0.1
 77
     0
 78
     1
 53
45.0
 43
0.0
 44
0.0
 45
-0.0707106781186548
 46
0.0707106781186548
 79
     0
 98
        1
 10
0.0
 20
0.0
  0
HATCH
  5
2A9
330
71
100
AcDbEntity
  8
1
  6
Continuous
 62
     2
100
AcDbHatch
 10
0.0
 20
0.0
 30
0.0
210
0.0
220
0.0
230
1.0
  2
_USER
 70
     0
 71
     1
 91
        1
 92
        1
 93
        4
 72
     1
 10
36.76874514459078
 20
-94.99624588847234
 11
36.76874514459078
 21
-98.05005541228354
 72
     1
 10
36.76874514459078
 20
-98.05005541228354
 11
35.52824073433789
 21
-98.05005541228354
 72
     1
 10
35.52824073433789
 20
-98.05005541228354
 11
35.52824073433789
 21
-94.99624588847234
 72
     1
 10
35.52824073433789
 20
-94.99624588847234
 11
36.76874514459078
 21
-94.99624588847234
 97
        4
330
1E2
330
191
330
1E1
330
1E3
 75
     1
 76
     0
 52
45.0
 41
0.1
 77
     0
 78
     1
 53
45.0
 43
0.0
 44
0.0
 45
-0.0707106781186548
 46
0.0707106781186548
 79
     0
 98
        1
 10
0.0
 20
0.0
  0
HATCH
  5
2AA
330
71
100
AcDbEntity
  8
1
  6
Continuous
 62
     2
100
AcDbHatch
 10
0.0
 20
0.0
 30
0.0
210
0.0
220
0.0
230
1.0
  2
_USER
 70
     0
 71
     1
 91
        2
 92
        1
 93
        8
 72
     1
 10
36.37830114105879
 20
-101.4092458884578
 11
35.13779673080487
 21
-101.4092458884578
 72
     1
 10
35.13779673080487
 20
-101.4092458884578
 11
34.92631667732908
 21
-100.86828534424
 72
     1
 10
34.92631667732908
 20
-100.86828534424
 11
33.79387510065527
 21
-100.86828534424
 72
     1
 10
33.79387510065527
 20
-100.86828534424
 11
33.58239504717946
 21
-101.4092458884578
 72
     1
 10
33.58239504717946
 20
-101.4092458884578
 11
32.34189063692648
 21
-101.4092458884578
 72
     1
 10
32.34189063692648
 20
-101.4092458884578
 11
33.73984368386579
 21
-98.35543636464675
 72
     1
 10
33.73984368386579
 20
-98.35543636464675
 11
34.98034809411848
 21
-98.35543636464675
 72
     1
 10
34.98034809411848
 20
-98.35543636464675
 11
36.37830114105879
 21
-101.4092458884578
 97
        8
330
1DD
330
197
330
1DC
330
1DF
330
194
330
1DE
330
195
330
196
 92
       16
 93
        3
 72
     1
 10
34.05993065180027
 20
-100.1877220789334
 11
34.66026112618278
 21
-100.1877220789334
 72
     1
 10
34.66026112618278
 20
-100.1877220789334
 11
34.36009588899267
 21
-99.41990711294665
 72
     1
 10
34.36009588899267
 20
-99.41990711294665
 11
34.05993065180027
 21
-100.1877220789334
 97
        3
330
193
330
192
330
1E0
 75
     1
 76
     0
 52
45.0
 41
0.1
 77
     0
 78
     1
 53
45.0
 43
0.0
 44
0.0
 45
-0.0707106781186548
 46
0.0707106781186548
 79
     0
 98
        1
 10
0.0
 20
0.0
  0
HATCH
  5
2AB
330
71
100
AcDbEntity
  8
1
  6
Continuous
 62
     2
100
AcDbHatch
 10
0.0
 20
0.0
 30
0.0
210
0.0
220
0.0
230
1.0
  2
_USER
 70
     0
 71
     1
 91
        2
 92
        1
 93
        8
 72
     1
 10
36.37830114105879
 20
-101.4092458884578
 11
35.13779673080487
 21
-101.4092458884578
 72
     1
 10
35.13779673080487
 20
-101.4092458884578
 11
34.92631667732908
 21
-100.86828534424
 72
     1
 10
34.92631667732908
 20
-100.86828534424
 11
33.79387510065527
 21
-100.86828534424
 72
     1
 10
33.79387510065527
 20
-100.86828534424
 11
33.58239504717946
 21
-101.4092458884578
 72
     1
 10
33.58239504717946
 20
-101.4092458884578
 11
32.34189063692648
 21
-101.4092458884578
 72
     1
 10
32.34189063692648
 20
-101.4092458884578
 11
33.73984368386579
 21
-98.35543636464675
 72
     1
 10
33.73984368386579
 20
-98.35543636464675
 11
34.98034809411848
 21
-98.35543636464675
 72
     1
 10
34.98034809411848
 20
-98.35543636464675
 11
36.37830114105879
 21
-101.4092458884578
 97
        8
330
1DD
330
197
330
1DC
330
1DF
330
194
330
1DE
330
195
330
196
 92
       16
 93
        3
 72
     1
 10
34.05993065180027
 20
-100.1877220789334
 11
34.66026112618278
 21
-100.1877220789334
 72
     1
 10
34.66026112618278
 20
-100.1877220789334
 11
34.36009588899267
 21
-99.41990711294665
 72
     1
 10
34.36009588899267
 20
-99.41990711294665
 11
34.05993065180027
 21
-100.1877220789334
 97
        3
330
193
330
192
330
1E0
 75
     1
 76
     0
 52
45.0
 41
0.1
 77
     0
 78
     1
 53
45.0
 43
0.0
 44
0.0
 45
-0.0707106781186548
 46
0.0707106781186548
 79
     0
 98
        1
 10
0.0
 20
0.0
  0
HATCH
  5
2AC
330
71
100
AcDbEntity
  8
1
  6
Continuous
 62
     2
100
AcDbHatch
 10
0.0
 20
0.0
 30
0.0
210
0.0
220
0.0
230
1.0
  2
_USER
 70
     0
 71
     1
 91
        1
 92
        1
 93
        8
 72
     1
 10
30.18437849774426
 20
-98.35543636464675
 11
30.18437849774426
 21
-99.14070167077034
 72
     1
 10
30.18437849774426
 20
-99.14070167077034
 11
30.99547753521887
 21
-99.14070167077034
 72
     1
 10
30.99547753521887
 20
-99.14070167077034
 11
30.99547753521887
 21
-101.4092458884578
 72
     1
 10
30.99547753521887
 20
-101.4092458884578
 11
32.18827023738538
 21
-101.4092458884578
 72
     1
 10
32.18827023738538
 20
-101.4092458884578
 11
32.18827023738538
 21
-99.14070167077034
 72
     1
 10
32.18827023738538
 20
-99.14070167077034
 11
32.99936927485788
 21
-99.14070167077034
 72
     1
 10
32.99936927485788
 20
-99.14070167077034
 11
32.99936927485788
 21
-98.35543636464675
 72
     1
 10
32.99936927485788
 20
-98.35543636464675
 11
30.18437849774426
 21
-98.35543636464675
 97
        8
330
1D9
330
1D8
330
1D7
330
198
330
199
330
1DB
330
19A
330
1DA
 75
     1
 76
     0
 52
45.0
 41
0.1
 77
     0
 78
     1
 53
45.0
 43
0.0
 44
0.0
 45
-0.0707106781186548
 46
0.0707106781186548
 79
     0
 98
        1
 10
0.0
 20
0.0
  0
HATCH
  5
2AD
330
71
100
AcDbEntity
  8
1
  6
Continuous
 62
     2
100
AcDbHatch
 10
0.0
 20
0.0
 30
0.0
210
0.0
220
0.0
230
1.0
  2
_USER
 70
     0
 71
     1
 91
        1
 92
        1
 93
        8
 72
     1
 10
30.18437849774426
 20
-98.35543636464675
 11
30.18437849774426
 21
-99.14070167077034
 72
     1
 10
30.18437849774426
 20
-99.14070167077034
 11
30.99547753521887
 21
-99.14070167077034
 72
     1
 10
30.99547753521887
 20
-99.14070167077034
 11
30.99547753521887
 21
-101.4092458884578
 72
     1
 10
30.99547753521887
 20
-101.4092458884578
 11
32.18827023738538
 21
-101.4092458884578
 72
     1
 10
32.18827023738538
 20
-101.4092458884578
 11
32.18827023738538
 21
-99.14070167077034
 72
     1
 10
32.18827023738538
 20
-99.14070167077034
 11
32.99936927485788
 21
-99.14070167077034
 72
     1
 10
32.99936927485788
 20
-99.14070167077034
 11
32.99936927485788
 21
-98.35543636464675
 72
     1
 10
32.99936927485788
 20
-98.35543636464675
 11
30.18437849774426
 21
-98.35543636464675
 97
        8
330
1D9
330
1D8
330
1D7
330
198
330
199
330
1DB
330
19A
330
1DA
 75
     1
 76
     0
 52
45.0
 41
0.1
 77
     0
 78
     1
 53
45.0
 43
0.0
 44
0.0
 45
-0.0707106781186548
 46
0.0707106781186548
 79
     0
 98
        1
 10
0.0
 20
0.0
  0
HATCH
  5
2AE
330
71
100
AcDbEntity
  8
1
  6
Continuous
 62
     2
100
AcDbHatch
 10
0.0
 20
0.0
 30
0.0
210
0.0
220
0.0
230
1.0
  2
_USER
 70
     0
 71
     1
 91
        1
 92
        1
 93
       10
 72
     1
 10
32.85638508148338
 20
-94.99624588847234
 11
31.66359237931687
 21
-94.99624588847234
 72
     1
 10
31.66359237931687
 20
-94.99624588847234
 11
31.66359237931687
 21
-98.05005541228354
 72
     1
 10
31.66359237931687
 20
-98.05005541228354
 11
32.85638508148338
 21
-98.05005541228354
 72
     1
 10
32.85638508148338
 20
-98.05005541228354
 11
32.85638508148338
 21
-96.74127990207884
 72
     1
 10
32.85638508148338
 20
-96.74127990207884
 11
34.09688949173739
 21
-98.05005541228354
 72
     1
 10
34.09688949173739
 20
-98.05005541228354
 11
35.28968219390399
 21
-98.05005541228354
 72
     1
 10
35.28968219390399
 20
-98.05005541228354
 11
35.28968219390399
 21
-94.99624588847234
 72
     1
 10
35.28968219390399
 20
-94.99624588847234
 11
34.09688949173739
 21
-94.99624588847234
 72
     1
 10
34.09688949173739
 20
-94.99624588847234
 11
34.09688949173739
 21
-96.30502139867752
 72
     1
 10
34.09688949173739
 20
-96.30502139867752
 11
32.85638508148338
 21
-94.99624588847234
 97
       10
330
1D3
330
19D
330
19E
330
19F
330
1A0
330
1D6
330
19B
330
1D5
330
1D4
330
19C
 75
     1
 76
     0
 52
45.0
 41
0.1
 77
     0
 78
     1
 53
45.0
 43
0.0
 44
0.0
 45
-0.0707106781186548
 46
0.0707106781186548
 79
     0
 98
        1
 10
0.0
 20
0.0
  0
HATCH
  5
2AF
330
71
100
AcDbEntity
  8
1
  6
Continuous
 62
     2
100
AcDbHatch
 10
0.0
 20
0.0
 30
0.0
210
0.0
220
0.0
230
1.0
  2
_USER
 70
     0
 71
     1
 91
        1
 92
        1
 93
       10
 72
     1
 10
32.85638508148338
 20
-94.99624588847234
 11
31.66359237931687
 21
-94.99624588847234
 72
     1
 10
31.66359237931687
 20
-94.99624588847234
 11
31.66359237931687
 21
-98.05005541228354
 72
     1
 10
31.66359237931687
 20
-98.05005541228354
 11
32.85638508148338
 21
-98.05005541228354
 72
     1
 10
32.85638508148338
 20
-98.05005541228354
 11
32.85638508148338
 21
-96.74127990207884
 72
     1
 10
32.85638508148338
 20
-96.74127990207884
 11
34.09688949173739
 21
-98.05005541228354
 72
     1
 10
34.09688949173739
 20
-98.05005541228354
 11
35.28968219390399
 21
-98.05005541228354
 72
     1
 10
35.28968219390399
 20
-98.05005541228354
 11
35.28968219390399
 21
-94.99624588847234
 72
     1
 10
35.28968219390399
 20
-94.99624588847234
 11
34.09688949173739
 21
-94.99624588847234
 72
     1
 10
34.09688949173739
 20
-94.99624588847234
 11
34.09688949173739
 21
-96.30502139867752
 72
     1
 10
34.09688949173739
 20
-96.30502139867752
 11
32.85638508148338
 21
-94.99624588847234
 97
       10
330
1D3
330
19D
330
19E
330
19F
330
1A0
330
1D6
330
19B
330
1D5
330
1D4
330
19C
 75
     1
 76
     0
 52
45.0
 41
0.1
 77
     0
 78
     1
 53
45.0
 43
0.0
 44
0.0
 45
-0.0707106781186548
 46
0.0707106781186548
 79
     0
 98
        1
 10
0.0
 20
0.0
  0
HATCH
  5
2B0
330
71
100
AcDbEntity
  8
1
  6
Continuous
 62
     2
100
AcDbHatch
 10
0.0
 20
0.0
 30
0.0
210
0.0
220
0.0
230
1.0
  2
_USER
 70
     0
 71
     1
 91
        1
 92
        1
 93
       10
 72
     1
 10
27.60794626106477
 20
-98.35543636464675
 11
26.41515355889717
 21
-98.35543636464675
 72
     1
 10
26.41515355889717
 20
-98.35543636464675
 11
26.41515355889717
 21
-101.4092458884578
 72
     1
 10
26.41515355889717
 20
-101.4092458884578
 11
27.60794626106477
 21
-101.4092458884578
 72
     1
 10
27.60794626106477
 20
-101.4092458884578
 11
27.60794626106477
 21
-100.1004703782533
 72
     1
 10
27.60794626106477
 20
-100.1004703782533
 11
28.84845067131766
 21
-101.4092458884578
 72
     1
 10
28.84845067131766
 20
-101.4092458884578
 11
30.04124337348407
 21
-101.4092458884578
 72
     1
 10
30.04124337348407
 20
-101.4092458884578
 11
30.04124337348407
 21
-98.35543636464675
 72
     1
 10
30.04124337348407
 20
-98.35543636464675
 11
28.84845067131766
 21
-98.35543636464675
 72
     1
 10
28.84845067131766
 20
-98.35543636464675
 11
28.84845067131766
 21
-99.66421187485184
 72
     1
 10
28.84845067131766
 20
-99.66421187485184
 11
27.60794626106477
 21
-98.35543636464675
 97
       10
330
1A2
330
1A3
330
1A4
330
1D0
330
1A5
330
1A6
330
1CF
330
1D2
330
1D1
330
1A1
 75
     1
 76
     0
 52
45.0
 41
0.1
 77
     0
 78
     1
 53
45.0
 43
0.0
 44
0.0
 45
-0.0707106781186548
 46
0.0707106781186548
 79
     0
 98
        1
 10
0.0
 20
0.0
  0
HATCH
  5
2B1
330
71
100
AcDbEntity
  8
1
  6
Continuous
 62
     2
100
AcDbHatch
 10
0.0
 20
0.0
 30
0.0
210
0.0
220
0.0
230
1.0
  2
_USER
 70
     0
 71
     1
 91
        1
 92
        1
 93
       10
 72
     1
 10
27.60794626106477
 20
-98.35543636464675
 11
26.41515355889717
 21
-98.35543636464675
 72
     1
 10
26.41515355889717
 20
-98.35543636464675
 11
26.41515355889717
 21
-101.4092458884578
 72
     1
 10
26.41515355889717
 20
-101.4092458884578
 11
27.60794626106477
 21
-101.4092458884578
 72
     1
 10
27.60794626106477
 20
-101.4092458884578
 11
27.60794626106477
 21
-100.1004703782533
 72
     1
 10
27.60794626106477
 20
-100.1004703782533
 11
28.84845067131766
 21
-101.4092458884578
 72
     1
 10
28.84845067131766
 20
-101.4092458884578
 11
30.04124337348407
 21
-101.4092458884578
 72
     1
 10
30.04124337348407
 20
-101.4092458884578
 11
30.04124337348407
 21
-98.35543636464675
 72
     1
 10
30.04124337348407
 20
-98.35543636464675
 11
28.84845067131766
 21
-98.35543636464675
 72
     1
 10
28.84845067131766
 20
-98.35543636464675
 11
28.84845067131766
 21
-99.66421187485184
 72
     1
 10
28.84845067131766
 20
-99.66421187485184
 11
27.60794626106477
 21
-98.35543636464675
 97
       10
330
1A2
330
1A3
330
1A4
330
1D0
330
1A5
330
1A6
330
1CF
330
1D2
330
1D1
330
1A1
 75
     1
 76
     0
 52
45.0
 41
0.1
 77
     0
 78
     1
 53
45.0
 43
0.0
 44
0.0
 45
-0.0707106781186548
 46
0.0707106781186548
 79
     0
 98
        1
 10
0.0
 20
0.0
  0
HATCH
  5
2B2
330
71
100
AcDbEntity
  8
1
  6
Continuous
 62
     2
100
AcDbHatch
 10
0.0
 20
0.0
 30
0.0
210
0.0
220
0.0
230
1.0
  2
_USER
 70
     0
 71
     1
 91
        1
 92
        1
 93
       12
 72
     1
 10
26.60615132212936
 20
-94.99624588847234
 11
26.60615132212936
 21
-98.05005541228354
 72
     1
 10
26.60615132212936
 20
-98.05005541228354
 11
25.41335861996296
 21
-98.05005541228354
 72
     1
 10
25.41335861996296
 20
-98.05005541228354
 11
25.41335861996296
 21
-96.91578330343972
 72
     1
 10
25.41335861996296
 20
-96.91578330343972
 11
24.36370104205548
 21
-96.91578330343972
 72
     1
 10
24.36370104205548
 20
-96.91578330343972
 11
24.36370104205548
 21
-98.05005541228354
 72
     1
 10
24.36370104205548
 20
-98.05005541228354
 11
23.17090833988888
 21
-98.05005541228354
 72
     1
 10
23.17090833988888
 20
-98.05005541228354
 11
23.17090833988888
 21
-94.99624588847234
 72
     1
 10
23.17090833988888
 20
-94.99624588847234
 11
24.36370104205548
 21
-94.99624588847234
 72
     1
 10
24.36370104205548
 20
-94.99624588847234
 11
24.36370104205548
 21
-96.06507922180694
 72
     1
 10
24.36370104205548
 20
-96.06507922180694
 11
25.41335861996296
 21
-96.06507922180694
 72
     1
 10
25.41335861996296
 20
-96.06507922180694
 11
25.41335861996296
 21
-94.99624588847234
 72
     1
 10
25.41335861996296
 20
-94.99624588847234
 11
26.60615132212936
 21
-94.99624588847234
 97
       12
330
1CA
330
1C9
330
1C8
330
1B0
330
1B1
330
1C7
330
1B2
330
1C6
330
1C5
330
1C4
330
1AE
330
1AF
 75
     1
 76
     0
 52
45.0
 41
0.1
 77
     0
 78
     1
 53
45.0
 43
0.0
 44
0.0
 45
-0.0707106781186548
 46
0.0707106781186548
 79
     0
 98
        1
 10
0.0
 20
0.0
  0
HATCH
  5
2B3
330
71
100
AcDbEntity
  8
1
  6
Continuous
 62
     2
100
AcDbHatch
 10
0.0
 20
0.0
 30
0.0
210
0.0
220
0.0
230
1.0
  2
_USER
 70
     0
 71
     1
 91
        1
 92
        1
 93
       12
 72
     1
 10
26.60615132212936
 20
-94.99624588847234
 11
26.60615132212936
 21
-98.05005541228354
 72
     1
 10
26.60615132212936
 20
-98.05005541228354
 11
25.41335861996296
 21
-98.05005541228354
 72
     1
 10
25.41335861996296
 20
-98.05005541228354
 11
25.41335861996296
 21
-96.91578330343972
 72
     1
 10
25.41335861996296
 20
-96.91578330343972
 11
24.36370104205548
 21
-96.91578330343972
 72
     1
 10
24.36370104205548
 20
-96.91578330343972
 11
24.36370104205548
 21
-98.05005541228354
 72
     1
 10
24.36370104205548
 20
-98.05005541228354
 11
23.17090833988888
 21
-98.05005541228354
 72
     1
 10
23.17090833988888
 20
-98.05005541228354
 11
23.17090833988888
 21
-94.99624588847234
 72
     1
 10
23.17090833988888
 20
-94.99624588847234
 11
24.36370104205548
 21
-94.99624588847234
 72
     1
 10
24.36370104205548
 20
-94.99624588847234
 11
24.36370104205548
 21
-96.06507922180694
 72
     1
 10
24.36370104205548
 20
-96.06507922180694
 11
25.41335861996296
 21
-96.06507922180694
 72
     1
 10
25.41335861996296
 20
-96.06507922180694
 11
25.41335861996296
 21
-94.99624588847234
 72
     1
 10
25.41335861996296
 20
-94.99624588847234
 11
26.60615132212936
 21
-94.99624588847234
 97
       12
330
1CA
330
1C9
330
1C8
330
1B0
330
1B1
330
1C7
330
1B2
330
1C6
330
1C5
330
1C4
330
1AE
330
1AF
 75
     1
 76
     0
 52
45.0
 41
0.1
 77
     0
 78
     1
 53
45.0
 43
0.0
 44
0.0
 45
-0.0707106781186548
 46
0.0707106781186548
 79
     0
 98
        1
 10
0.0
 20
0.0
  0
ENDBLK
  5
73
330
71
100
AcDbEntity
  8
0
100
AcDbBlockEnd
  0
BLOCK
  5
75
330
74
100
AcDbEntity
  8
0
100
AcDbBlockBegin
  2
_punkt
 70
     0
 10
138.4834551359183
 20
-108.7027458884741
 30
0.0
  3
_punkt
  1

  0
LINE
  5
2B4
330
74
100
AcDbEntity
  8
1
  6
Continuous
 62
     2
100
AcDbLine
 10
138.4834551359183
 20
-108.7027458884741
 30
0.0
 11
138.4834551359183
 21
-113.7027458884743
 31
0.0
  0
LINE
  5
2B5
330
74
100
AcDbEntity
  8
1
  6
Continuous
 62
     2
100
AcDbLine
 10
138.4834551359183
 20
-108.7027458884741
 30
0.0
 11
143.4834551359173
 21
-108.7027458884741
 31
0.0
  0
ENDBLK
  5
76
330
74
100
AcDbEntity
  8
0
100
AcDbBlockEnd
  0
BLOCK
  5
7A
330
77
100
AcDbEntity
  8
0
100
AcDbBlockBegin
  2
A4I_CS
 70
     0
 10
138.4834551359183
 20
-113.7027458884743
 30
0.0
  3
A4I_CS
  1

  0
INSERT
  5
78
330
77
100
AcDbEntity
  8
1
100
AcDbBlockReference
  2
_rahmen
 10
138.4834551359183
 20
-113.7027458884743
 30
0.0
  0
INSERT
  5
79
330
77
100
AcDbEntity
  8
1
100
AcDbBlockReference
  2
_punkt
 10
138.4834551359183
 20
-108.7027458884741
 30
0.0
  0
ENDBLK
  5
7B
330
77
100
AcDbEntity
  8
0
100
AcDbBlockEnd
  0
BLOCK
  5
84
330
7C
100
AcDbEntity
  8
0
100
AcDbBlockBegin
  2
1
 70
     0
 10
0.0
 20
0.0
 30
0.0
  3
1
  1

  0
INSERT
  5
7D
330
7C
100
AcDbEntity
  8
0
100
AcDbBlockReference
  2
AllgSicht1
 10
61.00000000001015
 20
-26.99999999999
 30
0.0
  0
INSERT
  5
7E
330
7C
100
AcDbEntity
  8
0
100
AcDbBlockReference
  2
Drfsicht1
 10
-38.39999999998989
 20
-34.65000009536669
 30
0.0
  0
INSERT
  5
7F
330
7C
100
AcDbEntity
  8
0
100
AcDbBlockReference
  2
Rckans1
 10
59.99999999999
 20
22.00000000002001
 30
0.0
  0
INSERT
  5
80
330
7C
100
AcDbEntity
  8
0
100
AcDbBlockReference
  2
SA_Rechts1
 10
-89.99999999999993
 20
22.0000000000199
 30
0.0
  0
INSERT
  5
81
330
7C
100
AcDbEntity
  8
0
100
AcDbBlockReference
  2
SA_links1
 10
8.00000009536996
 20
22.0000000000199
 30
0.0
  0
INSERT
  5
82
330
7C
100
AcDbEntity
  8
0
100
AcDbBlockReference
  2
Vordans1
 10
-38.39999999998989
 20
22.00000000002001
 30
0.0
  0
INSERT
  5
83
330
7C
100
AcDbEntity
  8
0
100
AcDbBlockReference
  2
A4I_CS
 10
138.4834551359183
 20
-113.7027458884743
 30
0.0
  0
ENDBLK
  5
85
330
7C
100
AcDbEntity
  8
0
100
AcDbBlockEnd
  0
BLOCK
  5
C2
330
BB
100
AcDbEntity
  8
0
100
AcDbBlockBegin
  2
*D17
 70
     1
 10
0.0
 20
0.0
 30
0.0
  3
*D17
  1

  0
LINE
  5
BC
330
BB
100
AcDbEntity
  8
1
  6
Continuous
 62
     2
100
AcDbLine
 10
-52.1499999999799
 20
-43.3000001907341
 30
0.0
 11
-52.1499999999799
 21
-26.00000019073411
 31
0.0
  0
LINE
  5
BD
330
BB
100
AcDbEntity
  8
1
  6
Continuous
 62
     2
100
AcDbLine
 10
-36.1499999999799
 20
-43.3000001907341
 30
0.0
 11
-53.6499999999799
 21
-43.3000001907341
 31
0.0
  0
LINE
  5
BE
330
BB
100
AcDbEntity
  8
1
  6
Continuous
 62
     2
100
AcDbLine
 10
-42.1499999999799
 20
-26.00000019073411
 30
0.0
 11
-53.6499999999799
 21
-26.00000019073411
 31
0.0
  0
SOLID
  5
BF
330
BB
100
AcDbEntity
  8
1
 62
     2
100
AcDbTrace
 10
-52.61078374153579
 20
-39.8000001907341
 30
0.0
 11
-51.68921625842402
 21
-39.8000001907341
 31
0.0
 12
-52.1499999999799
 22
-43.3000001907341
 32
0.0
 13
-52.1499999999799
 23
-43.3000001907341
 33
0.0
  0
SOLID
  5
C0
330
BB
100
AcDbEntity
  8
1
 62
     2
100
AcDbTrace
 10
-51.68921625842402
 20
-29.50000019073411
 30
0.0
 11
-52.61078374153579
 21
-29.50000019073411
 31
0.0
 12
-52.1499999999799
 22
-26.00000019073411
 32
0.0
 13
-52.1499999999799
 23
-26.00000019073411
 33
0.0
  0
MTEXT
  5
C1
330
BB
100
AcDbEntity
  8
1
 62
     3
100
AcDbMText
 10
-53.9999999999799
 20
-38.52270286531986
 30
0.0
 40
3.5
 41
0.0
 71
     7
 72
     1
  1
17,3
  7
CONVERTER_11
 11
0.0
 21
1.0
 31
0.0
 73
     1
 44
0.60024009603842
  0
ENDBLK
  5
C3
330
BB
100
AcDbEntity
  8
0
100
AcDbBlockEnd
  0
BLOCK
  5
16E
330
165
100
AcDbEntity
  8
0
100
AcDbBlockBegin
  2
*D18
 70
     1
 10
0.0
 20
0.0
 30
0.0
  3
*D18
  1

  0
LINE
  5
166
330
165
100
AcDbEntity
  8
1
  6
Continuous
 62
     2
100
AcDbLine
 10
-49.14999999997989
 20
49.00000000003999
 30
0.0
 11
-42.14999999997989
 21
49.00000000003999
 31
0.0
  0
LINE
  5
167
330
165
100
AcDbEntity
  8
1
  6
Continuous
 62
     2
100
AcDbLine
 10
-42.14999999997989
 20
49.00000000003999
 30
0.0
 11
-35.14999999997991
 21
49.00000000003999
 31
0.0
  0
LINE
  5
168
330
165
100
AcDbEntity
  8
1
  6
Continuous
 62
     2
100
AcDbLine
 10
-35.14999999997991
 20
49.00000000003999
 30
0.0
 11
-28.14999999997991
 21
49.00000000003999
 31
0.0
  0
LINE
  5
169
330
165
100
AcDbEntity
  8
1
  6
Continuous
 62
     2
100
AcDbLine
 10
-42.14999999997989
 20
39.00000000003999
 30
0.0
 11
-42.14999999997989
 21
50.50000000003999
 31
0.0
  0
LINE
  5
16A
330
165
100
AcDbEntity
  8
1
  6
Continuous
 62
     2
100
AcDbLine
 10
-35.14999999997991
 20
28.85473174683535
 30
0.0
 11
-35.14999999997991
 21
50.50000000003999
 31
0.0
  0
SOLID
  5
16B
330
165
100
AcDbEntity
  8
1
 62
     2
100
AcDbTrace
 10
-45.64999999997989
 20
48.5392162584841
 30
0.0
 11
-45.64999999997989
 21
49.46078374159588
 31
0.0
 12
-42.14999999997989
 22
49.00000000003999
 32
0.0
 13
-42.14999999997989
 23
49.00000000003999
 33
0.0
  0
SOLID
  5
16C
330
165
100
AcDbEntity
  8
1
 62
     2
100
AcDbTrace
 10
-31.64999999997991
 20
49.46078374159588
 30
0.0
 11
-31.64999999997991
 21
48.5392162584841
 31
0.0
 12
-35.14999999997991
 22
49.00000000003999
 32
0.0
 13
-35.14999999997991
 23
49.00000000003999
 33
0.0
  0
MTEXT
  5
16D
330
165
100
AcDbEntity
  8
1
 62
     3
100
AcDbMText
 10
-39.2690542588587
 20
50.50000000003999
 30
0.0
 40
3.5
 41
0.0
 71
     7
 72
     1
  1
7
  7
CONVERTER_11
 11
0.9999999999970619
 21
2.424068405545306E-6
 31
0.0
 73
     1
 44
0.60024009603842
  0
ENDBLK
  5
16F
330
165
100
AcDbEntity
  8
0
100
AcDbBlockEnd
  0
BLOCK
  5
179
330
172
100
AcDbEntity
  8
0
100
AcDbBlockBegin
  2
*D19
 70
     1
 10
0.0
 20
0.0
 30
0.0
  3
*D19
  1

  0
LINE
  5
173
330
172
100
AcDbEntity
  8
1
  6
Continuous
 62
     2
100
AcDbLine
 10
-52.14999999997988
 20
39.00000000003999
 30
0.0
 11
-52.14999999997988
 21
5.00000000003999
 31
0.0
  0
LINE
  5
174
330
172
100
AcDbEntity
  8
1
  6
Continuous
 62
     2
100
AcDbLine
 10
-36.1499999999799
 20
39.00000000003999
 30
0.0
 11
-53.64999999997988
 21
39.00000000003999
 31
0.0
  0
LINE
  5
175
330
172
100
AcDbEntity
  8
1
  6
Continuous
 62
     2
100
AcDbLine
 10
-38.1499999999799
 20
5.00000000003999
 30
0.0
 11
-53.64999999997988
 21
5.00000000003999
 31
0.0
  0
SOLID
  5
176
330
172
100
AcDbEntity
  8
1
 62
     2
100
AcDbTrace
 10
-51.689216258424
 20
35.50000000003999
 30
0.0
 11
-52.61078374153577
 21
35.50000000003999
 31
0.0
 12
-52.14999999997988
 22
39.00000000003999
 32
0.0
 13
-52.14999999997988
 23
39.00000000003999
 33
0.0
  0
SOLID
  5
177
330
172
100
AcDbEntity
  8
1
 62
     2
100
AcDbTrace
 10
-52.61078374153577
 20
8.50000000003999
 30
0.0
 11
-51.689216258424
 21
8.50000000003999
 31
0.0
 12
-52.14999999997988
 22
5.00000000003999
 32
0.0
 13
-52.14999999997988
 23
5.00000000003999
 33
0.0
  0
MTEXT
  5
178
330
172
100
AcDbEntity
  8
1
 62
     3
100
AcDbMText
 10
-53.64999999997988
 20
20.37500000003999
 30
0.0
 40
3.5
 41
0.0
 71
     7
 72
     1
  1
34
  7
CONVERTER_11
 11
0.0
 21
1.0
 31
0.0
 73
     1
 44
0.60024009603842
  0
ENDBLK
  5
17A
330
172
100
AcDbEntity
  8
0
100
AcDbBlockEnd
  0
ENDSEC
  0
SECTION
  2
ENTITIES
  0
INSERT
  5
86
330
1F
100
AcDbEntity
  8
1
100
AcDbBlockReference
  2
1
 10
0.0
 20
0.0
 30
0.0
  0
ENDSEC
  0
SECTION
  2
OBJECTS
  0
DICTIONARY
  5
C
330
0
100
AcDbDictionary
281
     1
  3
ACAD_GROUP
350
D
  3
ACAD_LAYOUT
350
1A
  3
ACAD_MATERIAL
350
3B
  3
ACAD_MLEADERSTYLE
350
2DD
  3
ACAD_MLINESTYLE
350
17
  3
ACAD_PLOTSETTINGS
350
19
  3
ACAD_PLOTSTYLENAME
350
E
  3
ACAD_TABLESTYLE
350
2DC
  3
ACAD_VISUALSTYLE
350
2A
  0
DICTIONARY
  5
D
102
{ACAD_REACTORS
330
C
102
}
330
C
100
AcDbDictionary
281
     1
  0
DICTIONARY
  5
1A
102
{ACAD_REACTORS
330
C
102
}
330
C
100
AcDbDictionary
281
     1
  3
Layout1
350
1E
  3
Layout2
350
26
  3
Model
350
22
  0
DICTIONARY
  5
3B
102
{ACAD_REACTORS
330
C
102
}
330
C
100
AcDbDictionary
281
     1
  3
ByBlock
350
3D
  3
ByLayer
350
3C
  3
Global
350
3E
  0
DICTIONARY
  5
2DD
102
{ACAD_REACTORS
330
C
102
}
330
C
100
AcDbDictionary
281
     1
  0
DICTIONARY
  5
17
102
{ACAD_REACTORS
330
C
102
}
330
C
100
AcDbDictionary
281
     1
  3
Standard
350
18
  0
DICTIONARY
  5
19
102
{ACAD_REACTORS
330
C
102
}
330
C
100
AcDbDictionary
281
     1
  0
ACDBDICTIONARYWDFLT
  5
E
102
{ACAD_REACTORS
330
C
102
}
330
C
100
AcDbDictionary
281
     1
  3
Normal
350
F
100
AcDbDictionaryWithDefault
340
F
  0
DICTIONARY
  5
2DC
102
{ACAD_REACTORS
330
C
102
}
330
C
100
AcDbDictionary
281
     1
  0
DICTIONARY
  5
2A
102
{ACAD_REACTORS
330
C
102
}
330
C
100
AcDbDictionary
281
     1
  3
2dWireframe
350
2F
  3
3D Hidden
350
31
  3
3dWireframe
350
30
  3
Basic
350
32
  3
Brighten
350
36
  3
ColorChange
350
3A
  3
Conceptual
350
34
  3
Dim
350
35
  3
Facepattern
350
39
  3
Flat
350
2B
  3
FlatWithEdges
350
2C
  3
Gouraud
350
2D
  3
GouraudWithEdges
350
2E
  3
Linepattern
350
38
  3
Realistic
350
33
  3
Thicken
350
37
  0
LAYOUT
  5
1E
102
{ACAD_REACTORS
330
1A
102
}
330
1A
100
AcDbPlotSettings
  1

  2
none_device
  4

  6

 40
0.0
 41
0.0
 42
0.0
 43
0.0
 44
0.0
 45
0.0
 46
0.0
 47
0.0
 48
0.0
 49
0.0
140
0.0
141
0.0
142
1.0
143
1.0
 70
   688
 72
     0
 73
     0
 74
     5
  7

 75
    16
 76
     0
 77
     2
 78
   300
147
1.0
148
0.0
149
0.0
100
AcDbLayout
  1
Layout1
 70
     1
 71
     1
 10
0.0
 20
0.0
 11
12.0
 21
9.0
 12
0.0
 22
0.0
 32
0.0
 14
1.00000000000000E+20
 24
1.00000000000000E+20
 34
1.00000000000000E+20
 15
-1.00000000000000E+20
 25
-1.00000000000000E+20
 35
-1.00000000000000E+20
146
0.0
 13
0.0
 23
0.0
 33
0.0
 16
1.0
 26
0.0
 36
0.0
 17
0.0
 27
1.0
 37
0.0
 76
     0
330
1B
  0
LAYOUT
  5
26
102
{ACAD_REACTORS
330
1A
102
}
330
1A
100
AcDbPlotSettings
  1

  2
none_device
  4

  6

 40
0.0
 41
0.0
 42
0.0
 43
0.0
 44
0.0
 45
0.0
 46
0.0
 47
0.0
 48
0.0
 49
0.0
140
0.0
141
0.0
142
1.0
143
1.0
 70
   688
 72
     0
 73
     0
 74
     5
  7

 75
    16
 76
     0
 77
     2
 78
   300
147
1.0
148
0.0
149
0.0
100
AcDbLayout
  1
Layout2
 70
     1
 71
     2
 10
0.0
 20
0.0
 11
0.0
 21
0.0
 12
0.0
 22
0.0
 32
0.0
 14
0.0
 24
0.0
 34
0.0
 15
0.0
 25
0.0
 35
0.0
146
0.0
 13
0.0
 23
0.0
 33
0.0
 16
1.0
 26
0.0
 36
0.0
 17
0.0
 27
1.0
 37
0.0
 76
     0
330
23
  0
LAYOUT
  5
22
102
{ACAD_REACTORS
330
1A
102
}
330
1A
100
AcDbPlotSettings
  1

  2
none_device
  4

  6

 40
0.0
 41
0.0
 42
0.0
 43
0.0
 44
0.0
 45
0.0
 46
0.0
 47
0.0
 48
0.0
 49
0.0
140
0.0
141
0.0
142
1.0
143
1.0
 70
  1712
 72
     0
 73
     0
 74
     0
  7

 75
     0
 76
     0
 77
     2
 78
   300
147
1.0
148
0.0
149
0.0
100
AcDbLayout
  1
Model
 70
     1
 71
     0
 10
0.0
 20
0.0
 11
12.0
 21
9.0
 12
0.0
 22
0.0
 32
0.0
 14
-153.5165448640808
 24
-113.7027458884743
 34
0.0
 15
143.4834551359173
 25
96.29725411152586
 35
0.0
146
0.0
 13
0.0
 23
0.0
 33
0.0
 16
1.0
 26
0.0
 36
0.0
 17
0.0
 27
1.0
 37
0.0
 76
     0
330
1F
331
29
  0
MATERIAL
  5
3D
102
{ACAD_REACTORS
330
3B
102
}
102
{ACAD_XDICTIONARY
360
2D8
102
}
330
3B
100
AcDbMaterial
  1
ByBlock
  0
MATERIAL
  5
3C
102
{ACAD_REACTORS
330
3B
102
}
102
{ACAD_XDICTIONARY
360
2D6
102
}
330
3B
100
AcDbMaterial
  1
ByLayer
  0
MATERIAL
  5
3E
102
{ACAD_REACTORS
330
3B
102
}
102
{ACAD_XDICTIONARY
360
2DA
102
}
330
3B
100
AcDbMaterial
  1
Global
  0
MLINESTYLE
  5
18
102
{ACAD_REACTORS
330
17
102
}
330
17
100
AcDbMlineStyle
  2
Standard
 70
     0
  3

 62
   256
 51
90.0
 52
90.0
 71
     2
 49
0.5
 62
   256
  6
BYLAYER
 49
-0.5
 62
   256
  6
BYLAYER
  0
ACDBPLACEHOLDER
  5
F
102
{ACAD_REACTORS
330
E
102
}
330
E
  0
VISUALSTYLE
  5
2F
102
{ACAD_REACTORS
330
2A
102
}
102
{ACAD_XDICTIONARY
360
2BE
102
}
330
2A
100
AcDbVisualStyle
  2
2dWireframe
 70
     4
 71
     0
 72
     2
 73
     0
 90
        0
 40
-0.6
 41
-30.0
 62
     5
 63
     7
421
 16777215
 74
     1
 91
        4
 64
     7
 65
   257
 75
     1
175
     1
 42
1.0
 92
        0
 66
   257
 43
1.0
 76
     1
 77
     6
 78
     2
 67
     7
 79
     5
170
     0
171
     0
290
     0
174
     0
 93
        1
 44
0.0
173
     0
291
     0
 45
0.0
1001
ACAD
1000
AcDbSavedByObjectVersion
1070
     0
  0
VISUALSTYLE
  5
31
102
{ACAD_REACTORS
330
2A
102
}
102
{ACAD_XDICTIONARY
360
2C2
102
}
330
2A
100
AcDbVisualStyle
  2
3D Hidden
 70
     6
 71
     1
 72
     2
 73
     2
 90
        0
 40
-0.6
 41
-30.0
 62
     5
 63
     7
421
 16777215
 74
     2
 91
        2
 64
     7
 65
   257
 75
     2
175
     1
 42
40.0
 92
        0
 66
   257
 43
1.0
 76
     1
 77
     6
 78
     2
 67
     7
 79
     3
170
     0
171
     0
290
     0
174
     0
 93
        1
 44
0.0
173
     0
291
     0
 45
0.0
1001
ACAD
1000
AcDbSavedByObjectVersion
1070
     0
  0
VISUALSTYLE
  5
30
102
{ACAD_REACTORS
330
2A
102
}
102
{ACAD_XDICTIONARY
360
2C0
102
}
330
2A
100
AcDbVisualStyle
  2
3dWireframe
 70
     5
 71
     0
 72
     2
 73
     0
 90
        0
 40
-0.6
 41
-30.0
 62
     5
 63
     7
421
 16777215
 74
     1
 91
        4
 64
     7
 65
   257
 75
     1
175
     1
 42
1.0
 92
        0
 66
   257
 43
1.0
 76
     1
 77
     6
 78
     2
 67
     7
 79
     5
170
     0
171
     0
290
     0
174
     0
 93
        1
 44
0.0
173
     0
291
     0
 45
0.0
1001
ACAD
1000
AcDbSavedByObjectVersion
1070
     0
  0
VISUALSTYLE
  5
32
102
{ACAD_REACTORS
330
2A
102
}
102
{ACAD_XDICTIONARY
360
2C4
102
}
330
2A
100
AcDbVisualStyle
  2
Basic
 70
     7
 71
     1
 72
     0
 73
     1
 90
        0
 40
-0.6
 41
-30.0
 62
     5
 63
     7
421
 16777215
 74
     0
 91
        4
 64
     7
 65
   257
 75
     1
175
     1
 42
1.0
 92
        8
 66
     7
 43
1.0
 76
     1
 77
     6
 78
     2
 67
     7
 79
     5
170
     0
171
     0
290
     0
174
     0
 93
        1
 44
0.0
173
     0
291
     1
 45
0.0
1001
ACAD
1000
AcDbSavedByObjectVersion
1070
     0
  0
VISUALSTYLE
  5
36
102
{ACAD_REACTORS
330
2A
102
}
102
{ACAD_XDICTIONARY
360
2CC
102
}
330
2A
100
AcDbVisualStyle
  2
Brighten
 70
    12
 71
     2
 72
     2
 73
     0
 90
        0
 40
-0.6
 41
-30.0
 62
     5
 63
     7
421
 16777215
 74
     1
 91
        4
 64
     7
 65
   257
 75
     1
175
     1
 42
1.0
 92
        8
 66
     7
 43
1.0
 76
     1
 77
     6
 78
     2
 67
     7
 79
     5
170
     0
171
     0
290
     0
174
     0
 93
        1
 44
50.0
173
     0
291
     1
 45
0.0
1001
ACAD
1000
AcDbSavedByObjectVersion
1070
     0
  0
VISUALSTYLE
  5
3A
102
{ACAD_REACTORS
330
2A
102
}
102
{ACAD_XDICTIONARY
360
2D4
102
}
330
2A
100
AcDbVisualStyle
  2
ColorChange
 70
    16
 71
     2
 72
     2
 73
     3
 90
        0
 40
-0.6
 41
-30.0
 62
     5
 63
     8
421
  8421504
 74
     1
 91
        4
 64
     7
 65
   257
 75
     1
175
     1
 42
1.0
 92
        8
 66
     8
424
  8421504
 43
1.0
 76
     1
 77
     6
 78
     2
 67
     7
 79
     5
170
     0
171
     0
290
     0
174
     0
 93
        1
 44
0.0
173
     0
291
     1
 45
0.0
1001
ACAD
1000
AcDbSavedByObjectVersion
1070
     0
  0
VISUALSTYLE
  5
34
102
{ACAD_REACTORS
330
2A
102
}
102
{ACAD_XDICTIONARY
360
2C8
102
}
330
2A
100
AcDbVisualStyle
  2
Conceptual
 70
     9
 71
     3
 72
     2
 73
     0
 90
        0
 40
-0.6
 41
-30.0
 62
     5
 63
     7
421
 16777215
 74
     2
 91
        2
 64
     7
 65
   257
 75
     1
175
     1
 42
40.0
 92
        8
 66
     7
 43
1.0
 76
     1
 77
     6
 78
     2
 67
     7
 79
     3
170
     0
171
     0
290
     0
174
     0
 93
        1
 44
0.0
173
     0
291
     0
 45
0.0
1001
ACAD
1000
AcDbSavedByObjectVersion
1070
     0
  0
VISUALSTYLE
  5
35
102
{ACAD_REACTORS
330
2A
102
}
102
{ACAD_XDICTIONARY
360
2CA
102
}
330
2A
100
AcDbVisualStyle
  2
Dim
 70
    11
 71
     2
 72
     2
 73
     0
 90
        0
 40
-0.6
 41
-30.0
 62
     5
 63
     7
421
 16777215
 74
     1
 91
        4
 64
     7
 65
   257
 75
     1
175
     1
 42
1.0
 92
        8
 66
     7
 43
1.0
 76
     1
 77
     6
 78
     2
 67
     7
 79
     5
170
     0
171
     0
290
     0
174
     0
 93
        1
 44
-50.0
173
     0
291
     1
 45
0.0
1001
ACAD
1000
AcDbSavedByObjectVersion
1070
     0
  0
VISUALSTYLE
  5
39
102
{ACAD_REACTORS
330
2A
102
}
102
{ACAD_XDICTIONARY
360
2D2
102
}
330
2A
100
AcDbVisualStyle
  2
Facepattern
 70
    15
 71
     2
 72
     2
 73
     0
 90
        0
 40
-0.6
 41
-30.0
 62
     5
 63
     7
421
 16777215
 74
     1
 91
        4
 64
     7
 65
   257
 75
     1
175
     1
 42
1.0
 92
        8
 66
     7
 43
1.0
 76
     1
 77
     6
 78
     2
 67
     7
 79
     5
170
     0
171
     0
290
     0
174
     0
 93
        1
 44
0.0
173
     0
291
     1
 45
0.0
1001
ACAD
1000
AcDbSavedByObjectVersion
1070
     0
  0
VISUALSTYLE
  5
2B
102
{ACAD_REACTORS
330
2A
102
}
102
{ACAD_XDICTIONARY
360
2B6
102
}
330
2A
100
AcDbVisualStyle
  2
Flat
 70
     0
 71
     2
 72
     1
 73
     1
 90
        2
 40
-0.6
 41
30.0
 62
     5
 63
     7
421
 16777215
 74
     0
 91
        4
 64
     7
 65
   257
 75
     1
175
     1
 42
1.0
 92
        8
 66
     7
 43
1.0
 76
     1
 77
     6
 78
     2
 67
     7
 79
     5
170
     0
171
     0
290
     0
174
     0
 93
       13
 44
0.0
173
     0
291
     1
 45
0.0
1001
ACAD
1000
AcDbSavedByObjectVersion
1070
     0
  0
VISUALSTYLE
  5
2C
102
{ACAD_REACTORS
330
2A
102
}
102
{ACAD_XDICTIONARY
360
2B8
102
}
330
2A
100
AcDbVisualStyle
  2
FlatWithEdges
 70
     1
 71
     2
 72
     1
 73
     1
 90
        2
 40
-0.6
 41
30.0
 62
     5
 63
     7
421
 16777215
 74
     1
 91
        4
 64
     7
 65
   257
 75
     1
175
     1
 42
1.0
 92
        0
 66
   257
 43
1.0
 76
     1
 77
     6
 78
     2
 67
     7
 79
     5
170
     0
171
     0
290
     0
174
     0
 93
       13
 44
0.0
173
     0
291
     1
 45
0.0
1001
ACAD
1000
AcDbSavedByObjectVersion
1070
     0
  0
VISUALSTYLE
  5
2D
102
{ACAD_REACTORS
330
2A
102
}
102
{ACAD_XDICTIONARY
360
2BA
102
}
330
2A
100
AcDbVisualStyle
  2
Gouraud
 70
     2
 71
     2
 72
     2
 73
     1
 90
        2
 40
-0.6
 41
30.0
 62
     5
 63
     7
421
 16777215
 74
     0
 91
        4
 64
     7
 65
   257
 75
     1
175
     1
 42
1.0
 92
        0
 66
     7
 43
1.0
 76
     1
 77
     6
 78
     2
 67
     7
 79
     5
170
     0
171
     0
290
     0
174
     0
 93
       13
 44
0.0
173
     0
291
     1
 45
0.0
1001
ACAD
1000
AcDbSavedByObjectVersion
1070
     0
  0
VISUALSTYLE
  5
2E
102
{ACAD_REACTORS
330
2A
102
}
102
{ACAD_XDICTIONARY
360
2BC
102
}
330
2A
100
AcDbVisualStyle
  2
GouraudWithEdges
 70
     3
 71
     2
 72
     2
 73
     1
 90
        2
 40
-0.6
 41
30.0
 62
     5
 63
     7
421
 16777215
 74
     1
 91
        4
 64
     7
 65
   257
 75
     1
175
     1
 42
1.0
 92
        0
 66
   257
 43
1.0
 76
     1
 77
     6
 78
     2
 67
     7
 79
     5
170
     0
171
     0
290
     0
174
     0
 93
       13
 44
0.0
173
     0
291
     1
 45
0.0
1001
ACAD
1000
AcDbSavedByObjectVersion
1070
     0
  0
VISUALSTYLE
  5
38
102
{ACAD_REACTORS
330
2A
102
}
102
{ACAD_XDICTIONARY
360
2D0
102
}
330
2A
100
AcDbVisualStyle
  2
Linepattern
 70
    14
 71
     2
 72
     2
 73
     0
 90
        0
 40
-0.6
 41
-30.0
 62
     5
 63
     7
421
 16777215
 74
     1
 91
        4
 64
     7
 65
   257
 75
     7
175
     7
 42
1.0
 92
        8
 66
     7
 43
1.0
 76
     1
 77
     6
 78
     2
 67
     7
 79
     5
170
     0
171
     0
290
     0
174
     0
 93
        1
 44
0.0
173
     0
291
     1
 45
0.0
1001
ACAD
1000
AcDbSavedByObjectVersion
1070
     0
  0
VISUALSTYLE
  5
33
102
{ACAD_REACTORS
330
2A
102
}
102
{ACAD_XDICTIONARY
360
2C6
102
}
330
2A
100
AcDbVisualStyle
  2
Realistic
 70
     8
 71
     2
 72
     2
 73
     0
 90
        0
 40
-0.6
 41
-30.0
 62
     5
 63
     7
421
 16777215
 74
     1
 91
        0
 64
     7
 65
   257
 75
     1
175
     1
 42
1.0
 92
        8
 66
     8
424
  7895160
 43
1.0
 76
     1
 77
     6
 78
     2
 67
     7
 79
     5
170
     0
171
     0
290
     0
174
     0
 93
       13
 44
0.0
173
     0
291
     0
 45
0.0
1001
ACAD
1000
AcDbSavedByObjectVersion
1070
     0
  0
VISUALSTYLE
  5
37
102
{ACAD_REACTORS
330
2A
102
}
102
{ACAD_XDICTIONARY
360
2CE
102
}
330
2A
100
AcDbVisualStyle
  2
Thicken
 70
    13
 71
     2
 72
     2
 73
     0
 90
        0
 40
-0.6
 41
-30.0
 62
     5
 63
     7
421
 16777215
 74
     1
 91
        4
 64
     7
 65
   257
 75
     1
175
     1
 42
1.0
 92
       12
 66
     7
 43
1.0
 76
     1
 77
     6
 78
     2
 67
     7
 79
     5
170
     0
171
     0
290
     0
174
     0
 93
        1
 44
0.0
173
     0
291
     1
 45
0.0
1001
ACAD
1000
AcDbSavedByObjectVersion
1070
     0
  0
DICTIONARY
  5
2D8
330
3D
100
AcDbDictionary
280
     1
281
     1
  3
ACAD_XREC_ROUNDTRIP
360
2D9
  0
DICTIONARY
  5
2D6
330
3C
100
AcDbDictionary
280
     1
281
     1
  3
ACAD_XREC_ROUNDTRIP
360
2D7
  0
DICTIONARY
  5
2DA
330
3E
100
AcDbDictionary
280
     1
281
     1
  3
ACAD_XREC_ROUNDTRIP
360
2DB
  0
DICTIONARY
  5
2BE
330
2F
100
AcDbDictionary
280
     1
281
     1
  3
ACAD_XREC_ROUNDTRIP
360
2BF
  0
DICTIONARY
  5
2C2
330
31
100
AcDbDictionary
280
     1
281
     1
  3
ACAD_XREC_ROUNDTRIP
360
2C3
  0
DICTIONARY
  5
2C0
330
30
100
AcDbDictionary
280
     1
281
     1
  3
ACAD_XREC_ROUNDTRIP
360
2C1
  0
DICTIONARY
  5
2C4
330
32
100
AcDbDictionary
280
     1
281
     1
  3
ACAD_XREC_ROUNDTRIP
360
2C5
  0
DICTIONARY
  5
2CC
330
36
100
AcDbDictionary
280
     1
281
     1
  3
ACAD_XREC_ROUNDTRIP
360
2CD
  0
DICTIONARY
  5
2D4
330
3A
100
AcDbDictionary
280
     1
281
     1
  3
ACAD_XREC_ROUNDTRIP
360
2D5
  0
DICTIONARY
  5
2C8
330
34
100
AcDbDictionary
280
     1
281
     1
  3
ACAD_XREC_ROUNDTRIP
360
2C9
  0
DICTIONARY
  5
2CA
330
35
100
AcDbDictionary
280
     1
281
     1
  3
ACAD_XREC_ROUNDTRIP
360
2CB
  0
DICTIONARY
  5
2D2
330
39
100
AcDbDictionary
280
     1
281
     1
  3
ACAD_XREC_ROUNDTRIP
360
2D3
  0
DICTIONARY
  5
2B6
330
2B
100
AcDbDictionary
280
     1
281
     1
  3
ACAD_XREC_ROUNDTRIP
360
2B7
  0
DICTIONARY
  5
2B8
330
2C
100
AcDbDictionary
280
     1
281
     1
  3
ACAD_XREC_ROUNDTRIP
360
2B9
  0
DICTIONARY
  5
2BA
330
2D
100
AcDbDictionary
280
     1
281
     1
  3
ACAD_XREC_ROUNDTRIP
360
2BB
  0
DICTIONARY
  5
2BC
330
2E
100
AcDbDictionary
280
     1
281
     1
  3
ACAD_XREC_ROUNDTRIP
360
2BD
  0
DICTIONARY
  5
2D0
330
38
100
AcDbDictionary
280
     1
281
     1
  3
ACAD_XREC_ROUNDTRIP
360
2D1
  0
DICTIONARY
  5
2C6
330
33
100
AcDbDictionary
280
     1
281
     1
  3
ACAD_XREC_ROUNDTRIP
360
2C7
  0
DICTIONARY
  5
2CE
330
37
100
AcDbDictionary
280
     1
281
     1
  3
ACAD_XREC_ROUNDTRIP
360
2CF
  0
XRECORD
  5
2D9
102
{ACAD_REACTORS
330
2D8
102
}
330
2D8
100
AcDbXrecord
280
     1
102
MATERIAL
148
0.0
149
0.0
149
0.0
 93
        0
 94
      127
282
     0
 72
     1
 77
     1
171
     1
175
     1
179
     1
273
     0
  0
XRECORD
  5
2D7
102
{ACAD_REACTORS
330
2D6
102
}
330
2D6
100
AcDbXrecord
280
     1
102
MATERIAL
148
0.0
149
0.0
149
0.0
 93
        0
 94
      127
282
     0
 72
     1
 77
     1
171
     1
175
     1
179
     1
273
     0
  0
XRECORD
  5
2DB
102
{ACAD_REACTORS
330
2DA
102
}
330
2DA
100
AcDbXrecord
280
     1
102
MATERIAL
148
0.0
149
0.0
149
0.0
 93
        0
 94
      127
282
     0
 72
     1
 77
     1
171
     1
175
     1
179
     1
273
     0
  0
XRECORD
  5
2BF
102
{ACAD_REACTORS
330
2BE
102
}
330
2BE
100
AcDbXrecord
280
     1
102
RTVSPropertyOp0
 70
     1
102
RTVSPropertyOp1
 70
     1
102
RTVSPropertyOp2
 70
     1
102
RTVSPropertyOp3
 70
     1
102
RTVSPropertyOp4
 70
     1
102
RTVSPropertyOp5
 70
     1
102
RTVSPropertyOp6
 70
     1
102
RTVSPropertyOp7
 70
     1
102
RTVSPropertyOp8
 70
     1
102
RTVSPropertyOp9
 70
     1
102
RTVSPropertyOp10
 70
     1
102
RTVSPropertyOp11
 70
     1
102
RTVSPropertyOp12
 70
     1
102
RTVSPropertyOp13
 70
     1
102
RTVSPropertyOp14
 70
     1
102
RTVSPropertyOp15
 70
     1
102
RTVSPropertyOp16
 70
     1
102
RTVSPropertyOp17
 70
     1
102
RTVSPropertyOp18
 70
     1
102
RTVSPropertyOp19
 70
     1
102
RTVSPropertyOp20
 70
     1
102
RTVSPropertyOp21
 70
     1
102
RTVSPropertyOp22
 70
     1
102
RTVSPropertyOp23
 70
     1
102
RTVSPropertyOp24
 70
     1
102
RTVSPropertyOp25
 70
     1
102
RTVSPropertyOp26
 70
     1
102
RTVSPropertyOp27
 70
     1
102
RTVSPropertyOp28
 70
     1
102
RTVSPropertyOp29
 70
     1
102
RTVSPropertyOp30
 70
     1
102
RTVSPropertyOp31
 70
     1
102
RTVSPropertyOp32
 70
     1
  0
XRECORD
  5
2C3
102
{ACAD_REACTORS
330
2C2
102
}
330
2C2
100
AcDbXrecord
280
     1
102
RTVSPropertyOp0
 70
     1
102
RTVSPropertyOp1
 70
     1
102
RTVSPropertyOp2
 70
     1
102
RTVSPropertyOp3
 70
     1
102
RTVSPropertyOp4
 70
     1
102
RTVSPropertyOp5
 70
     1
102
RTVSPropertyOp6
 70
     1
102
RTVSPropertyOp7
 70
     1
102
RTVSPropertyOp8
 70
     1
102
RTVSPropertyOp9
 70
     1
102
RTVSPropertyOp10
 70
     1
102
RTVSPropertyOp11
 70
     1
102
RTVSPropertyOp12
 70
     1
102
RTVSPropertyOp13
 70
     1
102
RTVSPropertyOp14
 70
     1
102
RTVSPropertyOp15
 70
     1
102
RTVSPropertyOp16
 70
     1
102
RTVSPropertyOp17
 70
     1
102
RTVSPropertyOp18
 70
     1
102
RTVSPropertyOp19
 70
     1
102
RTVSPropertyOp20
 70
     1
102
RTVSPropertyOp21
 70
     1
102
RTVSPropertyOp22
 70
     1
102
RTVSPropertyOp23
 70
     1
102
RTVSPropertyOp24
 70
     1
102
RTVSPropertyOp25
 70
     1
102
RTVSPropertyOp26
 70
     1
102
RTVSPropertyOp27
 70
     1
102
RTVSPropertyOp28
 70
     1
102
RTVSPropertyOp29
 70
     1
102
RTVSPropertyOp30
 70
     1
102
RTVSPropertyOp31
 70
     1
102
RTVSPropertyOp32
 70
     1
  0
XRECORD
  5
2C1
102
{ACAD_REACTORS
330
2C0
102
}
330
2C0
100
AcDbXrecord
280
     1
102
RTVSPropertyOp0
 70
     1
102
RTVSPropertyOp1
 70
     1
102
RTVSPropertyOp2
 70
     1
102
RTVSPropertyOp3
 70
     1
102
RTVSPropertyOp4
 70
     1
102
RTVSPropertyOp5
 70
     1
102
RTVSPropertyOp6
 70
     1
102
RTVSPropertyOp7
 70
     1
102
RTVSPropertyOp8
 70
     1
102
RTVSPropertyOp9
 70
     1
102
RTVSPropertyOp10
 70
     1
102
RTVSPropertyOp11
 70
     1
102
RTVSPropertyOp12
 70
     1
102
RTVSPropertyOp13
 70
     1
102
RTVSPropertyOp14
 70
     1
102
RTVSPropertyOp15
 70
     1
102
RTVSPropertyOp16
 70
     1
102
RTVSPropertyOp17
 70
     1
102
RTVSPropertyOp18
 70
     1
102
RTVSPropertyOp19
 70
     1
102
RTVSPropertyOp20
 70
     1
102
RTVSPropertyOp21
 70
     1
102
RTVSPropertyOp22
 70
     1
102
RTVSPropertyOp23
 70
     1
102
RTVSPropertyOp24
 70
     1
102
RTVSPropertyOp25
 70
     1
102
RTVSPropertyOp26
 70
     1
102
RTVSPropertyOp27
 70
     1
102
RTVSPropertyOp28
 70
     1
102
RTVSPropertyOp29
 70
     1
102
RTVSPropertyOp30
 70
     1
102
RTVSPropertyOp31
 70
     1
102
RTVSPropertyOp32
 70
     1
  0
XRECORD
  5
2C5
102
{ACAD_REACTORS
330
2C4
102
}
330
2C4
100
AcDbXrecord
280
     1
102
RTVSPropertyOp0
 70
     1
102
RTVSPropertyOp1
 70
     1
102
RTVSPropertyOp2
 70
     1
102
RTVSPropertyOp3
 70
     1
102
RTVSPropertyOp4
 70
     1
102
RTVSPropertyOp5
 70
     1
102
RTVSPropertyOp6
 70
     1
102
RTVSPropertyOp7
 70
     1
102
RTVSPropertyOp8
 70
     1
102
RTVSPropertyOp9
 70
     1
102
RTVSPropertyOp10
 70
     1
102
RTVSPropertyOp11
 70
     1
102
RTVSPropertyOp12
 70
     1
102
RTVSPropertyOp13
 70
     1
102
RTVSPropertyOp14
 70
     1
102
RTVSPropertyOp15
 70
     1
102
RTVSPropertyOp16
 70
     1
102
RTVSPropertyOp17
 70
     1
102
RTVSPropertyOp18
 70
     1
102
RTVSPropertyOp19
 70
     1
102
RTVSPropertyOp20
 70
     1
102
RTVSPropertyOp21
 70
     1
102
RTVSPropertyOp22
 70
     1
102
RTVSPropertyOp23
 70
     1
102
RTVSPropertyOp24
 70
     1
102
RTVSPropertyOp25
 70
     1
102
RTVSPropertyOp26
 70
     1
102
RTVSPropertyOp27
 70
     1
102
RTVSPropertyOp28
 70
     1
102
RTVSPropertyOp29
 70
     1
102
RTVSPropertyOp30
 70
     1
102
RTVSPropertyOp31
 70
     1
102
RTVSPropertyOp32
 70
     1
  0
XRECORD
  5
2CD
102
{ACAD_REACTORS
330
2CC
102
}
330
2CC
100
AcDbXrecord
280
     1
102
RTVSPropertyOp0
 70
     1
102
RTVSPropertyOp1
 70
     1
102
RTVSPropertyOp2
 70
     1
102
RTVSPropertyOp3
 70
     1
102
RTVSPropertyOp4
 70
     1
102
RTVSPropertyOp5
 70
     1
102
RTVSPropertyOp6
 70
     1
102
RTVSPropertyOp7
 70
     1
102
RTVSPropertyOp8
 70
     1
102
RTVSPropertyOp9
 70
     1
102
RTVSPropertyOp10
 70
     1
102
RTVSPropertyOp11
 70
     1
102
RTVSPropertyOp12
 70
     1
102
RTVSPropertyOp13
 70
     1
102
RTVSPropertyOp14
 70
     1
102
RTVSPropertyOp15
 70
     1
102
RTVSPropertyOp16
 70
     1
102
RTVSPropertyOp17
 70
     1
102
RTVSPropertyOp18
 70
     1
102
RTVSPropertyOp19
 70
     1
102
RTVSPropertyOp20
 70
     1
102
RTVSPropertyOp21
 70
     1
102
RTVSPropertyOp22
 70
     1
102
RTVSPropertyOp23
 70
     1
102
RTVSPropertyOp24
 70
     1
102
RTVSPropertyOp25
 70
     1
102
RTVSPropertyOp26
 70
     1
102
RTVSPropertyOp27
 70
     1
102
RTVSPropertyOp28
 70
     1
102
RTVSPropertyOp29
 70
     1
102
RTVSPropertyOp30
 70
     1
102
RTVSPropertyOp31
 70
     1
102
RTVSPropertyOp32
 70
     1
  0
XRECORD
  5
2D5
102
{ACAD_REACTORS
330
2D4
102
}
330
2D4
100
AcDbXrecord
280
     1
102
RTVSPropertyOp0
 70
     1
102
RTVSPropertyOp1
 70
     1
102
RTVSPropertyOp2
 70
     1
102
RTVSPropertyOp3
 70
     1
102
RTVSPropertyOp4
 70
     1
102
RTVSPropertyOp5
 70
     1
102
RTVSPropertyOp6
 70
     1
102
RTVSPropertyOp7
 70
     1
102
RTVSPropertyOp8
 70
     1
102
RTVSPropertyOp9
 70
     1
102
RTVSPropertyOp10
 70
     1
102
RTVSPropertyOp11
 70
     1
102
RTVSPropertyOp12
 70
     1
102
RTVSPropertyOp13
 70
     1
102
RTVSPropertyOp14
 70
     1
102
RTVSPropertyOp15
 70
     1
102
RTVSPropertyOp16
 70
     1
102
RTVSPropertyOp17
 70
     1
102
RTVSPropertyOp18
 70
     1
102
RTVSPropertyOp19
 70
     1
102
RTVSPropertyOp20
 70
     1
102
RTVSPropertyOp21
 70
     1
102
RTVSPropertyOp22
 70
     1
102
RTVSPropertyOp23
 70
     1
102
RTVSPropertyOp24
 70
     1
102
RTVSPropertyOp25
 70
     1
102
RTVSPropertyOp26
 70
     1
102
RTVSPropertyOp27
 70
     1
102
RTVSPropertyOp28
 70
     1
102
RTVSPropertyOp29
 70
     1
102
RTVSPropertyOp30
 70
     1
102
RTVSPropertyOp31
 70
     1
102
RTVSPropertyOp32
 70
     1
  0
XRECORD
  5
2C9
102
{ACAD_REACTORS
330
2C8
102
}
330
2C8
100
AcDbXrecord
280
     1
102
RTVSPropertyOp0
 70
     1
102
RTVSPropertyOp1
 70
     1
102
RTVSPropertyOp2
 70
     1
102
RTVSPropertyOp3
 70
     1
102
RTVSPropertyOp4
 70
     1
102
RTVSPropertyOp5
 70
     1
102
RTVSPropertyOp6
 70
     1
102
RTVSPropertyOp7
 70
     1
102
RTVSPropertyOp8
 70
     1
102
RTVSPropertyOp9
 70
     1
102
RTVSPropertyOp10
 70
     1
102
RTVSPropertyOp11
 70
     1
102
RTVSPropertyOp12
 70
     1
102
RTVSPropertyOp13
 70
     1
102
RTVSPropertyOp14
 70
     1
102
RTVSPropertyOp15
 70
     1
102
RTVSPropertyOp16
 70
     1
102
RTVSPropertyOp17
 70
     1
102
RTVSPropertyOp18
 70
     1
102
RTVSPropertyOp19
 70
     1
102
RTVSPropertyOp20
 70
     1
102
RTVSPropertyOp21
 70
     1
102
RTVSPropertyOp22
 70
     1
102
RTVSPropertyOp23
 70
     1
102
RTVSPropertyOp24
 70
     1
102
RTVSPropertyOp25
 70
     1
102
RTVSPropertyOp26
 70
     1
102
RTVSPropertyOp27
 70
     1
102
RTVSPropertyOp28
 70
     1
102
RTVSPropertyOp29
 70
     1
102
RTVSPropertyOp30
 70
     1
102
RTVSPropertyOp31
 70
     1
102
RTVSPropertyOp32
 70
     1
  0
XRECORD
  5
2CB
102
{ACAD_REACTORS
330
2CA
102
}
330
2CA
100
AcDbXrecord
280
     1
102
RTVSPropertyOp0
 70
     1
102
RTVSPropertyOp1
 70
     1
102
RTVSPropertyOp2
 70
     1
102
RTVSPropertyOp3
 70
     1
102
RTVSPropertyOp4
 70
     1
102
RTVSPropertyOp5
 70
     1
102
RTVSPropertyOp6
 70
     1
102
RTVSPropertyOp7
 70
     1
102
RTVSPropertyOp8
 70
     1
102
RTVSPropertyOp9
 70
     1
102
RTVSPropertyOp10
 70
     1
102
RTVSPropertyOp11
 70
     1
102
RTVSPropertyOp12
 70
     1
102
RTVSPropertyOp13
 70
     1
102
RTVSPropertyOp14
 70
     1
102
RTVSPropertyOp15
 70
     1
102
RTVSPropertyOp16
 70
     1
102
RTVSPropertyOp17
 70
     1
102
RTVSPropertyOp18
 70
     1
102
RTVSPropertyOp19
 70
     1
102
RTVSPropertyOp20
 70
     1
102
RTVSPropertyOp21
 70
     1
102
RTVSPropertyOp22
 70
     1
102
RTVSPropertyOp23
 70
     1
102
RTVSPropertyOp24
 70
     1
102
RTVSPropertyOp25
 70
     1
102
RTVSPropertyOp26
 70
     1
102
RTVSPropertyOp27
 70
     1
102
RTVSPropertyOp28
 70
     1
102
RTVSPropertyOp29
 70
     1
102
RTVSPropertyOp30
 70
     1
102
RTVSPropertyOp31
 70
     1
102
RTVSPropertyOp32
 70
     1
  0
XRECORD
  5
2D3
102
{ACAD_REACTORS
330
2D2
102
}
330
2D2
100
AcDbXrecord
280
     1
102
RTVSPropertyOp0
 70
     1
102
RTVSPropertyOp1
 70
     1
102
RTVSPropertyOp2
 70
     1
102
RTVSPropertyOp3
 70
     1
102
RTVSPropertyOp4
 70
     1
102
RTVSPropertyOp5
 70
     1
102
RTVSPropertyOp6
 70
     1
102
RTVSPropertyOp7
 70
     1
102
RTVSPropertyOp8
 70
     1
102
RTVSPropertyOp9
 70
     1
102
RTVSPropertyOp10
 70
     1
102
RTVSPropertyOp11
 70
     1
102
RTVSPropertyOp12
 70
     1
102
RTVSPropertyOp13
 70
     1
102
RTVSPropertyOp14
 70
     1
102
RTVSPropertyOp15
 70
     1
102
RTVSPropertyOp16
 70
     1
102
RTVSPropertyOp17
 70
     1
102
RTVSPropertyOp18
 70
     1
102
RTVSPropertyOp19
 70
     1
102
RTVSPropertyOp20
 70
     1
102
RTVSPropertyOp21
 70
     1
102
RTVSPropertyOp22
 70
     1
102
RTVSPropertyOp23
 70
     1
102
RTVSPropertyOp24
 70
     1
102
RTVSPropertyOp25
 70
     1
102
RTVSPropertyOp26
 70
     1
102
RTVSPropertyOp27
 70
     1
102
RTVSPropertyOp28
 70
     1
102
RTVSPropertyOp29
 70
     1
102
RTVSPropertyOp30
 70
     1
102
RTVSPropertyOp31
 70
     1
102
RTVSPropertyOp32
 70
     1
  0
XRECORD
  5
2B7
102
{ACAD_REACTORS
330
2B6
102
}
330
2B6
100
AcDbXrecord
280
     1
102
RTVSPropertyOp0
 70
     1
102
RTVSPropertyOp1
 70
     1
102
RTVSPropertyOp2
 70
     1
102
RTVSPropertyOp3
 70
     1
102
RTVSPropertyOp4
 70
     1
102
RTVSPropertyOp5
 70
     1
102
RTVSPropertyOp6
 70
     1
102
RTVSPropertyOp7
 70
     1
102
RTVSPropertyOp8
 70
     1
102
RTVSPropertyOp9
 70
     1
102
RTVSPropertyOp10
 70
     1
102
RTVSPropertyOp11
 70
     1
102
RTVSPropertyOp12
 70
     1
102
RTVSPropertyOp13
 70
     1
102
RTVSPropertyOp14
 70
     1
102
RTVSPropertyOp15
 70
     1
102
RTVSPropertyOp16
 70
     1
102
RTVSPropertyOp17
 70
     1
102
RTVSPropertyOp18
 70
     1
102
RTVSPropertyOp19
 70
     1
102
RTVSPropertyOp20
 70
     1
102
RTVSPropertyOp21
 70
     1
102
RTVSPropertyOp22
 70
     1
102
RTVSPropertyOp23
 70
     1
102
RTVSPropertyOp24
 70
     1
102
RTVSPropertyOp25
 70
     1
102
RTVSPropertyOp26
 70
     1
102
RTVSPropertyOp27
 70
     1
102
RTVSPropertyOp28
 70
     1
102
RTVSPropertyOp29
 70
     1
102
RTVSPropertyOp30
 70
     1
102
RTVSPropertyOp31
 70
     1
102
RTVSPropertyOp32
 70
     1
  0
XRECORD
  5
2B9
102
{ACAD_REACTORS
330
2B8
102
}
330
2B8
100
AcDbXrecord
280
     1
102
RTVSPropertyOp0
 70
     1
102
RTVSPropertyOp1
 70
     1
102
RTVSPropertyOp2
 70
     1
102
RTVSPropertyOp3
 70
     1
102
RTVSPropertyOp4
 70
     1
102
RTVSPropertyOp5
 70
     1
102
RTVSPropertyOp6
 70
     1
102
RTVSPropertyOp7
 70
     1
102
RTVSPropertyOp8
 70
     1
102
RTVSPropertyOp9
 70
     1
102
RTVSPropertyOp10
 70
     1
102
RTVSPropertyOp11
 70
     1
102
RTVSPropertyOp12
 70
     1
102
RTVSPropertyOp13
 70
     1
102
RTVSPropertyOp14
 70
     1
102
RTVSPropertyOp15
 70
     1
102
RTVSPropertyOp16
 70
     1
102
RTVSPropertyOp17
 70
     1
102
RTVSPropertyOp18
 70
     1
102
RTVSPropertyOp19
 70
     1
102
RTVSPropertyOp20
 70
     1
102
RTVSPropertyOp21
 70
     1
102
RTVSPropertyOp22
 70
     1
102
RTVSPropertyOp23
 70
     1
102
RTVSPropertyOp24
 70
     1
102
RTVSPropertyOp25
 70
     1
102
RTVSPropertyOp26
 70
     1
102
RTVSPropertyOp27
 70
     1
102
RTVSPropertyOp28
 70
     1
102
RTVSPropertyOp29
 70
     1
102
RTVSPropertyOp30
 70
     1
102
RTVSPropertyOp31
 70
     1
102
RTVSPropertyOp32
 70
     1
  0
XRECORD
  5
2BB
102
{ACAD_REACTORS
330
2BA
102
}
330
2BA
100
AcDbXrecord
280
     1
102
RTVSPropertyOp0
 70
     1
102
RTVSPropertyOp1
 70
     1
102
RTVSPropertyOp2
 70
     1
102
RTVSPropertyOp3
 70
     1
102
RTVSPropertyOp4
 70
     1
102
RTVSPropertyOp5
 70
     1
102
RTVSPropertyOp6
 70
     1
102
RTVSPropertyOp7
 70
     1
102
RTVSPropertyOp8
 70
     1
102
RTVSPropertyOp9
 70
     1
102
RTVSPropertyOp10
 70
     1
102
RTVSPropertyOp11
 70
     1
102
RTVSPropertyOp12
 70
     1
102
RTVSPropertyOp13
 70
     1
102
RTVSPropertyOp14
 70
     1
102
RTVSPropertyOp15
 70
     1
102
RTVSPropertyOp16
 70
     1
102
RTVSPropertyOp17
 70
     1
102
RTVSPropertyOp18
 70
     1
102
RTVSPropertyOp19
 70
     1
102
RTVSPropertyOp20
 70
     1
102
RTVSPropertyOp21
 70
     1
102
RTVSPropertyOp22
 70
     1
102
RTVSPropertyOp23
 70
     1
102
RTVSPropertyOp24
 70
     1
102
RTVSPropertyOp25
 70
     1
102
RTVSPropertyOp26
 70
     1
102
RTVSPropertyOp27
 70
     1
102
RTVSPropertyOp28
 70
     1
102
RTVSPropertyOp29
 70
     1
102
RTVSPropertyOp30
 70
     1
102
RTVSPropertyOp31
 70
     1
102
RTVSPropertyOp32
 70
     1
  0
XRECORD
  5
2BD
102
{ACAD_REACTORS
330
2BC
102
}
330
2BC
100
AcDbXrecord
280
     1
102
RTVSPropertyOp0
 70
     1
102
RTVSPropertyOp1
 70
     1
102
RTVSPropertyOp2
 70
     1
102
RTVSPropertyOp3
 70
     1
102
RTVSPropertyOp4
 70
     1
102
RTVSPropertyOp5
 70
     1
102
RTVSPropertyOp6
 70
     1
102
RTVSPropertyOp7
 70
     1
102
RTVSPropertyOp8
 70
     1
102
RTVSPropertyOp9
 70
     1
102
RTVSPropertyOp10
 70
     1
102
RTVSPropertyOp11
 70
     1
102
RTVSPropertyOp12
 70
     1
102
RTVSPropertyOp13
 70
     1
102
RTVSPropertyOp14
 70
     1
102
RTVSPropertyOp15
 70
     1
102
RTVSPropertyOp16
 70
     1
102
RTVSPropertyOp17
 70
     1
102
RTVSPropertyOp18
 70
     1
102
RTVSPropertyOp19
 70
     1
102
RTVSPropertyOp20
 70
     1
102
RTVSPropertyOp21
 70
     1
102
RTVSPropertyOp22
 70
     1
102
RTVSPropertyOp23
 70
     1
102
RTVSPropertyOp24
 70
     1
102
RTVSPropertyOp25
 70
     1
102
RTVSPropertyOp26
 70
     1
102
RTVSPropertyOp27
 70
     1
102
RTVSPropertyOp28
 70
     1
102
RTVSPropertyOp29
 70
     1
102
RTVSPropertyOp30
 70
     1
102
RTVSPropertyOp31
 70
     1
102
RTVSPropertyOp32
 70
     1
  0
XRECORD
  5
2D1
102
{ACAD_REACTORS
330
2D0
102
}
330
2D0
100
AcDbXrecord
280
     1
102
RTVSPropertyOp0
 70
     1
102
RTVSPropertyOp1
 70
     1
102
RTVSPropertyOp2
 70
     1
102
RTVSPropertyOp3
 70
     1
102
RTVSPropertyOp4
 70
     1
102
RTVSPropertyOp5
 70
     1
102
RTVSPropertyOp6
 70
     1
102
RTVSPropertyOp7
 70
     1
102
RTVSPropertyOp8
 70
     1
102
RTVSPropertyOp9
 70
     1
102
RTVSPropertyOp10
 70
     1
102
RTVSPropertyOp11
 70
     1
102
RTVSPropertyOp12
 70
     1
102
RTVSPropertyOp13
 70
     1
102
RTVSPropertyOp14
 70
     1
102
RTVSPropertyOp15
 70
     1
102
RTVSPropertyOp16
 70
     1
102
RTVSPropertyOp17
 70
     1
102
RTVSPropertyOp18
 70
     1
102
RTVSPropertyOp19
 70
     1
102
RTVSPropertyOp20
 70
     1
102
RTVSPropertyOp21
 70
     1
102
RTVSPropertyOp22
 70
     1
102
RTVSPropertyOp23
 70
     1
102
RTVSPropertyOp24
 70
     1
102
RTVSPropertyOp25
 70
     1
102
RTVSPropertyOp26
 70
     1
102
RTVSPropertyOp27
 70
     1
102
RTVSPropertyOp28
 70
     1
102
RTVSPropertyOp29
 70
     1
102
RTVSPropertyOp30
 70
     1
102
RTVSPropertyOp31
 70
     1
102
RTVSPropertyOp32
 70
     1
  0
XRECORD
  5
2C7
102
{ACAD_REACTORS
330
2C6
102
}
330
2C6
100
AcDbXrecord
280
     1
102
RTVSPropertyOp0
 70
     1
102
RTVSPropertyOp1
 70
     1
102
RTVSPropertyOp2
 70
     1
102
RTVSPropertyOp3
 70
     1
102
RTVSPropertyOp4
 70
     1
102
RTVSPropertyOp5
 70
     1
102
RTVSPropertyOp6
 70
     1
102
RTVSPropertyOp7
 70
     1
102
RTVSPropertyOp8
 70
     1
102
RTVSPropertyOp9
 70
     1
102
RTVSPropertyOp10
 70
     1
102
RTVSPropertyOp11
 70
     1
102
RTVSPropertyOp12
 70
     1
102
RTVSPropertyOp13
 70
     1
102
RTVSPropertyOp14
 70
     1
102
RTVSPropertyOp15
 70
     1
102
RTVSPropertyOp16
 70
     1
102
RTVSPropertyOp17
 70
     1
102
RTVSPropertyOp18
 70
     1
102
RTVSPropertyOp19
 70
     1
102
RTVSPropertyOp20
 70
     1
102
RTVSPropertyOp21
 70
     1
102
RTVSPropertyOp22
 70
     1
102
RTVSPropertyOp23
 70
     1
102
RTVSPropertyOp24
 70
     1
102
RTVSPropertyOp25
 70
     1
102
RTVSPropertyOp26
 70
     1
102
RTVSPropertyOp27
 70
     1
102
RTVSPropertyOp28
 70
     1
102
RTVSPropertyOp29
 70
     1
102
RTVSPropertyOp30
 70
     1
102
RTVSPropertyOp31
 70
     1
102
RTVSPropertyOp32
 70
     1
  0
XRECORD
  5
2CF
102
{ACAD_REACTORS
330
2CE
102
}
330
2CE
100
AcDbXrecord
280
     1
102
RTVSPropertyOp0
 70
     1
102
RTVSPropertyOp1
 70
     1
102
RTVSPropertyOp2
 70
     1
102
RTVSPropertyOp3
 70
     1
102
RTVSPropertyOp4
 70
     1
102
RTVSPropertyOp5
 70
     1
102
RTVSPropertyOp6
 70
     1
102
RTVSPropertyOp7
 70
     1
102
RTVSPropertyOp8
 70
     1
102
RTVSPropertyOp9
 70
     1
102
RTVSPropertyOp10
 70
     1
102
RTVSPropertyOp11
 70
     1
102
RTVSPropertyOp12
 70
     1
102
RTVSPropertyOp13
 70
     1
102
RTVSPropertyOp14
 70
     1
102
RTVSPropertyOp15
 70
     1
102
RTVSPropertyOp16
 70
     1
102
RTVSPropertyOp17
 70
     1
102
RTVSPropertyOp18
 70
     1
102
RTVSPropertyOp19
 70
     1
102
RTVSPropertyOp20
 70
     1
102
RTVSPropertyOp21
 70
     1
102
RTVSPropertyOp22
 70
     1
102
RTVSPropertyOp23
 70
     1
102
RTVSPropertyOp24
 70
     1
102
RTVSPropertyOp25
 70
     1
102
RTVSPropertyOp26
 70
     1
102
RTVSPropertyOp27
 70
     1
102
RTVSPropertyOp28
 70
     1
102
RTVSPropertyOp29
 70
     1
102
RTVSPropertyOp30
 70
     1
102
RTVSPropertyOp31
 70
     1
102
RTVSPropertyOp32
 70
     1
  0
ENDSEC
  0
EOF
