  0
SECTION
  2
HEADER
  9
$ACADVER
  1
AC1018
  9
$ACADMAINTVER
 70
     0
  9
$DWGCODEPAGE
  3
ANSI_1252
  9
$INSBASE
 10
0.0
 20
0.0
 30
0.0
  9
$EXTMIN
 10
-234.7996767547531
 20
3.22020763640825
 30
0.0
  9
$EXTMAX
 10
62.20032324524499
 20
213.2202076364084
 30
0.0
  9
$LIMMIN
 10
0.0
 20
0.0
  9
$LIMMAX
 10
12.0
 20
9.0
  9
$ORTHOMODE
 70
     0
  9
$REGENMODE
 70
     1
  9
$FILLMODE
 70
     1
  9
$QTEXTMODE
 70
     0
  9
$MIRRTEXT
 70
     1
  9
$LTSCALE
 40
1.0
  9
$ATTMODE
 70
     1
  9
$TEXTSIZE
 40
0.2
  9
$TRACEWID
 40
0.05
  9
$TEXTSTYLE
  7
Standard
  9
$CLAYER
  8
0
  9
$CELTYPE
  6
ByLayer
  9
$CECOLOR
 62
   256
  9
$CELTSCALE
 40
1.0
  9
$DISPSILH
 70
     0
  9
$DIMSCALE
 40
1.0
  9
$DIMASZ
 40
0.18
  9
$DIMEXO
 40
0.0625
  9
$DIMDLI
 40
0.38
  9
$DIMRND
 40
0.0
  9
$DIMDLE
 40
0.0
  9
$DIMEXE
 40
0.18
  9
$DIMTP
 40
0.0
  9
$DIMTM
 40
0.0
  9
$DIMTXT
 40
0.18
  9
$DIMCEN
 40
0.09
  9
$DIMTSZ
 40
0.0
  9
$DIMTOL
 70
     0
  9
$DIMLIM
 70
     0
  9
$DIMTIH
 70
     1
  9
$DIMTOH
 70
     1
  9
$DIMSE1
 70
     0
  9
$DIMSE2
 70
     0
  9
$DIMTAD
 70
     0
  9
$DIMZIN
 70
     0
  9
$DIMBLK
  1

  9
$DIMASO
 70
     1
  9
$DIMSHO
 70
     1
  9
$DIMPOST
  1

  9
$DIMAPOST
  1

  9
$DIMALT
 70
     0
  9
$DIMALTD
 70
     2
  9
$DIMALTF
 40
25.4
  9
$DIMLFAC
 40
1.0
  9
$DIMTOFL
 70
     0
  9
$DIMTVP
 40
0.0
  9
$DIMTIX
 70
     0
  9
$DIMSOXD
 70
     0
  9
$DIMSAH
 70
     0
  9
$DIMBLK1
  1

  9
$DIMBLK2
  1

  9
$DIMSTYLE
  2
Standard
  9
$DIMCLRD
 70
     0
  9
$DIMCLRE
 70
     0
  9
$DIMCLRT
 70
     0
  9
$DIMTFAC
 40
1.0
  9
$DIMGAP
 40
0.09
  9
$DIMJUST
 70
     0
  9
$DIMSD1
 70
     0
  9
$DIMSD2
 70
     0
  9
$DIMTOLJ
 70
     1
  9
$DIMTZIN
 70
     0
  9
$DIMALTZ
 70
     0
  9
$DIMALTTZ
 70
     0
  9
$DIMUPT
 70
     0
  9
$DIMDEC
 70
     4
  9
$DIMTDEC
 70
     4
  9
$DIMALTU
 70
     2
  9
$DIMALTTD
 70
     2
  9
$DIMTXSTY
  7
Standard
  9
$DIMAUNIT
 70
     0
  9
$DIMADEC
 70
     0
  9
$DIMALTRND
 40
0.0
  9
$DIMAZIN
 70
     0
  9
$DIMDSEP
 70
    46
  9
$DIMATFIT
 70
     3
  9
$DIMFRAC
 70
     0
  9
$DIMLDRBLK
  1

  9
$DIMLUNIT
 70
     2
  9
$DIMLWD
 70
    -2
  9
$DIMLWE
 70
    -2
  9
$DIMTMOVE
 70
     0
  9
$LUNITS
 70
     2
  9
$LUPREC
 70
     4
  9
$SKETCHINC
 40
0.1
  9
$FILLETRAD
 40
0.5
  9
$AUNITS
 70
     0
  9
$AUPREC
 70
     0
  9
$MENU
  1
.
  9
$ELEVATION
 40
0.0
  9
$PELEVATION
 40
0.0
  9
$THICKNESS
 40
0.0
  9
$LIMCHECK
 70
     0
  9
$CHAMFERA
 40
0.5
  9
$CHAMFERB
 40
0.5
  9
$CHAMFERC
 40
1.0
  9
$CHAMFERD
 40
0.0
  9
$SKPOLY
 70
     0
  9
$TDCREATE
 40
2458146.463635128
  9
$TDUCREATE
 40
2458146.421968461
  9
$TDUPDATE
 40
2458146.463635856
  9
$TDUUPDATE
 40
2458146.42196919
  9
$TDINDWG
 40
0.0000000116
  9
$TDUSRTIMER
 40
0.0000000116
  9
$USRTIMER
 70
     1
  9
$ANGBASE
 50
0.0
  9
$ANGDIR
 70
     0
  9
$PDMODE
 70
     0
  9
$PDSIZE
 40
0.0
  9
$PLINEWID
 40
0.0
  9
$SPLFRAME
 70
     0
  9
$SPLINETYPE
 70
     6
  9
$SPLINESEGS
 70
     8
  9
$HANDSEED
  5
332
  9
$SURFTAB1
 70
     6
  9
$SURFTAB2
 70
     6
  9
$SURFTYPE
 70
     6
  9
$SURFU
 70
     6
  9
$SURFV
 70
     6
  9
$UCSBASE
  2

  9
$UCSNAME
  2

  9
$UCSORG
 10
0.0
 20
0.0
 30
0.0
  9
$UCSXDIR
 10
1.0
 20
0.0
 30
0.0
  9
$UCSYDIR
 10
0.0
 20
1.0
 30
0.0
  9
$UCSORTHOREF
  2

  9
$UCSORTHOVIEW
 70
     0
  9
$UCSORGTOP
 10
0.0
 20
0.0
 30
0.0
  9
$UCSORGBOTTOM
 10
0.0
 20
0.0
 30
0.0
  9
$UCSORGLEFT
 10
0.0
 20
0.0
 30
0.0
  9
$UCSORGRIGHT
 10
0.0
 20
0.0
 30
0.0
  9
$UCSORGFRONT
 10
0.0
 20
0.0
 30
0.0
  9
$UCSORGBACK
 10
0.0
 20
0.0
 30
0.0
  9
$PUCSBASE
  2

  9
$PUCSNAME
  2

  9
$PUCSORG
 10
0.0
 20
0.0
 30
0.0
  9
$PUCSXDIR
 10
1.0
 20
0.0
 30
0.0
  9
$PUCSYDIR
 10
0.0
 20
1.0
 30
0.0
  9
$PUCSORTHOREF
  2

  9
$PUCSORTHOVIEW
 70
     0
  9
$PUCSORGTOP
 10
0.0
 20
0.0
 30
0.0
  9
$PUCSORGBOTTOM
 10
0.0
 20
0.0
 30
0.0
  9
$PUCSORGLEFT
 10
0.0
 20
0.0
 30
0.0
  9
$PUCSORGRIGHT
 10
0.0
 20
0.0
 30
0.0
  9
$PUCSORGFRONT
 10
0.0
 20
0.0
 30
0.0
  9
$PUCSORGBACK
 10
0.0
 20
0.0
 30
0.0
  9
$USERI1
 70
     0
  9
$USERI2
 70
     0
  9
$USERI3
 70
     0
  9
$USERI4
 70
     0
  9
$USERI5
 70
     0
  9
$USERR1
 40
18.1
  9
$USERR2
 40
0.0
  9
$USERR3
 40
0.0
  9
$USERR4
 40
0.0
  9
$USERR5
 40
0.0
  9
$WORLDVIEW
 70
     1
  9
$SHADEDGE
 70
     3
  9
$SHADEDIF
 70
    70
  9
$TILEMODE
 70
     1
  9
$MAXACTVP
 70
    64
  9
$PINSBASE
 10
0.0
 20
0.0
 30
0.0
  9
$PLIMCHECK
 70
     0
  9
$PEXTMIN
 10
1.00000000000000E+20
 20
1.00000000000000E+20
 30
1.00000000000000E+20
  9
$PEXTMAX
 10
-1.00000000000000E+20
 20
-1.00000000000000E+20
 30
-1.00000000000000E+20
  9
$PLIMMIN
 10
0.0
 20
0.0
  9
$PLIMMAX
 10
12.0
 20
9.0
  9
$UNITMODE
 70
     0
  9
$VISRETAIN
 70
     1
  9
$PLINEGEN
 70
     0
  9
$PSLTSCALE
 70
     1
  9
$TREEDEPTH
 70
  3020
  9
$CMLSTYLE
  2
Standard
  9
$CMLJUST
 70
     0
  9
$CMLSCALE
 40
1.0
  9
$PROXYGRAPHICS
 70
     1
  9
$MEASUREMENT
 70
     1
  9
$CELWEIGHT
370
    -1
  9
$ENDCAPS
280
     0
  9
$JOINSTYLE
280
     0
  9
$LWDISPLAY
290
     0
  9
$INSUNITS
 70
     4
  9
$HYPERLINKBASE
  1

  9
$STYLESHEET
  1

  9
$XEDIT
290
     1
  9
$CEPSNTYPE
380
     0
  9
$PSTYLEMODE
290
     1
  9
$FINGERPRINTGUID
  2
{DA22B65A-010B-4753-99EE-3C3638009C4D}
  9
$VERSIONGUID
  2
{FAEB1C32-E019-11D5-929B-00C0DF256EC4}
  9
$EXTNAMES
290
     1
  9
$PSVPSCALE
 40
0.0
  9
$OLESTARTUP
290
     0
  9
$SORTENTS
280
   127
  9
$INDEXCTL
280
     0
  9
$HIDETEXT
280
     1
  9
$XCLIPFRAME
290
     0
  9
$HALOGAP
280
     0
  9
$OBSCOLOR
 70
   257
  9
$OBSLTYPE
280
     0
  9
$INTERSECTIONDISPLAY
280
     0
  9
$INTERSECTIONCOLOR
 70
   257
  9
$DIMASSOC
280
     2
  9
$PROJECTNAME
  1

  0
ENDSEC
  0
SECTION
  2
CLASSES
  0
CLASS
  1
ACDBDICTIONARYWDFLT
  2
AcDbDictionaryWithDefault
  3
ObjectDBX Classes
 90
        0
 91
        4
280
     0
281
     0
  0
CLASS
  1
VISUALSTYLE
  2
AcDbVisualStyle
  3
ObjectDBX Classes
 90
     4095
 91
        4
280
     0
281
     0
  0
CLASS
  1
MATERIAL
  2
AcDbMaterial
  3
ObjectDBX Classes
 90
     1153
 91
        4
280
     0
281
     0
  0
ENDSEC
  0
SECTION
  2
TABLES
  0
TABLE
  2
VPORT
  5
8
330
0
100
AcDbSymbolTable
 70
     1
  0
VPORT
  5
29
330
8
100
AcDbSymbolTableRecord
100
AcDbViewportTableRecord
  2
*Active
 70
     0
 10
0.0
 20
0.0
 11
1.0
 21
1.0
 12
-86.29967675475406
 22
108.2202076364083
 13
0.0
 23
0.0
 14
0.5
 24
0.5
 15
0.5
 25
0.5
 16
0.0
 26
0.0
 36
1.0
 17
0.0
 27
0.0
 37
0.0
 40
231.0000000000002
 41
1.60267857142857
 42
50.0
 43
0.0
 44
0.0
 50
0.0
 51
0.0
 71
     0
 72
   100
 73
     1
 74
     3
 75
     0
 76
     0
 77
     0
 78
     0
281
     0
 65
     1
110
0.0
120
0.0
130
0.0
111
1.0
121
0.0
131
0.0
112
0.0
122
1.0
132
0.0
 79
     0
146
0.0
  0
ENDTAB
  0
TABLE
  2
LTYPE
  5
5
330
0
100
AcDbSymbolTable
 70
     8
  0
LTYPE
  5
14
330
5
100
AcDbSymbolTableRecord
100
AcDbLinetypeTableRecord
  2
ByBlock
 70
     0
  3

 72
    65
 73
     0
 40
0.0
  0
LTYPE
  5
15
330
5
100
AcDbSymbolTableRecord
100
AcDbLinetypeTableRecord
  2
ByLayer
 70
     0
  3

 72
    65
 73
     0
 40
0.0
  0
LTYPE
  5
16
330
5
100
AcDbSymbolTableRecord
100
AcDbLinetypeTableRecord
  2
Continuous
 70
     0
  3
Solid line
 72
    65
 73
     0
 40
0.0
  0
LTYPE
  5
3F
330
5
100
AcDbSymbolTableRecord
100
AcDbLinetypeTableRecord
  2
DASHED
 70
     0
  3
Dashed
 72
    65
 73
     2
 40
15.0
 49
7.0
 74
     0
 49
-8.0
 74
     0
  0
LTYPE
  5
40
330
5
100
AcDbSymbolTableRecord
100
AcDbLinetypeTableRecord
  2
DOTTED
 70
     0
  3
Dotted
 72
    65
 73
     2
 40
1.0
 49
0.0
 74
     0
 49
-1.0
 74
     0
  0
LTYPE
  5
41
330
5
100
AcDbSymbolTableRecord
100
AcDbLinetypeTableRecord
  2
DOT_CENTER
 70
     0
  3
Dot_Center
 72
    65
 73
     4
 40
14.0
 49
12.0
 74
     0
 49
-1.0
 74
     0
 49
0.0
 74
     0
 49
-1.0
 74
     0
  0
LTYPE
  5
42
330
5
100
AcDbSymbolTableRecord
100
AcDbLinetypeTableRecord
  2
LONG_DASHED
 70
     0
  3
Long_Dashed
 72
    65
 73
     2
 40
15.0
 49
10.0
 74
     0
 49
-5.0
 74
     0
  0
LTYPE
  5
43
330
5
100
AcDbSymbolTableRecord
100
AcDbLinetypeTableRecord
  2
DASH_CENTER
 70
     0
  3
Dash_Center
 72
    65
 73
     4
 40
14.0
 49
11.0
 74
     0
 49
-1.0
 74
     0
 49
1.0
 74
     0
 49
-1.0
 74
     0
  0
LTYPE
  5
44
330
5
100
AcDbSymbolTableRecord
100
AcDbLinetypeTableRecord
  2
PHANTOM
 70
     0
  3
Phantom
 72
    65
 73
     6
 40
13.0
 49
10.0
 74
     0
 49
-1.0
 74
     0
 49
0.0
 74
     0
 49
-1.0
 74
     0
 49
0.0
 74
     0
 49
-1.0
 74
     0
  0
LTYPE
  5
45
330
5
100
AcDbSymbolTableRecord
100
AcDbLinetypeTableRecord
  2
CENTER_DASH_DASH
 70
     0
  3
Center_Dash_Dash
 72
    65
 73
     6
 40
14.0
 49
9.0
 74
     0
 49
-1.0
 74
     0
 49
1.0
 74
     0
 49
-1.0
 74
     0
 49
1.0
 74
     0
 49
-1.0
 74
     0
  0
ENDTAB
  0
TABLE
  2
LAYER
  5
2
330
0
100
AcDbSymbolTable
 70
     2
  0
LAYER
  5
10
330
2
100
AcDbSymbolTableRecord
100
AcDbLayerTableRecord
  2
0
 70
     0
 62
     7
  6
Continuous
370
    -3
390
F
  0
LAYER
  5
46
330
2
100
AcDbSymbolTableRecord
100
AcDbLayerTableRecord
  2
1
 70
     0
 62
     7
  6
Continuous
370
    -3
390
F
  0
ENDTAB
  0
TABLE
  2
STYLE
  5
3
330
0
100
AcDbSymbolTable
 70
     5
  0
STYLE
  5
11
330
3
100
AcDbSymbolTableRecord
100
AcDbTextStyleTableRecord
  2
Standard
 70
     0
 40
0.0
 41
1.0
 50
0.0
 71
     0
 42
0.2
  3
txt
  4

  0
STYLE
  5
BF
330
3
100
AcDbSymbolTableRecord
100
AcDbTextStyleTableRecord
  2
CONVERTER_11
 70
     0
 40
0.0
 41
0.9
 50
0.0
 71
     0
 42
0.2
  3
txt.shx
  4

  0
STYLE
  5
2C8
330
3
100
AcDbSymbolTableRecord
100
AcDbTextStyleTableRecord
  2
CONVERTER_12
 70
     0
 40
0.0
 41
0.81
 50
0.0
 71
     0
 42
0.2
  3
txt.shx
  4

  0
STYLE
  5
2CE
330
3
100
AcDbSymbolTableRecord
100
AcDbTextStyleTableRecord
  2
CONVERTER_13
 70
     0
 40
0.0
 41
0.855
 50
0.0
 71
     0
 42
0.2
  3
txt.shx
  4

  0
STYLE
  5
2D1
330
3
100
AcDbSymbolTableRecord
100
AcDbTextStyleTableRecord
  2
CONVERTER_14
 70
     0
 40
0.0
 41
0.72
 50
0.0
 71
     0
 42
0.2
  3
txt.shx
  4

  0
ENDTAB
  0
TABLE
  2
VIEW
  5
6
330
0
100
AcDbSymbolTable
 70
     0
  0
ENDTAB
  0
TABLE
  2
UCS
  5
7
330
0
100
AcDbSymbolTable
 70
     0
  0
ENDTAB
  0
TABLE
  2
APPID
  5
9
330
0
100
AcDbSymbolTable
 70
     1
  0
APPID
  5
12
330
9
100
AcDbSymbolTableRecord
100
AcDbRegAppTableRecord
  2
ACAD
 70
     0
  0
ENDTAB
  0
TABLE
  2
DIMSTYLE
  5
A
330
0
100
AcDbSymbolTable
 70
     4
100
AcDbDimStyleTable
  0
DIMSTYLE
105
27
330
A
100
AcDbSymbolTableRecord
100
AcDbDimStyleTableRecord
  2
Standard
 70
     0
178
     0
340
11
  0
DIMSTYLE
105
D1
102
{ACAD_REACTORS
330
D2
102
}
330
A
100
AcDbSymbolTableRecord
100
AcDbDimStyleTableRecord
  2
ME10_DIM_10
 70
     0
 41
3.5
 42
0.0
 44
1.5
 73
     0
 74
     0
 77
     1
 78
     8
140
3.5
147
1.5
172
     1
173
     1
174
     1
175
     1
176
     2
177
     2
178
     3
340
BF
  0
DIMSTYLE
105
1C4
102
{ACAD_REACTORS
330
1C5
102
}
330
A
100
AcDbSymbolTableRecord
100
AcDbDimStyleTableRecord
  2
ME10_DIM_11
 70
     0
 41
3.5
 42
0.0
 44
2.0
 73
     0
 74
     0
 77
     1
 78
     8
140
3.5
147
2.0
172
     1
173
     1
174
     1
175
     1
176
     2
177
     2
178
     3
340
BF
  0
DIMSTYLE
105
1CF
102
{ACAD_REACTORS
330
1D0
102
}
330
A
100
AcDbSymbolTableRecord
100
AcDbDimStyleTableRecord
  2
ME10_DIM_12
 70
     0
 41
3.5
 42
0.0
 44
1.5
 73
     0
 74
     0
 77
     1
 78
     8
140
3.5
147
1.5
172
     1
173
     1
174
     1
175
     1
176
     2
177
     2
271
     1
178
     3
271
     1
340
BF
  0
ENDTAB
  0
TABLE
  2
BLOCK_RECORD
  5
1
330
0
100
AcDbSymbolTable
 70
    20
  0
BLOCK_RECORD
  5
1F
330
1
100
AcDbSymbolTableRecord
100
AcDbBlockTableRecord
  2
*Model_Space
340
22
  0
BLOCK_RECORD
  5
1B
330
1
100
AcDbSymbolTableRecord
100
AcDbBlockTableRecord
  2
*Paper_Space
340
1E
  0
BLOCK_RECORD
  5
23
330
1
100
AcDbSymbolTableRecord
100
AcDbBlockTableRecord
  2
*Paper_Space0
340
26
  0
BLOCK_RECORD
  5
47
330
1
100
AcDbSymbolTableRecord
100
AcDbBlockTableRecord
  2
KSS-4-10-select__1
340
0
102
{BLKREFS
331
4B
102
}
  0
BLOCK_RECORD
  5
4A
330
1
100
AcDbSymbolTableRecord
100
AcDbBlockTableRecord
  2
AllgSicht1
340
0
102
{BLKREFS
331
7D
102
}
  0
BLOCK_RECORD
  5
4E
330
1
100
AcDbSymbolTableRecord
100
AcDbBlockTableRecord
  2
KSS-4-10-select__2
340
0
102
{BLKREFS
331
52
102
}
  0
BLOCK_RECORD
  5
51
330
1
100
AcDbSymbolTableRecord
100
AcDbBlockTableRecord
  2
Drfsicht1
340
0
102
{BLKREFS
331
7E
102
}
  0
BLOCK_RECORD
  5
55
330
1
100
AcDbSymbolTableRecord
100
AcDbBlockTableRecord
  2
KSS-4-10-select__3
340
0
102
{BLKREFS
331
59
102
}
  0
BLOCK_RECORD
  5
58
330
1
100
AcDbSymbolTableRecord
100
AcDbBlockTableRecord
  2
Rckans1
340
0
102
{BLKREFS
331
7F
102
}
  0
BLOCK_RECORD
  5
5C
330
1
100
AcDbSymbolTableRecord
100
AcDbBlockTableRecord
  2
KSS-4-10-select__4
340
0
102
{BLKREFS
331
60
102
}
  0
BLOCK_RECORD
  5
5F
330
1
100
AcDbSymbolTableRecord
100
AcDbBlockTableRecord
  2
SA_Rechts1
340
0
102
{BLKREFS
331
80
102
}
  0
BLOCK_RECORD
  5
63
330
1
100
AcDbSymbolTableRecord
100
AcDbBlockTableRecord
  2
KSS-4-10-select__5
340
0
102
{BLKREFS
331
67
102
}
  0
BLOCK_RECORD
  5
66
330
1
100
AcDbSymbolTableRecord
100
AcDbBlockTableRecord
  2
SA_links1
340
0
102
{BLKREFS
331
81
102
}
  0
BLOCK_RECORD
  5
6A
330
1
100
AcDbSymbolTableRecord
100
AcDbBlockTableRecord
  2
KSS-4-10-select__6
340
0
102
{BLKREFS
331
6E
102
}
  0
BLOCK_RECORD
  5
6D
330
1
100
AcDbSymbolTableRecord
100
AcDbBlockTableRecord
  2
Vordans1
340
0
102
{BLKREFS
331
82
102
}
  0
BLOCK_RECORD
  5
71
330
1
100
AcDbSymbolTableRecord
100
AcDbBlockTableRecord
  2
_rahmen
340
0
102
{BLKREFS
331
78
102
}
  0
BLOCK_RECORD
  5
74
330
1
100
AcDbSymbolTableRecord
100
AcDbBlockTableRecord
  2
_punkt
340
0
102
{BLKREFS
331
79
102
}
  0
BLOCK_RECORD
  5
77
330
1
100
AcDbSymbolTableRecord
100
AcDbBlockTableRecord
  2
A4I_CS
340
0
102
{BLKREFS
331
83
102
}
  0
BLOCK_RECORD
  5
7C
330
1
100
AcDbSymbolTableRecord
100
AcDbBlockTableRecord
  2
1
340
0
102
{BLKREFS
331
86
102
}
  0
BLOCK_RECORD
  5
C8
330
1
100
AcDbSymbolTableRecord
100
AcDbBlockTableRecord
  2
*D17
340
0
  0
BLOCK_RECORD
  5
1B9
330
1
100
AcDbSymbolTableRecord
100
AcDbBlockTableRecord
  2
*D18
340
0
  0
BLOCK_RECORD
  5
1C6
330
1
100
AcDbSymbolTableRecord
100
AcDbBlockTableRecord
  2
*D19
340
0
  0
ENDTAB
  0
ENDSEC
  0
SECTION
  2
BLOCKS
  0
BLOCK
  5
20
330
1F
100
AcDbEntity
  8
0
100
AcDbBlockBegin
  2
*Model_Space
 70
     0
 10
0.0
 20
0.0
 30
0.0
  3
*Model_Space
  1

  0
ENDBLK
  5
21
330
1F
100
AcDbEntity
  8
0
100
AcDbBlockEnd
  0
BLOCK
  5
1C
330
1B
100
AcDbEntity
 67
     1
  8
0
100
AcDbBlockBegin
  2
*Paper_Space
 70
     0
 10
0.0
 20
0.0
 30
0.0
  3
*Paper_Space
  1

  0
ENDBLK
  5
1D
330
1B
100
AcDbEntity
 67
     1
  8
0
100
AcDbBlockEnd
  0
BLOCK
  5
24
330
23
100
AcDbEntity
  8
0
100
AcDbBlockBegin
  2
*Paper_Space0
 70
     0
 10
0.0
 20
0.0
 30
0.0
  3
*Paper_Space0
  1

  0
ENDBLK
  5
25
330
23
100
AcDbEntity
  8
0
100
AcDbBlockEnd
  0
BLOCK
  5
48
330
47
100
AcDbEntity
  8
0
100
AcDbBlockBegin
  2
KSS-4-10-select__1
 70
     0
 10
-14.39711411430976
 20
56.54258677005508
 30
0.0
  3
KSS-4-10-select__1
  1

  0
LINE
  5
87
330
47
100
AcDbEntity
  8
0
  6
Continuous
 62
     7
100
AcDbLine
 10
-6.14999979727965
 20
76.2896793973753
 30
0.0
 11
-6.14999979727965
 21
74.294488868992
 31
0.0
  0
LINE
  5
88
330
47
100
AcDbEntity
  8
0
  6
Continuous
 62
     7
100
AcDbLine
 10
8.5000002027202
 20
107.1601529426115
 30
0.0
 11
12.39711451975019
 21
105.3479865416139
 31
0.0
  0
LINE
  5
89
330
47
100
AcDbEntity
  8
0
  6
Continuous
 62
     7
100
AcDbLine
 10
11.53108911596576
 20
102.8602818120149
 30
0.0
 11
11.53108911596576
 21
94.76701507227844
 31
0.0
  0
LINE
  5
8A
330
47
100
AcDbEntity
  8
0
  6
Continuous
 62
     7
100
AcDbLine
 10
9.15000020272034
 20
87.54467754689391
 30
0.0
 11
9.15000020272034
 21
89.5398680752772
 31
0.0
  0
LINE
  5
8B
330
47
100
AcDbEntity
  8
0
  6
Continuous
 62
     7
100
AcDbLine
 10
12.39711451975019
 20
92.35195156281735
 30
0.0
 11
12.39711451975019
 21
94.51701507227844
 31
0.0
  0
LINE
  5
8C
330
47
100
AcDbEntity
  8
0
  6
Continuous
 62
     7
100
AcDbLine
 10
12.39711451975019
 20
94.51701507227844
 30
0.0
 11
11.53108911596576
 21
94.76701507227844
 31
0.0
  0
LINE
  5
8D
330
47
100
AcDbEntity
  8
0
  6
Continuous
 62
     7
100
AcDbLine
 10
-14.39711411430964
 20
80.3125324003741
 30
0.0
 11
-13.53108871052533
 21
81.06253240037397
 31
0.0
  0
LINE
  5
8E
330
47
100
AcDbEntity
  8
0
  6
Continuous
 62
     7
100
AcDbLine
 10
-13.53108871052533
 20
80.06253240037412
 30
0.0
 11
-14.39711411430964
 21
80.3125324003741
 31
0.0
  0
LINE
  5
8F
330
47
100
AcDbEntity
  8
0
  6
Continuous
 62
     7
100
AcDbLine
 10
-6.60288548024981
 20
75.89746889091303
 30
0.0
 11
-14.39711411430964
 21
78.14746889091299
 31
0.0
  0
LINE
  5
90
330
47
100
AcDbEntity
  8
0
  6
Continuous
 62
     7
100
AcDbLine
 10
-6.60288548024981
 20
78.06253240037412
 30
0.0
 11
12.39711451975019
 21
94.51701507227844
 31
0.0
  0
LINE
  5
91
330
47
100
AcDbEntity
  8
0
  6
Continuous
 62
     7
100
AcDbLine
 10
-6.60288548024981
 20
87.15579914011073
 30
0.0
 11
12.39711451975019
 21
103.6102818120151
 31
0.0
  0
LINE
  5
92
330
47
100
AcDbEntity
  8
0
  6
Continuous
 62
     7
100
AcDbLine
 10
-14.39711411430976
 20
91.14350386970955
 30
0.0
 11
4.60288588569024
 21
107.5979865416139
 31
0.0
  0
LINE
  5
93
330
47
100
AcDbEntity
  8
0
  6
Continuous
 62
     7
100
AcDbLine
 10
-10.4999997972798
 20
90.70567027070715
 30
0.0
 11
8.5000002027202
 21
107.1601529426115
 31
0.0
  0
LINE
  5
94
330
47
100
AcDbEntity
  8
0
  6
Continuous
 62
     7
100
AcDbLine
 10
12.39711451975019
 20
105.3479865416139
 30
0.0
 11
12.39711451975019
 21
103.6102818120151
 31
0.0
  0
LINE
  5
95
330
47
100
AcDbEntity
  8
0
  6
Continuous
 62
     7
100
AcDbLine
 10
12.39711451975019
 20
105.3479865416139
 30
0.0
 11
-6.60288548024982
 21
88.89350386970956
 31
0.0
  0
LINE
  5
96
330
47
100
AcDbEntity
  8
0
  6
Continuous
 62
     7
100
AcDbLine
 10
-6.60288548024981
 20
75.89746889091303
 30
0.0
 11
12.39711451975019
 21
92.35195156281735
 31
0.0
  0
LINE
  5
97
330
47
100
AcDbEntity
  8
0
  6
Continuous
 62
     7
100
AcDbLine
 10
8.55000020272031
 20
70.842775447957
 30
0.0
 11
8.55000020272031
 21
86.73227370643029
 31
0.0
  0
LINE
  5
98
330
47
100
AcDbEntity
  8
0
  6
Continuous
 62
     7
100
AcDbLine
 10
4.75000020272036
 20
70.842775447957
 30
0.0
 11
4.75000020272036
 21
85.72935629862569
 31
0.0
  0
LINE
  5
99
330
47
100
AcDbEntity
  8
0
  6
Continuous
 62
     7
100
AcDbLine
 10
4.05000020272034
 20
83.12794798759327
 30
0.0
 11
4.05000020272034
 21
85.12313851597656
 31
0.0
  0
LINE
  5
9A
330
47
100
AcDbEntity
  8
0
  6
Continuous
 62
     7
100
AcDbLine
 10
3.45000020272032
 20
66.42604588865636
 30
0.0
 11
3.45000020272032
 21
82.31554414712967
 31
0.0
  0
LINE
  5
9B
330
47
100
AcDbEntity
  8
0
  6
Continuous
 62
     7
100
AcDbLine
 10
4.60288588569024
 20
107.5979865416139
 30
0.0
 11
8.5000002027202
 21
107.1601529426115
 31
0.0
  0
LINE
  5
9C
330
47
100
AcDbEntity
  8
0
  6
Continuous
 62
     7
100
AcDbLine
 10
-1.04999979727967
 20
78.71121842829264
 30
0.0
 11
-1.04999979727966
 21
80.70640895667593
 31
0.0
  0
LINE
  5
9D
330
47
100
AcDbEntity
  8
0
  6
Continuous
 62
     7
100
AcDbLine
 10
-1.64999979727968
 20
62.00931632935573
 30
0.0
 11
-1.64999979727968
 21
77.89881458782904
 31
0.0
  0
LINE
  5
9E
330
47
100
AcDbEntity
  8
0
  6
Continuous
 62
     7
100
AcDbLine
 10
-5.44999979727964
 20
62.00931632935573
 30
0.0
 11
-5.44999979727964
 21
76.89589718002442
 31
0.0
  0
LINE
  5
9F
330
47
100
AcDbEntity
  8
0
  6
Continuous
 62
     7
100
AcDbLine
 10
-0.34999979727964
 20
66.42604588865636
 30
0.0
 11
-0.34999979727964
 21
81.31262673932505
 31
0.0
  0
LINE
  5
A0
330
47
100
AcDbEntity
  8
0
  6
Continuous
 62
     7
100
AcDbLine
 10
-14.39711411430976
 20
89.40579914011073
 30
0.0
 11
-14.39711411430976
 21
91.14350386970955
 31
0.0
  0
LINE
  5
A1
330
47
100
AcDbEntity
  8
0
  6
Continuous
 62
     7
100
AcDbLine
 10
-13.53108871052533
 20
80.06253240037412
 30
0.0
 11
-13.53108871052533
 21
89.15579914011073
 31
0.0
  0
LINE
  5
A2
330
47
100
AcDbEntity
  8
0
  6
Continuous
 62
     7
100
AcDbLine
 10
-14.39711411430964
 20
78.14746889091299
 30
0.0
 11
-14.39711411430964
 21
80.3125324003741
 31
0.0
  0
LINE
  5
A3
330
47
100
AcDbEntity
  8
0
  6
Continuous
 62
     7
100
AcDbLine
 10
-11.14999979727966
 20
76.92943428654091
 30
0.0
 11
-11.14999979727966
 21
74.294488868992
 31
0.0
  0
LINE
  5
A4
330
47
100
AcDbEntity
  8
0
  6
Continuous
 62
     7
100
AcDbLine
 10
-14.39711411430976
 20
91.14350386970955
 30
0.0
 11
-10.4999997972798
 21
90.70567027070715
 31
0.0
  0
LINE
  5
A5
330
47
100
AcDbEntity
  8
0
  6
Continuous
 62
     7
100
AcDbLine
 10
-10.74999979727966
 20
57.59258677005509
 30
0.0
 11
-10.74999979727966
 21
73.61625587067947
 31
0.0
  0
LINE
  5
A6
330
47
100
AcDbEntity
  8
0
  6
Continuous
 62
     7
100
AcDbLine
 10
-13.53108871052533
 20
89.15579914011073
 30
0.0
 11
-14.39711411430976
 21
89.40579914011073
 31
0.0
  0
LINE
  5
A7
330
47
100
AcDbEntity
  8
0
  6
Continuous
 62
     7
100
AcDbLine
 10
-6.60288548024982
 20
88.89350386970956
 30
0.0
 11
-6.60288548024981
 21
87.15579914011073
 31
0.0
  0
LINE
  5
A8
330
47
100
AcDbEntity
  8
0
  6
Continuous
 62
     7
100
AcDbLine
 10
-7.46891088403425
 20
87.40579914011073
 30
0.0
 11
-7.46891088403425
 21
78.31253240037412
 31
0.0
  0
LINE
  5
A9
330
47
100
AcDbEntity
  8
0
  6
Continuous
 62
     7
100
AcDbLine
 10
-6.60288548024981
 20
78.06253240037412
 30
0.0
 11
-6.60288548024981
 21
75.89746889091303
 31
0.0
  0
LINE
  5
AA
330
47
100
AcDbEntity
  8
0
  6
Continuous
 62
     7
100
AcDbLine
 10
-6.54999979727966
 20
57.59258677005509
 30
0.0
 11
-6.54999979727967
 21
73.61625587067948
 31
0.0
  0
LINE
  5
AB
330
47
100
AcDbEntity
  8
0
  6
Continuous
 62
     7
100
AcDbLine
 10
-6.60288548024981
 20
87.15579914011073
 30
0.0
 11
-7.46891088403425
 21
87.40579914011073
 31
0.0
  0
LINE
  5
AC
330
47
100
AcDbEntity
  8
0
  6
Continuous
 62
     7
100
AcDbLine
 10
-6.60288548024981
 20
78.06253240037412
 30
0.0
 11
-7.46891088403425
 21
78.31253240037412
 31
0.0
  0
LINE
  5
AD
330
47
100
AcDbEntity
  8
0
  6
Continuous
 62
     7
100
AcDbLine
 10
-6.60288548024982
 20
88.89350386970956
 30
0.0
 11
-10.4999997972798
 21
90.70567027070715
 31
0.0
  0
LINE
  5
AE
330
47
100
AcDbEntity
  8
0
  6
Continuous
 62
     7
100
AcDbLine
 10
-7.46891088403425
 20
78.31253240037412
 30
0.0
 11
11.53108911596576
 21
94.76701507227844
 31
0.0
  0
SPLINE
  5
AF
330
47
100
AcDbEntity
  8
0
  6
Continuous
 62
     7
100
AcDbSpline
210
0.0
220
0.0
230
1.0
 70
     8
 71
     3
 72
    19
 73
    15
 74
    13
 42
0.000000001
 43
0.0000000001
 44
0.00000001
 40
0.0
 40
0.0
 40
0.0
 40
0.0
 40
0.334550836927424
 40
0.7260392952550612
 40
1.200239108719969
 40
1.754805032955804
 40
2.370553041616876
 40
3.019000851135378
 40
3.66744866065387
 40
4.283196669314938
 40
4.837762593550781
 40
5.311962407015698
 40
5.70345086534331
 40
6.03800170227076
 40
6.03800170227076
 40
6.03800170227076
 40
6.03800170227076
 10
-6.149999797279655
 20
74.294488868992
 30
0.0
 10
-6.169049230360126
 20
74.18247104022322
 30
0.0
 10
-6.210390161394655
 20
73.93937093708757
 30
0.0
 10
-6.497028871075836
 20
73.635048615239
 30
0.0
 10
-6.897663612411709
 20
73.3829885754365
 30
0.0
 10
-7.416029796515062
 20
73.19159979843155
 30
0.0
 10
-8.011849718290133
 20
73.07154541224419
 30
0.0
 10
-8.649999797279657
 20
73.03061065876605
 30
0.0
 10
-9.288149876269184
 20
73.07154541224418
 30
0.0
 10
-9.883969798044246
 20
73.19159979843154
 30
0.0
 10
-10.40233598214762
 20
73.38298857543651
 30
0.0
 10
-10.80297072348347
 20
73.63504861523899
 30
0.0
 10
-11.08960943316468
 20
73.9393709370876
 30
0.0
 10
-11.13095036419919
 20
74.18247104022318
 30
0.0
 10
-11.14999979727966
 20
74.294488868992
 30
0.0
 11
-6.149999797279655
 21
74.294488868992
 31
0.0
 11
-6.235185875360481
 21
73.97096514886718
 31
0.0
 11
-6.484936287818567
 21
73.669488868992
 31
0.0
 11
-6.882233315610158
 21
73.41060562815727
 31
0.0
 11
-7.399999797279651
 21
73.21195711426145
 31
0.0
 11
-8.00295235702998
 21
73.08708190803242
 31
0.0
 11
-8.649999797279662
 21
73.044488868992
 31
0.0
 11
-9.297047237529334
 21
73.08708190803242
 31
0.0
 11
-9.899999797279659
 21
73.21195711426145
 31
0.0
 11
-10.41776627894917
 21
73.41060562815726
 31
0.0
 11
-10.81506330674076
 21
73.669488868992
 31
0.0
 11
-11.06481371919884
 21
73.97096514886715
 31
0.0
 11
-11.14999979727966
 21
74.294488868992
 31
0.0
  0
SPLINE
  5
B0
330
47
100
AcDbEntity
  8
0
  6
Continuous
 62
     7
100
AcDbSpline
210
0.0
220
0.0
230
1.0
 70
     8
 71
     3
 72
     9
 73
     5
 74
     3
 42
0.000000001
 43
0.0000000001
 44
0.00000001
 40
0.0
 40
0.0
 40
0.0
 40
0.0
 40
0.391488459808432
 40
0.7260392989052848
 40
0.7260392989052848
 40
0.7260392989052848
 40
0.7260392989052848
 10
8.815063712181427
 20
86.91967754689391
 30
0.0
 10
8.911800095221388
 20
87.01324002720001
 30
0.0
 10
9.091203619393719
 20
87.18675738116153
 30
0.0
 10
9.131453509238018
 20
87.4317757861696
 30
0.0
 10
9.150000202720335
 20
87.54467754689391
 30
0.0
 11
8.815063712181427
 21
86.91967754689391
 31
0.0
 11
9.064814124639513
 21
87.22115382676907
 31
0.0
 11
9.150000202720335
 21
87.54467754689391
 31
0.0
  0
SPLINE
  5
B1
330
47
100
AcDbEntity
  8
0
  6
Continuous
 62
     7
100
AcDbSpline
210
0.0
220
0.0
230
1.0
 70
     8
 71
     3
 72
    13
 73
     9
 74
     7
 42
0.000000001
 43
0.0000000001
 44
0.00000001
 40
0.0
 40
0.0
 40
0.0
 40
0.0
 40
0.5993786083926905
 40
1.222413879707766
 40
1.840158178460699
 40
2.424258567741297
 40
2.950380015274906
 40
3.402395984180569
 40
3.402395984180569
 40
3.402395984180569
 40
3.402395984180569
 10
5.550003541298537
 20
86.42217951294676
 30
0.0
 10
5.746224146681258
 20
86.38300705194767
 30
0.0
 10
6.146409921739979
 20
86.30311606054273
 30
0.0
 10
6.761949133520107
 20
86.28443012585775
 30
0.0
 10
7.369918431655726
 20
86.3334790184015
 30
0.0
 10
7.932737400119245
 20
86.45928520706462
 30
0.0
 10
8.426981250512735
 20
86.6395370634481
 30
0.0
 10
8.692405913445707
 20
86.83113601059132
 30
0.0
 10
8.815063712181427
 20
86.91967754689391
 30
0.0
 11
5.550003541298537
 21
86.42217951294676
 31
0.0
 11
6.140760798000708
 21
86.32088501203668
 31
0.0
 11
6.763297367426858
 21
86.29596183140164
 31
0.0
 11
7.37876348688809
 21
86.34896630243966
 31
0.0
 11
7.948750807782915
 21
86.47658966827044
 31
0.0
 11
8.43768798771622
 21
86.67086838177478
 31
0.0
 11
8.815063712181427
 21
86.91967754689391
 31
0.0
  0
SPLINE
  5
B2
330
47
100
AcDbEntity
  8
0
  6
Continuous
 62
     7
100
AcDbSpline
210
0.0
220
0.0
230
1.0
 70
     8
 71
     3
 72
     9
 73
     5
 74
     3
 42
0.000000001
 43
0.0000000001
 44
0.00000001
 40
0.0
 40
0.0
 40
0.0
 40
0.0
 40
0.3914884598084395
 40
0.7260392989052797
 40
0.7260392989052797
 40
0.7260392989052797
 40
0.7260392989052797
 10
3.715063712181433
 20
82.50294798759327
 30
0.0
 10
3.811800095221391
 20
82.59651046789934
 30
0.0
 10
3.991203619393714
 20
82.77002782186094
 30
0.0
 10
4.031453509238016
 20
83.01504622686895
 30
0.0
 10
4.050000202720341
 20
83.12794798759327
 30
0.0
 11
3.715063712181433
 21
82.50294798759327
 31
0.0
 11
3.964814124639513
 21
82.80442426746845
 31
0.0
 11
4.050000202720341
 21
83.12794798759327
 31
0.0
  0
SPLINE
  5
B3
330
47
100
AcDbEntity
  8
0
  6
Continuous
 62
     7
100
AcDbSpline
210
0.0
220
0.0
230
1.0
 70
     8
 71
     3
 72
    13
 73
     9
 74
     7
 42
0.000000001
 43
0.0000000001
 44
0.00000001
 40
0.0
 40
0.0
 40
0.0
 40
0.0
 40
0.599378608392691
 40
1.222413879707767
 40
1.840158178460698
 40
2.42425856774129
 40
2.9503800152749
 40
3.402395984180566
 40
3.402395984180566
 40
3.402395984180566
 40
3.402395984180566
 10
0.4500035412985426
 20
82.00544995364612
 30
0.0
 10
0.6462241466812629
 20
81.96627749264704
 30
0.0
 10
1.046409921739984
 20
81.8863865012421
 30
0.0
 10
1.661949133520114
 20
81.8677005665571
 30
0.0
 10
2.269918431655728
 20
81.91674945910088
 30
0.0
 10
2.83273740011925
 20
82.04255564776398
 30
0.0
 10
3.326981250512724
 20
82.2228075041475
 30
0.0
 10
3.592405913445711
 20
82.41440645129072
 30
0.0
 10
3.715063712181433
 20
82.50294798759327
 30
0.0
 11
0.4500035412985426
 21
82.00544995364612
 31
0.0
 11
1.040760798000713
 21
81.90415545273605
 31
0.0
 11
1.663297367426864
 21
81.879232272101
 31
0.0
 11
2.278763486888095
 21
81.93223674313903
 31
0.0
 11
2.848750807782913
 21
82.0598601089698
 31
0.0
 11
3.337687987716214
 21
82.25413882247416
 31
0.0
 11
3.715063712181433
 21
82.50294798759327
 31
0.0
  0
SPLINE
  5
B4
330
47
100
AcDbEntity
  8
0
  6
Continuous
 62
     7
100
AcDbSpline
210
0.0
220
0.0
230
1.0
 70
     8
 71
     3
 72
    13
 73
     9
 74
     7
 42
0.000000001
 43
0.0000000001
 44
0.00000001
 40
0.0
 40
0.0
 40
0.0
 40
0.0
 40
0.5993786083926975
 40
1.222413879707774
 40
1.840158178460707
 40
2.424258567741298
 40
2.950380015274913
 40
3.402395984180571
 40
3.402395984180571
 40
3.402395984180571
 40
3.402395984180571
 10
-4.649996458701466
 20
77.58872039434549
 30
0.0
 10
-4.453775853318744
 20
77.54954793334642
 30
0.0
 10
-4.05359007826002
 20
77.46965694194145
 30
0.0
 10
-3.438050866479884
 20
77.45097100725647
 30
0.0
 10
-2.830081568344276
 20
77.5000198998003
 30
0.0
 10
-2.267262599880747
 20
77.62582608846333
 30
0.0
 10
-1.773018749487271
 20
77.80607794484683
 30
0.0
 10
-1.507594086554289
 20
77.99767689199012
 30
0.0
 10
-1.384936287818569
 20
78.08621842829264
 30
0.0
 11
-4.649996458701466
 21
77.58872039434549
 31
0.0
 11
-4.059239201999288
 21
77.48742589343541
 31
0.0
 11
-3.436702632573137
 21
77.46250271280037
 31
0.0
 11
-2.821236513111906
 21
77.51550718383841
 31
0.0
 11
-2.251249192217085
 21
77.64313054966917
 31
0.0
 11
-1.762312012283779
 21
77.83740926317353
 31
0.0
 11
-1.384936287818569
 21
78.08621842829264
 31
0.0
  0
SPLINE
  5
B5
330
47
100
AcDbEntity
  8
0
  6
Continuous
 62
     7
100
AcDbSpline
210
0.0
220
0.0
230
1.0
 70
     8
 71
     3
 72
    13
 73
     9
 74
     7
 42
0.000000001
 43
0.0000000001
 44
0.00000001
 40
0.0
 40
0.0
 40
0.0
 40
0.0
 40
0.4578702356790305
 40
1.006674464937683
 40
1.642280801588911
 40
2.344461755246457
 40
3.083858634499076
 40
3.826752048789595
 40
3.826752048789595
 40
3.826752048789595
 40
3.826752048789595
 10
-11.51635197054523
 20
77.31586449132615
 30
0.0
 10
-11.41991743498614
 20
77.19609701011217
 30
0.0
 10
-11.20789624984606
 20
76.93277598525552
 30
0.0
 10
-10.72315020407805
 20
76.65714982994317
 30
0.0
 10
-10.133964869667
 20
76.43643188596671
 30
0.0
 10
-9.45253873739693
 20
76.29887505835009
 30
0.0
 10
-8.724242316825624
 20
76.23960920182029
 30
0.0
 10
-8.230900431865178
 20
76.27721388795638
 30
0.0
 10
-7.983647624014076
 20
76.2960605886076
 30
0.0
 11
-11.51635197054523
 21
77.31586449132615
 31
0.0
 11
-11.20944019197426
 21
76.97608468587977
 31
0.0
 11
-10.74441393346481
 21
76.68464571993704
 31
0.0
 11
-10.14999949987746
 21
76.45955263601098
 31
0.0
 11
-9.462919625291462
 21
76.31471017804262
 31
0.0
 11
-8.725619399718598
 21
76.25906738436596
 31
0.0
 11
-7.983647624014076
 21
76.2960605886076
 31
0.0
  0
SPLINE
  5
B6
330
47
100
AcDbEntity
  8
0
  6
Continuous
 62
     7
100
AcDbSpline
210
0.0
220
0.0
230
1.0
 70
     8
 71
     3
 72
     9
 73
     5
 74
     3
 42
0.000000001
 43
0.0000000001
 44
0.00000001
 40
0.0
 40
0.0
 40
0.0
 40
0.0
 40
0.2975312289372473
 40
0.5517898661336982
 40
0.5517898661336982
 40
0.5517898661336982
 40
0.5517898661336982
 10
-1.90455153008925
 20
61.53431632935573
 30
0.0
 10
-1.831031879106671
 20
61.60542381426476
 30
0.0
 10
-1.694685204889339
 20
61.73729700550944
 30
0.0
 10
-1.664095284297571
 20
61.92351099137976
 30
0.0
 10
-1.649999797279676
 20
62.00931632935573
 30
0.0
 11
-1.90455153008925
 21
61.53431632935573
 31
0.0
 11
-1.714741216621105
 21
61.76343830206086
 31
0.0
 11
-1.649999797279676
 21
62.00931632935573
 31
0.0
  0
SPLINE
  5
B7
330
47
100
AcDbEntity
  8
0
  6
Continuous
 62
     7
100
AcDbSpline
210
0.0
220
0.0
230
1.0
 70
     8
 71
     3
 72
    17
 73
    13
 74
    11
 42
0.000000001
 43
0.0000000001
 44
0.00000001
 40
0.0
 40
0.0
 40
0.0
 40
0.0
 40
0.254258630406016
 40
0.551789861400007
 40
0.912181719198901
 40
1.333651820587104
 40
1.801620305455763
 40
2.294440638339711
 40
2.787260971000626
 40
3.255229454960204
 40
3.676699556955603
 40
4.03709142042812
 40
4.03709142042812
 40
4.03709142042812
 40
4.03709142042812
 10
-0.3499997972796365
 20
66.42604588865636
 30
0.0
 10
-0.3355222173886259
 20
66.34091232121962
 30
0.0
 10
-0.304103088866
 20
66.15615620101318
 30
0.0
 10
-0.0862578882322806
 20
65.92487162185812
 30
0.0
 10
0.2182256089503955
 20
65.7333040664068
 30
0.0
 10
0.6121787902464952
 20
65.5878575947197
 30
0.0
 10
1.065024069919312
 20
65.49657733284504
 30
0.0
 10
1.549929580806685
 20
65.46562260565625
 30
0.0
 10
2.035251649617293
 20
65.49615629888967
 30
0.0
 10
2.4869485450282
 20
65.58937782357293
 30
0.0
 10
2.884491201939795
 20
65.72853118286352
 30
0.0
 10
3.097338519163772
 20
65.88084039549018
 30
0.0
 10
3.195448469910758
 20
65.95104588865637
 30
0.0
 11
-0.3499997972796365
 21
66.42604588865636
 31
0.0
 11
-0.2852583779382147
 21
66.1801678613615
 31
0.0
 11
-0.0954480644700766
 21
65.95104588865638
 31
0.0
 11
0.2064976766515336
 21
65.75429462562197
 31
0.0
 11
0.6000002027203521
 21
65.60332175506116
 31
0.0
 11
1.058244148130593
 21
65.50841659832709
 31
0.0
 11
1.550000202720341
 21
65.47604588865637
 31
0.0
 11
2.04175625731009
 21
65.50841659832709
 31
0.0
 11
2.500000202720329
 21
65.60332175506116
 31
0.0
 11
2.893502728789148
 21
65.75429462562197
 31
0.0
 11
3.195448469910758
 21
65.95104588865637
 31
0.0
  0
SPLINE
  5
B8
330
47
100
AcDbEntity
  8
0
  6
Continuous
 62
     7
100
AcDbSpline
210
0.0
220
0.0
230
1.0
 70
     8
 71
     3
 72
    17
 73
    13
 74
    11
 42
0.000000001
 43
0.0000000001
 44
0.00000001
 40
0.0
 40
0.0
 40
0.0
 40
0.0
 40
0.2542586304060151
 40
0.5517898614000298
 40
0.9121817191989192
 40
1.333651820587122
 40
1.801620305455778
 40
2.29444063833972
 40
2.787260971000636
 40
3.255229454960213
 40
3.676699556955604
 40
4.037091420428133
 40
4.037091420428133
 40
4.037091420428133
 40
4.037091420428133
 10
-5.449999797279638
 20
62.00931632935573
 30
0.0
 10
-5.43552221738863
 20
61.92418276191896
 30
0.0
 10
-5.404103088865996
 20
61.73942664171255
 30
0.0
 10
-5.1862578882323
 20
61.50814206255745
 30
0.0
 10
-4.881774391049596
 20
61.31657450710617
 30
0.0
 10
-4.487821209753506
 20
61.17112803541904
 30
0.0
 10
-4.03497593008069
 20
61.07984777354437
 30
0.0
 10
-3.550070419193318
 20
61.04889304635562
 30
0.0
 10
-3.064748350382713
 20
61.07942673958904
 30
0.0
 10
-2.613051454971809
 20
61.1726482642723
 30
0.0
 10
-2.215508798060203
 20
61.31180162356285
 30
0.0
 10
-2.002661480836237
 20
61.46411083618955
 30
0.0
 10
-1.90455153008925
 20
61.53431632935573
 30
0.0
 11
-5.449999797279638
 21
62.00931632935573
 31
0.0
 11
-5.38525837793822
 21
61.76343830206086
 31
0.0
 11
-5.195448064470079
 21
61.53431632935573
 31
0.0
 11
-4.893502323348464
 21
61.33756506632131
 31
0.0
 11
-4.499999797279646
 21
61.18659219576051
 31
0.0
 11
-4.041755851869409
 21
61.09168703902645
 31
0.0
 11
-3.549999797279665
 21
61.05931632935574
 31
0.0
 11
-3.058243742689916
 21
61.09168703902645
 31
0.0
 11
-2.599999797279676
 21
61.18659219576051
 31
0.0
 11
-2.20649727121086
 21
61.33756506632132
 31
0.0
 11
-1.90455153008925
 21
61.53431632935573
 31
0.0
  0
SPLINE
  5
B9
330
47
100
AcDbEntity
  8
0
  6
Continuous
 62
     7
100
AcDbSpline
210
0.0
220
0.0
230
1.0
 70
     8
 71
     3
 72
     9
 73
     5
 74
     3
 42
0.000000001
 43
0.0000000001
 44
0.00000001
 40
0.0
 40
0.0
 40
0.0
 40
0.0
 40
0.3914884598084283
 40
0.7260392989052807
 40
0.7260392989052807
 40
0.7260392989052807
 40
0.7260392989052807
 10
-1.384936287818569
 20
78.08621842829264
 30
0.0
 10
-1.288199904778611
 20
78.1797809085987
 30
0.0
 10
-1.108796380606281
 20
78.35329826256029
 30
0.0
 10
-1.068546490761987
 20
78.59831666756831
 30
0.0
 10
-1.049999797279668
 20
78.71121842829264
 30
0.0
 11
-1.384936287818569
 21
78.08621842829264
 31
0.0
 11
-1.135185875360489
 21
78.3876947081678
 31
0.0
 11
-1.049999797279668
 21
78.71121842829264
 31
0.0
  0
SPLINE
  5
BA
330
47
100
AcDbEntity
  8
0
  6
Continuous
 62
     7
100
AcDbSpline
210
0.0
220
0.0
230
1.0
 70
     8
 71
     3
 72
     9
 73
     5
 74
     3
 42
0.000000001
 43
0.0000000001
 44
0.00000001
 40
0.0
 40
0.0
 40
0.0
 40
0.0
 40
0.3288503058942935
 40
0.6098730103908976
 40
0.6098730103908976
 40
0.6098730103908976
 40
0.6098730103908976
 10
-6.831346449332337
 20
57.06758677005509
 30
0.0
 10
-6.750087887663969
 20
57.14617925342978
 30
0.0
 10
-6.599388930128306
 20
57.29193383224679
 30
0.0
 10
-6.5655790197857
 20
57.49774929116299
 30
0.0
 10
-6.549999797279661
 20
57.59258677005509
 30
0.0
 11
-6.831346449332337
 21
57.06758677005509
 31
0.0
 11
-6.621556102867557
 21
57.32082684515021
 31
0.0
 11
-6.549999797279661
 21
57.59258677005509
 31
0.0
  0
SPLINE
  5
BB
330
47
100
AcDbEntity
  8
0
  6
Continuous
 62
     7
100
AcDbSpline
210
0.0
220
0.0
230
1.0
 70
     8
 71
     3
 72
    17
 73
    13
 74
    11
 42
0.000000001
 43
0.0000000001
 44
0.00000001
 40
0.0
 40
0.0
 40
0.0
 40
0.0
 40
0.2810226977061688
 40
0.6098730056572321
 40
1.008200848329762
 40
1.474036223461361
 40
1.991264548780618
 40
2.535960706132366
 40
3.08065686326108
 40
3.597885187671247
 40
4.063720563410033
 40
4.462048411756219
 40
4.462048411756219
 40
4.462048411756219
 40
4.462048411756219
 10
-10.74999979727966
 20
57.59258677005509
 30
0.0
 10
-10.73399826155704
 20
57.49849177415182
 30
0.0
 10
-10.6992718574467
 20
57.29428764043779
 30
0.0
 10
-10.45849558037594
 20
57.03865731778497
 30
0.0
 10
-10.12196118953968
 20
56.82692475610232
 30
0.0
 10
-9.686539252114233
 20
56.66616812982551
 30
0.0
 10
-9.186026048394229
 20
56.56527941935893
 30
0.0
 10
-8.650077852180898
 20
56.53106629995401
 30
0.0
 10
-8.113669249777365
 20
56.56481406610021
 30
0.0
 10
-7.614425312985734
 20
56.66784838318098
 30
0.0
 10
-7.175036060156886
 20
56.82164946283366
 30
0.0
 10
-6.939783763110309
 20
56.98999122512379
 30
0.0
 10
-6.831346449332337
 20
57.06758677005509
 30
0.0
 11
-10.74999979727966
 21
57.59258677005509
 31
0.0
 11
-10.67844349169177
 21
57.32082684515021
 31
0.0
 11
-10.46865314522698
 21
57.06758677005509
 31
0.0
 11
-10.13492364188204
 21
56.8501248477539
 31
0.0
 11
-9.699999797279665
 21
56.68326009608143
 31
0.0
 11
-9.19351964708939
 21
56.57836492284903
 31
0.0
 11
-8.649999797279662
 21
56.54258677005508
 31
0.0
 11
-8.106479947469936
 21
56.57836492284903
 31
0.0
 11
-7.599999797279668
 21
56.68326009608143
 31
0.0
 11
-7.165075952677287
 21
56.8501248477539
 31
0.0
 11
-6.831346449332337
 21
57.06758677005509
 31
0.0
  0
SPLINE
  5
BC
330
47
100
AcDbEntity
  8
0
  6
Continuous
 62
     7
100
AcDbSpline
210
0.0
220
0.0
230
1.0
 70
     8
 71
     3
 72
     9
 73
     5
 74
     3
 42
0.000000001
 43
0.0000000001
 44
0.00000001
 40
0.0
 40
0.0
 40
0.0
 40
0.0
 40
0.2975312289372507
 40
0.5517898661336873
 40
0.5517898661336873
 40
0.5517898661336873
 40
0.5517898661336873
 10
3.195448469910758
 20
65.95104588865637
 30
0.0
 10
3.268968120893333
 20
66.02215337356537
 30
0.0
 10
3.405314795110649
 20
66.1540265648101
 30
0.0
 10
3.435904715702423
 20
66.34024055068042
 30
0.0
 10
3.450000202720318
 20
66.42604588865636
 30
0.0
 11
3.195448469910758
 21
65.95104588865637
 31
0.0
 11
3.385258783378891
 21
66.1801678613615
 31
0.0
 11
3.450000202720318
 21
66.42604588865636
 31
0.0
  0
SPLINE
  5
BD
330
47
100
AcDbEntity
  8
0
  6
Continuous
 62
     7
100
AcDbSpline
210
0.0
220
0.0
230
1.0
 70
     8
 71
     3
 72
    17
 73
    13
 74
    11
 42
0.000000001
 43
0.0000000001
 44
0.00000001
 40
0.0
 40
0.0
 40
0.0
 40
0.0
 40
0.254258630406016
 40
0.5517898614000181
 40
0.9121817191989114
 40
1.333651820587114
 40
1.801620305455768
 40
2.294440638339716
 40
2.787260971000631
 40
3.255229454960207
 40
3.676699556955611
 40
4.037091420428128
 40
4.037091420428128
 40
4.037091420428128
 40
4.037091420428128
 10
4.750000202720358
 20
70.842775447957
 30
0.0
 10
4.764477782611369
 20
70.75764188052023
 30
0.0
 10
4.795896911133998
 20
70.57288576031384
 30
0.0
 10
5.013742111767709
 20
70.34160118115872
 30
0.0
 10
5.318225608950391
 20
70.15003362570742
 30
0.0
 10
5.712178790246487
 20
70.00458715402031
 30
0.0
 10
6.16502406991931
 20
69.91330689214568
 30
0.0
 10
6.649929580806678
 20
69.88235216495688
 30
0.0
 10
7.135251649617286
 20
69.9128858581903
 30
0.0
 10
7.586948545028198
 20
70.00610738287355
 30
0.0
 10
7.984491201939788
 20
70.14526074216417
 30
0.0
 10
8.197338519163765
 20
70.29756995479083
 30
0.0
 10
8.295448469910752
 20
70.367775447957
 30
0.0
 11
4.750000202720358
 21
70.842775447957
 31
0.0
 11
4.81474162206178
 21
70.59689742066213
 31
0.0
 11
5.004551935529918
 21
70.367775447957
 31
0.0
 11
5.306497676651528
 21
70.17102418492259
 31
0.0
 11
5.700000202720346
 21
70.02005131436178
 31
0.0
 11
6.158244148130587
 21
69.92514615762774
 31
0.0
 11
6.650000202720335
 21
69.892775447957
 31
0.0
 11
7.141756257310083
 21
69.92514615762772
 31
0.0
 11
7.600000202720324
 21
70.02005131436178
 31
0.0
 11
7.993502728789142
 21
70.1710241849226
 31
0.0
 11
8.295448469910752
 21
70.367775447957
 31
0.0
  0
SPLINE
  5
BE
330
47
100
AcDbEntity
  8
0
  6
Continuous
 62
     7
100
AcDbSpline
210
0.0
220
0.0
230
1.0
 70
     8
 71
     3
 72
     9
 73
     5
 74
     3
 42
0.000000001
 43
0.0000000001
 44
0.00000001
 40
0.0
 40
0.0
 40
0.0
 40
0.0
 40
0.2975312289372429
 40
0.5517898661336921
 40
0.5517898661336921
 40
0.5517898661336921
 40
0.5517898661336921
 10
8.295448469910752
 20
70.367775447957
 30
0.0
 10
8.368968120893332
 20
70.43888293286601
 30
0.0
 10
8.505314795110655
 20
70.57075612411072
 30
0.0
 10
8.53590471570242
 20
70.75697010998103
 30
0.0
 10
8.550000202720312
 20
70.842775447957
 30
0.0
 11
8.295448469910752
 21
70.367775447957
 31
0.0
 11
8.48525878337889
 21
70.59689742066212
 31
0.0
 11
8.550000202720312
 21
70.842775447957
 31
0.0
  0
ENDBLK
  5
49
330
47
100
AcDbEntity
  8
0
100
AcDbBlockEnd
  0
BLOCK
  5
4C
330
4A
100
AcDbEntity
  8
0
100
AcDbBlockBegin
  2
AllgSicht1
 70
     0
 10
-0.99999999997012
 20
81.00000000003001
 30
0.0
  3
AllgSicht1
  1

  0
INSERT
  5
4B
330
4A
100
AcDbEntity
  8
0
100
AcDbBlockReference
  2
KSS-4-10-select__1
 10
-14.39711411430976
 20
56.54258677005508
 30
0.0
  0
MTEXT
  5
C0
330
4A
100
AcDbEntity
  8
1
 62
     6
100
AcDbMText
 10
-0.99999999996999
 20
48.71484672711949
 30
0.0
 40
5.0
 41
0.0
 71
     2
 72
     1
  1
 
  7
CONVERTER_11
 73
     1
 44
1.32052821128451
  0
ENDBLK
  5
4D
330
4A
100
AcDbEntity
  8
0
100
AcDbBlockEnd
  0
BLOCK
  5
4F
330
4E
100
AcDbEntity
  8
0
100
AcDbBlockBegin
  2
KSS-4-10-select__2
 70
     0
 10
-125.9999999999199
 20
61.29285795347873
 30
0.0
  3
KSS-4-10-select__2
  1

  0
LINE
  5
C1
330
4E
100
AcDbEntity
  8
0
  6
Continuous
 62
     7
100
AcDbLine
 10
-116.9999999999201
 20
61.29285795347873
 30
0.0
 11
-121.4999999999201
 21
61.29285795347873
 31
0.0
  0
LINE
  5
C2
330
4E
100
AcDbEntity
  8
0
  6
Continuous
 62
     7
100
AcDbLine
 10
-121.4999999999201
 20
61.29285795347873
 30
0.0
 11
-125.9999999999199
 21
61.29285795347873
 31
0.0
  0
LINE
  5
C3
330
4E
100
AcDbEntity
  8
0
  6
Continuous
 62
     7
100
AcDbLine
 10
-116.9999999999201
 20
61.29285795347873
 30
0.0
 11
-116.9999999999201
 21
99.29285795347873
 31
0.0
  0
LINE
  5
C4
330
4E
100
AcDbEntity
  8
0
  6
Continuous
 62
     7
100
AcDbLine
 10
-116.9999999999201
 20
99.29285795347873
 30
0.0
 11
-121.4999999999201
 21
99.29285795347873
 31
0.0
  0
LINE
  5
C5
330
4E
100
AcDbEntity
  8
0
  6
Continuous
 62
     7
100
AcDbLine
 10
-121.4999999999201
 20
99.29285795347873
 30
0.0
 11
-125.9999999999199
 21
99.29285795347873
 31
0.0
  0
LINE
  5
C6
330
4E
100
AcDbEntity
  8
0
  6
Continuous
 62
     7
100
AcDbLine
 10
-121.4999999999201
 20
61.29285795347873
 30
0.0
 11
-121.4999999999201
 21
99.29285795347873
 31
0.0
  0
LINE
  5
C7
330
4E
100
AcDbEntity
  8
0
  6
Continuous
 62
     7
100
AcDbLine
 10
-125.9999999999199
 20
61.29285795347873
 30
0.0
 11
-125.9999999999199
 21
99.29285795347873
 31
0.0
  0
ENDBLK
  5
50
330
4E
100
AcDbEntity
  8
0
100
AcDbBlockEnd
  0
BLOCK
  5
53
330
51
100
AcDbEntity
  8
0
100
AcDbBlockBegin
  2
Drfsicht1
 70
     0
 10
-121.4999999999599
 20
80.29285754816709
 30
0.0
  3
Drfsicht1
  1

  0
INSERT
  5
52
330
51
100
AcDbEntity
  8
0
100
AcDbBlockReference
  2
KSS-4-10-select__2
 10
-125.9999999999199
 20
61.29285795347873
 30
0.0
  0
DIMENSION
  5
D2
330
51
100
AcDbEntity
  8
1
100
AcDbDimension
  2
*D17
 10
-131.67499999992
 20
61.29285795347873
 30
0.0
 11
-134.92499999992
 21
82.52920885823247
 31
0.0
 70
    33
  1
<>
 71
     5
 42
-1.0
 53
90.0
  3
ME10_DIM_10
100
AcDbAlignedDimension
 13
-116.9999999999201
 23
99.29285795347873
 33
0.0
 14
-116.9999999999201
 24
61.29285795347873
 34
0.0
  0
ENDBLK
  5
54
330
51
100
AcDbEntity
  8
0
100
AcDbBlockEnd
  0
BLOCK
  5
56
330
55
100
AcDbEntity
  8
0
100
AcDbBlockBegin
  2
KSS-4-10-select__3
 70
     0
 10
-0.0000003577079
 20
120.6214471386882
 30
0.0
  3
KSS-4-10-select__3
  1

  0
LINE
  5
D3
330
55
100
AcDbEntity
  8
0
  6
Continuous
 62
     7
100
AcDbLine
 10
6.39999964229193
 20
120.6214471386882
 30
0.0
 11
6.59999964229196
 21
120.6214471386882
 31
0.0
  0
LINE
  5
D4
330
55
100
AcDbEntity
  8
0
  6
Continuous
 62
     7
100
AcDbLine
 10
7.9999996422921
 20
147.4071424842882
 30
0.0
 11
7.9999996422921
 21
157.9071424842882
 31
0.0
  0
LINE
  5
D5
330
55
100
AcDbEntity
  8
0
  6
Continuous
 62
     7
100
AcDbLine
 10
6.59999964229196
 20
120.6214471386882
 30
0.0
 11
6.59999964229196
 21
139.9071424842882
 31
0.0
  0
LINE
  5
D6
330
55
100
AcDbEntity
  8
0
  6
Continuous
 62
     7
100
AcDbLine
 10
1.49999964229195
 20
144.9071424842882
 30
0.0
 11
-0.0000003577079
 21
144.9071424842882
 31
0.0
  0
LINE
  5
D7
330
55
100
AcDbEntity
  8
0
  6
Continuous
 62
     7
100
AcDbLine
 10
8.99999964229195
 20
144.9071424842882
 30
0.0
 11
7.49999964229195
 21
144.9071424842882
 31
0.0
  0
LINE
  5
D8
330
55
100
AcDbEntity
  8
0
  6
Continuous
 62
     7
100
AcDbLine
 10
7.49999964229195
 20
144.9071424842882
 30
0.0
 11
1.49999964229195
 21
144.9071424842882
 31
0.0
  0
LINE
  5
D9
330
55
100
AcDbEntity
  8
0
  6
Continuous
 62
     7
100
AcDbLine
 10
4.49999964229195
 20
143.9071424842882
 30
0.0
 11
1.99999964229195
 21
143.9071424842882
 31
0.0
  0
LINE
  5
DA
330
55
100
AcDbEntity
  8
0
  6
Continuous
 62
     7
100
AcDbLine
 10
8.9999996422921
 20
157.9071424842882
 30
0.0
 11
8.9999996422921
 21
159.9136710711002
 31
0.0
  0
LINE
  5
DB
330
55
100
AcDbEntity
  8
0
  6
Continuous
 62
     7
100
AcDbLine
 10
-0.0000003577079
 20
144.9071424842882
 30
0.0
 11
-0.0000003577079
 21
147.4071424842882
 31
0.0
  0
LINE
  5
DC
330
55
100
AcDbEntity
  8
0
  6
Continuous
 62
     7
100
AcDbLine
 10
-0.0000003577079
 20
159.9136710711002
 30
0.0
 11
-0.0000003577079
 21
157.9071424842882
 31
0.0
  0
LINE
  5
DD
330
55
100
AcDbEntity
  8
0
  6
Continuous
 62
     7
100
AcDbLine
 10
2.59999964229198
 20
120.6214471386882
 30
0.0
 11
6.39999964229193
 21
120.6214471386882
 31
0.0
  0
LINE
  5
DE
330
55
100
AcDbEntity
  8
0
  6
Continuous
 62
     7
100
AcDbLine
 10
6.39999964229193
 20
139.9071424842882
 30
0.0
 11
2.59999964229198
 21
139.9071424842882
 31
0.0
  0
LINE
  5
DF
330
55
100
AcDbEntity
  8
0
  6
Continuous
 62
     7
100
AcDbLine
 10
-0.0000003577079
 20
147.4071424842882
 30
0.0
 11
0.9999996422921
 21
147.4071424842882
 31
0.0
  0
LINE
  5
E0
330
55
100
AcDbEntity
  8
0
  6
Continuous
 62
     7
100
AcDbLine
 10
6.39999964229193
 20
120.6214471386882
 30
0.0
 11
6.39999964229193
 21
139.9071424842882
 31
0.0
  0
LINE
  5
E1
330
55
100
AcDbEntity
  8
0
  6
Continuous
 62
     7
100
AcDbLine
 10
7.9999996422921
 20
147.4071424842882
 30
0.0
 11
8.99999964229195
 21
147.4071424842882
 31
0.0
  0
LINE
  5
E2
330
55
100
AcDbEntity
  8
0
  6
Continuous
 62
     7
100
AcDbLine
 10
8.9999996422921
 20
157.9071424842882
 30
0.0
 11
7.9999996422921
 21
157.9071424842882
 31
0.0
  0
LINE
  5
E3
330
55
100
AcDbEntity
  8
0
  6
Continuous
 62
     7
100
AcDbLine
 10
0.9999996422921
 20
157.9071424842882
 30
0.0
 11
-0.0000003577079
 21
157.9071424842882
 31
0.0
  0
LINE
  5
E4
330
55
100
AcDbEntity
  8
0
  6
Continuous
 62
     7
100
AcDbLine
 10
2.39999964229197
 20
120.6214471386882
 30
0.0
 11
2.59999964229198
 21
120.6214471386882
 31
0.0
  0
LINE
  5
E5
330
55
100
AcDbEntity
  8
0
  6
Continuous
 62
     7
100
AcDbLine
 10
2.59999964229198
 20
120.6214471386882
 30
0.0
 11
2.59999964229198
 21
139.9071424842882
 31
0.0
  0
LINE
  5
E6
330
55
100
AcDbEntity
  8
0
  6
Continuous
 62
     7
100
AcDbLine
 10
1.99999964229195
 20
143.9071424842882
 30
0.0
 11
1.49999964229195
 21
143.9071424842882
 31
0.0
  0
LINE
  5
E7
330
55
100
AcDbEntity
  8
0
  6
Continuous
 62
     7
100
AcDbLine
 10
1.49999964229195
 20
144.9071424842882
 30
0.0
 11
1.49999964229195
 21
143.9071424842882
 31
0.0
  0
LINE
  5
E8
330
55
100
AcDbEntity
  8
0
  6
Continuous
 62
     7
100
AcDbLine
 10
2.59999964229198
 20
139.9071424842882
 30
0.0
 11
2.39999964229197
 21
139.9071424842882
 31
0.0
  0
LINE
  5
E9
330
55
100
AcDbEntity
  8
0
  6
Continuous
 62
     7
100
AcDbLine
 10
2.39999964229197
 20
139.9071424842882
 30
0.0
 11
1.99999964229195
 21
139.9071424842882
 31
0.0
  0
LINE
  5
EA
330
55
100
AcDbEntity
  8
0
  6
Continuous
 62
     7
100
AcDbLine
 10
1.99999964229195
 20
143.9071424842882
 30
0.0
 11
1.99999964229195
 21
139.9071424842882
 31
0.0
  0
LINE
  5
EB
330
55
100
AcDbEntity
  8
0
  6
Continuous
 62
     7
100
AcDbLine
 10
0.9999996422921
 20
157.9071424842882
 30
0.0
 11
0.9999996422921
 21
147.4071424842882
 31
0.0
  0
LINE
  5
EC
330
55
100
AcDbEntity
  8
0
  6
Continuous
 62
     7
100
AcDbLine
 10
2.39999964229197
 20
120.6214471386882
 30
0.0
 11
2.39999964229197
 21
139.9071424842882
 31
0.0
  0
LINE
  5
ED
330
55
100
AcDbEntity
  8
0
  6
Continuous
 62
     7
100
AcDbLine
 10
8.9999996422921
 20
159.9136710711002
 30
0.0
 11
4.49999964229212
 21
160.7071424842882
 31
0.0
  0
LINE
  5
EE
330
55
100
AcDbEntity
  8
0
  6
Continuous
 62
     7
100
AcDbLine
 10
7.49999964229195
 20
144.9071424842882
 30
0.0
 11
7.49999964229195
 21
143.9071424842882
 31
0.0
  0
LINE
  5
EF
330
55
100
AcDbEntity
  8
0
  6
Continuous
 62
     7
100
AcDbLine
 10
7.49999964229195
 20
143.9071424842882
 30
0.0
 11
6.99999964229195
 21
143.9071424842882
 31
0.0
  0
LINE
  5
F0
330
55
100
AcDbEntity
  8
0
  6
Continuous
 62
     7
100
AcDbLine
 10
6.99999964229195
 20
143.9071424842882
 30
0.0
 11
4.49999964229195
 21
143.9071424842882
 31
0.0
  0
LINE
  5
F1
330
55
100
AcDbEntity
  8
0
  6
Continuous
 62
     7
100
AcDbLine
 10
6.59999964229196
 20
139.9071424842882
 30
0.0
 11
6.39999964229193
 21
139.9071424842882
 31
0.0
  0
LINE
  5
F2
330
55
100
AcDbEntity
  8
0
  6
Continuous
 62
     7
100
AcDbLine
 10
6.99999964229195
 20
139.9071424842882
 30
0.0
 11
6.59999964229196
 21
139.9071424842882
 31
0.0
  0
LINE
  5
F3
330
55
100
AcDbEntity
  8
0
  6
Continuous
 62
     7
100
AcDbLine
 10
8.99999964229195
 20
147.4071424842882
 30
0.0
 11
8.99999964229195
 21
144.9071424842882
 31
0.0
  0
LINE
  5
F4
330
55
100
AcDbEntity
  8
0
  6
Continuous
 62
     7
100
AcDbLine
 10
6.99999964229195
 20
143.9071424842882
 30
0.0
 11
6.99999964229195
 21
139.9071424842882
 31
0.0
  0
LINE
  5
F5
330
55
100
AcDbEntity
  8
0
  6
Continuous
 62
     7
100
AcDbLine
 10
4.49999964229212
 20
160.7071424842882
 30
0.0
 11
-0.0000003577079
 21
159.9136710711002
 31
0.0
  0
LINE
  5
F6
330
55
100
AcDbEntity
  8
1
  6
DOT_CENTER
 62
     2
100
AcDbLine
 10
4.49999964229195
 20
120.6071424842882
 30
0.0
 11
4.49999964229195
 21
143.9071424842882
 31
0.0
  0
ENDBLK
  5
57
330
55
100
AcDbEntity
  8
0
100
AcDbBlockEnd
  0
BLOCK
  5
5A
330
58
100
AcDbEntity
  8
0
100
AcDbBlockBegin
  2
Rckans1
 70
     0
 10
4.49999964233196
 20
140.0000000000501
 30
0.0
  3
Rckans1
  1

  0
INSERT
  5
59
330
58
100
AcDbEntity
  8
0
100
AcDbBlockReference
  2
KSS-4-10-select__3
 10
-0.0000003577079
 20
120.6214471386882
 30
0.0
  0
MTEXT
  5
F7
330
58
100
AcDbEntity
  8
1
 62
     6
100
AcDbMText
 10
4.49999964233211
 20
114.2928567529225
 30
0.0
 40
5.0
 41
0.0
 71
     2
 72
     1
  1
 
  7
CONVERTER_11
 73
     1
 44
1.32052821128451
  0
ENDBLK
  5
5B
330
58
100
AcDbEntity
  8
0
100
AcDbBlockEnd
  0
BLOCK
  5
5D
330
5C
100
AcDbEntity
  8
0
100
AcDbBlockBegin
  2
KSS-4-10-select__4
 70
     0
 10
-211.9999995946884
 20
120.621447138688
 30
0.0
  3
KSS-4-10-select__4
  1

  0
LINE
  5
F8
330
5C
100
AcDbEntity
  8
0
  6
Continuous
 62
     7
100
AcDbLine
 10
-205.7999995946884
 20
139.907142484288
 30
0.0
 11
-206.1999995946884
 21
139.907142484288
 31
0.0
  0
LINE
  5
F9
330
5C
100
AcDbEntity
  8
0
  6
Continuous
 62
     7
100
AcDbLine
 10
-205.7999995946884
 20
143.907142484288
 30
0.0
 11
-205.2999995946884
 21
143.907142484288
 31
0.0
  0
LINE
  5
FA
330
5C
100
AcDbEntity
  8
0
  6
Continuous
 62
     7
100
AcDbLine
 10
-208.2999995946884
 20
143.907142484288
 30
0.0
 11
-205.7999995946884
 21
143.907142484288
 31
0.0
  0
LINE
  5
FB
330
5C
100
AcDbEntity
  8
0
  6
Continuous
 62
     7
100
AcDbLine
 10
-206.1999995946884
 20
120.621447138688
 30
0.0
 11
-206.1999995946884
 21
139.907142484288
 31
0.0
  0
LINE
  5
FC
330
5C
100
AcDbEntity
  8
0
  6
Continuous
 62
     7
100
AcDbLine
 10
-208.2999995946884
 20
120.621447138688
 30
0.0
 11
-206.1999995946884
 21
120.621447138688
 31
0.0
  0
LINE
  5
FD
330
5C
100
AcDbEntity
  8
0
  6
Continuous
 62
     7
100
AcDbLine
 10
-205.7999995946884
 20
143.907142484288
 30
0.0
 11
-205.7999995946884
 21
139.907142484288
 31
0.0
  0
LINE
  5
FE
330
5C
100
AcDbEntity
  8
0
  6
Continuous
 62
     7
100
AcDbLine
 10
-206.1999995946884
 20
139.907142484288
 30
0.0
 11
-210.3999995946884
 21
139.907142484288
 31
0.0
  0
LINE
  5
FF
330
5C
100
AcDbEntity
  8
0
  6
Continuous
 62
     7
100
AcDbLine
 10
-175.1999995946884
 20
143.907142484288
 30
0.0
 11
-180.1999995946884
 21
143.907142484288
 31
0.0
  0
LINE
  5
100
330
5C
100
AcDbEntity
  8
0
  6
Continuous
 62
     7
100
AcDbLine
 10
-185.3999995946884
 20
143.907142484288
 30
0.0
 11
-190.3999995946884
 21
143.907142484288
 31
0.0
  0
LINE
  5
101
330
5C
100
AcDbEntity
  8
0
  6
Continuous
 62
     7
100
AcDbLine
 10
-180.6999995946884
 20
144.907142484288
 30
0.0
 11
-180.6999995946884
 21
143.907142484288
 31
0.0
  0
LINE
  5
102
330
5C
100
AcDbEntity
  8
0
  6
Continuous
 62
     7
100
AcDbLine
 10
-184.8999995946884
 20
144.907142484288
 30
0.0
 11
-184.8999995946884
 21
143.907142484288
 31
0.0
  0
LINE
  5
103
330
5C
100
AcDbEntity
  8
0
  6
Continuous
 62
     7
100
AcDbLine
 10
-174.6999995946884
 20
143.907142484288
 30
0.0
 11
-175.1999995946884
 21
143.907142484288
 31
0.0
  0
LINE
  5
104
330
5C
100
AcDbEntity
  8
0
  6
Continuous
 62
     7
100
AcDbLine
 10
-174.6999995946884
 20
144.907142484288
 30
0.0
 11
-174.6999995946884
 21
143.907142484288
 31
0.0
  0
LINE
  5
105
330
5C
100
AcDbEntity
  8
0
  6
Continuous
 62
     7
100
AcDbLine
 10
-175.1999995946884
 20
139.907142484288
 30
0.0
 11
-175.1999995946884
 21
143.907142484288
 31
0.0
  0
LINE
  5
106
330
5C
100
AcDbEntity
  8
0
  6
Continuous
 62
     7
100
AcDbLine
 10
-175.7999995946884
 20
139.907142484288
 30
0.0
 11
-175.1999995946884
 21
139.907142484288
 31
0.0
  0
LINE
  5
107
330
5C
100
AcDbEntity
  8
0
  6
Continuous
 62
     7
100
AcDbLine
 10
-173.9999995946884
 20
144.907142484288
 30
0.0
 11
-173.9999995946884
 21
147.407142484288
 31
0.0
  0
LINE
  5
108
330
5C
100
AcDbEntity
  8
0
  6
Continuous
 62
     7
100
AcDbLine
 10
-173.9999995946884
 20
159.9136710711
 30
0.0
 11
-173.9999995946884
 21
157.907142484288
 31
0.0
  0
LINE
  5
109
330
5C
100
AcDbEntity
  8
0
  6
Continuous
 62
     7
100
AcDbLine
 10
-190.3999995946884
 20
139.907142484288
 30
0.0
 11
-189.7999995946883
 21
139.907142484288
 31
0.0
  0
LINE
  5
10A
330
5C
100
AcDbEntity
  8
0
  6
Continuous
 62
     7
100
AcDbLine
 10
-189.7999995946883
 20
139.907142484288
 30
0.0
 11
-187.8999995946884
 21
139.907142484288
 31
0.0
  0
LINE
  5
10B
330
5C
100
AcDbEntity
  8
0
  6
Continuous
 62
     7
100
AcDbLine
 10
-190.3999995946884
 20
139.907142484288
 30
0.0
 11
-190.3999995946884
 21
143.907142484288
 31
0.0
  0
LINE
  5
10C
330
5C
100
AcDbEntity
  8
0
  6
Continuous
 62
     7
100
AcDbLine
 10
-173.9999995946884
 20
157.907142484288
 30
0.0
 11
-173.9999995946884
 21
147.407142484288
 31
0.0
  0
LINE
  5
10D
330
5C
100
AcDbEntity
  8
0
  6
Continuous
 62
     7
100
AcDbLine
 10
-198.0999995946884
 20
120.621447138688
 30
0.0
 11
-196.1999995946884
 21
120.621447138688
 31
0.0
  0
LINE
  5
10E
330
5C
100
AcDbEntity
  8
0
  6
Continuous
 62
     7
100
AcDbLine
 10
-189.7999995946883
 20
120.621447138688
 30
0.0
 11
-187.8999995946884
 21
120.621447138688
 31
0.0
  0
LINE
  5
10F
330
5C
100
AcDbEntity
  8
0
  6
Continuous
 62
     7
100
AcDbLine
 10
-199.9999995946884
 20
120.621447138688
 30
0.0
 11
-198.0999995946884
 21
120.621447138688
 31
0.0
  0
LINE
  5
110
330
5C
100
AcDbEntity
  8
0
  6
Continuous
 62
     7
100
AcDbLine
 10
-184.8999995946884
 20
143.907142484288
 30
0.0
 11
-185.3999995946884
 21
143.907142484288
 31
0.0
  0
LINE
  5
111
330
5C
100
AcDbEntity
  8
0
  6
Continuous
 62
     7
100
AcDbLine
 10
-180.1999995946884
 20
143.907142484288
 30
0.0
 11
-180.6999995946884
 21
143.907142484288
 31
0.0
  0
LINE
  5
112
330
5C
100
AcDbEntity
  8
0
  6
Continuous
 62
     7
100
AcDbLine
 10
-180.1999995946884
 20
139.907142484288
 30
0.0
 11
-180.1999995946884
 21
143.907142484288
 31
0.0
  0
LINE
  5
113
330
5C
100
AcDbEntity
  8
0
  6
Continuous
 62
     7
100
AcDbLine
 10
-185.3999995946884
 20
139.907142484288
 30
0.0
 11
-185.3999995946884
 21
143.907142484288
 31
0.0
  0
LINE
  5
114
330
5C
100
AcDbEntity
  8
0
  6
Continuous
 62
     7
100
AcDbLine
 10
-185.9999995946884
 20
120.621447138688
 30
0.0
 11
-185.9999995946884
 21
139.907142484288
 31
0.0
  0
LINE
  5
115
330
5C
100
AcDbEntity
  8
0
  6
Continuous
 62
     7
100
AcDbLine
 10
-179.5999995946883
 20
120.621447138688
 30
0.0
 11
-179.5999995946883
 21
139.907142484288
 31
0.0
  0
LINE
  5
116
330
5C
100
AcDbEntity
  8
0
  6
Continuous
 62
     7
100
AcDbLine
 10
-199.9999995946884
 20
139.907142484288
 30
0.0
 11
-198.0999995946884
 21
139.907142484288
 31
0.0
  0
LINE
  5
117
330
5C
100
AcDbEntity
  8
0
  6
Continuous
 62
     7
100
AcDbLine
 10
-200.5999995946884
 20
143.907142484288
 30
0.0
 11
-201.0999995946884
 21
143.907142484288
 31
0.0
  0
LINE
  5
118
330
5C
100
AcDbEntity
  8
0
  6
Continuous
 62
     7
100
AcDbLine
 10
-201.0999995946884
 20
144.907142484288
 30
0.0
 11
-201.0999995946884
 21
143.907142484288
 31
0.0
  0
LINE
  5
119
330
5C
100
AcDbEntity
  8
0
  6
Continuous
 62
     7
100
AcDbLine
 10
-200.5999995946884
 20
139.907142484288
 30
0.0
 11
-199.9999995946884
 21
139.907142484288
 31
0.0
  0
LINE
  5
11A
330
5C
100
AcDbEntity
  8
0
  6
Continuous
 62
     7
100
AcDbLine
 10
-200.5999995946884
 20
139.907142484288
 30
0.0
 11
-200.5999995946884
 21
143.907142484288
 31
0.0
  0
LINE
  5
11B
330
5C
100
AcDbEntity
  8
0
  6
Continuous
 62
     7
100
AcDbLine
 10
-205.2999995946884
 20
143.907142484288
 30
0.0
 11
-205.2999995946884
 21
144.907142484288
 31
0.0
  0
LINE
  5
11C
330
5C
100
AcDbEntity
  8
0
  6
Continuous
 62
     7
100
AcDbLine
 10
-199.9999995946884
 20
120.621447138688
 30
0.0
 11
-199.9999995946884
 21
139.907142484288
 31
0.0
  0
LINE
  5
11D
330
5C
100
AcDbEntity
  8
0
  6
Continuous
 62
     7
100
AcDbLine
 10
-205.2999995946884
 20
144.907142484288
 30
0.0
 11
-201.0999995946884
 21
144.907142484288
 31
0.0
  0
LINE
  5
11E
330
5C
100
AcDbEntity
  8
0
  6
Continuous
 62
     7
100
AcDbLine
 10
-195.5999995946884
 20
143.907142484288
 30
0.0
 11
-200.5999995946884
 21
143.907142484288
 31
0.0
  0
LINE
  5
11F
330
5C
100
AcDbEntity
  8
0
  6
Continuous
 62
     7
100
AcDbLine
 10
-177.6999995946884
 20
139.907142484288
 30
0.0
 11
-175.7999995946884
 21
139.907142484288
 31
0.0
  0
LINE
  5
120
330
5C
100
AcDbEntity
  8
0
  6
Continuous
 62
     7
100
AcDbLine
 10
-180.1999995946884
 20
139.907142484288
 30
0.0
 11
-179.5999995946883
 21
139.907142484288
 31
0.0
  0
LINE
  5
121
330
5C
100
AcDbEntity
  8
0
  6
Continuous
 62
     7
100
AcDbLine
 10
-179.5999995946883
 20
139.907142484288
 30
0.0
 11
-177.6999995946884
 21
139.907142484288
 31
0.0
  0
LINE
  5
122
330
5C
100
AcDbEntity
  8
0
  6
Continuous
 62
     7
100
AcDbLine
 10
-187.8999995946884
 20
120.621447138688
 30
0.0
 11
-185.9999995946884
 21
120.621447138688
 31
0.0
  0
LINE
  5
123
330
5C
100
AcDbEntity
  8
0
  6
Continuous
 62
     7
100
AcDbLine
 10
-179.5999995946883
 20
120.621447138688
 30
0.0
 11
-177.6999995946884
 21
120.621447138688
 31
0.0
  0
LINE
  5
124
330
5C
100
AcDbEntity
  8
0
  6
Continuous
 62
     7
100
AcDbLine
 10
-177.6999995946884
 20
120.621447138688
 30
0.0
 11
-175.7999995946884
 21
120.621447138688
 31
0.0
  0
LINE
  5
125
330
5C
100
AcDbEntity
  8
0
  6
Continuous
 62
     7
100
AcDbLine
 10
-185.9999995946884
 20
139.907142484288
 30
0.0
 11
-185.3999995946884
 21
139.907142484288
 31
0.0
  0
LINE
  5
126
330
5C
100
AcDbEntity
  8
0
  6
Continuous
 62
     7
100
AcDbLine
 10
-187.8999995946884
 20
139.907142484288
 30
0.0
 11
-185.9999995946884
 21
139.907142484288
 31
0.0
  0
LINE
  5
127
330
5C
100
AcDbEntity
  8
0
  6
Continuous
 62
     7
100
AcDbLine
 10
-175.7999995946884
 20
120.621447138688
 30
0.0
 11
-175.7999995946884
 21
139.907142484288
 31
0.0
  0
LINE
  5
128
330
5C
100
AcDbEntity
  8
0
  6
Continuous
 62
     7
100
AcDbLine
 10
-211.9999995946884
 20
144.907142484288
 30
0.0
 11
-211.2999995946884
 21
144.907142484288
 31
0.0
  0
LINE
  5
129
330
5C
100
AcDbEntity
  8
0
  6
Continuous
 62
     7
100
AcDbLine
 10
-211.9999995946884
 20
147.407142484288
 30
0.0
 11
-211.9999995946884
 21
144.907142484288
 31
0.0
  0
LINE
  5
12A
330
5C
100
AcDbEntity
  8
0
  6
Continuous
 62
     7
100
AcDbLine
 10
-211.9999995946884
 20
157.907142484288
 30
0.0
 11
-211.9999995946884
 21
147.407142484288
 31
0.0
  0
LINE
  5
12B
330
5C
100
AcDbEntity
  8
0
  6
Continuous
 62
     7
100
AcDbLine
 10
-211.9999995946884
 20
159.9136710711
 30
0.0
 11
-211.9999995946884
 21
157.907142484288
 31
0.0
  0
LINE
  5
12C
330
5C
100
AcDbEntity
  8
0
  6
Continuous
 62
     7
100
AcDbLine
 10
-210.3999995946884
 20
120.621447138688
 30
0.0
 11
-210.3999995946884
 21
139.907142484288
 31
0.0
  0
LINE
  5
12D
330
5C
100
AcDbEntity
  8
0
  6
Continuous
 62
     7
100
AcDbLine
 10
-184.8999995946884
 20
144.907142484288
 30
0.0
 11
-180.6999995946884
 21
144.907142484288
 31
0.0
  0
LINE
  5
12E
330
5C
100
AcDbEntity
  8
0
  6
Continuous
 62
     7
100
AcDbLine
 10
-201.0999995946884
 20
144.907142484288
 30
0.0
 11
-195.0999995946884
 21
144.907142484288
 31
0.0
  0
LINE
  5
12F
330
5C
100
AcDbEntity
  8
0
  6
Continuous
 62
     7
100
AcDbLine
 10
-174.6999995946884
 20
144.907142484288
 30
0.0
 11
-173.9999995946884
 21
144.907142484288
 31
0.0
  0
LINE
  5
130
330
5C
100
AcDbEntity
  8
0
  6
Continuous
 62
     7
100
AcDbLine
 10
-180.6999995946884
 20
144.907142484288
 30
0.0
 11
-174.6999995946884
 21
144.907142484288
 31
0.0
  0
LINE
  5
131
330
5C
100
AcDbEntity
  8
0
  6
Continuous
 62
     7
100
AcDbLine
 10
-211.2999995946884
 20
144.907142484288
 30
0.0
 11
-205.2999995946884
 21
144.907142484288
 31
0.0
  0
LINE
  5
132
330
5C
100
AcDbEntity
  8
0
  6
Continuous
 62
     7
100
AcDbLine
 10
-211.9999995946884
 20
159.9136710711
 30
0.0
 11
-211.9999995946884
 21
160.707142484288
 31
0.0
  0
LINE
  5
133
330
5C
100
AcDbEntity
  8
0
  6
Continuous
 62
     7
100
AcDbLine
 10
-173.9999995946884
 20
160.707142484288
 30
0.0
 11
-173.9999995946884
 21
159.9136710711
 31
0.0
  0
LINE
  5
134
330
5C
100
AcDbEntity
  8
0
  6
Continuous
 62
     7
100
AcDbLine
 10
-173.9999995946884
 20
159.9136710711
 30
0.0
 11
-211.9999995946884
 21
159.9136710711
 31
0.0
  0
LINE
  5
135
330
5C
100
AcDbEntity
  8
0
  6
Continuous
 62
     7
100
AcDbLine
 10
-211.9999995946884
 20
160.707142484288
 30
0.0
 11
-173.9999995946884
 21
160.707142484288
 31
0.0
  0
LINE
  5
136
330
5C
100
AcDbEntity
  8
0
  6
Continuous
 62
     7
100
AcDbLine
 10
-211.9999995946884
 20
147.407142484288
 30
0.0
 11
-173.9999995946884
 21
147.407142484288
 31
0.0
  0
LINE
  5
137
330
5C
100
AcDbEntity
  8
0
  6
Continuous
 62
     7
100
AcDbLine
 10
-190.8999995946884
 20
144.907142484288
 30
0.0
 11
-184.8999995946884
 21
144.907142484288
 31
0.0
  0
LINE
  5
138
330
5C
100
AcDbEntity
  8
0
  6
Continuous
 62
     7
100
AcDbLine
 10
-195.0999995946884
 20
144.907142484288
 30
0.0
 11
-195.0999995946884
 21
143.907142484288
 31
0.0
  0
LINE
  5
139
330
5C
100
AcDbEntity
  8
0
  6
Continuous
 62
     7
100
AcDbLine
 10
-190.8999995946884
 20
144.907142484288
 30
0.0
 11
-190.8999995946884
 21
143.907142484288
 31
0.0
  0
LINE
  5
13A
330
5C
100
AcDbEntity
  8
0
  6
Continuous
 62
     7
100
AcDbLine
 10
-190.3999995946884
 20
143.907142484288
 30
0.0
 11
-190.8999995946884
 21
143.907142484288
 31
0.0
  0
LINE
  5
13B
330
5C
100
AcDbEntity
  8
0
  6
Continuous
 62
     7
100
AcDbLine
 10
-195.0999995946884
 20
143.907142484288
 30
0.0
 11
-195.5999995946884
 21
143.907142484288
 31
0.0
  0
LINE
  5
13C
330
5C
100
AcDbEntity
  8
0
  6
Continuous
 62
     7
100
AcDbLine
 10
-196.1999995946884
 20
139.907142484288
 30
0.0
 11
-195.5999995946884
 21
139.907142484288
 31
0.0
  0
LINE
  5
13D
330
5C
100
AcDbEntity
  8
0
  6
Continuous
 62
     7
100
AcDbLine
 10
-189.7999995946883
 20
120.621447138688
 30
0.0
 11
-189.7999995946883
 21
139.907142484288
 31
0.0
  0
LINE
  5
13E
330
5C
100
AcDbEntity
  8
0
  6
Continuous
 62
     7
100
AcDbLine
 10
-196.1999995946884
 20
120.621447138688
 30
0.0
 11
-196.1999995946884
 21
139.907142484288
 31
0.0
  0
LINE
  5
13F
330
5C
100
AcDbEntity
  8
0
  6
Continuous
 62
     7
100
AcDbLine
 10
-198.0999995946884
 20
139.907142484288
 30
0.0
 11
-196.1999995946884
 21
139.907142484288
 31
0.0
  0
LINE
  5
140
330
5C
100
AcDbEntity
  8
0
  6
Continuous
 62
     7
100
AcDbLine
 10
-195.5999995946884
 20
139.907142484288
 30
0.0
 11
-195.5999995946884
 21
143.907142484288
 31
0.0
  0
LINE
  5
141
330
5C
100
AcDbEntity
  8
0
  6
Continuous
 62
     7
100
AcDbLine
 10
-195.0999995946884
 20
144.907142484288
 30
0.0
 11
-190.8999995946884
 21
144.907142484288
 31
0.0
  0
LINE
  5
142
330
5C
100
AcDbEntity
  8
0
  6
Continuous
 62
     7
100
AcDbLine
 10
-210.3999995946884
 20
139.907142484288
 30
0.0
 11
-210.7999995946884
 21
139.907142484288
 31
0.0
  0
LINE
  5
143
330
5C
100
AcDbEntity
  8
0
  6
Continuous
 62
     7
100
AcDbLine
 10
-211.2999995946884
 20
143.907142484288
 30
0.0
 11
-210.7999995946884
 21
143.907142484288
 31
0.0
  0
LINE
  5
144
330
5C
100
AcDbEntity
  8
0
  6
Continuous
 62
     7
100
AcDbLine
 10
-210.7999995946884
 20
143.907142484288
 30
0.0
 11
-208.2999995946884
 21
143.907142484288
 31
0.0
  0
LINE
  5
145
330
5C
100
AcDbEntity
  8
0
  6
Continuous
 62
     7
100
AcDbLine
 10
-211.2999995946884
 20
143.907142484288
 30
0.0
 11
-211.2999995946884
 21
144.907142484288
 31
0.0
  0
LINE
  5
146
330
5C
100
AcDbEntity
  8
0
  6
Continuous
 62
     7
100
AcDbLine
 10
-210.3999995946884
 20
120.621447138688
 30
0.0
 11
-208.2999995946884
 21
120.621447138688
 31
0.0
  0
LINE
  5
147
330
5C
100
AcDbEntity
  8
0
  6
Continuous
 62
     7
100
AcDbLine
 10
-210.7999995946884
 20
143.907142484288
 30
0.0
 11
-210.7999995946884
 21
139.907142484288
 31
0.0
  0
LINE
  5
148
330
5C
100
AcDbEntity
  8
0
  6
Continuous
 62
     7
100
AcDbLine
 10
-211.9999995946884
 20
157.907142484288
 30
0.0
 11
-173.9999995946884
 21
157.907142484288
 31
0.0
  0
LINE
  5
149
330
5C
100
AcDbEntity
  8
1
  6
DOT_CENTER
 62
     2
100
AcDbLine
 10
-208.2999995946884
 20
120.621447138688
 30
0.0
 11
-208.2999995946884
 21
146.2214281985737
 31
0.0
  0
LINE
  5
14A
330
5C
100
AcDbEntity
  8
1
  6
DOT_CENTER
 62
     2
100
AcDbLine
 10
-187.8999995946884
 20
120.621447138688
 30
0.0
 11
-187.8999995946884
 21
146.2214281985737
 31
0.0
  0
LINE
  5
14B
330
5C
100
AcDbEntity
  8
1
  6
DOT_CENTER
 62
     2
100
AcDbLine
 10
-198.0999995946884
 20
120.621447138688
 30
0.0
 11
-198.0999995946884
 21
146.2214281985737
 31
0.0
  0
LINE
  5
14C
330
5C
100
AcDbEntity
  8
1
  6
DOT_CENTER
 62
     2
100
AcDbLine
 10
-177.6999995946884
 20
120.607142484288
 30
0.0
 11
-177.6999995946884
 21
143.907142484288
 31
0.0
  0
ENDBLK
  5
5E
330
5C
100
AcDbEntity
  8
0
100
AcDbBlockEnd
  0
BLOCK
  5
61
330
5F
100
AcDbEntity
  8
0
100
AcDbBlockBegin
  2
SA_Rechts1
 70
     0
 10
-193.0
 20
140.00000000005
 30
0.0
  3
SA_Rechts1
  1

  0
INSERT
  5
60
330
5F
100
AcDbEntity
  8
0
100
AcDbBlockReference
  2
KSS-4-10-select__4
 10
-211.9999995946884
 20
120.621447138688
 30
0.0
  0
MTEXT
  5
14D
330
5F
100
AcDbEntity
  8
1
 62
     6
100
AcDbMText
 10
-193.0
 20
114.2928567529225
 30
0.0
 40
5.0
 41
0.0
 71
     2
 72
     1
  1
 
  7
CONVERTER_11
 73
     1
 44
1.32052821128451
  0
ENDBLK
  5
62
330
5F
100
AcDbEntity
  8
0
100
AcDbBlockEnd
  0
BLOCK
  5
64
330
63
100
AcDbEntity
  8
0
100
AcDbBlockBegin
  2
KSS-4-10-select__5
 70
     0
 10
-82.00000081062362
 20
120.621446765733
 30
0.0
  3
KSS-4-10-select__5
  1

  0
LINE
  5
14E
330
63
100
AcDbEntity
  8
0
  6
Continuous
 62
     7
100
AcDbLine
 10
-76.40000081062365
 20
139.907142111333
 30
0.0
 11
-75.80000081062362
 21
139.907142111333
 31
0.0
  0
LINE
  5
14F
330
63
100
AcDbEntity
  8
0
  6
Continuous
 62
     7
100
AcDbLine
 10
-75.30000081062362
 20
143.907142111333
 30
0.0
 11
-75.80000081062362
 21
143.907142111333
 31
0.0
  0
LINE
  5
150
330
63
100
AcDbEntity
  8
0
  6
Continuous
 62
     7
100
AcDbLine
 10
-80.80000081062362
 20
143.907142111333
 30
0.0
 11
-81.30000081062362
 21
143.907142111333
 31
0.0
  0
LINE
  5
151
330
63
100
AcDbEntity
  8
0
  6
Continuous
 62
     7
100
AcDbLine
 10
-81.30000081062362
 20
144.907142111333
 30
0.0
 11
-81.30000081062362
 21
143.907142111333
 31
0.0
  0
LINE
  5
152
330
63
100
AcDbEntity
  8
0
  6
Continuous
 62
     7
100
AcDbLine
 10
-75.30000081062362
 20
144.907142111333
 30
0.0
 11
-75.30000081062362
 21
143.907142111333
 31
0.0
  0
LINE
  5
153
330
63
100
AcDbEntity
  8
0
  6
Continuous
 62
     7
100
AcDbLine
 10
-65.10000081062363
 20
143.907142111333
 30
0.0
 11
-65.60000081062363
 21
143.907142111333
 31
0.0
  0
LINE
  5
154
330
63
100
AcDbEntity
  8
0
  6
Continuous
 62
     7
100
AcDbLine
 10
-70.60000081062363
 20
143.907142111333
 30
0.0
 11
-71.10000081062363
 21
143.907142111333
 31
0.0
  0
LINE
  5
155
330
63
100
AcDbEntity
  8
0
  6
Continuous
 62
     7
100
AcDbLine
 10
-71.10000081062363
 20
144.907142111333
 30
0.0
 11
-71.10000081062363
 21
143.907142111333
 31
0.0
  0
LINE
  5
156
330
63
100
AcDbEntity
  8
0
  6
Continuous
 62
     7
100
AcDbLine
 10
-65.10000081062363
 20
144.907142111333
 30
0.0
 11
-65.10000081062363
 21
143.907142111333
 31
0.0
  0
LINE
  5
157
330
63
100
AcDbEntity
  8
0
  6
Continuous
 62
     7
100
AcDbLine
 10
-60.90000081062362
 20
144.907142111333
 30
0.0
 11
-60.90000081062362
 21
143.907142111333
 31
0.0
  0
LINE
  5
158
330
63
100
AcDbEntity
  8
0
  6
Continuous
 62
     7
100
AcDbLine
 10
-54.90000081062362
 20
144.907142111333
 30
0.0
 11
-54.90000081062362
 21
143.907142111333
 31
0.0
  0
LINE
  5
159
330
63
100
AcDbEntity
  8
0
  6
Continuous
 62
     7
100
AcDbLine
 10
-54.90000081062362
 20
143.907142111333
 30
0.0
 11
-55.40000081062362
 21
143.907142111333
 31
0.0
  0
LINE
  5
15A
330
63
100
AcDbEntity
  8
0
  6
Continuous
 62
     7
100
AcDbLine
 10
-60.40000081062362
 20
143.907142111333
 30
0.0
 11
-60.90000081062362
 21
143.907142111333
 31
0.0
  0
LINE
  5
15B
330
63
100
AcDbEntity
  8
0
  6
Continuous
 62
     7
100
AcDbLine
 10
-55.40000081062362
 20
143.907142111333
 30
0.0
 11
-60.40000081062362
 21
143.907142111333
 31
0.0
  0
LINE
  5
15C
330
63
100
AcDbEntity
  8
0
  6
Continuous
 62
     7
100
AcDbLine
 10
-65.60000081062363
 20
143.907142111333
 30
0.0
 11
-70.60000081062363
 21
143.907142111333
 31
0.0
  0
LINE
  5
15D
330
63
100
AcDbEntity
  8
0
  6
Continuous
 62
     7
100
AcDbLine
 10
-75.80000081062362
 20
143.907142111333
 30
0.0
 11
-80.80000081062362
 21
143.907142111333
 31
0.0
  0
LINE
  5
15E
330
63
100
AcDbEntity
  8
0
  6
Continuous
 62
     7
100
AcDbLine
 10
-75.80000081062362
 20
139.907142111333
 30
0.0
 11
-75.80000081062362
 21
143.907142111333
 31
0.0
  0
LINE
  5
15F
330
63
100
AcDbEntity
  8
0
  6
Continuous
 62
     7
100
AcDbLine
 10
-80.20000081062359
 20
139.907142111333
 30
0.0
 11
-76.40000081062365
 21
139.907142111333
 31
0.0
  0
LINE
  5
160
330
63
100
AcDbEntity
  8
0
  6
Continuous
 62
     7
100
AcDbLine
 10
-80.20000081062359
 20
120.621446765733
 30
0.0
 11
-76.40000081062365
 21
120.621446765733
 31
0.0
  0
LINE
  5
161
330
63
100
AcDbEntity
  8
0
  6
Continuous
 62
     7
100
AcDbLine
 10
-80.80000081062362
 20
139.907142111333
 30
0.0
 11
-80.20000081062359
 21
139.907142111333
 31
0.0
  0
LINE
  5
162
330
63
100
AcDbEntity
  8
0
  6
Continuous
 62
     7
100
AcDbLine
 10
-80.80000081062362
 20
139.907142111333
 30
0.0
 11
-80.80000081062362
 21
143.907142111333
 31
0.0
  0
LINE
  5
163
330
63
100
AcDbEntity
  8
0
  6
Continuous
 62
     7
100
AcDbLine
 10
-82.00000081062362
 20
159.9136706981449
 30
0.0
 11
-82.00000081062362
 21
160.707142111333
 31
0.0
  0
LINE
  5
164
330
63
100
AcDbEntity
  8
0
  6
Continuous
 62
     7
100
AcDbLine
 10
-82.00000081062362
 20
157.907142111333
 30
0.0
 11
-82.00000081062362
 21
159.9136706981449
 31
0.0
  0
LINE
  5
165
330
63
100
AcDbEntity
  8
0
  6
Continuous
 62
     7
100
AcDbLine
 10
-82.00000081062362
 20
147.407142111333
 30
0.0
 11
-82.00000081062362
 21
144.907142111333
 31
0.0
  0
LINE
  5
166
330
63
100
AcDbEntity
  8
0
  6
Continuous
 62
     7
100
AcDbLine
 10
-82.00000081062362
 20
147.407142111333
 30
0.0
 11
-82.00000081062362
 21
157.907142111333
 31
0.0
  0
LINE
  5
167
330
63
100
AcDbEntity
  8
0
  6
Continuous
 62
     7
100
AcDbLine
 10
-80.20000081062359
 20
120.621446765733
 30
0.0
 11
-80.20000081062359
 21
139.907142111333
 31
0.0
  0
LINE
  5
168
330
63
100
AcDbEntity
  8
0
  6
Continuous
 62
     7
100
AcDbLine
 10
-76.40000081062365
 20
120.621446765733
 30
0.0
 11
-76.40000081062365
 21
139.907142111333
 31
0.0
  0
LINE
  5
169
330
63
100
AcDbEntity
  8
0
  6
Continuous
 62
     7
100
AcDbLine
 10
-56.00000081062365
 20
120.621446765733
 30
0.0
 11
-56.00000081062365
 21
139.907142111333
 31
0.0
  0
LINE
  5
16A
330
63
100
AcDbEntity
  8
0
  6
Continuous
 62
     7
100
AcDbLine
 10
-59.8000008106236
 20
120.621446765733
 30
0.0
 11
-56.00000081062365
 21
120.621446765733
 31
0.0
  0
LINE
  5
16B
330
63
100
AcDbEntity
  8
0
  6
Continuous
 62
     7
100
AcDbLine
 10
-49.80000081062363
 20
120.621446765733
 30
0.0
 11
-49.80000081062363
 21
139.907142111333
 31
0.0
  0
LINE
  5
16C
330
63
100
AcDbEntity
  8
0
  6
Continuous
 62
     7
100
AcDbLine
 10
-49.80000081062363
 20
120.621446765733
 30
0.0
 11
-45.60000081062361
 21
120.621446765733
 31
0.0
  0
LINE
  5
16D
330
63
100
AcDbEntity
  8
0
  6
Continuous
 62
     7
100
AcDbLine
 10
-45.20000081062362
 20
139.907142111333
 30
0.0
 11
-45.60000081062361
 21
139.907142111333
 31
0.0
  0
LINE
  5
16E
330
63
100
AcDbEntity
  8
0
  6
Continuous
 62
     7
100
AcDbLine
 10
-49.80000081062363
 20
139.907142111333
 30
0.0
 11
-50.20000081062363
 21
139.907142111333
 31
0.0
  0
LINE
  5
16F
330
63
100
AcDbEntity
  8
0
  6
Continuous
 62
     7
100
AcDbLine
 10
-45.60000081062361
 20
139.907142111333
 30
0.0
 11
-49.80000081062363
 21
139.907142111333
 31
0.0
  0
LINE
  5
170
330
63
100
AcDbEntity
  8
0
  6
Continuous
 62
     7
100
AcDbLine
 10
-45.60000081062361
 20
120.621446765733
 30
0.0
 11
-45.60000081062361
 21
139.907142111333
 31
0.0
  0
LINE
  5
171
330
63
100
AcDbEntity
  8
0
  6
Continuous
 62
     7
100
AcDbLine
 10
-59.8000008106236
 20
120.621446765733
 30
0.0
 11
-59.8000008106236
 21
139.907142111333
 31
0.0
  0
LINE
  5
172
330
63
100
AcDbEntity
  8
0
  6
Continuous
 62
     7
100
AcDbLine
 10
-45.20000081062362
 20
143.907142111333
 30
0.0
 11
-44.70000081062362
 21
143.907142111333
 31
0.0
  0
LINE
  5
173
330
63
100
AcDbEntity
  8
0
  6
Continuous
 62
     7
100
AcDbLine
 10
-44.00000081062363
 20
144.907142111333
 30
0.0
 11
-44.00000081062363
 21
147.407142111333
 31
0.0
  0
LINE
  5
174
330
63
100
AcDbEntity
  8
0
  6
Continuous
 62
     7
100
AcDbLine
 10
-44.00000081062363
 20
159.9136706981449
 30
0.0
 11
-44.00000081062363
 21
160.707142111333
 31
0.0
  0
LINE
  5
175
330
63
100
AcDbEntity
  8
0
  6
Continuous
 62
     7
100
AcDbLine
 10
-44.00000081062363
 20
157.907142111333
 30
0.0
 11
-44.00000081062363
 21
159.9136706981449
 31
0.0
  0
LINE
  5
176
330
63
100
AcDbEntity
  8
0
  6
Continuous
 62
     7
100
AcDbLine
 10
-44.00000081062363
 20
147.407142111333
 30
0.0
 11
-44.00000081062363
 21
157.907142111333
 31
0.0
  0
LINE
  5
177
330
63
100
AcDbEntity
  8
0
  6
Continuous
 62
     7
100
AcDbLine
 10
-44.70000081062362
 20
143.907142111333
 30
0.0
 11
-44.70000081062362
 21
144.907142111333
 31
0.0
  0
LINE
  5
178
330
63
100
AcDbEntity
  8
0
  6
Continuous
 62
     7
100
AcDbLine
 10
-50.70000081062363
 20
143.907142111333
 30
0.0
 11
-50.70000081062363
 21
144.907142111333
 31
0.0
  0
LINE
  5
179
330
63
100
AcDbEntity
  8
0
  6
Continuous
 62
     7
100
AcDbLine
 10
-50.70000081062363
 20
143.907142111333
 30
0.0
 11
-50.20000081062363
 21
143.907142111333
 31
0.0
  0
LINE
  5
17A
330
63
100
AcDbEntity
  8
0
  6
Continuous
 62
     7
100
AcDbLine
 10
-45.20000081062362
 20
143.907142111333
 30
0.0
 11
-45.20000081062362
 21
139.907142111333
 31
0.0
  0
LINE
  5
17B
330
63
100
AcDbEntity
  8
0
  6
Continuous
 62
     7
100
AcDbLine
 10
-50.20000081062363
 20
143.907142111333
 30
0.0
 11
-45.20000081062362
 21
143.907142111333
 31
0.0
  0
LINE
  5
17C
330
63
100
AcDbEntity
  8
0
  6
Continuous
 62
     7
100
AcDbLine
 10
-44.00000081062363
 20
157.907142111333
 30
0.0
 11
-82.00000081062362
 21
157.907142111333
 31
0.0
  0
LINE
  5
17D
330
63
100
AcDbEntity
  8
0
  6
Continuous
 62
     7
100
AcDbLine
 10
-81.30000081062362
 20
144.907142111333
 30
0.0
 11
-82.00000081062362
 21
144.907142111333
 31
0.0
  0
LINE
  5
17E
330
63
100
AcDbEntity
  8
0
  6
Continuous
 62
     7
100
AcDbLine
 10
-75.30000081062362
 20
144.907142111333
 30
0.0
 11
-81.30000081062362
 21
144.907142111333
 31
0.0
  0
LINE
  5
17F
330
63
100
AcDbEntity
  8
0
  6
Continuous
 62
     7
100
AcDbLine
 10
-71.10000081062363
 20
144.907142111333
 30
0.0
 11
-75.30000081062362
 21
144.907142111333
 31
0.0
  0
LINE
  5
180
330
63
100
AcDbEntity
  8
0
  6
Continuous
 62
     7
100
AcDbLine
 10
-65.10000081062363
 20
144.907142111333
 30
0.0
 11
-71.10000081062363
 21
144.907142111333
 31
0.0
  0
LINE
  5
181
330
63
100
AcDbEntity
  8
0
  6
Continuous
 62
     7
100
AcDbLine
 10
-60.90000081062362
 20
144.907142111333
 30
0.0
 11
-65.10000081062363
 21
144.907142111333
 31
0.0
  0
LINE
  5
182
330
63
100
AcDbEntity
  8
0
  6
Continuous
 62
     7
100
AcDbLine
 10
-54.90000081062362
 20
144.907142111333
 30
0.0
 11
-60.90000081062362
 21
144.907142111333
 31
0.0
  0
LINE
  5
183
330
63
100
AcDbEntity
  8
0
  6
Continuous
 62
     7
100
AcDbLine
 10
-44.00000081062363
 20
144.907142111333
 30
0.0
 11
-44.70000081062362
 21
144.907142111333
 31
0.0
  0
LINE
  5
184
330
63
100
AcDbEntity
  8
0
  6
Continuous
 62
     7
100
AcDbLine
 10
-50.70000081062363
 20
144.907142111333
 30
0.0
 11
-54.90000081062362
 21
144.907142111333
 31
0.0
  0
LINE
  5
185
330
63
100
AcDbEntity
  8
0
  6
Continuous
 62
     7
100
AcDbLine
 10
-44.70000081062362
 20
144.907142111333
 30
0.0
 11
-50.70000081062363
 21
144.907142111333
 31
0.0
  0
LINE
  5
186
330
63
100
AcDbEntity
  8
0
  6
Continuous
 62
     7
100
AcDbLine
 10
-44.00000081062363
 20
147.407142111333
 30
0.0
 11
-82.00000081062362
 21
147.407142111333
 31
0.0
  0
LINE
  5
187
330
63
100
AcDbEntity
  8
0
  6
Continuous
 62
     7
100
AcDbLine
 10
-44.00000081062363
 20
160.707142111333
 30
0.0
 11
-82.00000081062362
 21
160.707142111333
 31
0.0
  0
LINE
  5
188
330
63
100
AcDbEntity
  8
0
  6
Continuous
 62
     7
100
AcDbLine
 10
-66.20000081062365
 20
120.621446765733
 30
0.0
 11
-66.20000081062365
 21
139.907142111333
 31
0.0
  0
LINE
  5
189
330
63
100
AcDbEntity
  8
0
  6
Continuous
 62
     7
100
AcDbLine
 10
-70.0000008106236
 20
120.621446765733
 30
0.0
 11
-66.20000081062365
 21
120.621446765733
 31
0.0
  0
LINE
  5
18A
330
63
100
AcDbEntity
  8
0
  6
Continuous
 62
     7
100
AcDbLine
 10
-66.20000081062365
 20
139.907142111333
 30
0.0
 11
-65.60000081062363
 21
139.907142111333
 31
0.0
  0
LINE
  5
18B
330
63
100
AcDbEntity
  8
0
  6
Continuous
 62
     7
100
AcDbLine
 10
-70.60000081062363
 20
139.907142111333
 30
0.0
 11
-70.0000008106236
 21
139.907142111333
 31
0.0
  0
LINE
  5
18C
330
63
100
AcDbEntity
  8
0
  6
Continuous
 62
     7
100
AcDbLine
 10
-65.60000081062363
 20
139.907142111333
 30
0.0
 11
-65.60000081062363
 21
143.907142111333
 31
0.0
  0
LINE
  5
18D
330
63
100
AcDbEntity
  8
0
  6
Continuous
 62
     7
100
AcDbLine
 10
-70.60000081062363
 20
139.907142111333
 30
0.0
 11
-70.60000081062363
 21
143.907142111333
 31
0.0
  0
LINE
  5
18E
330
63
100
AcDbEntity
  8
0
  6
Continuous
 62
     7
100
AcDbLine
 10
-56.00000081062365
 20
139.907142111333
 30
0.0
 11
-55.40000081062362
 21
139.907142111333
 31
0.0
  0
LINE
  5
18F
330
63
100
AcDbEntity
  8
0
  6
Continuous
 62
     7
100
AcDbLine
 10
-60.40000081062362
 20
139.907142111333
 30
0.0
 11
-59.8000008106236
 21
139.907142111333
 31
0.0
  0
LINE
  5
190
330
63
100
AcDbEntity
  8
0
  6
Continuous
 62
     7
100
AcDbLine
 10
-55.40000081062362
 20
139.907142111333
 30
0.0
 11
-55.40000081062362
 21
143.907142111333
 31
0.0
  0
LINE
  5
191
330
63
100
AcDbEntity
  8
0
  6
Continuous
 62
     7
100
AcDbLine
 10
-60.40000081062362
 20
139.907142111333
 30
0.0
 11
-60.40000081062362
 21
143.907142111333
 31
0.0
  0
LINE
  5
192
330
63
100
AcDbEntity
  8
0
  6
Continuous
 62
     7
100
AcDbLine
 10
-50.20000081062363
 20
143.907142111333
 30
0.0
 11
-50.20000081062363
 21
139.907142111333
 31
0.0
  0
LINE
  5
193
330
63
100
AcDbEntity
  8
0
  6
Continuous
 62
     7
100
AcDbLine
 10
-59.8000008106236
 20
139.907142111333
 30
0.0
 11
-56.00000081062365
 21
139.907142111333
 31
0.0
  0
LINE
  5
194
330
63
100
AcDbEntity
  8
0
  6
Continuous
 62
     7
100
AcDbLine
 10
-70.0000008106236
 20
139.907142111333
 30
0.0
 11
-66.20000081062365
 21
139.907142111333
 31
0.0
  0
LINE
  5
195
330
63
100
AcDbEntity
  8
0
  6
Continuous
 62
     7
100
AcDbLine
 10
-70.0000008106236
 20
120.621446765733
 30
0.0
 11
-70.0000008106236
 21
139.907142111333
 31
0.0
  0
LINE
  5
196
330
63
100
AcDbEntity
  8
0
  6
Continuous
 62
     7
100
AcDbLine
 10
-44.00000081062363
 20
159.9136706981449
 30
0.0
 11
-82.00000081062362
 21
159.9136706981449
 31
0.0
  0
LINE
  5
197
330
63
100
AcDbEntity
  8
1
  6
DOT_CENTER
 62
     2
100
AcDbLine
 10
-68.10000081062363
 20
120.621446765733
 30
0.0
 11
-68.10000081062363
 21
144.907142111333
 31
0.0
  0
LINE
  5
198
330
63
100
AcDbEntity
  8
1
  6
DOT_CENTER
 62
     2
100
AcDbLine
 10
-47.70000081062362
 20
120.621446765733
 30
0.0
 11
-47.70000081062362
 21
144.907142111333
 31
0.0
  0
LINE
  5
199
330
63
100
AcDbEntity
  8
1
  6
DOT_CENTER
 62
     2
100
AcDbLine
 10
-57.90000081062362
 20
120.621446765733
 30
0.0
 11
-57.90000081062362
 21
144.907142111333
 31
0.0
  0
LINE
  5
19A
330
63
100
AcDbEntity
  8
1
  6
DOT_CENTER
 62
     2
100
AcDbLine
 10
-78.30000081062362
 20
120.6071421113331
 30
0.0
 11
-78.30000081062362
 21
143.907142111333
 31
0.0
  0
LINE
  5
19B
330
63
100
AcDbEntity
  8
1
  6
DOT_CENTER
 62
     2
100
AcDbLine
 10
-78.30000081062362
 20
144.907142111333
 30
0.0
 11
-78.30000081062371
 21
120.6214467657328
 31
0.0
  0
ENDBLK
  5
65
330
63
100
AcDbEntity
  8
0
100
AcDbBlockEnd
  0
BLOCK
  5
68
330
66
100
AcDbEntity
  8
0
100
AcDbBlockBegin
  2
SA_links1
 70
     0
 10
-63.00000040531199
 20
139.9999996270949
 30
0.0
  3
SA_links1
  1

  0
INSERT
  5
67
330
66
100
AcDbEntity
  8
0
100
AcDbBlockReference
  2
KSS-4-10-select__5
 10
-82.00000081062362
 20
120.621446765733
 30
0.0
  0
ENDBLK
  5
69
330
66
100
AcDbEntity
  8
0
100
AcDbBlockEnd
  0
BLOCK
  5
6B
330
6A
100
AcDbEntity
  8
0
100
AcDbBlockBegin
  2
KSS-4-10-select__6
 70
     0
 10
-125.99999999992
 20
120.6214467657331
 30
0.0
  3
KSS-4-10-select__6
  1

  0
LINE
  5
19C
330
6A
100
AcDbEntity
  8
0
  6
Continuous
 62
     7
100
AcDbLine
 10
-116.99999999992
 20
147.4071421113331
 30
0.0
 11
-116.99999999992
 21
144.9071421113331
 31
0.0
  0
LINE
  5
19D
330
6A
100
AcDbEntity
  8
0
  6
Continuous
 62
     7
100
AcDbLine
 10
-123.9999999999198
 20
143.9071421113331
 30
0.0
 11
-118.9999999999198
 21
143.9071421113331
 31
0.0
  0
LINE
  5
19E
330
6A
100
AcDbEntity
  8
0
  6
Continuous
 62
     7
100
AcDbLine
 10
-118.4999999999198
 20
144.9071421113331
 30
0.0
 11
-124.4999999999198
 21
144.9071421113331
 31
0.0
  0
LINE
  5
19F
330
6A
100
AcDbEntity
  8
0
  6
Continuous
 62
     7
100
AcDbLine
 10
-119.3999999999198
 20
120.6214467657331
 30
0.0
 11
-119.3999999999198
 21
139.9071421113331
 31
0.0
  0
LINE
  5
1A0
330
6A
100
AcDbEntity
  8
0
  6
Continuous
 62
     7
100
AcDbLine
 10
-116.99999999992
 20
159.9136706981451
 30
0.0
 11
-116.99999999992
 21
157.9071421113331
 31
0.0
  0
LINE
  5
1A1
330
6A
100
AcDbEntity
  8
0
  6
Continuous
 62
     7
100
AcDbLine
 10
-116.99999999992
 20
144.9071421113331
 30
0.0
 11
-118.4999999999198
 21
144.9071421113331
 31
0.0
  0
LINE
  5
1A2
330
6A
100
AcDbEntity
  8
0
  6
Continuous
 62
     7
100
AcDbLine
 10
-116.99999999992
 20
147.4071421113331
 30
0.0
 11
-117.99999999992
 21
147.4071421113331
 31
0.0
  0
LINE
  5
1A3
330
6A
100
AcDbEntity
  8
0
  6
Continuous
 62
     7
100
AcDbLine
 10
-116.99999999992
 20
157.9071421113331
 30
0.0
 11
-117.99999999992
 21
157.9071421113331
 31
0.0
  0
LINE
  5
1A4
330
6A
100
AcDbEntity
  8
0
  6
Continuous
 62
     7
100
AcDbLine
 10
-118.9999999999198
 20
143.9071421113331
 30
0.0
 11
-118.4999999999198
 21
143.9071421113331
 31
0.0
  0
LINE
  5
1A5
330
6A
100
AcDbEntity
  8
0
  6
Continuous
 62
     7
100
AcDbLine
 10
-118.4999999999198
 20
143.9071421113331
 30
0.0
 11
-118.4999999999198
 21
144.9071421113331
 31
0.0
  0
LINE
  5
1A6
330
6A
100
AcDbEntity
  8
0
  6
Continuous
 62
     7
100
AcDbLine
 10
-118.9999999999198
 20
139.9071421113331
 30
0.0
 11
-118.9999999999198
 21
143.9071421113331
 31
0.0
  0
LINE
  5
1A7
330
6A
100
AcDbEntity
  8
0
  6
Continuous
 62
     7
100
AcDbLine
 10
-117.99999999992
 20
157.9071421113331
 30
0.0
 11
-117.99999999992
 21
147.4071421113331
 31
0.0
  0
LINE
  5
1A8
330
6A
100
AcDbEntity
  8
0
  6
Continuous
 62
     7
100
AcDbLine
 10
-124.4999999999198
 20
143.9071421113331
 30
0.0
 11
-123.9999999999198
 21
143.9071421113331
 31
0.0
  0
LINE
  5
1A9
330
6A
100
AcDbEntity
  8
0
  6
Continuous
 62
     7
100
AcDbLine
 10
-124.4999999999198
 20
144.9071421113331
 30
0.0
 11
-125.9999999999198
 21
144.9071421113331
 31
0.0
  0
LINE
  5
1AA
330
6A
100
AcDbEntity
  8
0
  6
Continuous
 62
     7
100
AcDbLine
 10
-125.9999999999198
 20
144.9071421113331
 30
0.0
 11
-125.9999999999198
 21
147.4071421113331
 31
0.0
  0
LINE
  5
1AB
330
6A
100
AcDbEntity
  8
0
  6
Continuous
 62
     7
100
AcDbLine
 10
-124.99999999992
 20
147.4071421113331
 30
0.0
 11
-125.9999999999198
 21
147.4071421113331
 31
0.0
  0
LINE
  5
1AC
330
6A
100
AcDbEntity
  8
0
  6
Continuous
 62
     7
100
AcDbLine
 10
-124.99999999992
 20
147.4071421113331
 30
0.0
 11
-124.99999999992
 21
157.9071421113331
 31
0.0
  0
LINE
  5
1AD
330
6A
100
AcDbEntity
  8
0
  6
Continuous
 62
     7
100
AcDbLine
 10
-124.99999999992
 20
157.9071421113331
 30
0.0
 11
-125.99999999992
 21
157.9071421113331
 31
0.0
  0
LINE
  5
1AE
330
6A
100
AcDbEntity
  8
0
  6
Continuous
 62
     7
100
AcDbLine
 10
-125.99999999992
 20
157.9071421113331
 30
0.0
 11
-125.99999999992
 21
159.9136706981451
 31
0.0
  0
LINE
  5
1AF
330
6A
100
AcDbEntity
  8
0
  6
Continuous
 62
     7
100
AcDbLine
 10
-124.4999999999198
 20
143.9071421113331
 30
0.0
 11
-124.4999999999198
 21
144.9071421113331
 31
0.0
  0
LINE
  5
1B0
330
6A
100
AcDbEntity
  8
0
  6
Continuous
 62
     7
100
AcDbLine
 10
-125.99999999992
 20
159.9136706981451
 30
0.0
 11
-121.49999999992
 21
160.7071421113331
 31
0.0
  0
LINE
  5
1B1
330
6A
100
AcDbEntity
  8
0
  6
Continuous
 62
     7
100
AcDbLine
 10
-123.9999999999198
 20
139.9071421113331
 30
0.0
 11
-123.5999999999199
 21
139.9071421113331
 31
0.0
  0
LINE
  5
1B2
330
6A
100
AcDbEntity
  8
0
  6
Continuous
 62
     7
100
AcDbLine
 10
-123.5999999999199
 20
139.9071421113331
 30
0.0
 11
-119.3999999999198
 21
139.9071421113331
 31
0.0
  0
LINE
  5
1B3
330
6A
100
AcDbEntity
  8
0
  6
Continuous
 62
     7
100
AcDbLine
 10
-119.3999999999198
 20
139.9071421113331
 30
0.0
 11
-118.9999999999198
 21
139.9071421113331
 31
0.0
  0
LINE
  5
1B4
330
6A
100
AcDbEntity
  8
0
  6
Continuous
 62
     7
100
AcDbLine
 10
-123.9999999999198
 20
139.9071421113331
 30
0.0
 11
-123.9999999999198
 21
143.9071421113331
 31
0.0
  0
LINE
  5
1B5
330
6A
100
AcDbEntity
  8
0
  6
Continuous
 62
     7
100
AcDbLine
 10
-123.5999999999199
 20
120.6214467657331
 30
0.0
 11
-123.5999999999199
 21
139.9071421113331
 31
0.0
  0
LINE
  5
1B6
330
6A
100
AcDbEntity
  8
0
  6
Continuous
 62
     7
100
AcDbLine
 10
-123.5999999999199
 20
120.6214467657331
 30
0.0
 11
-119.3999999999198
 21
120.6214467657331
 31
0.0
  0
LINE
  5
1B7
330
6A
100
AcDbEntity
  8
0
  6
Continuous
 62
     7
100
AcDbLine
 10
-116.99999999992
 20
159.9136706981451
 30
0.0
 11
-121.49999999992
 21
160.7071421113331
 31
0.0
  0
LINE
  5
1B8
330
6A
100
AcDbEntity
  8
1
  6
DOT_CENTER
 62
     2
100
AcDbLine
 10
-121.4999999999198
 20
120.607142111333
 30
0.0
 11
-121.4999999999198
 21
143.9071421113331
 31
0.0
  0
ENDBLK
  5
6C
330
6A
100
AcDbEntity
  8
0
100
AcDbBlockEnd
  0
BLOCK
  5
6F
330
6D
100
AcDbEntity
  8
0
100
AcDbBlockBegin
  2
Vordans1
 70
     0
 10
-121.4999999999598
 20
139.9999996270951
 30
0.0
  3
Vordans1
  1

  0
INSERT
  5
6E
330
6D
100
AcDbEntity
  8
0
100
AcDbBlockReference
  2
KSS-4-10-select__6
 10
-125.99999999992
 20
120.6214467657331
 30
0.0
  0
DIMENSION
  5
1C5
330
6D
100
AcDbEntity
  8
1
100
AcDbDimension
  2
*D18
 10
-125.9999999999199
 20
166.7255685456971
 30
0.0
 11
-120.9892041503219
 21
170.4755685456971
 31
0.0
 70
    32
  1
<>
 71
     5
 42
-1.0
 53
0.00013888888889
  3
ME10_DIM_11
100
AcDbAlignedDimension
 13
-116.99999999992
 23
144.9071421113331
 33
0.0
 14
-125.9999999999198
 24
144.9071421113331
 34
0.0
100
AcDbRotatedDimension
  0
DIMENSION
  5
1D0
330
6D
100
AcDbEntity
  8
1
100
AcDbDimension
  2
*D19
 10
-131.49999999992
 20
160.7071421113332
 30
0.0
 11
-134.92499999992
 21
140.6642944385332
 31
0.0
 70
    32
  1
<>
 71
     5
 42
-1.0
 53
90.0
  3
ME10_DIM_12
100
AcDbAlignedDimension
 13
-119.3999999999198
 23
120.6214467657331
 33
0.0
 14
-121.49999999992
 24
160.7071421113331
 34
0.0
 50
90.0
100
AcDbRotatedDimension
  0
ENDBLK
  5
70
330
6D
100
AcDbEntity
  8
0
100
AcDbBlockEnd
  0
BLOCK
  5
72
330
71
100
AcDbEntity
  8
0
100
AcDbBlockBegin
  2
_rahmen
 70
     0
 10
57.200323245246
 20
3.22020763640825
 30
0.0
  3
_rahmen
  1

  0
LINE
  5
1D1
330
71
100
AcDbEntity
  8
1
  6
DOT_CENTER
 62
     2
100
AcDbLine
 10
-68.35782639494141
 20
29.34520763640828
 30
0.0
 11
-62.85782639494141
 21
29.34520763640828
 31
0.0
  0
LINE
  5
1D2
330
71
100
AcDbEntity
  8
1
  6
PHANTOM
 62
     2
100
AcDbLine
 10
-59.60782639494141
 20
32.09520763640828
 30
0.0
 11
-59.60782639494141
 21
26.59520763640828
 31
0.0
  0
LINE
  5
1D3
330
71
100
AcDbEntity
  8
1
  6
PHANTOM
 62
     2
100
AcDbLine
 10
-56.85782639494141
 20
29.34520763640828
 30
0.0
 11
-62.35782639494141
 21
29.34520763640828
 31
0.0
  0
LINE
  5
1D4
330
71
100
AcDbEntity
  8
1
  6
Continuous
 62
     7
100
AcDbLine
 10
-8.04448128150401
 20
16.72020763640828
 30
0.0
 11
-8.04448128150401
 21
25.22020763640836
 31
0.0
  0
LINE
  5
1D5
330
71
100
AcDbEntity
  8
1
  6
Continuous
 62
     6
100
AcDbLine
 10
-35.9444812815041
 20
25.22020763640836
 30
0.0
 11
57.20032324524769
 21
25.22020763640836
 31
0.0
  0
LINE
  5
1D6
330
71
100
AcDbEntity
  8
1
  6
Continuous
 62
     7
100
AcDbLine
 10
-72.34448128150402
 20
25.22020763640836
 30
0.0
 11
-72.34448128150402
 21
33.72020763640836
 31
0.0
  0
LINE
  5
1D7
330
71
100
AcDbEntity
  8
1
  6
Continuous
 62
     7
100
AcDbLine
 10
-35.9444812815041
 20
25.22020763640836
 30
0.0
 11
-35.9444812815041
 21
33.72020763640836
 31
0.0
  0
LINE
  5
1D8
330
71
100
AcDbEntity
  8
1
  6
Continuous
 62
     7
100
AcDbLine
 10
21.78191496356888
 20
33.72020763640836
 30
0.0
 11
21.78191496356888
 21
25.22020763640836
 31
0.0
  0
LINE
  5
1D9
330
71
100
AcDbEntity
  8
1
  6
Continuous
 62
     7
100
AcDbLine
 10
48.28191496356848
 20
33.72020763640836
 30
0.0
 11
48.28191496356848
 21
25.22020763640836
 31
0.0
  0
LINE
  5
1DA
330
71
100
AcDbEntity
  8
1
  6
Continuous
 62
     6
100
AcDbLine
 10
-141.344481281504
 20
8.22020763640836
 30
0.0
 11
-186.299676754754
 21
8.22020763640836
 31
0.0
  0
LINE
  5
1DB
330
71
100
AcDbEntity
  8
1
  6
Continuous
 62
     7
100
AcDbLine
 10
57.20032324524729
 20
16.72020763640836
 30
0.0
 11
-35.9444812815041
 21
16.72020763640836
 31
0.0
  0
LINE
  5
1DC
102
{ACAD_REACTORS
330
2EE
330
2EF
102
}
330
71
100
AcDbEntity
  8
0
  6
Continuous
 62
     2
100
AcDbLine
 10
-58.63705233973661
 20
17.52049675207167
 30
0.0
 11
-58.63705233973661
 21
18.39301375887496
 31
0.0
  0
LINE
  5
1DD
102
{ACAD_REACTORS
330
2EE
330
2EF
102
}
330
71
100
AcDbEntity
  8
0
  6
Continuous
 62
     2
100
AcDbLine
 10
-58.63705233973661
 20
16.56072804458876
 30
0.0
 11
-58.63705233973661
 21
15.68821103778555
 31
0.0
  0
LINE
  5
1DE
102
{ACAD_REACTORS
330
2F0
330
2F1
102
}
330
71
100
AcDbEntity
  8
0
  6
Continuous
 62
     2
100
AcDbLine
 10
-43.3040082034461
 20
17.78225185411216
 30
0.0
 11
-42.200368903878
 21
17.78225185411216
 31
0.0
  0
LINE
  5
1DF
102
{ACAD_REACTORS
330
2F0
330
2F1
102
}
330
71
100
AcDbEntity
  8
0
  6
Continuous
 62
     2
100
AcDbLine
 10
-42.53435086048469
 20
16.56072804458827
 30
0.0
 11
-42.53435086048469
 21
15.68821103778495
 31
0.0
  0
LINE
  5
1E0
102
{ACAD_REACTORS
330
2FA
330
2FB
102
}
330
71
100
AcDbEntity
  8
0
  6
Continuous
 62
     2
100
AcDbLine
 10
-44.39510747586462
 20
18.87289811259896
 30
0.0
 11
-42.99715442892432
 21
20.45375710637396
 31
0.0
  0
LINE
  5
1E1
102
{ACAD_REACTORS
330
2FA
330
2FB
102
}
330
71
100
AcDbEntity
  8
0
  6
Continuous
 62
     2
100
AcDbLine
 10
-44.2996840596918
 20
21.92670763641016
 30
0.0
 11
-42.99715442892432
 21
20.45375710637396
 31
0.0
  0
LINE
  5
1E2
102
{ACAD_REACTORS
330
2FA
330
2FB
102
}
330
71
100
AcDbEntity
  8
0
  6
Continuous
 62
     2
100
AcDbLine
 10
-41.69462479815792
 20
21.92670763641016
 30
0.0
 11
-40.2919005804107
 21
21.92670763641016
 31
0.0
  0
LINE
  5
1E3
102
{ACAD_REACTORS
330
2FA
330
2FB
102
}
330
71
100
AcDbEntity
  8
0
  6
Continuous
 62
     2
100
AcDbLine
 10
-42.99238325811641
 20
18.87289811259896
 30
0.0
 11
-42.29579232005071
 21
19.66062989789268
 31
0.0
  0
LINE
  5
1E4
102
{ACAD_REACTORS
330
2FA
330
2FB
102
}
330
71
100
AcDbEntity
  8
0
  6
Continuous
 62
     2
100
AcDbLine
 10
-42.99238325811641
 20
18.87289811259896
 30
0.0
 11
-44.39510747586462
 21
18.87289811259896
 31
0.0
  0
LINE
  5
1E5
102
{ACAD_REACTORS
330
2FC
330
2FD
102
}
330
71
100
AcDbEntity
  8
0
  6
Continuous
 62
     2
100
AcDbLine
 10
-44.5143867460815
 20
18.87289811259896
 30
0.0
 11
-45.7548911563344
 21
18.87289811259896
 31
0.0
  0
LINE
  5
1E6
102
{ACAD_REACTORS
330
2FE
330
2FF
102
}
330
71
100
AcDbEntity
  8
0
  6
Continuous
 62
     2
100
AcDbLine
 10
-46.62287076448951
 20
16.73523144594915
 30
0.0
 11
-46.92303600167961
 21
17.50304641193586
 31
0.0
  0
LINE
  5
1E7
102
{ACAD_REACTORS
330
2FE
330
2FF
102
}
330
71
100
AcDbEntity
  8
0
  6
Continuous
 62
     2
100
AcDbLine
 10
-47.22320123887201
 20
16.73523144594915
 30
0.0
 11
-46.62287076448951
 21
16.73523144594915
 31
0.0
  0
LINE
  5
1E8
102
{ACAD_REACTORS
330
2FE
330
2FF
102
}
330
71
100
AcDbEntity
  8
0
  6
Continuous
 62
     2
100
AcDbLine
 10
-48.9412412537458
 20
15.51370763642467
 30
0.0
 11
-47.70073684349282
 21
15.51370763642467
 31
0.0
  0
LINE
  5
1E9
102
{ACAD_REACTORS
330
2FE
330
2FF
102
}
330
71
100
AcDbEntity
  8
0
  6
Continuous
 62
     2
100
AcDbLine
 10
-47.54328820680649
 20
18.56751716023575
 30
0.0
 11
-46.3027837965538
 21
18.56751716023575
 31
0.0
  0
LINE
  5
1EA
102
{ACAD_REACTORS
330
2FE
330
2FF
102
}
330
71
100
AcDbEntity
  8
0
  6
Continuous
 62
     2
100
AcDbLine
 10
-46.3027837965538
 20
18.56751716023575
 30
0.0
 11
-44.9048307496135
 21
15.51370763642467
 31
0.0
  0
LINE
  5
1EB
102
{ACAD_REACTORS
330
2FE
330
2FF
102
}
330
71
100
AcDbEntity
  8
0
  6
Continuous
 62
     2
100
AcDbLine
 10
-46.14533515986742
 20
15.51370763642467
 30
0.0
 11
-46.3568152133432
 21
16.05466818064255
 31
0.0
  0
LINE
  5
1EC
102
{ACAD_REACTORS
330
300
330
301
102
}
330
71
100
AcDbEntity
  8
0
  6
Continuous
 62
     2
100
AcDbLine
 10
-50.28765435545341
 20
15.51370763642467
 30
0.0
 11
-49.0948616532869
 21
15.51370763642467
 31
0.0
  0
LINE
  5
1ED
102
{ACAD_REACTORS
330
300
330
301
102
}
330
71
100
AcDbEntity
  8
0
  6
Continuous
 62
     2
100
AcDbLine
 10
-50.28765435545341
 20
17.78225185411216
 30
0.0
 11
-50.28765435545341
 21
15.51370763642467
 31
0.0
  0
LINE
  5
1EE
102
{ACAD_REACTORS
330
300
330
301
102
}
330
71
100
AcDbEntity
  8
0
  6
Continuous
 62
     2
100
AcDbLine
 10
-51.09875339292802
 20
18.56751716023575
 30
0.0
 11
-51.09875339292802
 21
17.78225185411216
 31
0.0
  0
LINE
  5
1EF
102
{ACAD_REACTORS
330
302
330
303
102
}
330
71
100
AcDbEntity
  8
0
  6
Continuous
 62
     2
100
AcDbLine
 10
-49.61953951135541
 20
18.87289811259896
 30
0.0
 11
-48.4267468091889
 21
18.87289811259896
 31
0.0
  0
LINE
  5
1F0
102
{ACAD_REACTORS
330
302
330
303
102
}
330
71
100
AcDbEntity
  8
0
  6
Continuous
 62
     2
100
AcDbLine
 10
-47.18624239893489
 20
20.61793212620498
 30
0.0
 11
-48.4267468091889
 21
21.92670763641016
 31
0.0
  0
LINE
  5
1F1
102
{ACAD_REACTORS
330
302
330
303
102
}
330
71
100
AcDbEntity
  8
0
  6
Continuous
 62
     2
100
AcDbLine
 10
-45.9934496967683
 20
21.92670763641016
 30
0.0
 11
-47.18624239893489
 21
21.92670763641016
 31
0.0
  0
LINE
  5
1F2
102
{ACAD_REACTORS
330
302
330
303
102
}
330
71
100
AcDbEntity
  8
0
  6
Continuous
 62
     2
100
AcDbLine
 10
-45.9934496967683
 20
18.87289811259896
 30
0.0
 11
-45.9934496967683
 21
21.92670763641016
 31
0.0
  0
LINE
  5
1F3
102
{ACAD_REACTORS
330
302
330
303
102
}
330
71
100
AcDbEntity
  8
0
  6
Continuous
 62
     2
100
AcDbLine
 10
-47.18624239893489
 20
18.87289811259896
 30
0.0
 11
-45.9934496967683
 21
18.87289811259896
 31
0.0
  0
LINE
  5
1F4
102
{ACAD_REACTORS
330
302
330
303
102
}
330
71
100
AcDbEntity
  8
0
  6
Continuous
 62
     2
100
AcDbLine
 10
-48.4267468091889
 20
20.18167362280366
 30
0.0
 11
-47.18624239893489
 21
18.87289811259896
 31
0.0
  0
LINE
  5
1F5
102
{ACAD_REACTORS
330
304
330
305
102
}
330
71
100
AcDbEntity
  8
0
  6
Continuous
 62
     2
100
AcDbLine
 10
-52.43468121935462
 20
17.25874165003066
 30
0.0
 11
-53.67518562960751
 21
18.56751716023575
 31
0.0
  0
LINE
  5
1F6
102
{ACAD_REACTORS
330
304
330
305
102
}
330
71
100
AcDbEntity
  8
0
  6
Continuous
 62
     2
100
AcDbLine
 10
-52.43468121935462
 20
18.56751716023575
 30
0.0
 11
-52.43468121935462
 21
17.25874165003066
 31
0.0
  0
LINE
  5
1F7
102
{ACAD_REACTORS
330
304
330
305
102
}
330
71
100
AcDbEntity
  8
0
  6
Continuous
 62
     2
100
AcDbLine
 10
-51.24188851718822
 20
18.56751716023575
 30
0.0
 11
-52.43468121935462
 21
18.56751716023575
 31
0.0
  0
LINE
  5
1F8
102
{ACAD_REACTORS
330
304
330
305
102
}
330
71
100
AcDbEntity
  8
0
  6
Continuous
 62
     2
100
AcDbLine
 10
-51.24188851718822
 20
15.51370763642467
 30
0.0
 11
-51.24188851718822
 21
18.56751716023575
 31
0.0
  0
LINE
  5
1F9
102
{ACAD_REACTORS
330
304
330
305
102
}
330
71
100
AcDbEntity
  8
0
  6
Continuous
 62
     2
100
AcDbLine
 10
-53.67518562960751
 20
16.82248314662925
 30
0.0
 11
-52.43468121935462
 21
15.51370763642467
 31
0.0
  0
LINE
  5
1FA
102
{ACAD_REACTORS
330
304
330
305
102
}
330
71
100
AcDbEntity
  8
0
  6
Continuous
 62
     2
100
AcDbLine
 10
-53.67518562960751
 20
15.51370763642467
 30
0.0
 11
-53.67518562960751
 21
16.82248314662925
 31
0.0
  0
LINE
  5
1FB
102
{ACAD_REACTORS
330
2F4
330
2F5
102
}
330
71
100
AcDbEntity
  8
0
  6
Continuous
 62
     2
100
AcDbLine
 10
-51.194025878216
 20
21.22869403096718
 30
0.0
 11
-49.85809805178832
 21
21.22869403096718
 31
0.0
  0
LINE
  5
1FC
102
{ACAD_REACTORS
330
2F4
330
2F5
102
}
330
71
100
AcDbEntity
  8
0
  6
Continuous
 62
     2
100
AcDbLine
 10
-51.194025878216
 20
19.57091171804146
 30
0.0
 11
-51.194025878216
 21
20.05079607178317
 31
0.0
  0
LINE
  5
1FD
102
{ACAD_REACTORS
330
2F4
330
2F5
102
}
330
71
100
AcDbEntity
  8
0
  6
Continuous
 62
     2
100
AcDbLine
 10
-49.85809805178832
 20
19.57091171804146
 30
0.0
 11
-51.194025878216
 21
19.57091171804146
 31
0.0
  0
LINE
  5
1FE
102
{ACAD_REACTORS
330
2F4
330
2F5
102
}
330
71
100
AcDbEntity
  8
0
  6
Continuous
 62
     2
100
AcDbLine
 10
-49.85809805178832
 20
18.87289811259896
 30
0.0
 11
-49.85809805178832
 21
19.57091171804146
 31
0.0
  0
LINE
  5
1FF
102
{ACAD_REACTORS
330
2F4
330
2F5
102
}
330
71
100
AcDbEntity
  8
0
  6
Continuous
 62
     2
100
AcDbLine
 10
-53.00841777556931
 20
18.87289811259896
 30
0.0
 11
-49.85809805178832
 21
18.87289811259896
 31
0.0
  0
LINE
  5
200
102
{ACAD_REACTORS
330
2F4
330
2F5
102
}
330
71
100
AcDbEntity
  8
0
  6
Continuous
 62
     2
100
AcDbLine
 10
-53.00841777556931
 20
21.92670763641016
 30
0.0
 11
-49.85809805178832
 21
21.92670763641016
 31
0.0
  0
LINE
  5
201
102
{ACAD_REACTORS
330
2F4
330
2F5
102
}
330
71
100
AcDbEntity
  8
0
  6
Continuous
 62
     2
100
AcDbLine
 10
-49.85809805178832
 20
21.22869403096718
 30
0.0
 11
-49.85809805178832
 21
21.92670763641016
 31
0.0
  0
LINE
  5
202
102
{ACAD_REACTORS
330
306
330
307
102
}
330
71
100
AcDbEntity
  8
0
  6
Continuous
 62
     2
100
AcDbLine
 10
-55.86977327070932
 20
20.85787430307556
 30
0.0
 11
-55.86977327070932
 21
21.92670763641016
 31
0.0
  0
LINE
  5
203
102
{ACAD_REACTORS
330
306
330
307
102
}
330
71
100
AcDbEntity
  8
0
  6
Continuous
 62
     2
100
AcDbLine
 10
-55.86977327070932
 20
21.92670763641016
 30
0.0
 11
-54.67698056854292
 21
21.92670763641016
 31
0.0
  0
LINE
  5
204
102
{ACAD_REACTORS
330
306
330
307
102
}
330
71
100
AcDbEntity
  8
0
  6
Continuous
 62
     2
100
AcDbLine
 10
-55.86977327070932
 20
20.00717022144278
 30
0.0
 11
-56.9194308486168
 21
20.00717022144278
 31
0.0
  0
LINE
  5
205
102
{ACAD_REACTORS
330
306
330
307
102
}
330
71
100
AcDbEntity
  8
0
  6
Continuous
 62
     2
100
AcDbLine
 10
-56.9194308486168
 20
20.00717022144278
 30
0.0
 11
-56.9194308486168
 21
18.87289811259896
 31
0.0
  0
LINE
  5
206
102
{ACAD_REACTORS
330
306
330
307
102
}
330
71
100
AcDbEntity
  8
0
  6
Continuous
 62
     2
100
AcDbLine
 10
-58.1122235507834
 20
21.92670763641016
 30
0.0
 11
-58.1122235507834
 21
18.87289811259896
 31
0.0
  0
LINE
  5
207
102
{ACAD_REACTORS
330
2F8
330
2F9
102
}
330
71
100
AcDbEntity
  8
0
  6
Continuous
 62
     2
100
AcDbLine
 10
-60.068403582337
 20
20.55787414162785
 30
0.0
 11
-60.068403582337
 21
21.26360179097006
 31
0.0
  0
LINE
  5
208
102
{ACAD_REACTORS
330
2F8
330
2F9
102
}
330
71
100
AcDbEntity
  8
0
  6
Continuous
 62
     2
100
AcDbLine
 10
-61.30890799259112
 20
18.87289811259896
 30
0.0
 11
-60.068403582337
 21
18.87289811259896
 31
0.0
  0
LINE
  5
209
102
{ACAD_REACTORS
330
2F8
330
2F9
102
}
330
71
100
AcDbEntity
  8
0
  6
Continuous
 62
     2
100
AcDbLine
 10
-60.068403582337
 20
18.87289811259896
 30
0.0
 11
-60.068403582337
 21
19.81597635374277
 31
0.0
  0
LINE
  5
20A
102
{ACAD_REACTORS
330
2F2
330
2F3
102
}
330
71
100
AcDbEntity
  8
0
  6
Continuous
 62
     2
100
AcDbLine
 10
-65.6138538418025
 20
16.22626319198156
 30
0.0
 11
-67.08968710281212
 21
16.22626319198156
 31
0.0
  0
LINE
  5
20B
102
{ACAD_REACTORS
330
2F2
330
2F3
102
}
330
71
100
AcDbEntity
  8
0
  6
Continuous
 62
     2
100
AcDbLine
 10
-68.10782639494141
 20
21.50246302100817
 30
0.0
 11
-68.10782639494141
 21
15.93795225180796
 31
0.0
  0
LINE
  5
20C
102
{ACAD_REACTORS
330
2F2
330
2F3
102
}
330
71
100
AcDbEntity
  8
0
  6
Continuous
 62
     2
100
AcDbLine
 10
-67.68358177955861
 20
21.92670763639197
 30
0.0
 11
-62.21026968884181
 21
21.92670763639197
 31
0.0
  0
LINE
  5
20D
102
{ACAD_REACTORS
330
2F2
330
2F3
102
}
330
71
100
AcDbEntity
  8
0
  6
Continuous
 62
     2
100
AcDbLine
 10
-61.78602507345792
 20
21.50246302100817
 30
0.0
 11
-61.78602507345792
 21
15.93795225180796
 31
0.0
  0
LINE
  5
20E
102
{ACAD_REACTORS
330
2F2
330
2F3
102
}
330
71
100
AcDbEntity
  8
0
  6
Continuous
 62
     2
100
AcDbLine
 10
-62.21026968884181
 20
15.51370763642467
 30
0.0
 11
-67.68358177955861
 21
15.51370763642467
 31
0.0
  0
LINE
  5
20F
102
{ACAD_REACTORS
330
2F2
330
2F3
102
}
330
71
100
AcDbEntity
  8
0
  6
Continuous
 62
     2
100
AcDbLine
 10
-65.2981369187259
 20
16.54198011505827
 30
0.0
 11
-65.2981369187259
 21
18.07275104658987
 31
0.0
  0
LINE
  5
210
102
{ACAD_REACTORS
330
2F2
330
2F3
102
}
330
71
100
AcDbEntity
  8
0
  6
Continuous
 62
     2
100
AcDbLine
 10
-65.2981369187259
 20
20.29441053871486
 30
0.0
 11
-65.2981369187259
 21
20.89843515777537
 31
0.0
  0
LINE
  5
211
102
{ACAD_REACTORS
330
2F2
330
2F3
102
}
330
71
100
AcDbEntity
  8
0
  6
Continuous
 62
     2
100
AcDbLine
 10
-67.08968710281212
 20
21.21415208085156
 30
0.0
 11
-65.6138538418025
 21
21.21415208085156
 31
0.0
  0
LINE
  5
212
102
{ACAD_REACTORS
330
2F2
330
2F3
102
}
330
71
100
AcDbEntity
  8
0
  6
Continuous
 62
     2
100
AcDbLine
 10
-67.4054040258878
 20
20.89843515777537
 30
0.0
 11
-67.4054040258878
 21
16.54198011505827
 31
0.0
  0
LINE
  5
213
102
{ACAD_REACTORS
330
2F8
330
2F9
102
}
330
71
100
AcDbEntity
  8
0
  6
Continuous
 62
     2
100
AcDbLine
 10
-60.068403582337
 20
19.81597635374277
 30
0.0
 11
-59.30963599455671
 21
19.81597635374277
 31
0.0
  0
LINE
  5
214
102
{ACAD_REACTORS
330
2F8
330
2F9
102
}
330
71
100
AcDbEntity
  8
0
  6
Continuous
 62
     2
100
AcDbLine
 10
-61.30890799259112
 20
21.92670763641016
 30
0.0
 11
-59.30963599455671
 21
21.92670763641016
 31
0.0
  0
LINE
  5
215
102
{ACAD_REACTORS
330
2F8
330
2F9
102
}
330
71
100
AcDbEntity
  8
0
  6
Continuous
 62
     2
100
AcDbLine
 10
-61.30890799259112
 20
21.92670763641016
 30
0.0
 11
-61.30890799259112
 21
18.87289811259896
 31
0.0
  0
LINE
  5
216
102
{ACAD_REACTORS
330
2F8
330
2F9
102
}
330
71
100
AcDbEntity
  8
0
  6
Continuous
 62
     2
100
AcDbLine
 10
-60.068403582337
 20
20.55787414162785
 30
0.0
 11
-59.7511085207951
 21
20.55787414162785
 31
0.0
  0
LINE
  5
217
102
{ACAD_REACTORS
330
2F8
330
2F9
102
}
330
71
100
AcDbEntity
  8
0
  6
Continuous
 62
     2
100
AcDbLine
 10
-60.068403582337
 20
21.26360179097006
 30
0.0
 11
-59.7511085207951
 21
21.26360179097006
 31
0.0
  0
LINE
  5
218
102
{ACAD_REACTORS
330
306
330
307
102
}
330
71
100
AcDbEntity
  8
0
  6
Continuous
 62
     2
100
AcDbLine
 10
-56.9194308486168
 20
20.85787430307556
 30
0.0
 11
-55.86977327070932
 21
20.85787430307556
 31
0.0
  0
LINE
  5
219
102
{ACAD_REACTORS
330
306
330
307
102
}
330
71
100
AcDbEntity
  8
0
  6
Continuous
 62
     2
100
AcDbLine
 10
-56.9194308486168
 20
21.92670763641016
 30
0.0
 11
-56.9194308486168
 21
20.85787430307556
 31
0.0
  0
LINE
  5
21A
102
{ACAD_REACTORS
330
306
330
307
102
}
330
71
100
AcDbEntity
  8
0
  6
Continuous
 62
     2
100
AcDbLine
 10
-58.1122235507834
 20
21.92670763641016
 30
0.0
 11
-56.9194308486168
 21
21.92670763641016
 31
0.0
  0
LINE
  5
21B
102
{ACAD_REACTORS
330
306
330
307
102
}
330
71
100
AcDbEntity
  8
0
  6
Continuous
 62
     2
100
AcDbLine
 10
-56.9194308486168
 20
18.87289811259896
 30
0.0
 11
-58.1122235507834
 21
18.87289811259896
 31
0.0
  0
LINE
  5
21C
102
{ACAD_REACTORS
330
306
330
307
102
}
330
71
100
AcDbEntity
  8
0
  6
Continuous
 62
     2
100
AcDbLine
 10
-55.86977327070932
 20
18.87289811259896
 30
0.0
 11
-55.86977327070932
 21
20.00717022144278
 31
0.0
  0
LINE
  5
21D
102
{ACAD_REACTORS
330
306
330
307
102
}
330
71
100
AcDbEntity
  8
0
  6
Continuous
 62
     2
100
AcDbLine
 10
-54.67698056854292
 20
18.87289811259896
 30
0.0
 11
-55.86977327070932
 21
18.87289811259896
 31
0.0
  0
LINE
  5
21E
102
{ACAD_REACTORS
330
306
330
307
102
}
330
71
100
AcDbEntity
  8
0
  6
Continuous
 62
     2
100
AcDbLine
 10
-54.67698056854292
 20
21.92670763641016
 30
0.0
 11
-54.67698056854292
 21
18.87289811259896
 31
0.0
  0
LINE
  5
21F
102
{ACAD_REACTORS
330
2F4
330
2F5
102
}
330
71
100
AcDbEntity
  8
0
  6
Continuous
 62
     2
100
AcDbLine
 10
-51.194025878216
 20
20.05079607178317
 30
0.0
 11
-49.85809805178832
 21
20.05079607178317
 31
0.0
  0
LINE
  5
220
102
{ACAD_REACTORS
330
2F4
330
2F5
102
}
330
71
100
AcDbEntity
  8
0
  6
Continuous
 62
     2
100
AcDbLine
 10
-49.85809805178832
 20
20.05079607178317
 30
0.0
 11
-49.85809805178832
 21
20.74880967722547
 31
0.0
  0
LINE
  5
221
102
{ACAD_REACTORS
330
2F4
330
2F5
102
}
330
71
100
AcDbEntity
  8
0
  6
Continuous
 62
     2
100
AcDbLine
 10
-49.85809805178832
 20
20.74880967722547
 30
0.0
 11
-51.194025878216
 21
20.74880967722547
 31
0.0
  0
LINE
  5
222
102
{ACAD_REACTORS
330
2F4
330
2F5
102
}
330
71
100
AcDbEntity
  8
0
  6
Continuous
 62
     2
100
AcDbLine
 10
-51.194025878216
 20
20.74880967722547
 30
0.0
 11
-51.194025878216
 21
21.22869403096718
 31
0.0
  0
LINE
  5
223
102
{ACAD_REACTORS
330
304
330
305
102
}
330
71
100
AcDbEntity
  8
0
  6
Continuous
 62
     2
100
AcDbLine
 10
-54.86797833177511
 20
15.51370763642467
 30
0.0
 11
-53.67518562960751
 21
15.51370763642467
 31
0.0
  0
LINE
  5
224
102
{ACAD_REACTORS
330
304
330
305
102
}
330
71
100
AcDbEntity
  8
0
  6
Continuous
 62
     2
100
AcDbLine
 10
-52.43468121935462
 20
15.51370763642467
 30
0.0
 11
-51.24188851718822
 21
15.51370763642467
 31
0.0
  0
LINE
  5
225
102
{ACAD_REACTORS
330
304
330
305
102
}
330
71
100
AcDbEntity
  8
0
  6
Continuous
 62
     2
100
AcDbLine
 10
-53.67518562960751
 20
18.56751716023575
 30
0.0
 11
-54.86797833177511
 21
18.56751716023575
 31
0.0
  0
LINE
  5
226
102
{ACAD_REACTORS
330
304
330
305
102
}
330
71
100
AcDbEntity
  8
0
  6
Continuous
 62
     2
100
AcDbLine
 10
-54.86797833177511
 20
18.56751716023575
 30
0.0
 11
-54.86797833177511
 21
15.51370763642467
 31
0.0
  0
LINE
  5
227
102
{ACAD_REACTORS
330
302
330
303
102
}
330
71
100
AcDbEntity
  8
0
  6
Continuous
 62
     2
100
AcDbLine
 10
-47.18624239893489
 20
21.92670763641016
 30
0.0
 11
-47.18624239893489
 21
20.61793212620498
 31
0.0
  0
LINE
  5
228
102
{ACAD_REACTORS
330
302
330
303
102
}
330
71
100
AcDbEntity
  8
0
  6
Continuous
 62
     2
100
AcDbLine
 10
-48.4267468091889
 20
21.92670763641016
 30
0.0
 11
-49.61953951135541
 21
21.92670763641016
 31
0.0
  0
LINE
  5
229
102
{ACAD_REACTORS
330
302
330
303
102
}
330
71
100
AcDbEntity
  8
0
  6
Continuous
 62
     2
100
AcDbLine
 10
-49.61953951135541
 20
21.92670763641016
 30
0.0
 11
-49.61953951135541
 21
18.87289811259896
 31
0.0
  0
LINE
  5
22A
102
{ACAD_REACTORS
330
302
330
303
102
}
330
71
100
AcDbEntity
  8
0
  6
Continuous
 62
     2
100
AcDbLine
 10
-48.4267468091889
 20
18.87289811259896
 30
0.0
 11
-48.4267468091889
 21
20.18167362280366
 31
0.0
  0
LINE
  5
22B
102
{ACAD_REACTORS
330
300
330
301
102
}
330
71
100
AcDbEntity
  8
0
  6
Continuous
 62
     2
100
AcDbLine
 10
-49.0948616532869
 20
15.51370763642467
 30
0.0
 11
-49.0948616532869
 21
17.78225185411216
 31
0.0
  0
LINE
  5
22C
102
{ACAD_REACTORS
330
300
330
301
102
}
330
71
100
AcDbEntity
  8
0
  6
Continuous
 62
     2
100
AcDbLine
 10
-49.0948616532869
 20
17.78225185411216
 30
0.0
 11
-48.2837626158144
 21
17.78225185411216
 31
0.0
  0
LINE
  5
22D
102
{ACAD_REACTORS
330
300
330
301
102
}
330
71
100
AcDbEntity
  8
0
  6
Continuous
 62
     2
100
AcDbLine
 10
-48.2837626158144
 20
17.78225185411216
 30
0.0
 11
-48.2837626158144
 21
18.56751716023575
 31
0.0
  0
LINE
  5
22E
102
{ACAD_REACTORS
330
300
330
301
102
}
330
71
100
AcDbEntity
  8
0
  6
Continuous
 62
     2
100
AcDbLine
 10
-48.2837626158144
 20
18.56751716023575
 30
0.0
 11
-51.09875339292802
 21
18.56751716023575
 31
0.0
  0
LINE
  5
22F
102
{ACAD_REACTORS
330
300
330
301
102
}
330
71
100
AcDbEntity
  8
0
  6
Continuous
 62
     2
100
AcDbLine
 10
-51.09875339292802
 20
17.78225185411216
 30
0.0
 11
-50.28765435545341
 21
17.78225185411216
 31
0.0
  0
LINE
  5
230
102
{ACAD_REACTORS
330
2FE
330
2FF
102
}
330
71
100
AcDbEntity
  8
0
  6
Continuous
 62
     2
100
AcDbLine
 10
-47.48925679001701
 20
16.05466818064255
 30
0.0
 11
-46.3568152133432
 21
16.05466818064255
 31
0.0
  0
LINE
  5
231
102
{ACAD_REACTORS
330
2FE
330
2FF
102
}
330
71
100
AcDbEntity
  8
0
  6
Continuous
 62
     2
100
AcDbLine
 10
-44.9048307496135
 20
15.51370763642467
 30
0.0
 11
-46.14533515986742
 21
15.51370763642467
 31
0.0
  0
LINE
  5
232
102
{ACAD_REACTORS
330
2FE
330
2FF
102
}
330
71
100
AcDbEntity
  8
0
  6
Continuous
 62
     2
100
AcDbLine
 10
-47.54328820680649
 20
18.56751716023575
 30
0.0
 11
-48.9412412537458
 21
15.51370763642467
 31
0.0
  0
LINE
  5
233
102
{ACAD_REACTORS
330
2FE
330
2FF
102
}
330
71
100
AcDbEntity
  8
0
  6
Continuous
 62
     2
100
AcDbLine
 10
-47.70073684349282
 20
15.51370763642467
 30
0.0
 11
-47.48925679001701
 21
16.05466818064255
 31
0.0
  0
LINE
  5
234
102
{ACAD_REACTORS
330
2FE
330
2FF
102
}
330
71
100
AcDbEntity
  8
0
  6
Continuous
 62
     2
100
AcDbLine
 10
-47.22320123887201
 20
16.73523144594915
 30
0.0
 11
-46.92303600167961
 21
17.50304641193586
 31
0.0
  0
LINE
  5
235
102
{ACAD_REACTORS
330
2FC
330
2FD
102
}
330
71
100
AcDbEntity
  8
0
  6
Continuous
 62
     2
100
AcDbLine
 10
-45.7548911563344
 20
18.87289811259896
 30
0.0
 11
-45.7548911563344
 21
21.92670763641016
 31
0.0
  0
LINE
  5
236
102
{ACAD_REACTORS
330
2FC
330
2FD
102
}
330
71
100
AcDbEntity
  8
0
  6
Continuous
 62
     2
100
AcDbLine
 10
-44.5143867460815
 20
21.92670763641016
 30
0.0
 11
-44.5143867460815
 21
18.87289811259896
 31
0.0
  0
LINE
  5
237
102
{ACAD_REACTORS
330
2FC
330
2FD
102
}
330
71
100
AcDbEntity
  8
0
  6
Continuous
 62
     2
100
AcDbLine
 10
-45.7548911563344
 20
21.92670763641016
 30
0.0
 11
-44.5143867460815
 21
21.92670763641016
 31
0.0
  0
LINE
  5
238
102
{ACAD_REACTORS
330
2FA
330
2FB
102
}
330
71
100
AcDbEntity
  8
0
  6
Continuous
 62
     2
100
AcDbLine
 10
-42.29579232005071
 20
19.66062989789268
 30
0.0
 11
-41.59920138198521
 21
18.87289811259896
 31
0.0
  0
LINE
  5
239
102
{ACAD_REACTORS
330
2FA
330
2FB
102
}
330
71
100
AcDbEntity
  8
0
  6
Continuous
 62
     2
100
AcDbLine
 10
-41.59920138198521
 20
18.87289811259896
 30
0.0
 11
-40.19647716423691
 21
18.87289811259896
 31
0.0
  0
LINE
  5
23A
102
{ACAD_REACTORS
330
2FA
330
2FB
102
}
330
71
100
AcDbEntity
  8
0
  6
Continuous
 62
     2
100
AcDbLine
 10
-41.59443021117721
 20
20.45375710637396
 30
0.0
 11
-40.19647716423691
 21
18.87289811259896
 31
0.0
  0
LINE
  5
23B
102
{ACAD_REACTORS
330
2FA
330
2FB
102
}
330
71
100
AcDbEntity
  8
0
  6
Continuous
 62
     2
100
AcDbLine
 10
-41.59443021117721
 20
20.45375710637396
 30
0.0
 11
-40.2919005804107
 21
21.92670763641016
 31
0.0
  0
LINE
  5
23C
102
{ACAD_REACTORS
330
2FA
330
2FB
102
}
330
71
100
AcDbEntity
  8
0
  6
Continuous
 62
     2
100
AcDbLine
 10
-42.29579232005071
 20
21.24688431485467
 30
0.0
 11
-41.69462479815792
 21
21.92670763641016
 31
0.0
  0
LINE
  5
23D
102
{ACAD_REACTORS
330
2FA
330
2FB
102
}
330
71
100
AcDbEntity
  8
0
  6
Continuous
 62
     2
100
AcDbLine
 10
-42.8969598419425
 20
21.92670763641016
 30
0.0
 11
-42.29579232005071
 21
21.24688431485467
 31
0.0
  0
LINE
  5
23E
102
{ACAD_REACTORS
330
2FA
330
2FB
102
}
330
71
100
AcDbEntity
  8
0
  6
Continuous
 62
     2
100
AcDbLine
 10
-42.8969598419425
 20
21.92670763641016
 30
0.0
 11
-44.2996840596918
 21
21.92670763641016
 31
0.0
  0
LINE
  5
23F
102
{ACAD_REACTORS
330
2F0
330
2F1
102
}
330
71
100
AcDbEntity
  8
0
  6
Continuous
 62
     2
100
AcDbLine
 10
-42.200368903878
 20
15.51370763642467
 30
0.0
 11
-41.00757620171029
 21
15.51370763642467
 31
0.0
  0
LINE
  5
240
102
{ACAD_REACTORS
330
2F0
330
2F1
102
}
330
71
100
AcDbEntity
  8
0
  6
Continuous
 62
     2
100
AcDbLine
 10
-41.00757620171029
 20
15.51370763642467
 30
0.0
 11
-41.00757620171029
 21
17.78225185411216
 31
0.0
  0
LINE
  5
241
102
{ACAD_REACTORS
330
2F0
330
2F1
102
}
330
71
100
AcDbEntity
  8
0
  6
Continuous
 62
     2
100
AcDbLine
 10
-41.00757620171029
 20
17.78225185411216
 30
0.0
 11
-40.19647716423691
 21
17.78225185411216
 31
0.0
  0
LINE
  5
242
102
{ACAD_REACTORS
330
2F0
330
2F1
102
}
330
71
100
AcDbEntity
  8
0
  6
Continuous
 62
     2
100
AcDbLine
 10
-40.19647716423691
 20
17.78225185411216
 30
0.0
 11
-40.19647716423691
 21
18.56751716023575
 31
0.0
  0
LINE
  5
243
102
{ACAD_REACTORS
330
2F0
330
2F1
102
}
330
71
100
AcDbEntity
  8
0
  6
Continuous
 62
     2
100
AcDbLine
 10
-43.58142268286559
 20
18.56751716023527
 30
0.0
 11
-40.19647716423691
 21
18.56751716023575
 31
0.0
  0
LINE
  5
244
102
{ACAD_REACTORS
330
2F0
330
2F1
102
}
330
71
100
AcDbEntity
  8
0
  6
Continuous
 62
     2
100
AcDbLine
 10
-42.200368903878
 20
17.78225185411216
 30
0.0
 11
-42.200368903878
 21
15.51370763642467
 31
0.0
  0
LINE
  5
245
102
{ACAD_REACTORS
330
2F2
330
2F3
102
}
330
71
100
AcDbEntity
  8
0
  6
Continuous
 62
     2
100
AcDbLine
 10
-64.82985533935721
 20
17.49258778598917
 30
0.0
 11
-64.82985533935721
 21
18.07443919268425
 31
0.0
  0
LINE
  5
246
102
{ACAD_REACTORS
330
2F2
330
2F3
102
}
330
71
100
AcDbEntity
  8
0
  6
Continuous
 62
     2
100
AcDbLine
 10
-64.82985533935721
 20
20.29272239262048
 30
0.0
 11
-64.82985533935721
 21
20.89825768112726
 31
0.0
  0
LINE
  5
247
330
71
100
AcDbEntity
  8
1
  6
Continuous
 62
     6
100
AcDbLine
 10
-86.29967675475399
 20
8.22020763640836
 30
0.0
 11
-72.34448128150402
 21
8.22020763640825
 31
0.0
  0
LINE
  5
248
330
71
100
AcDbEntity
  8
1
  6
Continuous
 62
     6
100
AcDbLine
 10
-136.2996767547542
 20
8.22020763640836
 30
0.0
 11
-141.344481281504
 21
8.22020763640836
 31
0.0
  0
LINE
  5
249
330
71
100
AcDbEntity
  8
1
  6
Continuous
 62
     6
100
AcDbLine
 10
13.70032324524598
 20
8.22020763640836
 30
0.0
 11
57.200323245246
 21
8.22020763640836
 31
0.0
  0
LINE
  5
24A
330
71
100
AcDbEntity
  8
1
  6
Continuous
 62
     6
100
AcDbLine
 10
-36.29967675475402
 20
8.22020763640836
 30
0.0
 11
-54.144481281504
 21
8.22020763640836
 31
0.0
  0
LINE
  5
24B
330
71
100
AcDbEntity
  8
1
  6
Continuous
 62
     2
100
AcDbLine
 10
57.200323245246
 20
8.22020763640836
 30
0.0
 11
62.20032324524499
 21
8.22020763640836
 31
0.0
  0
LINE
  5
24C
330
71
100
AcDbEntity
  8
1
  6
Continuous
 62
     2
100
AcDbLine
 10
57.200323245246
 20
8.22020763640836
 30
0.0
 11
57.200323245246
 21
3.22020763640825
 31
0.0
  0
LINE
  5
24D
330
71
100
AcDbEntity
  8
1
  6
Continuous
 62
     6
100
AcDbLine
 10
-72.34448128150402
 20
25.22020763640836
 30
0.0
 11
-35.9444812815041
 21
25.22020763640836
 31
0.0
  0
LINE
  5
24E
330
71
100
AcDbEntity
  8
1
  6
Continuous
 62
     2
100
AcDbLine
 10
62.20032324524499
 20
3.22020763640825
 30
0.0
 11
62.20032324524499
 21
8.22020763640836
 31
0.0
  0
LINE
  5
24F
330
71
100
AcDbEntity
  8
1
  6
Continuous
 62
     2
100
AcDbLine
 10
62.20032324524499
 20
3.22020763640825
 30
0.0
 11
57.200323245246
 21
3.22020763640825
 31
0.0
  0
LINE
  5
250
330
71
100
AcDbEntity
  8
1
  6
Continuous
 62
     2
100
AcDbLine
 10
57.200323245246
 20
3.22020763640825
 30
0.0
 11
13.70032324524598
 21
3.22020763640825
 31
0.0
  0
LINE
  5
251
330
71
100
AcDbEntity
  8
1
  6
Continuous
 62
     6
100
AcDbLine
 10
57.20032324524769
 20
25.22020763640836
 30
0.0
 11
57.20032324524689
 21
58.22020763640848
 31
0.0
  0
LINE
  5
252
330
71
100
AcDbEntity
  8
1
  6
Continuous
 62
     2
100
AcDbLine
 10
62.20032324524499
 20
213.2202076364084
 30
0.0
 11
-86.29967675475399
 21
213.2202076364084
 31
0.0
  0
LINE
  5
253
330
71
100
AcDbEntity
  8
1
  6
Continuous
 62
     6
100
AcDbLine
 10
57.20032324524499
 20
193.2202076364084
 30
0.0
 11
-229.7996767547531
 21
193.2202076364084
 31
0.0
  0
LINE
  5
254
330
71
100
AcDbEntity
  8
1
  6
Continuous
 62
     2
100
AcDbLine
 10
57.20032324524689
 20
58.22020763640848
 30
0.0
 11
62.20032324524499
 21
58.22020763640848
 31
0.0
  0
LINE
  5
255
330
71
100
AcDbEntity
  8
1
  6
Continuous
 62
     6
100
AcDbLine
 10
57.20032324524689
 20
58.22020763640848
 30
0.0
 11
57.2003232452464
 21
108.2202076364083
 31
0.0
  0
LINE
  5
256
330
71
100
AcDbEntity
  8
1
  6
Continuous
 62
     2
100
AcDbLine
 10
62.20032324524499
 20
58.22020763640848
 30
0.0
 11
62.20032324524499
 21
108.2202076364083
 31
0.0
  0
LINE
  5
257
330
71
100
AcDbEntity
  8
1
  6
Continuous
 62
     2
100
AcDbLine
 10
57.2003232452464
 20
108.2202076364083
 30
0.0
 11
62.20032324524499
 21
108.2202076364083
 31
0.0
  0
LINE
  5
258
330
71
100
AcDbEntity
  8
1
  6
Continuous
 62
     6
100
AcDbLine
 10
57.2003232452464
 20
108.2202076364083
 30
0.0
 11
57.20032324524519
 21
158.2202076364084
 31
0.0
  0
LINE
  5
259
330
71
100
AcDbEntity
  8
1
  6
Continuous
 62
     2
100
AcDbLine
 10
62.20032324524499
 20
108.2202076364083
 30
0.0
 11
62.20032324524499
 21
158.2202076364084
 31
0.0
  0
LINE
  5
25A
330
71
100
AcDbEntity
  8
1
  6
Continuous
 62
     2
100
AcDbLine
 10
57.20032324524519
 20
158.2202076364084
 30
0.0
 11
62.20032324524499
 21
158.2202076364084
 31
0.0
  0
LINE
  5
25B
330
71
100
AcDbEntity
  8
1
  6
Continuous
 62
     6
100
AcDbLine
 10
57.20032324524519
 20
158.2202076364084
 30
0.0
 11
57.20032324524499
 21
193.2202076364084
 31
0.0
  0
LINE
  5
25C
330
71
100
AcDbEntity
  8
1
  6
Continuous
 62
     2
100
AcDbLine
 10
62.20032324524499
 20
158.2202076364084
 30
0.0
 11
62.20032324524499
 21
213.2202076364084
 31
0.0
  0
LINE
  5
25D
330
71
100
AcDbEntity
  8
1
  6
Continuous
 62
     2
100
AcDbLine
 10
62.20032324524499
 20
8.22020763640836
 30
0.0
 11
62.20032324524499
 21
58.22020763640848
 31
0.0
  0
LINE
  5
25E
330
71
100
AcDbEntity
  8
1
  6
Continuous
 62
     2
100
AcDbLine
 10
-86.29967675475399
 20
213.2202076364084
 30
0.0
 11
-234.7996767547531
 21
213.2202076364084
 31
0.0
  0
LINE
  5
25F
330
71
100
AcDbEntity
  8
1
  6
Continuous
 62
     2
100
AcDbLine
 10
-86.29967675475399
 20
213.2202076364084
 30
0.0
 11
-86.29967675475399
 21
204.011515791707
 31
0.0
  0
LINE
  5
260
330
71
100
AcDbEntity
  8
1
  6
Continuous
 62
     2
100
AcDbLine
 10
-234.7996767547531
 20
3.22020763640825
 30
0.0
 11
-229.7996767547521
 21
3.22020763640825
 31
0.0
  0
LINE
  5
261
330
71
100
AcDbEntity
  8
1
  6
Continuous
 62
     2
100
AcDbLine
 10
-234.7996767547531
 20
213.2202076364084
 30
0.0
 11
-234.7996767547531
 21
158.2202076364084
 31
0.0
  0
LINE
  5
262
330
71
100
AcDbEntity
  8
1
  6
Continuous
 62
     6
100
AcDbLine
 10
-229.7996767547531
 20
193.2202076364084
 30
0.0
 11
-229.799676754753
 21
158.2202076364084
 31
0.0
  0
LINE
  5
263
330
71
100
AcDbEntity
  8
1
  6
Continuous
 62
     2
100
AcDbLine
 10
-234.7996767547531
 20
158.2202076364084
 30
0.0
 11
-229.799676754753
 21
158.2202076364084
 31
0.0
  0
LINE
  5
264
330
71
100
AcDbEntity
  8
1
  6
Continuous
 62
     2
100
AcDbLine
 10
-234.7996767547531
 20
158.2202076364084
 30
0.0
 11
-234.7996767547531
 21
108.2202076364083
 31
0.0
  0
LINE
  5
265
330
71
100
AcDbEntity
  8
1
  6
Continuous
 62
     6
100
AcDbLine
 10
-229.799676754753
 20
158.2202076364084
 30
0.0
 11
-229.7996767547525
 21
108.2202076364083
 31
0.0
  0
LINE
  5
266
330
71
100
AcDbEntity
  8
1
  6
Continuous
 62
     2
100
AcDbLine
 10
-234.7996767547531
 20
108.2202076364083
 30
0.0
 11
-229.7996767547525
 21
108.2202076364083
 31
0.0
  0
LINE
  5
267
330
71
100
AcDbEntity
  8
1
  6
Continuous
 62
     2
100
AcDbLine
 10
-234.7996767547531
 20
108.2202076364083
 30
0.0
 11
-234.7996767547531
 21
58.22020763640848
 31
0.0
  0
LINE
  5
268
330
71
100
AcDbEntity
  8
1
  6
Continuous
 62
     6
100
AcDbLine
 10
-229.7996767547525
 20
108.2202076364083
 30
0.0
 11
-229.7996767547523
 21
58.22020763640848
 31
0.0
  0
LINE
  5
269
330
71
100
AcDbEntity
  8
1
  6
Continuous
 62
     2
100
AcDbLine
 10
-234.7996767547531
 20
58.22020763640848
 30
0.0
 11
-229.7996767547523
 21
58.22020763640848
 31
0.0
  0
LINE
  5
26A
330
71
100
AcDbEntity
  8
1
  6
Continuous
 62
     2
100
AcDbLine
 10
-234.7996767547531
 20
58.22020763640848
 30
0.0
 11
-234.7996767547531
 21
8.22020763640836
 31
0.0
  0
LINE
  5
26B
330
71
100
AcDbEntity
  8
1
  6
Continuous
 62
     6
100
AcDbLine
 10
-229.7996767547523
 20
58.22020763640848
 30
0.0
 11
-229.7996767547521
 21
8.22020763640836
 31
0.0
  0
LINE
  5
26C
330
71
100
AcDbEntity
  8
1
  6
Continuous
 62
     2
100
AcDbLine
 10
-186.299676754754
 20
3.22020763640825
 30
0.0
 11
-186.299676754754
 21
8.22020763640836
 31
0.0
  0
LINE
  5
26D
330
71
100
AcDbEntity
  8
1
  6
Continuous
 62
     2
100
AcDbLine
 10
-186.299676754754
 20
3.22020763640825
 30
0.0
 11
-136.2996767547542
 21
3.22020763640825
 31
0.0
  0
LINE
  5
26E
330
71
100
AcDbEntity
  8
1
  6
Continuous
 62
     2
100
AcDbLine
 10
-136.2996767547542
 20
3.22020763640825
 30
0.0
 11
-136.2996767547542
 21
8.22020763640836
 31
0.0
  0
LINE
  5
26F
330
71
100
AcDbEntity
  8
1
  6
Continuous
 62
     2
100
AcDbLine
 10
-136.2996767547542
 20
3.22020763640825
 30
0.0
 11
-86.29967675475399
 21
3.22020763640825
 31
0.0
  0
LINE
  5
270
330
71
100
AcDbEntity
  8
1
  6
Continuous
 62
     2
100
AcDbLine
 10
-86.29967675475399
 20
3.22020763640825
 30
0.0
 11
-86.29967675475399
 21
8.22020763640836
 31
0.0
  0
LINE
  5
271
330
71
100
AcDbEntity
  8
1
  6
Continuous
 62
     2
100
AcDbLine
 10
-86.29967675475399
 20
3.22020763640825
 30
0.0
 11
-36.29967675475402
 21
3.22020763640825
 31
0.0
  0
LINE
  5
272
330
71
100
AcDbEntity
  8
1
  6
Continuous
 62
     2
100
AcDbLine
 10
-36.29967675475402
 20
3.22020763640825
 30
0.0
 11
-36.29967675475402
 21
8.22020763640836
 31
0.0
  0
LINE
  5
273
330
71
100
AcDbEntity
  8
1
  6
Continuous
 62
     2
100
AcDbLine
 10
13.70032324524598
 20
3.22020763640825
 30
0.0
 11
13.70032324524598
 21
8.22020763640836
 31
0.0
  0
LINE
  5
274
330
71
100
AcDbEntity
  8
1
  6
Continuous
 62
     2
100
AcDbLine
 10
13.70032324524598
 20
3.22020763640825
 30
0.0
 11
-36.29967675475402
 21
3.22020763640825
 31
0.0
  0
LINE
  5
275
330
71
100
AcDbEntity
  8
1
  6
Continuous
 62
     2
100
AcDbLine
 10
-229.7996767547521
 20
8.22020763640836
 30
0.0
 11
-229.7996767547521
 21
3.22020763640825
 31
0.0
  0
LINE
  5
276
330
71
100
AcDbEntity
  8
1
  6
Continuous
 62
     2
100
AcDbLine
 10
-229.7996767547521
 20
3.22020763640825
 30
0.0
 11
-186.299676754754
 21
3.22020763640825
 31
0.0
  0
LINE
  5
277
330
71
100
AcDbEntity
  8
1
  6
Continuous
 62
     2
100
AcDbLine
 10
-229.7996767547521
 20
8.22020763640836
 30
0.0
 11
-234.7996767547531
 21
8.22020763640836
 31
0.0
  0
LINE
  5
278
330
71
100
AcDbEntity
  8
1
  6
Continuous
 62
     2
100
AcDbLine
 10
-234.7996767547531
 20
8.22020763640836
 30
0.0
 11
-234.7996767547531
 21
3.22020763640825
 31
0.0
  0
LINE
  5
279
330
71
100
AcDbEntity
  8
1
  6
Continuous
 62
     6
100
AcDbLine
 10
57.200323245246
 20
8.22020763640836
 30
0.0
 11
57.20032324524729
 21
16.72020763640836
 31
0.0
  0
LINE
  5
27A
330
71
100
AcDbEntity
  8
1
  6
Continuous
 62
     6
100
AcDbLine
 10
-35.9444812815041
 20
8.22020763640825
 30
0.0
 11
13.70032324524598
 21
8.22020763640836
 31
0.0
  0
LINE
  5
27B
330
71
100
AcDbEntity
  8
1
  6
Continuous
 62
     6
100
AcDbLine
 10
-188.5996767547542
 20
8.22020763640825
 30
0.0
 11
-186.299676754754
 21
8.22020763640836
 31
0.0
  0
LINE
  5
27C
330
71
100
AcDbEntity
  8
1
  6
Continuous
 62
     6
100
AcDbLine
 10
-86.29967675475399
 20
8.22020763640836
 30
0.0
 11
-136.2996767547542
 21
8.22020763640836
 31
0.0
  0
LINE
  5
27D
330
71
100
AcDbEntity
  8
1
  6
Continuous
 62
     7
100
AcDbLine
 10
-72.34448128150402
 20
25.22020763640836
 30
0.0
 11
-72.34448128150402
 21
12.47020763640825
 31
0.0
  0
LINE
  5
27E
330
71
100
AcDbEntity
  8
1
  6
Continuous
 62
     7
100
AcDbLine
 10
-35.9444812815041
 20
25.22020763640836
 30
0.0
 11
-35.9444812815041
 21
12.47020763640836
 31
0.0
  0
LINE
  5
27F
330
71
100
AcDbEntity
  8
1
  6
Continuous
 62
     6
100
AcDbLine
 10
-188.5996767547542
 20
8.22020763640825
 30
0.0
 11
-194.7996767547522
 21
8.22020763640836
 31
0.0
  0
LINE
  5
280
330
71
100
AcDbEntity
  8
1
  6
Continuous
 62
     6
100
AcDbLine
 10
-35.9444812815041
 20
8.22020763640825
 30
0.0
 11
-36.29967675475402
 21
8.22020763640836
 31
0.0
  0
LINE
  5
281
330
71
100
AcDbEntity
  8
1
  6
Continuous
 62
     6
100
AcDbLine
 10
57.20032324524769
 20
25.22020763640836
 30
0.0
 11
57.20032324524729
 21
16.72020763640836
 31
0.0
  0
LINE
  5
282
330
71
100
AcDbEntity
  8
1
  6
Continuous
 62
     6
100
AcDbLine
 10
-194.7996767547522
 20
8.22020763640836
 30
0.0
 11
-229.7996767547521
 21
8.22020763640836
 31
0.0
  0
LINE
  5
283
330
71
100
AcDbEntity
  8
1
  6
Continuous
 62
     2
100
AcDbLine
 10
-68.10782639494141
 20
30.59520763640828
 30
0.0
 11
-63.10782639494141
 21
31.84520763640828
 31
0.0
  0
LINE
  5
284
330
71
100
AcDbEntity
  8
1
  6
Continuous
 62
     2
100
AcDbLine
 10
-68.10782639494141
 20
28.09520763640828
 30
0.0
 11
-68.10782639494141
 21
30.59520763640828
 31
0.0
  0
LINE
  5
285
330
71
100
AcDbEntity
  8
1
  6
Continuous
 62
     2
100
AcDbLine
 10
-63.10782639494141
 20
26.84520763640828
 30
0.0
 11
-68.10782639494141
 21
28.09520763640828
 31
0.0
  0
LINE
  5
286
330
71
100
AcDbEntity
  8
1
  6
Continuous
 62
     2
100
AcDbLine
 10
-63.10782639494141
 20
31.84520763640828
 30
0.0
 11
-63.10782639494141
 21
26.84520763640828
 31
0.0
  0
LINE
  5
287
330
71
100
AcDbEntity
  8
1
  6
Continuous
 62
     7
100
AcDbLine
 10
-72.34448128150402
 20
12.47020763640825
 30
0.0
 11
-54.144481281504
 21
12.47020763640836
 31
0.0
  0
LINE
  5
288
330
71
100
AcDbEntity
  8
1
  6
Continuous
 62
     7
100
AcDbLine
 10
-72.34448128150402
 20
12.47020763640825
 30
0.0
 11
-72.34448128150402
 21
8.22020763640825
 31
0.0
  0
LINE
  5
289
330
71
100
AcDbEntity
  8
1
  6
Continuous
 62
     7
100
AcDbLine
 10
-35.9444812815041
 20
12.47020763640836
 30
0.0
 11
-35.9444812815041
 21
8.22020763640825
 31
0.0
  0
LINE
  5
28A
330
71
100
AcDbEntity
  8
1
  6
Continuous
 62
     7
100
AcDbLine
 10
-54.144481281504
 20
12.47020763640836
 30
0.0
 11
-54.144481281504
 21
8.22020763640836
 31
0.0
  0
LINE
  5
28B
330
71
100
AcDbEntity
  8
1
  6
Continuous
 62
     6
100
AcDbLine
 10
-54.144481281504
 20
8.22020763640836
 30
0.0
 11
-72.34448128150402
 21
8.22020763640825
 31
0.0
  0
LINE
  5
28C
330
71
100
AcDbEntity
  8
1
  6
Continuous
 62
     7
100
AcDbLine
 10
-54.144481281504
 20
12.47020763640836
 30
0.0
 11
-35.9444812815041
 21
12.47020763640836
 31
0.0
  0
LINE
  5
28D
330
71
100
AcDbEntity
  8
1
  6
Continuous
 62
     6
100
AcDbLine
 10
-72.34448128150402
 20
33.72020763640836
 30
0.0
 11
57.20032324524769
 21
33.72020763640836
 31
0.0
  0
ARC
  5
28E
102
{ACAD_REACTORS
330
2F6
330
2F7
102
}
330
71
100
AcDbEntity
  8
0
  6
Continuous
 62
     2
100
AcDbCircle
 10
-56.95283328254402
 20
17.04061239832996
 30
0.0
 40
0.7717997786796947
100
AcDbArc
 50
321.8795802028417
 51
38.12041979715308
  0
ARC
  5
28F
102
{ACAD_REACTORS
330
2F6
330
2F7
102
}
330
71
100
AcDbEntity
  8
0
  6
Continuous
 62
     2
100
AcDbCircle
 10
-56.75309324619761
 20
16.88388122020996
 30
0.0
 40
0.5179085730137354
100
AcDbArc
 50
218.1204197971931
 51
321.879580202801
  0
ARC
  5
290
102
{ACAD_REACTORS
330
2F6
330
2F7
102
}
330
71
100
AcDbEntity
  8
0
  6
Continuous
 62
     2
100
AcDbCircle
 10
-56.55335320985151
 20
17.04061239832996
 30
0.0
 40
0.771799778679461
100
AcDbArc
 50
141.8795802028365
 51
218.1204197971687
  0
ARC
  5
291
102
{ACAD_REACTORS
330
2F6
330
2F7
102
}
330
71
100
AcDbEntity
  8
0
  6
Continuous
 62
     2
100
AcDbCircle
 10
-56.75309324619761
 20
17.19734357645046
 30
0.0
 40
0.5179085730133021
100
AcDbArc
 50
38.12041979714734
 51
141.8795802028585
  0
ARC
  5
292
102
{ACAD_REACTORS
330
2EE
330
2EF
102
}
330
71
100
AcDbEntity
  8
0
  6
Continuous
 62
     2
100
AcDbCircle
 10
-59.81510738176149
 20
15.63014603292177
 30
0.0
 40
2.227384008973482
100
AcDbArc
 50
58.0690910500408
 51
71.55192388186722
  0
ARC
  5
293
102
{ACAD_REACTORS
330
2EE
330
2EF
102
}
330
71
100
AcDbEntity
  8
0
  6
Continuous
 62
     2
100
AcDbCircle
 10
-59.55337968080272
 20
17.24568382766896
 30
0.0
 40
0.5115800601948685
100
AcDbArc
 50
113.3722778881987
 51
151.4785267423044
  0
ARC
  5
294
102
{ACAD_REACTORS
330
2EE
330
2EF
102
}
330
71
100
AcDbEntity
  8
0
  6
Continuous
 62
     2
100
AcDbCircle
 10
-59.17602242272241
 20
17.04061239832996
 30
0.0
 40
0.9410597353332545
100
AcDbArc
 50
151.4785267422669
 51
208.5214732577057
  0
ARC
  5
295
102
{ACAD_REACTORS
330
2EE
330
2EF
102
}
330
71
100
AcDbEntity
  8
0
  6
Continuous
 62
     2
100
AcDbCircle
 10
-59.97298025685441
 20
20.35329334358636
 30
0.0
 40
4.852596863498133
100
AcDbArc
 50
275.1581447696249
 51
285.9799912583529
  0
ARC
  5
296
102
{ACAD_REACTORS
330
2EE
330
2EF
102
}
330
71
100
AcDbEntity
  8
0
  6
Continuous
 62
     2
100
AcDbCircle
 10
-59.68412416211851
 20
17.15340276036477
 30
0.0
 40
1.639695123939387
100
AcDbArc
 50
195.0618917770896
 51
275.1581447696395
  0
ARC
  5
297
102
{ACAD_REACTORS
330
2EE
330
2EF
102
}
330
71
100
AcDbEntity
  8
0
  6
Continuous
 62
     2
100
AcDbCircle
 10
-60.10325200558131
 20
17.04061239832996
 30
0.0
 40
1.205656168390944
100
AcDbArc
 50
164.9381082228765
 51
195.061891777095
  0
ARC
  5
298
102
{ACAD_REACTORS
330
2EE
330
2EF
102
}
330
71
100
AcDbEntity
  8
0
  6
Continuous
 62
     2
100
AcDbCircle
 10
-59.68412416211851
 20
16.92782203629506
 30
0.0
 40
1.639695123940507
100
AcDbArc
 50
84.84185523036236
 51
164.9381082228864
  0
ARC
  5
299
102
{ACAD_REACTORS
330
2F2
330
2F3
102
}
330
71
100
AcDbEntity
  8
0
  6
Continuous
 62
     2
100
AcDbCircle
 10
-64.51413841628042
 20
18.07443919268425
 30
0.0
 40
0.315716923076536
100
AcDbArc
 50
115.3740086783516
 51
180.0
  0
ARC
  5
29A
102
{ACAD_REACTORS
330
2F2
330
2F3
102
}
330
71
100
AcDbEntity
  8
0
  6
Continuous
 62
     2
100
AcDbCircle
 10
-64.51413841628042
 20
20.29272239262048
 30
0.0
 40
0.315716923076792
100
AcDbArc
 50
180.0
 51
244.6259913216482
  0
ARC
  5
29B
102
{ACAD_REACTORS
330
2F2
330
2F3
102
}
330
71
100
AcDbEntity
  8
0
  6
Continuous
 62
     2
100
AcDbCircle
 10
-64.5085222809704
 20
19.19542273355816
 30
0.0
 40
2.018561131933266
100
AcDbArc
 50
269.8110329575858
 51
90.18896704241416
  0
ARC
  5
29C
102
{ACAD_REACTORS
330
2F2
330
2F3
102
}
330
71
100
AcDbEntity
  8
0
  6
Continuous
 62
     2
100
AcDbCircle
 10
-64.51413841628042
 20
17.49258778598917
 30
0.0
 40
0.315716923076792
100
AcDbArc
 50
180.0
 51
269.8110329574542
  0
ARC
  5
29D
102
{ACAD_REACTORS
330
2F0
330
2F1
102
}
330
71
100
AcDbEntity
  8
0
  6
Continuous
 62
     2
100
AcDbCircle
 10
-43.45067820154981
 20
17.24568382766896
 30
0.0
 40
0.5115800601944086
100
AcDbArc
 50
109.3371432194847
 51
151.4785267424221
  0
ARC
  5
29E
102
{ACAD_REACTORS
330
2F0
330
2F1
102
}
330
71
100
AcDbEntity
  8
0
  6
Continuous
 62
     2
100
AcDbCircle
 10
-43.45067820154981
 20
16.83554096899147
 30
0.0
 40
0.5115800601960153
100
AcDbArc
 50
208.521473257687
 51
246.6277221118458
  0
ARC
  5
29F
102
{ACAD_REACTORS
330
2F0
330
2F1
102
}
330
71
100
AcDbEntity
  8
0
  6
Continuous
 62
     2
100
AcDbCircle
 10
-44.0005505263272
 20
17.04061239832996
 30
0.0
 40
1.205656168393002
100
AcDbArc
 50
164.9381082229028
 51
195.0618917770961
  0
ARC
  5
2A0
102
{ACAD_REACTORS
330
2F0
330
2F1
102
}
330
71
100
AcDbEntity
  8
0
  6
Continuous
 62
     2
100
AcDbCircle
 10
-43.58142268286559
 20
16.92782203629506
 30
0.0
 40
1.639695123940211
100
AcDbArc
 50
90.0
 51
164.938108222895
  0
ARC
  5
2A1
102
{ACAD_REACTORS
330
2F4
330
2F5
102
}
330
71
100
AcDbEntity
  8
0
  6
Continuous
 62
     2
100
AcDbCircle
 10
-53.00841777556931
 20
20.39980287450428
 30
0.0
 40
1.526904761905879
100
AcDbArc
 50
90.0
 51
270.0
  0
ARC
  5
2A2
102
{ACAD_REACTORS
330
2F8
330
2F9
102
}
330
71
100
AcDbEntity
  8
0
  6
Continuous
 62
     2
100
AcDbCircle
 10
-59.7511085207951
 20
20.91073796629897
 30
0.0
 40
0.3528638246711218
100
AcDbArc
 50
270.0
 51
90.0
  0
ARC
  5
2A3
102
{ACAD_REACTORS
330
2F2
330
2F3
102
}
330
71
100
AcDbEntity
  8
0
  6
Continuous
 62
     2
100
AcDbCircle
 10
-67.08968710281212
 20
20.89843515777537
 30
0.0
 40
0.315716923076188
100
AcDbArc
 50
90.0
 51
180.0
  0
ARC
  5
2A4
102
{ACAD_REACTORS
330
2F2
330
2F3
102
}
330
71
100
AcDbEntity
  8
0
  6
Continuous
 62
     2
100
AcDbCircle
 10
-65.09126939422751
 20
19.18358079265266
 30
0.0
 40
0.911897523557621
100
AcDbArc
 50
115.194410648528
 51
244.8055893514877
  0
ARC
  5
2A5
102
{ACAD_REACTORS
330
2F2
330
2F3
102
}
330
71
100
AcDbEntity
  8
0
  6
Continuous
 62
     2
100
AcDbCircle
 10
-65.6138538418025
 20
18.07275104658987
 30
0.0
 40
0.315716923076593
100
AcDbArc
 50
0.0
 51
64.80558935146027
  0
ARC
  5
2A6
102
{ACAD_REACTORS
330
2F2
330
2F3
102
}
330
71
100
AcDbEntity
  8
0
  6
Continuous
 62
     2
100
AcDbCircle
 10
-67.68358177955861
 20
15.93795225180796
 30
0.0
 40
0.4242446153828041
100
AcDbArc
 50
180.0
 51
270.0
  0
ARC
  5
2A7
102
{ACAD_REACTORS
330
2F4
330
2F5
102
}
330
71
100
AcDbEntity
  8
0
  6
Continuous
 62
     2
100
AcDbCircle
 10
-52.79214576540412
 20
20.55653405262476
 30
0.0
 40
0.5179085730135278
100
AcDbArc
 50
38.12041979714224
 51
141.879580202849
  0
ARC
  5
2A8
102
{ACAD_REACTORS
330
2F4
330
2F5
102
}
330
71
100
AcDbEntity
  8
0
  6
Continuous
 62
     2
100
AcDbCircle
 10
-52.59240572905782
 20
20.39980287450428
 30
0.0
 40
0.7717997786796602
100
AcDbArc
 50
141.8795802028407
 51
218.1204197971572
  0
ARC
  5
2A9
102
{ACAD_REACTORS
330
2F6
330
2F7
102
}
330
71
100
AcDbEntity
  8
0
  6
Continuous
 62
     2
100
AcDbCircle
 10
-56.75309324619761
 20
17.57918740863326
 30
0.0
 40
2.065479772208509
100
AcDbArc
 50
242.45185182434
 51
297.5481481756871
  0
ARC
  5
2AA
102
{ACAD_REACTORS
330
2F6
330
2F7
102
}
330
71
100
AcDbEntity
  8
0
  6
Continuous
 62
     2
100
AcDbCircle
 10
-56.75309324619761
 20
16.50203738802716
 30
0.0
 40
2.065479772208568
100
AcDbArc
 50
62.45185182430637
 51
117.5481481756666
  0
ARC
  5
2AB
102
{ACAD_REACTORS
330
2F6
330
2F7
102
}
330
71
100
AcDbEntity
  8
0
  6
Continuous
 62
     2
100
AcDbCircle
 10
-57.03403313803091
 20
17.04061239832996
 30
0.0
 40
1.458034083651487
100
AcDbArc
 50
117.5481481756628
 51
242.4518518243373
  0
ARC
  5
2AC
102
{ACAD_REACTORS
330
2F6
330
2F7
102
}
330
71
100
AcDbEntity
  8
0
  6
Continuous
 62
     2
100
AcDbCircle
 10
-56.47215335436431
 20
17.04061239832996
 30
0.0
 40
1.458034083652003
100
AcDbArc
 50
297.548148175701
 51
62.45185182429882
  0
ARC
  5
2AD
102
{ACAD_REACTORS
330
2F4
330
2F5
102
}
330
71
100
AcDbEntity
  8
0
  6
Continuous
 62
     2
100
AcDbCircle
 10
-52.79214576540412
 20
20.24307169638385
 30
0.0
 40
0.5179085730134337
100
AcDbArc
 50
218.1204197971519
 51
321.8795802028569
  0
ARC
  5
2AE
102
{ACAD_REACTORS
330
2F4
330
2F5
102
}
330
71
100
AcDbEntity
  8
0
  6
Continuous
 62
     2
100
AcDbCircle
 10
-52.9918858017503
 20
20.39980287450428
 30
0.0
 40
0.7717997786796439
100
AcDbArc
 50
321.8795802028432
 51
38.12041979715895
  0
ARC
  5
2AF
102
{ACAD_REACTORS
330
2F2
330
2F3
102
}
330
71
100
AcDbEntity
  8
0
  6
Continuous
 62
     2
100
AcDbCircle
 10
-62.21026968884181
 20
15.93795225180796
 30
0.0
 40
0.4242446153832908
100
AcDbArc
 50
270.0
 51
0.0
  0
ARC
  5
2B0
102
{ACAD_REACTORS
330
2F2
330
2F3
102
}
330
71
100
AcDbEntity
  8
0
  6
Continuous
 62
     2
100
AcDbCircle
 10
-62.21026968884181
 20
21.50246302100817
 30
0.0
 40
0.4242446153838912
100
AcDbArc
 50
0.0
 51
90.0
  0
ARC
  5
2B1
102
{ACAD_REACTORS
330
2F2
330
2F3
102
}
330
71
100
AcDbEntity
  8
0
  6
Continuous
 62
     2
100
AcDbCircle
 10
-67.68358177955861
 20
21.50246302100817
 30
0.0
 40
0.4242446153837989
100
AcDbArc
 50
90.0
 51
180.0
  0
ARC
  5
2B2
102
{ACAD_REACTORS
330
2F2
330
2F3
102
}
330
71
100
AcDbEntity
  8
0
  6
Continuous
 62
     2
100
AcDbCircle
 10
-65.6138538418025
 20
16.54198011505827
 30
0.0
 40
0.3157169230767103
100
AcDbArc
 50
270.0
 51
0.0
  0
ARC
  5
2B3
102
{ACAD_REACTORS
330
2F2
330
2F3
102
}
330
71
100
AcDbEntity
  8
0
  6
Continuous
 62
     2
100
AcDbCircle
 10
-65.6138538418025
 20
20.29441053871486
 30
0.0
 40
0.3157169230761203
100
AcDbArc
 50
295.1944106485397
 51
0.0
  0
ARC
  5
2B4
102
{ACAD_REACTORS
330
2F2
330
2F3
102
}
330
71
100
AcDbEntity
  8
0
  6
Continuous
 62
     2
100
AcDbCircle
 10
-65.6138538418025
 20
20.89843515777537
 30
0.0
 40
0.315716923076593
100
AcDbArc
 50
0.0
 51
90.0
  0
ARC
  5
2B5
102
{ACAD_REACTORS
330
2F2
330
2F3
102
}
330
71
100
AcDbEntity
  8
0
  6
Continuous
 62
     2
100
AcDbCircle
 10
-67.08968710281212
 20
16.54198011505827
 30
0.0
 40
0.3157169230756836
100
AcDbArc
 50
180.0
 51
270.0
  0
ARC
  5
2B6
102
{ACAD_REACTORS
330
2F8
330
2F9
102
}
330
71
100
AcDbEntity
  8
0
  6
Continuous
 62
     2
100
AcDbCircle
 10
-59.30963599455671
 20
20.87134199507648
 30
0.0
 40
1.055365641333712
100
AcDbArc
 50
270.0
 51
90.0
  0
ARC
  5
2B7
102
{ACAD_REACTORS
330
2F0
330
2F1
102
}
330
71
100
AcDbEntity
  8
0
  6
Continuous
 62
     2
100
AcDbCircle
 10
-43.58142268286559
 20
17.15340276036477
 30
0.0
 40
1.639695123940448
100
AcDbArc
 50
195.0618917771012
 51
275.1581447696762
  0
ARC
  5
2B8
102
{ACAD_REACTORS
330
2F0
330
2F1
102
}
330
71
100
AcDbEntity
  8
0
  6
Continuous
 62
     2
100
AcDbCircle
 10
-43.87027877760141
 20
20.35329334358636
 30
0.0
 40
4.852596863498823
100
AcDbArc
 50
275.1581447696364
 51
285.9799912583387
  0
ARC
  5
2B9
102
{ACAD_REACTORS
330
2F0
330
2F1
102
}
330
71
100
AcDbEntity
  8
0
  6
Continuous
 62
     2
100
AcDbCircle
 10
-43.71240590250861
 20
18.45107876373805
 30
0.0
 40
2.227384008972744
100
AcDbArc
 50
288.4480761181333
 51
301.9309089499397
  0
ARC
  5
2BA
102
{ACAD_REACTORS
330
2F0
330
2F1
102
}
330
71
100
AcDbEntity
  8
0
  6
Continuous
 62
     2
100
AcDbCircle
 10
-43.2942381688467
 20
17.19753298770146
 30
0.0
 40
0.9059297849852797
100
AcDbArc
 50
246.6277221118177
 51
288.4480761180808
  0
ARC
  5
2BB
102
{ACAD_REACTORS
330
2F0
330
2F1
102
}
330
71
100
AcDbEntity
  8
0
  6
Continuous
 62
     2
100
AcDbCircle
 10
-43.07332094346842
 20
17.04061239832996
 30
0.0
 40
0.9410597353348924
100
AcDbArc
 50
151.4785267423624
 51
208.5214732576695
  0
ARC
  5
2BC
102
{ACAD_REACTORS
330
2F0
330
2F1
102
}
330
71
100
AcDbEntity
  8
0
  6
Continuous
 62
     2
100
AcDbCircle
 10
-43.3040082034461
 20
16.82772884728607
 30
0.0
 40
0.9545230068260899
100
AcDbArc
 50
90.0
 51
109.3371432194321
  0
ARC
  5
2BD
102
{ACAD_REACTORS
330
2F2
330
2F3
102
}
330
71
100
AcDbEntity
  8
0
  6
Continuous
 62
     2
100
AcDbCircle
 10
-64.51413841628042
 20
20.89825768112726
 30
0.0
 40
0.3157169230760746
100
AcDbArc
 50
90.18896704254594
 51
180.0
  0
ARC
  5
2BE
102
{ACAD_REACTORS
330
2F2
330
2F3
102
}
330
71
100
AcDbEntity
  8
0
  6
Continuous
 62
     2
100
AcDbCircle
 10
-65.0401811143683
 20
19.18358079265266
 30
0.0
 40
0.9118481501444557
100
AcDbArc
 50
295.3740086781766
 51
64.62599132180766
  0
ARC
  5
2BF
102
{ACAD_REACTORS
330
2EE
330
2EF
102
}
330
71
100
AcDbEntity
  8
0
  6
Continuous
 62
     2
100
AcDbCircle
 10
-59.81510738176149
 20
18.45107876373865
 30
0.0
 40
2.227384008972737
100
AcDbArc
 50
288.4480761181328
 51
301.9309089499593
  0
ARC
  5
2C0
102
{ACAD_REACTORS
330
2EE
330
2EF
102
}
330
71
100
AcDbEntity
  8
0
  6
Continuous
 62
     2
100
AcDbCircle
 10
-59.3969396481007
 20
17.19753298770146
 30
0.0
 40
0.9059297849849132
100
AcDbArc
 50
246.6277221118714
 51
288.4480761181586
  0
ARC
  5
2C1
102
{ACAD_REACTORS
330
2EE
330
2EF
102
}
330
71
100
AcDbEntity
  8
0
  6
Continuous
 62
     2
100
AcDbCircle
 10
-59.55337968080272
 20
16.83554096899147
 30
0.0
 40
0.5115800601948034
100
AcDbArc
 50
208.5214732576956
 51
246.6277221118283
  0
ARC
  5
2C2
102
{ACAD_REACTORS
330
2EE
330
2EF
102
}
330
71
100
AcDbEntity
  8
0
  6
Continuous
 62
     2
100
AcDbCircle
 10
-59.3969396481007
 20
16.88369180895836
 30
0.0
 40
0.9059297849853228
100
AcDbArc
 50
71.55192388185348
 51
113.3722778881286
  0
ARC
  5
2C3
102
{ACAD_REACTORS
330
2EE
330
2EF
102
}
330
71
100
AcDbEntity
  8
0
  6
Continuous
 62
     2
100
AcDbCircle
 10
-59.97298025685441
 20
13.72793145307406
 30
0.0
 40
4.852596863498075
100
AcDbArc
 50
74.02000874164742
 51
84.84185523037506
  0
CIRCLE
  5
2C4
102
{ACAD_REACTORS
330
2F2
330
2F3
102
}
330
71
100
AcDbEntity
  8
0
  6
Continuous
 62
     2
100
AcDbCircle
 10
-65.0639961290411
 20
19.18358079265266
 30
0.0
 40
0.4709789327785074
  0
CIRCLE
  5
2C5
330
71
100
AcDbEntity
  8
1
  6
Continuous
 62
     2
100
AcDbCircle
 10
-59.60782639494141
 20
29.34520763640828
 30
0.0
 40
1.249999999999915
  0
CIRCLE
  5
2C6
330
71
100
AcDbEntity
  8
1
  6
Continuous
 62
     2
100
AcDbCircle
 10
-59.60782639494141
 20
29.34520763640828
 30
0.0
 40
2.5
  0
TEXT
  5
2C7
330
71
100
AcDbEntity
  8
1
 62
     7
100
AcDbText
 10
-16.97093355949022
 20
26.52020763640826
 30
0.0
 40
2.5
  1
/
 41
0.9
  7
CONVERTER_11
100
AcDbText
  0
TEXT
  5
2C9
330
71
100
AcDbEntity
  8
1
 62
     7
100
AcDbText
 10
-14.81456906244821
 20
26.52020763640826
 30
0.0
 40
2.5
  1
00
 41
0.81
  7
CONVERTER_12
100
AcDbText
  0
TEXT
  5
2CA
330
71
100
AcDbEntity
  8
1
 62
     3
100
AcDbText
 10
22.78191496356888
 20
26.52020763640826
 30
0.0
 40
2.5
  1
27.01.2018
 41
0.81
  7
CONVERTER_12
100
AcDbText
  0
MTEXT
  5
2CB
330
71
100
AcDbEntity
  8
1
 62
     2
100
AcDbMText
 10
22.78191496356888
 20
32.72020763640828
 30
0.0
 40
1.8
 41
0.0
 71
     1
 72
     1
  1
date
  7
CONVERTER_11
 73
     1
 44
1.32052821128451
  0
MTEXT
  5
2CC
330
71
100
AcDbEntity
  8
1
 62
     2
100
AcDbMText
 10
-7.04448128150401
 20
24.22020763640828
 30
0.0
 40
1.8
 41
0.0
 71
     1
 72
     1
  1
document-type
  7
CONVERTER_11
 73
     1
 44
1.20048019207683
  0
TEXT
  5
2CD
330
71
100
AcDbEntity
  8
1
 62
     3
100
AcDbText
 10
-7.04448128150401
 20
18.02020763640826
 30
0.0
 40
2.5
  1
 
 41
0.81
  7
CONVERTER_12
100
AcDbText
  0
MTEXT
  5
2CF
330
71
100
AcDbEntity
  8
1
 62
     2
100
AcDbMText
 10
-34.84448128150402
 20
32.72020763640836
 30
0.0
 40
1.8
 41
0.0
 71
     1
 72
     1
  1
document-No. / RI
  7
CONVERTER_13
 73
     1
 44
1.32052821128451
  0
TEXT
  5
2D0
330
71
100
AcDbEntity
  8
1
 62
     7
100
AcDbText
 10
-34.84448128150402
 20
26.52020763640826
 30
0.0
 40
2.5
  1
00444363
 41
0.81
  7
CONVERTER_12
100
AcDbText
  0
MTEXT
  5
2D2
330
71
100
AcDbEntity
  8
1
 62
     3
100
AcDbMText
 10
52.7411191044083
 20
26.52020763640846
 30
0.0
 40
2.5
 41
0.0
 71
     8
 72
     1
  1
1:1
  7
CONVERTER_14
 73
     1
 44
1.32052821128451
  0
MTEXT
  5
2D3
330
71
100
AcDbEntity
  8
1
 62
     2
100
AcDbMText
 10
49.3819149635687
 20
32.72020763640836
 30
0.0
 40
1.8
 41
0.0
 71
     1
 72
     1
  1
scale
  7
CONVERTER_11
 73
     1
 44
1.20048019207683
  0
MTEXT
  5
2D4
330
71
100
AcDbEntity
  8
1
 62
     2
100
AcDbMText
 10
-34.84448128150402
 20
24.22020763640836
 30
0.0
 40
1.8
 41
0.0
 71
     1
 72
     1
  1
ident.-No.
  7
CONVERTER_11
 73
     1
 44
1.20048019207683
  0
TEXT
  5
2D5
330
71
100
AcDbEntity
  8
1
 62
     7
100
AcDbText
 10
-34.4444812815043
 20
18.02020763640826
 30
0.0
 40
2.5
  1
0308540
 41
0.81
  7
CONVERTER_12
100
AcDbText
  0
MTEXT
  5
2D6
330
71
100
AcDbEntity
  8
1
 62
     2
100
AcDbMText
 10
-106.7824960065515
 20
20.97020763640828
 30
0.0
 40
2.0
 41
0.0
 71
     5
 72
     1
  1
General Information\P- Simplified representation\P- Document excluded from change process\P- Linear dimensions [mm]
  7
CONVERTER_11
 73
     1
 44
1.20048019207683
  0
MTEXT
  5
2D7
330
71
100
AcDbEntity
  8
1
 62
     7
100
AcDbMText
 10
59.70032324524499
 20
83.22020763641027
 30
0.0
 40
3.5
 41
0.0
 71
     5
 72
     1
  1
C
  7
CONVERTER_11
 73
     1
 44
1.20048019207683
  0
MTEXT
  5
2D8
330
71
100
AcDbEntity
  8
1
 62
     7
100
AcDbMText
 10
59.70032324524499
 20
185.7202076364084
 30
0.0
 40
3.5
 41
0.0
 71
     5
 72
     1
  1
A
  7
CONVERTER_11
 73
     1
 44
1.20048019207683
  0
MTEXT
  5
2D9
330
71
100
AcDbEntity
  8
1
 62
     7
100
AcDbMText
 10
59.70032324524499
 20
133.2202076364103
 30
0.0
 40
3.5
 41
0.0
 71
     5
 72
     1
  1
B
  7
CONVERTER_11
 73
     1
 44
1.20048019207683
  0
MTEXT
  5
2DA
330
71
100
AcDbEntity
  8
1
 62
     7
100
AcDbMText
 10
59.70032324524499
 20
30.72020763640836
 30
0.0
 40
3.5
 41
0.0
 71
     5
 72
     1
  1
D
  7
CONVERTER_11
 73
     1
 44
1.20048019207683
  0
MTEXT
  5
2DB
330
71
100
AcDbEntity
  8
1
 62
     7
100
AcDbMText
 10
-210.5496767547536
 20
5.72020763640825
 30
0.0
 40
3.5
 41
0.0
 71
     5
 72
     1
  1
1
  7
CONVERTER_11
 73
     1
 44
1.20048019207683
  0
MTEXT
  5
2DC
330
71
100
AcDbEntity
  8
1
 62
     7
100
AcDbMText
 10
-161.299676754754
 20
5.72020763640825
 30
0.0
 40
3.5
 41
0.0
 71
     5
 72
     1
  1
2
  7
CONVERTER_11
 73
     1
 44
1.20048019207683
  0
MTEXT
  5
2DD
330
71
100
AcDbEntity
  8
1
 62
     7
100
AcDbMText
 10
-111.299676754754
 20
5.72020763640825
 30
0.0
 40
3.5
 41
0.0
 71
     5
 72
     1
  1
3
  7
CONVERTER_11
 73
     1
 44
1.20048019207683
  0
MTEXT
  5
2DE
330
71
100
AcDbEntity
  8
1
 62
     7
100
AcDbMText
 10
-61.2996767547541
 20
5.72020763640825
 30
0.0
 40
3.5
 41
0.0
 71
     5
 72
     1
  1
4
  7
CONVERTER_11
 73
     1
 44
1.20048019207683
  0
MTEXT
  5
2DF
330
71
100
AcDbEntity
  8
1
 62
     7
100
AcDbMText
 10
-11.29967675475402
 20
5.72020763640825
 30
0.0
 40
3.5
 41
0.0
 71
     5
 72
     1
  1
5
  7
CONVERTER_11
 73
     1
 44
1.20048019207683
  0
MTEXT
  5
2E0
330
71
100
AcDbEntity
  8
1
 62
     7
100
AcDbMText
 10
37.95032324524519
 20
5.72020763640825
 30
0.0
 40
3.5
 41
0.0
 71
     5
 72
     1
  1
6
  7
CONVERTER_11
 73
     1
 44
1.20048019207683
  0
MTEXT
  5
2E1
330
71
100
AcDbEntity
  8
1
 62
     7
100
AcDbMText
 10
-232.2996767547531
 20
185.7202076364084
 30
0.0
 40
3.5
 41
0.0
 71
     5
 72
     1
  1
A
  7
CONVERTER_11
 73
     1
 44
1.20048019207683
  0
MTEXT
  5
2E2
330
71
100
AcDbEntity
  8
1
 62
     7
100
AcDbMText
 10
-232.2996767547531
 20
133.2202076364084
 30
0.0
 40
3.5
 41
0.0
 71
     5
 72
     1
  1
B
  7
CONVERTER_11
 73
     1
 44
1.20048019207683
  0
MTEXT
  5
2E3
330
71
100
AcDbEntity
  8
1
 62
     7
100
AcDbMText
 10
-232.2996767547531
 20
83.22020763640836
 30
0.0
 40
3.5
 41
0.0
 71
     5
 72
     1
  1
C
  7
CONVERTER_11
 73
     1
 44
1.20048019207683
  0
MTEXT
  5
2E4
330
71
100
AcDbEntity
  8
1
 62
     7
100
AcDbMText
 10
-232.2996767547531
 20
30.72020763640836
 30
0.0
 40
3.5
 41
0.0
 71
     5
 72
     1
  1
D
  7
CONVERTER_11
 73
     1
 44
1.20048019207683
  0
MTEXT
  5
2E5
330
71
100
AcDbEntity
  8
1
 62
     3
100
AcDbMText
 10
-46.14448128150411
 20
29.34520763640836
 30
0.0
 40
2.5
 41
0.0
 71
     5
 72
     1
  1
DIN A4
  7
CONVERTER_11
 73
     1
 44
1.20048019207683
  0
MTEXT
  5
2E6
330
71
100
AcDbEntity
  8
1
 62
     2
100
AcDbMText
 10
-34.9444812815041
 20
15.72020763640836
 30
0.0
 40
1.8
 41
0.0
 71
     1
 72
     1
  1
description
  7
CONVERTER_11
 73
     1
 44
1.20048019207683
  0
MTEXT
  5
2E7
330
71
100
AcDbEntity
  8
1
 62
     7
100
AcDbMText
 10
10.62792098187148
 20
11.47020763640859
 30
0.0
 40
3.0
 41
0.0
 71
     5
 72
     1
  1
KSS  4-10
  7
CONVERTER_12
 73
     1
 44
1.20048019207683
  0
TEXT
  5
2E8
330
71
100
AcDbEntity
  8
1
 62
     2
100
AcDbText
 10
-47.90917247169051
 20
9.47020763640825
 30
0.0
 40
1.8
  1
1
 41
0.9
  7
CONVERTER_11
100
AcDbText
  0
TEXT
  5
2E9
330
71
100
AcDbEntity
  8
1
 62
     2
100
AcDbText
 10
-62.69821631116201
 20
9.42095898260635
 30
0.0
 40
1.8
  1
1
 41
0.9
  7
CONVERTER_11
100
AcDbText
  0
TEXT
  5
2EA
330
71
100
AcDbEntity
  8
1
 62
     2
100
AcDbText
 10
-71.34448128150402
 20
9.46119042141669
 30
0.0
 40
1.8
  1
page
 41
0.9
  7
CONVERTER_11
100
AcDbText
  0
TEXT
  5
2EB
330
71
100
AcDbEntity
  8
1
 62
     2
100
AcDbText
 10
-53.1444812815042
 20
9.46119042141675
 30
0.0
 40
1.8
  1
of
 41
0.9
  7
CONVERTER_11
100
AcDbText
  0
MTEXT
  5
2EC
330
71
100
AcDbEntity
  8
1
 62
     3
100
AcDbMText
 10
-46.94149912989411
 20
195.0115157917072
 30
0.0
 40
1.8
 41
0.0
 71
     7
 72
     1
  3
Transfer or duplication of this document as well as the utilisation or\Pcommunication of its content are not permitted unless express consent\Pis granted. Violations give rise to claims for damages. All rights reserved\Pin case of patent, utility mo
  1
del or design patent registrations.
  7
CONVERTER_11
 73
     1
 44
0.99639855942377
  0
MTEXT
  5
2ED
330
71
100
AcDbEntity
  8
1
 62
     3
100
AcDbMText
 10
-229.7946089686822
 20
195.0115157917072
 30
0.0
 40
1.8
 41
0.0
 71
     7
 72
     1
  3
Weitergabe sowie Vervielf\U+00e4ltigung dieses Dokuments, Verwertung und \PMitteilung seines Inhalts sind verboten, soweit nicht ausdr\U+00fccklich gestattet. \PZuwiderhandlungen verpflichten zu Schadenersatz. Alle Rechte f\U+00fcr den Fall\Pder Pat
  1
ent-, Gebrauchsmuster- oder Designeintragung vorbehalten.
  7
CONVERTER_11
 73
     1
 44
0.99639855942377
  0
HATCH
  5
2EE
330
71
100
AcDbEntity
  8
1
  6
Continuous
 62
     2
100
AcDbHatch
 10
0.0
 20
0.0
 30
0.0
210
0.0
220
0.0
230
1.0
  2
_USER
 70
     0
 71
     1
 91
        1
 92
        1
 93
       14
 72
     2
 10
-60.10325200558131
 20
17.04061239832996
 40
1.205656168390944
 50
164.9381082228765
 51
195.061891777095
 73
     1
 72
     2
 10
-59.68412416211851
 20
17.15340276036477
 40
1.639695123939387
 50
195.0618917770896
 51
275.1581447696395
 73
     1
 72
     2
 10
-59.97298025685441
 20
20.35329334358636
 40
4.852596863498133
 50
275.1581447696249
 51
285.9799912583529
 73
     1
 72
     1
 10
-58.63705233973661
 20
15.68821103778555
 11
-58.63705233973661
 21
16.56072804458876
 72
     2
 10
-59.81510738176149
 20
18.45107876373865
 40
2.227384008972737
 50
58.06909105004065
 51
71.55192388186722
 73
     0
 72
     2
 10
-59.3969396481007
 20
17.19753298770146
 40
0.9059297849849132
 50
71.55192388184147
 51
113.3722778881286
 73
     0
 72
     2
 10
-59.55337968080272
 20
16.83554096899147
 40
0.5115800601948034
 50
113.3722778881717
 51
151.4785267423044
 73
     0
 72
     2
 10
-59.17602242272241
 20
17.04061239832996
 40
0.9410597353332545
 50
151.4785267422943
 51
208.5214732577331
 73
     0
 72
     2
 10
-59.55337968080272
 20
17.24568382766896
 40
0.5115800601948685
 50
208.5214732576956
 51
246.6277221118013
 73
     0
 72
     2
 10
-59.3969396481007
 20
16.88369180895836
 40
0.9059297849853228
 50
246.6277221118714
 51
288.4480761181465
 73
     0
 72
     2
 10
-59.81510738176149
 20
15.63014603292177
 40
2.227384008973482
 50
288.4480761181328
 51
301.9309089499592
 73
     0
 72
     1
 10
-58.63705233973661
 20
17.52049675207167
 11
-58.63705233973661
 21
18.39301375887496
 72
     2
 10
-59.97298025685441
 20
13.72793145307406
 40
4.852596863498075
 50
74.02000874164742
 51
84.84185523037506
 73
     1
 72
     2
 10
-59.68412416211851
 20
16.92782203629506
 40
1.639695123940507
 50
84.84185523036236
 51
164.9381082228864
 73
     1
 97
       14
330
2C3
330
1DC
330
292
330
2C2
330
293
330
294
330
2C1
330
2C0
330
2BF
330
1DD
330
295
330
296
330
297
330
298
 75
     1
 76
     0
 52
45.0
 41
0.1
 77
     0
 78
     1
 53
45.0
 43
0.0
 44
0.0
 45
-0.0707106781186548
 46
0.0707106781186548
 79
     0
 98
        1
 10
0.0
 20
0.0
  0
HATCH
  5
2EF
330
71
100
AcDbEntity
  8
1
  6
Continuous
 62
     2
100
AcDbHatch
 10
0.0
 20
0.0
 30
0.0
210
0.0
220
0.0
230
1.0
  2
_USER
 70
     0
 71
     1
 91
        1
 92
        1
 93
       14
 72
     2
 10
-60.10325200558131
 20
17.04061239832996
 40
1.205656168390944
 50
164.9381082228765
 51
195.061891777095
 73
     1
 72
     2
 10
-59.68412416211851
 20
17.15340276036477
 40
1.639695123939387
 50
195.0618917770896
 51
275.1581447696395
 73
     1
 72
     2
 10
-59.97298025685441
 20
20.35329334358636
 40
4.852596863498133
 50
275.1581447696249
 51
285.9799912583529
 73
     1
 72
     1
 10
-58.63705233973661
 20
15.68821103778555
 11
-58.63705233973661
 21
16.56072804458876
 72
     2
 10
-59.81510738176149
 20
18.45107876373865
 40
2.227384008972737
 50
58.06909105004065
 51
71.55192388186722
 73
     0
 72
     2
 10
-59.3969396481007
 20
17.19753298770146
 40
0.9059297849849132
 50
71.55192388184147
 51
113.3722778881286
 73
     0
 72
     2
 10
-59.55337968080272
 20
16.83554096899147
 40
0.5115800601948034
 50
113.3722778881717
 51
151.4785267423044
 73
     0
 72
     2
 10
-59.17602242272241
 20
17.04061239832996
 40
0.9410597353332545
 50
151.4785267422943
 51
208.5214732577331
 73
     0
 72
     2
 10
-59.55337968080272
 20
17.24568382766896
 40
0.5115800601948685
 50
208.5214732576956
 51
246.6277221118013
 73
     0
 72
     2
 10
-59.3969396481007
 20
16.88369180895836
 40
0.9059297849853228
 50
246.6277221118714
 51
288.4480761181465
 73
     0
 72
     2
 10
-59.81510738176149
 20
15.63014603292177
 40
2.227384008973482
 50
288.4480761181328
 51
301.9309089499592
 73
     0
 72
     1
 10
-58.63705233973661
 20
17.52049675207167
 11
-58.63705233973661
 21
18.39301375887496
 72
     2
 10
-59.97298025685441
 20
13.72793145307406
 40
4.852596863498075
 50
74.02000874164742
 51
84.84185523037506
 73
     1
 72
     2
 10
-59.68412416211851
 20
16.92782203629506
 40
1.639695123940507
 50
84.84185523036236
 51
164.9381082228864
 73
     1
 97
       14
330
2C3
330
1DC
330
292
330
2C2
330
293
330
294
330
2C1
330
2C0
330
2BF
330
1DD
330
295
330
296
330
297
330
298
 75
     1
 76
     0
 52
45.0
 41
0.1
 77
     0
 78
     1
 53
45.0
 43
0.0
 44
0.0
 45
-0.0707106781186548
 46
0.0707106781186548
 79
     0
 98
        1
 10
0.0
 20
0.0
  0
HATCH
  5
2F0
330
71
100
AcDbEntity
  8
1
  6
Continuous
 62
     2
100
AcDbHatch
 10
0.0
 20
0.0
 30
0.0
210
0.0
220
0.0
230
1.0
  2
_USER
 70
     0
 71
     1
 91
        1
 92
        1
 93
       18
 72
     2
 10
-43.58142268286559
 20
16.92782203629506
 40
1.639695123940211
 50
90.0
 51
164.938108222895
 73
     1
 72
     2
 10
-44.0005505263272
 20
17.04061239832996
 40
1.205656168393002
 50
164.9381082229028
 51
195.0618917770961
 73
     1
 72
     2
 10
-43.58142268286559
 20
17.15340276036477
 40
1.639695123940448
 50
195.0618917771012
 51
275.1581447696762
 73
     1
 72
     2
 10
-43.87027877760141
 20
20.35329334358636
 40
4.852596863498823
 50
275.1581447696364
 51
285.9799912583387
 73
     1
 72
     1
 10
-42.53435086048469
 20
15.68821103778495
 11
-42.53435086048469
 21
16.56072804458827
 72
     2
 10
-43.71240590250861
 20
18.45107876373805
 40
2.227384008972744
 50
58.06909105006029
 51
71.55192388186671
 73
     0
 72
     2
 10
-43.2942381688467
 20
17.19753298770146
 40
0.9059297849852797
 50
71.55192388191914
 51
113.3722778881823
 73
     0
 72
     2
 10
-43.45067820154981
 20
16.83554096899147
 40
0.5115800601960153
 50
113.3722778881542
 51
151.478526742313
 73
     0
 72
     2
 10
-43.07332094346842
 20
17.04061239832996
 40
0.9410597353348924
 50
151.4785267423305
 51
208.5214732576376
 73
     0
 72
     2
 10
-43.45067820154981
 20
17.24568382766896
 40
0.5115800601944086
 50
208.5214732575779
 51
250.6628567805153
 73
     0
 72
     2
 10
-43.3040082034461
 20
16.82772884728607
 40
0.9545230068260899
 50
250.6628567805679
 51
270.0
 73
     0
 72
     1
 10
-43.3040082034461
 20
17.78225185411216
 11
-42.200368903878
 21
17.78225185411216
 72
     1
 10
-42.200368903878
 20
17.78225185411216
 11
-42.200368903878
 21
15.51370763642467
 72
     1
 10
-42.200368903878
 20
15.51370763642467
 11
-41.00757620171029
 21
15.51370763642467
 72
     1
 10
-41.00757620171029
 20
15.51370763642467
 11
-41.00757620171029
 21
17.78225185411216
 72
     1
 10
-41.00757620171029
 20
17.78225185411216
 11
-40.19647716423691
 21
17.78225185411216
 72
     1
 10
-40.19647716423691
 20
17.78225185411216
 11
-40.19647716423691
 21
18.56751716023575
 72
     1
 10
-40.19647716423691
 20
18.56751716023575
 11
-43.58142268286559
 21
18.56751716023527
 97
       18
330
242
330
241
330
240
330
23F
330
244
330
1DE
330
2BC
330
29D
330
2BB
330
29E
330
2BA
330
2B9
330
1DF
330
2B8
330
2B7
330
29F
330
2A0
330
243
 75
     1
 76
     0
 52
45.0
 41
0.1
 77
     0
 78
     1
 53
45.0
 43
0.0
 44
0.0
 45
-0.0707106781186548
 46
0.0707106781186548
 79
     0
 98
        1
 10
0.0
 20
0.0
  0
HATCH
  5
2F1
330
71
100
AcDbEntity
  8
1
  6
Continuous
 62
     2
100
AcDbHatch
 10
0.0
 20
0.0
 30
0.0
210
0.0
220
0.0
230
1.0
  2
_USER
 70
     0
 71
     1
 91
        1
 92
        1
 93
       18
 72
     2
 10
-43.58142268286559
 20
16.92782203629506
 40
1.639695123940211
 50
90.0
 51
164.938108222895
 73
     1
 72
     2
 10
-44.0005505263272
 20
17.04061239832996
 40
1.205656168393002
 50
164.9381082229028
 51
195.0618917770961
 73
     1
 72
     2
 10
-43.58142268286559
 20
17.15340276036477
 40
1.639695123940448
 50
195.0618917771012
 51
275.1581447696762
 73
     1
 72
     2
 10
-43.87027877760141
 20
20.35329334358636
 40
4.852596863498823
 50
275.1581447696364
 51
285.9799912583387
 73
     1
 72
     1
 10
-42.53435086048469
 20
15.68821103778495
 11
-42.53435086048469
 21
16.56072804458827
 72
     2
 10
-43.71240590250861
 20
18.45107876373805
 40
2.227384008972744
 50
58.06909105006029
 51
71.55192388186671
 73
     0
 72
     2
 10
-43.2942381688467
 20
17.19753298770146
 40
0.9059297849852797
 50
71.55192388191914
 51
113.3722778881823
 73
     0
 72
     2
 10
-43.45067820154981
 20
16.83554096899147
 40
0.5115800601960153
 50
113.3722778881542
 51
151.478526742313
 73
     0
 72
     2
 10
-43.07332094346842
 20
17.04061239832996
 40
0.9410597353348924
 50
151.4785267423305
 51
208.5214732576376
 73
     0
 72
     2
 10
-43.45067820154981
 20
17.24568382766896
 40
0.5115800601944086
 50
208.5214732575779
 51
250.6628567805153
 73
     0
 72
     2
 10
-43.3040082034461
 20
16.82772884728607
 40
0.9545230068260899
 50
250.6628567805679
 51
270.0
 73
     0
 72
     1
 10
-43.3040082034461
 20
17.78225185411216
 11
-42.200368903878
 21
17.78225185411216
 72
     1
 10
-42.200368903878
 20
17.78225185411216
 11
-42.200368903878
 21
15.51370763642467
 72
     1
 10
-42.200368903878
 20
15.51370763642467
 11
-41.00757620171029
 21
15.51370763642467
 72
     1
 10
-41.00757620171029
 20
15.51370763642467
 11
-41.00757620171029
 21
17.78225185411216
 72
     1
 10
-41.00757620171029
 20
17.78225185411216
 11
-40.19647716423691
 21
17.78225185411216
 72
     1
 10
-40.19647716423691
 20
17.78225185411216
 11
-40.19647716423691
 21
18.56751716023575
 72
     1
 10
-40.19647716423691
 20
18.56751716023575
 11
-43.58142268286559
 21
18.56751716023527
 97
       18
330
242
330
241
330
240
330
23F
330
244
330
1DE
330
2BC
330
29D
330
2BB
330
29E
330
2BA
330
2B9
330
1DF
330
2B8
330
2B7
330
29F
330
2A0
330
243
 75
     1
 76
     0
 52
45.0
 41
0.1
 77
     0
 78
     1
 53
45.0
 43
0.0
 44
0.0
 45
-0.0707106781186548
 46
0.0707106781186548
 79
     0
 98
        1
 10
0.0
 20
0.0
  0
HATCH
  5
2F2
330
71
100
AcDbEntity
  8
1
  6
Continuous
 62
     2
100
AcDbHatch
 10
0.0
 20
0.0
 30
0.0
210
0.0
220
0.0
230
1.0
  2
_USER
 70
     0
 71
     1
 91
        4
 92
        1
 93
        8
 72
     2
 10
-67.68358177955861
 20
21.50246302100817
 40
0.4242446153837989
 50
90.0
 51
180.0
 73
     1
 72
     1
 10
-68.10782639494141
 20
21.50246302100817
 11
-68.10782639494141
 21
15.93795225180796
 72
     2
 10
-67.68358177955861
 20
15.93795225180796
 40
0.4242446153828041
 50
180.0
 51
270.0
 73
     1
 72
     1
 10
-67.68358177955861
 20
15.51370763642467
 11
-62.21026968884181
 21
15.51370763642467
 72
     2
 10
-62.21026968884181
 20
15.93795225180796
 40
0.4242446153832908
 50
270.0
 51
360.0
 73
     1
 72
     1
 10
-61.78602507345792
 20
15.93795225180796
 11
-61.78602507345792
 21
21.50246302100817
 72
     2
 10
-62.21026968884181
 20
21.50246302100817
 40
0.4242446153838912
 50
0.0
 51
90.0
 73
     1
 72
     1
 10
-62.21026968884181
 20
21.92670763639197
 11
-67.68358177955861
 21
21.92670763639197
 97
        8
330
2B0
330
20D
330
2AF
330
20E
330
2A6
330
20B
330
2B1
330
20C
 92
       16
 93
        1
 72
     2
 10
-65.0639961290411
 20
19.18358079265266
 40
0.4709789327785074
 50
0.0
 51
360.0
 73
     1
 97
        1
330
2C4
 92
       16
 93
        8
 72
     2
 10
-65.0401811143683
 20
19.18358079265266
 40
0.9118481501444557
 50
295.3740086781766
 51
424.6259913218076
 73
     1
 72
     2
 10
-64.51413841628042
 20
20.29272239262048
 40
0.315716923076792
 50
115.3740086783518
 51
180.0
 73
     0
 72
     1
 10
-64.82985533935721
 20
20.29272239262048
 11
-64.82985533935721
 21
20.89825768112726
 72
     2
 10
-64.51413841628042
 20
20.89825768112726
 40
0.3157169230760746
 50
180.0
 51
269.8110329574541
 73
     0
 72
     2
 10
-64.5085222809704
 20
19.19542273355816
 40
2.018561131933266
 50
269.8110329575858
 51
450.1889670424142
 73
     0
 72
     2
 10
-64.51413841628042
 20
17.49258778598917
 40
0.315716923076792
 50
90.18896704254585
 51
180.0
 73
     0
 72
     1
 10
-64.82985533935721
 20
17.49258778598917
 11
-64.82985533935721
 21
18.07443919268425
 72
     2
 10
-64.51413841628042
 20
18.07443919268425
 40
0.315716923076536
 50
180.0
 51
244.6259913216484
 73
     0
 97
        8
330
2BE
330
29A
330
246
330
2BD
330
29B
330
29C
330
245
330
299
 92
       16
 93
       12
 72
     1
 10
-67.08968710281212
 20
16.22626319198156
 11
-65.6138538418025
 21
16.22626319198156
 72
     2
 10
-65.6138538418025
 20
16.54198011505827
 40
0.3157169230767103
 50
270.0
 51
360.0
 73
     1
 72
     1
 10
-65.2981369187259
 20
16.54198011505827
 11
-65.2981369187259
 21
18.07275104658987
 72
     2
 10
-65.6138538418025
 20
18.07275104658987
 40
0.315716923076593
 50
0.0
 51
64.80558935146027
 73
     1
 72
     2
 10
-65.09126939422751
 20
19.18358079265266
 40
0.911897523557621
 50
115.1944106485123
 51
244.805589351472
 73
     0
 72
     2
 10
-65.6138538418025
 20
20.29441053871486
 40
0.3157169230761203
 50
295.1944106485397
 51
360.0
 73
     1
 72
     1
 10
-65.2981369187259
 20
20.29441053871486
 11
-65.2981369187259
 21
20.89843515777537
 72
     2
 10
-65.6138538418025
 20
20.89843515777537
 40
0.315716923076593
 50
0.0
 51
90.0
 73
     1
 72
     1
 10
-65.6138538418025
 20
21.21415208085156
 11
-67.08968710281212
 21
21.21415208085156
 72
     2
 10
-67.08968710281212
 20
20.89843515777537
 40
0.315716923076188
 50
90.0
 51
180.0
 73
     1
 72
     1
 10
-67.4054040258878
 20
20.89843515777537
 11
-67.4054040258878
 21
16.54198011505827
 72
     2
 10
-67.08968710281212
 20
16.54198011505827
 40
0.3157169230756836
 50
180.0
 51
270.0
 73
     1
 97
       12
330
212
330
2A3
330
211
330
2B4
330
210
330
2B3
330
2A4
330
2A5
330
20F
330
2B2
330
20A
330
2B5
 75
     1
 76
     0
 52
45.0
 41
0.1
 77
     0
 78
     1
 53
45.0
 43
0.0
 44
0.0
 45
-0.0707106781186548
 46
0.0707106781186548
 79
     0
 98
        1
 10
0.0
 20
0.0
  0
HATCH
  5
2F3
330
71
100
AcDbEntity
  8
1
  6
Continuous
 62
     2
100
AcDbHatch
 10
0.0
 20
0.0
 30
0.0
210
0.0
220
0.0
230
1.0
  2
_USER
 70
     0
 71
     1
 91
        4
 92
        1
 93
        8
 72
     2
 10
-67.68358177955861
 20
21.50246302100817
 40
0.4242446153837989
 50
90.0
 51
180.0
 73
     1
 72
     1
 10
-68.10782639494141
 20
21.50246302100817
 11
-68.10782639494141
 21
15.93795225180796
 72
     2
 10
-67.68358177955861
 20
15.93795225180796
 40
0.4242446153828041
 50
180.0
 51
270.0
 73
     1
 72
     1
 10
-67.68358177955861
 20
15.51370763642467
 11
-62.21026968884181
 21
15.51370763642467
 72
     2
 10
-62.21026968884181
 20
15.93795225180796
 40
0.4242446153832908
 50
270.0
 51
360.0
 73
     1
 72
     1
 10
-61.78602507345792
 20
15.93795225180796
 11
-61.78602507345792
 21
21.50246302100817
 72
     2
 10
-62.21026968884181
 20
21.50246302100817
 40
0.4242446153838912
 50
0.0
 51
90.0
 73
     1
 72
     1
 10
-62.21026968884181
 20
21.92670763639197
 11
-67.68358177955861
 21
21.92670763639197
 97
        8
330
2B0
330
20D
330
2AF
330
20E
330
2A6
330
20B
330
2B1
330
20C
 92
       16
 93
        1
 72
     2
 10
-65.0639961290411
 20
19.18358079265266
 40
0.4709789327785074
 50
0.0
 51
360.0
 73
     1
 97
        1
330
2C4
 92
       16
 93
        8
 72
     2
 10
-65.0401811143683
 20
19.18358079265266
 40
0.9118481501444557
 50
295.3740086781766
 51
424.6259913218076
 73
     1
 72
     2
 10
-64.51413841628042
 20
20.29272239262048
 40
0.315716923076792
 50
115.3740086783518
 51
180.0
 73
     0
 72
     1
 10
-64.82985533935721
 20
20.29272239262048
 11
-64.82985533935721
 21
20.89825768112726
 72
     2
 10
-64.51413841628042
 20
20.89825768112726
 40
0.3157169230760746
 50
180.0
 51
269.8110329574541
 73
     0
 72
     2
 10
-64.5085222809704
 20
19.19542273355816
 40
2.018561131933266
 50
269.8110329575858
 51
450.1889670424142
 73
     0
 72
     2
 10
-64.51413841628042
 20
17.49258778598917
 40
0.315716923076792
 50
90.18896704254585
 51
180.0
 73
     0
 72
     1
 10
-64.82985533935721
 20
17.49258778598917
 11
-64.82985533935721
 21
18.07443919268425
 72
     2
 10
-64.51413841628042
 20
18.07443919268425
 40
0.315716923076536
 50
180.0
 51
244.6259913216484
 73
     0
 97
        8
330
2BE
330
29A
330
246
330
2BD
330
29B
330
29C
330
245
330
299
 92
       16
 93
       12
 72
     1
 10
-67.08968710281212
 20
16.22626319198156
 11
-65.6138538418025
 21
16.22626319198156
 72
     2
 10
-65.6138538418025
 20
16.54198011505827
 40
0.3157169230767103
 50
270.0
 51
360.0
 73
     1
 72
     1
 10
-65.2981369187259
 20
16.54198011505827
 11
-65.2981369187259
 21
18.07275104658987
 72
     2
 10
-65.6138538418025
 20
18.07275104658987
 40
0.315716923076593
 50
0.0
 51
64.80558935146027
 73
     1
 72
     2
 10
-65.09126939422751
 20
19.18358079265266
 40
0.911897523557621
 50
115.1944106485123
 51
244.805589351472
 73
     0
 72
     2
 10
-65.6138538418025
 20
20.29441053871486
 40
0.3157169230761203
 50
295.1944106485397
 51
360.0
 73
     1
 72
     1
 10
-65.2981369187259
 20
20.29441053871486
 11
-65.2981369187259
 21
20.89843515777537
 72
     2
 10
-65.6138538418025
 20
20.89843515777537
 40
0.315716923076593
 50
0.0
 51
90.0
 73
     1
 72
     1
 10
-65.6138538418025
 20
21.21415208085156
 11
-67.08968710281212
 21
21.21415208085156
 72
     2
 10
-67.08968710281212
 20
20.89843515777537
 40
0.315716923076188
 50
90.0
 51
180.0
 73
     1
 72
     1
 10
-67.4054040258878
 20
20.89843515777537
 11
-67.4054040258878
 21
16.54198011505827
 72
     2
 10
-67.08968710281212
 20
16.54198011505827
 40
0.3157169230756836
 50
180.0
 51
270.0
 73
     1
 97
       12
330
212
330
2A3
330
211
330
2B4
330
210
330
2B3
330
2A4
330
2A5
330
20F
330
2B2
330
20A
330
2B5
 75
     1
 76
     0
 52
45.0
 41
0.1
 77
     0
 78
     1
 53
45.0
 43
0.0
 44
0.0
 45
-0.0707106781186548
 46
0.0707106781186548
 79
     0
 98
        1
 10
0.0
 20
0.0
  0
HATCH
  5
2F4
330
71
100
AcDbEntity
  8
1
  6
Continuous
 62
     2
100
AcDbHatch
 10
0.0
 20
0.0
 30
0.0
210
0.0
220
0.0
230
1.0
  2
_USER
 70
     0
 71
     1
 91
        2
 92
        1
 93
       12
 72
     2
 10
-53.00841777556931
 20
20.39980287450428
 40
1.526904761905879
 50
90.0
 51
270.0
 73
     1
 72
     1
 10
-53.00841777556931
 20
18.87289811259896
 11
-49.85809805178832
 21
18.87289811259896
 72
     1
 10
-49.85809805178832
 20
18.87289811259896
 11
-49.85809805178832
 21
19.57091171804146
 72
     1
 10
-49.85809805178832
 20
19.57091171804146
 11
-51.194025878216
 21
19.57091171804146
 72
     1
 10
-51.194025878216
 20
19.57091171804146
 11
-51.194025878216
 21
20.05079607178317
 72
     1
 10
-51.194025878216
 20
20.05079607178317
 11
-49.85809805178832
 21
20.05079607178317
 72
     1
 10
-49.85809805178832
 20
20.05079607178317
 11
-49.85809805178832
 21
20.74880967722547
 72
     1
 10
-49.85809805178832
 20
20.74880967722547
 11
-51.194025878216
 21
20.74880967722547
 72
     1
 10
-51.194025878216
 20
20.74880967722547
 11
-51.194025878216
 21
21.22869403096718
 72
     1
 10
-51.194025878216
 20
21.22869403096718
 11
-49.85809805178832
 21
21.22869403096718
 72
     1
 10
-49.85809805178832
 20
21.22869403096718
 11
-49.85809805178832
 21
21.92670763641016
 72
     1
 10
-49.85809805178832
 20
21.92670763641016
 11
-53.00841777556931
 21
21.92670763641016
 97
       12
330
201
330
1FB
330
222
330
221
330
220
330
21F
330
1FC
330
1FD
330
1FE
330
1FF
330
2A1
330
200
 92
       16
 93
        4
 72
     2
 10
-52.59240572905782
 20
20.39980287450428
 40
0.7717997786796602
 50
141.8795802028407
 51
218.1204197971572
 73
     1
 72
     2
 10
-52.79214576540412
 20
20.24307169638385
 40
0.5179085730134337
 50
218.1204197971519
 51
321.8795802028569
 73
     1
 72
     2
 10
-52.9918858017503
 20
20.39980287450428
 40
0.7717997786796439
 50
321.8795802028432
 51
398.1204197971589
 73
     1
 72
     2
 10
-52.79214576540412
 20
20.55653405262476
 40
0.5179085730135278
 50
38.12041979714224
 51
141.879580202849
 73
     1
 97
        4
330
2AE
330
2AD
330
2A8
330
2A7
 75
     1
 76
     0
 52
45.0
 41
0.1
 77
     0
 78
     1
 53
45.0
 43
0.0
 44
0.0
 45
-0.0707106781186548
 46
0.0707106781186548
 79
     0
 98
        1
 10
0.0
 20
0.0
  0
HATCH
  5
2F5
330
71
100
AcDbEntity
  8
1
  6
Continuous
 62
     2
100
AcDbHatch
 10
0.0
 20
0.0
 30
0.0
210
0.0
220
0.0
230
1.0
  2
_USER
 70
     0
 71
     1
 91
        2
 92
        1
 93
       12
 72
     2
 10
-53.00841777556931
 20
20.39980287450428
 40
1.526904761905879
 50
90.0
 51
270.0
 73
     1
 72
     1
 10
-53.00841777556931
 20
18.87289811259896
 11
-49.85809805178832
 21
18.87289811259896
 72
     1
 10
-49.85809805178832
 20
18.87289811259896
 11
-49.85809805178832
 21
19.57091171804146
 72
     1
 10
-49.85809805178832
 20
19.57091171804146
 11
-51.194025878216
 21
19.57091171804146
 72
     1
 10
-51.194025878216
 20
19.57091171804146
 11
-51.194025878216
 21
20.05079607178317
 72
     1
 10
-51.194025878216
 20
20.05079607178317
 11
-49.85809805178832
 21
20.05079607178317
 72
     1
 10
-49.85809805178832
 20
20.05079607178317
 11
-49.85809805178832
 21
20.74880967722547
 72
     1
 10
-49.85809805178832
 20
20.74880967722547
 11
-51.194025878216
 21
20.74880967722547
 72
     1
 10
-51.194025878216
 20
20.74880967722547
 11
-51.194025878216
 21
21.22869403096718
 72
     1
 10
-51.194025878216
 20
21.22869403096718
 11
-49.85809805178832
 21
21.22869403096718
 72
     1
 10
-49.85809805178832
 20
21.22869403096718
 11
-49.85809805178832
 21
21.92670763641016
 72
     1
 10
-49.85809805178832
 20
21.92670763641016
 11
-53.00841777556931
 21
21.92670763641016
 97
       12
330
201
330
1FB
330
222
330
221
330
220
330
21F
330
1FC
330
1FD
330
1FE
330
1FF
330
2A1
330
200
 92
       16
 93
        4
 72
     2
 10
-52.59240572905782
 20
20.39980287450428
 40
0.7717997786796602
 50
141.8795802028407
 51
218.1204197971572
 73
     1
 72
     2
 10
-52.79214576540412
 20
20.24307169638385
 40
0.5179085730134337
 50
218.1204197971519
 51
321.8795802028569
 73
     1
 72
     2
 10
-52.9918858017503
 20
20.39980287450428
 40
0.7717997786796439
 50
321.8795802028432
 51
398.1204197971589
 73
     1
 72
     2
 10
-52.79214576540412
 20
20.55653405262476
 40
0.5179085730135278
 50
38.12041979714224
 51
141.879580202849
 73
     1
 97
        4
330
2AE
330
2AD
330
2A8
330
2A7
 75
     1
 76
     0
 52
45.0
 41
0.1
 77
     0
 78
     1
 53
45.0
 43
0.0
 44
0.0
 45
-0.0707106781186548
 46
0.0707106781186548
 79
     0
 98
        1
 10
0.0
 20
0.0
  0
HATCH
  5
2F6
330
71
100
AcDbEntity
  8
1
  6
Continuous
 62
     2
100
AcDbHatch
 10
0.0
 20
0.0
 30
0.0
210
0.0
220
0.0
230
1.0
  2
_USER
 70
     0
 71
     1
 91
        2
 92
        1
 93
        4
 72
     2
 10
-57.03403313803091
 20
17.04061239832996
 40
1.458034083651487
 50
117.5481481756628
 51
242.4518518243373
 73
     1
 72
     2
 10
-56.75309324619761
 20
17.57918740863326
 40
2.065479772208509
 50
242.45185182434
 51
297.5481481756871
 73
     1
 72
     2
 10
-56.47215335436431
 20
17.04061239832996
 40
1.458034083652003
 50
297.548148175701
 51
422.4518518242988
 73
     1
 72
     2
 10
-56.75309324619761
 20
16.50203738802716
 40
2.065479772208568
 50
62.45185182430637
 51
117.5481481756666
 73
     1
 97
        4
330
2AC
330
2A9
330
2AB
330
2AA
 92
       16
 93
        4
 72
     2
 10
-56.75309324619761
 20
17.19734357645046
 40
0.5179085730133021
 50
38.12041979714734
 51
141.8795802028585
 73
     1
 72
     2
 10
-56.55335320985151
 20
17.04061239832996
 40
0.771799778679461
 50
141.8795802028365
 51
218.1204197971687
 73
     1
 72
     2
 10
-56.75309324619761
 20
16.88388122020996
 40
0.5179085730137354
 50
218.1204197971931
 51
321.879580202801
 73
     1
 72
     2
 10
-56.95283328254402
 20
17.04061239832996
 40
0.7717997786796947
 50
321.8795802028417
 51
398.120419797153
 73
     1
 97
        4
330
28F
330
290
330
291
330
28E
 75
     1
 76
     0
 52
45.0
 41
0.1
 77
     0
 78
     1
 53
45.0
 43
0.0
 44
0.0
 45
-0.0707106781186548
 46
0.0707106781186548
 79
     0
 98
        1
 10
0.0
 20
0.0
  0
HATCH
  5
2F7
330
71
100
AcDbEntity
  8
1
  6
Continuous
 62
     2
100
AcDbHatch
 10
0.0
 20
0.0
 30
0.0
210
0.0
220
0.0
230
1.0
  2
_USER
 70
     0
 71
     1
 91
        2
 92
        1
 93
        4
 72
     2
 10
-57.03403313803091
 20
17.04061239832996
 40
1.458034083651487
 50
117.5481481756628
 51
242.4518518243373
 73
     1
 72
     2
 10
-56.75309324619761
 20
17.57918740863326
 40
2.065479772208509
 50
242.45185182434
 51
297.5481481756871
 73
     1
 72
     2
 10
-56.47215335436431
 20
17.04061239832996
 40
1.458034083652003
 50
297.548148175701
 51
422.4518518242988
 73
     1
 72
     2
 10
-56.75309324619761
 20
16.50203738802716
 40
2.065479772208568
 50
62.45185182430637
 51
117.5481481756666
 73
     1
 97
        4
330
2AC
330
2A9
330
2AB
330
2AA
 92
       16
 93
        4
 72
     2
 10
-56.75309324619761
 20
17.19734357645046
 40
0.5179085730133021
 50
38.12041979714734
 51
141.8795802028585
 73
     1
 72
     2
 10
-56.55335320985151
 20
17.04061239832996
 40
0.771799778679461
 50
141.8795802028365
 51
218.1204197971687
 73
     1
 72
     2
 10
-56.75309324619761
 20
16.88388122020996
 40
0.5179085730137354
 50
218.1204197971931
 51
321.879580202801
 73
     1
 72
     2
 10
-56.95283328254402
 20
17.04061239832996
 40
0.7717997786796947
 50
321.8795802028417
 51
398.120419797153
 73
     1
 97
        4
330
28F
330
290
330
291
330
28E
 75
     1
 76
     0
 52
45.0
 41
0.1
 77
     0
 78
     1
 53
45.0
 43
0.0
 44
0.0
 45
-0.0707106781186548
 46
0.0707106781186548
 79
     0
 98
        1
 10
0.0
 20
0.0
  0
HATCH
  5
2F8
330
71
100
AcDbEntity
  8
1
  6
Continuous
 62
     2
100
AcDbHatch
 10
0.0
 20
0.0
 30
0.0
210
0.0
220
0.0
230
1.0
  2
_USER
 70
     0
 71
     1
 91
        2
 92
        1
 93
        6
 72
     1
 10
-61.30890799259112
 20
21.92670763641016
 11
-61.30890799259112
 21
18.87289811259896
 72
     1
 10
-61.30890799259112
 20
18.87289811259896
 11
-60.068403582337
 21
18.87289811259896
 72
     1
 10
-60.068403582337
 20
18.87289811259896
 11
-60.068403582337
 21
19.81597635374277
 72
     1
 10
-60.068403582337
 20
19.81597635374277
 11
-59.30963599455671
 21
19.81597635374277
 72
     2
 10
-59.30963599455671
 20
20.87134199507648
 40
1.055365641333712
 50
270.0
 51
450.0
 73
     1
 72
     1
 10
-59.30963599455671
 20
21.92670763641016
 11
-61.30890799259112
 21
21.92670763641016
 97
        6
330
2B6
330
213
330
209
330
208
330
215
330
214
 92
       16
 93
        4
 72
     1
 10
-59.7511085207951
 20
21.26360179097006
 11
-60.068403582337
 21
21.26360179097006
 72
     1
 10
-60.068403582337
 20
21.26360179097006
 11
-60.068403582337
 21
20.55787414162785
 72
     1
 10
-60.068403582337
 20
20.55787414162785
 11
-59.7511085207951
 21
20.55787414162785
 72
     2
 10
-59.7511085207951
 20
20.91073796629897
 40
0.3528638246711218
 50
270.0
 51
450.0
 73
     1
 97
        4
330
216
330
207
330
217
330
2A2
 75
     1
 76
     0
 52
45.0
 41
0.1
 77
     0
 78
     1
 53
45.0
 43
0.0
 44
0.0
 45
-0.0707106781186548
 46
0.0707106781186548
 79
     0
 98
        1
 10
0.0
 20
0.0
  0
HATCH
  5
2F9
330
71
100
AcDbEntity
  8
1
  6
Continuous
 62
     2
100
AcDbHatch
 10
0.0
 20
0.0
 30
0.0
210
0.0
220
0.0
230
1.0
  2
_USER
 70
     0
 71
     1
 91
        2
 92
        1
 93
        6
 72
     1
 10
-61.30890799259112
 20
21.92670763641016
 11
-61.30890799259112
 21
18.87289811259896
 72
     1
 10
-61.30890799259112
 20
18.87289811259896
 11
-60.068403582337
 21
18.87289811259896
 72
     1
 10
-60.068403582337
 20
18.87289811259896
 11
-60.068403582337
 21
19.81597635374277
 72
     1
 10
-60.068403582337
 20
19.81597635374277
 11
-59.30963599455671
 21
19.81597635374277
 72
     2
 10
-59.30963599455671
 20
20.87134199507648
 40
1.055365641333712
 50
270.0
 51
450.0
 73
     1
 72
     1
 10
-59.30963599455671
 20
21.92670763641016
 11
-61.30890799259112
 21
21.92670763641016
 97
        6
330
2B6
330
213
330
209
330
208
330
215
330
214
 92
       16
 93
        4
 72
     1
 10
-59.7511085207951
 20
21.26360179097006
 11
-60.068403582337
 21
21.26360179097006
 72
     1
 10
-60.068403582337
 20
21.26360179097006
 11
-60.068403582337
 21
20.55787414162785
 72
     1
 10
-60.068403582337
 20
20.55787414162785
 11
-59.7511085207951
 21
20.55787414162785
 72
     2
 10
-59.7511085207951
 20
20.91073796629897
 40
0.3528638246711218
 50
270.0
 51
450.0
 73
     1
 97
        4
330
216
330
207
330
217
330
2A2
 75
     1
 76
     0
 52
45.0
 41
0.1
 77
     0
 78
     1
 53
45.0
 43
0.0
 44
0.0
 45
-0.0707106781186548
 46
0.0707106781186548
 79
     0
 98
        1
 10
0.0
 20
0.0
  0
HATCH
  5
2FA
330
71
100
AcDbEntity
  8
1
  6
Continuous
 62
     2
100
AcDbHatch
 10
0.0
 20
0.0
 30
0.0
210
0.0
220
0.0
230
1.0
  2
_USER
 70
     0
 71
     1
 91
        1
 92
        1
 93
       12
 72
     1
 10
-41.69462479815792
 20
21.92670763641016
 11
-40.2919005804107
 21
21.92670763641016
 72
     1
 10
-40.2919005804107
 20
21.92670763641016
 11
-41.59443021117721
 21
20.45375710637396
 72
     1
 10
-41.59443021117721
 20
20.45375710637396
 11
-40.19647716423691
 21
18.87289811259896
 72
     1
 10
-40.19647716423691
 20
18.87289811259896
 11
-41.59920138198521
 21
18.87289811259896
 72
     1
 10
-41.59920138198521
 20
18.87289811259896
 11
-42.29579232005071
 21
19.66062989789268
 72
     1
 10
-42.29579232005071
 20
19.66062989789268
 11
-42.99238325811641
 21
18.87289811259896
 72
     1
 10
-42.99238325811641
 20
18.87289811259896
 11
-44.39510747586462
 21
18.87289811259896
 72
     1
 10
-44.39510747586462
 20
18.87289811259896
 11
-42.99715442892432
 21
20.45375710637396
 72
     1
 10
-42.99715442892432
 20
20.45375710637396
 11
-44.2996840596918
 21
21.92670763641016
 72
     1
 10
-44.2996840596918
 20
21.92670763641016
 11
-42.8969598419425
 21
21.92670763641016
 72
     1
 10
-42.8969598419425
 20
21.92670763641016
 11
-42.29579232005071
 21
21.24688431485467
 72
     1
 10
-42.29579232005071
 20
21.24688431485467
 11
-41.69462479815792
 21
21.92670763641016
 97
       12
330
1E2
330
23B
330
23A
330
239
330
238
330
1E3
330
1E4
330
1E0
330
1E1
330
23E
330
23D
330
23C
 75
     1
 76
     0
 52
45.0
 41
0.1
 77
     0
 78
     1
 53
45.0
 43
0.0
 44
0.0
 45
-0.0707106781186548
 46
0.0707106781186548
 79
     0
 98
        1
 10
0.0
 20
0.0
  0
HATCH
  5
2FB
330
71
100
AcDbEntity
  8
1
  6
Continuous
 62
     2
100
AcDbHatch
 10
0.0
 20
0.0
 30
0.0
210
0.0
220
0.0
230
1.0
  2
_USER
 70
     0
 71
     1
 91
        1
 92
        1
 93
       12
 72
     1
 10
-41.69462479815792
 20
21.92670763641016
 11
-40.2919005804107
 21
21.92670763641016
 72
     1
 10
-40.2919005804107
 20
21.92670763641016
 11
-41.59443021117721
 21
20.45375710637396
 72
     1
 10
-41.59443021117721
 20
20.45375710637396
 11
-40.19647716423691
 21
18.87289811259896
 72
     1
 10
-40.19647716423691
 20
18.87289811259896
 11
-41.59920138198521
 21
18.87289811259896
 72
     1
 10
-41.59920138198521
 20
18.87289811259896
 11
-42.29579232005071
 21
19.66062989789268
 72
     1
 10
-42.29579232005071
 20
19.66062989789268
 11
-42.99238325811641
 21
18.87289811259896
 72
     1
 10
-42.99238325811641
 20
18.87289811259896
 11
-44.39510747586462
 21
18.87289811259896
 72
     1
 10
-44.39510747586462
 20
18.87289811259896
 11
-42.99715442892432
 21
20.45375710637396
 72
     1
 10
-42.99715442892432
 20
20.45375710637396
 11
-44.2996840596918
 21
21.92670763641016
 72
     1
 10
-44.2996840596918
 20
21.92670763641016
 11
-42.8969598419425
 21
21.92670763641016
 72
     1
 10
-42.8969598419425
 20
21.92670763641016
 11
-42.29579232005071
 21
21.24688431485467
 72
     1
 10
-42.29579232005071
 20
21.24688431485467
 11
-41.69462479815792
 21
21.92670763641016
 97
       12
330
1E2
330
23B
330
23A
330
239
330
238
330
1E3
330
1E4
330
1E0
330
1E1
330
23E
330
23D
330
23C
 75
     1
 76
     0
 52
45.0
 41
0.1
 77
     0
 78
     1
 53
45.0
 43
0.0
 44
0.0
 45
-0.0707106781186548
 46
0.0707106781186548
 79
     0
 98
        1
 10
0.0
 20
0.0
  0
HATCH
  5
2FC
330
71
100
AcDbEntity
  8
1
  6
Continuous
 62
     2
100
AcDbHatch
 10
0.0
 20
0.0
 30
0.0
210
0.0
220
0.0
230
1.0
  2
_USER
 70
     0
 71
     1
 91
        1
 92
        1
 93
        4
 72
     1
 10
-44.5143867460815
 20
21.92670763641016
 11
-44.5143867460815
 21
18.87289811259896
 72
     1
 10
-44.5143867460815
 20
18.87289811259896
 11
-45.7548911563344
 21
18.87289811259896
 72
     1
 10
-45.7548911563344
 20
18.87289811259896
 11
-45.7548911563344
 21
21.92670763641016
 72
     1
 10
-45.7548911563344
 20
21.92670763641016
 11
-44.5143867460815
 21
21.92670763641016
 97
        4
330
236
330
1E5
330
235
330
237
 75
     1
 76
     0
 52
45.0
 41
0.1
 77
     0
 78
     1
 53
45.0
 43
0.0
 44
0.0
 45
-0.0707106781186548
 46
0.0707106781186548
 79
     0
 98
        1
 10
0.0
 20
0.0
  0
HATCH
  5
2FD
330
71
100
AcDbEntity
  8
1
  6
Continuous
 62
     2
100
AcDbHatch
 10
0.0
 20
0.0
 30
0.0
210
0.0
220
0.0
230
1.0
  2
_USER
 70
     0
 71
     1
 91
        1
 92
        1
 93
        4
 72
     1
 10
-44.5143867460815
 20
21.92670763641016
 11
-44.5143867460815
 21
18.87289811259896
 72
     1
 10
-44.5143867460815
 20
18.87289811259896
 11
-45.7548911563344
 21
18.87289811259896
 72
     1
 10
-45.7548911563344
 20
18.87289811259896
 11
-45.7548911563344
 21
21.92670763641016
 72
     1
 10
-45.7548911563344
 20
21.92670763641016
 11
-44.5143867460815
 21
21.92670763641016
 97
        4
330
236
330
1E5
330
235
330
237
 75
     1
 76
     0
 52
45.0
 41
0.1
 77
     0
 78
     1
 53
45.0
 43
0.0
 44
0.0
 45
-0.0707106781186548
 46
0.0707106781186548
 79
     0
 98
        1
 10
0.0
 20
0.0
  0
HATCH
  5
2FE
330
71
100
AcDbEntity
  8
1
  6
Continuous
 62
     2
100
AcDbHatch
 10
0.0
 20
0.0
 30
0.0
210
0.0
220
0.0
230
1.0
  2
_USER
 70
     0
 71
     1
 91
        2
 92
        1
 93
        8
 72
     1
 10
-44.9048307496135
 20
15.51370763642467
 11
-46.14533515986742
 21
15.51370763642467
 72
     1
 10
-46.14533515986742
 20
15.51370763642467
 11
-46.3568152133432
 21
16.05466818064255
 72
     1
 10
-46.3568152133432
 20
16.05466818064255
 11
-47.48925679001701
 21
16.05466818064255
 72
     1
 10
-47.48925679001701
 20
16.05466818064255
 11
-47.70073684349282
 21
15.51370763642467
 72
     1
 10
-47.70073684349282
 20
15.51370763642467
 11
-48.9412412537458
 21
15.51370763642467
 72
     1
 10
-48.9412412537458
 20
15.51370763642467
 11
-47.54328820680649
 21
18.56751716023575
 72
     1
 10
-47.54328820680649
 20
18.56751716023575
 11
-46.3027837965538
 21
18.56751716023575
 72
     1
 10
-46.3027837965538
 20
18.56751716023575
 11
-44.9048307496135
 21
15.51370763642467
 97
        8
330
231
330
1EB
330
230
330
233
330
1E8
330
232
330
1E9
330
1EA
 92
       16
 93
        3
 72
     1
 10
-47.22320123887201
 20
16.73523144594915
 11
-46.62287076448951
 21
16.73523144594915
 72
     1
 10
-46.62287076448951
 20
16.73523144594915
 11
-46.92303600167961
 21
17.50304641193586
 72
     1
 10
-46.92303600167961
 20
17.50304641193586
 11
-47.22320123887201
 21
16.73523144594915
 97
        3
330
1E7
330
1E6
330
234
 75
     1
 76
     0
 52
45.0
 41
0.1
 77
     0
 78
     1
 53
45.0
 43
0.0
 44
0.0
 45
-0.0707106781186548
 46
0.0707106781186548
 79
     0
 98
        1
 10
0.0
 20
0.0
  0
HATCH
  5
2FF
330
71
100
AcDbEntity
  8
1
  6
Continuous
 62
     2
100
AcDbHatch
 10
0.0
 20
0.0
 30
0.0
210
0.0
220
0.0
230
1.0
  2
_USER
 70
     0
 71
     1
 91
        2
 92
        1
 93
        8
 72
     1
 10
-44.9048307496135
 20
15.51370763642467
 11
-46.14533515986742
 21
15.51370763642467
 72
     1
 10
-46.14533515986742
 20
15.51370763642467
 11
-46.3568152133432
 21
16.05466818064255
 72
     1
 10
-46.3568152133432
 20
16.05466818064255
 11
-47.48925679001701
 21
16.05466818064255
 72
     1
 10
-47.48925679001701
 20
16.05466818064255
 11
-47.70073684349282
 21
15.51370763642467
 72
     1
 10
-47.70073684349282
 20
15.51370763642467
 11
-48.9412412537458
 21
15.51370763642467
 72
     1
 10
-48.9412412537458
 20
15.51370763642467
 11
-47.54328820680649
 21
18.56751716023575
 72
     1
 10
-47.54328820680649
 20
18.56751716023575
 11
-46.3027837965538
 21
18.56751716023575
 72
     1
 10
-46.3027837965538
 20
18.56751716023575
 11
-44.9048307496135
 21
15.51370763642467
 97
        8
330
231
330
1EB
330
230
330
233
330
1E8
330
232
330
1E9
330
1EA
 92
       16
 93
        3
 72
     1
 10
-47.22320123887201
 20
16.73523144594915
 11
-46.62287076448951
 21
16.73523144594915
 72
     1
 10
-46.62287076448951
 20
16.73523144594915
 11
-46.92303600167961
 21
17.50304641193586
 72
     1
 10
-46.92303600167961
 20
17.50304641193586
 11
-47.22320123887201
 21
16.73523144594915
 97
        3
330
1E7
330
1E6
330
234
 75
     1
 76
     0
 52
45.0
 41
0.1
 77
     0
 78
     1
 53
45.0
 43
0.0
 44
0.0
 45
-0.0707106781186548
 46
0.0707106781186548
 79
     0
 98
        1
 10
0.0
 20
0.0
  0
HATCH
  5
300
330
71
100
AcDbEntity
  8
1
  6
Continuous
 62
     2
100
AcDbHatch
 10
0.0
 20
0.0
 30
0.0
210
0.0
220
0.0
230
1.0
  2
_USER
 70
     0
 71
     1
 91
        1
 92
        1
 93
        8
 72
     1
 10
-51.09875339292802
 20
18.56751716023575
 11
-51.09875339292802
 21
17.78225185411216
 72
     1
 10
-51.09875339292802
 20
17.78225185411216
 11
-50.28765435545341
 21
17.78225185411216
 72
     1
 10
-50.28765435545341
 20
17.78225185411216
 11
-50.28765435545341
 21
15.51370763642467
 72
     1
 10
-50.28765435545341
 20
15.51370763642467
 11
-49.0948616532869
 21
15.51370763642467
 72
     1
 10
-49.0948616532869
 20
15.51370763642467
 11
-49.0948616532869
 21
17.78225185411216
 72
     1
 10
-49.0948616532869
 20
17.78225185411216
 11
-48.2837626158144
 21
17.78225185411216
 72
     1
 10
-48.2837626158144
 20
17.78225185411216
 11
-48.2837626158144
 21
18.56751716023575
 72
     1
 10
-48.2837626158144
 20
18.56751716023575
 11
-51.09875339292802
 21
18.56751716023575
 97
        8
330
22D
330
22C
330
22B
330
1EC
330
1ED
330
22F
330
1EE
330
22E
 75
     1
 76
     0
 52
45.0
 41
0.1
 77
     0
 78
     1
 53
45.0
 43
0.0
 44
0.0
 45
-0.0707106781186548
 46
0.0707106781186548
 79
     0
 98
        1
 10
0.0
 20
0.0
  0
HATCH
  5
301
330
71
100
AcDbEntity
  8
1
  6
Continuous
 62
     2
100
AcDbHatch
 10
0.0
 20
0.0
 30
0.0
210
0.0
220
0.0
230
1.0
  2
_USER
 70
     0
 71
     1
 91
        1
 92
        1
 93
        8
 72
     1
 10
-51.09875339292802
 20
18.56751716023575
 11
-51.09875339292802
 21
17.78225185411216
 72
     1
 10
-51.09875339292802
 20
17.78225185411216
 11
-50.28765435545341
 21
17.78225185411216
 72
     1
 10
-50.28765435545341
 20
17.78225185411216
 11
-50.28765435545341
 21
15.51370763642467
 72
     1
 10
-50.28765435545341
 20
15.51370763642467
 11
-49.0948616532869
 21
15.51370763642467
 72
     1
 10
-49.0948616532869
 20
15.51370763642467
 11
-49.0948616532869
 21
17.78225185411216
 72
     1
 10
-49.0948616532869
 20
17.78225185411216
 11
-48.2837626158144
 21
17.78225185411216
 72
     1
 10
-48.2837626158144
 20
17.78225185411216
 11
-48.2837626158144
 21
18.56751716023575
 72
     1
 10
-48.2837626158144
 20
18.56751716023575
 11
-51.09875339292802
 21
18.56751716023575
 97
        8
330
22D
330
22C
330
22B
330
1EC
330
1ED
330
22F
330
1EE
330
22E
 75
     1
 76
     0
 52
45.0
 41
0.1
 77
     0
 78
     1
 53
45.0
 43
0.0
 44
0.0
 45
-0.0707106781186548
 46
0.0707106781186548
 79
     0
 98
        1
 10
0.0
 20
0.0
  0
HATCH
  5
302
330
71
100
AcDbEntity
  8
1
  6
Continuous
 62
     2
100
AcDbHatch
 10
0.0
 20
0.0
 30
0.0
210
0.0
220
0.0
230
1.0
  2
_USER
 70
     0
 71
     1
 91
        1
 92
        1
 93
       10
 72
     1
 10
-48.4267468091889
 20
21.92670763641016
 11
-49.61953951135541
 21
21.92670763641016
 72
     1
 10
-49.61953951135541
 20
21.92670763641016
 11
-49.61953951135541
 21
18.87289811259896
 72
     1
 10
-49.61953951135541
 20
18.87289811259896
 11
-48.4267468091889
 21
18.87289811259896
 72
     1
 10
-48.4267468091889
 20
18.87289811259896
 11
-48.4267468091889
 21
20.18167362280366
 72
     1
 10
-48.4267468091889
 20
20.18167362280366
 11
-47.18624239893489
 21
18.87289811259896
 72
     1
 10
-47.18624239893489
 20
18.87289811259896
 11
-45.9934496967683
 21
18.87289811259896
 72
     1
 10
-45.9934496967683
 20
18.87289811259896
 11
-45.9934496967683
 21
21.92670763641016
 72
     1
 10
-45.9934496967683
 20
21.92670763641016
 11
-47.18624239893489
 21
21.92670763641016
 72
     1
 10
-47.18624239893489
 20
21.92670763641016
 11
-47.18624239893489
 21
20.61793212620498
 72
     1
 10
-47.18624239893489
 20
20.61793212620498
 11
-48.4267468091889
 21
21.92670763641016
 97
       10
330
227
330
1F1
330
1F2
330
1F3
330
1F4
330
22A
330
1EF
330
229
330
228
330
1F0
 75
     1
 76
     0
 52
45.0
 41
0.1
 77
     0
 78
     1
 53
45.0
 43
0.0
 44
0.0
 45
-0.0707106781186548
 46
0.0707106781186548
 79
     0
 98
        1
 10
0.0
 20
0.0
  0
HATCH
  5
303
330
71
100
AcDbEntity
  8
1
  6
Continuous
 62
     2
100
AcDbHatch
 10
0.0
 20
0.0
 30
0.0
210
0.0
220
0.0
230
1.0
  2
_USER
 70
     0
 71
     1
 91
        1
 92
        1
 93
       10
 72
     1
 10
-48.4267468091889
 20
21.92670763641016
 11
-49.61953951135541
 21
21.92670763641016
 72
     1
 10
-49.61953951135541
 20
21.92670763641016
 11
-49.61953951135541
 21
18.87289811259896
 72
     1
 10
-49.61953951135541
 20
18.87289811259896
 11
-48.4267468091889
 21
18.87289811259896
 72
     1
 10
-48.4267468091889
 20
18.87289811259896
 11
-48.4267468091889
 21
20.18167362280366
 72
     1
 10
-48.4267468091889
 20
20.18167362280366
 11
-47.18624239893489
 21
18.87289811259896
 72
     1
 10
-47.18624239893489
 20
18.87289811259896
 11
-45.9934496967683
 21
18.87289811259896
 72
     1
 10
-45.9934496967683
 20
18.87289811259896
 11
-45.9934496967683
 21
21.92670763641016
 72
     1
 10
-45.9934496967683
 20
21.92670763641016
 11
-47.18624239893489
 21
21.92670763641016
 72
     1
 10
-47.18624239893489
 20
21.92670763641016
 11
-47.18624239893489
 21
20.61793212620498
 72
     1
 10
-47.18624239893489
 20
20.61793212620498
 11
-48.4267468091889
 21
21.92670763641016
 97
       10
330
227
330
1F1
330
1F2
330
1F3
330
1F4
330
22A
330
1EF
330
229
330
228
330
1F0
 75
     1
 76
     0
 52
45.0
 41
0.1
 77
     0
 78
     1
 53
45.0
 43
0.0
 44
0.0
 45
-0.0707106781186548
 46
0.0707106781186548
 79
     0
 98
        1
 10
0.0
 20
0.0
  0
HATCH
  5
304
330
71
100
AcDbEntity
  8
1
  6
Continuous
 62
     2
100
AcDbHatch
 10
0.0
 20
0.0
 30
0.0
210
0.0
220
0.0
230
1.0
  2
_USER
 70
     0
 71
     1
 91
        1
 92
        1
 93
       10
 72
     1
 10
-53.67518562960751
 20
18.56751716023575
 11
-54.86797833177511
 21
18.56751716023575
 72
     1
 10
-54.86797833177511
 20
18.56751716023575
 11
-54.86797833177511
 21
15.51370763642467
 72
     1
 10
-54.86797833177511
 20
15.51370763642467
 11
-53.67518562960751
 21
15.51370763642467
 72
     1
 10
-53.67518562960751
 20
15.51370763642467
 11
-53.67518562960751
 21
16.82248314662925
 72
     1
 10
-53.67518562960751
 20
16.82248314662925
 11
-52.43468121935462
 21
15.51370763642467
 72
     1
 10
-52.43468121935462
 20
15.51370763642467
 11
-51.24188851718822
 21
15.51370763642467
 72
     1
 10
-51.24188851718822
 20
15.51370763642467
 11
-51.24188851718822
 21
18.56751716023575
 72
     1
 10
-51.24188851718822
 20
18.56751716023575
 11
-52.43468121935462
 21
18.56751716023575
 72
     1
 10
-52.43468121935462
 20
18.56751716023575
 11
-52.43468121935462
 21
17.25874165003066
 72
     1
 10
-52.43468121935462
 20
17.25874165003066
 11
-53.67518562960751
 21
18.56751716023575
 97
       10
330
1F6
330
1F7
330
1F8
330
224
330
1F9
330
1FA
330
223
330
226
330
225
330
1F5
 75
     1
 76
     0
 52
45.0
 41
0.1
 77
     0
 78
     1
 53
45.0
 43
0.0
 44
0.0
 45
-0.0707106781186548
 46
0.0707106781186548
 79
     0
 98
        1
 10
0.0
 20
0.0
  0
HATCH
  5
305
330
71
100
AcDbEntity
  8
1
  6
Continuous
 62
     2
100
AcDbHatch
 10
0.0
 20
0.0
 30
0.0
210
0.0
220
0.0
230
1.0
  2
_USER
 70
     0
 71
     1
 91
        1
 92
        1
 93
       10
 72
     1
 10
-53.67518562960751
 20
18.56751716023575
 11
-54.86797833177511
 21
18.56751716023575
 72
     1
 10
-54.86797833177511
 20
18.56751716023575
 11
-54.86797833177511
 21
15.51370763642467
 72
     1
 10
-54.86797833177511
 20
15.51370763642467
 11
-53.67518562960751
 21
15.51370763642467
 72
     1
 10
-53.67518562960751
 20
15.51370763642467
 11
-53.67518562960751
 21
16.82248314662925
 72
     1
 10
-53.67518562960751
 20
16.82248314662925
 11
-52.43468121935462
 21
15.51370763642467
 72
     1
 10
-52.43468121935462
 20
15.51370763642467
 11
-51.24188851718822
 21
15.51370763642467
 72
     1
 10
-51.24188851718822
 20
15.51370763642467
 11
-51.24188851718822
 21
18.56751716023575
 72
     1
 10
-51.24188851718822
 20
18.56751716023575
 11
-52.43468121935462
 21
18.56751716023575
 72
     1
 10
-52.43468121935462
 20
18.56751716023575
 11
-52.43468121935462
 21
17.25874165003066
 72
     1
 10
-52.43468121935462
 20
17.25874165003066
 11
-53.67518562960751
 21
18.56751716023575
 97
       10
330
1F6
330
1F7
330
1F8
330
224
330
1F9
330
1FA
330
223
330
226
330
225
330
1F5
 75
     1
 76
     0
 52
45.0
 41
0.1
 77
     0
 78
     1
 53
45.0
 43
0.0
 44
0.0
 45
-0.0707106781186548
 46
0.0707106781186548
 79
     0
 98
        1
 10
0.0
 20
0.0
  0
HATCH
  5
306
330
71
100
AcDbEntity
  8
1
  6
Continuous
 62
     2
100
AcDbHatch
 10
0.0
 20
0.0
 30
0.0
210
0.0
220
0.0
230
1.0
  2
_USER
 70
     0
 71
     1
 91
        1
 92
        1
 93
       12
 72
     1
 10
-54.67698056854292
 20
21.92670763641016
 11
-54.67698056854292
 21
18.87289811259896
 72
     1
 10
-54.67698056854292
 20
18.87289811259896
 11
-55.86977327070932
 21
18.87289811259896
 72
     1
 10
-55.86977327070932
 20
18.87289811259896
 11
-55.86977327070932
 21
20.00717022144278
 72
     1
 10
-55.86977327070932
 20
20.00717022144278
 11
-56.9194308486168
 21
20.00717022144278
 72
     1
 10
-56.9194308486168
 20
20.00717022144278
 11
-56.9194308486168
 21
18.87289811259896
 72
     1
 10
-56.9194308486168
 20
18.87289811259896
 11
-58.1122235507834
 21
18.87289811259896
 72
     1
 10
-58.1122235507834
 20
18.87289811259896
 11
-58.1122235507834
 21
21.92670763641016
 72
     1
 10
-58.1122235507834
 20
21.92670763641016
 11
-56.9194308486168
 21
21.92670763641016
 72
     1
 10
-56.9194308486168
 20
21.92670763641016
 11
-56.9194308486168
 21
20.85787430307556
 72
     1
 10
-56.9194308486168
 20
20.85787430307556
 11
-55.86977327070932
 21
20.85787430307556
 72
     1
 10
-55.86977327070932
 20
20.85787430307556
 11
-55.86977327070932
 21
21.92670763641016
 72
     1
 10
-55.86977327070932
 20
21.92670763641016
 11
-54.67698056854292
 21
21.92670763641016
 97
       12
330
21E
330
21D
330
21C
330
204
330
205
330
21B
330
206
330
21A
330
219
330
218
330
202
330
203
 75
     1
 76
     0
 52
45.0
 41
0.1
 77
     0
 78
     1
 53
45.0
 43
0.0
 44
0.0
 45
-0.0707106781186548
 46
0.0707106781186548
 79
     0
 98
        1
 10
0.0
 20
0.0
  0
HATCH
  5
307
330
71
100
AcDbEntity
  8
1
  6
Continuous
 62
     2
100
AcDbHatch
 10
0.0
 20
0.0
 30
0.0
210
0.0
220
0.0
230
1.0
  2
_USER
 70
     0
 71
     1
 91
        1
 92
        1
 93
       12
 72
     1
 10
-54.67698056854292
 20
21.92670763641016
 11
-54.67698056854292
 21
18.87289811259896
 72
     1
 10
-54.67698056854292
 20
18.87289811259896
 11
-55.86977327070932
 21
18.87289811259896
 72
     1
 10
-55.86977327070932
 20
18.87289811259896
 11
-55.86977327070932
 21
20.00717022144278
 72
     1
 10
-55.86977327070932
 20
20.00717022144278
 11
-56.9194308486168
 21
20.00717022144278
 72
     1
 10
-56.9194308486168
 20
20.00717022144278
 11
-56.9194308486168
 21
18.87289811259896
 72
     1
 10
-56.9194308486168
 20
18.87289811259896
 11
-58.1122235507834
 21
18.87289811259896
 72
     1
 10
-58.1122235507834
 20
18.87289811259896
 11
-58.1122235507834
 21
21.92670763641016
 72
     1
 10
-58.1122235507834
 20
21.92670763641016
 11
-56.9194308486168
 21
21.92670763641016
 72
     1
 10
-56.9194308486168
 20
21.92670763641016
 11
-56.9194308486168
 21
20.85787430307556
 72
     1
 10
-56.9194308486168
 20
20.85787430307556
 11
-55.86977327070932
 21
20.85787430307556
 72
     1
 10
-55.86977327070932
 20
20.85787430307556
 11
-55.86977327070932
 21
21.92670763641016
 72
     1
 10
-55.86977327070932
 20
21.92670763641016
 11
-54.67698056854292
 21
21.92670763641016
 97
       12
330
21E
330
21D
330
21C
330
204
330
205
330
21B
330
206
330
21A
330
219
330
218
330
202
330
203
 75
     1
 76
     0
 52
45.0
 41
0.1
 77
     0
 78
     1
 53
45.0
 43
0.0
 44
0.0
 45
-0.0707106781186548
 46
0.0707106781186548
 79
     0
 98
        1
 10
0.0
 20
0.0
  0
ENDBLK
  5
73
330
71
100
AcDbEntity
  8
0
100
AcDbBlockEnd
  0
BLOCK
  5
75
330
74
100
AcDbEntity
  8
0
100
AcDbBlockBegin
  2
_punkt
 70
     0
 10
57.200323245246
 20
8.22020763640836
 30
0.0
  3
_punkt
  1

  0
LINE
  5
308
330
74
100
AcDbEntity
  8
1
  6
Continuous
 62
     2
100
AcDbLine
 10
57.200323245246
 20
8.22020763640836
 30
0.0
 11
57.200323245246
 21
3.22020763640825
 31
0.0
  0
LINE
  5
309
330
74
100
AcDbEntity
  8
1
  6
Continuous
 62
     2
100
AcDbLine
 10
57.200323245246
 20
8.22020763640836
 30
0.0
 11
62.20032324524499
 21
8.22020763640836
 31
0.0
  0
ENDBLK
  5
76
330
74
100
AcDbEntity
  8
0
100
AcDbBlockEnd
  0
BLOCK
  5
7A
330
77
100
AcDbEntity
  8
0
100
AcDbBlockBegin
  2
A4I_CS
 70
     0
 10
57.200323245246
 20
3.22020763640825
 30
0.0
  3
A4I_CS
  1

  0
INSERT
  5
78
330
77
100
AcDbEntity
  8
1
100
AcDbBlockReference
  2
_rahmen
 10
57.200323245246
 20
3.22020763640825
 30
0.0
  0
INSERT
  5
79
330
77
100
AcDbEntity
  8
1
100
AcDbBlockReference
  2
_punkt
 10
57.200323245246
 20
8.22020763640836
 30
0.0
  0
ENDBLK
  5
7B
330
77
100
AcDbEntity
  8
0
100
AcDbBlockEnd
  0
BLOCK
  5
84
330
7C
100
AcDbEntity
  8
0
100
AcDbBlockBegin
  2
1
 70
     0
 10
0.0
 20
0.0
 30
0.0
  3
1
  1

  0
INSERT
  5
7D
330
7C
100
AcDbEntity
  8
0
100
AcDbBlockReference
  2
AllgSicht1
 10
-0.99999999997012
 20
81.00000000003001
 30
0.0
  0
INSERT
  5
7E
330
7C
100
AcDbEntity
  8
0
100
AcDbBlockReference
  2
Drfsicht1
 10
-121.4999999999599
 20
80.29285754816709
 30
0.0
  0
INSERT
  5
7F
330
7C
100
AcDbEntity
  8
0
100
AcDbBlockReference
  2
Rckans1
 10
4.49999964233196
 20
140.0000000000501
 30
0.0
  0
INSERT
  5
80
330
7C
100
AcDbEntity
  8
0
100
AcDbBlockReference
  2
SA_Rechts1
 10
-193.0
 20
140.00000000005
 30
0.0
  0
INSERT
  5
81
330
7C
100
AcDbEntity
  8
0
100
AcDbBlockReference
  2
SA_links1
 10
-63.00000040531199
 20
139.9999996270949
 30
0.0
  0
INSERT
  5
82
330
7C
100
AcDbEntity
  8
0
100
AcDbBlockReference
  2
Vordans1
 10
-121.4999999999598
 20
139.9999996270951
 30
0.0
  0
INSERT
  5
83
330
7C
100
AcDbEntity
  8
0
100
AcDbBlockReference
  2
A4I_CS
 10
57.200323245246
 20
3.22020763640825
 30
0.0
  0
ENDBLK
  5
85
330
7C
100
AcDbEntity
  8
0
100
AcDbBlockEnd
  0
BLOCK
  5
CF
330
C8
100
AcDbEntity
  8
0
100
AcDbBlockBegin
  2
*D17
 70
     1
 10
0.0
 20
0.0
 30
0.0
  3
*D17
  1

  0
LINE
  5
C9
330
C8
100
AcDbEntity
  8
1
  6
Continuous
 62
     2
100
AcDbLine
 10
-131.67499999992
 20
61.29285795347873
 30
0.0
 11
-131.67499999992
 21
99.29285795347873
 31
0.0
  0
LINE
  5
CA
330
C8
100
AcDbEntity
  8
1
  6
Continuous
 62
     2
100
AcDbLine
 10
-116.9999999999201
 20
61.29285795347873
 30
0.0
 11
-133.17499999992
 21
61.29285795347873
 31
0.0
  0
LINE
  5
CB
330
C8
100
AcDbEntity
  8
1
  6
Continuous
 62
     2
100
AcDbLine
 10
-116.9999999999201
 20
99.29285795347873
 30
0.0
 11
-133.17499999992
 21
99.29285795347873
 31
0.0
  0
SOLID
  5
CC
330
C8
100
AcDbEntity
  8
1
 62
     2
100
AcDbTrace
 10
-132.1357837414759
 20
64.79285795347873
 30
0.0
 11
-131.2142162583641
 21
64.79285795347873
 31
0.0
 12
-131.67499999992
 22
61.29285795347873
 32
0.0
 13
-131.67499999992
 23
61.29285795347873
 33
0.0
  0
SOLID
  5
CD
330
C8
100
AcDbEntity
  8
1
 62
     2
100
AcDbTrace
 10
-131.2142162583641
 20
95.79285795347873
 30
0.0
 11
-132.1357837414759
 21
95.79285795347873
 31
0.0
 12
-131.67499999992
 22
99.29285795347873
 32
0.0
 13
-131.67499999992
 23
99.29285795347873
 33
0.0
  0
MTEXT
  5
CE
330
C8
100
AcDbEntity
  8
1
 62
     3
100
AcDbMText
 10
-133.17499999992
 20
79.90420885823247
 30
0.0
 40
3.5
 41
0.0
 71
     7
 72
     1
  1
38
  7
CONVERTER_11
 11
0.0
 21
1.0
 31
0.0
 73
     1
 44
0.60024009603842
  0
ENDBLK
  5
D0
330
C8
100
AcDbEntity
  8
0
100
AcDbBlockEnd
  0
BLOCK
  5
1C2
330
1B9
100
AcDbEntity
  8
0
100
AcDbBlockBegin
  2
*D18
 70
     1
 10
0.0
 20
0.0
 30
0.0
  3
*D18
  1

  0
LINE
  5
1BA
330
1B9
100
AcDbEntity
  8
1
  6
Continuous
 62
     2
100
AcDbLine
 10
-132.9999999999199
 20
166.7255685456971
 30
0.0
 11
-125.9999999999199
 21
166.7255685456971
 31
0.0
  0
LINE
  5
1BB
330
1B9
100
AcDbEntity
  8
1
  6
Continuous
 62
     2
100
AcDbLine
 10
-125.9999999999199
 20
166.7255685456971
 30
0.0
 11
-116.9999999999199
 21
166.7255685456971
 31
0.0
  0
LINE
  5
1BC
330
1B9
100
AcDbEntity
  8
1
  6
Continuous
 62
     2
100
AcDbLine
 10
-116.9999999999199
 20
166.7255685456971
 30
0.0
 11
-109.9999999999199
 21
166.7255685456971
 31
0.0
  0
LINE
  5
1BD
330
1B9
100
AcDbEntity
  8
1
  6
Continuous
 62
     2
100
AcDbLine
 10
-125.9999999999199
 20
144.9071421113332
 30
0.0
 11
-125.9999999999199
 21
168.7255685456971
 31
0.0
  0
LINE
  5
1BE
330
1B9
100
AcDbEntity
  8
1
  6
Continuous
 62
     2
100
AcDbLine
 10
-116.9999999999199
 20
144.9071421113332
 30
0.0
 11
-116.9999999999199
 21
168.7255685456971
 31
0.0
  0
SOLID
  5
1BF
330
1B9
100
AcDbEntity
  8
1
 62
     2
100
AcDbTrace
 10
-129.4999999999199
 20
166.2647848041412
 30
0.0
 11
-129.4999999999199
 21
167.186352287253
 31
0.0
 12
-125.9999999999199
 22
166.7255685456971
 32
0.0
 13
-125.9999999999199
 23
166.7255685456971
 33
0.0
  0
SOLID
  5
1C0
330
1B9
100
AcDbEntity
  8
1
 62
     2
100
AcDbTrace
 10
-113.4999999999199
 20
167.186352287253
 30
0.0
 11
-113.4999999999199
 21
166.2647848041412
 31
0.0
 12
-116.9999999999199
 22
166.7255685456971
 32
0.0
 13
-116.9999999999199
 23
166.7255685456971
 33
0.0
  0
MTEXT
  5
1C1
330
1B9
100
AcDbEntity
  8
1
 62
     3
100
AcDbMText
 10
-122.0392041503219
 20
168.7255685456971
 30
0.0
 40
3.5
 41
0.0
 71
     7
 72
     1
  1
9
  7
CONVERTER_11
 11
0.9999999999970619
 21
2.424068405545306E-6
 31
0.0
 73
     1
 44
0.60024009603842
  0
ENDBLK
  5
1C3
330
1B9
100
AcDbEntity
  8
0
100
AcDbBlockEnd
  0
BLOCK
  5
1CD
330
1C6
100
AcDbEntity
  8
0
100
AcDbBlockBegin
  2
*D19
 70
     1
 10
0.0
 20
0.0
 30
0.0
  3
*D19
  1

  0
LINE
  5
1C7
330
1C6
100
AcDbEntity
  8
1
  6
Continuous
 62
     2
100
AcDbLine
 10
-131.49999999992
 20
160.7071421113332
 30
0.0
 11
-131.49999999992
 21
120.6214467657332
 31
0.0
  0
LINE
  5
1C8
330
1C6
100
AcDbEntity
  8
1
  6
Continuous
 62
     2
100
AcDbLine
 10
-121.49999999992
 20
160.7071421113332
 30
0.0
 11
-132.99999999992
 21
160.7071421113332
 31
0.0
  0
LINE
  5
1C9
330
1C6
100
AcDbEntity
  8
1
  6
Continuous
 62
     2
100
AcDbLine
 10
-119.3999999999198
 20
120.6214467657332
 30
0.0
 11
-132.99999999992
 21
120.6214467657332
 31
0.0
  0
SOLID
  5
1CA
330
1C6
100
AcDbEntity
  8
1
 62
     2
100
AcDbTrace
 10
-131.0392162583641
 20
157.2071421113332
 30
0.0
 11
-131.9607837414759
 21
157.2071421113332
 31
0.0
 12
-131.49999999992
 22
160.7071421113332
 32
0.0
 13
-131.49999999992
 23
160.7071421113332
 33
0.0
  0
SOLID
  5
1CB
330
1C6
100
AcDbEntity
  8
1
 62
     2
100
AcDbTrace
 10
-131.9607837414759
 20
124.1214467657332
 30
0.0
 11
-131.0392162583641
 21
124.1214467657332
 31
0.0
 12
-131.49999999992
 22
120.6214467657332
 32
0.0
 13
-131.49999999992
 23
120.6214467657332
 33
0.0
  0
MTEXT
  5
1CC
330
1C6
100
AcDbEntity
  8
1
 62
     3
100
AcDbMText
 10
-133.34999999992
 20
136.3767944385332
 30
0.0
 40
3.5
 41
0.0
 71
     7
 72
     1
  1
40,1
  7
CONVERTER_11
 11
0.0
 21
1.0
 31
0.0
 73
     1
 44
0.60024009603842
  0
ENDBLK
  5
1CE
330
1C6
100
AcDbEntity
  8
0
100
AcDbBlockEnd
  0
ENDSEC
  0
SECTION
  2
ENTITIES
  0
INSERT
  5
86
330
1F
100
AcDbEntity
  8
1
100
AcDbBlockReference
  2
1
 10
0.0
 20
0.0
 30
0.0
  0
ENDSEC
  0
SECTION
  2
OBJECTS
  0
DICTIONARY
  5
C
330
0
100
AcDbDictionary
281
     1
  3
ACAD_GROUP
350
D
  3
ACAD_LAYOUT
350
1A
  3
ACAD_MATERIAL
350
3B
  3
ACAD_MLEADERSTYLE
350
331
  3
ACAD_MLINESTYLE
350
17
  3
ACAD_PLOTSETTINGS
350
19
  3
ACAD_PLOTSTYLENAME
350
E
  3
ACAD_TABLESTYLE
350
330
  3
ACAD_VISUALSTYLE
350
2A
  0
DICTIONARY
  5
D
102
{ACAD_REACTORS
330
C
102
}
330
C
100
AcDbDictionary
281
     1
  0
DICTIONARY
  5
1A
102
{ACAD_REACTORS
330
C
102
}
330
C
100
AcDbDictionary
281
     1
  3
Layout1
350
1E
  3
Layout2
350
26
  3
Model
350
22
  0
DICTIONARY
  5
3B
102
{ACAD_REACTORS
330
C
102
}
330
C
100
AcDbDictionary
281
     1
  3
ByBlock
350
3D
  3
ByLayer
350
3C
  3
Global
350
3E
  0
DICTIONARY
  5
331
102
{ACAD_REACTORS
330
C
102
}
330
C
100
AcDbDictionary
281
     1
  0
DICTIONARY
  5
17
102
{ACAD_REACTORS
330
C
102
}
330
C
100
AcDbDictionary
281
     1
  3
Standard
350
18
  0
DICTIONARY
  5
19
102
{ACAD_REACTORS
330
C
102
}
330
C
100
AcDbDictionary
281
     1
  0
ACDBDICTIONARYWDFLT
  5
E
102
{ACAD_REACTORS
330
C
102
}
330
C
100
AcDbDictionary
281
     1
  3
Normal
350
F
100
AcDbDictionaryWithDefault
340
F
  0
DICTIONARY
  5
330
102
{ACAD_REACTORS
330
C
102
}
330
C
100
AcDbDictionary
281
     1
  0
DICTIONARY
  5
2A
102
{ACAD_REACTORS
330
C
102
}
330
C
100
AcDbDictionary
281
     1
  3
2dWireframe
350
2F
  3
3D Hidden
350
31
  3
3dWireframe
350
30
  3
Basic
350
32
  3
Brighten
350
36
  3
ColorChange
350
3A
  3
Conceptual
350
34
  3
Dim
350
35
  3
Facepattern
350
39
  3
Flat
350
2B
  3
FlatWithEdges
350
2C
  3
Gouraud
350
2D
  3
GouraudWithEdges
350
2E
  3
Linepattern
350
38
  3
Realistic
350
33
  3
Thicken
350
37
  0
LAYOUT
  5
1E
102
{ACAD_REACTORS
330
1A
102
}
330
1A
100
AcDbPlotSettings
  1

  2
none_device
  4

  6

 40
0.0
 41
0.0
 42
0.0
 43
0.0
 44
0.0
 45
0.0
 46
0.0
 47
0.0
 48
0.0
 49
0.0
140
0.0
141
0.0
142
1.0
143
1.0
 70
   688
 72
     0
 73
     0
 74
     5
  7

 75
    16
 76
     0
 77
     2
 78
   300
147
1.0
148
0.0
149
0.0
100
AcDbLayout
  1
Layout1
 70
     1
 71
     1
 10
0.0
 20
0.0
 11
12.0
 21
9.0
 12
0.0
 22
0.0
 32
0.0
 14
1.00000000000000E+20
 24
1.00000000000000E+20
 34
1.00000000000000E+20
 15
-1.00000000000000E+20
 25
-1.00000000000000E+20
 35
-1.00000000000000E+20
146
0.0
 13
0.0
 23
0.0
 33
0.0
 16
1.0
 26
0.0
 36
0.0
 17
0.0
 27
1.0
 37
0.0
 76
     0
330
1B
  0
LAYOUT
  5
26
102
{ACAD_REACTORS
330
1A
102
}
330
1A
100
AcDbPlotSettings
  1

  2
none_device
  4

  6

 40
0.0
 41
0.0
 42
0.0
 43
0.0
 44
0.0
 45
0.0
 46
0.0
 47
0.0
 48
0.0
 49
0.0
140
0.0
141
0.0
142
1.0
143
1.0
 70
   688
 72
     0
 73
     0
 74
     5
  7

 75
    16
 76
     0
 77
     2
 78
   300
147
1.0
148
0.0
149
0.0
100
AcDbLayout
  1
Layout2
 70
     1
 71
     2
 10
0.0
 20
0.0
 11
0.0
 21
0.0
 12
0.0
 22
0.0
 32
0.0
 14
0.0
 24
0.0
 34
0.0
 15
0.0
 25
0.0
 35
0.0
146
0.0
 13
0.0
 23
0.0
 33
0.0
 16
1.0
 26
0.0
 36
0.0
 17
0.0
 27
1.0
 37
0.0
 76
     0
330
23
  0
LAYOUT
  5
22
102
{ACAD_REACTORS
330
1A
102
}
330
1A
100
AcDbPlotSettings
  1

  2
none_device
  4

  6

 40
0.0
 41
0.0
 42
0.0
 43
0.0
 44
0.0
 45
0.0
 46
0.0
 47
0.0
 48
0.0
 49
0.0
140
0.0
141
0.0
142
1.0
143
1.0
 70
  1712
 72
     0
 73
     0
 74
     0
  7

 75
     0
 76
     0
 77
     2
 78
   300
147
1.0
148
0.0
149
0.0
100
AcDbLayout
  1
Model
 70
     1
 71
     0
 10
0.0
 20
0.0
 11
12.0
 21
9.0
 12
0.0
 22
0.0
 32
0.0
 14
-234.7996767547531
 24
3.22020763640825
 34
0.0
 15
62.20032324524499
 25
213.2202076364084
 35
0.0
146
0.0
 13
0.0
 23
0.0
 33
0.0
 16
1.0
 26
0.0
 36
0.0
 17
0.0
 27
1.0
 37
0.0
 76
     0
330
1F
331
29
  0
MATERIAL
  5
3D
102
{ACAD_REACTORS
330
3B
102
}
102
{ACAD_XDICTIONARY
360
32C
102
}
330
3B
100
AcDbMaterial
  1
ByBlock
  0
MATERIAL
  5
3C
102
{ACAD_REACTORS
330
3B
102
}
102
{ACAD_XDICTIONARY
360
32A
102
}
330
3B
100
AcDbMaterial
  1
ByLayer
  0
MATERIAL
  5
3E
102
{ACAD_REACTORS
330
3B
102
}
102
{ACAD_XDICTIONARY
360
32E
102
}
330
3B
100
AcDbMaterial
  1
Global
  0
MLINESTYLE
  5
18
102
{ACAD_REACTORS
330
17
102
}
330
17
100
AcDbMlineStyle
  2
Standard
 70
     0
  3

 62
   256
 51
90.0
 52
90.0
 71
     2
 49
0.5
 62
   256
  6
BYLAYER
 49
-0.5
 62
   256
  6
BYLAYER
  0
ACDBPLACEHOLDER
  5
F
102
{ACAD_REACTORS
330
E
102
}
330
E
  0
VISUALSTYLE
  5
2F
102
{ACAD_REACTORS
330
2A
102
}
102
{ACAD_XDICTIONARY
360
312
102
}
330
2A
100
AcDbVisualStyle
  2
2dWireframe
 70
     4
 71
     0
 72
     2
 73
     0
 90
        0
 40
-0.6
 41
-30.0
 62
     5
 63
     7
421
 16777215
 74
     1
 91
        4
 64
     7
 65
   257
 75
     1
175
     1
 42
1.0
 92
        0
 66
   257
 43
1.0
 76
     1
 77
     6
 78
     2
 67
     7
 79
     5
170
     0
171
     0
290
     0
174
     0
 93
        1
 44
0.0
173
     0
291
     0
 45
0.0
1001
ACAD
1000
AcDbSavedByObjectVersion
1070
     0
  0
VISUALSTYLE
  5
31
102
{ACAD_REACTORS
330
2A
102
}
102
{ACAD_XDICTIONARY
360
316
102
}
330
2A
100
AcDbVisualStyle
  2
3D Hidden
 70
     6
 71
     1
 72
     2
 73
     2
 90
        0
 40
-0.6
 41
-30.0
 62
     5
 63
     7
421
 16777215
 74
     2
 91
        2
 64
     7
 65
   257
 75
     2
175
     1
 42
40.0
 92
        0
 66
   257
 43
1.0
 76
     1
 77
     6
 78
     2
 67
     7
 79
     3
170
     0
171
     0
290
     0
174
     0
 93
        1
 44
0.0
173
     0
291
     0
 45
0.0
1001
ACAD
1000
AcDbSavedByObjectVersion
1070
     0
  0
VISUALSTYLE
  5
30
102
{ACAD_REACTORS
330
2A
102
}
102
{ACAD_XDICTIONARY
360
314
102
}
330
2A
100
AcDbVisualStyle
  2
3dWireframe
 70
     5
 71
     0
 72
     2
 73
     0
 90
        0
 40
-0.6
 41
-30.0
 62
     5
 63
     7
421
 16777215
 74
     1
 91
        4
 64
     7
 65
   257
 75
     1
175
     1
 42
1.0
 92
        0
 66
   257
 43
1.0
 76
     1
 77
     6
 78
     2
 67
     7
 79
     5
170
     0
171
     0
290
     0
174
     0
 93
        1
 44
0.0
173
     0
291
     0
 45
0.0
1001
ACAD
1000
AcDbSavedByObjectVersion
1070
     0
  0
VISUALSTYLE
  5
32
102
{ACAD_REACTORS
330
2A
102
}
102
{ACAD_XDICTIONARY
360
318
102
}
330
2A
100
AcDbVisualStyle
  2
Basic
 70
     7
 71
     1
 72
     0
 73
     1
 90
        0
 40
-0.6
 41
-30.0
 62
     5
 63
     7
421
 16777215
 74
     0
 91
        4
 64
     7
 65
   257
 75
     1
175
     1
 42
1.0
 92
        8
 66
     7
 43
1.0
 76
     1
 77
     6
 78
     2
 67
     7
 79
     5
170
     0
171
     0
290
     0
174
     0
 93
        1
 44
0.0
173
     0
291
     1
 45
0.0
1001
ACAD
1000
AcDbSavedByObjectVersion
1070
     0
  0
VISUALSTYLE
  5
36
102
{ACAD_REACTORS
330
2A
102
}
102
{ACAD_XDICTIONARY
360
320
102
}
330
2A
100
AcDbVisualStyle
  2
Brighten
 70
    12
 71
     2
 72
     2
 73
     0
 90
        0
 40
-0.6
 41
-30.0
 62
     5
 63
     7
421
 16777215
 74
     1
 91
        4
 64
     7
 65
   257
 75
     1
175
     1
 42
1.0
 92
        8
 66
     7
 43
1.0
 76
     1
 77
     6
 78
     2
 67
     7
 79
     5
170
     0
171
     0
290
     0
174
     0
 93
        1
 44
50.0
173
     0
291
     1
 45
0.0
1001
ACAD
1000
AcDbSavedByObjectVersion
1070
     0
  0
VISUALSTYLE
  5
3A
102
{ACAD_REACTORS
330
2A
102
}
102
{ACAD_XDICTIONARY
360
328
102
}
330
2A
100
AcDbVisualStyle
  2
ColorChange
 70
    16
 71
     2
 72
     2
 73
     3
 90
        0
 40
-0.6
 41
-30.0
 62
     5
 63
     8
421
  8421504
 74
     1
 91
        4
 64
     7
 65
   257
 75
     1
175
     1
 42
1.0
 92
        8
 66
     8
424
  8421504
 43
1.0
 76
     1
 77
     6
 78
     2
 67
     7
 79
     5
170
     0
171
     0
290
     0
174
     0
 93
        1
 44
0.0
173
     0
291
     1
 45
0.0
1001
ACAD
1000
AcDbSavedByObjectVersion
1070
     0
  0
VISUALSTYLE
  5
34
102
{ACAD_REACTORS
330
2A
102
}
102
{ACAD_XDICTIONARY
360
31C
102
}
330
2A
100
AcDbVisualStyle
  2
Conceptual
 70
     9
 71
     3
 72
     2
 73
     0
 90
        0
 40
-0.6
 41
-30.0
 62
     5
 63
     7
421
 16777215
 74
     2
 91
        2
 64
     7
 65
   257
 75
     1
175
     1
 42
40.0
 92
        8
 66
     7
 43
1.0
 76
     1
 77
     6
 78
     2
 67
     7
 79
     3
170
     0
171
     0
290
     0
174
     0
 93
        1
 44
0.0
173
     0
291
     0
 45
0.0
1001
ACAD
1000
AcDbSavedByObjectVersion
1070
     0
  0
VISUALSTYLE
  5
35
102
{ACAD_REACTORS
330
2A
102
}
102
{ACAD_XDICTIONARY
360
31E
102
}
330
2A
100
AcDbVisualStyle
  2
Dim
 70
    11
 71
     2
 72
     2
 73
     0
 90
        0
 40
-0.6
 41
-30.0
 62
     5
 63
     7
421
 16777215
 74
     1
 91
        4
 64
     7
 65
   257
 75
     1
175
     1
 42
1.0
 92
        8
 66
     7
 43
1.0
 76
     1
 77
     6
 78
     2
 67
     7
 79
     5
170
     0
171
     0
290
     0
174
     0
 93
        1
 44
-50.0
173
     0
291
     1
 45
0.0
1001
ACAD
1000
AcDbSavedByObjectVersion
1070
     0
  0
VISUALSTYLE
  5
39
102
{ACAD_REACTORS
330
2A
102
}
102
{ACAD_XDICTIONARY
360
326
102
}
330
2A
100
AcDbVisualStyle
  2
Facepattern
 70
    15
 71
     2
 72
     2
 73
     0
 90
        0
 40
-0.6
 41
-30.0
 62
     5
 63
     7
421
 16777215
 74
     1
 91
        4
 64
     7
 65
   257
 75
     1
175
     1
 42
1.0
 92
        8
 66
     7
 43
1.0
 76
     1
 77
     6
 78
     2
 67
     7
 79
     5
170
     0
171
     0
290
     0
174
     0
 93
        1
 44
0.0
173
     0
291
     1
 45
0.0
1001
ACAD
1000
AcDbSavedByObjectVersion
1070
     0
  0
VISUALSTYLE
  5
2B
102
{ACAD_REACTORS
330
2A
102
}
102
{ACAD_XDICTIONARY
360
30A
102
}
330
2A
100
AcDbVisualStyle
  2
Flat
 70
     0
 71
     2
 72
     1
 73
     1
 90
        2
 40
-0.6
 41
30.0
 62
     5
 63
     7
421
 16777215
 74
     0
 91
        4
 64
     7
 65
   257
 75
     1
175
     1
 42
1.0
 92
        8
 66
     7
 43
1.0
 76
     1
 77
     6
 78
     2
 67
     7
 79
     5
170
     0
171
     0
290
     0
174
     0
 93
       13
 44
0.0
173
     0
291
     1
 45
0.0
1001
ACAD
1000
AcDbSavedByObjectVersion
1070
     0
  0
VISUALSTYLE
  5
2C
102
{ACAD_REACTORS
330
2A
102
}
102
{ACAD_XDICTIONARY
360
30C
102
}
330
2A
100
AcDbVisualStyle
  2
FlatWithEdges
 70
     1
 71
     2
 72
     1
 73
     1
 90
        2
 40
-0.6
 41
30.0
 62
     5
 63
     7
421
 16777215
 74
     1
 91
        4
 64
     7
 65
   257
 75
     1
175
     1
 42
1.0
 92
        0
 66
   257
 43
1.0
 76
     1
 77
     6
 78
     2
 67
     7
 79
     5
170
     0
171
     0
290
     0
174
     0
 93
       13
 44
0.0
173
     0
291
     1
 45
0.0
1001
ACAD
1000
AcDbSavedByObjectVersion
1070
     0
  0
VISUALSTYLE
  5
2D
102
{ACAD_REACTORS
330
2A
102
}
102
{ACAD_XDICTIONARY
360
30E
102
}
330
2A
100
AcDbVisualStyle
  2
Gouraud
 70
     2
 71
     2
 72
     2
 73
     1
 90
        2
 40
-0.6
 41
30.0
 62
     5
 63
     7
421
 16777215
 74
     0
 91
        4
 64
     7
 65
   257
 75
     1
175
     1
 42
1.0
 92
        0
 66
     7
 43
1.0
 76
     1
 77
     6
 78
     2
 67
     7
 79
     5
170
     0
171
     0
290
     0
174
     0
 93
       13
 44
0.0
173
     0
291
     1
 45
0.0
1001
ACAD
1000
AcDbSavedByObjectVersion
1070
     0
  0
VISUALSTYLE
  5
2E
102
{ACAD_REACTORS
330
2A
102
}
102
{ACAD_XDICTIONARY
360
310
102
}
330
2A
100
AcDbVisualStyle
  2
GouraudWithEdges
 70
     3
 71
     2
 72
     2
 73
     1
 90
        2
 40
-0.6
 41
30.0
 62
     5
 63
     7
421
 16777215
 74
     1
 91
        4
 64
     7
 65
   257
 75
     1
175
     1
 42
1.0
 92
        0
 66
   257
 43
1.0
 76
     1
 77
     6
 78
     2
 67
     7
 79
     5
170
     0
171
     0
290
     0
174
     0
 93
       13
 44
0.0
173
     0
291
     1
 45
0.0
1001
ACAD
1000
AcDbSavedByObjectVersion
1070
     0
  0
VISUALSTYLE
  5
38
102
{ACAD_REACTORS
330
2A
102
}
102
{ACAD_XDICTIONARY
360
324
102
}
330
2A
100
AcDbVisualStyle
  2
Linepattern
 70
    14
 71
     2
 72
     2
 73
     0
 90
        0
 40
-0.6
 41
-30.0
 62
     5
 63
     7
421
 16777215
 74
     1
 91
        4
 64
     7
 65
   257
 75
     7
175
     7
 42
1.0
 92
        8
 66
     7
 43
1.0
 76
     1
 77
     6
 78
     2
 67
     7
 79
     5
170
     0
171
     0
290
     0
174
     0
 93
        1
 44
0.0
173
     0
291
     1
 45
0.0
1001
ACAD
1000
AcDbSavedByObjectVersion
1070
     0
  0
VISUALSTYLE
  5
33
102
{ACAD_REACTORS
330
2A
102
}
102
{ACAD_XDICTIONARY
360
31A
102
}
330
2A
100
AcDbVisualStyle
  2
Realistic
 70
     8
 71
     2
 72
     2
 73
     0
 90
        0
 40
-0.6
 41
-30.0
 62
     5
 63
     7
421
 16777215
 74
     1
 91
        0
 64
     7
 65
   257
 75
     1
175
     1
 42
1.0
 92
        8
 66
     8
424
  7895160
 43
1.0
 76
     1
 77
     6
 78
     2
 67
     7
 79
     5
170
     0
171
     0
290
     0
174
     0
 93
       13
 44
0.0
173
     0
291
     0
 45
0.0
1001
ACAD
1000
AcDbSavedByObjectVersion
1070
     0
  0
VISUALSTYLE
  5
37
102
{ACAD_REACTORS
330
2A
102
}
102
{ACAD_XDICTIONARY
360
322
102
}
330
2A
100
AcDbVisualStyle
  2
Thicken
 70
    13
 71
     2
 72
     2
 73
     0
 90
        0
 40
-0.6
 41
-30.0
 62
     5
 63
     7
421
 16777215
 74
     1
 91
        4
 64
     7
 65
   257
 75
     1
175
     1
 42
1.0
 92
       12
 66
     7
 43
1.0
 76
     1
 77
     6
 78
     2
 67
     7
 79
     5
170
     0
171
     0
290
     0
174
     0
 93
        1
 44
0.0
173
     0
291
     1
 45
0.0
1001
ACAD
1000
AcDbSavedByObjectVersion
1070
     0
  0
DICTIONARY
  5
32C
330
3D
100
AcDbDictionary
280
     1
281
     1
  3
ACAD_XREC_ROUNDTRIP
360
32D
  0
DICTIONARY
  5
32A
330
3C
100
AcDbDictionary
280
     1
281
     1
  3
ACAD_XREC_ROUNDTRIP
360
32B
  0
DICTIONARY
  5
32E
330
3E
100
AcDbDictionary
280
     1
281
     1
  3
ACAD_XREC_ROUNDTRIP
360
32F
  0
DICTIONARY
  5
312
330
2F
100
AcDbDictionary
280
     1
281
     1
  3
ACAD_XREC_ROUNDTRIP
360
313
  0
DICTIONARY
  5
316
330
31
100
AcDbDictionary
280
     1
281
     1
  3
ACAD_XREC_ROUNDTRIP
360
317
  0
DICTIONARY
  5
314
330
30
100
AcDbDictionary
280
     1
281
     1
  3
ACAD_XREC_ROUNDTRIP
360
315
  0
DICTIONARY
  5
318
330
32
100
AcDbDictionary
280
     1
281
     1
  3
ACAD_XREC_ROUNDTRIP
360
319
  0
DICTIONARY
  5
320
330
36
100
AcDbDictionary
280
     1
281
     1
  3
ACAD_XREC_ROUNDTRIP
360
321
  0
DICTIONARY
  5
328
330
3A
100
AcDbDictionary
280
     1
281
     1
  3
ACAD_XREC_ROUNDTRIP
360
329
  0
DICTIONARY
  5
31C
330
34
100
AcDbDictionary
280
     1
281
     1
  3
ACAD_XREC_ROUNDTRIP
360
31D
  0
DICTIONARY
  5
31E
330
35
100
AcDbDictionary
280
     1
281
     1
  3
ACAD_XREC_ROUNDTRIP
360
31F
  0
DICTIONARY
  5
326
330
39
100
AcDbDictionary
280
     1
281
     1
  3
ACAD_XREC_ROUNDTRIP
360
327
  0
DICTIONARY
  5
30A
330
2B
100
AcDbDictionary
280
     1
281
     1
  3
ACAD_XREC_ROUNDTRIP
360
30B
  0
DICTIONARY
  5
30C
330
2C
100
AcDbDictionary
280
     1
281
     1
  3
ACAD_XREC_ROUNDTRIP
360
30D
  0
DICTIONARY
  5
30E
330
2D
100
AcDbDictionary
280
     1
281
     1
  3
ACAD_XREC_ROUNDTRIP
360
30F
  0
DICTIONARY
  5
310
330
2E
100
AcDbDictionary
280
     1
281
     1
  3
ACAD_XREC_ROUNDTRIP
360
311
  0
DICTIONARY
  5
324
330
38
100
AcDbDictionary
280
     1
281
     1
  3
ACAD_XREC_ROUNDTRIP
360
325
  0
DICTIONARY
  5
31A
330
33
100
AcDbDictionary
280
     1
281
     1
  3
ACAD_XREC_ROUNDTRIP
360
31B
  0
DICTIONARY
  5
322
330
37
100
AcDbDictionary
280
     1
281
     1
  3
ACAD_XREC_ROUNDTRIP
360
323
  0
XRECORD
  5
32D
102
{ACAD_REACTORS
330
32C
102
}
330
32C
100
AcDbXrecord
280
     1
102
MATERIAL
148
0.0
149
0.0
149
0.0
 93
        0
 94
      127
282
     0
 72
     1
 77
     1
171
     1
175
     1
179
     1
273
     0
  0
XRECORD
  5
32B
102
{ACAD_REACTORS
330
32A
102
}
330
32A
100
AcDbXrecord
280
     1
102
MATERIAL
148
0.0
149
0.0
149
0.0
 93
        0
 94
      127
282
     0
 72
     1
 77
     1
171
     1
175
     1
179
     1
273
     0
  0
XRECORD
  5
32F
102
{ACAD_REACTORS
330
32E
102
}
330
32E
100
AcDbXrecord
280
     1
102
MATERIAL
148
0.0
149
0.0
149
0.0
 93
        0
 94
      127
282
     0
 72
     1
 77
     1
171
     1
175
     1
179
     1
273
     0
  0
XRECORD
  5
313
102
{ACAD_REACTORS
330
312
102
}
330
312
100
AcDbXrecord
280
     1
102
RTVSPropertyOp0
 70
     1
102
RTVSPropertyOp1
 70
     1
102
RTVSPropertyOp2
 70
     1
102
RTVSPropertyOp3
 70
     1
102
RTVSPropertyOp4
 70
     1
102
RTVSPropertyOp5
 70
     1
102
RTVSPropertyOp6
 70
     1
102
RTVSPropertyOp7
 70
     1
102
RTVSPropertyOp8
 70
     1
102
RTVSPropertyOp9
 70
     1
102
RTVSPropertyOp10
 70
     1
102
RTVSPropertyOp11
 70
     1
102
RTVSPropertyOp12
 70
     1
102
RTVSPropertyOp13
 70
     1
102
RTVSPropertyOp14
 70
     1
102
RTVSPropertyOp15
 70
     1
102
RTVSPropertyOp16
 70
     1
102
RTVSPropertyOp17
 70
     1
102
RTVSPropertyOp18
 70
     1
102
RTVSPropertyOp19
 70
     1
102
RTVSPropertyOp20
 70
     1
102
RTVSPropertyOp21
 70
     1
102
RTVSPropertyOp22
 70
     1
102
RTVSPropertyOp23
 70
     1
102
RTVSPropertyOp24
 70
     1
102
RTVSPropertyOp25
 70
     1
102
RTVSPropertyOp26
 70
     1
102
RTVSPropertyOp27
 70
     1
102
RTVSPropertyOp28
 70
     1
102
RTVSPropertyOp29
 70
     1
102
RTVSPropertyOp30
 70
     1
102
RTVSPropertyOp31
 70
     1
102
RTVSPropertyOp32
 70
     1
  0
XRECORD
  5
317
102
{ACAD_REACTORS
330
316
102
}
330
316
100
AcDbXrecord
280
     1
102
RTVSPropertyOp0
 70
     1
102
RTVSPropertyOp1
 70
     1
102
RTVSPropertyOp2
 70
     1
102
RTVSPropertyOp3
 70
     1
102
RTVSPropertyOp4
 70
     1
102
RTVSPropertyOp5
 70
     1
102
RTVSPropertyOp6
 70
     1
102
RTVSPropertyOp7
 70
     1
102
RTVSPropertyOp8
 70
     1
102
RTVSPropertyOp9
 70
     1
102
RTVSPropertyOp10
 70
     1
102
RTVSPropertyOp11
 70
     1
102
RTVSPropertyOp12
 70
     1
102
RTVSPropertyOp13
 70
     1
102
RTVSPropertyOp14
 70
     1
102
RTVSPropertyOp15
 70
     1
102
RTVSPropertyOp16
 70
     1
102
RTVSPropertyOp17
 70
     1
102
RTVSPropertyOp18
 70
     1
102
RTVSPropertyOp19
 70
     1
102
RTVSPropertyOp20
 70
     1
102
RTVSPropertyOp21
 70
     1
102
RTVSPropertyOp22
 70
     1
102
RTVSPropertyOp23
 70
     1
102
RTVSPropertyOp24
 70
     1
102
RTVSPropertyOp25
 70
     1
102
RTVSPropertyOp26
 70
     1
102
RTVSPropertyOp27
 70
     1
102
RTVSPropertyOp28
 70
     1
102
RTVSPropertyOp29
 70
     1
102
RTVSPropertyOp30
 70
     1
102
RTVSPropertyOp31
 70
     1
102
RTVSPropertyOp32
 70
     1
  0
XRECORD
  5
315
102
{ACAD_REACTORS
330
314
102
}
330
314
100
AcDbXrecord
280
     1
102
RTVSPropertyOp0
 70
     1
102
RTVSPropertyOp1
 70
     1
102
RTVSPropertyOp2
 70
     1
102
RTVSPropertyOp3
 70
     1
102
RTVSPropertyOp4
 70
     1
102
RTVSPropertyOp5
 70
     1
102
RTVSPropertyOp6
 70
     1
102
RTVSPropertyOp7
 70
     1
102
RTVSPropertyOp8
 70
     1
102
RTVSPropertyOp9
 70
     1
102
RTVSPropertyOp10
 70
     1
102
RTVSPropertyOp11
 70
     1
102
RTVSPropertyOp12
 70
     1
102
RTVSPropertyOp13
 70
     1
102
RTVSPropertyOp14
 70
     1
102
RTVSPropertyOp15
 70
     1
102
RTVSPropertyOp16
 70
     1
102
RTVSPropertyOp17
 70
     1
102
RTVSPropertyOp18
 70
     1
102
RTVSPropertyOp19
 70
     1
102
RTVSPropertyOp20
 70
     1
102
RTVSPropertyOp21
 70
     1
102
RTVSPropertyOp22
 70
     1
102
RTVSPropertyOp23
 70
     1
102
RTVSPropertyOp24
 70
     1
102
RTVSPropertyOp25
 70
     1
102
RTVSPropertyOp26
 70
     1
102
RTVSPropertyOp27
 70
     1
102
RTVSPropertyOp28
 70
     1
102
RTVSPropertyOp29
 70
     1
102
RTVSPropertyOp30
 70
     1
102
RTVSPropertyOp31
 70
     1
102
RTVSPropertyOp32
 70
     1
  0
XRECORD
  5
319
102
{ACAD_REACTORS
330
318
102
}
330
318
100
AcDbXrecord
280
     1
102
RTVSPropertyOp0
 70
     1
102
RTVSPropertyOp1
 70
     1
102
RTVSPropertyOp2
 70
     1
102
RTVSPropertyOp3
 70
     1
102
RTVSPropertyOp4
 70
     1
102
RTVSPropertyOp5
 70
     1
102
RTVSPropertyOp6
 70
     1
102
RTVSPropertyOp7
 70
     1
102
RTVSPropertyOp8
 70
     1
102
RTVSPropertyOp9
 70
     1
102
RTVSPropertyOp10
 70
     1
102
RTVSPropertyOp11
 70
     1
102
RTVSPropertyOp12
 70
     1
102
RTVSPropertyOp13
 70
     1
102
RTVSPropertyOp14
 70
     1
102
RTVSPropertyOp15
 70
     1
102
RTVSPropertyOp16
 70
     1
102
RTVSPropertyOp17
 70
     1
102
RTVSPropertyOp18
 70
     1
102
RTVSPropertyOp19
 70
     1
102
RTVSPropertyOp20
 70
     1
102
RTVSPropertyOp21
 70
     1
102
RTVSPropertyOp22
 70
     1
102
RTVSPropertyOp23
 70
     1
102
RTVSPropertyOp24
 70
     1
102
RTVSPropertyOp25
 70
     1
102
RTVSPropertyOp26
 70
     1
102
RTVSPropertyOp27
 70
     1
102
RTVSPropertyOp28
 70
     1
102
RTVSPropertyOp29
 70
     1
102
RTVSPropertyOp30
 70
     1
102
RTVSPropertyOp31
 70
     1
102
RTVSPropertyOp32
 70
     1
  0
XRECORD
  5
321
102
{ACAD_REACTORS
330
320
102
}
330
320
100
AcDbXrecord
280
     1
102
RTVSPropertyOp0
 70
     1
102
RTVSPropertyOp1
 70
     1
102
RTVSPropertyOp2
 70
     1
102
RTVSPropertyOp3
 70
     1
102
RTVSPropertyOp4
 70
     1
102
RTVSPropertyOp5
 70
     1
102
RTVSPropertyOp6
 70
     1
102
RTVSPropertyOp7
 70
     1
102
RTVSPropertyOp8
 70
     1
102
RTVSPropertyOp9
 70
     1
102
RTVSPropertyOp10
 70
     1
102
RTVSPropertyOp11
 70
     1
102
RTVSPropertyOp12
 70
     1
102
RTVSPropertyOp13
 70
     1
102
RTVSPropertyOp14
 70
     1
102
RTVSPropertyOp15
 70
     1
102
RTVSPropertyOp16
 70
     1
102
RTVSPropertyOp17
 70
     1
102
RTVSPropertyOp18
 70
     1
102
RTVSPropertyOp19
 70
     1
102
RTVSPropertyOp20
 70
     1
102
RTVSPropertyOp21
 70
     1
102
RTVSPropertyOp22
 70
     1
102
RTVSPropertyOp23
 70
     1
102
RTVSPropertyOp24
 70
     1
102
RTVSPropertyOp25
 70
     1
102
RTVSPropertyOp26
 70
     1
102
RTVSPropertyOp27
 70
     1
102
RTVSPropertyOp28
 70
     1
102
RTVSPropertyOp29
 70
     1
102
RTVSPropertyOp30
 70
     1
102
RTVSPropertyOp31
 70
     1
102
RTVSPropertyOp32
 70
     1
  0
XRECORD
  5
329
102
{ACAD_REACTORS
330
328
102
}
330
328
100
AcDbXrecord
280
     1
102
RTVSPropertyOp0
 70
     1
102
RTVSPropertyOp1
 70
     1
102
RTVSPropertyOp2
 70
     1
102
RTVSPropertyOp3
 70
     1
102
RTVSPropertyOp4
 70
     1
102
RTVSPropertyOp5
 70
     1
102
RTVSPropertyOp6
 70
     1
102
RTVSPropertyOp7
 70
     1
102
RTVSPropertyOp8
 70
     1
102
RTVSPropertyOp9
 70
     1
102
RTVSPropertyOp10
 70
     1
102
RTVSPropertyOp11
 70
     1
102
RTVSPropertyOp12
 70
     1
102
RTVSPropertyOp13
 70
     1
102
RTVSPropertyOp14
 70
     1
102
RTVSPropertyOp15
 70
     1
102
RTVSPropertyOp16
 70
     1
102
RTVSPropertyOp17
 70
     1
102
RTVSPropertyOp18
 70
     1
102
RTVSPropertyOp19
 70
     1
102
RTVSPropertyOp20
 70
     1
102
RTVSPropertyOp21
 70
     1
102
RTVSPropertyOp22
 70
     1
102
RTVSPropertyOp23
 70
     1
102
RTVSPropertyOp24
 70
     1
102
RTVSPropertyOp25
 70
     1
102
RTVSPropertyOp26
 70
     1
102
RTVSPropertyOp27
 70
     1
102
RTVSPropertyOp28
 70
     1
102
RTVSPropertyOp29
 70
     1
102
RTVSPropertyOp30
 70
     1
102
RTVSPropertyOp31
 70
     1
102
RTVSPropertyOp32
 70
     1
  0
XRECORD
  5
31D
102
{ACAD_REACTORS
330
31C
102
}
330
31C
100
AcDbXrecord
280
     1
102
RTVSPropertyOp0
 70
     1
102
RTVSPropertyOp1
 70
     1
102
RTVSPropertyOp2
 70
     1
102
RTVSPropertyOp3
 70
     1
102
RTVSPropertyOp4
 70
     1
102
RTVSPropertyOp5
 70
     1
102
RTVSPropertyOp6
 70
     1
102
RTVSPropertyOp7
 70
     1
102
RTVSPropertyOp8
 70
     1
102
RTVSPropertyOp9
 70
     1
102
RTVSPropertyOp10
 70
     1
102
RTVSPropertyOp11
 70
     1
102
RTVSPropertyOp12
 70
     1
102
RTVSPropertyOp13
 70
     1
102
RTVSPropertyOp14
 70
     1
102
RTVSPropertyOp15
 70
     1
102
RTVSPropertyOp16
 70
     1
102
RTVSPropertyOp17
 70
     1
102
RTVSPropertyOp18
 70
     1
102
RTVSPropertyOp19
 70
     1
102
RTVSPropertyOp20
 70
     1
102
RTVSPropertyOp21
 70
     1
102
RTVSPropertyOp22
 70
     1
102
RTVSPropertyOp23
 70
     1
102
RTVSPropertyOp24
 70
     1
102
RTVSPropertyOp25
 70
     1
102
RTVSPropertyOp26
 70
     1
102
RTVSPropertyOp27
 70
     1
102
RTVSPropertyOp28
 70
     1
102
RTVSPropertyOp29
 70
     1
102
RTVSPropertyOp30
 70
     1
102
RTVSPropertyOp31
 70
     1
102
RTVSPropertyOp32
 70
     1
  0
XRECORD
  5
31F
102
{ACAD_REACTORS
330
31E
102
}
330
31E
100
AcDbXrecord
280
     1
102
RTVSPropertyOp0
 70
     1
102
RTVSPropertyOp1
 70
     1
102
RTVSPropertyOp2
 70
     1
102
RTVSPropertyOp3
 70
     1
102
RTVSPropertyOp4
 70
     1
102
RTVSPropertyOp5
 70
     1
102
RTVSPropertyOp6
 70
     1
102
RTVSPropertyOp7
 70
     1
102
RTVSPropertyOp8
 70
     1
102
RTVSPropertyOp9
 70
     1
102
RTVSPropertyOp10
 70
     1
102
RTVSPropertyOp11
 70
     1
102
RTVSPropertyOp12
 70
     1
102
RTVSPropertyOp13
 70
     1
102
RTVSPropertyOp14
 70
     1
102
RTVSPropertyOp15
 70
     1
102
RTVSPropertyOp16
 70
     1
102
RTVSPropertyOp17
 70
     1
102
RTVSPropertyOp18
 70
     1
102
RTVSPropertyOp19
 70
     1
102
RTVSPropertyOp20
 70
     1
102
RTVSPropertyOp21
 70
     1
102
RTVSPropertyOp22
 70
     1
102
RTVSPropertyOp23
 70
     1
102
RTVSPropertyOp24
 70
     1
102
RTVSPropertyOp25
 70
     1
102
RTVSPropertyOp26
 70
     1
102
RTVSPropertyOp27
 70
     1
102
RTVSPropertyOp28
 70
     1
102
RTVSPropertyOp29
 70
     1
102
RTVSPropertyOp30
 70
     1
102
RTVSPropertyOp31
 70
     1
102
RTVSPropertyOp32
 70
     1
  0
XRECORD
  5
327
102
{ACAD_REACTORS
330
326
102
}
330
326
100
AcDbXrecord
280
     1
102
RTVSPropertyOp0
 70
     1
102
RTVSPropertyOp1
 70
     1
102
RTVSPropertyOp2
 70
     1
102
RTVSPropertyOp3
 70
     1
102
RTVSPropertyOp4
 70
     1
102
RTVSPropertyOp5
 70
     1
102
RTVSPropertyOp6
 70
     1
102
RTVSPropertyOp7
 70
     1
102
RTVSPropertyOp8
 70
     1
102
RTVSPropertyOp9
 70
     1
102
RTVSPropertyOp10
 70
     1
102
RTVSPropertyOp11
 70
     1
102
RTVSPropertyOp12
 70
     1
102
RTVSPropertyOp13
 70
     1
102
RTVSPropertyOp14
 70
     1
102
RTVSPropertyOp15
 70
     1
102
RTVSPropertyOp16
 70
     1
102
RTVSPropertyOp17
 70
     1
102
RTVSPropertyOp18
 70
     1
102
RTVSPropertyOp19
 70
     1
102
RTVSPropertyOp20
 70
     1
102
RTVSPropertyOp21
 70
     1
102
RTVSPropertyOp22
 70
     1
102
RTVSPropertyOp23
 70
     1
102
RTVSPropertyOp24
 70
     1
102
RTVSPropertyOp25
 70
     1
102
RTVSPropertyOp26
 70
     1
102
RTVSPropertyOp27
 70
     1
102
RTVSPropertyOp28
 70
     1
102
RTVSPropertyOp29
 70
     1
102
RTVSPropertyOp30
 70
     1
102
RTVSPropertyOp31
 70
     1
102
RTVSPropertyOp32
 70
     1
  0
XRECORD
  5
30B
102
{ACAD_REACTORS
330
30A
102
}
330
30A
100
AcDbXrecord
280
     1
102
RTVSPropertyOp0
 70
     1
102
RTVSPropertyOp1
 70
     1
102
RTVSPropertyOp2
 70
     1
102
RTVSPropertyOp3
 70
     1
102
RTVSPropertyOp4
 70
     1
102
RTVSPropertyOp5
 70
     1
102
RTVSPropertyOp6
 70
     1
102
RTVSPropertyOp7
 70
     1
102
RTVSPropertyOp8
 70
     1
102
RTVSPropertyOp9
 70
     1
102
RTVSPropertyOp10
 70
     1
102
RTVSPropertyOp11
 70
     1
102
RTVSPropertyOp12
 70
     1
102
RTVSPropertyOp13
 70
     1
102
RTVSPropertyOp14
 70
     1
102
RTVSPropertyOp15
 70
     1
102
RTVSPropertyOp16
 70
     1
102
RTVSPropertyOp17
 70
     1
102
RTVSPropertyOp18
 70
     1
102
RTVSPropertyOp19
 70
     1
102
RTVSPropertyOp20
 70
     1
102
RTVSPropertyOp21
 70
     1
102
RTVSPropertyOp22
 70
     1
102
RTVSPropertyOp23
 70
     1
102
RTVSPropertyOp24
 70
     1
102
RTVSPropertyOp25
 70
     1
102
RTVSPropertyOp26
 70
     1
102
RTVSPropertyOp27
 70
     1
102
RTVSPropertyOp28
 70
     1
102
RTVSPropertyOp29
 70
     1
102
RTVSPropertyOp30
 70
     1
102
RTVSPropertyOp31
 70
     1
102
RTVSPropertyOp32
 70
     1
  0
XRECORD
  5
30D
102
{ACAD_REACTORS
330
30C
102
}
330
30C
100
AcDbXrecord
280
     1
102
RTVSPropertyOp0
 70
     1
102
RTVSPropertyOp1
 70
     1
102
RTVSPropertyOp2
 70
     1
102
RTVSPropertyOp3
 70
     1
102
RTVSPropertyOp4
 70
     1
102
RTVSPropertyOp5
 70
     1
102
RTVSPropertyOp6
 70
     1
102
RTVSPropertyOp7
 70
     1
102
RTVSPropertyOp8
 70
     1
102
RTVSPropertyOp9
 70
     1
102
RTVSPropertyOp10
 70
     1
102
RTVSPropertyOp11
 70
     1
102
RTVSPropertyOp12
 70
     1
102
RTVSPropertyOp13
 70
     1
102
RTVSPropertyOp14
 70
     1
102
RTVSPropertyOp15
 70
     1
102
RTVSPropertyOp16
 70
     1
102
RTVSPropertyOp17
 70
     1
102
RTVSPropertyOp18
 70
     1
102
RTVSPropertyOp19
 70
     1
102
RTVSPropertyOp20
 70
     1
102
RTVSPropertyOp21
 70
     1
102
RTVSPropertyOp22
 70
     1
102
RTVSPropertyOp23
 70
     1
102
RTVSPropertyOp24
 70
     1
102
RTVSPropertyOp25
 70
     1
102
RTVSPropertyOp26
 70
     1
102
RTVSPropertyOp27
 70
     1
102
RTVSPropertyOp28
 70
     1
102
RTVSPropertyOp29
 70
     1
102
RTVSPropertyOp30
 70
     1
102
RTVSPropertyOp31
 70
     1
102
RTVSPropertyOp32
 70
     1
  0
XRECORD
  5
30F
102
{ACAD_REACTORS
330
30E
102
}
330
30E
100
AcDbXrecord
280
     1
102
RTVSPropertyOp0
 70
     1
102
RTVSPropertyOp1
 70
     1
102
RTVSPropertyOp2
 70
     1
102
RTVSPropertyOp3
 70
     1
102
RTVSPropertyOp4
 70
     1
102
RTVSPropertyOp5
 70
     1
102
RTVSPropertyOp6
 70
     1
102
RTVSPropertyOp7
 70
     1
102
RTVSPropertyOp8
 70
     1
102
RTVSPropertyOp9
 70
     1
102
RTVSPropertyOp10
 70
     1
102
RTVSPropertyOp11
 70
     1
102
RTVSPropertyOp12
 70
     1
102
RTVSPropertyOp13
 70
     1
102
RTVSPropertyOp14
 70
     1
102
RTVSPropertyOp15
 70
     1
102
RTVSPropertyOp16
 70
     1
102
RTVSPropertyOp17
 70
     1
102
RTVSPropertyOp18
 70
     1
102
RTVSPropertyOp19
 70
     1
102
RTVSPropertyOp20
 70
     1
102
RTVSPropertyOp21
 70
     1
102
RTVSPropertyOp22
 70
     1
102
RTVSPropertyOp23
 70
     1
102
RTVSPropertyOp24
 70
     1
102
RTVSPropertyOp25
 70
     1
102
RTVSPropertyOp26
 70
     1
102
RTVSPropertyOp27
 70
     1
102
RTVSPropertyOp28
 70
     1
102
RTVSPropertyOp29
 70
     1
102
RTVSPropertyOp30
 70
     1
102
RTVSPropertyOp31
 70
     1
102
RTVSPropertyOp32
 70
     1
  0
XRECORD
  5
311
102
{ACAD_REACTORS
330
310
102
}
330
310
100
AcDbXrecord
280
     1
102
RTVSPropertyOp0
 70
     1
102
RTVSPropertyOp1
 70
     1
102
RTVSPropertyOp2
 70
     1
102
RTVSPropertyOp3
 70
     1
102
RTVSPropertyOp4
 70
     1
102
RTVSPropertyOp5
 70
     1
102
RTVSPropertyOp6
 70
     1
102
RTVSPropertyOp7
 70
     1
102
RTVSPropertyOp8
 70
     1
102
RTVSPropertyOp9
 70
     1
102
RTVSPropertyOp10
 70
     1
102
RTVSPropertyOp11
 70
     1
102
RTVSPropertyOp12
 70
     1
102
RTVSPropertyOp13
 70
     1
102
RTVSPropertyOp14
 70
     1
102
RTVSPropertyOp15
 70
     1
102
RTVSPropertyOp16
 70
     1
102
RTVSPropertyOp17
 70
     1
102
RTVSPropertyOp18
 70
     1
102
RTVSPropertyOp19
 70
     1
102
RTVSPropertyOp20
 70
     1
102
RTVSPropertyOp21
 70
     1
102
RTVSPropertyOp22
 70
     1
102
RTVSPropertyOp23
 70
     1
102
RTVSPropertyOp24
 70
     1
102
RTVSPropertyOp25
 70
     1
102
RTVSPropertyOp26
 70
     1
102
RTVSPropertyOp27
 70
     1
102
RTVSPropertyOp28
 70
     1
102
RTVSPropertyOp29
 70
     1
102
RTVSPropertyOp30
 70
     1
102
RTVSPropertyOp31
 70
     1
102
RTVSPropertyOp32
 70
     1
  0
XRECORD
  5
325
102
{ACAD_REACTORS
330
324
102
}
330
324
100
AcDbXrecord
280
     1
102
RTVSPropertyOp0
 70
     1
102
RTVSPropertyOp1
 70
     1
102
RTVSPropertyOp2
 70
     1
102
RTVSPropertyOp3
 70
     1
102
RTVSPropertyOp4
 70
     1
102
RTVSPropertyOp5
 70
     1
102
RTVSPropertyOp6
 70
     1
102
RTVSPropertyOp7
 70
     1
102
RTVSPropertyOp8
 70
     1
102
RTVSPropertyOp9
 70
     1
102
RTVSPropertyOp10
 70
     1
102
RTVSPropertyOp11
 70
     1
102
RTVSPropertyOp12
 70
     1
102
RTVSPropertyOp13
 70
     1
102
RTVSPropertyOp14
 70
     1
102
RTVSPropertyOp15
 70
     1
102
RTVSPropertyOp16
 70
     1
102
RTVSPropertyOp17
 70
     1
102
RTVSPropertyOp18
 70
     1
102
RTVSPropertyOp19
 70
     1
102
RTVSPropertyOp20
 70
     1
102
RTVSPropertyOp21
 70
     1
102
RTVSPropertyOp22
 70
     1
102
RTVSPropertyOp23
 70
     1
102
RTVSPropertyOp24
 70
     1
102
RTVSPropertyOp25
 70
     1
102
RTVSPropertyOp26
 70
     1
102
RTVSPropertyOp27
 70
     1
102
RTVSPropertyOp28
 70
     1
102
RTVSPropertyOp29
 70
     1
102
RTVSPropertyOp30
 70
     1
102
RTVSPropertyOp31
 70
     1
102
RTVSPropertyOp32
 70
     1
  0
XRECORD
  5
31B
102
{ACAD_REACTORS
330
31A
102
}
330
31A
100
AcDbXrecord
280
     1
102
RTVSPropertyOp0
 70
     1
102
RTVSPropertyOp1
 70
     1
102
RTVSPropertyOp2
 70
     1
102
RTVSPropertyOp3
 70
     1
102
RTVSPropertyOp4
 70
     1
102
RTVSPropertyOp5
 70
     1
102
RTVSPropertyOp6
 70
     1
102
RTVSPropertyOp7
 70
     1
102
RTVSPropertyOp8
 70
     1
102
RTVSPropertyOp9
 70
     1
102
RTVSPropertyOp10
 70
     1
102
RTVSPropertyOp11
 70
     1
102
RTVSPropertyOp12
 70
     1
102
RTVSPropertyOp13
 70
     1
102
RTVSPropertyOp14
 70
     1
102
RTVSPropertyOp15
 70
     1
102
RTVSPropertyOp16
 70
     1
102
RTVSPropertyOp17
 70
     1
102
RTVSPropertyOp18
 70
     1
102
RTVSPropertyOp19
 70
     1
102
RTVSPropertyOp20
 70
     1
102
RTVSPropertyOp21
 70
     1
102
RTVSPropertyOp22
 70
     1
102
RTVSPropertyOp23
 70
     1
102
RTVSPropertyOp24
 70
     1
102
RTVSPropertyOp25
 70
     1
102
RTVSPropertyOp26
 70
     1
102
RTVSPropertyOp27
 70
     1
102
RTVSPropertyOp28
 70
     1
102
RTVSPropertyOp29
 70
     1
102
RTVSPropertyOp30
 70
     1
102
RTVSPropertyOp31
 70
     1
102
RTVSPropertyOp32
 70
     1
  0
XRECORD
  5
323
102
{ACAD_REACTORS
330
322
102
}
330
322
100
AcDbXrecord
280
     1
102
RTVSPropertyOp0
 70
     1
102
RTVSPropertyOp1
 70
     1
102
RTVSPropertyOp2
 70
     1
102
RTVSPropertyOp3
 70
     1
102
RTVSPropertyOp4
 70
     1
102
RTVSPropertyOp5
 70
     1
102
RTVSPropertyOp6
 70
     1
102
RTVSPropertyOp7
 70
     1
102
RTVSPropertyOp8
 70
     1
102
RTVSPropertyOp9
 70
     1
102
RTVSPropertyOp10
 70
     1
102
RTVSPropertyOp11
 70
     1
102
RTVSPropertyOp12
 70
     1
102
RTVSPropertyOp13
 70
     1
102
RTVSPropertyOp14
 70
     1
102
RTVSPropertyOp15
 70
     1
102
RTVSPropertyOp16
 70
     1
102
RTVSPropertyOp17
 70
     1
102
RTVSPropertyOp18
 70
     1
102
RTVSPropertyOp19
 70
     1
102
RTVSPropertyOp20
 70
     1
102
RTVSPropertyOp21
 70
     1
102
RTVSPropertyOp22
 70
     1
102
RTVSPropertyOp23
 70
     1
102
RTVSPropertyOp24
 70
     1
102
RTVSPropertyOp25
 70
     1
102
RTVSPropertyOp26
 70
     1
102
RTVSPropertyOp27
 70
     1
102
RTVSPropertyOp28
 70
     1
102
RTVSPropertyOp29
 70
     1
102
RTVSPropertyOp30
 70
     1
102
RTVSPropertyOp31
 70
     1
102
RTVSPropertyOp32
 70
     1
  0
ENDSEC
  0
EOF
