  0
SECTION
  2
HEADER
  9
$ACADVER
  1
AC1018
  9
$ACADMAINTVER
 70
     0
  9
$DWGCODEPAGE
  3
ANSI_1252
  9
$INSBASE
 10
0.0
 20
0.0
 30
0.0
  9
$EXTMIN
 10
-231.794881933705
 20
6.11636329288206
 30
0.0
  9
$EXTMAX
 10
65.20511806629304
 20
216.1163632928822
 30
0.0
  9
$LIMMIN
 10
0.0
 20
0.0
  9
$LIMMAX
 10
12.0
 20
9.0
  9
$ORTHOMODE
 70
     0
  9
$REGENMODE
 70
     1
  9
$FILLMODE
 70
     1
  9
$QTEXTMODE
 70
     0
  9
$MIRRTEXT
 70
     1
  9
$LTSCALE
 40
1.0
  9
$ATTMODE
 70
     1
  9
$TEXTSIZE
 40
0.2
  9
$TRACEWID
 40
0.05
  9
$TEXTSTYLE
  7
Standard
  9
$CLAYER
  8
0
  9
$CELTYPE
  6
ByLayer
  9
$CECOLOR
 62
   256
  9
$CELTSCALE
 40
1.0
  9
$DISPSILH
 70
     0
  9
$DIMSCALE
 40
1.0
  9
$DIMASZ
 40
0.18
  9
$DIMEXO
 40
0.0625
  9
$DIMDLI
 40
0.38
  9
$DIMRND
 40
0.0
  9
$DIMDLE
 40
0.0
  9
$DIMEXE
 40
0.18
  9
$DIMTP
 40
0.0
  9
$DIMTM
 40
0.0
  9
$DIMTXT
 40
0.18
  9
$DIMCEN
 40
0.09
  9
$DIMTSZ
 40
0.0
  9
$DIMTOL
 70
     0
  9
$DIMLIM
 70
     0
  9
$DIMTIH
 70
     1
  9
$DIMTOH
 70
     1
  9
$DIMSE1
 70
     0
  9
$DIMSE2
 70
     0
  9
$DIMTAD
 70
     0
  9
$DIMZIN
 70
     0
  9
$DIMBLK
  1

  9
$DIMASO
 70
     1
  9
$DIMSHO
 70
     1
  9
$DIMPOST
  1

  9
$DIMAPOST
  1

  9
$DIMALT
 70
     0
  9
$DIMALTD
 70
     2
  9
$DIMALTF
 40
25.4
  9
$DIMLFAC
 40
1.0
  9
$DIMTOFL
 70
     0
  9
$DIMTVP
 40
0.0
  9
$DIMTIX
 70
     0
  9
$DIMSOXD
 70
     0
  9
$DIMSAH
 70
     0
  9
$DIMBLK1
  1

  9
$DIMBLK2
  1

  9
$DIMSTYLE
  2
Standard
  9
$DIMCLRD
 70
     0
  9
$DIMCLRE
 70
     0
  9
$DIMCLRT
 70
     0
  9
$DIMTFAC
 40
1.0
  9
$DIMGAP
 40
0.09
  9
$DIMJUST
 70
     0
  9
$DIMSD1
 70
     0
  9
$DIMSD2
 70
     0
  9
$DIMTOLJ
 70
     1
  9
$DIMTZIN
 70
     0
  9
$DIMALTZ
 70
     0
  9
$DIMALTTZ
 70
     0
  9
$DIMUPT
 70
     0
  9
$DIMDEC
 70
     4
  9
$DIMTDEC
 70
     4
  9
$DIMALTU
 70
     2
  9
$DIMALTTD
 70
     2
  9
$DIMTXSTY
  7
Standard
  9
$DIMAUNIT
 70
     0
  9
$DIMADEC
 70
     0
  9
$DIMALTRND
 40
0.0
  9
$DIMAZIN
 70
     0
  9
$DIMDSEP
 70
    46
  9
$DIMATFIT
 70
     3
  9
$DIMFRAC
 70
     0
  9
$DIMLDRBLK
  1

  9
$DIMLUNIT
 70
     2
  9
$DIMLWD
 70
    -2
  9
$DIMLWE
 70
    -2
  9
$DIMTMOVE
 70
     0
  9
$LUNITS
 70
     2
  9
$LUPREC
 70
     4
  9
$SKETCHINC
 40
0.1
  9
$FILLETRAD
 40
0.5
  9
$AUNITS
 70
     0
  9
$AUPREC
 70
     0
  9
$MENU
  1
.
  9
$ELEVATION
 40
0.0
  9
$PELEVATION
 40
0.0
  9
$THICKNESS
 40
0.0
  9
$LIMCHECK
 70
     0
  9
$CHAMFERA
 40
0.0
  9
$CHAMFERB
 40
0.0
  9
$CHAMFERC
 40
0.0
  9
$CHAMFERD
 40
0.0
  9
$SKPOLY
 70
     0
  9
$TDCREATE
 40
2458912.025181458
  9
$TDUCREATE
 40
2458911.983514792
  9
$TDUPDATE
 40
2458912.025181644
  9
$TDUUPDATE
 40
2458911.983514977
  9
$TDINDWG
 40
0.0000000116
  9
$TDUSRTIMER
 40
0.0000000116
  9
$USRTIMER
 70
     1
  9
$ANGBASE
 50
0.0
  9
$ANGDIR
 70
     0
  9
$PDMODE
 70
     0
  9
$PDSIZE
 40
0.0
  9
$PLINEWID
 40
0.0
  9
$SPLFRAME
 70
     0
  9
$SPLINETYPE
 70
     6
  9
$SPLINESEGS
 70
     8
  9
$HANDSEED
  5
335
  9
$SURFTAB1
 70
     6
  9
$SURFTAB2
 70
     6
  9
$SURFTYPE
 70
     6
  9
$SURFU
 70
     6
  9
$SURFV
 70
     6
  9
$UCSBASE
  2

  9
$UCSNAME
  2

  9
$UCSORG
 10
0.0
 20
0.0
 30
0.0
  9
$UCSXDIR
 10
1.0
 20
0.0
 30
0.0
  9
$UCSYDIR
 10
0.0
 20
1.0
 30
0.0
  9
$UCSORTHOREF
  2

  9
$UCSORTHOVIEW
 70
     0
  9
$UCSORGTOP
 10
0.0
 20
0.0
 30
0.0
  9
$UCSORGBOTTOM
 10
0.0
 20
0.0
 30
0.0
  9
$UCSORGLEFT
 10
0.0
 20
0.0
 30
0.0
  9
$UCSORGRIGHT
 10
0.0
 20
0.0
 30
0.0
  9
$UCSORGFRONT
 10
0.0
 20
0.0
 30
0.0
  9
$UCSORGBACK
 10
0.0
 20
0.0
 30
0.0
  9
$PUCSBASE
  2

  9
$PUCSNAME
  2

  9
$PUCSORG
 10
0.0
 20
0.0
 30
0.0
  9
$PUCSXDIR
 10
1.0
 20
0.0
 30
0.0
  9
$PUCSYDIR
 10
0.0
 20
1.0
 30
0.0
  9
$PUCSORTHOREF
  2

  9
$PUCSORTHOVIEW
 70
     0
  9
$PUCSORGTOP
 10
0.0
 20
0.0
 30
0.0
  9
$PUCSORGBOTTOM
 10
0.0
 20
0.0
 30
0.0
  9
$PUCSORGLEFT
 10
0.0
 20
0.0
 30
0.0
  9
$PUCSORGRIGHT
 10
0.0
 20
0.0
 30
0.0
  9
$PUCSORGFRONT
 10
0.0
 20
0.0
 30
0.0
  9
$PUCSORGBACK
 10
0.0
 20
0.0
 30
0.0
  9
$USERI1
 70
     0
  9
$USERI2
 70
     0
  9
$USERI3
 70
     0
  9
$USERI4
 70
     0
  9
$USERI5
 70
     0
  9
$USERR1
 40
20.1
  9
$USERR2
 40
0.0
  9
$USERR3
 40
0.0
  9
$USERR4
 40
0.0
  9
$USERR5
 40
0.0
  9
$WORLDVIEW
 70
     1
  9
$SHADEDGE
 70
     3
  9
$SHADEDIF
 70
    70
  9
$TILEMODE
 70
     1
  9
$MAXACTVP
 70
    64
  9
$PINSBASE
 10
0.0
 20
0.0
 30
0.0
  9
$PLIMCHECK
 70
     0
  9
$PEXTMIN
 10
1.00000000000000E+20
 20
1.00000000000000E+20
 30
1.00000000000000E+20
  9
$PEXTMAX
 10
-1.00000000000000E+20
 20
-1.00000000000000E+20
 30
-1.00000000000000E+20
  9
$PLIMMIN
 10
0.0
 20
0.0
  9
$PLIMMAX
 10
12.0
 20
9.0
  9
$UNITMODE
 70
     0
  9
$VISRETAIN
 70
     1
  9
$PLINEGEN
 70
     0
  9
$PSLTSCALE
 70
     1
  9
$TREEDEPTH
 70
  3020
  9
$CMLSTYLE
  2
Standard
  9
$CMLJUST
 70
     0
  9
$CMLSCALE
 40
1.0
  9
$PROXYGRAPHICS
 70
     1
  9
$MEASUREMENT
 70
     1
  9
$CELWEIGHT
370
    -1
  9
$ENDCAPS
280
     0
  9
$JOINSTYLE
280
     0
  9
$LWDISPLAY
290
     0
  9
$INSUNITS
 70
     4
  9
$HYPERLINKBASE
  1

  9
$STYLESHEET
  1

  9
$XEDIT
290
     1
  9
$CEPSNTYPE
380
     0
  9
$PSTYLEMODE
290
     1
  9
$FINGERPRINTGUID
  2
{8fb9ccbc-eceb-45e6-8ce6-8e848cd5ab66}
  9
$VERSIONGUID
  2
{FAEB1C32-E019-11D5-929B-00C0DF256EC4}
  9
$EXTNAMES
290
     1
  9
$PSVPSCALE
 40
0.0
  9
$OLESTARTUP
290
     0
  9
$SORTENTS
280
   127
  9
$INDEXCTL
280
     0
  9
$HIDETEXT
280
     1
  9
$XCLIPFRAME
290
     0
  9
$HALOGAP
280
     0
  9
$OBSCOLOR
 70
   257
  9
$OBSLTYPE
280
     0
  9
$INTERSECTIONDISPLAY
280
     0
  9
$INTERSECTIONCOLOR
 70
   257
  9
$DIMASSOC
280
     2
  9
$PROJECTNAME
  1

  0
ENDSEC
  0
SECTION
  2
CLASSES
  0
CLASS
  1
ACDBDICTIONARYWDFLT
  2
AcDbDictionaryWithDefault
  3
ObjectDBX Classes
 90
        0
 91
        3
280
     0
281
     0
  0
CLASS
  1
VISUALSTYLE
  2
AcDbVisualStyle
  3
ObjectDBX Classes
 90
     4095
 91
        3
280
     0
281
     0
  0
CLASS
  1
MATERIAL
  2
AcDbMaterial
  3
ObjectDBX Classes
 90
     1153
 91
        3
280
     0
281
     0
  0
CLASS
  1
SCALE
  2
AcDbScale
  3
ObjectDBX Classes
 90
     1153
 91
        3
280
     0
281
     0
  0
CLASS
  1
TABLESTYLE
  2
AcDbTableStyle
  3
ObjectDBX Classes
 90
     4095
 91
        3
280
     0
281
     0
  0
CLASS
  1
MLEADERSTYLE
  2
AcDbMLeaderStyle
  3
ACDB_MLEADERSTYLE_CLASS
 90
     4095
 91
        3
280
     0
281
     0
  0
CLASS
  1
SUN
  2
AcDbSun
  3
SCENEOE
 90
     1153
 91
        3
280
     0
281
     0
  0
CLASS
  1
DICTIONARYVAR
  2
AcDbDictionaryVar
  3
ObjectDBX Classes
 90
        0
 91
        3
280
     0
281
     0
  0
CLASS
  1
CELLSTYLEMAP
  2
AcDbCellStyleMap
  3
ObjectDBX Classes
 90
     1152
 91
        3
280
     0
281
     0
  0
ENDSEC
  0
SECTION
  2
TABLES
  0
TABLE
  2
VPORT
  5
8
102
{ACAD_XDICTIONARY
360
2EE
102
}
330
0
100
AcDbSymbolTable
 70
     1
  0
VPORT
  5
29
330
8
100
AcDbSymbolTableRecord
100
AcDbViewportTableRecord
  2
*Active
 70
     0
 10
0.0
 20
0.0
 11
1.0
 21
1.0
 12
-83.29488193370598
 22
111.1163632928821
 13
0.0
 23
0.0
 14
0.5
 24
0.5
 15
0.5
 25
0.5
 16
0.0
 26
0.0
 36
1.0
 17
0.0
 27
0.0
 37
0.0
 40
231.0000000000002
 41
1.60267857142857
 42
50.0
 43
0.0
 44
0.0
 50
0.0
 51
0.0
 71
     0
 72
   100
 73
     1
 74
     3
 75
     0
 76
     0
 77
     0
 78
     0
281
     0
 65
     1
110
0.0
120
0.0
130
0.0
111
1.0
121
0.0
131
0.0
112
0.0
122
1.0
132
0.0
 79
     0
146
0.0
  0
ENDTAB
  0
TABLE
  2
LTYPE
  5
5
330
0
100
AcDbSymbolTable
 70
     8
  0
LTYPE
  5
14
330
5
100
AcDbSymbolTableRecord
100
AcDbLinetypeTableRecord
  2
ByBlock
 70
     0
  3

 72
    65
 73
     0
 40
0.0
  0
LTYPE
  5
15
330
5
100
AcDbSymbolTableRecord
100
AcDbLinetypeTableRecord
  2
ByLayer
 70
     0
  3

 72
    65
 73
     0
 40
0.0
  0
LTYPE
  5
16
330
5
100
AcDbSymbolTableRecord
100
AcDbLinetypeTableRecord
  2
Continuous
 70
     0
  3
Solid line
 72
    65
 73
     0
 40
0.0
  0
LTYPE
  5
6E
330
5
100
AcDbSymbolTableRecord
100
AcDbLinetypeTableRecord
  2
DASHED
 70
     0
  3
Dashed
 72
    65
 73
     2
 40
15.0
 49
7.0
 74
     0
 49
-8.0
 74
     0
  0
LTYPE
  5
6F
330
5
100
AcDbSymbolTableRecord
100
AcDbLinetypeTableRecord
  2
DOTTED
 70
     0
  3
Dotted
 72
    65
 73
     2
 40
1.0
 49
0.0
 74
     0
 49
-1.0
 74
     0
  0
LTYPE
  5
70
330
5
100
AcDbSymbolTableRecord
100
AcDbLinetypeTableRecord
  2
DOT_CENTER
 70
     0
  3
Dot_Center
 72
    65
 73
     4
 40
14.0
 49
12.0
 74
     0
 49
-1.0
 74
     0
 49
0.0
 74
     0
 49
-1.0
 74
     0
  0
LTYPE
  5
71
330
5
100
AcDbSymbolTableRecord
100
AcDbLinetypeTableRecord
  2
LONG_DASHED
 70
     0
  3
Long_Dashed
 72
    65
 73
     2
 40
15.0
 49
10.0
 74
     0
 49
-5.0
 74
     0
  0
LTYPE
  5
72
330
5
100
AcDbSymbolTableRecord
100
AcDbLinetypeTableRecord
  2
DASH_CENTER
 70
     0
  3
Dash_Center
 72
    65
 73
     4
 40
14.0
 49
11.0
 74
     0
 49
-1.0
 74
     0
 49
1.0
 74
     0
 49
-1.0
 74
     0
  0
LTYPE
  5
73
330
5
100
AcDbSymbolTableRecord
100
AcDbLinetypeTableRecord
  2
PHANTOM
 70
     0
  3
Phantom
 72
    65
 73
     6
 40
13.0
 49
10.0
 74
     0
 49
-1.0
 74
     0
 49
0.0
 74
     0
 49
-1.0
 74
     0
 49
0.0
 74
     0
 49
-1.0
 74
     0
  0
LTYPE
  5
74
330
5
100
AcDbSymbolTableRecord
100
AcDbLinetypeTableRecord
  2
CENTER_DASH_DASH
 70
     0
  3
Center_Dash_Dash
 72
    65
 73
     6
 40
14.0
 49
9.0
 74
     0
 49
-1.0
 74
     0
 49
1.0
 74
     0
 49
-1.0
 74
     0
 49
1.0
 74
     0
 49
-1.0
 74
     0
  0
ENDTAB
  0
TABLE
  2
LAYER
  5
2
330
0
100
AcDbSymbolTable
 70
     2
  0
LAYER
  5
10
330
2
100
AcDbSymbolTableRecord
100
AcDbLayerTableRecord
  2
0
 70
     0
 62
     7
  6
Continuous
370
    -3
390
F
  0
LAYER
  5
75
330
2
100
AcDbSymbolTableRecord
100
AcDbLayerTableRecord
  2
1
 70
     0
 62
     7
  6
Continuous
370
    -3
390
F
  0
ENDTAB
  0
TABLE
  2
STYLE
  5
3
330
0
100
AcDbSymbolTable
 70
     5
  0
STYLE
  5
11
330
3
100
AcDbSymbolTableRecord
100
AcDbTextStyleTableRecord
  2
Standard
 70
     0
 40
0.0
 41
1.0
 50
0.0
 71
     0
 42
0.2
  3
txt
  4

  0
STYLE
  5
1AC
330
3
100
AcDbSymbolTableRecord
100
AcDbTextStyleTableRecord
  2
CONVERTER_11
 70
     0
 40
0.0
 41
0.9
 50
0.0
 71
     0
 42
0.2
  3
txt.shx
  4

  0
STYLE
  5
1B3
330
3
100
AcDbSymbolTableRecord
100
AcDbTextStyleTableRecord
  2
CONVERTER_12
 70
     0
 40
0.0
 41
0.81
 50
0.0
 71
     0
 42
0.2
  3
txt.shx
  4

  0
STYLE
  5
1C9
330
3
100
AcDbSymbolTableRecord
100
AcDbTextStyleTableRecord
  2
CONVERTER_13
 70
     0
 40
0.0
 41
0.72
 50
0.0
 71
     0
 42
0.2
  3
txt.shx
  4

  0
STYLE
  5
1CC
330
3
100
AcDbSymbolTableRecord
100
AcDbTextStyleTableRecord
  2
CONVERTER_14
 70
     0
 40
0.0
 41
0.855
 50
0.0
 71
     0
 42
0.2
  3
txt.shx
  4

  0
ENDTAB
  0
TABLE
  2
VIEW
  5
6
330
0
100
AcDbSymbolTable
 70
     0
  0
ENDTAB
  0
TABLE
  2
UCS
  5
7
330
0
100
AcDbSymbolTable
 70
     0
  0
ENDTAB
  0
TABLE
  2
APPID
  5
9
330
0
100
AcDbSymbolTable
 70
     2
  0
APPID
  5
12
330
9
100
AcDbSymbolTableRecord
100
AcDbRegAppTableRecord
  2
ACAD
 70
     0
  0
APPID
  5
32D
330
9
100
AcDbSymbolTableRecord
100
AcDbRegAppTableRecord
  2
ACAD_MLEADERVER
 70
     0
  0
ENDTAB
  0
TABLE
  2
DIMSTYLE
  5
A
330
0
100
AcDbSymbolTable
 70
     3
100
AcDbDimStyleTable
  0
DIMSTYLE
105
27
330
A
100
AcDbSymbolTableRecord
100
AcDbDimStyleTableRecord
  2
Standard
 70
     0
178
     0
340
11
  0
DIMSTYLE
105
25D
102
{ACAD_REACTORS
330
25E
102
}
330
A
100
AcDbSymbolTableRecord
100
AcDbDimStyleTableRecord
  2
ME10_DIM_10
 70
     0
 41
1.75
 42
0.25
 44
0.75
 73
     0
 74
     0
 77
     1
 78
     8
140
1.75
147
1.0
172
     1
173
     1
174
     1
175
     1
176
     2
177
     2
271
     2
178
     3
271
     2
340
1AC
  0
DIMSTYLE
105
2E2
102
{ACAD_REACTORS
330
2E3
102
}
330
A
100
AcDbSymbolTableRecord
100
AcDbDimStyleTableRecord
  2
ME10_DIM_11
 70
     0
 41
1.75
 42
0.25
 44
0.75
 73
     0
 74
     0
 77
     1
 78
     8
140
1.75
147
1.0
172
     1
173
     1
174
     1
175
     1
176
     2
177
     2
271
     2
178
     3
271
     2
340
1AC
  0
ENDTAB
  0
TABLE
  2
BLOCK_RECORD
  5
1
330
0
100
AcDbSymbolTable
 70
    20
  0
BLOCK_RECORD
  5
1F
330
1
100
AcDbSymbolTableRecord
100
AcDbBlockTableRecord
  2
*Model_Space
340
22
  0
BLOCK_RECORD
  5
1B
330
1
100
AcDbSymbolTableRecord
100
AcDbBlockTableRecord
  2
*Paper_Space
340
1E
  0
BLOCK_RECORD
  5
23
330
1
100
AcDbSymbolTableRecord
100
AcDbBlockTableRecord
  2
*Paper_Space0
340
26
  0
BLOCK_RECORD
  5
76
330
1
100
AcDbSymbolTableRecord
100
AcDbBlockTableRecord
  2
_rahmen
340
0
102
{BLKREFS
331
7D
102
}
  0
BLOCK_RECORD
  5
79
330
1
100
AcDbSymbolTableRecord
100
AcDbBlockTableRecord
  2
_punkt
340
0
102
{BLKREFS
331
7E
102
}
  0
BLOCK_RECORD
  5
7C
330
1
100
AcDbSymbolTableRecord
100
AcDbBlockTableRecord
  2
A4I_CS
340
0
102
{BLKREFS
331
AC
102
}
  0
BLOCK_RECORD
  5
81
330
1
100
AcDbSymbolTableRecord
100
AcDbBlockTableRecord
  2
GS-GSK_S-select__1
340
0
102
{BLKREFS
331
85
102
}
  0
BLOCK_RECORD
  5
84
330
1
100
AcDbSymbolTableRecord
100
AcDbBlockTableRecord
  2
AllgSicht1
340
0
102
{BLKREFS
331
AD
102
}
  0
BLOCK_RECORD
  5
88
330
1
100
AcDbSymbolTableRecord
100
AcDbBlockTableRecord
  2
GS-GSK_S-select__2
340
0
102
{BLKREFS
331
8C
102
}
  0
BLOCK_RECORD
  5
8B
330
1
100
AcDbSymbolTableRecord
100
AcDbBlockTableRecord
  2
Drfsicht1
340
0
102
{BLKREFS
331
AE
102
}
  0
BLOCK_RECORD
  5
8F
330
1
100
AcDbSymbolTableRecord
100
AcDbBlockTableRecord
  2
GS-GSK_S-select__3
340
0
102
{BLKREFS
331
93
102
}
  0
BLOCK_RECORD
  5
92
330
1
100
AcDbSymbolTableRecord
100
AcDbBlockTableRecord
  2
Rckans1
340
0
102
{BLKREFS
331
AF
102
}
  0
BLOCK_RECORD
  5
96
330
1
100
AcDbSymbolTableRecord
100
AcDbBlockTableRecord
  2
GS-GSK_S-select__4
340
0
102
{BLKREFS
331
9A
102
}
  0
BLOCK_RECORD
  5
99
330
1
100
AcDbSymbolTableRecord
100
AcDbBlockTableRecord
  2
SA_Links1
340
0
102
{BLKREFS
331
B0
102
}
  0
BLOCK_RECORD
  5
9D
330
1
100
AcDbSymbolTableRecord
100
AcDbBlockTableRecord
  2
GS-GSK_S-select__5
340
0
102
{BLKREFS
331
A1
102
}
  0
BLOCK_RECORD
  5
A0
330
1
100
AcDbSymbolTableRecord
100
AcDbBlockTableRecord
  2
SA_Rechts1
340
0
102
{BLKREFS
331
B1
102
}
  0
BLOCK_RECORD
  5
A4
330
1
100
AcDbSymbolTableRecord
100
AcDbBlockTableRecord
  2
GS-GSK_S-select__6
340
0
102
{BLKREFS
331
A8
102
}
  0
BLOCK_RECORD
  5
A7
330
1
100
AcDbSymbolTableRecord
100
AcDbBlockTableRecord
  2
Vordans1
340
0
102
{BLKREFS
331
B2
102
}
  0
BLOCK_RECORD
  5
AB
330
1
100
AcDbSymbolTableRecord
100
AcDbBlockTableRecord
  2
1
340
0
102
{BLKREFS
331
B5
102
}
  0
BLOCK_RECORD
  5
254
330
1
100
AcDbSymbolTableRecord
100
AcDbBlockTableRecord
  2
*D17
340
0
  0
BLOCK_RECORD
  5
2D9
330
1
100
AcDbSymbolTableRecord
100
AcDbBlockTableRecord
  2
*D18
340
0
  0
BLOCK_RECORD
  5
2E4
330
1
100
AcDbSymbolTableRecord
100
AcDbBlockTableRecord
  2
*D19
340
0
102
{BLKREFS
331
2ED
102
}
  0
ENDTAB
  0
ENDSEC
  0
SECTION
  2
BLOCKS
  0
BLOCK
  5
20
330
1F
100
AcDbEntity
  8
0
100
AcDbBlockBegin
  2
*Model_Space
 70
     0
 10
0.0
 20
0.0
 30
0.0
  3
*Model_Space
  1

  0
ENDBLK
  5
21
330
1F
100
AcDbEntity
  8
0
100
AcDbBlockEnd
  0
BLOCK
  5
1C
330
1B
100
AcDbEntity
 67
     1
  8
0
100
AcDbBlockBegin
  2
*Paper_Space
 70
     0
 10
0.0
 20
0.0
 30
0.0
  3
*Paper_Space
  1

  0
ENDBLK
  5
1D
330
1B
100
AcDbEntity
 67
     1
  8
0
100
AcDbBlockEnd
  0
BLOCK
  5
24
330
23
100
AcDbEntity
  8
0
100
AcDbBlockBegin
  2
*Paper_Space0
 70
     0
 10
0.0
 20
0.0
 30
0.0
  3
*Paper_Space0
  1

  0
ENDBLK
  5
25
330
23
100
AcDbEntity
  8
0
100
AcDbBlockEnd
  0
BLOCK
  5
77
330
76
100
AcDbEntity
  8
0
100
AcDbBlockBegin
  2
_rahmen
 70
     0
 10
60.20511806629405
 20
6.11636329288206
 30
0.0
  3
_rahmen
  1

  0
LINE
  5
B6
330
76
100
AcDbEntity
  8
1
  6
Continuous
 62
     6
100
AcDbLine
 10
-69.33968646045597
 20
36.61636329288217
 30
0.0
 11
60.20511806629574
 21
36.61636329288217
 31
0.0
  0
LINE
  5
B7
330
76
100
AcDbEntity
  8
1
  6
Continuous
 62
     7
100
AcDbLine
 10
-51.13968646045595
 20
15.36636329288217
 30
0.0
 11
-32.93968646045605
 21
15.36636329288217
 31
0.0
  0
LINE
  5
B8
330
76
100
AcDbEntity
  8
1
  6
Continuous
 62
     6
100
AcDbLine
 10
-51.13968646045595
 20
11.11636329288217
 30
0.0
 11
-69.33968646045597
 21
11.11636329288206
 31
0.0
  0
LINE
  5
B9
330
76
100
AcDbEntity
  8
1
  6
Continuous
 62
     7
100
AcDbLine
 10
-51.13968646045595
 20
15.36636329288217
 30
0.0
 11
-51.13968646045595
 21
11.11636329288217
 31
0.0
  0
LINE
  5
BA
330
76
100
AcDbEntity
  8
1
  6
Continuous
 62
     7
100
AcDbLine
 10
-32.93968646045605
 20
15.36636329288217
 30
0.0
 11
-32.93968646045605
 21
11.11636329288206
 31
0.0
  0
LINE
  5
BB
330
76
100
AcDbEntity
  8
1
  6
Continuous
 62
     7
100
AcDbLine
 10
-69.33968646045597
 20
15.36636329288206
 30
0.0
 11
-69.33968646045597
 21
11.11636329288206
 31
0.0
  0
LINE
  5
BC
330
76
100
AcDbEntity
  8
1
  6
Continuous
 62
     7
100
AcDbLine
 10
-69.33968646045597
 20
15.36636329288206
 30
0.0
 11
-51.13968646045595
 21
15.36636329288217
 31
0.0
  0
LINE
  5
BD
330
76
100
AcDbEntity
  8
1
  6
Continuous
 62
     2
100
AcDbLine
 10
-60.10303157389336
 20
34.74136329288209
 30
0.0
 11
-60.10303157389336
 21
29.74136329288209
 31
0.0
  0
LINE
  5
BE
330
76
100
AcDbEntity
  8
1
  6
Continuous
 62
     2
100
AcDbLine
 10
-60.10303157389336
 20
29.74136329288209
 30
0.0
 11
-65.10303157389336
 21
30.99136329288209
 31
0.0
  0
LINE
  5
BF
330
76
100
AcDbEntity
  8
1
  6
Continuous
 62
     2
100
AcDbLine
 10
-65.10303157389336
 20
30.99136329288209
 30
0.0
 11
-65.10303157389336
 21
33.49136329288209
 31
0.0
  0
LINE
  5
C0
330
76
100
AcDbEntity
  8
1
  6
Continuous
 62
     2
100
AcDbLine
 10
-65.10303157389336
 20
33.49136329288209
 30
0.0
 11
-60.10303157389336
 21
34.74136329288209
 31
0.0
  0
LINE
  5
C1
330
76
100
AcDbEntity
  8
1
  6
Continuous
 62
     6
100
AcDbLine
 10
-191.7948819337042
 20
11.11636329288217
 30
0.0
 11
-226.7948819337041
 21
11.11636329288217
 31
0.0
  0
LINE
  5
C2
330
76
100
AcDbEntity
  8
1
  6
Continuous
 62
     6
100
AcDbLine
 10
60.20511806629574
 20
28.11636329288217
 30
0.0
 11
60.20511806629534
 21
19.61636329288217
 31
0.0
  0
LINE
  5
C3
330
76
100
AcDbEntity
  8
1
  6
Continuous
 62
     6
100
AcDbLine
 10
-32.93968646045605
 20
11.11636329288206
 30
0.0
 11
-33.29488193370597
 21
11.11636329288217
 31
0.0
  0
LINE
  5
C4
330
76
100
AcDbEntity
  8
1
  6
Continuous
 62
     6
100
AcDbLine
 10
-185.5948819337062
 20
11.11636329288206
 30
0.0
 11
-191.7948819337042
 21
11.11636329288217
 31
0.0
  0
LINE
  5
C5
330
76
100
AcDbEntity
  8
1
  6
Continuous
 62
     7
100
AcDbLine
 10
-32.93968646045605
 20
28.11636329288217
 30
0.0
 11
-32.93968646045605
 21
15.36636329288217
 31
0.0
  0
LINE
  5
C6
330
76
100
AcDbEntity
  8
1
  6
Continuous
 62
     7
100
AcDbLine
 10
-69.33968646045597
 20
28.11636329288217
 30
0.0
 11
-69.33968646045597
 21
15.36636329288206
 31
0.0
  0
LINE
  5
C7
330
76
100
AcDbEntity
  8
1
  6
Continuous
 62
     6
100
AcDbLine
 10
-83.29488193370594
 20
11.11636329288217
 30
0.0
 11
-133.2948819337062
 21
11.11636329288217
 31
0.0
  0
LINE
  5
C8
330
76
100
AcDbEntity
  8
1
  6
Continuous
 62
     6
100
AcDbLine
 10
-185.5948819337062
 20
11.11636329288206
 30
0.0
 11
-183.2948819337059
 21
11.11636329288217
 31
0.0
  0
LINE
  5
C9
330
76
100
AcDbEntity
  8
1
  6
Continuous
 62
     6
100
AcDbLine
 10
-32.93968646045605
 20
11.11636329288206
 30
0.0
 11
16.70511806629403
 21
11.11636329288217
 31
0.0
  0
LINE
  5
CA
330
76
100
AcDbEntity
  8
1
  6
Continuous
 62
     6
100
AcDbLine
 10
60.20511806629405
 20
11.11636329288217
 30
0.0
 11
60.20511806629534
 21
19.61636329288217
 31
0.0
  0
LINE
  5
CB
330
76
100
AcDbEntity
  8
1
  6
Continuous
 62
     2
100
AcDbLine
 10
-231.794881933705
 20
11.11636329288217
 30
0.0
 11
-231.794881933705
 21
6.11636329288206
 31
0.0
  0
LINE
  5
CC
330
76
100
AcDbEntity
  8
1
  6
Continuous
 62
     2
100
AcDbLine
 10
-226.7948819337041
 20
11.11636329288217
 30
0.0
 11
-231.794881933705
 21
11.11636329288217
 31
0.0
  0
LINE
  5
CD
330
76
100
AcDbEntity
  8
1
  6
Continuous
 62
     2
100
AcDbLine
 10
-226.7948819337041
 20
6.11636329288206
 30
0.0
 11
-183.2948819337059
 21
6.11636329288206
 31
0.0
  0
LINE
  5
CE
330
76
100
AcDbEntity
  8
1
  6
Continuous
 62
     2
100
AcDbLine
 10
-226.7948819337041
 20
11.11636329288217
 30
0.0
 11
-226.7948819337041
 21
6.11636329288206
 31
0.0
  0
LINE
  5
CF
330
76
100
AcDbEntity
  8
1
  6
Continuous
 62
     2
100
AcDbLine
 10
16.70511806629403
 20
6.11636329288206
 30
0.0
 11
-33.29488193370597
 21
6.11636329288206
 31
0.0
  0
LINE
  5
D0
330
76
100
AcDbEntity
  8
1
  6
Continuous
 62
     2
100
AcDbLine
 10
16.70511806629403
 20
6.11636329288206
 30
0.0
 11
16.70511806629403
 21
11.11636329288217
 31
0.0
  0
LINE
  5
D1
330
76
100
AcDbEntity
  8
1
  6
Continuous
 62
     2
100
AcDbLine
 10
-33.29488193370597
 20
6.11636329288206
 30
0.0
 11
-33.29488193370597
 21
11.11636329288217
 31
0.0
  0
LINE
  5
D2
330
76
100
AcDbEntity
  8
1
  6
Continuous
 62
     2
100
AcDbLine
 10
-83.29488193370594
 20
6.11636329288206
 30
0.0
 11
-33.29488193370597
 21
6.11636329288206
 31
0.0
  0
LINE
  5
D3
330
76
100
AcDbEntity
  8
1
  6
Continuous
 62
     2
100
AcDbLine
 10
-83.29488193370594
 20
6.11636329288206
 30
0.0
 11
-83.29488193370594
 21
11.11636329288217
 31
0.0
  0
LINE
  5
D4
330
76
100
AcDbEntity
  8
1
  6
Continuous
 62
     2
100
AcDbLine
 10
-133.2948819337062
 20
6.11636329288206
 30
0.0
 11
-83.29488193370594
 21
6.11636329288206
 31
0.0
  0
LINE
  5
D5
330
76
100
AcDbEntity
  8
1
  6
Continuous
 62
     2
100
AcDbLine
 10
-133.2948819337062
 20
6.11636329288206
 30
0.0
 11
-133.2948819337062
 21
11.11636329288217
 31
0.0
  0
LINE
  5
D6
330
76
100
AcDbEntity
  8
1
  6
Continuous
 62
     2
100
AcDbLine
 10
-183.2948819337059
 20
6.11636329288206
 30
0.0
 11
-133.2948819337062
 21
6.11636329288206
 31
0.0
  0
LINE
  5
D7
330
76
100
AcDbEntity
  8
1
  6
Continuous
 62
     2
100
AcDbLine
 10
-183.2948819337059
 20
6.11636329288206
 30
0.0
 11
-183.2948819337059
 21
11.11636329288217
 31
0.0
  0
LINE
  5
D8
330
76
100
AcDbEntity
  8
1
  6
Continuous
 62
     6
100
AcDbLine
 10
-226.7948819337042
 20
61.11636329288228
 30
0.0
 11
-226.7948819337041
 21
11.11636329288217
 31
0.0
  0
LINE
  5
D9
330
76
100
AcDbEntity
  8
1
  6
Continuous
 62
     2
100
AcDbLine
 10
-231.794881933705
 20
61.11636329288228
 30
0.0
 11
-231.794881933705
 21
11.11636329288217
 31
0.0
  0
LINE
  5
DA
330
76
100
AcDbEntity
  8
1
  6
Continuous
 62
     2
100
AcDbLine
 10
-231.794881933705
 20
61.11636329288228
 30
0.0
 11
-226.7948819337042
 21
61.11636329288228
 31
0.0
  0
LINE
  5
DB
330
76
100
AcDbEntity
  8
1
  6
Continuous
 62
     6
100
AcDbLine
 10
-226.7948819337045
 20
111.1163632928821
 30
0.0
 11
-226.7948819337042
 21
61.11636329288228
 31
0.0
  0
LINE
  5
DC
330
76
100
AcDbEntity
  8
1
  6
Continuous
 62
     2
100
AcDbLine
 10
-231.794881933705
 20
111.1163632928821
 30
0.0
 11
-231.794881933705
 21
61.11636329288228
 31
0.0
  0
LINE
  5
DD
330
76
100
AcDbEntity
  8
1
  6
Continuous
 62
     2
100
AcDbLine
 10
-231.794881933705
 20
111.1163632928821
 30
0.0
 11
-226.7948819337045
 21
111.1163632928821
 31
0.0
  0
LINE
  5
DE
330
76
100
AcDbEntity
  8
1
  6
Continuous
 62
     6
100
AcDbLine
 10
-226.794881933705
 20
161.1163632928822
 30
0.0
 11
-226.7948819337045
 21
111.1163632928821
 31
0.0
  0
LINE
  5
DF
330
76
100
AcDbEntity
  8
1
  6
Continuous
 62
     2
100
AcDbLine
 10
-231.794881933705
 20
161.1163632928822
 30
0.0
 11
-231.794881933705
 21
111.1163632928821
 31
0.0
  0
LINE
  5
E0
330
76
100
AcDbEntity
  8
1
  6
Continuous
 62
     2
100
AcDbLine
 10
-231.794881933705
 20
161.1163632928822
 30
0.0
 11
-226.794881933705
 21
161.1163632928822
 31
0.0
  0
LINE
  5
E1
330
76
100
AcDbEntity
  8
1
  6
Continuous
 62
     6
100
AcDbLine
 10
-226.794881933705
 20
196.1163632928822
 30
0.0
 11
-226.794881933705
 21
161.1163632928822
 31
0.0
  0
LINE
  5
E2
330
76
100
AcDbEntity
  8
1
  6
Continuous
 62
     2
100
AcDbLine
 10
-231.794881933705
 20
216.1163632928822
 30
0.0
 11
-231.794881933705
 21
161.1163632928822
 31
0.0
  0
LINE
  5
E3
330
76
100
AcDbEntity
  8
1
  6
Continuous
 62
     2
100
AcDbLine
 10
-231.794881933705
 20
6.11636329288206
 30
0.0
 11
-226.7948819337041
 21
6.11636329288206
 31
0.0
  0
LINE
  5
E4
330
76
100
AcDbEntity
  8
1
  6
Continuous
 62
     2
100
AcDbLine
 10
-83.29488193370594
 20
216.1163632928822
 30
0.0
 11
-83.29488193370594
 21
206.9076714481809
 31
0.0
  0
LINE
  5
E5
330
76
100
AcDbEntity
  8
1
  6
Continuous
 62
     2
100
AcDbLine
 10
-83.29488193370594
 20
216.1163632928822
 30
0.0
 11
-231.794881933705
 21
216.1163632928822
 31
0.0
  0
LINE
  5
E6
330
76
100
AcDbEntity
  8
1
  6
Continuous
 62
     2
100
AcDbLine
 10
65.20511806629304
 20
11.11636329288217
 30
0.0
 11
65.20511806629304
 21
61.11636329288228
 31
0.0
  0
LINE
  5
E7
330
76
100
AcDbEntity
  8
1
  6
Continuous
 62
     2
100
AcDbLine
 10
65.20511806629304
 20
161.1163632928822
 30
0.0
 11
65.20511806629304
 21
216.1163632928822
 31
0.0
  0
LINE
  5
E8
330
76
100
AcDbEntity
  8
1
  6
Continuous
 62
     6
100
AcDbLine
 10
60.20511806629324
 20
161.1163632928822
 30
0.0
 11
60.20511806629304
 21
196.1163632928822
 31
0.0
  0
LINE
  5
E9
330
76
100
AcDbEntity
  8
1
  6
Continuous
 62
     2
100
AcDbLine
 10
60.20511806629324
 20
161.1163632928822
 30
0.0
 11
65.20511806629304
 21
161.1163632928822
 31
0.0
  0
LINE
  5
EA
330
76
100
AcDbEntity
  8
1
  6
Continuous
 62
     2
100
AcDbLine
 10
65.20511806629304
 20
111.1163632928821
 30
0.0
 11
65.20511806629304
 21
161.1163632928822
 31
0.0
  0
LINE
  5
EB
330
76
100
AcDbEntity
  8
1
  6
Continuous
 62
     6
100
AcDbLine
 10
60.20511806629445
 20
111.1163632928821
 30
0.0
 11
60.20511806629324
 21
161.1163632928822
 31
0.0
  0
LINE
  5
EC
330
76
100
AcDbEntity
  8
1
  6
Continuous
 62
     2
100
AcDbLine
 10
60.20511806629445
 20
111.1163632928821
 30
0.0
 11
65.20511806629304
 21
111.1163632928821
 31
0.0
  0
LINE
  5
ED
330
76
100
AcDbEntity
  8
1
  6
Continuous
 62
     2
100
AcDbLine
 10
65.20511806629304
 20
61.11636329288228
 30
0.0
 11
65.20511806629304
 21
111.1163632928821
 31
0.0
  0
LINE
  5
EE
330
76
100
AcDbEntity
  8
1
  6
Continuous
 62
     6
100
AcDbLine
 10
60.20511806629494
 20
61.11636329288228
 30
0.0
 11
60.20511806629445
 21
111.1163632928821
 31
0.0
  0
LINE
  5
EF
330
76
100
AcDbEntity
  8
1
  6
Continuous
 62
     2
100
AcDbLine
 10
60.20511806629494
 20
61.11636329288228
 30
0.0
 11
65.20511806629304
 21
61.11636329288228
 31
0.0
  0
LINE
  5
F0
330
76
100
AcDbEntity
  8
1
  6
Continuous
 62
     6
100
AcDbLine
 10
60.20511806629304
 20
196.1163632928822
 30
0.0
 11
-226.794881933705
 21
196.1163632928822
 31
0.0
  0
LINE
  5
F1
330
76
100
AcDbEntity
  8
1
  6
Continuous
 62
     2
100
AcDbLine
 10
65.20511806629304
 20
216.1163632928822
 30
0.0
 11
-83.29488193370594
 21
216.1163632928822
 31
0.0
  0
LINE
  5
F2
330
76
100
AcDbEntity
  8
1
  6
Continuous
 62
     6
100
AcDbLine
 10
60.20511806629574
 20
28.11636329288217
 30
0.0
 11
60.20511806629494
 21
61.11636329288228
 31
0.0
  0
LINE
  5
F3
330
76
100
AcDbEntity
  8
1
  6
Continuous
 62
     2
100
AcDbLine
 10
60.20511806629405
 20
6.11636329288206
 30
0.0
 11
16.70511806629403
 21
6.11636329288206
 31
0.0
  0
LINE
  5
F4
330
76
100
AcDbEntity
  8
1
  6
Continuous
 62
     2
100
AcDbLine
 10
65.20511806629304
 20
6.11636329288206
 30
0.0
 11
60.20511806629405
 21
6.11636329288206
 31
0.0
  0
LINE
  5
F5
330
76
100
AcDbEntity
  8
1
  6
Continuous
 62
     2
100
AcDbLine
 10
65.20511806629304
 20
6.11636329288206
 30
0.0
 11
65.20511806629304
 21
11.11636329288217
 31
0.0
  0
LINE
  5
F6
330
76
100
AcDbEntity
  8
1
  6
Continuous
 62
     6
100
AcDbLine
 10
-69.33968646045597
 20
28.11636329288217
 30
0.0
 11
-32.93968646045605
 21
28.11636329288217
 31
0.0
  0
LINE
  5
F7
330
76
100
AcDbEntity
  8
1
  6
Continuous
 62
     2
100
AcDbLine
 10
60.20511806629405
 20
11.11636329288217
 30
0.0
 11
60.20511806629405
 21
6.11636329288206
 31
0.0
  0
LINE
  5
F8
330
76
100
AcDbEntity
  8
1
  6
Continuous
 62
     2
100
AcDbLine
 10
60.20511806629405
 20
11.11636329288217
 30
0.0
 11
65.20511806629304
 21
11.11636329288217
 31
0.0
  0
LINE
  5
F9
330
76
100
AcDbEntity
  8
1
  6
Continuous
 62
     6
100
AcDbLine
 10
-33.29488193370597
 20
11.11636329288217
 30
0.0
 11
-51.13968646045595
 21
11.11636329288217
 31
0.0
  0
LINE
  5
FA
330
76
100
AcDbEntity
  8
1
  6
Continuous
 62
     6
100
AcDbLine
 10
16.70511806629403
 20
11.11636329288217
 30
0.0
 11
60.20511806629405
 21
11.11636329288217
 31
0.0
  0
LINE
  5
FB
330
76
100
AcDbEntity
  8
1
  6
Continuous
 62
     6
100
AcDbLine
 10
-133.2948819337062
 20
11.11636329288217
 30
0.0
 11
-138.3396864604559
 21
11.11636329288217
 31
0.0
  0
LINE
  5
FC
330
76
100
AcDbEntity
  8
1
  6
Continuous
 62
     6
100
AcDbLine
 10
-83.29488193370594
 20
11.11636329288217
 30
0.0
 11
-69.33968646045597
 21
11.11636329288206
 31
0.0
  0
LINE
  5
FD
102
{ACAD_REACTORS
330
1E8
330
1E9
102
}
330
76
100
AcDbEntity
  8
0
  6
Continuous
 62
     2
100
AcDbLine
 10
-61.82506051830916
 20
23.18887804909429
 30
0.0
 11
-61.82506051830916
 21
23.79441333760107
 31
0.0
  0
LINE
  5
FE
102
{ACAD_REACTORS
330
1E8
330
1E9
102
}
330
76
100
AcDbEntity
  8
0
  6
Continuous
 62
     2
100
AcDbLine
 10
-61.82506051830916
 20
20.38874344246298
 30
0.0
 11
-61.82506051830916
 21
20.97059484915806
 31
0.0
  0
LINE
  5
FF
102
{ACAD_REACTORS
330
1EA
330
1EB
102
}
330
76
100
AcDbEntity
  8
0
  6
Continuous
 62
     2
100
AcDbLine
 10
-39.19557408282995
 20
20.67840751058597
 30
0.0
 11
-39.19557408282995
 21
18.40986329289848
 31
0.0
  0
LINE
  5
100
102
{ACAD_REACTORS
330
1EA
330
1EB
102
}
330
76
100
AcDbEntity
  8
0
  6
Continuous
 62
     2
100
AcDbLine
 10
-40.57662786181754
 20
21.46367281670908
 30
0.0
 11
-37.19168234318886
 21
21.46367281670956
 31
0.0
  0
LINE
  5
101
102
{ACAD_REACTORS
330
1EA
330
1EB
102
}
330
76
100
AcDbEntity
  8
0
  6
Continuous
 62
     2
100
AcDbLine
 10
-37.19168234318886
 20
20.67840751058597
 30
0.0
 11
-37.19168234318886
 21
21.46367281670956
 31
0.0
  0
LINE
  5
102
102
{ACAD_REACTORS
330
1EA
330
1EB
102
}
330
76
100
AcDbEntity
  8
0
  6
Continuous
 62
     2
100
AcDbLine
 10
-38.00278138066224
 20
20.67840751058597
 30
0.0
 11
-37.19168234318886
 21
20.67840751058597
 31
0.0
  0
LINE
  5
103
102
{ACAD_REACTORS
330
1EA
330
1EB
102
}
330
76
100
AcDbEntity
  8
0
  6
Continuous
 62
     2
100
AcDbLine
 10
-38.00278138066224
 20
18.40986329289848
 30
0.0
 11
-38.00278138066224
 21
20.67840751058597
 31
0.0
  0
LINE
  5
104
102
{ACAD_REACTORS
330
1EA
330
1EB
102
}
330
76
100
AcDbEntity
  8
0
  6
Continuous
 62
     2
100
AcDbLine
 10
-39.19557408282995
 20
18.40986329289848
 30
0.0
 11
-38.00278138066224
 21
18.40986329289848
 31
0.0
  0
LINE
  5
105
102
{ACAD_REACTORS
330
1E0
330
1E1
102
}
330
76
100
AcDbEntity
  8
0
  6
Continuous
 62
     2
100
AcDbLine
 10
-39.89216502089445
 20
24.82286329288397
 30
0.0
 11
-41.29488923864375
 21
24.82286329288397
 31
0.0
  0
LINE
  5
106
102
{ACAD_REACTORS
330
1E0
330
1E1
102
}
330
76
100
AcDbEntity
  8
0
  6
Continuous
 62
     2
100
AcDbLine
 10
-39.89216502089445
 20
24.82286329288397
 30
0.0
 11
-39.29099749900266
 21
24.14303997132848
 31
0.0
  0
LINE
  5
107
102
{ACAD_REACTORS
330
1E0
330
1E1
102
}
330
76
100
AcDbEntity
  8
0
  6
Continuous
 62
     2
100
AcDbLine
 10
-39.29099749900266
 20
24.14303997132848
 30
0.0
 11
-38.68982997710987
 21
24.82286329288397
 31
0.0
  0
LINE
  5
108
102
{ACAD_REACTORS
330
1E0
330
1E1
102
}
330
76
100
AcDbEntity
  8
0
  6
Continuous
 62
     2
100
AcDbLine
 10
-38.58963539012916
 20
23.34991276284777
 30
0.0
 11
-37.28710575936265
 21
24.82286329288397
 31
0.0
  0
LINE
  5
109
102
{ACAD_REACTORS
330
1E0
330
1E1
102
}
330
76
100
AcDbEntity
  8
0
  6
Continuous
 62
     2
100
AcDbLine
 10
-38.58963539012916
 20
23.34991276284777
 30
0.0
 11
-37.19168234318886
 21
21.76905376907277
 31
0.0
  0
LINE
  5
10A
102
{ACAD_REACTORS
330
1E0
330
1E1
102
}
330
76
100
AcDbEntity
  8
0
  6
Continuous
 62
     2
100
AcDbLine
 10
-38.59440656093716
 20
21.76905376907277
 30
0.0
 11
-37.19168234318886
 21
21.76905376907277
 31
0.0
  0
LINE
  5
10B
102
{ACAD_REACTORS
330
1E0
330
1E1
102
}
330
76
100
AcDbEntity
  8
0
  6
Continuous
 62
     2
100
AcDbLine
 10
-39.29099749900266
 20
22.55678555436649
 30
0.0
 11
-38.59440656093716
 21
21.76905376907277
 31
0.0
  0
LINE
  5
10C
102
{ACAD_REACTORS
330
1DE
330
1DF
102
}
330
76
100
AcDbEntity
  8
0
  6
Continuous
 62
     2
100
AcDbLine
 10
-42.75009633528634
 20
24.82286329288397
 30
0.0
 11
-41.50959192503345
 21
24.82286329288397
 31
0.0
  0
LINE
  5
10D
102
{ACAD_REACTORS
330
1DE
330
1DF
102
}
330
76
100
AcDbEntity
  8
0
  6
Continuous
 62
     2
100
AcDbLine
 10
-41.50959192503345
 20
24.82286329288397
 30
0.0
 11
-41.50959192503345
 21
21.76905376907277
 31
0.0
  0
LINE
  5
10E
102
{ACAD_REACTORS
330
1DE
330
1DF
102
}
330
76
100
AcDbEntity
  8
0
  6
Continuous
 62
     2
100
AcDbLine
 10
-42.75009633528634
 20
21.76905376907277
 30
0.0
 11
-42.75009633528634
 21
24.82286329288397
 31
0.0
  0
LINE
  5
10F
102
{ACAD_REACTORS
330
1DC
330
1DD
102
}
330
76
100
AcDbEntity
  8
0
  6
Continuous
 62
     2
100
AcDbLine
 10
-44.21840641782396
 20
19.63138710242296
 30
0.0
 11
-43.91824118063155
 21
20.39920206840966
 31
0.0
  0
LINE
  5
110
102
{ACAD_REACTORS
330
1DC
330
1DD
102
}
330
76
100
AcDbEntity
  8
0
  6
Continuous
 62
     2
100
AcDbLine
 10
-44.69594202244477
 20
18.40986329289848
 30
0.0
 11
-44.48446196896896
 21
18.95082383711636
 31
0.0
  0
LINE
  5
111
102
{ACAD_REACTORS
330
1DC
330
1DD
102
}
330
76
100
AcDbEntity
  8
0
  6
Continuous
 62
     2
100
AcDbLine
 10
-44.53849338575844
 20
21.46367281670956
 30
0.0
 11
-45.93644643269775
 21
18.40986329289848
 31
0.0
  0
LINE
  5
112
102
{ACAD_REACTORS
330
1DC
330
1DD
102
}
330
76
100
AcDbEntity
  8
0
  6
Continuous
 62
     2
100
AcDbLine
 10
-41.90003592856544
 20
18.40986329289848
 30
0.0
 11
-43.14054033881936
 21
18.40986329289848
 31
0.0
  0
LINE
  5
113
102
{ACAD_REACTORS
330
1DC
330
1DD
102
}
330
76
100
AcDbEntity
  8
0
  6
Continuous
 62
     2
100
AcDbLine
 10
-44.48446196896896
 20
18.95082383711636
 30
0.0
 11
-43.35202039229515
 21
18.95082383711636
 31
0.0
  0
LINE
  5
114
102
{ACAD_REACTORS
330
1DA
330
1DB
102
}
330
76
100
AcDbEntity
  8
0
  6
Continuous
 62
     2
100
AcDbLine
 10
-48.09395857187997
 20
20.67840751058597
 30
0.0
 11
-47.28285953440536
 21
20.67840751058597
 31
0.0
  0
LINE
  5
115
102
{ACAD_REACTORS
330
1DA
330
1DB
102
}
330
76
100
AcDbEntity
  8
0
  6
Continuous
 62
     2
100
AcDbLine
 10
-45.27896779476635
 20
21.46367281670956
 30
0.0
 11
-48.09395857187997
 21
21.46367281670956
 31
0.0
  0
LINE
  5
116
102
{ACAD_REACTORS
330
1DA
330
1DB
102
}
330
76
100
AcDbEntity
  8
0
  6
Continuous
 62
     2
100
AcDbLine
 10
-45.27896779476635
 20
20.67840751058597
 30
0.0
 11
-45.27896779476635
 21
21.46367281670956
 31
0.0
  0
LINE
  5
117
102
{ACAD_REACTORS
330
1DA
330
1DB
102
}
330
76
100
AcDbEntity
  8
0
  6
Continuous
 62
     2
100
AcDbLine
 10
-46.09006683223885
 20
20.67840751058597
 30
0.0
 11
-45.27896779476635
 21
20.67840751058597
 31
0.0
  0
LINE
  5
118
102
{ACAD_REACTORS
330
1DA
330
1DB
102
}
330
76
100
AcDbEntity
  8
0
  6
Continuous
 62
     2
100
AcDbLine
 10
-46.09006683223885
 20
18.40986329289848
 30
0.0
 11
-46.09006683223885
 21
20.67840751058597
 31
0.0
  0
LINE
  5
119
102
{ACAD_REACTORS
330
1D8
330
1D9
102
}
330
76
100
AcDbEntity
  8
0
  6
Continuous
 62
     2
100
AcDbLine
 10
-45.42195198814085
 20
21.76905376907277
 30
0.0
 11
-45.42195198814085
 21
23.07782927927747
 31
0.0
  0
LINE
  5
11A
102
{ACAD_REACTORS
330
1D8
330
1D9
102
}
330
76
100
AcDbEntity
  8
0
  6
Continuous
 62
     2
100
AcDbLine
 10
-46.61474469030736
 20
24.82286329288397
 30
0.0
 11
-46.61474469030736
 21
21.76905376907277
 31
0.0
  0
LINE
  5
11B
102
{ACAD_REACTORS
330
1D8
330
1D9
102
}
330
76
100
AcDbEntity
  8
0
  6
Continuous
 62
     2
100
AcDbLine
 10
-45.42195198814085
 20
24.82286329288397
 30
0.0
 11
-46.61474469030736
 21
24.82286329288397
 31
0.0
  0
LINE
  5
11C
102
{ACAD_REACTORS
330
1D8
330
1D9
102
}
330
76
100
AcDbEntity
  8
0
  6
Continuous
 62
     2
100
AcDbLine
 10
-44.18144757788684
 20
24.82286329288397
 30
0.0
 11
-44.18144757788684
 21
23.51408778267879
 31
0.0
  0
LINE
  5
11D
102
{ACAD_REACTORS
330
1D6
330
1D7
102
}
330
76
100
AcDbEntity
  8
0
  6
Continuous
 62
     2
100
AcDbLine
 10
-51.86318351072706
 20
21.46367281670956
 30
0.0
 11
-51.86318351072706
 21
18.40986329289848
 31
0.0
  0
LINE
  5
11E
102
{ACAD_REACTORS
330
1D6
330
1D7
102
}
330
76
100
AcDbEntity
  8
0
  6
Continuous
 62
     2
100
AcDbLine
 10
-50.67039080855946
 20
21.46367281670956
 30
0.0
 11
-51.86318351072706
 21
21.46367281670956
 31
0.0
  0
LINE
  5
11F
102
{ACAD_REACTORS
330
1D6
330
1D7
102
}
330
76
100
AcDbEntity
  8
0
  6
Continuous
 62
     2
100
AcDbLine
 10
-49.42988639830656
 20
18.40986329289848
 30
0.0
 11
-48.23709369614016
 21
18.40986329289848
 31
0.0
  0
LINE
  5
120
102
{ACAD_REACTORS
330
1D6
330
1D7
102
}
330
76
100
AcDbEntity
  8
0
  6
Continuous
 62
     2
100
AcDbLine
 10
-51.86318351072706
 20
18.40986329289848
 30
0.0
 11
-50.67039080855946
 21
18.40986329289848
 31
0.0
  0
LINE
  5
121
102
{ACAD_REACTORS
330
1E6
330
1E7
102
}
330
76
100
AcDbEntity
  8
0
  6
Continuous
 62
     2
100
AcDbLine
 10
-48.18923105716795
 20
23.64496533369928
 30
0.0
 11
-48.18923105716795
 21
24.12484968744099
 31
0.0
  0
LINE
  5
122
102
{ACAD_REACTORS
330
1E6
330
1E7
102
}
330
76
100
AcDbEntity
  8
0
  6
Continuous
 62
     2
100
AcDbLine
 10
-46.85330323074027
 20
23.64496533369928
 30
0.0
 11
-48.18923105716795
 21
23.64496533369928
 31
0.0
  0
LINE
  5
123
102
{ACAD_REACTORS
330
1E6
330
1E7
102
}
330
76
100
AcDbEntity
  8
0
  6
Continuous
 62
     2
100
AcDbLine
 10
-46.85330323074027
 20
22.94695172825698
 30
0.0
 11
-46.85330323074027
 21
23.64496533369928
 31
0.0
  0
LINE
  5
124
102
{ACAD_REACTORS
330
1E6
330
1E7
102
}
330
76
100
AcDbEntity
  8
0
  6
Continuous
 62
     2
100
AcDbLine
 10
-48.18923105716795
 20
22.94695172825698
 30
0.0
 11
-46.85330323074027
 21
22.94695172825698
 31
0.0
  0
LINE
  5
125
102
{ACAD_REACTORS
330
1D4
330
1D5
102
}
330
76
100
AcDbEntity
  8
0
  6
Continuous
 62
     2
100
AcDbLine
 10
-51.67218574749487
 20
24.82286329288397
 30
0.0
 11
-51.67218574749487
 21
21.76905376907277
 31
0.0
  0
LINE
  5
126
102
{ACAD_REACTORS
330
1D4
330
1D5
102
}
330
76
100
AcDbEntity
  8
0
  6
Continuous
 62
     2
100
AcDbLine
 10
-51.67218574749487
 20
21.76905376907277
 30
0.0
 11
-52.86497844966127
 21
21.76905376907277
 31
0.0
  0
LINE
  5
127
102
{ACAD_REACTORS
330
1D4
330
1D5
102
}
330
76
100
AcDbEntity
  8
0
  6
Continuous
 62
     2
100
AcDbLine
 10
-52.86497844966127
 20
21.76905376907277
 30
0.0
 11
-52.86497844966127
 21
22.90332587791659
 31
0.0
  0
LINE
  5
128
102
{ACAD_REACTORS
330
1D4
330
1D5
102
}
330
76
100
AcDbEntity
  8
0
  6
Continuous
 62
     2
100
AcDbLine
 10
-53.91463602756875
 20
21.76905376907277
 30
0.0
 11
-55.10742872973535
 21
21.76905376907277
 31
0.0
  0
LINE
  5
129
102
{ACAD_REACTORS
330
1D4
330
1D5
102
}
330
76
100
AcDbEntity
  8
0
  6
Continuous
 62
     2
100
AcDbLine
 10
-55.10742872973535
 20
24.82286329288397
 30
0.0
 11
-53.91463602756875
 21
24.82286329288397
 31
0.0
  0
LINE
  5
12A
102
{ACAD_REACTORS
330
1D4
330
1D5
102
}
330
76
100
AcDbEntity
  8
0
  6
Continuous
 62
     2
100
AcDbLine
 10
-53.91463602756875
 20
24.82286329288397
 30
0.0
 11
-53.91463602756875
 21
23.75402995954937
 31
0.0
  0
LINE
  5
12B
102
{ACAD_REACTORS
330
1D4
330
1D5
102
}
330
76
100
AcDbEntity
  8
0
  6
Continuous
 62
     2
100
AcDbLine
 10
-53.91463602756875
 20
23.75402995954937
 30
0.0
 11
-52.86497844966127
 21
23.75402995954937
 31
0.0
  0
LINE
  5
12C
102
{ACAD_REACTORS
330
1E2
330
1E3
102
}
330
76
100
AcDbEntity
  8
0
  6
Continuous
 62
     2
100
AcDbLine
 10
-57.06360876128895
 20
24.15975744744387
 30
0.0
 11
-56.74631369974705
 21
24.15975744744387
 31
0.0
  0
LINE
  5
12D
102
{ACAD_REACTORS
330
1E2
330
1E3
102
}
330
76
100
AcDbEntity
  8
0
  6
Continuous
 62
     2
100
AcDbLine
 10
-57.06360876128895
 20
23.45402979810166
 30
0.0
 11
-56.74631369974705
 21
23.45402979810166
 31
0.0
  0
LINE
  5
12E
102
{ACAD_REACTORS
330
1E2
330
1E3
102
}
330
76
100
AcDbEntity
  8
0
  6
Continuous
 62
     2
100
AcDbLine
 10
-58.30411317154307
 20
24.82286329288397
 30
0.0
 11
-58.30411317154307
 21
21.76905376907277
 31
0.0
  0
LINE
  5
12F
102
{ACAD_REACTORS
330
1E2
330
1E3
102
}
330
76
100
AcDbEntity
  8
0
  6
Continuous
 62
     2
100
AcDbLine
 10
-58.30411317154307
 20
24.82286329288397
 30
0.0
 11
-56.30484117350866
 21
24.82286329288397
 31
0.0
  0
LINE
  5
130
102
{ACAD_REACTORS
330
1E2
330
1E3
102
}
330
76
100
AcDbEntity
  8
0
  6
Continuous
 62
     2
100
AcDbLine
 10
-57.06360876128895
 20
22.71213201021658
 30
0.0
 11
-56.30484117350866
 21
22.71213201021658
 31
0.0
  0
LINE
  5
131
102
{ACAD_REACTORS
330
1E8
330
1E9
102
}
330
76
100
AcDbEntity
  8
0
  6
Continuous
 62
     2
100
AcDbLine
 10
-64.40060920483975
 20
23.79459081424918
 30
0.0
 11
-64.40060920483975
 21
19.43813577153208
 31
0.0
  0
LINE
  5
132
102
{ACAD_REACTORS
330
1E8
330
1E9
102
}
330
76
100
AcDbEntity
  8
0
  6
Continuous
 62
     2
100
AcDbLine
 10
-64.08489228176407
 20
24.11030773732537
 30
0.0
 11
-62.60905902075444
 21
24.11030773732537
 31
0.0
  0
LINE
  5
133
102
{ACAD_REACTORS
330
1E8
330
1E9
102
}
330
76
100
AcDbEntity
  8
0
  6
Continuous
 62
     2
100
AcDbLine
 10
-62.29334209767785
 20
23.19056619518867
 30
0.0
 11
-62.29334209767785
 21
23.79459081424918
 31
0.0
  0
LINE
  5
134
102
{ACAD_REACTORS
330
1E8
330
1E9
102
}
330
76
100
AcDbEntity
  8
0
  6
Continuous
 62
     2
100
AcDbLine
 10
-62.29334209767785
 20
19.43813577153208
 30
0.0
 11
-62.29334209767785
 21
20.96890670306368
 31
0.0
  0
LINE
  5
135
102
{ACAD_REACTORS
330
1E8
330
1E9
102
}
330
76
100
AcDbEntity
  8
0
  6
Continuous
 62
     2
100
AcDbLine
 10
-59.20547486779375
 20
18.40986329289848
 30
0.0
 11
-64.67878695851056
 21
18.40986329289848
 31
0.0
  0
LINE
  5
136
102
{ACAD_REACTORS
330
1E8
330
1E9
102
}
330
76
100
AcDbEntity
  8
0
  6
Continuous
 62
     2
100
AcDbLine
 10
-58.78123025240987
 20
24.39861867748198
 30
0.0
 11
-58.78123025240987
 21
18.83410790828177
 31
0.0
  0
LINE
  5
137
102
{ACAD_REACTORS
330
1E8
330
1E9
102
}
330
76
100
AcDbEntity
  8
0
  6
Continuous
 62
     2
100
AcDbLine
 10
-64.67878695851056
 20
24.82286329286578
 30
0.0
 11
-59.20547486779375
 21
24.82286329286578
 31
0.0
  0
LINE
  5
138
102
{ACAD_REACTORS
330
1E8
330
1E9
102
}
330
76
100
AcDbEntity
  8
0
  6
Continuous
 62
     2
100
AcDbLine
 10
-65.10303157389336
 20
24.39861867748198
 30
0.0
 11
-65.10303157389336
 21
18.83410790828177
 31
0.0
  0
LINE
  5
139
102
{ACAD_REACTORS
330
1E8
330
1E9
102
}
330
76
100
AcDbEntity
  8
0
  6
Continuous
 62
     2
100
AcDbLine
 10
-62.60905902075444
 20
19.12241884845537
 30
0.0
 11
-64.08489228176407
 21
19.12241884845537
 31
0.0
  0
LINE
  5
13A
102
{ACAD_REACTORS
330
1E2
330
1E3
102
}
330
76
100
AcDbEntity
  8
0
  6
Continuous
 62
     2
100
AcDbLine
 10
-57.06360876128895
 20
21.76905376907277
 30
0.0
 11
-57.06360876128895
 21
22.71213201021658
 31
0.0
  0
LINE
  5
13B
102
{ACAD_REACTORS
330
1E2
330
1E3
102
}
330
76
100
AcDbEntity
  8
0
  6
Continuous
 62
     2
100
AcDbLine
 10
-58.30411317154307
 20
21.76905376907277
 30
0.0
 11
-57.06360876128895
 21
21.76905376907277
 31
0.0
  0
LINE
  5
13C
102
{ACAD_REACTORS
330
1E2
330
1E3
102
}
330
76
100
AcDbEntity
  8
0
  6
Continuous
 62
     2
100
AcDbLine
 10
-57.06360876128895
 20
23.45402979810166
 30
0.0
 11
-57.06360876128895
 21
24.15975744744387
 31
0.0
  0
LINE
  5
13D
102
{ACAD_REACTORS
330
1D4
330
1D5
102
}
330
76
100
AcDbEntity
  8
0
  6
Continuous
 62
     2
100
AcDbLine
 10
-55.10742872973535
 20
24.82286329288397
 30
0.0
 11
-55.10742872973535
 21
21.76905376907277
 31
0.0
  0
LINE
  5
13E
102
{ACAD_REACTORS
330
1D4
330
1D5
102
}
330
76
100
AcDbEntity
  8
0
  6
Continuous
 62
     2
100
AcDbLine
 10
-53.91463602756875
 20
22.90332587791659
 30
0.0
 11
-53.91463602756875
 21
21.76905376907277
 31
0.0
  0
LINE
  5
13F
102
{ACAD_REACTORS
330
1D4
330
1D5
102
}
330
76
100
AcDbEntity
  8
0
  6
Continuous
 62
     2
100
AcDbLine
 10
-52.86497844966127
 20
22.90332587791659
 30
0.0
 11
-53.91463602756875
 21
22.90332587791659
 31
0.0
  0
LINE
  5
140
102
{ACAD_REACTORS
330
1D4
330
1D5
102
}
330
76
100
AcDbEntity
  8
0
  6
Continuous
 62
     2
100
AcDbLine
 10
-52.86497844966127
 20
24.82286329288397
 30
0.0
 11
-51.67218574749487
 21
24.82286329288397
 31
0.0
  0
LINE
  5
141
102
{ACAD_REACTORS
330
1D4
330
1D5
102
}
330
76
100
AcDbEntity
  8
0
  6
Continuous
 62
     2
100
AcDbLine
 10
-52.86497844966127
 20
23.75402995954937
 30
0.0
 11
-52.86497844966127
 21
24.82286329288397
 31
0.0
  0
LINE
  5
142
102
{ACAD_REACTORS
330
1E6
330
1E7
102
}
330
76
100
AcDbEntity
  8
0
  6
Continuous
 62
     2
100
AcDbLine
 10
-46.85330323074027
 20
24.12484968744099
 30
0.0
 11
-46.85330323074027
 21
24.82286329288397
 31
0.0
  0
LINE
  5
143
102
{ACAD_REACTORS
330
1E6
330
1E7
102
}
330
76
100
AcDbEntity
  8
0
  6
Continuous
 62
     2
100
AcDbLine
 10
-50.00362295452126
 20
24.82286329288397
 30
0.0
 11
-46.85330323074027
 21
24.82286329288397
 31
0.0
  0
LINE
  5
144
102
{ACAD_REACTORS
330
1E6
330
1E7
102
}
330
76
100
AcDbEntity
  8
0
  6
Continuous
 62
     2
100
AcDbLine
 10
-50.00362295452126
 20
21.76905376907277
 30
0.0
 11
-46.85330323074027
 21
21.76905376907277
 31
0.0
  0
LINE
  5
145
102
{ACAD_REACTORS
330
1E6
330
1E7
102
}
330
76
100
AcDbEntity
  8
0
  6
Continuous
 62
     2
100
AcDbLine
 10
-46.85330323074027
 20
21.76905376907277
 30
0.0
 11
-46.85330323074027
 21
22.46706737451527
 31
0.0
  0
LINE
  5
146
102
{ACAD_REACTORS
330
1E6
330
1E7
102
}
330
76
100
AcDbEntity
  8
0
  6
Continuous
 62
     2
100
AcDbLine
 10
-46.85330323074027
 20
22.46706737451527
 30
0.0
 11
-48.18923105716795
 21
22.46706737451527
 31
0.0
  0
LINE
  5
147
102
{ACAD_REACTORS
330
1E6
330
1E7
102
}
330
76
100
AcDbEntity
  8
0
  6
Continuous
 62
     2
100
AcDbLine
 10
-48.18923105716795
 20
22.46706737451527
 30
0.0
 11
-48.18923105716795
 21
22.94695172825698
 31
0.0
  0
LINE
  5
148
102
{ACAD_REACTORS
330
1E6
330
1E7
102
}
330
76
100
AcDbEntity
  8
0
  6
Continuous
 62
     2
100
AcDbLine
 10
-48.18923105716795
 20
24.12484968744099
 30
0.0
 11
-46.85330323074027
 21
24.12484968744099
 31
0.0
  0
LINE
  5
149
102
{ACAD_REACTORS
330
1D6
330
1D7
102
}
330
76
100
AcDbEntity
  8
0
  6
Continuous
 62
     2
100
AcDbLine
 10
-50.67039080855946
 20
18.40986329289848
 30
0.0
 11
-50.67039080855946
 21
19.71863880310306
 31
0.0
  0
LINE
  5
14A
102
{ACAD_REACTORS
330
1D6
330
1D7
102
}
330
76
100
AcDbEntity
  8
0
  6
Continuous
 62
     2
100
AcDbLine
 10
-50.67039080855946
 20
19.71863880310306
 30
0.0
 11
-49.42988639830656
 21
18.40986329289848
 31
0.0
  0
LINE
  5
14B
102
{ACAD_REACTORS
330
1D6
330
1D7
102
}
330
76
100
AcDbEntity
  8
0
  6
Continuous
 62
     2
100
AcDbLine
 10
-48.23709369614016
 20
18.40986329289848
 30
0.0
 11
-48.23709369614016
 21
21.46367281670956
 31
0.0
  0
LINE
  5
14C
102
{ACAD_REACTORS
330
1D6
330
1D7
102
}
330
76
100
AcDbEntity
  8
0
  6
Continuous
 62
     2
100
AcDbLine
 10
-48.23709369614016
 20
21.46367281670956
 30
0.0
 11
-49.42988639830656
 21
21.46367281670956
 31
0.0
  0
LINE
  5
14D
102
{ACAD_REACTORS
330
1D6
330
1D7
102
}
330
76
100
AcDbEntity
  8
0
  6
Continuous
 62
     2
100
AcDbLine
 10
-49.42988639830656
 20
21.46367281670956
 30
0.0
 11
-49.42988639830656
 21
20.15489730650447
 31
0.0
  0
LINE
  5
14E
102
{ACAD_REACTORS
330
1D6
330
1D7
102
}
330
76
100
AcDbEntity
  8
0
  6
Continuous
 62
     2
100
AcDbLine
 10
-49.42988639830656
 20
20.15489730650447
 30
0.0
 11
-50.67039080855946
 21
21.46367281670956
 31
0.0
  0
LINE
  5
14F
102
{ACAD_REACTORS
330
1D8
330
1D9
102
}
330
76
100
AcDbEntity
  8
0
  6
Continuous
 62
     2
100
AcDbLine
 10
-45.42195198814085
 20
23.07782927927747
 30
0.0
 11
-44.18144757788684
 21
21.76905376907277
 31
0.0
  0
LINE
  5
150
102
{ACAD_REACTORS
330
1D8
330
1D9
102
}
330
76
100
AcDbEntity
  8
0
  6
Continuous
 62
     2
100
AcDbLine
 10
-44.18144757788684
 20
21.76905376907277
 30
0.0
 11
-42.98865487572024
 21
21.76905376907277
 31
0.0
  0
LINE
  5
151
102
{ACAD_REACTORS
330
1D8
330
1D9
102
}
330
76
100
AcDbEntity
  8
0
  6
Continuous
 62
     2
100
AcDbLine
 10
-42.98865487572024
 20
21.76905376907277
 30
0.0
 11
-42.98865487572024
 21
24.82286329288397
 31
0.0
  0
LINE
  5
152
102
{ACAD_REACTORS
330
1D8
330
1D9
102
}
330
76
100
AcDbEntity
  8
0
  6
Continuous
 62
     2
100
AcDbLine
 10
-42.98865487572024
 20
24.82286329288397
 30
0.0
 11
-44.18144757788684
 21
24.82286329288397
 31
0.0
  0
LINE
  5
153
102
{ACAD_REACTORS
330
1D8
330
1D9
102
}
330
76
100
AcDbEntity
  8
0
  6
Continuous
 62
     2
100
AcDbLine
 10
-44.18144757788684
 20
23.51408778267879
 30
0.0
 11
-45.42195198814085
 21
24.82286329288397
 31
0.0
  0
LINE
  5
154
102
{ACAD_REACTORS
330
1D8
330
1D9
102
}
330
76
100
AcDbEntity
  8
0
  6
Continuous
 62
     2
100
AcDbLine
 10
-46.61474469030736
 20
21.76905376907277
 30
0.0
 11
-45.42195198814085
 21
21.76905376907277
 31
0.0
  0
LINE
  5
155
102
{ACAD_REACTORS
330
1DA
330
1DB
102
}
330
76
100
AcDbEntity
  8
0
  6
Continuous
 62
     2
100
AcDbLine
 10
-48.09395857187997
 20
21.46367281670956
 30
0.0
 11
-48.09395857187997
 21
20.67840751058597
 31
0.0
  0
LINE
  5
156
102
{ACAD_REACTORS
330
1DA
330
1DB
102
}
330
76
100
AcDbEntity
  8
0
  6
Continuous
 62
     2
100
AcDbLine
 10
-47.28285953440536
 20
20.67840751058597
 30
0.0
 11
-47.28285953440536
 21
18.40986329289848
 31
0.0
  0
LINE
  5
157
102
{ACAD_REACTORS
330
1DA
330
1DB
102
}
330
76
100
AcDbEntity
  8
0
  6
Continuous
 62
     2
100
AcDbLine
 10
-47.28285953440536
 20
18.40986329289848
 30
0.0
 11
-46.09006683223885
 21
18.40986329289848
 31
0.0
  0
LINE
  5
158
102
{ACAD_REACTORS
330
1DC
330
1DD
102
}
330
76
100
AcDbEntity
  8
0
  6
Continuous
 62
     2
100
AcDbLine
 10
-43.14054033881936
 20
18.40986329289848
 30
0.0
 11
-43.35202039229515
 21
18.95082383711636
 31
0.0
  0
LINE
  5
159
102
{ACAD_REACTORS
330
1DC
330
1DD
102
}
330
76
100
AcDbEntity
  8
0
  6
Continuous
 62
     2
100
AcDbLine
 10
-43.29798897550575
 20
21.46367281670956
 30
0.0
 11
-41.90003592856544
 21
18.40986329289848
 31
0.0
  0
LINE
  5
15A
102
{ACAD_REACTORS
330
1DC
330
1DD
102
}
330
76
100
AcDbEntity
  8
0
  6
Continuous
 62
     2
100
AcDbLine
 10
-44.53849338575844
 20
21.46367281670956
 30
0.0
 11
-43.29798897550575
 21
21.46367281670956
 31
0.0
  0
LINE
  5
15B
102
{ACAD_REACTORS
330
1DC
330
1DD
102
}
330
76
100
AcDbEntity
  8
0
  6
Continuous
 62
     2
100
AcDbLine
 10
-45.93644643269775
 20
18.40986329289848
 30
0.0
 11
-44.69594202244477
 21
18.40986329289848
 31
0.0
  0
LINE
  5
15C
102
{ACAD_REACTORS
330
1DC
330
1DD
102
}
330
76
100
AcDbEntity
  8
0
  6
Continuous
 62
     2
100
AcDbLine
 10
-44.21840641782396
 20
19.63138710242296
 30
0.0
 11
-43.61807594344145
 21
19.63138710242296
 31
0.0
  0
LINE
  5
15D
102
{ACAD_REACTORS
330
1DC
330
1DD
102
}
330
76
100
AcDbEntity
  8
0
  6
Continuous
 62
     2
100
AcDbLine
 10
-43.61807594344145
 20
19.63138710242296
 30
0.0
 11
-43.91824118063155
 21
20.39920206840966
 31
0.0
  0
LINE
  5
15E
102
{ACAD_REACTORS
330
1DE
330
1DF
102
}
330
76
100
AcDbEntity
  8
0
  6
Continuous
 62
     2
100
AcDbLine
 10
-41.50959192503345
 20
21.76905376907277
 30
0.0
 11
-42.75009633528634
 21
21.76905376907277
 31
0.0
  0
LINE
  5
15F
102
{ACAD_REACTORS
330
1E0
330
1E1
102
}
330
76
100
AcDbEntity
  8
0
  6
Continuous
 62
     2
100
AcDbLine
 10
-39.98758843706835
 20
21.76905376907277
 30
0.0
 11
-41.39031265481657
 21
21.76905376907277
 31
0.0
  0
LINE
  5
160
102
{ACAD_REACTORS
330
1E0
330
1E1
102
}
330
76
100
AcDbEntity
  8
0
  6
Continuous
 62
     2
100
AcDbLine
 10
-39.98758843706835
 20
21.76905376907277
 30
0.0
 11
-39.29099749900266
 21
22.55678555436649
 31
0.0
  0
LINE
  5
161
102
{ACAD_REACTORS
330
1E0
330
1E1
102
}
330
76
100
AcDbEntity
  8
0
  6
Continuous
 62
     2
100
AcDbLine
 10
-38.68982997710987
 20
24.82286329288397
 30
0.0
 11
-37.28710575936265
 21
24.82286329288397
 31
0.0
  0
LINE
  5
162
102
{ACAD_REACTORS
330
1E0
330
1E1
102
}
330
76
100
AcDbEntity
  8
0
  6
Continuous
 62
     2
100
AcDbLine
 10
-41.29488923864375
 20
24.82286329288397
 30
0.0
 11
-39.99235960787627
 21
23.34991276284777
 31
0.0
  0
LINE
  5
163
102
{ACAD_REACTORS
330
1E0
330
1E1
102
}
330
76
100
AcDbEntity
  8
0
  6
Continuous
 62
     2
100
AcDbLine
 10
-41.39031265481657
 20
21.76905376907277
 30
0.0
 11
-39.99235960787627
 21
23.34991276284777
 31
0.0
  0
LINE
  5
164
102
{ACAD_REACTORS
330
1EA
330
1EB
102
}
330
76
100
AcDbEntity
  8
0
  6
Continuous
 62
     2
100
AcDbLine
 10
-39.52955603943664
 20
19.45688370106208
 30
0.0
 11
-39.52955603943664
 21
18.58436669425876
 31
0.0
  0
LINE
  5
165
102
{ACAD_REACTORS
330
1EA
330
1EB
102
}
330
76
100
AcDbEntity
  8
0
  6
Continuous
 62
     2
100
AcDbLine
 10
-40.29921338239805
 20
20.67840751058597
 30
0.0
 11
-39.19557408282995
 21
20.67840751058597
 31
0.0
  0
LINE
  5
166
102
{ACAD_REACTORS
330
1EC
330
1ED
102
}
330
76
100
AcDbEntity
  8
0
  6
Continuous
 62
     2
100
AcDbLine
 10
-55.63225751868856
 20
19.45688370106257
 30
0.0
 11
-55.63225751868856
 21
18.58436669425936
 31
0.0
  0
LINE
  5
167
102
{ACAD_REACTORS
330
1EC
330
1ED
102
}
330
76
100
AcDbEntity
  8
0
  6
Continuous
 62
     2
100
AcDbLine
 10
-55.63225751868856
 20
20.41665240854547
 30
0.0
 11
-55.63225751868856
 21
21.28916941534877
 31
0.0
  0
LINE
  5
168
330
76
100
AcDbEntity
  8
1
  6
Continuous
 62
     7
100
AcDbLine
 10
60.20511806629534
 20
19.61636329288217
 30
0.0
 11
-32.93968646045605
 21
19.61636329288217
 31
0.0
  0
LINE
  5
169
330
76
100
AcDbEntity
  8
1
  6
Continuous
 62
     6
100
AcDbLine
 10
-138.3396864604559
 20
11.11636329288217
 30
0.0
 11
-183.2948819337059
 21
11.11636329288217
 31
0.0
  0
LINE
  5
16A
330
76
100
AcDbEntity
  8
1
  6
Continuous
 62
     7
100
AcDbLine
 10
51.28670978461653
 20
36.61636329288217
 30
0.0
 11
51.28670978461653
 21
28.11636329288217
 31
0.0
  0
LINE
  5
16B
330
76
100
AcDbEntity
  8
1
  6
Continuous
 62
     7
100
AcDbLine
 10
24.78670978461693
 20
36.61636329288217
 30
0.0
 11
24.78670978461693
 21
28.11636329288217
 31
0.0
  0
LINE
  5
16C
330
76
100
AcDbEntity
  8
1
  6
Continuous
 62
     7
100
AcDbLine
 10
-32.93968646045605
 20
28.11636329288217
 30
0.0
 11
-32.93968646045605
 21
36.61636329288217
 31
0.0
  0
LINE
  5
16D
330
76
100
AcDbEntity
  8
1
  6
Continuous
 62
     7
100
AcDbLine
 10
-69.33968646045597
 20
28.11636329288217
 30
0.0
 11
-69.33968646045597
 21
36.61636329288217
 31
0.0
  0
LINE
  5
16E
330
76
100
AcDbEntity
  8
1
  6
Continuous
 62
     6
100
AcDbLine
 10
-32.93968646045605
 20
28.11636329288217
 30
0.0
 11
60.20511806629574
 21
28.11636329288217
 31
0.0
  0
LINE
  5
16F
330
76
100
AcDbEntity
  8
1
  6
Continuous
 62
     7
100
AcDbLine
 10
-5.03968646045595
 20
19.61636329288209
 30
0.0
 11
-5.03968646045595
 21
28.11636329288217
 31
0.0
  0
LINE
  5
170
330
76
100
AcDbEntity
  8
1
  6
PHANTOM
 62
     2
100
AcDbLine
 10
-53.85303157389336
 20
32.24136329288209
 30
0.0
 11
-59.35303157389336
 21
32.24136329288209
 31
0.0
  0
LINE
  5
171
330
76
100
AcDbEntity
  8
1
  6
PHANTOM
 62
     2
100
AcDbLine
 10
-56.60303157389336
 20
34.99136329288209
 30
0.0
 11
-56.60303157389336
 21
29.49136329288209
 31
0.0
  0
LINE
  5
172
330
76
100
AcDbEntity
  8
1
  6
DOT_CENTER
 62
     2
100
AcDbLine
 10
-65.35303157389336
 20
32.24136329288209
 30
0.0
 11
-59.85303157389336
 21
32.24136329288209
 31
0.0
  0
ARC
  5
173
102
{ACAD_REACTORS
330
1EC
330
1ED
102
}
330
76
100
AcDbEntity
  8
0
  6
Continuous
 62
     2
100
AcDbCircle
 10
-56.96818543580636
 20
16.62408710954787
 30
0.0
 40
4.852596863498075
100
AcDbArc
 50
74.02000874164742
 51
84.84185523037506
  0
ARC
  5
174
102
{ACAD_REACTORS
330
1EC
330
1ED
102
}
330
76
100
AcDbEntity
  8
0
  6
Continuous
 62
     2
100
AcDbCircle
 10
-56.39214482705265
 20
19.77984746543217
 30
0.0
 40
0.9059297849853228
100
AcDbArc
 50
71.55192388185348
 51
113.372277888129
  0
ARC
  5
175
102
{ACAD_REACTORS
330
1EC
330
1ED
102
}
330
76
100
AcDbEntity
  8
0
  6
Continuous
 62
     2
100
AcDbCircle
 10
-56.54858485975467
 20
19.73169662546528
 30
0.0
 40
0.5115800601948034
100
AcDbArc
 50
208.5214732576956
 51
246.6277221118275
  0
ARC
  5
176
102
{ACAD_REACTORS
330
1EC
330
1ED
102
}
330
76
100
AcDbEntity
  8
0
  6
Continuous
 62
     2
100
AcDbCircle
 10
-56.39214482705265
 20
20.09368864417527
 30
0.0
 40
0.905929784984916
100
AcDbArc
 50
246.6277221118709
 51
288.4480761181586
  0
ARC
  5
177
102
{ACAD_REACTORS
330
1EC
330
1ED
102
}
330
76
100
AcDbEntity
  8
0
  6
Continuous
 62
     2
100
AcDbCircle
 10
-56.81031256071344
 20
21.34723442021246
 30
0.0
 40
2.227384008972737
100
AcDbArc
 50
288.4480761181328
 51
301.9309089499593
  0
ARC
  5
178
102
{ACAD_REACTORS
330
1E8
330
1E9
102
}
330
76
100
AcDbEntity
  8
0
  6
Continuous
 62
     2
100
AcDbCircle
 10
-62.03538629332024
 20
22.07973644912647
 30
0.0
 40
0.911848150144456
100
AcDbArc
 50
295.374008678176
 51
64.62599132180796
  0
ARC
  5
179
102
{ACAD_REACTORS
330
1E8
330
1E9
102
}
330
76
100
AcDbEntity
  8
0
  6
Continuous
 62
     2
100
AcDbCircle
 10
-61.50934359523237
 20
23.79441333760107
 30
0.0
 40
0.315716923076071
100
AcDbArc
 50
90.18896704254335
 51
180.0
  0
ARC
  5
17A
102
{ACAD_REACTORS
330
1EA
330
1EB
102
}
330
76
100
AcDbEntity
  8
0
  6
Continuous
 62
     2
100
AcDbCircle
 10
-40.29921338239805
 20
19.72388450375988
 30
0.0
 40
0.9545230068260899
100
AcDbArc
 50
90.0
 51
109.3371432194321
  0
ARC
  5
17B
102
{ACAD_REACTORS
330
1EA
330
1EB
102
}
330
76
100
AcDbEntity
  8
0
  6
Continuous
 62
     2
100
AcDbCircle
 10
-40.06852612242037
 20
19.93676805480376
 30
0.0
 40
0.9410597353348895
100
AcDbArc
 50
151.4785267423618
 51
208.5214732576697
  0
ARC
  5
17C
102
{ACAD_REACTORS
330
1EA
330
1EB
102
}
330
76
100
AcDbEntity
  8
0
  6
Continuous
 62
     2
100
AcDbCircle
 10
-40.28944334779865
 20
20.09368864417527
 30
0.0
 40
0.9059297849852768
100
AcDbArc
 50
246.6277221118181
 51
288.4480761180822
  0
ARC
  5
17D
102
{ACAD_REACTORS
330
1EA
330
1EB
102
}
330
76
100
AcDbEntity
  8
0
  6
Continuous
 62
     2
100
AcDbCircle
 10
-40.70761108146056
 20
21.34723442021186
 30
0.0
 40
2.22738400897275
100
AcDbArc
 50
288.4480761181338
 51
301.9309089499399
  0
ARC
  5
17E
102
{ACAD_REACTORS
330
1EA
330
1EB
102
}
330
76
100
AcDbEntity
  8
0
  6
Continuous
 62
     2
100
AcDbCircle
 10
-40.86548395655336
 20
23.24944900006017
 30
0.0
 40
4.852596863498825
100
AcDbArc
 50
275.1581447696364
 51
285.9799912583387
  0
ARC
  5
17F
102
{ACAD_REACTORS
330
1EA
330
1EB
102
}
330
76
100
AcDbEntity
  8
0
  6
Continuous
 62
     2
100
AcDbCircle
 10
-40.57662786181754
 20
20.04955841683858
 30
0.0
 40
1.639695123940455
100
AcDbArc
 50
195.0618917771012
 51
275.1581447696762
  0
ARC
  5
180
102
{ACAD_REACTORS
330
1E2
330
1E3
102
}
330
76
100
AcDbEntity
  8
0
  6
Continuous
 62
     2
100
AcDbCircle
 10
-56.30484117350866
 20
23.76749765155029
 30
0.0
 40
1.055365641333712
100
AcDbArc
 50
270.0
 51
90.0
  0
ARC
  5
181
102
{ACAD_REACTORS
330
1E8
330
1E9
102
}
330
76
100
AcDbEntity
  8
0
  6
Continuous
 62
     2
100
AcDbCircle
 10
-64.08489228176407
 20
19.43813577153208
 30
0.0
 40
0.3157169230756836
100
AcDbArc
 50
180.0
 51
270.0
  0
ARC
  5
182
102
{ACAD_REACTORS
330
1E8
330
1E9
102
}
330
76
100
AcDbEntity
  8
0
  6
Continuous
 62
     2
100
AcDbCircle
 10
-62.60905902075444
 20
23.79459081424918
 30
0.0
 40
0.3157169230765859
100
AcDbArc
 50
0.0
 51
90.0
  0
ARC
  5
183
102
{ACAD_REACTORS
330
1E8
330
1E9
102
}
330
76
100
AcDbEntity
  8
0
  6
Continuous
 62
     2
100
AcDbCircle
 10
-62.60905902075444
 20
23.19056619518867
 30
0.0
 40
0.3157169230761172
100
AcDbArc
 50
295.1944106485386
 51
0.0
  0
ARC
  5
184
102
{ACAD_REACTORS
330
1E8
330
1E9
102
}
330
76
100
AcDbEntity
  8
0
  6
Continuous
 62
     2
100
AcDbCircle
 10
-62.60905902075444
 20
19.43813577153208
 30
0.0
 40
0.3157169230767103
100
AcDbArc
 50
270.0
 51
0.0
  0
ARC
  5
185
102
{ACAD_REACTORS
330
1E8
330
1E9
102
}
330
76
100
AcDbEntity
  8
0
  6
Continuous
 62
     2
100
AcDbCircle
 10
-64.67878695851056
 20
24.39861867748198
 30
0.0
 40
0.4242446153837989
100
AcDbArc
 50
90.0
 51
180.0
  0
ARC
  5
186
102
{ACAD_REACTORS
330
1E8
330
1E9
102
}
330
76
100
AcDbEntity
  8
0
  6
Continuous
 62
     2
100
AcDbCircle
 10
-59.20547486779375
 20
24.39861867748198
 30
0.0
 40
0.424244615383877
100
AcDbArc
 50
0.0
 51
90.0
  0
ARC
  5
187
102
{ACAD_REACTORS
330
1E8
330
1E9
102
}
330
76
100
AcDbEntity
  8
0
  6
Continuous
 62
     2
100
AcDbCircle
 10
-59.20547486779375
 20
18.83410790828177
 30
0.0
 40
0.4242446153832908
100
AcDbArc
 50
270.0
 51
0.0
  0
ARC
  5
188
102
{ACAD_REACTORS
330
1E6
330
1E7
102
}
330
76
100
AcDbEntity
  8
0
  6
Continuous
 62
     2
100
AcDbCircle
 10
-49.98709098070225
 20
23.29595853097808
 30
0.0
 40
0.7717997786796351
100
AcDbArc
 50
321.879580202844
 51
38.12041979715956
  0
ARC
  5
189
102
{ACAD_REACTORS
330
1E6
330
1E7
102
}
330
76
100
AcDbEntity
  8
0
  6
Continuous
 62
     2
100
AcDbCircle
 10
-49.78735094435606
 20
23.13922735285766
 30
0.0
 40
0.5179085730134483
100
AcDbArc
 50
218.1204197971501
 51
321.8795802028562
  0
ARC
  5
18A
102
{ACAD_REACTORS
330
1E4
330
1E5
102
}
330
76
100
AcDbEntity
  8
0
  6
Continuous
 62
     2
100
AcDbCircle
 10
-53.46735853331626
 20
19.93676805480376
 30
0.0
 40
1.458034083651996
100
AcDbArc
 50
297.5481481757012
 51
62.45185182429896
  0
ARC
  5
18B
102
{ACAD_REACTORS
330
1E4
330
1E5
102
}
330
76
100
AcDbEntity
  8
0
  6
Continuous
 62
     2
100
AcDbCircle
 10
-54.02923831698286
 20
19.93676805480376
 30
0.0
 40
1.458034083651483
100
AcDbArc
 50
117.548148175662
 51
242.451851824338
  0
ARC
  5
18C
102
{ACAD_REACTORS
330
1E4
330
1E5
102
}
330
76
100
AcDbEntity
  8
0
  6
Continuous
 62
     2
100
AcDbCircle
 10
-53.74829842514956
 20
19.39819304450097
 30
0.0
 40
2.065479772208564
100
AcDbArc
 50
62.45185182430632
 51
117.5481481756663
  0
ARC
  5
18D
102
{ACAD_REACTORS
330
1E4
330
1E5
102
}
330
76
100
AcDbEntity
  8
0
  6
Continuous
 62
     2
100
AcDbCircle
 10
-53.74829842514956
 20
20.47534306510707
 30
0.0
 40
2.065479772208502
100
AcDbArc
 50
242.4518518243403
 51
297.5481481756871
  0
ARC
  5
18E
102
{ACAD_REACTORS
330
1E6
330
1E7
102
}
330
76
100
AcDbEntity
  8
0
  6
Continuous
 62
     2
100
AcDbCircle
 10
-49.58761090800977
 20
23.29595853097808
 30
0.0
 40
0.7717997786796724
100
AcDbArc
 50
141.8795802028404
 51
218.120419797156
  0
ARC
  5
18F
102
{ACAD_REACTORS
330
1E6
330
1E7
102
}
330
76
100
AcDbEntity
  8
0
  6
Continuous
 62
     2
100
AcDbCircle
 10
-49.78735094435606
 20
23.45268970909856
 30
0.0
 40
0.517908573013521
100
AcDbArc
 50
38.12041979714382
 51
141.8795802028499
  0
ARC
  5
190
102
{ACAD_REACTORS
330
1E8
330
1E9
102
}
330
76
100
AcDbEntity
  8
0
  6
Continuous
 62
     2
100
AcDbCircle
 10
-64.67878695851056
 20
18.83410790828177
 30
0.0
 40
0.4242446153828041
100
AcDbArc
 50
180.0
 51
270.0
  0
ARC
  5
191
102
{ACAD_REACTORS
330
1E8
330
1E9
102
}
330
76
100
AcDbEntity
  8
0
  6
Continuous
 62
     2
100
AcDbCircle
 10
-62.60905902075444
 20
20.96890670306368
 30
0.0
 40
0.3157169230765859
100
AcDbArc
 50
0.0
 51
64.80558935146145
  0
ARC
  5
192
102
{ACAD_REACTORS
330
1E8
330
1E9
102
}
330
76
100
AcDbEntity
  8
0
  6
Continuous
 62
     2
100
AcDbCircle
 10
-62.08647457317946
 20
22.07973644912647
 30
0.0
 40
0.9118975235576178
100
AcDbArc
 50
115.1944106485281
 51
244.8055893514878
  0
ARC
  5
193
102
{ACAD_REACTORS
330
1E8
330
1E9
102
}
330
76
100
AcDbEntity
  8
0
  6
Continuous
 62
     2
100
AcDbCircle
 10
-64.08489228176407
 20
23.79459081424918
 30
0.0
 40
0.3157169230761916
100
AcDbArc
 50
90.0
 51
180.0
  0
ARC
  5
194
102
{ACAD_REACTORS
330
1E2
330
1E3
102
}
330
76
100
AcDbEntity
  8
0
  6
Continuous
 62
     2
100
AcDbCircle
 10
-56.74631369974705
 20
23.80689362277278
 30
0.0
 40
0.3528638246711182
100
AcDbArc
 50
270.0
 51
90.0
  0
ARC
  5
195
102
{ACAD_REACTORS
330
1E6
330
1E7
102
}
330
76
100
AcDbEntity
  8
0
  6
Continuous
 62
     2
100
AcDbCircle
 10
-50.00362295452126
 20
23.29595853097808
 30
0.0
 40
1.52690476190589
100
AcDbArc
 50
90.0
 51
270.0
  0
ARC
  5
196
102
{ACAD_REACTORS
330
1EA
330
1EB
102
}
330
76
100
AcDbEntity
  8
0
  6
Continuous
 62
     2
100
AcDbCircle
 10
-40.57662786181754
 20
19.82397769276886
 30
0.0
 40
1.639695123940221
100
AcDbArc
 50
90.0
 51
164.9381082228948
  0
ARC
  5
197
102
{ACAD_REACTORS
330
1EA
330
1EB
102
}
330
76
100
AcDbEntity
  8
0
  6
Continuous
 62
     2
100
AcDbCircle
 10
-40.99575570527915
 20
19.93676805480376
 30
0.0
 40
1.205656168393011
100
AcDbArc
 50
164.9381082229025
 51
195.0618917770957
  0
ARC
  5
198
102
{ACAD_REACTORS
330
1EA
330
1EB
102
}
330
76
100
AcDbEntity
  8
0
  6
Continuous
 62
     2
100
AcDbCircle
 10
-40.44588338050176
 20
19.73169662546528
 30
0.0
 40
0.5115800601960188
100
AcDbArc
 50
208.5214732576877
 51
246.6277221118458
  0
ARC
  5
199
102
{ACAD_REACTORS
330
1EA
330
1EB
102
}
330
76
100
AcDbEntity
  8
0
  6
Continuous
 62
     2
100
AcDbCircle
 10
-40.44588338050176
 20
20.14183948414276
 30
0.0
 40
0.5115800601944153
100
AcDbArc
 50
109.3371432194844
 51
151.4785267424214
  0
ARC
  5
19A
102
{ACAD_REACTORS
330
1E8
330
1E9
102
}
330
76
100
AcDbEntity
  8
0
  6
Continuous
 62
     2
100
AcDbCircle
 10
-61.50934359523237
 20
20.38874344246298
 30
0.0
 40
0.3157169230767849
100
AcDbArc
 50
180.0
 51
269.8110329574567
  0
ARC
  5
19B
102
{ACAD_REACTORS
330
1E8
330
1E9
102
}
330
76
100
AcDbEntity
  8
0
  6
Continuous
 62
     2
100
AcDbCircle
 10
-61.50372745992235
 20
22.09157839003197
 30
0.0
 40
2.018561131933266
100
AcDbArc
 50
269.8110329575862
 51
90.18896704241376
  0
ARC
  5
19C
102
{ACAD_REACTORS
330
1E8
330
1E9
102
}
330
76
100
AcDbEntity
  8
0
  6
Continuous
 62
     2
100
AcDbCircle
 10
-61.50934359523237
 20
23.18887804909429
 30
0.0
 40
0.3157169230767849
100
AcDbArc
 50
180.0
 51
244.6259913216493
  0
ARC
  5
19D
102
{ACAD_REACTORS
330
1E8
330
1E9
102
}
330
76
100
AcDbEntity
  8
0
  6
Continuous
 62
     2
100
AcDbCircle
 10
-61.50934359523237
 20
20.97059484915806
 30
0.0
 40
0.3157169230765298
100
AcDbArc
 50
115.3740086783507
 51
180.0
  0
ARC
  5
19E
102
{ACAD_REACTORS
330
1EC
330
1ED
102
}
330
76
100
AcDbEntity
  8
0
  6
Continuous
 62
     2
100
AcDbCircle
 10
-56.67932934107046
 20
19.82397769276886
 30
0.0
 40
1.639695123940514
100
AcDbArc
 50
84.84185523036214
 51
164.9381082228861
  0
ARC
  5
19F
102
{ACAD_REACTORS
330
1EC
330
1ED
102
}
330
76
100
AcDbEntity
  8
0
  6
Continuous
 62
     2
100
AcDbCircle
 10
-57.09845718453326
 20
19.93676805480376
 30
0.0
 40
1.205656168390946
100
AcDbArc
 50
164.9381082228761
 51
195.0618917770945
  0
ARC
  5
1A0
102
{ACAD_REACTORS
330
1EC
330
1ED
102
}
330
76
100
AcDbEntity
  8
0
  6
Continuous
 62
     2
100
AcDbCircle
 10
-56.67932934107046
 20
20.04955841683858
 30
0.0
 40
1.63969512393938
100
AcDbArc
 50
195.0618917770895
 51
275.1581447696398
  0
ARC
  5
1A1
102
{ACAD_REACTORS
330
1EC
330
1ED
102
}
330
76
100
AcDbEntity
  8
0
  6
Continuous
 62
     2
100
AcDbCircle
 10
-56.96818543580636
 20
23.24944900006017
 30
0.0
 40
4.852596863498145
100
AcDbArc
 50
275.1581447696249
 51
285.9799912583529
  0
ARC
  5
1A2
102
{ACAD_REACTORS
330
1EC
330
1ED
102
}
330
76
100
AcDbEntity
  8
0
  6
Continuous
 62
     2
100
AcDbCircle
 10
-56.17122760167436
 20
19.93676805480376
 30
0.0
 40
0.9410597353332545
100
AcDbArc
 50
151.4785267422669
 51
208.5214732577054
  0
ARC
  5
1A3
102
{ACAD_REACTORS
330
1EC
330
1ED
102
}
330
76
100
AcDbEntity
  8
0
  6
Continuous
 62
     2
100
AcDbCircle
 10
-56.54858485975467
 20
20.14183948414276
 30
0.0
 40
0.5115800601948779
100
AcDbArc
 50
113.3722778881992
 51
151.4785267423044
  0
ARC
  5
1A4
102
{ACAD_REACTORS
330
1EC
330
1ED
102
}
330
76
100
AcDbEntity
  8
0
  6
Continuous
 62
     2
100
AcDbCircle
 10
-56.81031256071344
 20
18.52630168939558
 30
0.0
 40
2.227384008973474
100
AcDbArc
 50
58.06909105004068
 51
71.55192388186722
  0
ARC
  5
1A5
102
{ACAD_REACTORS
330
1E4
330
1E5
102
}
330
76
100
AcDbEntity
  8
0
  6
Continuous
 62
     2
100
AcDbCircle
 10
-53.74829842514956
 20
20.09349923292427
 30
0.0
 40
0.5179085730133043
100
AcDbArc
 50
38.12041979714765
 51
141.8795802028582
  0
ARC
  5
1A6
102
{ACAD_REACTORS
330
1E4
330
1E5
102
}
330
76
100
AcDbEntity
  8
0
  6
Continuous
 62
     2
100
AcDbCircle
 10
-53.54855838880346
 20
19.93676805480376
 30
0.0
 40
0.7717997786794676
100
AcDbArc
 50
141.8795802028359
 51
218.1204197971681
  0
ARC
  5
1A7
102
{ACAD_REACTORS
330
1E4
330
1E5
102
}
330
76
100
AcDbEntity
  8
0
  6
Continuous
 62
     2
100
AcDbCircle
 10
-53.74829842514956
 20
19.78003687668377
 30
0.0
 40
0.5179085730137332
100
AcDbArc
 50
218.1204197971929
 51
321.8795802028013
  0
ARC
  5
1A8
102
{ACAD_REACTORS
330
1E4
330
1E5
102
}
330
76
100
AcDbEntity
  8
0
  6
Continuous
 62
     2
100
AcDbCircle
 10
-53.94803846149597
 20
19.93676805480376
 30
0.0
 40
0.7717997786796882
100
AcDbArc
 50
321.8795802028424
 51
38.1204197971537
  0
CIRCLE
  5
1A9
330
76
100
AcDbEntity
  8
1
  6
Continuous
 62
     2
100
AcDbCircle
 10
-56.60303157389336
 20
32.24136329288209
 30
0.0
 40
2.5
  0
CIRCLE
  5
1AA
330
76
100
AcDbEntity
  8
1
  6
Continuous
 62
     2
100
AcDbCircle
 10
-56.60303157389336
 20
32.24136329288209
 30
0.0
 40
1.249999999999908
  0
CIRCLE
  5
1AB
102
{ACAD_REACTORS
330
1E8
330
1E9
102
}
330
76
100
AcDbEntity
  8
0
  6
Continuous
 62
     2
100
AcDbCircle
 10
-62.05920130799305
 20
22.07973644912647
 30
0.0
 40
0.4709789327785074
  0
MTEXT
  5
1AD
330
76
100
AcDbEntity
  8
1
 62
     3
100
AcDbMText
 10
-226.7898141476342
 20
197.907671448181
 30
0.0
 40
1.8
 41
0.0
 71
     7
 72
     1
  3
Weitergabe sowie Vervielfältigung dieses Dokuments, Verwertung und \PMitteilung seines Inhalts sind verboten, soweit nicht ausdrücklich gestattet. \PZuwiderhandlungen verpflichten zu Schadenersatz. Alle Rechte für den Fall\Pder Patent-, Gebrauchsmus
  1
ter- oder Designeintragung vorbehalten.
  7
CONVERTER_11
 73
     1
 44
0.99639855942377
  0
MTEXT
  5
1AE
330
76
100
AcDbEntity
  8
1
 62
     3
100
AcDbMText
 10
-43.93670430884606
 20
197.907671448181
 30
0.0
 40
1.8
 41
0.0
 71
     7
 72
     1
  3
Transfer or duplication of this document as well as the utilisation or\Pcommunication of its content are not permitted unless express consent\Pis granted. Violations give rise to claims for damages. All rights reserved\Pin case of patent, utility mo
  1
del or design patent registrations.
  7
CONVERTER_11
 73
     1
 44
0.99639855942377
  0
TEXT
  5
1AF
330
76
100
AcDbEntity
  8
1
 62
     2
100
AcDbText
 10
-50.13968646045615
 20
12.35734607789055
 30
0.0
 40
1.8
  1
of
 41
0.9
  7
CONVERTER_11
100
AcDbText
  0
TEXT
  5
1B0
330
76
100
AcDbEntity
  8
1
 62
     2
100
AcDbText
 10
-68.33968646045597
 20
12.3573460778905
 30
0.0
 40
1.8
  1
page
 41
0.9
  7
CONVERTER_11
100
AcDbText
  0
TEXT
  5
1B1
330
76
100
AcDbEntity
  8
1
 62
     2
100
AcDbText
 10
-59.69342149011396
 20
12.31711463908016
 30
0.0
 40
1.8
  1
1
 41
0.9
  7
CONVERTER_11
100
AcDbText
  0
TEXT
  5
1B2
330
76
100
AcDbEntity
  8
1
 62
     2
100
AcDbText
 10
-44.90437765064246
 20
12.36636329288206
 30
0.0
 40
1.8
  1
1
 41
0.9
  7
CONVERTER_11
100
AcDbText
  0
MTEXT
  5
1B4
330
76
100
AcDbEntity
  8
1
 62
     7
100
AcDbMText
 10
13.63271580291954
 20
14.3663632928824
 30
0.0
 40
3.0
 41
0.0
 71
     5
 72
     1
  1
GS-GSK/S
  7
CONVERTER_12
 73
     1
 44
1.20048019207683
  0
MTEXT
  5
1B5
330
76
100
AcDbEntity
  8
1
 62
     2
100
AcDbMText
 10
-31.93968646045605
 20
18.61636329288217
 30
0.0
 40
1.8
 41
0.0
 71
     1
 72
     1
  1
description
  7
CONVERTER_11
 73
     1
 44
1.20048019207683
  0
MTEXT
  5
1B6
330
76
100
AcDbEntity
  8
1
 62
     3
100
AcDbMText
 10
-43.13968646045606
 20
32.24136329288217
 30
0.0
 40
2.5
 41
0.0
 71
     5
 72
     1
  1
DIN A4
  7
CONVERTER_11
 73
     1
 44
1.20048019207683
  0
MTEXT
  5
1B7
330
76
100
AcDbEntity
  8
1
 62
     7
100
AcDbMText
 10
-229.294881933705
 20
33.61636329288217
 30
0.0
 40
3.5
 41
0.0
 71
     5
 72
     1
  1
D
  7
CONVERTER_11
 73
     1
 44
1.20048019207683
  0
MTEXT
  5
1B8
330
76
100
AcDbEntity
  8
1
 62
     7
100
AcDbMText
 10
-229.294881933705
 20
86.11636329288217
 30
0.0
 40
3.5
 41
0.0
 71
     5
 72
     1
  1
C
  7
CONVERTER_11
 73
     1
 44
1.20048019207683
  0
MTEXT
  5
1B9
330
76
100
AcDbEntity
  8
1
 62
     7
100
AcDbMText
 10
-229.294881933705
 20
136.1163632928822
 30
0.0
 40
3.5
 41
0.0
 71
     5
 72
     1
  1
B
  7
CONVERTER_11
 73
     1
 44
1.20048019207683
  0
MTEXT
  5
1BA
330
76
100
AcDbEntity
  8
1
 62
     7
100
AcDbMText
 10
-229.294881933705
 20
188.6163632928822
 30
0.0
 40
3.5
 41
0.0
 71
     5
 72
     1
  1
A
  7
CONVERTER_11
 73
     1
 44
1.20048019207683
  0
MTEXT
  5
1BB
330
76
100
AcDbEntity
  8
1
 62
     7
100
AcDbMText
 10
40.95511806629324
 20
8.61636329288206
 30
0.0
 40
3.5
 41
0.0
 71
     5
 72
     1
  1
6
  7
CONVERTER_11
 73
     1
 44
1.20048019207683
  0
MTEXT
  5
1BC
330
76
100
AcDbEntity
  8
1
 62
     7
100
AcDbMText
 10
-8.29488193370597
 20
8.61636329288206
 30
0.0
 40
3.5
 41
0.0
 71
     5
 72
     1
  1
5
  7
CONVERTER_11
 73
     1
 44
1.20048019207683
  0
MTEXT
  5
1BD
330
76
100
AcDbEntity
  8
1
 62
     7
100
AcDbMText
 10
-58.29488193370605
 20
8.61636329288206
 30
0.0
 40
3.5
 41
0.0
 71
     5
 72
     1
  1
4
  7
CONVERTER_11
 73
     1
 44
1.20048019207683
  0
MTEXT
  5
1BE
330
76
100
AcDbEntity
  8
1
 62
     7
100
AcDbMText
 10
-108.2948819337059
 20
8.61636329288206
 30
0.0
 40
3.5
 41
0.0
 71
     5
 72
     1
  1
3
  7
CONVERTER_11
 73
     1
 44
1.20048019207683
  0
MTEXT
  5
1BF
330
76
100
AcDbEntity
  8
1
 62
     7
100
AcDbMText
 10
-158.2948819337059
 20
8.61636329288206
 30
0.0
 40
3.5
 41
0.0
 71
     5
 72
     1
  1
2
  7
CONVERTER_11
 73
     1
 44
1.20048019207683
  0
MTEXT
  5
1C0
330
76
100
AcDbEntity
  8
1
 62
     7
100
AcDbMText
 10
-207.5448819337055
 20
8.61636329288206
 30
0.0
 40
3.5
 41
0.0
 71
     5
 72
     1
  1
1
  7
CONVERTER_11
 73
     1
 44
1.20048019207683
  0
MTEXT
  5
1C1
330
76
100
AcDbEntity
  8
1
 62
     7
100
AcDbMText
 10
62.70511806629304
 20
33.61636329288217
 30
0.0
 40
3.5
 41
0.0
 71
     5
 72
     1
  1
D
  7
CONVERTER_11
 73
     1
 44
1.20048019207683
  0
MTEXT
  5
1C2
330
76
100
AcDbEntity
  8
1
 62
     7
100
AcDbMText
 10
62.70511806629304
 20
136.1163632928841
 30
0.0
 40
3.5
 41
0.0
 71
     5
 72
     1
  1
B
  7
CONVERTER_11
 73
     1
 44
1.20048019207683
  0
MTEXT
  5
1C3
330
76
100
AcDbEntity
  8
1
 62
     7
100
AcDbMText
 10
62.70511806629304
 20
188.6163632928822
 30
0.0
 40
3.5
 41
0.0
 71
     5
 72
     1
  1
A
  7
CONVERTER_11
 73
     1
 44
1.20048019207683
  0
MTEXT
  5
1C4
330
76
100
AcDbEntity
  8
1
 62
     7
100
AcDbMText
 10
62.70511806629304
 20
86.11636329288407
 30
0.0
 40
3.5
 41
0.0
 71
     5
 72
     1
  1
C
  7
CONVERTER_11
 73
     1
 44
1.20048019207683
  0
MTEXT
  5
1C5
330
76
100
AcDbEntity
  8
1
 62
     2
100
AcDbMText
 10
-103.7777011855035
 20
23.86636329288209
 30
0.0
 40
2.0
 41
0.0
 71
     5
 72
     1
  1
General Information\P- Simplified representation\P- Document excluded from change process\P- Linear dimensions [mm]
  7
CONVERTER_11
 73
     1
 44
1.20048019207683
  0
TEXT
  5
1C6
330
76
100
AcDbEntity
  8
1
 62
     7
100
AcDbText
 10
-31.43968646045624
 20
20.91636329288207
 30
0.0
 40
2.5
  1
0305116
 41
0.81
  7
CONVERTER_12
100
AcDbText
  0
MTEXT
  5
1C7
330
76
100
AcDbEntity
  8
1
 62
     2
100
AcDbMText
 10
-31.83968646045597
 20
27.11636329288217
 30
0.0
 40
1.8
 41
0.0
 71
     1
 72
     1
  1
ident.-No.
  7
CONVERTER_11
 73
     1
 44
1.20048019207683
  0
MTEXT
  5
1C8
330
76
100
AcDbEntity
  8
1
 62
     2
100
AcDbMText
 10
52.38670978461676
 20
35.61636329288217
 30
0.0
 40
1.8
 41
0.0
 71
     1
 72
     1
  1
scale
  7
CONVERTER_11
 73
     1
 44
1.20048019207683
  0
MTEXT
  5
1CA
330
76
100
AcDbEntity
  8
1
 62
     3
100
AcDbMText
 10
55.74591392545635
 20
29.41636329288227
 30
0.0
 40
2.5
 41
0.0
 71
     8
 72
     1
  1
2:1
  7
CONVERTER_13
 73
     1
 44
1.32052821128451
  0
TEXT
  5
1CB
330
76
100
AcDbEntity
  8
1
 62
     7
100
AcDbText
 10
-31.83968646045597
 20
29.41636329288207
 30
0.0
 40
2.5
  1
00352098
 41
0.81
  7
CONVERTER_12
100
AcDbText
  0
MTEXT
  5
1CD
330
76
100
AcDbEntity
  8
1
 62
     2
100
AcDbMText
 10
-31.83968646045597
 20
35.61636329288217
 30
0.0
 40
1.8
 41
0.0
 71
     1
 72
     1
  1
document-No. / RI
  7
CONVERTER_14
 73
     1
 44
1.32052821128451
  0
TEXT
  5
1CE
330
76
100
AcDbEntity
  8
1
 62
     3
100
AcDbText
 10
-4.03968646045595
 20
20.91636329288207
 30
0.0
 40
2.5
  1
 
 41
0.81
  7
CONVERTER_12
100
AcDbText
  0
MTEXT
  5
1CF
330
76
100
AcDbEntity
  8
1
 62
     2
100
AcDbMText
 10
-4.03968646045595
 20
27.11636329288209
 30
0.0
 40
1.8
 41
0.0
 71
     1
 72
     1
  1
document-type
  7
CONVERTER_11
 73
     1
 44
1.20048019207683
  0
MTEXT
  5
1D0
330
76
100
AcDbEntity
  8
1
 62
     2
100
AcDbMText
 10
25.78670978461693
 20
35.61636329288209
 30
0.0
 40
1.8
 41
0.0
 71
     1
 72
     1
  1
date
  7
CONVERTER_11
 73
     1
 44
1.32052821128451
  0
TEXT
  5
1D1
330
76
100
AcDbEntity
  8
1
 62
     3
100
AcDbText
 10
25.78670978461693
 20
29.41636329288207
 30
0.0
 40
2.5
  1
13.01.2018
 41
0.81
  7
CONVERTER_12
100
AcDbText
  0
TEXT
  5
1D2
330
76
100
AcDbEntity
  8
1
 62
     7
100
AcDbText
 10
-11.80977424140016
 20
29.41636329288207
 30
0.0
 40
2.5
  1
02
 41
0.81
  7
CONVERTER_12
100
AcDbText
  0
TEXT
  5
1D3
330
76
100
AcDbEntity
  8
1
 62
     7
100
AcDbText
 10
-13.96613873844217
 20
29.41636329288207
 30
0.0
 40
2.5
  1
/
 41
0.9
  7
CONVERTER_11
100
AcDbText
  0
HATCH
  5
1D4
330
76
100
AcDbEntity
  8
1
  6
Continuous
 62
     2
100
AcDbHatch
 10
0.0
 20
0.0
 30
0.0
210
0.0
220
0.0
230
1.0
  2
_USER
 70
     0
 71
     1
 91
        1
 92
        1
 93
       12
 72
     1
 10
-51.67218574749487
 20
21.76905376907277
 11
-52.86497844966127
 21
21.76905376907277
 72
     1
 10
-52.86497844966127
 20
21.76905376907277
 11
-52.86497844966127
 21
22.90332587791659
 72
     1
 10
-52.86497844966127
 20
22.90332587791659
 11
-53.91463602756875
 21
22.90332587791659
 72
     1
 10
-53.91463602756875
 20
22.90332587791659
 11
-53.91463602756875
 21
21.76905376907277
 72
     1
 10
-53.91463602756875
 20
21.76905376907277
 11
-55.10742872973535
 21
21.76905376907277
 72
     1
 10
-55.10742872973535
 20
21.76905376907277
 11
-55.10742872973535
 21
24.82286329288397
 72
     1
 10
-55.10742872973535
 20
24.82286329288397
 11
-53.91463602756875
 21
24.82286329288397
 72
     1
 10
-53.91463602756875
 20
24.82286329288397
 11
-53.91463602756875
 21
23.75402995954937
 72
     1
 10
-53.91463602756875
 20
23.75402995954937
 11
-52.86497844966127
 21
23.75402995954937
 72
     1
 10
-52.86497844966127
 20
23.75402995954937
 11
-52.86497844966127
 21
24.82286329288397
 72
     1
 10
-52.86497844966127
 20
24.82286329288397
 11
-51.67218574749487
 21
24.82286329288397
 72
     1
 10
-51.67218574749487
 20
24.82286329288397
 11
-51.67218574749487
 21
21.76905376907277
 97
       12
330
140
330
141
330
12B
330
12A
330
129
330
13D
330
128
330
13E
330
13F
330
127
330
126
330
125
 75
     1
 76
     0
 52
45.0
 41
0.1
 77
     0
 78
     1
 53
45.0
 43
0.0
 44
0.0
 45
-0.0707106781186548
 46
0.0707106781186548
 79
     0
 98
        1
 10
0.0
 20
0.0
  0
HATCH
  5
1D5
330
76
100
AcDbEntity
  8
1
  6
Continuous
 62
     2
100
AcDbHatch
 10
0.0
 20
0.0
 30
0.0
210
0.0
220
0.0
230
1.0
  2
_USER
 70
     0
 71
     1
 91
        1
 92
        1
 93
       12
 72
     1
 10
-51.67218574749487
 20
21.76905376907277
 11
-52.86497844966127
 21
21.76905376907277
 72
     1
 10
-52.86497844966127
 20
21.76905376907277
 11
-52.86497844966127
 21
22.90332587791659
 72
     1
 10
-52.86497844966127
 20
22.90332587791659
 11
-53.91463602756875
 21
22.90332587791659
 72
     1
 10
-53.91463602756875
 20
22.90332587791659
 11
-53.91463602756875
 21
21.76905376907277
 72
     1
 10
-53.91463602756875
 20
21.76905376907277
 11
-55.10742872973535
 21
21.76905376907277
 72
     1
 10
-55.10742872973535
 20
21.76905376907277
 11
-55.10742872973535
 21
24.82286329288397
 72
     1
 10
-55.10742872973535
 20
24.82286329288397
 11
-53.91463602756875
 21
24.82286329288397
 72
     1
 10
-53.91463602756875
 20
24.82286329288397
 11
-53.91463602756875
 21
23.75402995954937
 72
     1
 10
-53.91463602756875
 20
23.75402995954937
 11
-52.86497844966127
 21
23.75402995954937
 72
     1
 10
-52.86497844966127
 20
23.75402995954937
 11
-52.86497844966127
 21
24.82286329288397
 72
     1
 10
-52.86497844966127
 20
24.82286329288397
 11
-51.67218574749487
 21
24.82286329288397
 72
     1
 10
-51.67218574749487
 20
24.82286329288397
 11
-51.67218574749487
 21
21.76905376907277
 97
       12
330
140
330
141
330
12B
330
12A
330
129
330
13D
330
128
330
13E
330
13F
330
127
330
126
330
125
 75
     1
 76
     0
 52
45.0
 41
0.1
 77
     0
 78
     1
 53
45.0
 43
0.0
 44
0.0
 45
-0.0707106781186548
 46
0.0707106781186548
 79
     0
 98
        1
 10
0.0
 20
0.0
  0
HATCH
  5
1D6
330
76
100
AcDbEntity
  8
1
  6
Continuous
 62
     2
100
AcDbHatch
 10
0.0
 20
0.0
 30
0.0
210
0.0
220
0.0
230
1.0
  2
_USER
 70
     0
 71
     1
 91
        1
 92
        1
 93
       10
 72
     1
 10
-49.42988639830656
 20
20.15489730650447
 11
-50.67039080855946
 21
21.46367281670956
 72
     1
 10
-50.67039080855946
 20
21.46367281670956
 11
-51.86318351072706
 21
21.46367281670956
 72
     1
 10
-51.86318351072706
 20
21.46367281670956
 11
-51.86318351072706
 21
18.40986329289848
 72
     1
 10
-51.86318351072706
 20
18.40986329289848
 11
-50.67039080855946
 21
18.40986329289848
 72
     1
 10
-50.67039080855946
 20
18.40986329289848
 11
-50.67039080855946
 21
19.71863880310306
 72
     1
 10
-50.67039080855946
 20
19.71863880310306
 11
-49.42988639830656
 21
18.40986329289848
 72
     1
 10
-49.42988639830656
 20
18.40986329289848
 11
-48.23709369614016
 21
18.40986329289848
 72
     1
 10
-48.23709369614016
 20
18.40986329289848
 11
-48.23709369614016
 21
21.46367281670956
 72
     1
 10
-48.23709369614016
 20
21.46367281670956
 11
-49.42988639830656
 21
21.46367281670956
 72
     1
 10
-49.42988639830656
 20
21.46367281670956
 11
-49.42988639830656
 21
20.15489730650447
 97
       10
330
14E
330
11E
330
11D
330
120
330
149
330
14A
330
11F
330
14B
330
14C
330
14D
 75
     1
 76
     0
 52
45.0
 41
0.1
 77
     0
 78
     1
 53
45.0
 43
0.0
 44
0.0
 45
-0.0707106781186548
 46
0.0707106781186548
 79
     0
 98
        1
 10
0.0
 20
0.0
  0
HATCH
  5
1D7
330
76
100
AcDbEntity
  8
1
  6
Continuous
 62
     2
100
AcDbHatch
 10
0.0
 20
0.0
 30
0.0
210
0.0
220
0.0
230
1.0
  2
_USER
 70
     0
 71
     1
 91
        1
 92
        1
 93
       10
 72
     1
 10
-49.42988639830656
 20
20.15489730650447
 11
-50.67039080855946
 21
21.46367281670956
 72
     1
 10
-50.67039080855946
 20
21.46367281670956
 11
-51.86318351072706
 21
21.46367281670956
 72
     1
 10
-51.86318351072706
 20
21.46367281670956
 11
-51.86318351072706
 21
18.40986329289848
 72
     1
 10
-51.86318351072706
 20
18.40986329289848
 11
-50.67039080855946
 21
18.40986329289848
 72
     1
 10
-50.67039080855946
 20
18.40986329289848
 11
-50.67039080855946
 21
19.71863880310306
 72
     1
 10
-50.67039080855946
 20
19.71863880310306
 11
-49.42988639830656
 21
18.40986329289848
 72
     1
 10
-49.42988639830656
 20
18.40986329289848
 11
-48.23709369614016
 21
18.40986329289848
 72
     1
 10
-48.23709369614016
 20
18.40986329289848
 11
-48.23709369614016
 21
21.46367281670956
 72
     1
 10
-48.23709369614016
 20
21.46367281670956
 11
-49.42988639830656
 21
21.46367281670956
 72
     1
 10
-49.42988639830656
 20
21.46367281670956
 11
-49.42988639830656
 21
20.15489730650447
 97
       10
330
14E
330
11E
330
11D
330
120
330
149
330
14A
330
11F
330
14B
330
14C
330
14D
 75
     1
 76
     0
 52
45.0
 41
0.1
 77
     0
 78
     1
 53
45.0
 43
0.0
 44
0.0
 45
-0.0707106781186548
 46
0.0707106781186548
 79
     0
 98
        1
 10
0.0
 20
0.0
  0
HATCH
  5
1D8
330
76
100
AcDbEntity
  8
1
  6
Continuous
 62
     2
100
AcDbHatch
 10
0.0
 20
0.0
 30
0.0
210
0.0
220
0.0
230
1.0
  2
_USER
 70
     0
 71
     1
 91
        1
 92
        1
 93
       10
 72
     1
 10
-44.18144757788684
 20
23.51408778267879
 11
-45.42195198814085
 21
24.82286329288397
 72
     1
 10
-45.42195198814085
 20
24.82286329288397
 11
-46.61474469030736
 21
24.82286329288397
 72
     1
 10
-46.61474469030736
 20
24.82286329288397
 11
-46.61474469030736
 21
21.76905376907277
 72
     1
 10
-46.61474469030736
 20
21.76905376907277
 11
-45.42195198814085
 21
21.76905376907277
 72
     1
 10
-45.42195198814085
 20
21.76905376907277
 11
-45.42195198814085
 21
23.07782927927747
 72
     1
 10
-45.42195198814085
 20
23.07782927927747
 11
-44.18144757788684
 21
21.76905376907277
 72
     1
 10
-44.18144757788684
 20
21.76905376907277
 11
-42.98865487572024
 21
21.76905376907277
 72
     1
 10
-42.98865487572024
 20
21.76905376907277
 11
-42.98865487572024
 21
24.82286329288397
 72
     1
 10
-42.98865487572024
 20
24.82286329288397
 11
-44.18144757788684
 21
24.82286329288397
 72
     1
 10
-44.18144757788684
 20
24.82286329288397
 11
-44.18144757788684
 21
23.51408778267879
 97
       10
330
153
330
11B
330
11A
330
154
330
119
330
14F
330
150
330
151
330
152
330
11C
 75
     1
 76
     0
 52
45.0
 41
0.1
 77
     0
 78
     1
 53
45.0
 43
0.0
 44
0.0
 45
-0.0707106781186548
 46
0.0707106781186548
 79
     0
 98
        1
 10
0.0
 20
0.0
  0
HATCH
  5
1D9
330
76
100
AcDbEntity
  8
1
  6
Continuous
 62
     2
100
AcDbHatch
 10
0.0
 20
0.0
 30
0.0
210
0.0
220
0.0
230
1.0
  2
_USER
 70
     0
 71
     1
 91
        1
 92
        1
 93
       10
 72
     1
 10
-44.18144757788684
 20
23.51408778267879
 11
-45.42195198814085
 21
24.82286329288397
 72
     1
 10
-45.42195198814085
 20
24.82286329288397
 11
-46.61474469030736
 21
24.82286329288397
 72
     1
 10
-46.61474469030736
 20
24.82286329288397
 11
-46.61474469030736
 21
21.76905376907277
 72
     1
 10
-46.61474469030736
 20
21.76905376907277
 11
-45.42195198814085
 21
21.76905376907277
 72
     1
 10
-45.42195198814085
 20
21.76905376907277
 11
-45.42195198814085
 21
23.07782927927747
 72
     1
 10
-45.42195198814085
 20
23.07782927927747
 11
-44.18144757788684
 21
21.76905376907277
 72
     1
 10
-44.18144757788684
 20
21.76905376907277
 11
-42.98865487572024
 21
21.76905376907277
 72
     1
 10
-42.98865487572024
 20
21.76905376907277
 11
-42.98865487572024
 21
24.82286329288397
 72
     1
 10
-42.98865487572024
 20
24.82286329288397
 11
-44.18144757788684
 21
24.82286329288397
 72
     1
 10
-44.18144757788684
 20
24.82286329288397
 11
-44.18144757788684
 21
23.51408778267879
 97
       10
330
153
330
11B
330
11A
330
154
330
119
330
14F
330
150
330
151
330
152
330
11C
 75
     1
 76
     0
 52
45.0
 41
0.1
 77
     0
 78
     1
 53
45.0
 43
0.0
 44
0.0
 45
-0.0707106781186548
 46
0.0707106781186548
 79
     0
 98
        1
 10
0.0
 20
0.0
  0
HATCH
  5
1DA
330
76
100
AcDbEntity
  8
1
  6
Continuous
 62
     2
100
AcDbHatch
 10
0.0
 20
0.0
 30
0.0
210
0.0
220
0.0
230
1.0
  2
_USER
 70
     0
 71
     1
 91
        1
 92
        1
 93
        8
 72
     1
 10
-45.27896779476635
 20
21.46367281670956
 11
-48.09395857187997
 21
21.46367281670956
 72
     1
 10
-48.09395857187997
 20
21.46367281670956
 11
-48.09395857187997
 21
20.67840751058597
 72
     1
 10
-48.09395857187997
 20
20.67840751058597
 11
-47.28285953440536
 21
20.67840751058597
 72
     1
 10
-47.28285953440536
 20
20.67840751058597
 11
-47.28285953440536
 21
18.40986329289848
 72
     1
 10
-47.28285953440536
 20
18.40986329289848
 11
-46.09006683223885
 21
18.40986329289848
 72
     1
 10
-46.09006683223885
 20
18.40986329289848
 11
-46.09006683223885
 21
20.67840751058597
 72
     1
 10
-46.09006683223885
 20
20.67840751058597
 11
-45.27896779476635
 21
20.67840751058597
 72
     1
 10
-45.27896779476635
 20
20.67840751058597
 11
-45.27896779476635
 21
21.46367281670956
 97
        8
330
115
330
155
330
114
330
156
330
157
330
118
330
117
330
116
 75
     1
 76
     0
 52
45.0
 41
0.1
 77
     0
 78
     1
 53
45.0
 43
0.0
 44
0.0
 45
-0.0707106781186548
 46
0.0707106781186548
 79
     0
 98
        1
 10
0.0
 20
0.0
  0
HATCH
  5
1DB
330
76
100
AcDbEntity
  8
1
  6
Continuous
 62
     2
100
AcDbHatch
 10
0.0
 20
0.0
 30
0.0
210
0.0
220
0.0
230
1.0
  2
_USER
 70
     0
 71
     1
 91
        1
 92
        1
 93
        8
 72
     1
 10
-45.27896779476635
 20
21.46367281670956
 11
-48.09395857187997
 21
21.46367281670956
 72
     1
 10
-48.09395857187997
 20
21.46367281670956
 11
-48.09395857187997
 21
20.67840751058597
 72
     1
 10
-48.09395857187997
 20
20.67840751058597
 11
-47.28285953440536
 21
20.67840751058597
 72
     1
 10
-47.28285953440536
 20
20.67840751058597
 11
-47.28285953440536
 21
18.40986329289848
 72
     1
 10
-47.28285953440536
 20
18.40986329289848
 11
-46.09006683223885
 21
18.40986329289848
 72
     1
 10
-46.09006683223885
 20
18.40986329289848
 11
-46.09006683223885
 21
20.67840751058597
 72
     1
 10
-46.09006683223885
 20
20.67840751058597
 11
-45.27896779476635
 21
20.67840751058597
 72
     1
 10
-45.27896779476635
 20
20.67840751058597
 11
-45.27896779476635
 21
21.46367281670956
 97
        8
330
115
330
155
330
114
330
156
330
157
330
118
330
117
330
116
 75
     1
 76
     0
 52
45.0
 41
0.1
 77
     0
 78
     1
 53
45.0
 43
0.0
 44
0.0
 45
-0.0707106781186548
 46
0.0707106781186548
 79
     0
 98
        1
 10
0.0
 20
0.0
  0
HATCH
  5
1DC
330
76
100
AcDbEntity
  8
1
  6
Continuous
 62
     2
100
AcDbHatch
 10
0.0
 20
0.0
 30
0.0
210
0.0
220
0.0
230
1.0
  2
_USER
 70
     0
 71
     1
 91
        2
 92
        1
 93
        8
 72
     1
 10
-43.14054033881936
 20
18.40986329289848
 11
-43.35202039229515
 21
18.95082383711636
 72
     1
 10
-43.35202039229515
 20
18.95082383711636
 11
-44.48446196896896
 21
18.95082383711636
 72
     1
 10
-44.48446196896896
 20
18.95082383711636
 11
-44.69594202244477
 21
18.40986329289848
 72
     1
 10
-44.69594202244477
 20
18.40986329289848
 11
-45.93644643269775
 21
18.40986329289848
 72
     1
 10
-45.93644643269775
 20
18.40986329289848
 11
-44.53849338575844
 21
21.46367281670956
 72
     1
 10
-44.53849338575844
 20
21.46367281670956
 11
-43.29798897550575
 21
21.46367281670956
 72
     1
 10
-43.29798897550575
 20
21.46367281670956
 11
-41.90003592856544
 21
18.40986329289848
 72
     1
 10
-41.90003592856544
 20
18.40986329289848
 11
-43.14054033881936
 21
18.40986329289848
 97
        8
330
159
330
15A
330
111
330
15B
330
110
330
113
330
158
330
112
 92
       16
 93
        3
 72
     1
 10
-44.21840641782396
 20
19.63138710242296
 11
-43.91824118063155
 21
20.39920206840966
 72
     1
 10
-43.91824118063155
 20
20.39920206840966
 11
-43.61807594344145
 21
19.63138710242296
 72
     1
 10
-43.61807594344145
 20
19.63138710242296
 11
-44.21840641782396
 21
19.63138710242296
 97
        3
330
10F
330
15D
330
15C
 75
     1
 76
     0
 52
45.0
 41
0.1
 77
     0
 78
     1
 53
45.0
 43
0.0
 44
0.0
 45
-0.0707106781186548
 46
0.0707106781186548
 79
     0
 98
        1
 10
0.0
 20
0.0
  0
HATCH
  5
1DD
330
76
100
AcDbEntity
  8
1
  6
Continuous
 62
     2
100
AcDbHatch
 10
0.0
 20
0.0
 30
0.0
210
0.0
220
0.0
230
1.0
  2
_USER
 70
     0
 71
     1
 91
        2
 92
        1
 93
        8
 72
     1
 10
-43.14054033881936
 20
18.40986329289848
 11
-43.35202039229515
 21
18.95082383711636
 72
     1
 10
-43.35202039229515
 20
18.95082383711636
 11
-44.48446196896896
 21
18.95082383711636
 72
     1
 10
-44.48446196896896
 20
18.95082383711636
 11
-44.69594202244477
 21
18.40986329289848
 72
     1
 10
-44.69594202244477
 20
18.40986329289848
 11
-45.93644643269775
 21
18.40986329289848
 72
     1
 10
-45.93644643269775
 20
18.40986329289848
 11
-44.53849338575844
 21
21.46367281670956
 72
     1
 10
-44.53849338575844
 20
21.46367281670956
 11
-43.29798897550575
 21
21.46367281670956
 72
     1
 10
-43.29798897550575
 20
21.46367281670956
 11
-41.90003592856544
 21
18.40986329289848
 72
     1
 10
-41.90003592856544
 20
18.40986329289848
 11
-43.14054033881936
 21
18.40986329289848
 97
        8
330
159
330
15A
330
111
330
15B
330
110
330
113
330
158
330
112
 92
       16
 93
        3
 72
     1
 10
-44.21840641782396
 20
19.63138710242296
 11
-43.91824118063155
 21
20.39920206840966
 72
     1
 10
-43.91824118063155
 20
20.39920206840966
 11
-43.61807594344145
 21
19.63138710242296
 72
     1
 10
-43.61807594344145
 20
19.63138710242296
 11
-44.21840641782396
 21
19.63138710242296
 97
        3
330
10F
330
15D
330
15C
 75
     1
 76
     0
 52
45.0
 41
0.1
 77
     0
 78
     1
 53
45.0
 43
0.0
 44
0.0
 45
-0.0707106781186548
 46
0.0707106781186548
 79
     0
 98
        1
 10
0.0
 20
0.0
  0
HATCH
  5
1DE
330
76
100
AcDbEntity
  8
1
  6
Continuous
 62
     2
100
AcDbHatch
 10
0.0
 20
0.0
 30
0.0
210
0.0
220
0.0
230
1.0
  2
_USER
 70
     0
 71
     1
 91
        1
 92
        1
 93
        4
 72
     1
 10
-41.50959192503345
 20
21.76905376907277
 11
-42.75009633528634
 21
21.76905376907277
 72
     1
 10
-42.75009633528634
 20
21.76905376907277
 11
-42.75009633528634
 21
24.82286329288397
 72
     1
 10
-42.75009633528634
 20
24.82286329288397
 11
-41.50959192503345
 21
24.82286329288397
 72
     1
 10
-41.50959192503345
 20
24.82286329288397
 11
-41.50959192503345
 21
21.76905376907277
 97
        4
330
10C
330
10E
330
15E
330
10D
 75
     1
 76
     0
 52
45.0
 41
0.1
 77
     0
 78
     1
 53
45.0
 43
0.0
 44
0.0
 45
-0.0707106781186548
 46
0.0707106781186548
 79
     0
 98
        1
 10
0.0
 20
0.0
  0
HATCH
  5
1DF
330
76
100
AcDbEntity
  8
1
  6
Continuous
 62
     2
100
AcDbHatch
 10
0.0
 20
0.0
 30
0.0
210
0.0
220
0.0
230
1.0
  2
_USER
 70
     0
 71
     1
 91
        1
 92
        1
 93
        4
 72
     1
 10
-41.50959192503345
 20
21.76905376907277
 11
-42.75009633528634
 21
21.76905376907277
 72
     1
 10
-42.75009633528634
 20
21.76905376907277
 11
-42.75009633528634
 21
24.82286329288397
 72
     1
 10
-42.75009633528634
 20
24.82286329288397
 11
-41.50959192503345
 21
24.82286329288397
 72
     1
 10
-41.50959192503345
 20
24.82286329288397
 11
-41.50959192503345
 21
21.76905376907277
 97
        4
330
10C
330
10E
330
15E
330
10D
 75
     1
 76
     0
 52
45.0
 41
0.1
 77
     0
 78
     1
 53
45.0
 43
0.0
 44
0.0
 45
-0.0707106781186548
 46
0.0707106781186548
 79
     0
 98
        1
 10
0.0
 20
0.0
  0
HATCH
  5
1E0
330
76
100
AcDbEntity
  8
1
  6
Continuous
 62
     2
100
AcDbHatch
 10
0.0
 20
0.0
 30
0.0
210
0.0
220
0.0
230
1.0
  2
_USER
 70
     0
 71
     1
 91
        1
 92
        1
 93
       12
 72
     1
 10
-37.28710575936265
 20
24.82286329288397
 11
-38.58963539012916
 21
23.34991276284777
 72
     1
 10
-38.58963539012916
 20
23.34991276284777
 11
-37.19168234318886
 21
21.76905376907277
 72
     1
 10
-37.19168234318886
 20
21.76905376907277
 11
-38.59440656093716
 21
21.76905376907277
 72
     1
 10
-38.59440656093716
 20
21.76905376907277
 11
-39.29099749900266
 21
22.55678555436649
 72
     1
 10
-39.29099749900266
 20
22.55678555436649
 11
-39.98758843706835
 21
21.76905376907277
 72
     1
 10
-39.98758843706835
 20
21.76905376907277
 11
-41.39031265481657
 21
21.76905376907277
 72
     1
 10
-41.39031265481657
 20
21.76905376907277
 11
-39.99235960787627
 21
23.34991276284777
 72
     1
 10
-39.99235960787627
 20
23.34991276284777
 11
-41.29488923864375
 21
24.82286329288397
 72
     1
 10
-41.29488923864375
 20
24.82286329288397
 11
-39.89216502089445
 21
24.82286329288397
 72
     1
 10
-39.89216502089445
 20
24.82286329288397
 11
-39.29099749900266
 21
24.14303997132848
 72
     1
 10
-39.29099749900266
 20
24.14303997132848
 11
-38.68982997710987
 21
24.82286329288397
 72
     1
 10
-38.68982997710987
 20
24.82286329288397
 11
-37.28710575936265
 21
24.82286329288397
 97
       12
330
107
330
106
330
105
330
162
330
163
330
15F
330
160
330
10B
330
10A
330
109
330
108
330
161
 75
     1
 76
     0
 52
45.0
 41
0.1
 77
     0
 78
     1
 53
45.0
 43
0.0
 44
0.0
 45
-0.0707106781186548
 46
0.0707106781186548
 79
     0
 98
        1
 10
0.0
 20
0.0
  0
HATCH
  5
1E1
330
76
100
AcDbEntity
  8
1
  6
Continuous
 62
     2
100
AcDbHatch
 10
0.0
 20
0.0
 30
0.0
210
0.0
220
0.0
230
1.0
  2
_USER
 70
     0
 71
     1
 91
        1
 92
        1
 93
       12
 72
     1
 10
-37.28710575936265
 20
24.82286329288397
 11
-38.58963539012916
 21
23.34991276284777
 72
     1
 10
-38.58963539012916
 20
23.34991276284777
 11
-37.19168234318886
 21
21.76905376907277
 72
     1
 10
-37.19168234318886
 20
21.76905376907277
 11
-38.59440656093716
 21
21.76905376907277
 72
     1
 10
-38.59440656093716
 20
21.76905376907277
 11
-39.29099749900266
 21
22.55678555436649
 72
     1
 10
-39.29099749900266
 20
22.55678555436649
 11
-39.98758843706835
 21
21.76905376907277
 72
     1
 10
-39.98758843706835
 20
21.76905376907277
 11
-41.39031265481657
 21
21.76905376907277
 72
     1
 10
-41.39031265481657
 20
21.76905376907277
 11
-39.99235960787627
 21
23.34991276284777
 72
     1
 10
-39.99235960787627
 20
23.34991276284777
 11
-41.29488923864375
 21
24.82286329288397
 72
     1
 10
-41.29488923864375
 20
24.82286329288397
 11
-39.89216502089445
 21
24.82286329288397
 72
     1
 10
-39.89216502089445
 20
24.82286329288397
 11
-39.29099749900266
 21
24.14303997132848
 72
     1
 10
-39.29099749900266
 20
24.14303997132848
 11
-38.68982997710987
 21
24.82286329288397
 72
     1
 10
-38.68982997710987
 20
24.82286329288397
 11
-37.28710575936265
 21
24.82286329288397
 97
       12
330
107
330
106
330
105
330
162
330
163
330
15F
330
160
330
10B
330
10A
330
109
330
108
330
161
 75
     1
 76
     0
 52
45.0
 41
0.1
 77
     0
 78
     1
 53
45.0
 43
0.0
 44
0.0
 45
-0.0707106781186548
 46
0.0707106781186548
 79
     0
 98
        1
 10
0.0
 20
0.0
  0
HATCH
  5
1E2
330
76
100
AcDbEntity
  8
1
  6
Continuous
 62
     2
100
AcDbHatch
 10
0.0
 20
0.0
 30
0.0
210
0.0
220
0.0
230
1.0
  2
_USER
 70
     0
 71
     1
 91
        2
 92
        1
 93
        6
 72
     1
 10
-56.30484117350866
 20
22.71213201021658
 11
-57.06360876128895
 21
22.71213201021658
 72
     1
 10
-57.06360876128895
 20
22.71213201021658
 11
-57.06360876128895
 21
21.76905376907277
 72
     1
 10
-57.06360876128895
 20
21.76905376907277
 11
-58.30411317154307
 21
21.76905376907277
 72
     1
 10
-58.30411317154307
 20
21.76905376907277
 11
-58.30411317154307
 21
24.82286329288397
 72
     1
 10
-58.30411317154307
 20
24.82286329288397
 11
-56.30484117350866
 21
24.82286329288397
 72
     2
 10
-56.30484117350866
 20
23.76749765155029
 40
1.055365641333712
 50
270.0
 51
450.0
 73
     0
 97
        6
330
12F
330
12E
330
13B
330
13A
330
130
330
180
 92
       16
 93
        4
 72
     2
 10
-56.74631369974705
 20
23.80689362277278
 40
0.3528638246711182
 50
270.0
 51
450.0
 73
     1
 72
     1
 10
-56.74631369974705
 20
24.15975744744387
 11
-57.06360876128895
 21
24.15975744744387
 72
     1
 10
-57.06360876128895
 20
24.15975744744387
 11
-57.06360876128895
 21
23.45402979810166
 72
     1
 10
-57.06360876128895
 20
23.45402979810166
 11
-56.74631369974705
 21
23.45402979810166
 97
        4
330
194
330
12C
330
13C
330
12D
 75
     1
 76
     0
 52
45.0
 41
0.1
 77
     0
 78
     1
 53
45.0
 43
0.0
 44
0.0
 45
-0.0707106781186548
 46
0.0707106781186548
 79
     0
 98
        1
 10
0.0
 20
0.0
  0
HATCH
  5
1E3
330
76
100
AcDbEntity
  8
1
  6
Continuous
 62
     2
100
AcDbHatch
 10
0.0
 20
0.0
 30
0.0
210
0.0
220
0.0
230
1.0
  2
_USER
 70
     0
 71
     1
 91
        2
 92
        1
 93
        6
 72
     1
 10
-56.30484117350866
 20
22.71213201021658
 11
-57.06360876128895
 21
22.71213201021658
 72
     1
 10
-57.06360876128895
 20
22.71213201021658
 11
-57.06360876128895
 21
21.76905376907277
 72
     1
 10
-57.06360876128895
 20
21.76905376907277
 11
-58.30411317154307
 21
21.76905376907277
 72
     1
 10
-58.30411317154307
 20
21.76905376907277
 11
-58.30411317154307
 21
24.82286329288397
 72
     1
 10
-58.30411317154307
 20
24.82286329288397
 11
-56.30484117350866
 21
24.82286329288397
 72
     2
 10
-56.30484117350866
 20
23.76749765155029
 40
1.055365641333712
 50
270.0
 51
450.0
 73
     0
 97
        6
330
12F
330
12E
330
13B
330
13A
330
130
330
180
 92
       16
 93
        4
 72
     2
 10
-56.74631369974705
 20
23.80689362277278
 40
0.3528638246711182
 50
270.0
 51
450.0
 73
     1
 72
     1
 10
-56.74631369974705
 20
24.15975744744387
 11
-57.06360876128895
 21
24.15975744744387
 72
     1
 10
-57.06360876128895
 20
24.15975744744387
 11
-57.06360876128895
 21
23.45402979810166
 72
     1
 10
-57.06360876128895
 20
23.45402979810166
 11
-56.74631369974705
 21
23.45402979810166
 97
        4
330
194
330
12C
330
13C
330
12D
 75
     1
 76
     0
 52
45.0
 41
0.1
 77
     0
 78
     1
 53
45.0
 43
0.0
 44
0.0
 45
-0.0707106781186548
 46
0.0707106781186548
 79
     0
 98
        1
 10
0.0
 20
0.0
  0
HATCH
  5
1E4
330
76
100
AcDbEntity
  8
1
  6
Continuous
 62
     2
100
AcDbHatch
 10
0.0
 20
0.0
 30
0.0
210
0.0
220
0.0
230
1.0
  2
_USER
 70
     0
 71
     1
 91
        2
 92
        1
 93
        4
 72
     2
 10
-53.74829842514956
 20
19.39819304450097
 40
2.065479772208564
 50
62.45185182430632
 51
117.5481481756663
 73
     1
 72
     2
 10
-54.02923831698286
 20
19.93676805480376
 40
1.458034083651483
 50
117.548148175662
 51
242.451851824338
 73
     1
 72
     2
 10
-53.74829842514956
 20
20.47534306510707
 40
2.065479772208502
 50
242.4518518243403
 51
297.5481481756871
 73
     1
 72
     2
 10
-53.46735853331626
 20
19.93676805480376
 40
1.458034083651996
 50
297.5481481757012
 51
422.451851824299
 73
     1
 97
        4
330
18C
330
18B
330
18D
330
18A
 92
       16
 93
        4
 72
     2
 10
-53.94803846149597
 20
19.93676805480376
 40
0.7717997786796882
 50
321.8795802028424
 51
398.1204197971537
 73
     1
 72
     2
 10
-53.74829842514956
 20
20.09349923292427
 40
0.5179085730133043
 50
38.12041979714765
 51
141.8795802028582
 73
     1
 72
     2
 10
-53.54855838880346
 20
19.93676805480376
 40
0.7717997786794676
 50
141.8795802028359
 51
218.1204197971681
 73
     1
 72
     2
 10
-53.74829842514956
 20
19.78003687668377
 40
0.5179085730137332
 50
218.1204197971929
 51
321.8795802028013
 73
     1
 97
        4
330
1A8
330
1A5
330
1A6
330
1A7
 75
     1
 76
     0
 52
45.0
 41
0.1
 77
     0
 78
     1
 53
45.0
 43
0.0
 44
0.0
 45
-0.0707106781186548
 46
0.0707106781186548
 79
     0
 98
        1
 10
0.0
 20
0.0
  0
HATCH
  5
1E5
330
76
100
AcDbEntity
  8
1
  6
Continuous
 62
     2
100
AcDbHatch
 10
0.0
 20
0.0
 30
0.0
210
0.0
220
0.0
230
1.0
  2
_USER
 70
     0
 71
     1
 91
        2
 92
        1
 93
        4
 72
     2
 10
-53.74829842514956
 20
19.39819304450097
 40
2.065479772208564
 50
62.45185182430632
 51
117.5481481756663
 73
     1
 72
     2
 10
-54.02923831698286
 20
19.93676805480376
 40
1.458034083651483
 50
117.548148175662
 51
242.451851824338
 73
     1
 72
     2
 10
-53.74829842514956
 20
20.47534306510707
 40
2.065479772208502
 50
242.4518518243403
 51
297.5481481756871
 73
     1
 72
     2
 10
-53.46735853331626
 20
19.93676805480376
 40
1.458034083651996
 50
297.5481481757012
 51
422.451851824299
 73
     1
 97
        4
330
18C
330
18B
330
18D
330
18A
 92
       16
 93
        4
 72
     2
 10
-53.94803846149597
 20
19.93676805480376
 40
0.7717997786796882
 50
321.8795802028424
 51
398.1204197971537
 73
     1
 72
     2
 10
-53.74829842514956
 20
20.09349923292427
 40
0.5179085730133043
 50
38.12041979714765
 51
141.8795802028582
 73
     1
 72
     2
 10
-53.54855838880346
 20
19.93676805480376
 40
0.7717997786794676
 50
141.8795802028359
 51
218.1204197971681
 73
     1
 72
     2
 10
-53.74829842514956
 20
19.78003687668377
 40
0.5179085730137332
 50
218.1204197971929
 51
321.8795802028013
 73
     1
 97
        4
330
1A8
330
1A5
330
1A6
330
1A7
 75
     1
 76
     0
 52
45.0
 41
0.1
 77
     0
 78
     1
 53
45.0
 43
0.0
 44
0.0
 45
-0.0707106781186548
 46
0.0707106781186548
 79
     0
 98
        1
 10
0.0
 20
0.0
  0
HATCH
  5
1E6
330
76
100
AcDbEntity
  8
1
  6
Continuous
 62
     2
100
AcDbHatch
 10
0.0
 20
0.0
 30
0.0
210
0.0
220
0.0
230
1.0
  2
_USER
 70
     0
 71
     1
 91
        2
 92
        1
 93
       12
 72
     1
 10
-46.85330323074027
 20
24.12484968744099
 11
-48.18923105716795
 21
24.12484968744099
 72
     1
 10
-48.18923105716795
 20
24.12484968744099
 11
-48.18923105716795
 21
23.64496533369928
 72
     1
 10
-48.18923105716795
 20
23.64496533369928
 11
-46.85330323074027
 21
23.64496533369928
 72
     1
 10
-46.85330323074027
 20
23.64496533369928
 11
-46.85330323074027
 21
22.94695172825698
 72
     1
 10
-46.85330323074027
 20
22.94695172825698
 11
-48.18923105716795
 21
22.94695172825698
 72
     1
 10
-48.18923105716795
 20
22.94695172825698
 11
-48.18923105716795
 21
22.46706737451527
 72
     1
 10
-48.18923105716795
 20
22.46706737451527
 11
-46.85330323074027
 21
22.46706737451527
 72
     1
 10
-46.85330323074027
 20
22.46706737451527
 11
-46.85330323074027
 21
21.76905376907277
 72
     1
 10
-46.85330323074027
 20
21.76905376907277
 11
-50.00362295452126
 21
21.76905376907277
 72
     2
 10
-50.00362295452126
 20
23.29595853097808
 40
1.52690476190589
 50
90.0
 51
270.0
 73
     0
 72
     1
 10
-50.00362295452126
 20
24.82286329288397
 11
-46.85330323074027
 21
24.82286329288397
 72
     1
 10
-46.85330323074027
 20
24.82286329288397
 11
-46.85330323074027
 21
24.12484968744099
 97
       12
330
143
330
195
330
144
330
145
330
146
330
147
330
124
330
123
330
122
330
121
330
148
330
142
 92
       16
 93
        4
 72
     2
 10
-49.78735094435606
 20
23.45268970909856
 40
0.517908573013521
 50
38.12041979714382
 51
141.8795802028499
 73
     1
 72
     2
 10
-49.58761090800977
 20
23.29595853097808
 40
0.7717997786796724
 50
141.8795802028404
 51
218.120419797156
 73
     1
 72
     2
 10
-49.78735094435606
 20
23.13922735285766
 40
0.5179085730134483
 50
218.1204197971501
 51
321.8795802028562
 73
     1
 72
     2
 10
-49.98709098070225
 20
23.29595853097808
 40
0.7717997786796351
 50
321.879580202844
 51
398.1204197971596
 73
     1
 97
        4
330
18F
330
18E
330
189
330
188
 75
     1
 76
     0
 52
45.0
 41
0.1
 77
     0
 78
     1
 53
45.0
 43
0.0
 44
0.0
 45
-0.0707106781186548
 46
0.0707106781186548
 79
     0
 98
        1
 10
0.0
 20
0.0
  0
HATCH
  5
1E7
330
76
100
AcDbEntity
  8
1
  6
Continuous
 62
     2
100
AcDbHatch
 10
0.0
 20
0.0
 30
0.0
210
0.0
220
0.0
230
1.0
  2
_USER
 70
     0
 71
     1
 91
        2
 92
        1
 93
       12
 72
     1
 10
-46.85330323074027
 20
24.12484968744099
 11
-48.18923105716795
 21
24.12484968744099
 72
     1
 10
-48.18923105716795
 20
24.12484968744099
 11
-48.18923105716795
 21
23.64496533369928
 72
     1
 10
-48.18923105716795
 20
23.64496533369928
 11
-46.85330323074027
 21
23.64496533369928
 72
     1
 10
-46.85330323074027
 20
23.64496533369928
 11
-46.85330323074027
 21
22.94695172825698
 72
     1
 10
-46.85330323074027
 20
22.94695172825698
 11
-48.18923105716795
 21
22.94695172825698
 72
     1
 10
-48.18923105716795
 20
22.94695172825698
 11
-48.18923105716795
 21
22.46706737451527
 72
     1
 10
-48.18923105716795
 20
22.46706737451527
 11
-46.85330323074027
 21
22.46706737451527
 72
     1
 10
-46.85330323074027
 20
22.46706737451527
 11
-46.85330323074027
 21
21.76905376907277
 72
     1
 10
-46.85330323074027
 20
21.76905376907277
 11
-50.00362295452126
 21
21.76905376907277
 72
     2
 10
-50.00362295452126
 20
23.29595853097808
 40
1.52690476190589
 50
90.0
 51
270.0
 73
     0
 72
     1
 10
-50.00362295452126
 20
24.82286329288397
 11
-46.85330323074027
 21
24.82286329288397
 72
     1
 10
-46.85330323074027
 20
24.82286329288397
 11
-46.85330323074027
 21
24.12484968744099
 97
       12
330
143
330
195
330
144
330
145
330
146
330
147
330
124
330
123
330
122
330
121
330
148
330
142
 92
       16
 93
        4
 72
     2
 10
-49.78735094435606
 20
23.45268970909856
 40
0.517908573013521
 50
38.12041979714382
 51
141.8795802028499
 73
     1
 72
     2
 10
-49.58761090800977
 20
23.29595853097808
 40
0.7717997786796724
 50
141.8795802028404
 51
218.120419797156
 73
     1
 72
     2
 10
-49.78735094435606
 20
23.13922735285766
 40
0.5179085730134483
 50
218.1204197971501
 51
321.8795802028562
 73
     1
 72
     2
 10
-49.98709098070225
 20
23.29595853097808
 40
0.7717997786796351
 50
321.879580202844
 51
398.1204197971596
 73
     1
 97
        4
330
18F
330
18E
330
189
330
188
 75
     1
 76
     0
 52
45.0
 41
0.1
 77
     0
 78
     1
 53
45.0
 43
0.0
 44
0.0
 45
-0.0707106781186548
 46
0.0707106781186548
 79
     0
 98
        1
 10
0.0
 20
0.0
  0
HATCH
  5
1E8
330
76
100
AcDbEntity
  8
1
  6
Continuous
 62
     2
100
AcDbHatch
 10
0.0
 20
0.0
 30
0.0
210
0.0
220
0.0
230
1.0
  2
_USER
 70
     0
 71
     1
 91
        4
 92
        1
 93
        8
 72
     1
 10
-58.78123025240987
 20
24.39861867748198
 11
-58.78123025240987
 21
18.83410790828177
 72
     2
 10
-59.20547486779375
 20
18.83410790828177
 40
0.4242446153832908
 50
0.0
 51
90.0
 73
     0
 72
     1
 10
-59.20547486779375
 20
18.40986329289848
 11
-64.67878695851056
 21
18.40986329289848
 72
     2
 10
-64.67878695851056
 20
18.83410790828177
 40
0.4242446153828041
 50
90.0
 51
180.0
 73
     0
 72
     1
 10
-65.10303157389336
 20
18.83410790828177
 11
-65.10303157389336
 21
24.39861867748198
 72
     2
 10
-64.67878695851056
 20
24.39861867748198
 40
0.4242446153837989
 50
180.0
 51
270.0
 73
     0
 72
     1
 10
-64.67878695851056
 20
24.82286329286578
 11
-59.20547486779375
 21
24.82286329286578
 72
     2
 10
-59.20547486779375
 20
24.39861867748198
 40
0.424244615383877
 50
270.0
 51
360.0
 73
     0
 97
        8
330
137
330
185
330
138
330
190
330
135
330
187
330
136
330
186
 92
       16
 93
        1
 72
     2
 10
-62.05920130799305
 20
22.07973644912647
 40
0.4709789327785074
 50
0.0
 51
360.0
 73
     1
 97
        1
330
1AB
 92
       16
 93
        8
 72
     2
 10
-61.50934359523237
 20
20.97059484915806
 40
0.3157169230765298
 50
115.3740086783507
 51
180.0
 73
     1
 72
     1
 10
-61.82506051830916
 20
20.97059484915806
 11
-61.82506051830916
 21
20.38874344246298
 72
     2
 10
-61.50934359523237
 20
20.38874344246298
 40
0.3157169230767849
 50
180.0
 51
269.8110329574567
 73
     1
 72
     2
 10
-61.50372745992235
 20
22.09157839003197
 40
2.018561131933266
 50
269.8110329575862
 51
450.1889670424138
 73
     1
 72
     2
 10
-61.50934359523237
 20
23.79441333760107
 40
0.315716923076071
 50
90.18896704254335
 51
180.0
 73
     1
 72
     1
 10
-61.82506051830916
 20
23.79441333760107
 11
-61.82506051830916
 21
23.18887804909429
 72
     2
 10
-61.50934359523237
 20
23.18887804909429
 40
0.3157169230767849
 50
180.0
 51
244.6259913216493
 73
     1
 72
     2
 10
-62.03538629332024
 20
22.07973644912647
 40
0.911848150144456
 50
295.3740086781921
 51
424.625991321824
 73
     0
 97
        8
330
19D
330
FE
330
19A
330
19B
330
179
330
FD
330
19C
330
178
 92
       16
 93
       12
 72
     2
 10
-64.08489228176407
 20
19.43813577153208
 40
0.3157169230756836
 50
180.0
 51
270.0
 73
     1
 72
     1
 10
-64.08489228176407
 20
19.12241884845537
 11
-62.60905902075444
 21
19.12241884845537
 72
     2
 10
-62.60905902075444
 20
19.43813577153208
 40
0.3157169230767103
 50
270.0
 51
360.0
 73
     1
 72
     1
 10
-62.29334209767785
 20
19.43813577153208
 11
-62.29334209767785
 21
20.96890670306368
 72
     2
 10
-62.60905902075444
 20
20.96890670306368
 40
0.3157169230765859
 50
0.0
 51
64.80558935146145
 73
     1
 72
     2
 10
-62.08647457317946
 20
22.07973644912647
 40
0.9118975235576178
 50
115.1944106485122
 51
244.8055893514719
 73
     0
 72
     2
 10
-62.60905902075444
 20
23.19056619518867
 40
0.3157169230761172
 50
295.1944106485386
 51
360.0
 73
     1
 72
     1
 10
-62.29334209767785
 20
23.19056619518867
 11
-62.29334209767785
 21
23.79459081424918
 72
     2
 10
-62.60905902075444
 20
23.79459081424918
 40
0.3157169230765859
 50
0.0
 51
90.0
 73
     1
 72
     1
 10
-62.60905902075444
 20
24.11030773732537
 11
-64.08489228176407
 21
24.11030773732537
 72
     2
 10
-64.08489228176407
 20
23.79459081424918
 40
0.3157169230761916
 50
90.0
 51
180.0
 73
     1
 72
     1
 10
-64.40060920483975
 20
23.79459081424918
 11
-64.40060920483975
 21
19.43813577153208
 97
       12
330
181
330
139
330
184
330
134
330
191
330
192
330
183
330
133
330
182
330
132
330
193
330
131
 75
     1
 76
     0
 52
45.0
 41
0.1
 77
     0
 78
     1
 53
45.0
 43
0.0
 44
0.0
 45
-0.0707106781186548
 46
0.0707106781186548
 79
     0
 98
        1
 10
0.0
 20
0.0
  0
HATCH
  5
1E9
330
76
100
AcDbEntity
  8
1
  6
Continuous
 62
     2
100
AcDbHatch
 10
0.0
 20
0.0
 30
0.0
210
0.0
220
0.0
230
1.0
  2
_USER
 70
     0
 71
     1
 91
        4
 92
        1
 93
        8
 72
     1
 10
-58.78123025240987
 20
24.39861867748198
 11
-58.78123025240987
 21
18.83410790828177
 72
     2
 10
-59.20547486779375
 20
18.83410790828177
 40
0.4242446153832908
 50
0.0
 51
90.0
 73
     0
 72
     1
 10
-59.20547486779375
 20
18.40986329289848
 11
-64.67878695851056
 21
18.40986329289848
 72
     2
 10
-64.67878695851056
 20
18.83410790828177
 40
0.4242446153828041
 50
90.0
 51
180.0
 73
     0
 72
     1
 10
-65.10303157389336
 20
18.83410790828177
 11
-65.10303157389336
 21
24.39861867748198
 72
     2
 10
-64.67878695851056
 20
24.39861867748198
 40
0.4242446153837989
 50
180.0
 51
270.0
 73
     0
 72
     1
 10
-64.67878695851056
 20
24.82286329286578
 11
-59.20547486779375
 21
24.82286329286578
 72
     2
 10
-59.20547486779375
 20
24.39861867748198
 40
0.424244615383877
 50
270.0
 51
360.0
 73
     0
 97
        8
330
137
330
185
330
138
330
190
330
135
330
187
330
136
330
186
 92
       16
 93
        1
 72
     2
 10
-62.05920130799305
 20
22.07973644912647
 40
0.4709789327785074
 50
0.0
 51
360.0
 73
     1
 97
        1
330
1AB
 92
       16
 93
        8
 72
     2
 10
-61.50934359523237
 20
20.97059484915806
 40
0.3157169230765298
 50
115.3740086783507
 51
180.0
 73
     1
 72
     1
 10
-61.82506051830916
 20
20.97059484915806
 11
-61.82506051830916
 21
20.38874344246298
 72
     2
 10
-61.50934359523237
 20
20.38874344246298
 40
0.3157169230767849
 50
180.0
 51
269.8110329574567
 73
     1
 72
     2
 10
-61.50372745992235
 20
22.09157839003197
 40
2.018561131933266
 50
269.8110329575862
 51
450.1889670424138
 73
     1
 72
     2
 10
-61.50934359523237
 20
23.79441333760107
 40
0.315716923076071
 50
90.18896704254335
 51
180.0
 73
     1
 72
     1
 10
-61.82506051830916
 20
23.79441333760107
 11
-61.82506051830916
 21
23.18887804909429
 72
     2
 10
-61.50934359523237
 20
23.18887804909429
 40
0.3157169230767849
 50
180.0
 51
244.6259913216493
 73
     1
 72
     2
 10
-62.03538629332024
 20
22.07973644912647
 40
0.911848150144456
 50
295.3740086781921
 51
424.625991321824
 73
     0
 97
        8
330
19D
330
FE
330
19A
330
19B
330
179
330
FD
330
19C
330
178
 92
       16
 93
       12
 72
     2
 10
-64.08489228176407
 20
19.43813577153208
 40
0.3157169230756836
 50
180.0
 51
270.0
 73
     1
 72
     1
 10
-64.08489228176407
 20
19.12241884845537
 11
-62.60905902075444
 21
19.12241884845537
 72
     2
 10
-62.60905902075444
 20
19.43813577153208
 40
0.3157169230767103
 50
270.0
 51
360.0
 73
     1
 72
     1
 10
-62.29334209767785
 20
19.43813577153208
 11
-62.29334209767785
 21
20.96890670306368
 72
     2
 10
-62.60905902075444
 20
20.96890670306368
 40
0.3157169230765859
 50
0.0
 51
64.80558935146145
 73
     1
 72
     2
 10
-62.08647457317946
 20
22.07973644912647
 40
0.9118975235576178
 50
115.1944106485122
 51
244.8055893514719
 73
     0
 72
     2
 10
-62.60905902075444
 20
23.19056619518867
 40
0.3157169230761172
 50
295.1944106485386
 51
360.0
 73
     1
 72
     1
 10
-62.29334209767785
 20
23.19056619518867
 11
-62.29334209767785
 21
23.79459081424918
 72
     2
 10
-62.60905902075444
 20
23.79459081424918
 40
0.3157169230765859
 50
0.0
 51
90.0
 73
     1
 72
     1
 10
-62.60905902075444
 20
24.11030773732537
 11
-64.08489228176407
 21
24.11030773732537
 72
     2
 10
-64.08489228176407
 20
23.79459081424918
 40
0.3157169230761916
 50
90.0
 51
180.0
 73
     1
 72
     1
 10
-64.40060920483975
 20
23.79459081424918
 11
-64.40060920483975
 21
19.43813577153208
 97
       12
330
181
330
139
330
184
330
134
330
191
330
192
330
183
330
133
330
182
330
132
330
193
330
131
 75
     1
 76
     0
 52
45.0
 41
0.1
 77
     0
 78
     1
 53
45.0
 43
0.0
 44
0.0
 45
-0.0707106781186548
 46
0.0707106781186548
 79
     0
 98
        1
 10
0.0
 20
0.0
  0
HATCH
  5
1EA
330
76
100
AcDbEntity
  8
1
  6
Continuous
 62
     2
100
AcDbHatch
 10
0.0
 20
0.0
 30
0.0
210
0.0
220
0.0
230
1.0
  2
_USER
 70
     0
 71
     1
 91
        1
 92
        1
 93
       18
 72
     1
 10
-37.19168234318886
 20
20.67840751058597
 11
-38.00278138066224
 21
20.67840751058597
 72
     1
 10
-38.00278138066224
 20
20.67840751058597
 11
-38.00278138066224
 21
18.40986329289848
 72
     1
 10
-38.00278138066224
 20
18.40986329289848
 11
-39.19557408282995
 21
18.40986329289848
 72
     1
 10
-39.19557408282995
 20
18.40986329289848
 11
-39.19557408282995
 21
20.67840751058597
 72
     1
 10
-39.19557408282995
 20
20.67840751058597
 11
-40.29921338239805
 21
20.67840751058597
 72
     2
 10
-40.29921338239805
 20
19.72388450375988
 40
0.9545230068260899
 50
90.0
 51
109.3371432194321
 73
     1
 72
     2
 10
-40.44588338050176
 20
20.14183948414276
 40
0.5115800601944153
 50
109.3371432194844
 51
151.4785267424214
 73
     1
 72
     2
 10
-40.06852612242037
 20
19.93676805480376
 40
0.9410597353348895
 50
151.4785267423618
 51
208.5214732576697
 73
     1
 72
     2
 10
-40.44588338050176
 20
19.73169662546528
 40
0.5115800601960188
 50
208.5214732576877
 51
246.6277221118458
 73
     1
 72
     2
 10
-40.28944334779865
 20
20.09368864417527
 40
0.9059297849852768
 50
246.6277221118181
 51
288.4480761180822
 73
     1
 72
     2
 10
-40.70761108146056
 20
21.34723442021186
 40
2.22738400897275
 50
288.4480761181338
 51
301.9309089499399
 73
     1
 72
     1
 10
-39.52955603943664
 20
19.45688370106208
 11
-39.52955603943664
 21
18.58436669425876
 72
     2
 10
-40.86548395655336
 20
23.24944900006017
 40
4.852596863498825
 50
74.02000874166129
 51
84.84185523036365
 73
     0
 72
     2
 10
-40.57662786181754
 20
20.04955841683858
 40
1.639695123940455
 50
84.84185523032376
 51
164.9381082228989
 73
     0
 72
     2
 10
-40.99575570527915
 20
19.93676805480376
 40
1.205656168393011
 50
164.9381082229043
 51
195.0618917770974
 73
     0
 72
     2
 10
-40.57662786181754
 20
19.82397769276886
 40
1.639695123940221
 50
195.0618917771052
 51
270.0
 73
     0
 72
     1
 10
-40.57662786181754
 20
21.46367281670908
 11
-37.19168234318886
 21
21.46367281670956
 72
     1
 10
-37.19168234318886
 20
21.46367281670956
 11
-37.19168234318886
 21
20.67840751058597
 97
       18
330
100
330
196
330
197
330
17F
330
17E
330
164
330
17D
330
17C
330
198
330
17B
330
199
330
17A
330
165
330
FF
330
104
330
103
330
102
330
101
 75
     1
 76
     0
 52
45.0
 41
0.1
 77
     0
 78
     1
 53
45.0
 43
0.0
 44
0.0
 45
-0.0707106781186548
 46
0.0707106781186548
 79
     0
 98
        1
 10
0.0
 20
0.0
  0
HATCH
  5
1EB
330
76
100
AcDbEntity
  8
1
  6
Continuous
 62
     2
100
AcDbHatch
 10
0.0
 20
0.0
 30
0.0
210
0.0
220
0.0
230
1.0
  2
_USER
 70
     0
 71
     1
 91
        1
 92
        1
 93
       18
 72
     1
 10
-37.19168234318886
 20
20.67840751058597
 11
-38.00278138066224
 21
20.67840751058597
 72
     1
 10
-38.00278138066224
 20
20.67840751058597
 11
-38.00278138066224
 21
18.40986329289848
 72
     1
 10
-38.00278138066224
 20
18.40986329289848
 11
-39.19557408282995
 21
18.40986329289848
 72
     1
 10
-39.19557408282995
 20
18.40986329289848
 11
-39.19557408282995
 21
20.67840751058597
 72
     1
 10
-39.19557408282995
 20
20.67840751058597
 11
-40.29921338239805
 21
20.67840751058597
 72
     2
 10
-40.29921338239805
 20
19.72388450375988
 40
0.9545230068260899
 50
90.0
 51
109.3371432194321
 73
     1
 72
     2
 10
-40.44588338050176
 20
20.14183948414276
 40
0.5115800601944153
 50
109.3371432194844
 51
151.4785267424214
 73
     1
 72
     2
 10
-40.06852612242037
 20
19.93676805480376
 40
0.9410597353348895
 50
151.4785267423618
 51
208.5214732576697
 73
     1
 72
     2
 10
-40.44588338050176
 20
19.73169662546528
 40
0.5115800601960188
 50
208.5214732576877
 51
246.6277221118458
 73
     1
 72
     2
 10
-40.28944334779865
 20
20.09368864417527
 40
0.9059297849852768
 50
246.6277221118181
 51
288.4480761180822
 73
     1
 72
     2
 10
-40.70761108146056
 20
21.34723442021186
 40
2.22738400897275
 50
288.4480761181338
 51
301.9309089499399
 73
     1
 72
     1
 10
-39.52955603943664
 20
19.45688370106208
 11
-39.52955603943664
 21
18.58436669425876
 72
     2
 10
-40.86548395655336
 20
23.24944900006017
 40
4.852596863498825
 50
74.02000874166129
 51
84.84185523036365
 73
     0
 72
     2
 10
-40.57662786181754
 20
20.04955841683858
 40
1.639695123940455
 50
84.84185523032376
 51
164.9381082228989
 73
     0
 72
     2
 10
-40.99575570527915
 20
19.93676805480376
 40
1.205656168393011
 50
164.9381082229043
 51
195.0618917770974
 73
     0
 72
     2
 10
-40.57662786181754
 20
19.82397769276886
 40
1.639695123940221
 50
195.0618917771052
 51
270.0
 73
     0
 72
     1
 10
-40.57662786181754
 20
21.46367281670908
 11
-37.19168234318886
 21
21.46367281670956
 72
     1
 10
-37.19168234318886
 20
21.46367281670956
 11
-37.19168234318886
 21
20.67840751058597
 97
       18
330
100
330
196
330
197
330
17F
330
17E
330
164
330
17D
330
17C
330
198
330
17B
330
199
330
17A
330
165
330
FF
330
104
330
103
330
102
330
101
 75
     1
 76
     0
 52
45.0
 41
0.1
 77
     0
 78
     1
 53
45.0
 43
0.0
 44
0.0
 45
-0.0707106781186548
 46
0.0707106781186548
 79
     0
 98
        1
 10
0.0
 20
0.0
  0
HATCH
  5
1EC
330
76
100
AcDbEntity
  8
1
  6
Continuous
 62
     2
100
AcDbHatch
 10
0.0
 20
0.0
 30
0.0
210
0.0
220
0.0
230
1.0
  2
_USER
 70
     0
 71
     1
 91
        1
 92
        1
 93
       14
 72
     2
 10
-56.67932934107046
 20
19.82397769276886
 40
1.639695123940514
 50
84.84185523036214
 51
164.9381082228861
 73
     1
 72
     2
 10
-57.09845718453326
 20
19.93676805480376
 40
1.205656168390946
 50
164.9381082228761
 51
195.0618917770945
 73
     1
 72
     2
 10
-56.67932934107046
 20
20.04955841683858
 40
1.63969512393938
 50
195.0618917770895
 51
275.1581447696398
 73
     1
 72
     2
 10
-56.96818543580636
 20
23.24944900006017
 40
4.852596863498145
 50
275.1581447696249
 51
285.9799912583529
 73
     1
 72
     1
 10
-55.63225751868856
 20
18.58436669425936
 11
-55.63225751868856
 21
19.45688370106257
 72
     2
 10
-56.81031256071344
 20
21.34723442021246
 40
2.227384008972737
 50
58.06909105004065
 51
71.55192388186722
 73
     0
 72
     2
 10
-56.39214482705265
 20
20.09368864417527
 40
0.905929784984916
 50
71.55192388184147
 51
113.3722778881291
 73
     0
 72
     2
 10
-56.54858485975467
 20
19.73169662546528
 40
0.5115800601948034
 50
113.3722778881725
 51
151.4785267423044
 73
     0
 72
     2
 10
-56.17122760167436
 20
19.93676805480376
 40
0.9410597353332545
 50
151.4785267422946
 51
208.5214732577331
 73
     0
 72
     2
 10
-56.54858485975467
 20
20.14183948414276
 40
0.5115800601948779
 50
208.5214732576956
 51
246.6277221118009
 73
     0
 72
     2
 10
-56.39214482705265
 20
19.77984746543217
 40
0.9059297849853228
 50
246.6277221118709
 51
288.4480761181465
 73
     0
 72
     2
 10
-56.81031256071344
 20
18.52630168939558
 40
2.227384008973474
 50
288.4480761181328
 51
301.9309089499593
 73
     0
 72
     1
 10
-55.63225751868856
 20
20.41665240854547
 11
-55.63225751868856
 21
21.28916941534877
 72
     2
 10
-56.96818543580636
 20
16.62408710954787
 40
4.852596863498075
 50
74.02000874164742
 51
84.84185523037506
 73
     1
 97
       14
330
19E
330
19F
330
1A0
330
1A1
330
166
330
177
330
176
330
175
330
1A2
330
1A3
330
174
330
1A4
330
167
330
173
 75
     1
 76
     0
 52
45.0
 41
0.1
 77
     0
 78
     1
 53
45.0
 43
0.0
 44
0.0
 45
-0.0707106781186548
 46
0.0707106781186548
 79
     0
 98
        1
 10
0.0
 20
0.0
  0
HATCH
  5
1ED
330
76
100
AcDbEntity
  8
1
  6
Continuous
 62
     2
100
AcDbHatch
 10
0.0
 20
0.0
 30
0.0
210
0.0
220
0.0
230
1.0
  2
_USER
 70
     0
 71
     1
 91
        1
 92
        1
 93
       14
 72
     2
 10
-56.67932934107046
 20
19.82397769276886
 40
1.639695123940514
 50
84.84185523036214
 51
164.9381082228861
 73
     1
 72
     2
 10
-57.09845718453326
 20
19.93676805480376
 40
1.205656168390946
 50
164.9381082228761
 51
195.0618917770945
 73
     1
 72
     2
 10
-56.67932934107046
 20
20.04955841683858
 40
1.63969512393938
 50
195.0618917770895
 51
275.1581447696398
 73
     1
 72
     2
 10
-56.96818543580636
 20
23.24944900006017
 40
4.852596863498145
 50
275.1581447696249
 51
285.9799912583529
 73
     1
 72
     1
 10
-55.63225751868856
 20
18.58436669425936
 11
-55.63225751868856
 21
19.45688370106257
 72
     2
 10
-56.81031256071344
 20
21.34723442021246
 40
2.227384008972737
 50
58.06909105004065
 51
71.55192388186722
 73
     0
 72
     2
 10
-56.39214482705265
 20
20.09368864417527
 40
0.905929784984916
 50
71.55192388184147
 51
113.3722778881291
 73
     0
 72
     2
 10
-56.54858485975467
 20
19.73169662546528
 40
0.5115800601948034
 50
113.3722778881725
 51
151.4785267423044
 73
     0
 72
     2
 10
-56.17122760167436
 20
19.93676805480376
 40
0.9410597353332545
 50
151.4785267422946
 51
208.5214732577331
 73
     0
 72
     2
 10
-56.54858485975467
 20
20.14183948414276
 40
0.5115800601948779
 50
208.5214732576956
 51
246.6277221118009
 73
     0
 72
     2
 10
-56.39214482705265
 20
19.77984746543217
 40
0.9059297849853228
 50
246.6277221118709
 51
288.4480761181465
 73
     0
 72
     2
 10
-56.81031256071344
 20
18.52630168939558
 40
2.227384008973474
 50
288.4480761181328
 51
301.9309089499593
 73
     0
 72
     1
 10
-55.63225751868856
 20
20.41665240854547
 11
-55.63225751868856
 21
21.28916941534877
 72
     2
 10
-56.96818543580636
 20
16.62408710954787
 40
4.852596863498075
 50
74.02000874164742
 51
84.84185523037506
 73
     1
 97
       14
330
19E
330
19F
330
1A0
330
1A1
330
166
330
177
330
176
330
175
330
1A2
330
1A3
330
174
330
1A4
330
167
330
173
 75
     1
 76
     0
 52
45.0
 41
0.1
 77
     0
 78
     1
 53
45.0
 43
0.0
 44
0.0
 45
-0.0707106781186548
 46
0.0707106781186548
 79
     0
 98
        1
 10
0.0
 20
0.0
  0
ENDBLK
  5
78
330
76
100
AcDbEntity
  8
0
100
AcDbBlockEnd
  0
BLOCK
  5
7A
330
79
100
AcDbEntity
  8
0
100
AcDbBlockBegin
  2
_punkt
 70
     0
 10
60.20511806629405
 20
11.11636329288217
 30
0.0
  3
_punkt
  1

  0
LINE
  5
1EE
330
79
100
AcDbEntity
  8
1
  6
Continuous
 62
     2
100
AcDbLine
 10
60.20511806629405
 20
11.11636329288217
 30
0.0
 11
65.20511806629304
 21
11.11636329288217
 31
0.0
  0
LINE
  5
1EF
330
79
100
AcDbEntity
  8
1
  6
Continuous
 62
     2
100
AcDbLine
 10
60.20511806629405
 20
11.11636329288217
 30
0.0
 11
60.20511806629405
 21
6.11636329288206
 31
0.0
  0
ENDBLK
  5
7B
330
79
100
AcDbEntity
  8
0
100
AcDbBlockEnd
  0
BLOCK
  5
7F
330
7C
100
AcDbEntity
  8
0
100
AcDbBlockBegin
  2
A4I_CS
 70
     0
 10
60.20511806629405
 20
6.11636329288206
 30
0.0
  3
A4I_CS
  1

  0
INSERT
  5
7D
330
7C
100
AcDbEntity
  8
1
100
AcDbBlockReference
  2
_rahmen
 10
60.20511806629405
 20
6.11636329288206
 30
0.0
  0
INSERT
  5
7E
330
7C
100
AcDbEntity
  8
1
100
AcDbBlockReference
  2
_punkt
 10
60.20511806629405
 20
11.11636329288217
 30
0.0
  0
ENDBLK
  5
80
330
7C
100
AcDbEntity
  8
0
100
AcDbBlockEnd
  0
BLOCK
  5
82
330
81
100
AcDbEntity
  8
0
100
AcDbBlockBegin
  2
GS-GSK_S-select__1
 70
     0
 10
-9.35304762481054
 20
30.03417690999835
 30
0.0
  3
GS-GSK_S-select__1
  1

  0
LINE
  5
1F0
330
81
100
AcDbEntity
  8
0
  6
Continuous
 62
     7
100
AcDbLine
 10
4.69412806950277
 20
40.41250831871561
 30
0.0
 11
4.50470955661128
 21
42.63225224288041
 31
0.0
  0
LINE
  5
1F1
330
81
100
AcDbEntity
  8
0
  6
Continuous
 62
     7
100
AcDbLine
 10
6.27630040073724
 20
39.95577450804431
 30
0.0
 11
4.69412806950277
 21
40.41250831871561
 31
0.0
  0
LINE
  5
1F2
330
81
100
AcDbEntity
  8
0
  6
Continuous
 62
     7
100
AcDbLine
 10
6.42453342881419
 20
38.21867205479651
 30
0.0
 11
6.27630040073724
 21
39.95577450804431
 31
0.0
  0
LINE
  5
1F3
330
81
100
AcDbEntity
  8
0
  6
Continuous
 62
     7
100
AcDbLine
 10
1.69412806950277
 20
37.81443210736229
 30
0.0
 11
1.50470955661127
 21
40.0341760315271
 31
0.0
  0
LINE
  5
1F4
330
81
100
AcDbEntity
  8
0
  6
Continuous
 62
     7
100
AcDbLine
 10
3.27630040073724
 20
37.357698296691
 30
0.0
 11
1.69412806950277
 21
37.81443210736229
 31
0.0
  0
LINE
  5
1F5
330
81
100
AcDbEntity
  8
0
  6
Continuous
 62
     7
100
AcDbLine
 10
1.69412806950277
 20
37.81443210736229
 30
0.0
 11
4.69412806950277
 21
40.41250831871561
 31
0.0
  0
LINE
  5
1F6
330
81
100
AcDbEntity
  8
0
  6
Continuous
 62
     7
100
AcDbLine
 10
3.27630040073724
 20
37.357698296691
 30
0.0
 11
6.27630040073724
 21
39.95577450804431
 31
0.0
  0
LINE
  5
1F7
330
81
100
AcDbEntity
  8
0
  6
Continuous
 62
     7
100
AcDbLine
 10
-6.31660691550329
 20
40.12693210736229
 30
0.0
 11
-7.61564502117995
 21
40.50193210736229
 31
0.0
  0
LINE
  5
1F8
330
81
100
AcDbEntity
  8
0
  6
Continuous
 62
     7
100
AcDbLine
 10
-7.61564502117995
 20
40.50193210736229
 30
0.0
 11
-7.61564502117995
 21
41.80097021303895
 31
0.0
  0
LINE
  5
1F9
330
81
100
AcDbEntity
  8
0
  6
Continuous
 62
     7
100
AcDbLine
 10
-7.61564502117995
 20
41.80097021303895
 30
0.0
 11
-9.08416624467952
 21
42.22489577488804
 31
0.0
  0
LINE
  5
1FA
330
81
100
AcDbEntity
  8
0
  6
Continuous
 62
     7
100
AcDbLine
 10
-9.08416624467952
 20
42.22489577488804
 30
0.0
 11
-9.34605038049136
 21
39.30714584344881
 31
0.0
  0
LINE
  5
1FB
330
81
100
AcDbEntity
  8
0
  6
Continuous
 62
     7
100
AcDbLine
 10
-7.61564502117995
 20
40.50193210736229
 30
0.0
 11
-6.17062651167911
 21
41.75335484552872
 31
0.0
  0
LINE
  5
1FC
330
81
100
AcDbEntity
  8
0
  6
Continuous
 62
     7
100
AcDbLine
 10
-7.61564502117995
 20
41.80097021303895
 30
0.0
 11
-6.04420377351265
 21
43.16187825407353
 31
0.0
  0
LINE
  5
1FD
330
81
100
AcDbEntity
  8
0
  6
Continuous
 62
     7
100
AcDbLine
 10
-9.08416624467952
 20
42.22489577488804
 30
0.0
 11
-6.08416624467952
 21
44.82297198624136
 31
0.0
  0
LINE
  5
1FE
330
81
100
AcDbEntity
  8
0
  6
Continuous
 62
     7
100
AcDbLine
 10
1.4964784365265
 20
44.89415361389385
 30
0.0
 11
1.49647843652652
 21
44.36667917014762
 31
0.0
  0
LINE
  5
1FF
330
81
100
AcDbEntity
  8
0
  6
Continuous
 62
     7
100
AcDbLine
 10
2.77265874904239
 20
44.86430305044929
 30
0.0
 11
1.59238307710197
 21
45.20501928890569
 31
0.0
  0
LINE
  5
200
330
81
100
AcDbEntity
  8
0
  6
Continuous
 62
     7
100
AcDbLine
 10
-0.22734125095761
 20
42.26622683909598
 30
0.0
 11
2.77265874904239
 21
44.86430305044929
 31
0.0
  0
LINE
  5
201
330
81
100
AcDbEntity
  8
0
  6
Continuous
 62
     7
100
AcDbLine
 10
4.50470955661128
 20
42.63225224288041
 30
0.0
 11
2.77265874904239
 21
44.86430305044929
 31
0.0
  0
LINE
  5
202
330
81
100
AcDbEntity
  8
0
  6
Continuous
 62
     7
100
AcDbLine
 10
-3.25352156347346
 20
37.0776320216286
 30
0.0
 11
-3.25352156347346
 21
30.90917690999832
 31
0.0
  0
LINE
  5
203
330
81
100
AcDbEntity
  8
0
  6
Continuous
 62
     7
100
AcDbLine
 10
0.24647843652649
 20
36.06726905054677
 30
0.0
 11
0.24647843652649
 21
30.90917690999832
 31
0.0
  0
LINE
  5
204
330
81
100
AcDbEntity
  8
0
  6
Continuous
 62
     7
100
AcDbLine
 10
1.5964784365537
 20
49.09517787460274
 30
0.0
 11
1.59647843655372
 21
45.28466609774317
 31
0.0
  0
LINE
  5
205
330
81
100
AcDbEntity
  8
0
  6
Continuous
 62
     7
100
AcDbLine
 10
0.19136335684448
 20
48.10935777097201
 30
0.0
 11
-1.98551485732926
 21
47.81771139121763
 31
0.0
  0
LINE
  5
206
330
81
100
AcDbEntity
  8
0
  6
Continuous
 62
     7
100
AcDbLine
 10
1.50470955661127
 20
40.0341760315271
 30
0.0
 11
-0.22734125095761
 21
42.26622683909598
 31
0.0
  0
LINE
  5
207
330
81
100
AcDbEntity
  8
0
  6
Continuous
 62
     7
100
AcDbLine
 10
1.50470955661127
 20
40.0341760315271
 30
0.0
 11
4.50470955661128
 21
42.63225224288041
 31
0.0
  0
LINE
  5
208
330
81
100
AcDbEntity
  8
0
  6
Continuous
 62
     7
100
AcDbLine
 10
-0.22734125095761
 20
42.26622683909598
 30
0.0
 11
-3.00352156347348
 21
43.06764106447096
 31
0.0
  0
LINE
  5
209
330
81
100
AcDbEntity
  8
0
  6
Continuous
 62
     7
100
AcDbLine
 10
3.42453342881419
 20
35.6205958434432
 30
0.0
 11
3.27630040073724
 21
37.357698296691
 31
0.0
  0
LINE
  5
20A
330
81
100
AcDbEntity
  8
0
  6
Continuous
 62
     2
100
AcDbLine
 10
3.42453342881419
 20
35.6205958434432
 30
0.0
 11
6.42453342881419
 21
38.21867205479651
 31
0.0
  0
LINE
  5
20B
330
81
100
AcDbEntity
  8
0
  6
Continuous
 62
     7
100
AcDbLine
 10
3.32049530633677
 20
35.32941616404284
 30
0.0
 11
6.32049530633677
 21
37.92749237539616
 31
0.0
  0
LINE
  5
20C
330
81
100
AcDbEntity
  8
0
  6
Continuous
 62
     7
100
AcDbLine
 10
-4.60352156350068
 20
49.09517787460275
 30
0.0
 11
-4.60352156350068
 21
45.28466609774318
 31
0.0
  0
LINE
  5
20D
330
81
100
AcDbEntity
  8
0
  6
Continuous
 62
     7
100
AcDbLine
 10
-4.50352156347348
 20
44.89415361389391
 30
0.0
 11
-4.5035215634735
 21
44.36667917014765
 31
0.0
  0
LINE
  5
20E
330
81
100
AcDbEntity
  8
0
  6
Continuous
 62
     7
100
AcDbLine
 10
-5.22565359229858
 20
44.57514073076395
 30
0.0
 11
-6.08416624467952
 21
44.82297198624136
 31
0.0
  0
LINE
  5
20F
330
81
100
AcDbEntity
  8
0
  6
Continuous
 62
     7
100
AcDbLine
 10
-5.97565359229858
 20
43.92562167792561
 30
0.0
 11
-4.5875891154721
 21
45.12772077694811
 31
0.0
  0
LINE
  5
210
330
81
100
AcDbEntity
  8
0
  6
Continuous
 62
     7
100
AcDbLine
 10
-5.97565359229858
 20
43.92562167792561
 30
0.0
 11
-6.31660691550329
 21
40.12693210736229
 31
0.0
  0
LINE
  5
211
330
81
100
AcDbEntity
  8
0
  6
Continuous
 62
     7
100
AcDbLine
 10
-3.00352156347348
 20
43.06764106447096
 30
0.0
 11
-5.97565359229858
 21
43.92562167792561
 31
0.0
  0
LINE
  5
212
330
81
100
AcDbEntity
  8
0
  6
Continuous
 62
     7
100
AcDbLine
 10
-8.91468542265996
 20
38.71186926064254
 30
0.0
 11
2.99316847098277
 21
35.27436793515986
 31
0.0
  0
SPLINE
  5
213
330
81
100
AcDbEntity
  8
0
  6
Continuous
 62
     7
100
AcDbSpline
210
0.0
220
0.0
230
1.0
 70
  1064
 71
     3
 72
    11
 73
     7
 74
     5
 42
0.000000001
 43
0.0000000001
 44
0.00000001
 40
0.0
 40
0.0
 40
0.0
 40
0.0
 40
0.0862437308408325
 40
0.1676508592890506
 40
0.2451285193528459
 40
0.3203867301193362
 40
0.3203867301193362
 40
0.3203867301193362
 40
0.3203867301193362
 10
6.424533428814193
 20
38.21867205479651
 30
0.0
 10
6.425474186261892
 20
38.18981973614626
 30
0.0
 10
6.427302928287427
 20
38.13373315538712
 30
0.0
 10
6.408233874856252
 20
38.05349718954589
 30
0.0
 10
6.374212311206782
 20
37.98192499551955
 30
0.0
 10
6.33822667238327
 20
37.94545995088752
 30
0.0
 10
6.320495306336767
 20
37.92749237539616
 30
0.0
 11
6.424533428814193
 21
38.21867205479651
 31
0.0
 11
6.423420436324872
 21
38.13243550551926
 31
0.0
 11
6.40511232733688
 21
38.05311379309887
 31
0.0
 11
6.370340703357016
 21
37.98387708039398
 31
0.0
 11
6.320495306336767
 21
37.92749237539616
 31
0.0
  0
SPLINE
  5
214
330
81
100
AcDbEntity
  8
0
  6
Continuous
 62
     7
100
AcDbSpline
210
0.0
220
0.0
230
1.0
 70
  1064
 71
     3
 72
    13
 73
     9
 74
     7
 42
0.000000001
 43
0.0000000001
 44
0.00000001
 40
0.0
 40
0.0
 40
0.0
 40
0.0
 40
0.1210298523050798
 40
0.2508393331382415
 40
0.3866640479553466
 40
0.524380940501065
 40
0.6594704102717126
 40
0.7879673977188124
 40
0.7879673977188124
 40
0.7879673977188124
 40
0.7879673977188124
 10
-9.346050380491356
 20
39.30714584344881
 30
0.0
 10
-9.346132751328433
 20
39.26657438451956
 30
0.0
 10
-9.346303453485012
 20
39.18248837255247
 30
0.0
 10
-9.304742089928359
 20
39.05841217896066
 30
0.0
 10
-9.237549394444034
 20
38.94111268164441
 30
0.0
 10
-9.145672397029005
 20
38.83948280043847
 30
0.0
 10
-9.03769471879324
 20
38.75774500977117
 30
0.0
 10
-8.954999098095909
 20
38.7269040546137
 30
0.0
 10
-8.914685422659957
 20
38.71186926064254
 30
0.0
 11
-9.346050380491356
 21
39.30714584344881
 31
0.0
 11
-9.339980845840294
 21
39.18626827606902
 31
0.0
 11
-9.301639706745469
 21
39.06225029694958
 31
0.0
 11
-9.23393575657312
 21
38.94450256236647
 31
0.0
 11
-9.142006950140761
 21
38.84195970511911
 31
0.0
 11
-9.032828563228762
 21
38.7624031524082
 31
0.0
 11
-8.914685422659957
 21
38.71186926064254
 31
0.0
  0
SPLINE
  5
215
330
81
100
AcDbEntity
  8
0
  6
Continuous
 62
     7
100
AcDbSpline
210
0.0
220
0.0
230
1.0
 70
  1064
 71
     3
 72
    11
 73
     7
 74
     5
 42
0.000000001
 43
0.0000000001
 44
0.00000001
 40
0.0
 40
0.0
 40
0.0
 40
0.0
 40
0.0805526799810235
 40
0.1638036380530401
 40
0.2517511792397156
 40
0.345321774450633
 40
0.345321774450633
 40
0.345321774450633
 40
0.345321774450633
 10
3.320495306336767
 20
35.32941616404284
 30
0.0
 10
3.298638984513827
 20
35.31349123122997
 30
0.0
 10
3.254194210509853
 20
35.28110793966106
 30
0.0
 10
3.171956974993141
 20
35.25814332519775
 30
0.0
 10
3.08292469938666
 20
35.25366983612323
 30
0.0
 10
3.023698778239135
 20
35.26732753484334
 30
0.0
 10
2.993168470982774
 20
35.27436793515986
 30
0.0
 11
3.320495306336767
 21
35.32941616404284
 31
0.0
 11
3.252734509090952
 21
35.28585920217134
 31
0.0
 11
3.173102398776077
 21
35.26158062107439
 31
0.0
 11
3.085240912124823
 21
35.25769094687918
 31
0.0
 11
2.993168470982774
 21
35.27436793515986
 31
0.0
  0
SPLINE
  5
216
330
81
100
AcDbEntity
  8
0
  6
Continuous
 62
     7
100
AcDbSpline
210
0.0
220
0.0
230
1.0
 70
  1064
 71
     3
 72
    15
 73
    11
 74
     9
 42
0.000000001
 43
0.0000000001
 44
0.00000001
 40
0.0
 40
0.0
 40
0.0
 40
0.0
 40
0.2341855806715348
 40
0.5082275010265718
 40
0.8401673699053346
 40
1.228363515640361
 40
1.659387119729452
 40
2.113300583734773
 40
2.567214048016615
 40
2.998237661362328
 40
2.998237661362328
 40
2.998237661362328
 40
2.998237661362328
 10
0.2464784365264876
 20
30.90917690999832
 30
0.0
 10
0.2331437993629382
 20
30.83076429210655
 30
0.0
 10
0.2042050739338815
 20
30.66059391911953
 30
0.0
 10
0.0035586572875038
 20
30.44757105244219
 30
0.0
 10
-0.2768890504559719
 20
30.27111523631054
 30
0.0
 10
-0.6397295228638443
 20
30.13720756855943
 30
0.0
 10
-1.056872060172656
 20
30.05289056563304
 30
0.0
 10
-1.503302788677395
 20
30.02535176303533
 30
0.0
 10
-1.951024046529076
 20
30.04987376848307
 30
0.0
 10
-2.238501025432236
 20
30.11814971906626
 30
0.0
 10
-2.378521563473477
 20
30.15140468168697
 30
0.0
 11
0.2464784365264876
 21
30.90917690999832
 31
0.0
 11
0.1868481818699084
 21
30.68271030591094
 31
0.0
 11
0.012022893149247
 21
30.47167690999833
 31
0.0
 11
-0.2660850263048671
 21
30.29045864141401
 31
0.0
 11
-0.628521563473516
 21
30.15140468168697
 31
0.0
 11
-1.050588355298739
 21
30.06399203732664
 31
0.0
 11
-1.503521563473498
 21
30.03417690999835
 31
0.0
 11
-1.95645477164826
 21
30.06399203732664
 31
0.0
 11
-2.378521563473477
 21
30.15140468168697
 31
0.0
  0
SPLINE
  5
217
330
81
100
AcDbEntity
  8
0
  6
Continuous
 62
     7
100
AcDbSpline
210
0.0
220
0.0
230
1.0
 70
  1064
 71
     3
 72
    11
 73
     7
 74
     5
 42
0.000000001
 43
0.0000000001
 44
0.00000001
 40
0.0
 40
0.0
 40
0.0
 40
0.0
 40
0.3881961509144579
 40
0.7201360152867171
 40
0.9941779317078618
 40
1.228363516760912
 40
1.228363516760912
 40
1.228363516760912
 40
1.228363516760912
 10
-2.378521563473477
 20
30.15140468168697
 30
0.0
 10
-2.501863647158476
 20
30.19260192978746
 30
0.0
 10
-2.730673424732559
 20
30.2690262476318
 30
0.0
 10
-3.010496942479794
 20
30.44799270554775
 30
0.0
 10
-3.211268218591548
 20
30.66051339111578
 30
0.0
 10
-3.240193241093675
 20
30.83073888989478
 30
0.0
 10
-3.253521563473463
 20
30.90917690999832
 30
0.0
 11
-2.378521563473477
 21
30.15140468168697
 31
0.0
 11
-2.740958100642113
 21
30.29045864141402
 31
0.0
 11
-3.019066020096226
 21
30.47167690999834
 31
0.0
 11
-3.193891308816884
 21
30.68271030591095
 31
0.0
 11
-3.253521563473463
 21
30.90917690999832
 31
0.0
  0
SPLINE
  5
218
330
81
100
AcDbEntity
  8
0
  6
Continuous
 62
     7
100
AcDbSpline
210
0.0
220
0.0
230
1.0
 70
  1064
 71
     3
 72
    15
 73
    11
 74
     9
 42
0.000000001
 43
0.0000000001
 44
0.00000001
 40
0.0
 40
0.0
 40
0.0
 40
0.0
 40
0.4778129533077239
 40
1.02449893261651
 40
1.622358349468233
 40
2.247282673191188
 40
2.872206996914141
 40
3.470066413765867
 40
4.016752393074652
 40
4.49456534638237
 40
4.49456534638237
 40
4.49456534638237
 40
4.49456534638237
 10
-3.646899201505065
 20
48.35932253882038
 30
0.0
 10
-3.510986964607017
 20
48.44331250874509
 30
0.0
 10
-3.219571788169134
 20
48.62339893203118
 30
0.0
 10
-2.700279515797281
 20
48.78954329292409
 30
0.0
 10
-2.120126290769856
 20
48.89970187202113
 30
0.0
 10
-1.503521563473489
 20
48.93561289274591
 30
0.0
 10
-0.8869168361771186
 20
48.89970187202115
 30
0.0
 10
-0.3067636111496965
 20
48.78954329292411
 30
0.0
 10
0.2125286612221556
 20
48.62339893203117
 30
0.0
 10
0.5039438376600378
 20
48.44331250874512
 30
0.0
 10
0.6398560745580824
 20
48.35932253882038
 30
0.0
 11
-3.646899201505065
 21
48.35932253882038
 31
0.0
 11
-3.23122064957678
 21
48.59494206171428
 31
0.0
 11
-2.71462689620467
 21
48.77381757064796
 31
0.0
 11
-2.127291484135418
 21
48.8855001683721
 31
0.0
 11
-1.503521563473488
 21
48.9234672030391
 31
0.0
 11
-0.8797516428115597
 21
48.88550016837211
 31
0.0
 11
-0.2924162307423046
 21
48.77381757064796
 31
0.0
 11
0.2241775226298035
 21
48.59494206171428
 31
0.0
 11
0.6398560745580824
 21
48.35932253882038
 31
0.0
  0
SPLINE
  5
219
330
81
100
AcDbEntity
  8
0
  6
Continuous
 62
     7
100
AcDbSpline
210
0.0
220
0.0
230
1.0
 70
  1064
 71
     3
 72
    19
 73
    15
 74
    13
 42
0.000000001
 43
0.0000000001
 44
0.00000001
 40
0.0
 40
0.0
 40
0.0
 40
0.0
 40
0.347932870577807
 40
0.7550808673843056
 40
1.248248673286469
 40
1.824997234394486
 40
2.465375163281378
 40
3.139760885034335
 40
3.814146606787295
 40
4.454524535674195
 40
5.031273096782211
 40
5.524440902684374
 40
5.931588899490865
 40
6.27952177006867
 40
6.27952177006867
 40
6.27952177006867
 40
6.27952177006867
 10
-4.103521563475674
 20
49.09517787460274
 30
0.0
 10
-4.083710153062121
 20
49.2116764165803
 30
0.0
 10
-4.040715585498373
 20
49.46450052424637
 30
0.0
 10
-3.742611326077731
 20
49.78099573810008
 30
0.0
 10
-3.325951195513548
 20
50.04313817974662
 30
0.0
 10
-2.786850363983326
 20
50.24218250764597
 30
0.0
 10
-2.167197645494263
 20
50.36703906924813
 30
0.0
 10
-1.503521563473487
 20
50.40961121282498
 30
0.0
 10
-0.8398454814527051
 20
50.36703906924814
 30
0.0
 10
-0.2201927629636435
 20
50.24218250764595
 30
0.0
 10
0.3189080685665868
 20
50.04313817974664
 30
0.0
 10
0.7355681991307534
 20
49.78099573810005
 30
0.0
 10
1.033672458551405
 20
49.4645005242464
 30
0.0
 10
1.076667026115143
 20
49.2116764165803
 30
0.0
 10
1.096478436528692
 20
49.09517787460274
 30
0.0
 11
-4.103521563475674
 21
49.09517787460274
 31
0.0
 11
-4.014928042271545
 21
49.43164254353286
 31
0.0
 11
-3.75518761331492
 21
49.7451778746033
 31
0.0
 11
-3.341998704411308
 21
50.01441644507167
 31
0.0
 11
-2.803521563474571
 21
50.22101089952346
 31
0.0
 11
-2.176450901333713
 21
50.35088111400177
 31
0.0
 11
-1.503521563473488
 21
50.39517787460383
 31
0.0
 11
-0.8305922256132574
 21
50.35088111400177
 31
0.0
 11
-0.2035215634723926
 21
50.22101089952346
 31
0.0
 11
0.3349555774643429
 21
50.01441644507167
 31
0.0
 11
0.7481444863679485
 21
49.74517787460329
 31
0.0
 11
1.007884915324571
 21
49.43164254353286
 31
0.0
 11
1.096478436528692
 21
49.09517787460274
 31
0.0
  0
SPLINE
  5
21A
330
81
100
AcDbEntity
  8
0
  6
Continuous
 62
     7
100
AcDbSpline
210
0.0
220
0.0
230
1.0
 70
  1064
 71
     3
 72
    11
 73
     7
 74
     5
 42
0.000000001
 43
0.0000000001
 44
0.00000001
 40
0.0
 40
0.0
 40
0.0
 40
0.0
 40
0.5476370686123098
 40
1.016201666429107
 40
1.40527300105484
 40
1.740564117506485
 40
1.740564117506485
 40
1.740564117506485
 40
1.740564117506485
 10
-2.884973385659954
 20
47.99386151871437
 30
0.0
 10
-3.057592329071618
 20
48.05588650194429
 30
0.0
 10
-3.37790602837034
 20
48.17098078731284
 30
0.0
 10
-3.76797108851126
 20
48.43278479613921
 30
0.0
 10
-4.045706110282163
 20
48.74019178366476
 30
0.0
 10
-4.08522784591994
 20
48.98285467038048
 30
0.0
 10
-4.103521563475674
 20
49.09517787460274
 30
0.0
 11
-2.884973385659954
 21
47.99386151871437
 31
0.0
 11
-3.391723368463054
 21
48.20149294248156
 31
0.0
 11
-3.778579226226146
 21
48.4658701932652
 31
0.0
 11
-4.020975084695554
 21
48.77020677725166
 31
0.0
 11
-4.103521563475674
 21
49.09517787460274
 31
0.0
  0
SPLINE
  5
21B
330
81
100
AcDbEntity
  8
0
  6
Continuous
 62
     7
100
AcDbSpline
210
0.0
220
0.0
230
1.0
 70
  1064
 71
     3
 72
    15
 73
    11
 74
     9
 42
0.000000001
 43
0.0000000001
 44
0.00000001
 40
0.0
 40
0.0
 40
0.0
 40
0.0
 40
0.401461001297376
 40
0.8712471526340457
 40
1.440286926973118
 40
2.105766033604337
 40
2.84466364050961
 40
3.622801007438661
 40
4.40093837464423
 40
5.139835990806112
 40
5.139835990806112
 40
5.139835990806112
 40
5.139835990806112
 10
1.496478436526516
 20
44.36667917014762
 30
0.0
 10
1.473619058198163
 20
44.23225753751375
 30
0.0
 10
1.424009822981344
 20
43.94053689167443
 30
0.0
 10
1.080044518984143
 20
43.57535484467714
 30
0.0
 10
0.5992770241363155
 20
43.27285915757141
 30
0.0
 10
-0.0227352157285849
 20
43.04330315761955
 30
0.0
 10
-0.7378367076766885
 20
42.89875972373076
 30
0.0
 10
-1.503146527876359
 20
42.85155034879848
 30
0.0
 10
-2.270668682450443
 20
42.89358806728912
 30
0.0
 10
-2.763486357584674
 20
43.01063255763934
 30
0.0
 10
-3.003521563473484
 20
43.06764106447096
 30
0.0
 11
1.496478436526516
 21
44.36667917014762
 31
0.0
 11
1.394255142829523
 21
43.97845070599782
 31
0.0
 11
1.094554647879818
 21
43.61667917014762
 31
0.0
 11
0.6177982145299024
 21
43.30601928114592
 31
0.0
 11
-0.0035215634735017
 21
43.06764106447098
 31
0.0
 11
-0.7270646351738916
 21
42.91779081699612
 31
0.0
 11
-1.503521563473502
 21
42.86667917014762
 31
0.0
 11
-2.27997849177311
 21
42.91779081699612
 31
0.0
 11
-3.003521563473484
 21
43.06764106447096
 31
0.0
  0
SPLINE
  5
21C
330
81
100
AcDbEntity
  8
0
  6
Continuous
 62
     7
100
AcDbSpline
210
0.0
220
0.0
230
1.0
 70
  1064
 71
     3
 72
    15
 73
    11
 74
     9
 42
0.000000001
 43
0.0000000001
 44
0.00000001
 40
0.0
 40
0.0
 40
0.0
 40
0.0
 40
0.4224028564517495
 40
0.9187806719756568
 40
1.521680704003098
 40
2.226846137237719
 40
3.008273085063042
 40
3.828134464924205
 40
4.643509169763427
 40
5.412047691172324
 40
5.412047691172324
 40
5.412047691172324
 40
5.412047691172324
 10
1.596478436553703
 20
49.09517787460274
 30
0.0
 10
1.571926317545585
 20
48.95376144123527
 30
0.0
 10
1.518522280967011
 20
48.64616247157305
 30
0.0
 10
1.150547465665278
 20
48.26397484509071
 30
0.0
 10
0.638263704776826
 20
47.94931493421385
 30
0.0
 10
-0.0230166571140142
 20
47.71344184376574
 30
0.0
 10
-0.780426733811401
 20
47.56921385611435
 30
0.0
 10
-1.586814284259954
 20
47.52962605332145
 30
0.0
 10
-2.390190503210605
 20
47.58503204179951
 30
0.0
 10
-2.902201675938148
 20
47.71769826289151
 30
0.0
 10
-3.150637197631966
 20
47.78206991180235
 30
0.0
 11
1.596478436553703
 21
49.09517787460274
 31
0.0
 11
1.487148836376199
 21
48.68716902834817
 31
0.0
 11
1.166875037579068
 21
48.30793871252182
 31
0.0
 11
0.6582442112297646
 21
47.9842364888462
 31
0.0
 11
-0.0028647848874393
 21
47.73889349872021
 31
0.0
 11
-0.7698229459111181
 21
47.58921633345933
 31
0.0
 11
-1.588531867205067
 21
47.54576078675745
 31
0.0
 11
-2.401244567519756
 21
47.61159372439159
 31
0.0
 11
-3.150637197631966
 21
47.78206991180235
 31
0.0
  0
SPLINE
  5
21D
330
81
100
AcDbEntity
  8
0
  6
Continuous
 62
     7
100
AcDbSpline
210
0.0
220
0.0
230
1.0
 70
  1064
 71
     3
 72
    15
 73
    11
 74
     9
 42
0.000000001
 43
0.0000000001
 44
0.00000001
 40
0.0
 40
0.0
 40
0.0
 40
0.0
 40
0.3542733621443567
 40
0.7705902392071493
 40
1.276248330780748
 40
1.867677403889076
 40
2.52306774724459
 40
3.210693420655572
 40
3.894556076357486
 40
4.539136773233231
 40
4.539136773233231
 40
4.539136773233231
 40
4.539136773233231
 10
1.096478436528692
 20
49.09517787460274
 30
0.0
 10
1.075886336792814
 20
48.97657054383701
 30
0.0
 10
1.03109585262191
 20
48.71858431268075
 30
0.0
 10
0.7224718181253033
 20
48.39803984940141
 30
0.0
 10
0.2928144693276951
 20
48.13413153760713
 30
0.0
 10
-0.2618077693438096
 20
47.93630249356858
 30
0.0
 10
-0.8970549305710238
 20
47.81533708464779
 30
0.0
 10
-1.573379972906169
 20
47.78213441111188
 30
0.0
 10
-2.247179382707447
 20
47.82860395105868
 30
0.0
 10
-2.676608108915562
 20
47.93987239369572
 30
0.0
 10
-2.884973385659954
 20
47.99386151871437
 30
0.0
 11
1.096478436528692
 21
49.09517787460274
 31
0.0
 11
1.004782642832159
 21
48.75297690677904
 31
0.0
 11
0.7361659083592791
 21
48.43491277092721
 31
0.0
 11
0.3095723120696943
 21
48.16342058333046
 31
0.0
 11
-0.244906200798404
 21
47.95764904322643
 31
0.0
 11
-0.8881614326196081
 21
47.83211335623443
 31
0.0
 11
-1.574820527892953
 21
47.79566676867829
 31
0.0
 11
-2.256450534603091
 21
47.85088149056455
 31
0.0
 11
-2.884973385659954
 21
47.99386151871437
 31
0.0
  0
SPLINE
  5
21E
330
81
100
AcDbEntity
  8
0
  6
Continuous
 62
     7
100
AcDbSpline
210
0.0
220
0.0
230
1.0
 70
  1064
 71
     3
 72
    19
 73
    15
 74
    13
 42
0.000000001
 43
0.0000000001
 44
0.00000001
 40
0.0
 40
0.0
 40
0.0
 40
0.0
 40
0.4148430388314909
 40
0.9002887280345475
 40
1.488296496125573
 40
2.175958241597612
 40
2.939485771617146
 40
3.743561054546085
 40
4.547636337475014
 40
5.31116386749454
 40
5.998825612966574
 40
6.586833381057602
 40
7.072279070260656
 40
7.487122109092144
 40
7.487122109092144
 40
7.487122109092144
 40
7.487122109092144
 10
-4.603521563500678
 20
49.09517787460275
 30
0.0
 10
-4.579900266421597
 20
49.23407998262477
 30
0.0
 10
-4.528637516211472
 20
49.53552411294447
 30
0.0
 10
-4.173205508091987
 20
49.91288378682533
 30
0.0
 10
-3.67641843138396
 20
50.22543823769357
 30
0.0
 10
-3.033644362716553
 20
50.46276032006607
 30
0.0
 10
-2.29482766065414
 20
50.61162775874286
 30
0.0
 10
-1.503521563473477
 20
50.66238685281368
 30
0.0
 10
-0.7122154662928155
 20
50.61162775874284
 30
0.0
 10
0.0266012357695883
 20
50.46276032006605
 30
0.0
 10
0.6693753044369977
 20
50.22543823769357
 30
0.0
 10
1.166162381145013
 20
49.9128837868253
 30
0.0
 10
1.521594389264512
 20
49.53552411294448
 30
0.0
 10
1.572857139474626
 20
49.23407998262476
 30
0.0
 10
1.596478436553703
 20
49.09517787460274
 30
0.0
 11
-4.603521563500678
 21
49.09517787460275
 31
0.0
 11
-4.497890826679531
 21
49.49634728756107
 31
0.0
 11
-4.188200315228794
 21
49.87017787460955
 31
0.0
 11
-3.695552000762895
 21
50.19119309324746
 31
0.0
 11
-3.053521563487081
 21
50.43751725048041
 31
0.0
 11
-2.305860389390115
 21
50.59236250620578
 31
0.0
 11
-1.503521563473473
 21
50.64517787461635
 31
0.0
 11
-0.7011827375568416
 21
50.59236250620577
 31
0.0
 11
0.0464784365401165
 21
50.4375172504804
 31
0.0
 11
0.6885088738159277
 21
50.19119309324746
 31
0.0
 11
1.181157188281826
 21
49.87017787460954
 31
0.0
 11
1.490847699732567
 21
49.49634728756106
 31
0.0
 11
1.596478436553703
 21
49.09517787460274
 31
0.0
  0
SPLINE
  5
21F
330
81
100
AcDbEntity
  8
0
  6
Continuous
 62
     7
100
AcDbSpline
210
0.0
220
0.0
230
1.0
 70
  1064
 71
     3
 72
    15
 73
    11
 74
     9
 42
0.000000001
 43
0.0000000001
 44
0.00000001
 40
0.0
 40
0.0
 40
0.0
 40
0.0
 40
0.4224028564517571
 40
0.9187806719756593
 40
1.521680704003101
 40
2.226846137237724
 40
3.008273085063047
 40
3.828134464924213
 40
4.643509169763432
 40
5.412047691172336
 40
5.412047691172336
 40
5.412047691172336
 40
5.412047691172336
 10
1.596478436553717
 20
45.28466609774317
 30
0.0
 10
1.571926317545599
 20
45.14324966437569
 30
0.0
 10
1.518522280967025
 20
44.83565069471347
 30
0.0
 10
1.150547465665286
 20
44.45346306823114
 30
0.0
 10
0.638263704776836
 20
44.13880315735427
 30
0.0
 10
-0.0230166571140056
 20
43.90293006690618
 30
0.0
 10
-0.7804267338113959
 20
43.75870207925478
 30
0.0
 10
-1.586814284259947
 20
43.71911427646188
 30
0.0
 10
-2.390190503210603
 20
43.77452026493991
 30
0.0
 10
-2.902201675938146
 20
43.90718648603192
 30
0.0
 10
-3.150637197631966
 20
43.97155813494277
 30
0.0
 11
1.596478436553717
 21
45.28466609774317
 31
0.0
 11
1.48714883637621
 21
44.87665725148859
 31
0.0
 11
1.166875037579079
 21
44.49742693566225
 31
0.0
 11
0.6582442112297748
 21
44.17372471198663
 31
0.0
 11
-0.0028647848874322
 21
43.92838172186064
 31
0.0
 11
-0.769822945911111
 21
43.77870455659977
 31
0.0
 11
-1.588531867205063
 21
43.73524900989787
 31
0.0
 11
-2.40124456751975
 21
43.801081947532
 31
0.0
 11
-3.150637197631966
 21
43.97155813494277
 31
0.0
  0
SPLINE
  5
220
330
81
100
AcDbEntity
  8
0
  6
Continuous
 62
     7
100
AcDbSpline
210
0.0
220
0.0
230
1.0
 70
  1064
 71
     3
 72
    11
 73
     7
 74
     5
 42
0.000000001
 43
0.0000000001
 44
0.00000001
 40
0.0
 40
0.0
 40
0.0
 40
0.0
 40
0.0862437308408327
 40
0.1676508592890647
 40
0.2451285193528699
 40
0.3203867301193425
 40
0.3203867301193425
 40
0.3203867301193425
 40
0.3203867301193425
 10
3.424533428814193
 20
35.6205958434432
 30
0.0
 10
3.425474186261886
 20
35.59174352479295
 30
0.0
 10
3.427302928287411
 20
35.53565694403378
 30
0.0
 10
3.408233874856245
 20
35.4554209781926
 30
0.0
 10
3.374212311206765
 20
35.38384878416622
 30
0.0
 10
3.33822667238326
 20
35.3473837395342
 30
0.0
 10
3.320495306336767
 20
35.32941616404284
 30
0.0
 11
3.424533428814193
 21
35.6205958434432
 31
0.0
 11
3.423420436324862
 21
35.53435929416595
 31
0.0
 11
3.40511232733687
 21
35.45503758174555
 31
0.0
 11
3.370340703356997
 21
35.38580086904065
 31
0.0
 11
3.320495306336767
 21
35.32941616404284
 31
0.0
  0
SPLINE
  5
221
330
81
100
AcDbEntity
  8
0
  6
Continuous
 62
     7
100
AcDbSpline
210
0.0
220
0.0
230
1.0
 70
  1064
 71
     3
 72
    11
 73
     7
 74
     5
 42
0.000000001
 43
0.0000000001
 44
0.00000001
 40
0.0
 40
0.0
 40
0.0
 40
0.0
 40
0.6529518885015947
 40
1.211625063460212
 40
1.675517809861953
 40
2.075287987890144
 40
2.075287987890144
 40
2.075287987890144
 40
2.075287987890144
 10
-3.150637197631966
 20
43.97155813494277
 30
0.0
 10
-3.356452091385237
 20
44.04551099945006
 30
0.0
 10
-3.738364579821639
 20
44.18273879918112
 30
0.0
 10
-4.203442151200862
 20
44.49488973342291
 30
0.0
 10
-4.534587756516343
 20
44.86141344919282
 30
0.0
 10
-4.581709823298768
 20
45.15074227708298
 30
0.0
 10
-4.603521563500678
 20
45.28466609774318
 30
0.0
 11
-3.150637197631966
 21
43.97155813494277
 31
0.0
 11
-3.754839100209676
 21
44.21911867866714
 31
0.0
 11
-4.21609031523856
 21
44.53433770845014
 31
0.0
 11
-4.505100761877451
 21
44.89720055859073
 31
0.0
 11
-4.603521563500678
 21
45.28466609774318
 31
0.0
  0
SPLINE
  5
222
330
81
100
AcDbEntity
  8
0
  6
Continuous
 62
     7
100
AcDbSpline
210
0.0
220
0.0
230
1.0
 70
  1064
 71
     3
 72
    11
 73
     7
 74
     5
 42
0.000000001
 43
0.0000000001
 44
0.00000001
 40
0.0
 40
0.0
 40
0.0
 40
0.0
 40
0.6654791118106779
 40
1.234518881643251
 40
1.704305029046042
 40
2.10576603472494
 40
2.10576603472494
 40
2.10576603472494
 40
2.10576603472494
 10
-3.003521563473484
 20
43.06764106447096
 30
0.0
 10
-3.214965134220426
 20
43.1382649179285
 30
0.0
 10
-3.607210469820576
 20
43.26927802681057
 30
0.0
 10
-4.086907927649829
 20
43.57607767110416
 30
0.0
 10
-4.431087267541438
 20
43.94039884565673
 30
0.0
 10
-4.48067301066702
 20
44.23221399191263
 30
0.0
 10
-4.503521563473498
 20
44.36667917014765
 30
0.0
 11
-3.003521563473484
 21
43.06764106447096
 31
0.0
 11
-3.624841341476904
 21
43.30601928114592
 31
0.0
 11
-4.101597774826821
 21
43.61667917014763
 31
0.0
 11
-4.401298269776518
 21
43.97845070599784
 31
0.0
 11
-4.503521563473498
 21
44.36667917014765
 31
0.0
  0
SPLINE
  5
223
330
81
100
AcDbEntity
  8
0
  6
Continuous
 62
     7
100
AcDbSpline
210
0.0
220
0.0
230
1.0
 70
  1064
 71
     3
 72
    11
 73
     7
 74
     5
 42
0.000000001
 43
0.0000000001
 44
0.00000001
 40
0.0
 40
0.0
 40
0.0
 40
0.0
 40
0.6529518885015947
 40
1.211625063460216
 40
1.675517809861946
 40
2.07528798789013
 40
2.07528798789013
 40
2.07528798789013
 40
2.07528798789013
 10
-3.150637197631966
 20
47.78206991180235
 30
0.0
 10
-3.356452091385238
 20
47.85602277630963
 30
0.0
 10
-3.738364579821643
 20
47.99325057604071
 30
0.0
 10
-4.203442151200854
 20
48.3054015102825
 30
0.0
 10
-4.534587756516345
 20
48.67192522605239
 30
0.0
 10
-4.581709823298767
 20
48.96125405394254
 30
0.0
 10
-4.603521563500678
 20
49.09517787460275
 30
0.0
 11
-3.150637197631966
 21
47.78206991180235
 31
0.0
 11
-3.754839100209676
 21
48.02963045552673
 31
0.0
 11
-4.21609031523856
 21
48.34484948530973
 31
0.0
 11
-4.505100761877451
 21
48.7077123354503
 31
0.0
 11
-4.603521563500678
 21
49.09517787460275
 31
0.0
  0
ENDBLK
  5
83
330
81
100
AcDbEntity
  8
0
100
AcDbBlockEnd
  0
BLOCK
  5
86
330
84
100
AcDbEntity
  8
0
100
AcDbBlockBegin
  2
AllgSicht1
 70
     0
 10
-1.49999997559991
 20
39.99999999299098
 30
0.0
  3
AllgSicht1
  1

  0
INSERT
  5
85
330
84
100
AcDbEntity
  8
0
100
AcDbBlockReference
  2
GS-GSK_S-select__1
 10
-9.35304762481054
 20
30.03417690999835
 30
0.0
  0
MTEXT
  5
224
330
84
100
AcDbEntity
  8
1
 62
     6
100
AcDbMText
 10
-1.46123773222983
 20
27.52034194523512
 30
0.0
 40
2.5
 41
0.0
 71
     2
 72
     1
  1
 
  7
CONVERTER_11
 73
     1
 44
1.32052821128451
  0
ENDBLK
  5
87
330
84
100
AcDbEntity
  8
0
100
AcDbBlockEnd
  0
BLOCK
  5
89
330
88
100
AcDbEntity
  8
0
100
AcDbBlockBegin
  2
GS-GSK_S-select__2
 70
     0
 10
-60.04436304194713
 20
31.59750124506476
 30
0.0
  3
GS-GSK_S-select__2
  1

  0
LINE
  5
225
330
88
100
AcDbEntity
  8
0
  6
Continuous
 62
     7
100
AcDbLine
 10
-53.49976391899514
 20
31.69750124509194
 30
0.0
 11
-56.15066140511511
 21
31.69750124509194
 31
0.0
  0
LINE
  5
226
330
88
100
AcDbEntity
  8
0
  6
Continuous
 62
     7
100
AcDbLine
 10
-45.29626039097052
 20
31.69750124509194
 30
0.0
 11
-45.2943577400164
 21
31.69750124509194
 31
0.0
  0
LINE
  5
227
330
88
100
AcDbEntity
  8
0
  6
Continuous
 62
     7
100
AcDbLine
 10
-51.26813048662138
 20
36.85521649095367
 30
0.0
 11
-54.87645419715829
 21
33.24689278041679
 31
0.0
  0
LINE
  5
228
330
88
100
AcDbEntity
  8
0
  6
Continuous
 62
     7
100
AcDbLine
 10
-49.51308204979657
 20
31.69750124509194
 30
0.0
 11
-49.51308204979657
 21
37.69750124509194
 31
0.0
  0
LINE
  5
229
330
88
100
AcDbEntity
  8
0
  6
Continuous
 62
     7
100
AcDbLine
 10
-54.16934741597172
 20
32.53978599923023
 30
0.0
 11
-50.56102370543483
 21
36.14810970976713
 31
0.0
  0
LINE
  5
22A
330
88
100
AcDbEntity
  8
0
  6
Continuous
 62
     2
100
AcDbLine
 10
-45.29626039097052
 20
31.69750124509194
 30
0.0
 11
-45.29626039097052
 21
37.69750124509194
 31
0.0
  0
LINE
  5
22B
330
88
100
AcDbEntity
  8
0
  6
Continuous
 62
     7
100
AcDbLine
 10
-45.29626039097052
 20
31.69750124509194
 30
0.0
 11
-45.46742514829656
 21
31.69750124509194
 31
0.0
  0
LINE
  5
22C
330
88
100
AcDbEntity
  8
0
  6
Continuous
 62
     7
100
AcDbLine
 10
-45.29626039097052
 20
37.69750124509194
 30
0.0
 11
-45.46742514829656
 21
37.69750124509194
 31
0.0
  0
LINE
  5
22D
330
88
100
AcDbEntity
  8
0
  6
Continuous
 62
     7
100
AcDbLine
 10
-45.46742514829656
 20
31.69750124509194
 30
0.0
 11
-47.29436039098176
 21
31.69750124509194
 31
0.0
  0
LINE
  5
22E
330
88
100
AcDbEntity
  8
0
  6
Continuous
 62
     7
100
AcDbLine
 10
-45.46742514829656
 20
37.69750124509194
 30
0.0
 11
-47.29436039098176
 21
37.69750124509194
 31
0.0
  0
LINE
  5
22F
330
88
100
AcDbEntity
  8
0
  6
Continuous
 62
     7
100
AcDbLine
 10
-47.29436039098176
 20
31.69750124509194
 30
0.0
 11
-47.51308204979657
 21
31.69750124509194
 31
0.0
  0
LINE
  5
230
330
88
100
AcDbEntity
  8
0
  6
Continuous
 62
     7
100
AcDbLine
 10
-47.29436039098176
 20
37.69750124509194
 30
0.0
 11
-47.51308204979657
 21
37.69750124509194
 31
0.0
  0
LINE
  5
231
330
88
100
AcDbEntity
  8
0
  6
Continuous
 62
     7
100
AcDbLine
 10
-49.51308204979657
 20
37.69750124509194
 30
0.0
 11
-51.93771398359794
 21
37.69750124509194
 31
0.0
  0
LINE
  5
232
330
88
100
AcDbEntity
  8
0
  6
Continuous
 62
     7
100
AcDbLine
 10
-47.51308204979657
 20
31.69750124509194
 30
0.0
 11
-49.51308204979657
 21
31.69750124509194
 31
0.0
  0
LINE
  5
233
330
88
100
AcDbEntity
  8
0
  6
Continuous
 62
     7
100
AcDbLine
 10
-47.51308204979657
 20
37.69750124509194
 30
0.0
 11
-49.51308204979657
 21
37.69750124509194
 31
0.0
  0
LINE
  5
234
330
88
100
AcDbEntity
  8
0
  6
Continuous
 62
     7
100
AcDbLine
 10
-49.51308204979657
 20
31.69750124509194
 30
0.0
 11
-51.93771398359798
 21
31.69750124509194
 31
0.0
  0
LINE
  5
235
330
88
100
AcDbEntity
  8
0
  6
Continuous
 62
     7
100
AcDbLine
 10
-47.51308204979657
 20
31.69750124509194
 30
0.0
 11
-47.51308204979657
 21
37.69750124509194
 31
0.0
  0
LINE
  5
236
330
88
100
AcDbEntity
  8
0
  6
Continuous
 62
     7
100
AcDbLine
 10
-47.29436039098176
 20
31.69750124509194
 30
0.0
 11
-47.29436039098176
 21
37.69750124509194
 31
0.0
  0
LINE
  5
237
330
88
100
AcDbEntity
  8
0
  6
Continuous
 62
     7
100
AcDbLine
 10
-45.46742514829656
 20
31.69750124509194
 30
0.0
 11
-45.46742514829656
 21
37.69750124509194
 31
0.0
  0
LINE
  5
238
330
88
100
AcDbEntity
  8
0
  6
Continuous
 62
     7
100
AcDbLine
 10
-56.15066140511511
 20
31.69750124509194
 30
0.0
 11
-56.54436039098176
 21
31.69750124509194
 31
0.0
  0
LINE
  5
239
330
88
100
AcDbEntity
  8
0
  6
Continuous
 62
     7
100
AcDbLine
 10
-56.54436039098176
 20
31.69750124509194
 30
0.0
 11
-58.04436039098176
 21
31.69750124509194
 31
0.0
  0
LINE
  5
23A
330
88
100
AcDbEntity
  8
0
  6
Continuous
 62
     7
100
AcDbLine
 10
-56.54436039098176
 20
31.69750124509194
 30
0.0
 11
-56.54436039098176
 21
37.69750124509194
 31
0.0
  0
LINE
  5
23B
330
88
100
AcDbEntity
  8
0
  6
Continuous
 62
     7
100
AcDbLine
 10
-58.04436039098176
 20
31.69750124509194
 30
0.0
 11
-59.74006263837809
 21
31.69750124509194
 31
0.0
  0
LINE
  5
23C
330
88
100
AcDbEntity
  8
0
  6
Continuous
 62
     7
100
AcDbLine
 10
-58.04436039098176
 20
37.69750124509194
 30
0.0
 11
-59.74006263837809
 21
37.69750124509194
 31
0.0
  0
LINE
  5
23D
330
88
100
AcDbEntity
  8
0
  6
Continuous
 62
     7
100
AcDbLine
 10
-58.04436039098176
 20
31.69750124509194
 30
0.0
 11
-58.04436039098176
 21
37.69750124509194
 31
0.0
  0
LINE
  5
23E
330
88
100
AcDbEntity
  8
0
  6
Continuous
 62
     7
100
AcDbLine
 10
-59.74006263837809
 20
31.69750124509194
 30
0.0
 11
-59.74006263837809
 21
37.69750124509194
 31
0.0
  0
LINE
  5
23F
330
88
100
AcDbEntity
  8
0
  6
Continuous
 62
     7
100
AcDbLine
 10
-53.49976391899518
 20
37.69750124509194
 30
0.0
 11
-56.15066140511511
 21
37.69750124509194
 31
0.0
  0
LINE
  5
240
330
88
100
AcDbEntity
  8
0
  6
Continuous
 62
     7
100
AcDbLine
 10
-45.29626039097052
 20
37.69750124509194
 30
0.0
 11
-45.2943577400164
 21
37.69750124509194
 31
0.0
  0
LINE
  5
241
330
88
100
AcDbEntity
  8
0
  6
Continuous
 62
     7
100
AcDbLine
 10
-56.15066140511511
 20
31.69750124509194
 30
0.0
 11
-56.15066140511511
 21
37.69750124509194
 31
0.0
  0
LINE
  5
242
330
88
100
AcDbEntity
  8
0
  6
Continuous
 62
     7
100
AcDbLine
 10
-45.2943577400164
 20
31.69750124509194
 30
0.0
 11
-45.2943577400164
 21
37.69750124509194
 31
0.0
  0
LINE
  5
243
330
88
100
AcDbEntity
  8
0
  6
Continuous
 62
     7
100
AcDbLine
 10
-56.15066140511511
 20
37.69750124509194
 30
0.0
 11
-56.54436039098176
 21
37.69750124509194
 31
0.0
  0
LINE
  5
244
330
88
100
AcDbEntity
  8
0
  6
Continuous
 62
     7
100
AcDbLine
 10
-56.54436039098176
 20
37.69750124509194
 30
0.0
 11
-58.04436039098176
 21
37.69750124509194
 31
0.0
  0
LINE
  5
245
330
88
100
AcDbEntity
  8
0
  6
Continuous
 62
     7
100
AcDbLine
 10
-60.04246039099301
 20
37.69750124509194
 30
0.0
 11
-60.04436304194713
 21
37.69750124509194
 31
0.0
  0
LINE
  5
246
330
88
100
AcDbEntity
  8
0
  6
Continuous
 62
     7
100
AcDbLine
 10
-60.04246039099301
 20
31.69750124509194
 30
0.0
 11
-60.04436304194713
 21
31.69750124509194
 31
0.0
  0
LINE
  5
247
330
88
100
AcDbEntity
  8
0
  6
Continuous
 62
     7
100
AcDbLine
 10
-59.74006263837809
 20
31.69750124509194
 30
0.0
 11
-60.04246039099301
 21
31.69750124509194
 31
0.0
  0
LINE
  5
248
330
88
100
AcDbEntity
  8
0
  6
Continuous
 62
     7
100
AcDbLine
 10
-59.74006263837809
 20
37.69750124509194
 30
0.0
 11
-60.04246039099301
 21
37.69750124509194
 31
0.0
  0
LINE
  5
249
330
88
100
AcDbEntity
  8
0
  6
Continuous
 62
     2
100
AcDbLine
 10
-60.04246039099301
 20
31.69750124509194
 30
0.0
 11
-60.04246039099301
 21
37.69750124509194
 31
0.0
  0
LINE
  5
24A
330
88
100
AcDbEntity
  8
0
  6
Continuous
 62
     7
100
AcDbLine
 10
-60.04436304194713
 20
37.69750124509194
 30
0.0
 11
-60.04436304194713
 21
31.69750124509194
 31
0.0
  0
LINE
  5
24B
330
88
100
AcDbEntity
  8
1
  6
DOT_CENTER
 62
     2
100
AcDbLine
 10
-49.30873895126666
 20
34.69750124509194
 30
0.0
 11
-56.12873895132645
 21
34.69750124509194
 31
0.0
  0
LINE
  5
24C
330
88
100
AcDbEntity
  8
1
  6
DOT_CENTER
 62
     2
100
AcDbLine
 10
-52.71873895129655
 20
38.10750124512184
 30
0.0
 11
-52.71873895129655
 21
31.28750124506205
 31
0.0
  0
ARC
  5
24D
330
88
100
AcDbEntity
  8
0
  6
Continuous
 62
     7
100
AcDbCircle
 10
-52.71873895129655
 20
34.69750124509194
 30
0.0
 40
2.600000000002187
100
AcDbArc
 50
213.9125107890382
 51
236.0874892109611
  0
ARC
  5
24E
330
88
100
AcDbEntity
  8
0
  6
Continuous
 62
     7
100
AcDbCircle
 10
-52.71873895129655
 20
34.69750124509194
 30
0.0
 40
2.600000000002175
100
AcDbArc
 50
236.0874892109611
 51
267.9047990136395
  0
ARC
  5
24F
330
88
100
AcDbEntity
  8
0
  6
Continuous
 62
     7
100
AcDbCircle
 10
-52.71873895129655
 20
34.69750124509194
 30
0.0
 40
2.60000000000217
100
AcDbArc
 50
267.9047990136395
 51
33.91251078903899
  0
ARC
  5
250
330
88
100
AcDbEntity
  8
0
  6
Continuous
 62
     7
100
AcDbCircle
 10
-52.71873895129655
 20
34.69750124509194
 30
0.0
 40
2.600000000002195
100
AcDbArc
 50
33.91251078903899
 51
56.08748921096135
  0
ARC
  5
251
330
88
100
AcDbEntity
  8
0
  6
Continuous
 62
     7
100
AcDbCircle
 10
-52.71873895129655
 20
34.69750124509194
 30
0.0
 40
2.600000000002193
100
AcDbArc
 50
56.08748921096135
 51
213.9125107890382
  0
CIRCLE
  5
252
330
88
100
AcDbEntity
  8
0
  6
Continuous
 62
     7
100
AcDbCircle
 10
-52.71873895129655
 20
34.69750124509194
 30
0.0
 40
3.100000000027181
  0
ENDBLK
  5
8A
330
88
100
AcDbEntity
  8
0
100
AcDbBlockEnd
  0
BLOCK
  5
8D
330
8B
100
AcDbEntity
  8
0
100
AcDbBlockBegin
  2
Drfsicht1
 70
     0
 10
-52.71467259984333
 20
34.69750129352072
 30
0.0
  3
Drfsicht1
  1

  0
INSERT
  5
8C
330
8B
100
AcDbEntity
  8
0
100
AcDbBlockReference
  2
GS-GSK_S-select__2
 10
-60.04436304194713
 20
31.59750124506476
 30
0.0
  0
MTEXT
  5
253
330
8B
100
AcDbEntity
  8
1
 62
     6
100
AcDbMText
 10
-47.83565713483667
 20
28.78750124506205
 30
0.0
 40
2.5
 41
0.0
 71
     2
 72
     1
  1
 
  7
CONVERTER_11
 73
     1
 44
1.32052821128451
  0
DIMENSION
  5
25E
330
8B
100
AcDbEntity
  8
1
100
AcDbDimension
  2
*D17
 10
-67.156019000727
 20
31.69750124509194
 30
0.0
 11
-69.031019000727
 21
34.7549527729596
 31
0.0
 70
    32
  1
<>
 71
     5
 42
-1.0
 53
90.0
  3
ME10_DIM_10
100
AcDbAlignedDimension
 13
-58.04436039098176
 23
37.69750124509194
 33
0.0
 14
-58.04436039098176
 24
31.69750124509194
 34
0.0
 50
90.0
100
AcDbRotatedDimension
  0
ENDBLK
  5
8E
330
8B
100
AcDbEntity
  8
0
100
AcDbBlockEnd
  0
BLOCK
  5
90
330
8F
100
AcDbEntity
  8
0
100
AcDbBlockBegin
  2
GS-GSK_S-select__3
 70
     0
 10
-4.79190084812212
 20
62.00164786145919
 30
0.0
  3
GS-GSK_S-select__3
  1

  0
LINE
  5
25F
330
8F
100
AcDbEntity
  8
0
  6
Continuous
 62
     7
100
AcDbLine
 10
5.63248036315803
 20
78.60103296601329
 30
0.0
 11
-0.36751963684197
 21
78.60103296601329
 31
0.0
  0
LINE
  5
260
330
8F
100
AcDbEntity
  8
0
  6
Continuous
 62
     7
100
AcDbLine
 10
-0.46751963686916
 20
83.00103296625349
 30
0.0
 11
-0.46751963686916
 21
78.60103296601329
 31
0.0
  0
LINE
  5
261
330
8F
100
AcDbEntity
  8
0
  6
Continuous
 62
     7
100
AcDbLine
 10
-0.36751963684197
 20
78.60103296601329
 30
0.0
 11
-0.46751963686916
 21
78.60103296601329
 31
0.0
  0
LINE
  5
262
330
8F
100
AcDbEntity
  8
0
  6
Continuous
 62
     7
100
AcDbLine
 10
-0.36751963684197
 20
78.60103296601329
 30
0.0
 11
-0.36751963684197
 21
77.54103296649359
 31
0.0
  0
LINE
  5
263
330
8F
100
AcDbEntity
  8
0
  6
Continuous
 62
     7
100
AcDbLine
 10
-0.57317653834195
 20
77.54103296649359
 30
0.0
 11
-0.36751963684197
 21
77.54103296649359
 31
0.0
  0
LINE
  5
264
330
8F
100
AcDbEntity
  8
0
  6
Continuous
 62
     7
100
AcDbLine
 10
-0.36751963684197
 20
77.54103296649359
 30
0.0
 11
5.63248036315803
 21
77.54103296649359
 31
0.0
  0
LINE
  5
265
330
8F
100
AcDbEntity
  8
0
  6
Continuous
 62
     7
100
AcDbLine
 10
5.73248036318522
 20
83.00103296625349
 30
0.0
 11
-0.46751963686916
 21
83.00103296625349
 31
0.0
  0
LINE
  5
266
330
8F
100
AcDbEntity
  8
0
  6
Continuous
 62
     7
100
AcDbLine
 10
-4.61883343984196
 20
73.04103296649359
 30
0.0
 11
-2.79189819715676
 21
73.04103296649359
 31
0.0
  0
LINE
  5
267
330
8F
100
AcDbEntity
  8
0
  6
Continuous
 62
     7
100
AcDbLine
 10
-2.79189819715676
 20
73.04103296649359
 30
0.0
 11
-2.57317653834195
 21
75.54103296649359
 31
0.0
  0
LINE
  5
268
330
8F
100
AcDbEntity
  8
0
  6
Continuous
 62
     7
100
AcDbLine
 10
0.88248036315806
 20
70.54103296649359
 30
0.0
 11
0.88248036315806
 21
62.00164786145919
 31
0.0
  0
LINE
  5
269
330
8F
100
AcDbEntity
  8
0
  6
Continuous
 62
     7
100
AcDbLine
 10
5.73248036318522
 20
78.60103296601329
 30
0.0
 11
5.63248036315803
 21
78.60103296601329
 31
0.0
  0
LINE
  5
26A
330
8F
100
AcDbEntity
  8
0
  6
Continuous
 62
     7
100
AcDbLine
 10
5.63248036315803
 20
78.60103296601329
 30
0.0
 11
5.63248036315803
 21
77.54103296649359
 31
0.0
  0
LINE
  5
26B
330
8F
100
AcDbEntity
  8
0
  6
Continuous
 62
     7
100
AcDbLine
 10
5.63248036315803
 20
77.54103296649359
 30
0.0
 11
6.06440281697657
 21
77.54103296649359
 31
0.0
  0
LINE
  5
26C
330
8F
100
AcDbEntity
  8
0
  6
Continuous
 62
     7
100
AcDbLine
 10
5.73248036318522
 20
83.00103296625349
 30
0.0
 11
5.73248036318522
 21
78.60103296601329
 31
0.0
  0
LINE
  5
26D
330
8F
100
AcDbEntity
  8
0
  6
Continuous
 62
     7
100
AcDbLine
 10
6.06440281697657
 20
77.54103296649359
 30
0.0
 11
6.45810180284324
 21
73.04103296649359
 31
0.0
  0
LINE
  5
26E
330
8F
100
AcDbEntity
  8
0
  6
Continuous
 62
     7
100
AcDbLine
 10
4.382480363158
 20
70.54103296649359
 30
0.0
 11
4.382480363158
 21
62.00164786145919
 31
0.0
  0
LINE
  5
26F
330
8F
100
AcDbEntity
  8
0
  6
Continuous
 62
     7
100
AcDbLine
 10
4.382480363158
 20
62.00164786145919
 30
0.0
 11
0.88248036315806
 21
62.00164786145919
 31
0.0
  0
LINE
  5
270
330
8F
100
AcDbEntity
  8
0
  6
Continuous
 62
     7
100
AcDbLine
 10
9.65380405023955
 20
74.54103296649359
 30
0.0
 11
9.95620180285447
 21
71.08461083786742
 31
0.0
  0
LINE
  5
271
330
8F
100
AcDbEntity
  8
0
  6
Continuous
 62
     7
100
AcDbLine
 10
4.382480363158
 20
70.54103296649359
 30
0.0
 11
0.88248036315806
 21
70.54103296649359
 31
0.0
  0
LINE
  5
272
330
8F
100
AcDbEntity
  8
0
  6
Continuous
 62
     7
100
AcDbLine
 10
9.45810445380861
 20
70.54103296649359
 30
0.0
 11
4.382480363158
 21
70.54103296649359
 31
0.0
  0
LINE
  5
273
330
8F
100
AcDbEntity
  8
0
  6
Continuous
 62
     7
100
AcDbLine
 10
6.45810180284324
 20
73.04103296649359
 30
0.0
 11
7.95810180284324
 21
73.04103296649359
 31
0.0
  0
LINE
  5
274
330
8F
100
AcDbEntity
  8
0
  6
Continuous
 62
     7
100
AcDbLine
 10
0.88248036315806
 20
70.54103296649359
 30
0.0
 11
-4.29190084812212
 21
70.54103296649359
 31
0.0
  0
LINE
  5
275
330
8F
100
AcDbEntity
  8
0
  6
Continuous
 62
     7
100
AcDbLine
 10
-4.789998197168
 20
71.08461083786742
 30
0.0
 11
-4.61883343984196
 21
73.04103296649359
 31
0.0
  0
LINE
  5
276
330
8F
100
AcDbEntity
  8
0
  6
Continuous
 62
     7
100
AcDbLine
 10
7.95810180284324
 20
73.04103296649359
 30
0.0
 11
7.95810180284324
 21
74.54103296649359
 31
0.0
  0
LINE
  5
277
330
8F
100
AcDbEntity
  8
0
  6
Continuous
 62
     7
100
AcDbLine
 10
7.95810180284324
 20
74.54103296649359
 30
0.0
 11
9.65380405023955
 21
74.54103296649359
 31
0.0
  0
LINE
  5
278
330
8F
100
AcDbEntity
  8
0
  6
Continuous
 62
     7
100
AcDbLine
 10
-2.57317653834195
 20
75.54103296649359
 30
0.0
 11
-0.57317653834195
 21
77.54103296649359
 31
0.0
  0
LINE
  5
279
330
8F
100
AcDbEntity
  8
1
  6
DOT_CENTER
 62
     2
100
AcDbLine
 10
2.63248036315803
 20
83.00103296625349
 30
0.0
 11
2.63248036315803
 21
77.54103296649359
 31
0.0
  0
LINE
  5
27A
330
8F
100
AcDbEntity
  8
1
  6
DOT_CENTER
 62
     2
100
AcDbLine
 10
2.63248036315803
 20
70.54103296649359
 30
0.0
 11
2.63248036315803
 21
62.00164786145919
 31
0.0
  0
ARC
  5
27B
330
8F
100
AcDbEntity
  8
0
  6
Continuous
 62
     7
100
AcDbCircle
 10
9.45810445380861
 20
71.04103296649359
 30
0.0
 40
0.5
100
AcDbArc
 50
270.0
 51
4.99999999999989
  0
ARC
  5
27C
330
8F
100
AcDbEntity
  8
0
  6
Continuous
 62
     7
100
AcDbCircle
 10
-4.29190084812212
 20
71.04103296649359
 30
0.0
 40
0.500000000000005
100
AcDbArc
 50
175.0000000000003
 51
270.0
  0
ENDBLK
  5
91
330
8F
100
AcDbEntity
  8
0
100
AcDbBlockEnd
  0
BLOCK
  5
94
330
92
100
AcDbEntity
  8
0
100
AcDbBlockBegin
  2
Rckans1
 70
     0
 10
2.62841401170481
 20
72.50000000003999
 30
0.0
  3
Rckans1
  1

  0
INSERT
  5
93
330
92
100
AcDbEntity
  8
0
100
AcDbBlockReference
  2
GS-GSK_S-select__3
 10
-4.79190084812212
 20
62.00164786145919
 30
0.0
  0
MTEXT
  5
27D
330
92
100
AcDbEntity
  8
1
 62
     6
100
AcDbMText
 10
2.58310180284324
 20
59.50164786145919
 30
0.0
 40
2.5
 41
0.0
 71
     2
 72
     1
  1
 
  7
CONVERTER_11
 73
     1
 44
1.32052821128451
  0
ENDBLK
  5
95
330
92
100
AcDbEntity
  8
0
100
AcDbBlockEnd
  0
BLOCK
  5
97
330
96
100
AcDbEntity
  8
0
100
AcDbBlockBegin
  2
GS-GSK_S-select__4
 70
     0
 10
-28.72447929301899
 20
62.00164786145919
 30
0.0
  3
GS-GSK_S-select__4
  1

  0
LINE
  5
27E
330
96
100
AcDbEntity
  8
0
  6
Continuous
 62
     7
100
AcDbLine
 10
-28.6244792929918
 20
71.08461083786742
 30
0.0
 11
-28.6244792929918
 21
70.54103296649359
 31
0.0
  0
LINE
  5
27F
330
96
100
AcDbEntity
  8
0
  6
Continuous
 62
     7
100
AcDbLine
 10
-27.37447929299179
 20
70.54103296649359
 30
0.0
 11
-27.37447929299179
 21
62.00164786145919
 31
0.0
  0
LINE
  5
280
330
96
100
AcDbEntity
  8
0
  6
Continuous
 62
     7
100
AcDbLine
 10
-23.87447929299183
 20
62.00164786145919
 30
0.0
 11
-27.37447929299179
 21
62.00164786145919
 31
0.0
  0
LINE
  5
281
330
96
100
AcDbEntity
  8
0
  6
Continuous
 62
     7
100
AcDbLine
 10
-22.6244792929918
 20
71.08461083786742
 30
0.0
 11
-22.6244792929918
 21
70.54103296649359
 31
0.0
  0
LINE
  5
282
330
96
100
AcDbEntity
  8
0
  6
Continuous
 62
     7
100
AcDbLine
 10
-28.6244792929918
 20
70.54103296649359
 30
0.0
 11
-27.37447929299179
 21
70.54103296649359
 31
0.0
  0
LINE
  5
283
330
96
100
AcDbEntity
  8
0
  6
Continuous
 62
     7
100
AcDbLine
 10
-23.87447929299183
 20
70.54103296649359
 30
0.0
 11
-22.6244792929918
 21
70.54103296649359
 31
0.0
  0
LINE
  5
284
330
96
100
AcDbEntity
  8
0
  6
Continuous
 62
     7
100
AcDbLine
 10
-27.37447929299179
 20
70.54103296649359
 30
0.0
 11
-23.87447929299183
 21
70.54103296649359
 31
0.0
  0
LINE
  5
285
330
96
100
AcDbEntity
  8
0
  6
Continuous
 62
     7
100
AcDbLine
 10
-28.6244792929918
 20
78.60103296601329
 30
0.0
 11
-28.72447929301899
 21
78.60103296601329
 31
0.0
  0
LINE
  5
286
330
96
100
AcDbEntity
  8
0
  6
Continuous
 62
     7
100
AcDbLine
 10
-22.6244792929918
 20
74.54103296649359
 30
0.0
 11
-28.6244792929918
 21
74.54103296649359
 31
0.0
  0
LINE
  5
287
330
96
100
AcDbEntity
  8
0
  6
Continuous
 62
     7
100
AcDbLine
 10
-22.6244792929918
 20
77.54103296649359
 30
0.0
 11
-28.6244792929918
 21
77.54103296649359
 31
0.0
  0
LINE
  5
288
330
96
100
AcDbEntity
  8
0
  6
Continuous
 62
     7
100
AcDbLine
 10
-22.6244792929918
 20
78.60103296601329
 30
0.0
 11
-28.6244792929918
 21
78.60103296601329
 31
0.0
  0
LINE
  5
289
330
96
100
AcDbEntity
  8
0
  6
Continuous
 62
     7
100
AcDbLine
 10
-22.6244792929918
 20
74.54103296649359
 30
0.0
 11
-22.6244792929918
 21
71.08461083786742
 31
0.0
  0
LINE
  5
28A
330
96
100
AcDbEntity
  8
0
  6
Continuous
 62
     2
100
AcDbLine
 10
-22.6244792929918
 20
71.08461083786742
 30
0.0
 11
-28.6244792929918
 21
71.08461083786742
 31
0.0
  0
LINE
  5
28B
330
96
100
AcDbEntity
  8
0
  6
Continuous
 62
     7
100
AcDbLine
 10
-22.52447929296461
 20
83.00103296625349
 30
0.0
 11
-22.52655176851901
 21
83.00103296625349
 31
0.0
  0
LINE
  5
28C
330
96
100
AcDbEntity
  8
0
  6
Continuous
 62
     7
100
AcDbLine
 10
-22.52655176851901
 20
83.00103296625349
 30
0.0
 11
-28.72447929301899
 21
83.00103296625349
 31
0.0
  0
LINE
  5
28D
330
96
100
AcDbEntity
  8
0
  6
Continuous
 62
     7
100
AcDbLine
 10
-28.6244792929918
 20
78.60103296601329
 30
0.0
 11
-28.6244792929918
 21
77.54103296649359
 31
0.0
  0
LINE
  5
28E
330
96
100
AcDbEntity
  8
0
  6
Continuous
 62
     7
100
AcDbLine
 10
-28.6244792929918
 20
74.54103296649359
 30
0.0
 11
-28.6244792929918
 21
71.08461083786742
 31
0.0
  0
LINE
  5
28F
330
96
100
AcDbEntity
  8
0
  6
Continuous
 62
     7
100
AcDbLine
 10
-28.6244792929918
 20
77.54103296649359
 30
0.0
 11
-28.6244792929918
 21
74.54103296649359
 31
0.0
  0
LINE
  5
290
330
96
100
AcDbEntity
  8
0
  6
Continuous
 62
     7
100
AcDbLine
 10
-28.72447929301899
 20
83.00103296625349
 30
0.0
 11
-28.72447929301899
 21
78.60103296601329
 31
0.0
  0
LINE
  5
291
330
96
100
AcDbEntity
  8
0
  6
Continuous
 62
     7
100
AcDbLine
 10
-22.52655176851901
 20
78.60103296601329
 30
0.0
 11
-22.6244792929918
 21
78.60103296601329
 31
0.0
  0
LINE
  5
292
330
96
100
AcDbEntity
  8
0
  6
Continuous
 62
     7
100
AcDbLine
 10
-22.52447929296461
 20
78.60103296601329
 30
0.0
 11
-22.52655176851901
 21
78.60103296601329
 31
0.0
  0
LINE
  5
293
330
96
100
AcDbEntity
  8
0
  6
Continuous
 62
     7
100
AcDbLine
 10
-22.6244792929918
 20
77.54103296649359
 30
0.0
 11
-22.6244792929918
 21
74.54103296649359
 31
0.0
  0
LINE
  5
294
330
96
100
AcDbEntity
  8
0
  6
Continuous
 62
     7
100
AcDbLine
 10
-22.6244792929918
 20
78.60103296601329
 30
0.0
 11
-22.6244792929918
 21
77.54103296649359
 31
0.0
  0
LINE
  5
295
330
96
100
AcDbEntity
  8
0
  6
Continuous
 62
     7
100
AcDbLine
 10
-22.52447929296461
 20
83.00103296625349
 30
0.0
 11
-22.52447929296461
 21
78.60103296601329
 31
0.0
  0
LINE
  5
296
330
96
100
AcDbEntity
  8
0
  6
Continuous
 62
     7
100
AcDbLine
 10
-23.87447929299183
 20
70.54103296649359
 30
0.0
 11
-23.87447929299183
 21
62.00164786145919
 31
0.0
  0
LINE
  5
297
330
96
100
AcDbEntity
  8
1
  6
DOT_CENTER
 62
     2
100
AcDbLine
 10
-25.6244792929918
 20
83.00103296625349
 30
0.0
 11
-25.6244792929918
 21
77.54103296649359
 31
0.0
  0
LINE
  5
298
330
96
100
AcDbEntity
  8
1
  6
DOT_CENTER
 62
     2
100
AcDbLine
 10
-25.6244792929918
 20
70.54103296649359
 30
0.0
 11
-25.6244792929918
 21
62.00164786145919
 31
0.0
  0
ENDBLK
  5
98
330
96
100
AcDbEntity
  8
0
100
AcDbBlockEnd
  0
BLOCK
  5
9B
330
99
100
AcDbEntity
  8
0
100
AcDbBlockBegin
  2
SA_Links1
 70
     0
 10
-25.62447934142057
 20
72.50000000003999
 30
0.0
  3
SA_Links1
  1

  0
INSERT
  5
9A
330
99
100
AcDbEntity
  8
0
100
AcDbBlockReference
  2
GS-GSK_S-select__4
 10
-28.72447929301899
 20
62.00164786145919
 30
0.0
  0
MTEXT
  5
299
330
99
100
AcDbEntity
  8
1
 62
     6
100
AcDbMText
 10
-25.6244792929918
 20
59.50164786145919
 30
0.0
 40
2.5
 41
0.0
 71
     2
 72
     1
  1
 
  7
CONVERTER_11
 73
     1
 44
1.32052821128451
  0
ENDBLK
  5
9C
330
99
100
AcDbEntity
  8
0
100
AcDbBlockEnd
  0
BLOCK
  5
9E
330
9D
100
AcDbEntity
  8
0
100
AcDbBlockBegin
  2
GS-GSK_S-select__5
 70
     0
 10
-94.30851761821717
 20
62.00164786145919
 30
0.0
  3
GS-GSK_S-select__5
  1

  0
LINE
  5
29A
330
9D
100
AcDbEntity
  8
0
  6
Continuous
 62
     7
100
AcDbLine
 10
-94.20851761818997
 20
73.04103296649359
 30
0.0
 11
-94.20851761818997
 21
75.54103296649359
 31
0.0
  0
LINE
  5
29B
330
9D
100
AcDbEntity
  8
0
  6
Continuous
 62
     7
100
AcDbLine
 10
-94.30851761821717
 20
83.00103296625349
 30
0.0
 11
-94.30851761821717
 21
78.60103296601329
 31
0.0
  0
LINE
  5
29C
330
9D
100
AcDbEntity
  8
0
  6
Continuous
 62
     7
100
AcDbLine
 10
-94.20851761818997
 20
73.04103296649359
 30
0.0
 11
-88.20851761818997
 21
73.04103296649359
 31
0.0
  0
LINE
  5
29D
330
9D
100
AcDbEntity
  8
0
  6
Continuous
 62
     7
100
AcDbLine
 10
-88.20851761818997
 20
73.04103296649359
 30
0.0
 11
-88.20851761818997
 21
75.54103296649359
 31
0.0
  0
LINE
  5
29E
330
9D
100
AcDbEntity
  8
0
  6
Continuous
 62
     7
100
AcDbLine
 10
-88.20851761818997
 20
78.60103296601329
 30
0.0
 11
-94.20851761818997
 21
78.60103296601329
 31
0.0
  0
LINE
  5
29F
330
9D
100
AcDbEntity
  8
0
  6
Continuous
 62
     7
100
AcDbLine
 10
-94.20851761818997
 20
78.60103296601329
 30
0.0
 11
-94.30851761821717
 21
78.60103296601329
 31
0.0
  0
LINE
  5
2A0
330
9D
100
AcDbEntity
  8
0
  6
Continuous
 62
     7
100
AcDbLine
 10
-94.20851761818997
 20
77.54103296649359
 30
0.0
 11
-88.20851761818997
 21
77.54103296649359
 31
0.0
  0
LINE
  5
2A1
330
9D
100
AcDbEntity
  8
0
  6
Continuous
 62
     7
100
AcDbLine
 10
-88.10851761816278
 20
83.00103296625349
 30
0.0
 11
-94.30851761821717
 21
83.00103296625349
 31
0.0
  0
LINE
  5
2A2
330
9D
100
AcDbEntity
  8
0
  6
Continuous
 62
     7
100
AcDbLine
 10
-94.20851761818997
 20
71.08461083786742
 30
0.0
 11
-94.20851761818997
 21
73.04103296649359
 31
0.0
  0
LINE
  5
2A3
330
9D
100
AcDbEntity
  8
0
  6
Continuous
 62
     7
100
AcDbLine
 10
-92.95851761818994
 20
70.54103296649359
 30
0.0
 11
-92.95851761818994
 21
62.00164786145919
 31
0.0
  0
LINE
  5
2A4
330
9D
100
AcDbEntity
  8
0
  6
Continuous
 62
     7
100
AcDbLine
 10
-94.20851761818997
 20
75.54103296649359
 30
0.0
 11
-94.20851761818997
 21
77.54103296649359
 31
0.0
  0
LINE
  5
2A5
330
9D
100
AcDbEntity
  8
0
  6
Continuous
 62
     7
100
AcDbLine
 10
-94.20851761818997
 20
78.60103296601329
 30
0.0
 11
-94.20851761818997
 21
77.54103296649359
 31
0.0
  0
LINE
  5
2A6
330
9D
100
AcDbEntity
  8
0
  6
Continuous
 62
     7
100
AcDbLine
 10
-88.10851761816278
 20
78.60103296601329
 30
0.0
 11
-88.20851761818997
 21
78.60103296601329
 31
0.0
  0
LINE
  5
2A7
330
9D
100
AcDbEntity
  8
0
  6
Continuous
 62
     7
100
AcDbLine
 10
-88.20851761818997
 20
75.54103296649359
 30
0.0
 11
-88.20851761818997
 21
77.54103296649359
 31
0.0
  0
LINE
  5
2A8
330
9D
100
AcDbEntity
  8
0
  6
Continuous
 62
     7
100
AcDbLine
 10
-88.20851761818997
 20
78.60103296601329
 30
0.0
 11
-88.20851761818997
 21
77.54103296649359
 31
0.0
  0
LINE
  5
2A9
330
9D
100
AcDbEntity
  8
0
  6
Continuous
 62
     7
100
AcDbLine
 10
-88.10851761816278
 20
83.00103296625349
 30
0.0
 11
-88.10851761816278
 21
78.60103296601329
 31
0.0
  0
LINE
  5
2AA
330
9D
100
AcDbEntity
  8
0
  6
Continuous
 62
     7
100
AcDbLine
 10
-94.20851761818997
 20
75.54103296649359
 30
0.0
 11
-88.20851761818997
 21
75.54103296649359
 31
0.0
  0
LINE
  5
2AB
330
9D
100
AcDbEntity
  8
0
  6
Continuous
 62
     7
100
AcDbLine
 10
-88.20851761818997
 20
71.08461083786742
 30
0.0
 11
-88.20851761818997
 21
73.04103296649359
 31
0.0
  0
LINE
  5
2AC
330
9D
100
AcDbEntity
  8
0
  6
Continuous
 62
     7
100
AcDbLine
 10
-89.45851761819
 20
62.00164786145919
 30
0.0
 11
-92.95851761818994
 21
62.00164786145919
 31
0.0
  0
LINE
  5
2AD
330
9D
100
AcDbEntity
  8
0
  6
Continuous
 62
     7
100
AcDbLine
 10
-94.20851761818997
 20
70.54103296649359
 30
0.0
 11
-92.95851761818994
 21
70.54103296649359
 31
0.0
  0
LINE
  5
2AE
330
9D
100
AcDbEntity
  8
0
  6
Continuous
 62
     7
100
AcDbLine
 10
-89.45851761819
 20
70.54103296649359
 30
0.0
 11
-88.20851761818997
 21
70.54103296649359
 31
0.0
  0
LINE
  5
2AF
330
9D
100
AcDbEntity
  8
0
  6
Continuous
 62
     7
100
AcDbLine
 10
-94.20851761818997
 20
71.08461083786742
 30
0.0
 11
-94.20851761818997
 21
70.54103296649359
 31
0.0
  0
LINE
  5
2B0
330
9D
100
AcDbEntity
  8
0
  6
Continuous
 62
     7
100
AcDbLine
 10
-88.20851761818997
 20
71.08461083786742
 30
0.0
 11
-88.20851761818997
 21
70.54103296649359
 31
0.0
  0
LINE
  5
2B1
330
9D
100
AcDbEntity
  8
0
  6
Continuous
 62
     2
100
AcDbLine
 10
-94.20851761818997
 20
71.08461083786742
 30
0.0
 11
-88.20851761818997
 21
71.08461083786742
 31
0.0
  0
LINE
  5
2B2
330
9D
100
AcDbEntity
  8
0
  6
Continuous
 62
     7
100
AcDbLine
 10
-92.95851761818994
 20
70.54103296649359
 30
0.0
 11
-89.45851761819
 21
70.54103296649359
 31
0.0
  0
LINE
  5
2B3
330
9D
100
AcDbEntity
  8
0
  6
Continuous
 62
     7
100
AcDbLine
 10
-89.45851761819
 20
70.54103296649359
 30
0.0
 11
-89.45851761819
 21
62.00164786145919
 31
0.0
  0
LINE
  5
2B4
330
9D
100
AcDbEntity
  8
1
  6
DOT_CENTER
 62
     2
100
AcDbLine
 10
-91.20851761818997
 20
83.00103296625349
 30
0.0
 11
-91.20851761818997
 21
77.54103296649359
 31
0.0
  0
LINE
  5
2B5
330
9D
100
AcDbEntity
  8
1
  6
DOT_CENTER
 62
     2
100
AcDbLine
 10
-91.20851761818997
 20
70.54103296649359
 30
0.0
 11
-91.20851761818997
 21
62.00164786145919
 31
0.0
  0
ENDBLK
  5
9F
330
9D
100
AcDbEntity
  8
0
100
AcDbBlockEnd
  0
BLOCK
  5
A2
330
A0
100
AcDbEntity
  8
0
100
AcDbBlockBegin
  2
SA_Rechts1
 70
     0
 10
-91.2085175697612
 20
72.50000000003999
 30
0.0
  3
SA_Rechts1
  1

  0
INSERT
  5
A1
330
A0
100
AcDbEntity
  8
0
100
AcDbBlockReference
  2
GS-GSK_S-select__5
 10
-94.30851761821717
 20
62.00164786145919
 30
0.0
  0
MTEXT
  5
2B6
330
A0
100
AcDbEntity
  8
1
 62
     6
100
AcDbMText
 10
-91.20851761818997
 20
59.50164786145919
 30
0.0
 40
2.5
 41
0.0
 71
     2
 72
     1
  1
 
  7
CONVERTER_11
 73
     1
 44
1.32052821128451
  0
ENDBLK
  5
A3
330
A0
100
AcDbEntity
  8
0
100
AcDbBlockEnd
  0
BLOCK
  5
A5
330
A4
100
AcDbEntity
  8
0
100
AcDbBlockBegin
  2
GS-GSK_S-select__6
 70
     0
 10
-60.04436304194713
 20
62.00164786145919
 30
0.0
  3
GS-GSK_S-select__6
  1

  0
LINE
  5
2B7
330
A4
100
AcDbEntity
  8
0
  6
Continuous
 62
     7
100
AcDbLine
 10
-45.46742514829656
 20
73.04103296649359
 30
0.0
 11
-47.29436039098176
 21
73.04103296649359
 31
0.0
  0
LINE
  5
2B8
330
A4
100
AcDbEntity
  8
0
  6
Continuous
 62
     7
100
AcDbLine
 10
-49.71873895129655
 20
78.60103296601329
 30
0.0
 11
-49.71873895129655
 21
77.54103296649359
 31
0.0
  0
LINE
  5
2B9
330
A4
100
AcDbEntity
  8
0
  6
Continuous
 62
     7
100
AcDbLine
 10
-47.29436039098176
 20
73.04103296649359
 30
0.0
 11
-47.51308204979657
 21
75.54103296649359
 31
0.0
  0
LINE
  5
2BA
330
A4
100
AcDbEntity
  8
0
  6
Continuous
 62
     7
100
AcDbLine
 10
-50.96873895129659
 20
70.54103296649359
 30
0.0
 11
-50.96873895129659
 21
62.00164786145919
 31
0.0
  0
LINE
  5
2BB
330
A4
100
AcDbEntity
  8
0
  6
Continuous
 62
     7
100
AcDbLine
 10
-56.15066140511511
 20
77.54103296649359
 30
0.0
 11
-56.54436039098176
 21
73.04103296649359
 31
0.0
  0
LINE
  5
2BC
330
A4
100
AcDbEntity
  8
0
  6
Continuous
 62
     7
100
AcDbLine
 10
-54.46873895129652
 20
70.54103296649359
 30
0.0
 11
-54.46873895129652
 21
62.00164786145919
 31
0.0
  0
LINE
  5
2BD
330
A4
100
AcDbEntity
  8
0
  6
Continuous
 62
     7
100
AcDbLine
 10
-59.74006263837809
 20
74.54103296649359
 30
0.0
 11
-60.04246039099301
 21
71.08461083786742
 31
0.0
  0
LINE
  5
2BE
330
A4
100
AcDbEntity
  8
0
  6
Continuous
 62
     7
100
AcDbLine
 10
-55.71873895129655
 20
78.60103296601329
 30
0.0
 11
-55.81873895132376
 21
78.60103296601329
 31
0.0
  0
LINE
  5
2BF
330
A4
100
AcDbEntity
  8
0
  6
Continuous
 62
     7
100
AcDbLine
 10
-52.83207497064789
 20
78.60103296601329
 30
0.0
 11
-55.71873895129655
 21
78.60103296601329
 31
0.0
  0
LINE
  5
2C0
330
A4
100
AcDbEntity
  8
0
  6
Continuous
 62
     7
100
AcDbLine
 10
-52.8320749706479
 20
83.00103296625349
 30
0.0
 11
-55.81873895132376
 21
83.00103296625349
 31
0.0
  0
LINE
  5
2C1
330
A4
100
AcDbEntity
  8
0
  6
Continuous
 62
     7
100
AcDbLine
 10
-56.54436039098176
 20
73.04103296649359
 30
0.0
 11
-58.04436039098176
 21
73.04103296649359
 31
0.0
  0
LINE
  5
2C2
330
A4
100
AcDbEntity
  8
0
  6
Continuous
 62
     7
100
AcDbLine
 10
-58.04436039098176
 20
73.04103296649359
 30
0.0
 11
-58.04436039098176
 21
74.54103296649359
 31
0.0
  0
LINE
  5
2C3
330
A4
100
AcDbEntity
  8
0
  6
Continuous
 62
     7
100
AcDbLine
 10
-58.04436039098176
 20
74.54103296649359
 30
0.0
 11
-59.74006263837809
 21
74.54103296649359
 31
0.0
  0
LINE
  5
2C4
330
A4
100
AcDbEntity
  8
0
  6
Continuous
 62
     7
100
AcDbLine
 10
-55.71873895129655
 20
78.60103296601329
 30
0.0
 11
-55.71873895129655
 21
77.54103296649359
 31
0.0
  0
LINE
  5
2C5
330
A4
100
AcDbEntity
  8
0
  6
Continuous
 62
     7
100
AcDbLine
 10
-55.81873895132376
 20
83.00103296625349
 30
0.0
 11
-55.81873895132376
 21
78.60103296601329
 31
0.0
  0
LINE
  5
2C6
330
A4
100
AcDbEntity
  8
0
  6
Continuous
 62
     7
100
AcDbLine
 10
-45.29626039097052
 20
71.08461083786742
 30
0.0
 11
-45.46742514829656
 21
73.04103296649359
 31
0.0
  0
LINE
  5
2C7
330
A4
100
AcDbEntity
  8
0
  6
Continuous
 62
     7
100
AcDbLine
 10
-49.61873895126937
 20
83.00103296625349
 30
0.0
 11
-52.8320749706479
 21
83.00103296625349
 31
0.0
  0
LINE
  5
2C8
330
A4
100
AcDbEntity
  8
0
  6
Continuous
 62
     7
100
AcDbLine
 10
-49.61873895126937
 20
78.60103296601329
 30
0.0
 11
-49.71873895129655
 21
78.60103296601329
 31
0.0
  0
LINE
  5
2C9
330
A4
100
AcDbEntity
  8
0
  6
Continuous
 62
     7
100
AcDbLine
 10
-49.71873895129655
 20
78.60103296601329
 30
0.0
 11
-52.83207497064789
 21
78.60103296601329
 31
0.0
  0
LINE
  5
2CA
330
A4
100
AcDbEntity
  8
0
  6
Continuous
 62
     7
100
AcDbLine
 10
-49.51308204979657
 20
77.54103296649359
 30
0.0
 11
-49.71873895129655
 21
77.54103296649359
 31
0.0
  0
LINE
  5
2CB
330
A4
100
AcDbEntity
  8
0
  6
Continuous
 62
     7
100
AcDbLine
 10
-49.71873895129655
 20
77.54103296649359
 30
0.0
 11
-55.71873895129655
 21
77.54103296649359
 31
0.0
  0
LINE
  5
2CC
330
A4
100
AcDbEntity
  8
0
  6
Continuous
 62
     7
100
AcDbLine
 10
-50.96873895129659
 20
62.00164786145919
 30
0.0
 11
-52.71873895129655
 21
62.00164786145919
 31
0.0
  0
LINE
  5
2CD
330
A4
100
AcDbEntity
  8
0
  6
Continuous
 62
     7
100
AcDbLine
 10
-49.61873895126937
 20
83.00103296625349
 30
0.0
 11
-49.61873895126937
 21
78.60103296601329
 31
0.0
  0
LINE
  5
2CE
330
A4
100
AcDbEntity
  8
0
  6
Continuous
 62
     7
100
AcDbLine
 10
-52.71873895129655
 20
62.00164786145919
 30
0.0
 11
-54.46873895129652
 21
62.00164786145919
 31
0.0
  0
LINE
  5
2CF
330
A4
100
AcDbEntity
  8
0
  6
Continuous
 62
     7
100
AcDbLine
 10
-55.71873895129655
 20
77.54103296649359
 30
0.0
 11
-56.15066140511511
 21
77.54103296649359
 31
0.0
  0
LINE
  5
2D0
330
A4
100
AcDbEntity
  8
0
  6
Continuous
 62
     7
100
AcDbLine
 10
-54.46873895129652
 20
70.54103296649359
 30
0.0
 11
-50.96873895129659
 21
70.54103296649359
 31
0.0
  0
LINE
  5
2D1
330
A4
100
AcDbEntity
  8
0
  6
Continuous
 62
     7
100
AcDbLine
 10
-50.96873895129659
 20
70.54103296649359
 30
0.0
 11
-45.7943577400164
 21
70.54103296649359
 31
0.0
  0
LINE
  5
2D2
330
A4
100
AcDbEntity
  8
0
  6
Continuous
 62
     7
100
AcDbLine
 10
-59.54436304194713
 20
70.54103296649359
 30
0.0
 11
-54.46873895129652
 21
70.54103296649359
 31
0.0
  0
LINE
  5
2D3
330
A4
100
AcDbEntity
  8
0
  6
Continuous
 62
     7
100
AcDbLine
 10
-47.51308204979657
 20
75.54103296649359
 30
0.0
 11
-49.51308204979657
 21
77.54103296649359
 31
0.0
  0
LINE
  5
2D4
330
A4
100
AcDbEntity
  8
1
  6
DOT_CENTER
 62
     2
100
AcDbLine
 10
-52.71873895129657
 20
83.00103296625349
 30
0.0
 11
-52.71873895129655
 21
77.54103296649359
 31
0.0
  0
LINE
  5
2D5
330
A4
100
AcDbEntity
  8
1
  6
DOT_CENTER
 62
     2
100
AcDbLine
 10
-52.71873895129657
 20
70.54103296649359
 30
0.0
 11
-52.71873895129655
 21
62.00164786145919
 31
0.0
  0
ARC
  5
2D6
330
A4
100
AcDbEntity
  8
0
  6
Continuous
 62
     7
100
AcDbCircle
 10
-59.54436304194713
 20
71.04103296649359
 30
0.0
 40
0.500000000000005
100
AcDbArc
 50
175.0000000000003
 51
270.0
  0
ARC
  5
2D7
330
A4
100
AcDbEntity
  8
0
  6
Continuous
 62
     7
100
AcDbCircle
 10
-45.7943577400164
 20
71.04103296649359
 30
0.0
 40
0.5
100
AcDbArc
 50
270.0
 51
4.99999999999967
  0
ENDBLK
  5
A6
330
A4
100
AcDbEntity
  8
0
100
AcDbBlockEnd
  0
BLOCK
  5
A9
330
A7
100
AcDbEntity
  8
0
100
AcDbBlockBegin
  2
Vordans1
 70
     0
 10
-52.71467259984333
 20
72.50000000003999
 30
0.0
  3
Vordans1
  1

  0
INSERT
  5
A8
330
A7
100
AcDbEntity
  8
0
100
AcDbBlockReference
  2
GS-GSK_S-select__6
 10
-60.04436304194713
 20
62.00164786145919
 30
0.0
  0
MTEXT
  5
2D8
330
A7
100
AcDbEntity
  8
1
 62
     6
100
AcDbMText
 10
-52.66936039098176
 20
59.50164786145919
 30
0.0
 40
2.5
 41
0.0
 71
     2
 72
     1
  1
 
  7
CONVERTER_11
 73
     1
 44
1.32052821128451
  0
DIMENSION
  5
2E3
330
A7
100
AcDbEntity
  8
1
100
AcDbDimension
  2
*D18
 10
-67.156019000727
 20
83.00103296625349
 30
0.0
 11
-69.031019000727
 21
73.931051783794
 31
0.0
 70
    32
  1
<>
 71
     5
 42
-1.0
 53
90.0
  3
ME10_DIM_11
100
AcDbAlignedDimension
 13
-54.46873895129652
 23
62.00164786145919
 33
0.0
 14
-55.81873895132376
 24
83.00103296625349
 34
0.0
 50
90.0
100
AcDbRotatedDimension
  0
INSERT
  5
2ED
330
A7
100
AcDbEntity
  8
1
100
AcDbBlockReference
  2
*D19
 10
0.0
 20
0.0
 30
0.0
  0
ENDBLK
  5
AA
330
A7
100
AcDbEntity
  8
0
100
AcDbBlockEnd
  0
BLOCK
  5
B3
330
AB
100
AcDbEntity
  8
0
100
AcDbBlockBegin
  2
1
 70
     0
 10
0.0
 20
0.0
 30
0.0
  3
1
  1

  0
INSERT
  5
AC
330
AB
100
AcDbEntity
  8
0
100
AcDbBlockReference
  2
A4I_CS
 10
60.20511806629405
 20
6.11636329288206
 30
0.0
  0
INSERT
  5
AD
330
AB
100
AcDbEntity
  8
0
100
AcDbBlockReference
  2
AllgSicht1
 10
-2.99999995119981
 20
79.99999998598196
 30
0.0
 41
2.0
 42
2.0
 43
2.0
  0
INSERT
  5
AE
330
AB
100
AcDbEntity
  8
0
100
AcDbBlockReference
  2
Drfsicht1
 10
-105.4293451996867
 20
69.39500258704145
 30
0.0
 41
2.0
 42
2.0
 43
2.0
  0
INSERT
  5
AF
330
AB
100
AcDbEntity
  8
0
100
AcDbBlockReference
  2
Rckans1
 10
5.25682802340962
 20
145.00000000008
 30
0.0
 41
2.0
 42
2.0
 43
2.0
  0
INSERT
  5
B0
330
AB
100
AcDbEntity
  8
0
100
AcDbBlockReference
  2
SA_Links1
 10
-51.24895868284114
 20
145.00000000008
 30
0.0
 41
2.0
 42
2.0
 43
2.0
  0
INSERT
  5
B1
330
AB
100
AcDbEntity
  8
0
100
AcDbBlockReference
  2
SA_Rechts1
 10
-182.4170351395224
 20
145.00000000008
 30
0.0
 41
2.0
 42
2.0
 43
2.0
  0
INSERT
  5
B2
330
AB
100
AcDbEntity
  8
0
100
AcDbBlockReference
  2
Vordans1
 10
-105.4293451996867
 20
145.00000000008
 30
0.0
 41
2.0
 42
2.0
 43
2.0
  0
ENDBLK
  5
B4
330
AB
100
AcDbEntity
  8
0
100
AcDbBlockEnd
  0
BLOCK
  5
25B
330
254
100
AcDbEntity
  8
0
100
AcDbBlockBegin
  2
*D17
 70
     1
 10
0.0
 20
0.0
 30
0.0
  3
*D17
  1

  0
LINE
  5
255
330
254
100
AcDbEntity
  8
1
  6
Continuous
 62
     2
100
AcDbLine
 10
-67.156019000727
 20
31.69750124509194
 30
0.0
 11
-67.156019000727
 21
37.69750124509194
 31
0.0
  0
LINE
  5
256
330
254
100
AcDbEntity
  8
1
  6
Continuous
 62
     2
100
AcDbLine
 10
-58.29436039098176
 20
31.69750124509194
 30
0.0
 11
-67.906019000727
 21
31.69750124509194
 31
0.0
  0
LINE
  5
257
330
254
100
AcDbEntity
  8
1
  6
Continuous
 62
     2
100
AcDbLine
 10
-58.29436039098176
 20
37.69750124509194
 30
0.0
 11
-67.906019000727
 21
37.69750124509194
 31
0.0
  0
SOLID
  5
258
330
254
100
AcDbEntity
  8
1
 62
     2
100
AcDbTrace
 10
-67.38641087150494
 20
33.44750124509194
 30
0.0
 11
-66.92562712994906
 21
33.44750124509194
 31
0.0
 12
-67.156019000727
 22
31.69750124509194
 32
0.0
 13
-67.156019000727
 23
31.69750124509194
 33
0.0
  0
SOLID
  5
259
330
254
100
AcDbEntity
  8
1
 62
     2
100
AcDbTrace
 10
-66.92562712994906
 20
35.94750124509194
 30
0.0
 11
-67.38641087150494
 21
35.94750124509194
 31
0.0
 12
-67.156019000727
 22
37.69750124509194
 32
0.0
 13
-67.156019000727
 23
37.69750124509194
 33
0.0
  0
MTEXT
  5
25A
330
254
100
AcDbEntity
  8
1
 62
     3
100
AcDbMText
 10
-68.156019000727
 20
34.2299527729596
 30
0.0
 40
1.75
 41
0.0
 71
     7
 72
     1
  1
6
  7
CONVERTER_11
 11
0.0
 21
1.0
 31
0.0
 73
     1
 44
0.60024009603842
  0
ENDBLK
  5
25C
330
254
100
AcDbEntity
  8
0
100
AcDbBlockEnd
  0
BLOCK
  5
2E0
330
2D9
100
AcDbEntity
  8
0
100
AcDbBlockBegin
  2
*D18
 70
     1
 10
0.0
 20
0.0
 30
0.0
  3
*D18
  1

  0
LINE
  5
2DA
330
2D9
100
AcDbEntity
  8
1
  6
Continuous
 62
     2
100
AcDbLine
 10
-67.156019000727
 20
83.00103296625349
 30
0.0
 11
-67.156019000727
 21
62.00164786145919
 31
0.0
  0
LINE
  5
2DB
330
2D9
100
AcDbEntity
  8
1
  6
Continuous
 62
     2
100
AcDbLine
 10
-56.06873895132376
 20
83.00103296625349
 30
0.0
 11
-67.906019000727
 21
83.00103296625349
 31
0.0
  0
LINE
  5
2DC
330
2D9
100
AcDbEntity
  8
1
  6
Continuous
 62
     2
100
AcDbLine
 10
-54.71873895129652
 20
62.00164786145919
 30
0.0
 11
-67.906019000727
 21
62.00164786145919
 31
0.0
  0
SOLID
  5
2DD
330
2D9
100
AcDbEntity
  8
1
 62
     2
100
AcDbTrace
 10
-66.92562712994906
 20
81.25103296625349
 30
0.0
 11
-67.38641087150494
 21
81.25103296625349
 31
0.0
 12
-67.156019000727
 22
83.00103296625349
 32
0.0
 13
-67.156019000727
 23
83.00103296625349
 33
0.0
  0
SOLID
  5
2DE
330
2D9
100
AcDbEntity
  8
1
 62
     2
100
AcDbTrace
 10
-67.38641087150494
 20
63.75164786145919
 30
0.0
 11
-66.92562712994906
 21
63.75164786145919
 31
0.0
 12
-67.156019000727
 22
62.00164786145919
 32
0.0
 13
-67.156019000727
 23
62.00164786145919
 33
0.0
  0
MTEXT
  5
2DF
330
2D9
100
AcDbEntity
  8
1
 62
     3
100
AcDbMText
 10
-68.156019000727
 20
72.881051783794
 30
0.0
 40
1.75
 41
0.0
 71
     7
 72
     1
  1
21
  7
CONVERTER_11
 11
0.0
 21
1.0
 31
0.0
 73
     1
 44
0.60024009603842
  0
ENDBLK
  5
2E1
330
2D9
100
AcDbEntity
  8
0
100
AcDbBlockEnd
  0
BLOCK
  5
2EB
330
2E4
100
AcDbEntity
  8
0
100
AcDbBlockBegin
  2
*D19
 70
     1
 10
0.0
 20
0.0
 30
0.0
  3
*D19
  1

  0
LINE
  5
2E5
330
2E4
100
AcDbEntity
  8
1
  6
Continuous
 62
     2
100
AcDbLine
 10
-60.04436304194713
 20
55.227416010369
 30
0.0
 11
-45.29435774001639
 21
55.227416010369
 31
0.0
  0
LINE
  5
2E6
330
2E4
100
AcDbEntity
  8
1
  6
Continuous
 62
     2
100
AcDbLine
 10
-60.04436304194713
 20
71.04103296649359
 30
0.0
 11
-60.04436304194713
 21
54.477416010369
 31
0.0
  0
LINE
  5
2E7
330
2E4
100
AcDbEntity
  8
1
  6
Continuous
 62
     2
100
AcDbLine
 10
-45.29435774001639
 20
71.04103296649359
 30
0.0
 11
-45.29435774001639
 21
54.477416010369
 31
0.0
  0
SOLID
  5
2E8
330
2E4
100
AcDbEntity
  8
1
 62
     2
100
AcDbTrace
 10
-58.29436304194713
 20
55.45780788114694
 30
0.0
 11
-58.29436304194713
 21
54.99702413959105
 31
0.0
 12
-60.04436304194713
 22
55.227416010369
 32
0.0
 13
-60.04436304194713
 23
55.227416010369
 33
0.0
  0
SOLID
  5
2E9
330
2E4
100
AcDbEntity
  8
1
 62
     2
100
AcDbTrace
 10
-47.04435774001639
 20
54.99702413959105
 30
0.0
 11
-47.04435774001639
 21
55.45780788114694
 31
0.0
 12
-45.29435774001639
 22
55.227416010369
 32
0.0
 13
-45.29435774001639
 23
55.227416010369
 33
0.0
  0
MTEXT
  5
2EA
330
2E4
100
AcDbEntity
  8
1
 62
     3
100
AcDbMText
 10
-54.936070951056
 20
56.152416010369
 30
0.0
 40
1.75
 41
0.0
 71
     7
 72
     1
  1
14,75
  7
CONVERTER_11
 11
0.9999999999970619
 21
2.424068405545306E-6
 31
0.0
 73
     1
 44
0.60024009603842
  0
ENDBLK
  5
2EC
330
2E4
100
AcDbEntity
  8
0
100
AcDbBlockEnd
  0
ENDSEC
  0
SECTION
  2
ENTITIES
  0
INSERT
  5
B5
330
1F
100
AcDbEntity
  8
1
100
AcDbBlockReference
  2
1
 10
0.0
 20
0.0
 30
0.0
  0
ENDSEC
  0
SECTION
  2
OBJECTS
  0
DICTIONARY
  5
C
330
0
100
AcDbDictionary
281
     1
  3
ACAD_DETAILVIEWSTYLE
350
333
  3
ACAD_GROUP
350
D
  3
ACAD_LAYOUT
350
1A
  3
ACAD_MATERIAL
350
43
  3
ACAD_MLEADERSTYLE
350
6B
  3
ACAD_MLINESTYLE
350
17
  3
ACAD_PLOTSETTINGS
350
19
  3
ACAD_PLOTSTYLENAME
350
E
  3
ACAD_SCALELIST
350
47
  3
ACAD_SECTIONVIEWSTYLE
350
334
  3
ACAD_TABLESTYLE
350
69
  3
ACAD_VISUALSTYLE
350
2A
  3
ACDB_RECOMPOSE_DATA
350
330
  3
AcDbVariableDictionary
350
2F0
  0
DICTIONARY
  5
2EE
330
8
100
AcDbDictionary
280
     1
281
     1
  3
ACAD_XREC_ROUNDTRIP
360
2EF
  0
DICTIONARY
  5
333
102
{ACAD_REACTORS
330
C
102
}
330
C
100
AcDbDictionary
281
     1
  0
DICTIONARY
  5
D
102
{ACAD_REACTORS
330
C
102
}
330
C
100
AcDbDictionary
281
     1
  0
DICTIONARY
  5
1A
102
{ACAD_REACTORS
330
C
102
}
330
C
100
AcDbDictionary
281
     1
  3
Layout1
350
1E
  3
Layout2
350
26
  3
Model
350
22
  0
DICTIONARY
  5
43
102
{ACAD_REACTORS
330
C
102
}
330
C
100
AcDbDictionary
281
     1
  3
ByBlock
350
45
  3
ByLayer
350
44
  3
Global
350
46
  0
DICTIONARY
  5
6B
102
{ACAD_REACTORS
330
C
102
}
330
C
100
AcDbDictionary
281
     1
  3
Standard
350
6C
  0
DICTIONARY
  5
17
102
{ACAD_REACTORS
330
C
102
}
330
C
100
AcDbDictionary
281
     1
  3
Standard
350
18
  0
DICTIONARY
  5
19
102
{ACAD_REACTORS
330
C
102
}
330
C
100
AcDbDictionary
281
     1
  0
ACDBDICTIONARYWDFLT
  5
E
102
{ACAD_REACTORS
330
C
102
}
330
C
100
AcDbDictionary
281
     1
  3
Normal
350
F
100
AcDbDictionaryWithDefault
340
F
  0
DICTIONARY
  5
47
102
{ACAD_REACTORS
330
C
102
}
330
C
100
AcDbDictionary
281
     1
  3
A0
350
48
  3
A1
350
49
  3
A2
350
4A
  3
A3
350
4B
  3
A4
350
4C
  3
A5
350
4D
  3
A6
350
4E
  3
A7
350
4F
  3
A8
350
50
  3
A9
350
51
  3
B0
350
52
  3
B1
350
53
  3
B2
350
54
  3
B3
350
55
  3
B4
350
56
  3
B5
350
57
  3
B6
350
58
  3
B7
350
59
  3
B8
350
5A
  3
B9
350
5B
  3
C0
350
5C
  3
C1
350
5D
  3
C2
350
5E
  3
C3
350
5F
  3
C4
350
60
  3
C5
350
61
  3
C6
350
62
  3
C7
350
63
  3
C8
350
64
  3
C9
350
65
  3
D0
350
66
  3
D1
350
67
  3
D2
350
68
  0
DICTIONARY
  5
334
102
{ACAD_REACTORS
330
C
102
}
330
C
100
AcDbDictionary
281
     1
  0
DICTIONARY
  5
69
102
{ACAD_REACTORS
330
C
102
}
330
C
100
AcDbDictionary
281
     1
  3
Standard
350
6A
  0
DICTIONARY
  5
2A
102
{ACAD_REACTORS
330
C
102
}
330
C
100
AcDbDictionary
281
     1
  3
2dWireframe
350
2F
  3
Basic
350
32
  3
Brighten
350
36
  3
ColorChange
350
3A
  3
Conceptual
350
34
  3
Dim
350
35
  3
EdgeColorOff
350
3D
  3
Facepattern
350
39
  3
Flat
350
2B
  3
FlatWithEdges
350
2C
  3
Gouraud
350
2D
  3
GouraudWithEdges
350
2E
  3
Hidden
350
31
  3
JitterOff
350
3B
  3
Linepattern
350
38
  3
OverhangOff
350
3C
  3
Realistic
350
33
  3
Shaded
350
42
  3
Shaded with edges
350
41
  3
Shades of Gray
350
3E
  3
Sketchy
350
3F
  3
Thicken
350
37
  3
Wireframe
350
30
  3
X-Ray
350
40
  0
XRECORD
  5
330
102
{ACAD_REACTORS
330
C
102
}
330
C
100
AcDbXrecord
280
     1
 90
        1
330
6A
  0
DICTIONARY
  5
2F0
102
{ACAD_REACTORS
330
C
102
}
330
C
100
AcDbDictionary
281
     1
  3
CANNOSCALE
350
2F1
  3
CMLEADERSTYLE
350
332
  3
CTABLESTYLE
350
331
  3
MSLTSCALE
350
2F2
  3
XCLIPFRAME
350
2F3
  0
XRECORD
  5
2EF
102
{ACAD_REACTORS
330
2EE
102
}
330
2EE
100
AcDbXrecord
280
     1
102
VTR_0.000_0.000_1.000_1.000_VISUALSTYLE
340
2F
102
VTR_0.000_0.000_1.000_1.000_GRIDDISPLAY
 70
     3
102
VTR_0.000_0.000_1.000_1.000_GRIDMAJOR
 70
     5
102
VTR_0.000_0.000_1.000_1.000_DEFAULTLIGHTING
280
     1
102
VTR_0.000_0.000_1.000_1.000_DEFAULTLIGHTINGTYPE
 70
     1
102
VTR_0.000_0.000_1.000_1.000_BRIGHTNESS
141
0.0
102
VTR_0.000_0.000_1.000_1.000_CONTRAST
142
0.0
  0
LAYOUT
  5
1E
102
{ACAD_REACTORS
330
1A
102
}
330
1A
100
AcDbPlotSettings
  1

  2
none_device
  4

  6

 40
0.0
 41
0.0
 42
0.0
 43
0.0
 44
0.0
 45
0.0
 46
0.0
 47
0.0
 48
0.0
 49
0.0
140
0.0
141
0.0
142
1.0
143
1.0
 70
   688
 72
     0
 73
     0
 74
     5
  7

 75
    16
 76
     0
 77
     2
 78
   300
147
1.0
148
0.0
149
0.0
100
AcDbLayout
  1
Layout1
 70
     1
 71
     1
 10
0.0
 20
0.0
 11
12.0
 21
9.0
 12
0.0
 22
0.0
 32
0.0
 14
1.00000000000000E+20
 24
1.00000000000000E+20
 34
1.00000000000000E+20
 15
-1.00000000000000E+20
 25
-1.00000000000000E+20
 35
-1.00000000000000E+20
146
0.0
 13
0.0
 23
0.0
 33
0.0
 16
1.0
 26
0.0
 36
0.0
 17
0.0
 27
1.0
 37
0.0
 76
     0
330
1B
  0
LAYOUT
  5
26
102
{ACAD_REACTORS
330
1A
102
}
330
1A
100
AcDbPlotSettings
  1

  2
none_device
  4

  6

 40
0.0
 41
0.0
 42
0.0
 43
0.0
 44
0.0
 45
0.0
 46
0.0
 47
0.0
 48
0.0
 49
0.0
140
0.0
141
0.0
142
1.0
143
1.0
 70
   688
 72
     0
 73
     0
 74
     5
  7

 75
    16
 76
     0
 77
     2
 78
   300
147
1.0
148
0.0
149
0.0
100
AcDbLayout
  1
Layout2
 70
     1
 71
     2
 10
0.0
 20
0.0
 11
0.0
 21
0.0
 12
0.0
 22
0.0
 32
0.0
 14
0.0
 24
0.0
 34
0.0
 15
0.0
 25
0.0
 35
0.0
146
0.0
 13
0.0
 23
0.0
 33
0.0
 16
1.0
 26
0.0
 36
0.0
 17
0.0
 27
1.0
 37
0.0
 76
     0
330
23
  0
LAYOUT
  5
22
102
{ACAD_REACTORS
330
1A
102
}
330
1A
100
AcDbPlotSettings
  1

  2
none_device
  4
Letter_(8.50_x_11.00_Inches)
  6

 40
6.35
 41
6.35
 42
6.35000508
 43
6.35000508
 44
215.9
 45
279.4
 46
0.0
 47
0.0
 48
0.0
 49
0.0
140
0.0
141
0.0
142
1.0
143
1.0
 70
  1712
 72
     0
 73
     0
 74
     0
  7

 75
     0
 76
     0
 77
     2
 78
   300
147
1.0
148
0.0
149
0.0
100
AcDbLayout
  1
Model
 70
     1
 71
     0
 10
0.0
 20
0.0
 11
12.0
 21
9.0
 12
0.0
 22
0.0
 32
0.0
 14
-231.794881933705
 24
6.11636329288206
 34
0.0
 15
65.20511806629304
 25
216.1163632928822
 35
0.0
146
0.0
 13
0.0
 23
0.0
 33
0.0
 16
1.0
 26
0.0
 36
0.0
 17
0.0
 27
1.0
 37
0.0
 76
     0
330
1F
331
29
  0
MATERIAL
  5
45
102
{ACAD_REACTORS
330
43
102
}
102
{ACAD_XDICTIONARY
360
326
102
}
330
43
100
AcDbMaterial
  1
ByBlock
  0
MATERIAL
  5
44
102
{ACAD_REACTORS
330
43
102
}
102
{ACAD_XDICTIONARY
360
324
102
}
330
43
100
AcDbMaterial
  1
ByLayer
  0
MATERIAL
  5
46
102
{ACAD_REACTORS
330
43
102
}
102
{ACAD_XDICTIONARY
360
328
102
}
330
43
100
AcDbMaterial
  1
Global
  0
MLEADERSTYLE
  5
6C
102
{ACAD_REACTORS
330
6B
102
}
102
{ACAD_XDICTIONARY
360
32E
102
}
330
6B
100
AcDbMLeaderStyle
170
     2
171
     1
172
     0
 90
        2
 40
0.0
 41
0.0
173
     1
 91
-1056964608
340
14
 92
       -2
290
     1
 42
0.09
291
     1
 43
0.36
  3
Standard
341
0
 44
0.18
300

342
11
174
     1
178
     6
175
     1
176
     0
 93
-1056964608
 45
0.18
292
     0
297
     0
 46
0.18
343
0
 94
-1056964608
 47
1.0
 49
1.0
140
1.0
293
     1
141
0.0
294
     1
177
     0
142
1.0
295
     0
296
     0
143
0.125
1001
ACAD_MLEADERVER
1070
     2
  0
MLINESTYLE
  5
18
102
{ACAD_REACTORS
330
17
102
}
330
17
100
AcDbMlineStyle
  2
Standard
 70
     0
  3

 62
   256
 51
90.0
 52
90.0
 71
     2
 49
0.5
 62
   256
  6
BYLAYER
 49
-0.5
 62
   256
  6
BYLAYER
  0
ACDBPLACEHOLDER
  5
F
102
{ACAD_REACTORS
330
E
102
}
330
E
  0
SCALE
  5
48
102
{ACAD_REACTORS
330
47
102
}
330
47
100
AcDbScale
 70
     0
300
1:1
140
1.0
141
1.0
290
     1
  0
SCALE
  5
49
102
{ACAD_REACTORS
330
47
102
}
330
47
100
AcDbScale
 70
     0
300
1:2
140
1.0
141
2.0
290
     0
  0
SCALE
  5
4A
102
{ACAD_REACTORS
330
47
102
}
330
47
100
AcDbScale
 70
     0
300
1:4
140
1.0
141
4.0
290
     0
  0
SCALE
  5
4B
102
{ACAD_REACTORS
330
47
102
}
330
47
100
AcDbScale
 70
     0
300
1:5
140
1.0
141
5.0
290
     0
  0
SCALE
  5
4C
102
{ACAD_REACTORS
330
47
102
}
330
47
100
AcDbScale
 70
     0
300
1:8
140
1.0
141
8.0
290
     0
  0
SCALE
  5
4D
102
{ACAD_REACTORS
330
47
102
}
330
47
100
AcDbScale
 70
     0
300
1:10
140
1.0
141
10.0
290
     0
  0
SCALE
  5
4E
102
{ACAD_REACTORS
330
47
102
}
330
47
100
AcDbScale
 70
     0
300
1:16
140
1.0
141
16.0
290
     0
  0
SCALE
  5
4F
102
{ACAD_REACTORS
330
47
102
}
330
47
100
AcDbScale
 70
     0
300
1:20
140
1.0
141
20.0
290
     0
  0
SCALE
  5
50
102
{ACAD_REACTORS
330
47
102
}
330
47
100
AcDbScale
 70
     0
300
1:30
140
1.0
141
30.0
290
     0
  0
SCALE
  5
51
102
{ACAD_REACTORS
330
47
102
}
330
47
100
AcDbScale
 70
     0
300
1:40
140
1.0
141
40.0
290
     0
  0
SCALE
  5
52
102
{ACAD_REACTORS
330
47
102
}
330
47
100
AcDbScale
 70
     0
300
1:50
140
1.0
141
50.0
290
     0
  0
SCALE
  5
53
102
{ACAD_REACTORS
330
47
102
}
330
47
100
AcDbScale
 70
     0
300
1:100
140
1.0
141
100.0
290
     0
  0
SCALE
  5
54
102
{ACAD_REACTORS
330
47
102
}
330
47
100
AcDbScale
 70
     0
300
2:1
140
2.0
141
1.0
290
     0
  0
SCALE
  5
55
102
{ACAD_REACTORS
330
47
102
}
330
47
100
AcDbScale
 70
     0
300
4:1
140
4.0
141
1.0
290
     0
  0
SCALE
  5
56
102
{ACAD_REACTORS
330
47
102
}
330
47
100
AcDbScale
 70
     0
300
8:1
140
8.0
141
1.0
290
     0
  0
SCALE
  5
57
102
{ACAD_REACTORS
330
47
102
}
330
47
100
AcDbScale
 70
     0
300
10:1
140
10.0
141
1.0
290
     0
  0
SCALE
  5
58
102
{ACAD_REACTORS
330
47
102
}
330
47
100
AcDbScale
 70
     0
300
100:1
140
100.0
141
1.0
290
     0
  0
SCALE
  5
59
102
{ACAD_REACTORS
330
47
102
}
330
47
100
AcDbScale
 70
     0
300
1/128" = 1'-0"
140
0.0078125
141
12.0
290
     0
  0
SCALE
  5
5A
102
{ACAD_REACTORS
330
47
102
}
330
47
100
AcDbScale
 70
     0
300
1/64" = 1'-0"
140
0.015625
141
12.0
290
     0
  0
SCALE
  5
5B
102
{ACAD_REACTORS
330
47
102
}
330
47
100
AcDbScale
 70
     0
300
1/32" = 1'-0"
140
0.03125
141
12.0
290
     0
  0
SCALE
  5
5C
102
{ACAD_REACTORS
330
47
102
}
330
47
100
AcDbScale
 70
     0
300
1/16" = 1'-0"
140
0.0625
141
12.0
290
     0
  0
SCALE
  5
5D
102
{ACAD_REACTORS
330
47
102
}
330
47
100
AcDbScale
 70
     0
300
3/32" = 1'-0"
140
0.09375
141
12.0
290
     0
  0
SCALE
  5
5E
102
{ACAD_REACTORS
330
47
102
}
330
47
100
AcDbScale
 70
     0
300
1/8" = 1'-0"
140
0.125
141
12.0
290
     0
  0
SCALE
  5
5F
102
{ACAD_REACTORS
330
47
102
}
330
47
100
AcDbScale
 70
     0
300
3/16" = 1'-0"
140
0.1875
141
12.0
290
     0
  0
SCALE
  5
60
102
{ACAD_REACTORS
330
47
102
}
330
47
100
AcDbScale
 70
     0
300
1/4" = 1'-0"
140
0.25
141
12.0
290
     0
  0
SCALE
  5
61
102
{ACAD_REACTORS
330
47
102
}
330
47
100
AcDbScale
 70
     0
300
3/8" = 1'-0"
140
0.375
141
12.0
290
     0
  0
SCALE
  5
62
102
{ACAD_REACTORS
330
47
102
}
330
47
100
AcDbScale
 70
     0
300
1/2" = 1'-0"
140
0.5
141
12.0
290
     0
  0
SCALE
  5
63
102
{ACAD_REACTORS
330
47
102
}
330
47
100
AcDbScale
 70
     0
300
3/4" = 1'-0"
140
0.75
141
12.0
290
     0
  0
SCALE
  5
64
102
{ACAD_REACTORS
330
47
102
}
330
47
100
AcDbScale
 70
     0
300
1" = 1'-0"
140
1.0
141
12.0
290
     0
  0
SCALE
  5
65
102
{ACAD_REACTORS
330
47
102
}
330
47
100
AcDbScale
 70
     0
300
1-1/2" = 1'-0"
140
1.5
141
12.0
290
     0
  0
SCALE
  5
66
102
{ACAD_REACTORS
330
47
102
}
330
47
100
AcDbScale
 70
     0
300
3" = 1'-0"
140
3.0
141
12.0
290
     0
  0
SCALE
  5
67
102
{ACAD_REACTORS
330
47
102
}
330
47
100
AcDbScale
 70
     0
300
6" = 1'-0"
140
6.0
141
12.0
290
     0
  0
SCALE
  5
68
102
{ACAD_REACTORS
330
47
102
}
330
47
100
AcDbScale
 70
     0
300
1'-0" = 1'-0"
140
12.0
141
12.0
290
     0
  0
TABLESTYLE
  5
6A
102
{ACAD_REACTORS
330
69
102
}
102
{ACAD_XDICTIONARY
360
32A
102
}
330
69
100
AcDbTableStyle
  3
Standard
 70
     0
 71
     0
 40
0.06
 41
0.06
280
     0
281
     0
  7
Standard
140
0.18
170
     2
 62
     0
 63
   257
283
     0
274
    -2
284
     1
 64
     0
275
    -2
285
     1
 65
     0
276
    -2
286
     1
 66
     0
277
    -2
287
     1
 67
     0
278
    -2
288
     1
 68
     0
279
    -2
289
     1
 69
     0
  7
Standard
140
0.25
170
     5
 62
     0
 63
   257
283
     0
274
    -2
284
     1
 64
     0
275
    -2
285
     1
 65
     0
276
    -2
286
     1
 66
     0
277
    -2
287
     1
 67
     0
278
    -2
288
     1
 68
     0
279
    -2
289
     1
 69
     0
  7
Standard
140
0.18
170
     5
 62
     0
 63
   257
283
     0
274
    -2
284
     1
 64
     0
275
    -2
285
     1
 65
     0
276
    -2
286
     1
 66
     0
277
    -2
287
     1
 67
     0
278
    -2
288
     1
 68
     0
279
    -2
289
     1
 69
     0
  0
VISUALSTYLE
  5
2F
102
{ACAD_REACTORS
330
2A
102
}
102
{ACAD_XDICTIONARY
360
2FC
102
}
330
2A
100
AcDbVisualStyle
  2
2dWireframe
 70
     4
 71
     0
 72
     2
 73
     0
 90
        0
 40
0.6
 41
30.0
 62
     5
 63
     7
421
 16777215
 74
     1
 91
        4
 64
     7
 65
   257
 75
     1
175
     1
 42
1.0
 92
        0
 66
   257
 43
1.0
 76
     1
 77
     6
 78
     2
 67
     7
 79
     5
170
     0
171
     0
290
     0
174
     0
 93
        1
 44
0.0
173
     0
291
     0
 45
0.0
1001
ACAD
1000
AcDbSavedByObjectVersion
1070
     0
  0
VISUALSTYLE
  5
32
102
{ACAD_REACTORS
330
2A
102
}
102
{ACAD_XDICTIONARY
360
302
102
}
330
2A
100
AcDbVisualStyle
  2
Basic
 70
     7
 71
     1
 72
     0
 73
     1
 90
        0
 40
0.6
 41
30.0
 62
     5
 63
     7
421
 16777215
 74
     0
 91
        4
 64
     7
 65
   257
 75
     1
175
     1
 42
1.0
 92
        8
 66
     7
 43
1.0
 76
     1
 77
     6
 78
     2
 67
     7
 79
     5
170
     0
171
     0
290
     0
174
     0
 93
        1
 44
0.0
173
     0
291
     1
 45
0.0
1001
ACAD
1000
AcDbSavedByObjectVersion
1070
     0
  0
VISUALSTYLE
  5
36
102
{ACAD_REACTORS
330
2A
102
}
102
{ACAD_XDICTIONARY
360
30A
102
}
330
2A
100
AcDbVisualStyle
  2
Brighten
 70
    12
 71
     2
 72
     2
 73
     0
 90
        0
 40
0.6
 41
30.0
 62
     5
 63
     7
421
 16777215
 74
     1
 91
        4
 64
     7
 65
   257
 75
     1
175
     1
 42
1.0
 92
        8
 66
     7
 43
1.0
 76
     1
 77
     6
 78
     2
 67
     7
 79
     5
170
     0
171
     0
290
     0
174
     0
 93
        1
 44
50.0
173
     0
291
     1
 45
0.0
1001
ACAD
1000
AcDbSavedByObjectVersion
1070
     0
  0
VISUALSTYLE
  5
3A
102
{ACAD_REACTORS
330
2A
102
}
102
{ACAD_XDICTIONARY
360
312
102
}
330
2A
100
AcDbVisualStyle
  2
ColorChange
 70
    16
 71
     2
 72
     2
 73
     3
 90
        0
 40
0.6
 41
30.0
 62
     5
 63
     8
421
  8421504
 74
     1
 91
        4
 64
     7
 65
   257
 75
     1
175
     1
 42
1.0
 92
        8
 66
     8
424
  8421504
 43
1.0
 76
     1
 77
     6
 78
     2
 67
     7
 79
     5
170
     0
171
     0
290
     0
174
     0
 93
        1
 44
0.0
173
     0
291
     1
 45
0.0
1001
ACAD
1000
AcDbSavedByObjectVersion
1070
     0
  0
VISUALSTYLE
  5
34
102
{ACAD_REACTORS
330
2A
102
}
102
{ACAD_XDICTIONARY
360
306
102
}
330
2A
100
AcDbVisualStyle
  2
Conceptual
 70
     9
 71
     3
 72
     2
 73
     0
 90
        0
 40
0.6
 41
30.0
 62
     5
 63
     7
421
 16777215
 74
     2
 91
        2
 64
     7
 65
   257
 75
     1
175
     1
 42
179.0
 92
        8
 66
     7
 43
1.0
 76
     1
 77
     6
 78
     2
 67
     7
 79
     3
170
     0
171
     0
290
     0
174
     0
 93
        1
 44
0.0
173
     0
291
     0
 45
0.0
1001
ACAD
1000
AcDbSavedByObjectVersion
1070
     0
  0
VISUALSTYLE
  5
35
102
{ACAD_REACTORS
330
2A
102
}
102
{ACAD_XDICTIONARY
360
308
102
}
330
2A
100
AcDbVisualStyle
  2
Dim
 70
    11
 71
     2
 72
     2
 73
     0
 90
        0
 40
0.6
 41
30.0
 62
     5
 63
     7
421
 16777215
 74
     1
 91
        4
 64
     7
 65
   257
 75
     1
175
     1
 42
1.0
 92
        8
 66
     7
 43
1.0
 76
     1
 77
     6
 78
     2
 67
     7
 79
     5
170
     0
171
     0
290
     0
174
     0
 93
        1
 44
-50.0
173
     0
291
     1
 45
0.0
1001
ACAD
1000
AcDbSavedByObjectVersion
1070
     0
  0
VISUALSTYLE
  5
3D
102
{ACAD_REACTORS
330
2A
102
}
102
{ACAD_XDICTIONARY
360
318
102
}
330
2A
100
AcDbVisualStyle
  2
EdgeColorOff
 70
    22
 71
     2
 72
     2
 73
     0
 90
        0
 40
0.6
 41
30.0
 62
     5
 63
     7
421
 16777215
 74
     1
 91
        4
 64
     7
 65
   257
 75
     1
175
     1
 42
1.0
 92
        8
 66
     7
 43
1.0
 76
     1
 77
     6
 78
     2
 67
     7
 79
     5
170
     0
171
     0
290
     0
174
     0
 93
        1
 44
0.0
173
     0
291
     1
 45
0.0
1001
ACAD
1000
AcDbSavedByObjectVersion
1070
     0
  0
VISUALSTYLE
  5
39
102
{ACAD_REACTORS
330
2A
102
}
102
{ACAD_XDICTIONARY
360
310
102
}
330
2A
100
AcDbVisualStyle
  2
Facepattern
 70
    15
 71
     2
 72
     2
 73
     0
 90
        0
 40
0.6
 41
30.0
 62
     5
 63
     7
421
 16777215
 74
     1
 91
        4
 64
     7
 65
   257
 75
     1
175
     1
 42
1.0
 92
        8
 66
     7
 43
1.0
 76
     1
 77
     6
 78
     2
 67
     7
 79
     5
170
     0
171
     0
290
     0
174
     0
 93
        1
 44
0.0
173
     0
291
     1
 45
0.0
1001
ACAD
1000
AcDbSavedByObjectVersion
1070
     0
  0
VISUALSTYLE
  5
2B
102
{ACAD_REACTORS
330
2A
102
}
102
{ACAD_XDICTIONARY
360
2F4
102
}
330
2A
100
AcDbVisualStyle
  2
Flat
 70
     0
 71
     2
 72
     1
 73
     1
 90
        2
 40
0.6
 41
30.0
 62
     5
 63
     7
421
 16777215
 74
     0
 91
        0
 64
     7
 65
   257
 75
     1
175
     1
 42
1.0
 92
        8
 66
     7
 43
1.0
 76
     1
 77
     6
 78
     2
 67
     7
 79
     5
170
     0
171
     0
290
     0
174
     0
 93
       13
 44
0.0
173
     0
291
     1
 45
0.0
1001
ACAD
1000
AcDbSavedByObjectVersion
1070
     0
  0
VISUALSTYLE
  5
2C
102
{ACAD_REACTORS
330
2A
102
}
102
{ACAD_XDICTIONARY
360
2F6
102
}
330
2A
100
AcDbVisualStyle
  2
FlatWithEdges
 70
     1
 71
     2
 72
     1
 73
     1
 90
        2
 40
0.6
 41
30.0
 62
     5
 63
     7
421
 16777215
 74
     1
 91
        0
 64
     7
 65
   257
 75
     1
175
     1
 42
1.0
 92
        0
 66
   257
 43
1.0
 76
     1
 77
     6
 78
     2
 67
     7
 79
     5
170
     0
171
     0
290
     0
174
     0
 93
       13
 44
0.0
173
     0
291
     1
 45
0.0
1001
ACAD
1000
AcDbSavedByObjectVersion
1070
     0
  0
VISUALSTYLE
  5
2D
102
{ACAD_REACTORS
330
2A
102
}
102
{ACAD_XDICTIONARY
360
2F8
102
}
330
2A
100
AcDbVisualStyle
  2
Gouraud
 70
     2
 71
     2
 72
     2
 73
     1
 90
        2
 40
0.6
 41
30.0
 62
     5
 63
     7
421
 16777215
 74
     0
 91
        0
 64
     7
 65
   257
 75
     1
175
     1
 42
1.0
 92
        0
 66
     7
 43
1.0
 76
     1
 77
     6
 78
     2
 67
     7
 79
     5
170
     0
171
     0
290
     0
174
     0
 93
       13
 44
0.0
173
     0
291
     1
 45
0.0
1001
ACAD
1000
AcDbSavedByObjectVersion
1070
     0
  0
VISUALSTYLE
  5
2E
102
{ACAD_REACTORS
330
2A
102
}
102
{ACAD_XDICTIONARY
360
2FA
102
}
330
2A
100
AcDbVisualStyle
  2
GouraudWithEdges
 70
     3
 71
     2
 72
     2
 73
     1
 90
        2
 40
0.6
 41
30.0
 62
     5
 63
     7
421
 16777215
 74
     1
 91
        0
 64
     7
 65
   257
 75
     1
175
     1
 42
1.0
 92
        0
 66
   257
 43
1.0
 76
     1
 77
     6
 78
     2
 67
     7
 79
     5
170
     0
171
     0
290
     0
174
     0
 93
       13
 44
0.0
173
     0
291
     1
 45
0.0
1001
ACAD
1000
AcDbSavedByObjectVersion
1070
     0
  0
VISUALSTYLE
  5
31
102
{ACAD_REACTORS
330
2A
102
}
102
{ACAD_XDICTIONARY
360
300
102
}
330
2A
100
AcDbVisualStyle
  2
Hidden
 70
     6
 71
     1
 72
     2
 73
     2
 90
        0
 40
0.6
 41
30.0
 62
     5
 63
     7
421
 16777215
 74
     2
 91
        2
 64
     7
 65
   257
 75
     2
175
     1
 42
40.0
 92
        0
 66
   257
 43
1.0
 76
     1
 77
     6
 78
     2
 67
     7
 79
     3
170
     0
171
     0
290
     0
174
     0
 93
        1
 44
0.0
173
     0
291
     0
 45
0.0
1001
ACAD
1000
AcDbSavedByObjectVersion
1070
     0
  0
VISUALSTYLE
  5
3B
102
{ACAD_REACTORS
330
2A
102
}
102
{ACAD_XDICTIONARY
360
314
102
}
330
2A
100
AcDbVisualStyle
  2
JitterOff
 70
    20
 71
     2
 72
     2
 73
     0
 90
        0
 40
0.6
 41
30.0
 62
     5
 63
     7
421
 16777215
 74
     1
 91
        4
 64
     7
 65
   257
 75
     1
175
     1
 42
1.0
 92
       10
 66
     7
 43
1.0
 76
     1
 77
     6
 78
     2
 67
     7
 79
     5
170
     0
171
     0
290
     0
174
     0
 93
        1
 44
0.0
173
     0
291
     1
 45
0.0
1001
ACAD
1000
AcDbSavedByObjectVersion
1070
     0
  0
VISUALSTYLE
  5
38
102
{ACAD_REACTORS
330
2A
102
}
102
{ACAD_XDICTIONARY
360
30E
102
}
330
2A
100
AcDbVisualStyle
  2
Linepattern
 70
    14
 71
     2
 72
     2
 73
     0
 90
        0
 40
0.6
 41
30.0
 62
     5
 63
     7
421
 16777215
 74
     1
 91
        4
 64
     7
 65
   257
 75
     7
175
     7
 42
1.0
 92
        8
 66
     7
 43
1.0
 76
     1
 77
     6
 78
     2
 67
     7
 79
     5
170
     0
171
     0
290
     0
174
     0
 93
        1
 44
0.0
173
     0
291
     1
 45
0.0
1001
ACAD
1000
AcDbSavedByObjectVersion
1070
     0
  0
VISUALSTYLE
  5
3C
102
{ACAD_REACTORS
330
2A
102
}
102
{ACAD_XDICTIONARY
360
316
102
}
330
2A
100
AcDbVisualStyle
  2
OverhangOff
 70
    21
 71
     2
 72
     2
 73
     0
 90
        0
 40
0.6
 41
30.0
 62
     5
 63
     7
421
 16777215
 74
     1
 91
        4
 64
     7
 65
   257
 75
     1
175
     1
 42
1.0
 92
        9
 66
     7
 43
1.0
 76
     1
 77
     6
 78
     2
 67
     7
 79
     5
170
     0
171
     0
290
     0
174
     0
 93
        1
 44
0.0
173
     0
291
     1
 45
0.0
1001
ACAD
1000
AcDbSavedByObjectVersion
1070
     0
  0
VISUALSTYLE
  5
33
102
{ACAD_REACTORS
330
2A
102
}
102
{ACAD_XDICTIONARY
360
304
102
}
330
2A
100
AcDbVisualStyle
  2
Realistic
 70
     8
 71
     2
 72
     3
 73
     0
 90
        2
 40
0.6
 41
30.0
 62
     5
 63
     7
421
 16777215
 74
     0
 91
        0
 64
     7
 65
   257
 75
     1
175
     1
 42
1.0
 92
        8
 66
   257
 43
1.0
 76
     1
 77
     6
 78
     2
 67
     7
 79
     3
170
     0
171
     0
290
     0
174
     0
 93
       13
 44
0.0
173
     0
291
     0
 45
0.0
1001
ACAD
1000
AcDbSavedByObjectVersion
1070
     0
  0
VISUALSTYLE
  5
42
102
{ACAD_REACTORS
330
2A
102
}
102
{ACAD_XDICTIONARY
360
322
102
}
330
2A
100
AcDbVisualStyle
  2
Shaded
 70
    27
 71
     2
 72
     2
 73
     1
 90
        2
 40
0.6
 41
30.0
 62
     5
 63
     7
421
 16777215
 74
     0
 91
        4
 64
     7
 65
   257
 75
     1
175
     1
 42
1.0
 92
        8
 66
   257
 43
1.0
 76
     1
 77
     6
 78
     2
 67
     8
425
  7895160
 79
     3
170
     0
171
     0
290
     0
174
     0
 93
        5
 44
0.0
173
     0
291
     0
 45
0.0
1001
ACAD
1000
AcDbSavedByObjectVersion
1070
     0
  0
VISUALSTYLE
  5
41
102
{ACAD_REACTORS
330
2A
102
}
102
{ACAD_XDICTIONARY
360
320
102
}
330
2A
100
AcDbVisualStyle
  2
Shaded with edges
 70
    26
 71
     2
 72
     2
 73
     1
 90
        2
 40
0.6
 41
30.0
 62
     5
 63
     7
421
 16777215
 74
     1
 91
       10
 64
     7
 65
   257
 75
     2
175
     1
 42
1.0
 92
        8
 66
   257
 43
1.0
 76
     1
 77
     6
 78
     2
 67
     7
 79
     3
170
     0
171
     0
290
     0
174
     0
 93
        5
 44
0.0
173
     0
291
     0
 45
0.0
1001
ACAD
1000
AcDbSavedByObjectVersion
1070
     0
  0
VISUALSTYLE
  5
3E
102
{ACAD_REACTORS
330
2A
102
}
102
{ACAD_XDICTIONARY
360
31A
102
}
330
2A
100
AcDbVisualStyle
  2
Shades of Gray
 70
    23
 71
     2
 72
     2
 73
     3
 90
        0
 40
0.6
 41
30.0
 62
     5
 63
     7
421
 16777215
 74
     2
 91
        2
 64
     7
 65
     7
 75
     1
175
     1
 42
40.0
 92
        8
 66
     7
 43
1.0
 76
     1
 77
     6
 78
     2
 67
     7
 79
     3
170
     0
171
     0
290
     0
174
     0
 93
        1
 44
0.0
173
     0
291
     0
 45
0.0
1001
ACAD
1000
AcDbSavedByObjectVersion
1070
     0
  0
VISUALSTYLE
  5
3F
102
{ACAD_REACTORS
330
2A
102
}
102
{ACAD_XDICTIONARY
360
31C
102
}
330
2A
100
AcDbVisualStyle
  2
Sketchy
 70
    24
 71
     1
 72
     2
 73
     2
 90
        0
 40
0.6
 41
30.0
 62
     5
 63
     7
421
 16777215
 74
     2
 91
        2
 64
     7
 65
     7
 75
     1
175
     1
 42
40.0
 92
       11
 66
     7
 43
1.0
 76
     1
 77
     6
 78
     2
 67
     7
 79
     6
170
     0
171
     0
290
     0
174
     0
 93
        1
 44
0.0
173
     0
291
     0
 45
0.0
1001
ACAD
1000
AcDbSavedByObjectVersion
1070
     0
  0
VISUALSTYLE
  5
37
102
{ACAD_REACTORS
330
2A
102
}
102
{ACAD_XDICTIONARY
360
30C
102
}
330
2A
100
AcDbVisualStyle
  2
Thicken
 70
    13
 71
     2
 72
     2
 73
     0
 90
        0
 40
0.6
 41
30.0
 62
     5
 63
     7
421
 16777215
 74
     1
 91
        4
 64
     7
 65
   257
 75
     1
175
     1
 42
1.0
 92
       12
 66
     7
 43
1.0
 76
     1
 77
     6
 78
     2
 67
     7
 79
     5
170
     0
171
     0
290
     0
174
     0
 93
        1
 44
0.0
173
     0
291
     1
 45
0.0
1001
ACAD
1000
AcDbSavedByObjectVersion
1070
     0
  0
VISUALSTYLE
  5
30
102
{ACAD_REACTORS
330
2A
102
}
102
{ACAD_XDICTIONARY
360
2FE
102
}
330
2A
100
AcDbVisualStyle
  2
Wireframe
 70
     5
 71
     0
 72
     2
 73
     0
 90
        0
 40
0.6
 41
30.0
 62
     5
 63
     7
421
 16777215
 74
     1
 91
        4
 64
     7
 65
   257
 75
     1
175
     1
 42
1.0
 92
        0
 66
   257
 43
1.0
 76
     1
 77
     6
 78
     2
 67
     7
 79
     3
170
     0
171
     0
290
     0
174
     0
 93
        1
 44
0.0
173
     0
291
     0
 45
0.0
1001
ACAD
1000
AcDbSavedByObjectVersion
1070
     0
  0
VISUALSTYLE
  5
40
102
{ACAD_REACTORS
330
2A
102
}
102
{ACAD_XDICTIONARY
360
31E
102
}
330
2A
100
AcDbVisualStyle
  2
X-Ray
 70
    25
 71
     2
 72
     2
 73
     1
 90
        1
 40
0.5
 41
30.0
 62
     5
 63
     7
421
 16777215
 74
     1
 91
        0
 64
     7
 65
   257
 75
     1
175
     1
 42
1.0
 92
        8
 66
     7
 43
1.0
 76
     1
 77
     6
 78
     2
 67
     7
 79
     3
170
     0
171
     0
290
     0
174
     0
 93
       13
 44
0.0
173
     0
291
     0
 45
0.0
1001
ACAD
1000
AcDbSavedByObjectVersion
1070
     0
  0
DICTIONARYVAR
  5
2F1
102
{ACAD_REACTORS
330
2F0
102
}
330
2F0
100
DictionaryVariables
280
     0
  1
1:1
  0
DICTIONARYVAR
  5
332
102
{ACAD_REACTORS
330
2F0
102
}
330
2F0
100
DictionaryVariables
280
     0
  1
Standard
  0
DICTIONARYVAR
  5
331
102
{ACAD_REACTORS
330
2F0
102
}
330
2F0
100
DictionaryVariables
280
     0
  1
Standard
  0
DICTIONARYVAR
  5
2F2
102
{ACAD_REACTORS
330
2F0
102
}
330
2F0
100
DictionaryVariables
280
     0
  1
1
  0
DICTIONARYVAR
  5
2F3
102
{ACAD_REACTORS
330
2F0
102
}
330
2F0
100
DictionaryVariables
280
     0
  1
2
  0
DICTIONARY
  5
326
330
45
100
AcDbDictionary
280
     1
281
     1
  3
ACAD_XREC_ROUNDTRIP
360
327
  0
DICTIONARY
  5
324
330
44
100
AcDbDictionary
280
     1
281
     1
  3
ACAD_XREC_ROUNDTRIP
360
325
  0
DICTIONARY
  5
328
330
46
100
AcDbDictionary
280
     1
281
     1
  3
ACAD_XREC_ROUNDTRIP
360
329
  0
DICTIONARY
  5
32E
330
6C
100
AcDbDictionary
280
     1
281
     1
  3
ACAD_XREC_ROUNDTRIP
360
32F
  0
DICTIONARY
  5
32A
330
6A
100
AcDbDictionary
280
     1
281
     1
  3
ACAD_ROUNDTRIP_2008_TABLESTYLE_CELLSTYLEMAP
360
32C
  3
ACAD_XREC_ROUNDTRIP
360
32B
  0
DICTIONARY
  5
2FC
330
2F
100
AcDbDictionary
280
     1
281
     1
  3
ACAD_XREC_ROUNDTRIP
360
2FD
  0
DICTIONARY
  5
302
330
32
100
AcDbDictionary
280
     1
281
     1
  3
ACAD_XREC_ROUNDTRIP
360
303
  0
DICTIONARY
  5
30A
330
36
100
AcDbDictionary
280
     1
281
     1
  3
ACAD_XREC_ROUNDTRIP
360
30B
  0
DICTIONARY
  5
312
330
3A
100
AcDbDictionary
280
     1
281
     1
  3
ACAD_XREC_ROUNDTRIP
360
313
  0
DICTIONARY
  5
306
330
34
100
AcDbDictionary
280
     1
281
     1
  3
ACAD_XREC_ROUNDTRIP
360
307
  0
DICTIONARY
  5
308
330
35
100
AcDbDictionary
280
     1
281
     1
  3
ACAD_XREC_ROUNDTRIP
360
309
  0
DICTIONARY
  5
318
330
3D
100
AcDbDictionary
280
     1
281
     1
  3
ACAD_XREC_ROUNDTRIP
360
319
  0
DICTIONARY
  5
310
330
39
100
AcDbDictionary
280
     1
281
     1
  3
ACAD_XREC_ROUNDTRIP
360
311
  0
DICTIONARY
  5
2F4
330
2B
100
AcDbDictionary
280
     1
281
     1
  3
ACAD_XREC_ROUNDTRIP
360
2F5
  0
DICTIONARY
  5
2F6
330
2C
100
AcDbDictionary
280
     1
281
     1
  3
ACAD_XREC_ROUNDTRIP
360
2F7
  0
DICTIONARY
  5
2F8
330
2D
100
AcDbDictionary
280
     1
281
     1
  3
ACAD_XREC_ROUNDTRIP
360
2F9
  0
DICTIONARY
  5
2FA
330
2E
100
AcDbDictionary
280
     1
281
     1
  3
ACAD_XREC_ROUNDTRIP
360
2FB
  0
DICTIONARY
  5
300
330
31
100
AcDbDictionary
280
     1
281
     1
  3
ACAD_XREC_ROUNDTRIP
360
301
  0
DICTIONARY
  5
314
330
3B
100
AcDbDictionary
280
     1
281
     1
  3
ACAD_XREC_ROUNDTRIP
360
315
  0
DICTIONARY
  5
30E
330
38
100
AcDbDictionary
280
     1
281
     1
  3
ACAD_XREC_ROUNDTRIP
360
30F
  0
DICTIONARY
  5
316
330
3C
100
AcDbDictionary
280
     1
281
     1
  3
ACAD_XREC_ROUNDTRIP
360
317
  0
DICTIONARY
  5
304
330
33
100
AcDbDictionary
280
     1
281
     1
  3
ACAD_XREC_ROUNDTRIP
360
305
  0
DICTIONARY
  5
322
330
42
100
AcDbDictionary
280
     1
281
     1
  3
ACAD_XREC_ROUNDTRIP
360
323
  0
DICTIONARY
  5
320
330
41
100
AcDbDictionary
280
     1
281
     1
  3
ACAD_XREC_ROUNDTRIP
360
321
  0
DICTIONARY
  5
31A
330
3E
100
AcDbDictionary
280
     1
281
     1
  3
ACAD_XREC_ROUNDTRIP
360
31B
  0
DICTIONARY
  5
31C
330
3F
100
AcDbDictionary
280
     1
281
     1
  3
ACAD_XREC_ROUNDTRIP
360
31D
  0
DICTIONARY
  5
30C
330
37
100
AcDbDictionary
280
     1
281
     1
  3
ACAD_XREC_ROUNDTRIP
360
30D
  0
DICTIONARY
  5
2FE
330
30
100
AcDbDictionary
280
     1
281
     1
  3
ACAD_XREC_ROUNDTRIP
360
2FF
  0
DICTIONARY
  5
31E
330
40
100
AcDbDictionary
280
     1
281
     1
  3
ACAD_XREC_ROUNDTRIP
360
31F
  0
XRECORD
  5
327
102
{ACAD_REACTORS
330
326
102
}
330
326
100
AcDbXrecord
280
     1
102
MATERIAL
148
0.0
149
0.0
149
0.0
 93
        0
 94
      127
282
     0
 72
     1
 77
     1
171
     1
175
     1
179
     1
273
     0
  0
XRECORD
  5
325
102
{ACAD_REACTORS
330
324
102
}
330
324
100
AcDbXrecord
280
     1
102
MATERIAL
148
0.0
149
0.0
149
0.0
 93
        0
 94
      127
282
     0
 72
     1
 77
     1
171
     1
175
     1
179
     1
273
     0
  0
XRECORD
  5
329
102
{ACAD_REACTORS
330
328
102
}
330
328
100
AcDbXrecord
280
     1
102
MATERIAL
148
0.0
149
0.0
149
0.0
 93
        0
 94
      127
282
     0
 72
     1
 77
     1
171
     1
175
     1
179
     1
273
     0
  0
XRECORD
  5
32F
102
{ACAD_REACTORS
330
32E
102
}
330
32E
100
AcDbXrecord
280
     1
102
ACAD_ROUNDTRIP_2010_MLEADER_STYLE
  0
CELLSTYLEMAP
  5
32C
102
{ACAD_REACTORS
330
32A
102
}
330
32A
100
AcDbCellStyleMap
 90
        3
300
CELLSTYLE
  1
TABLEFORMAT_BEGIN
 90
        5
170
     1
 91
        0
 92
    32768
 62
   257
 93
        1
300
CONTENTFORMAT
  1
CONTENTFORMAT_BEGIN
 90
        0
 91
        0
 92
        4
 93
        0
300

 40
0.0
140
1.0
 94
        5
 62
     0
340
11
144
0.25
309
CONTENTFORMAT_END
171
     1
301
MARGIN
  1
CELLMARGIN_BEGIN
 40
0.06
 40
0.06
 40
0.06
 40
0.06
 40
0.06
 40
0.06
309
CELLMARGIN_END
 94
        6
 95
        1
302
GRIDFORMAT
  1
GRIDFORMAT_BEGIN
 90
        0
 91
        1
 62
     0
 92
       -2
340
14
 93
        0
 40
0.045
309
GRIDFORMAT_END
 95
        2
302
GRIDFORMAT
  1
GRIDFORMAT_BEGIN
 90
        0
 91
        1
 62
     0
 92
       -2
340
14
 93
        0
 40
0.045
309
GRIDFORMAT_END
 95
        4
302
GRIDFORMAT
  1
GRIDFORMAT_BEGIN
 90
        0
 91
        1
 62
     0
 92
       -2
340
14
 93
        0
 40
0.045
309
GRIDFORMAT_END
 95
        8
302
GRIDFORMAT
  1
GRIDFORMAT_BEGIN
 90
        0
 91
        1
 62
     0
 92
       -2
340
14
 93
        0
 40
0.045
309
GRIDFORMAT_END
 95
       16
302
GRIDFORMAT
  1
GRIDFORMAT_BEGIN
 90
        0
 91
        1
 62
     0
 92
       -2
340
14
 93
        0
 40
0.045
309
GRIDFORMAT_END
 95
       32
302
GRIDFORMAT
  1
GRIDFORMAT_BEGIN
 90
        0
 91
        1
 62
     0
 92
       -2
340
14
 93
        0
 40
0.045
309
GRIDFORMAT_END
309
TABLEFORMAT_END
  1
CELLSTYLE_BEGIN
 90
        1
 91
        1
300
_TITLE
309
CELLSTYLE_END
300
CELLSTYLE
  1
TABLEFORMAT_BEGIN
 90
        5
170
     1
 91
        0
 92
        0
 62
   257
 93
        1
300
CONTENTFORMAT
  1
CONTENTFORMAT_BEGIN
 90
        0
 91
        0
 92
        4
 93
        0
300

 40
0.0
140
1.0
 94
        5
 62
     0
340
11
144
0.18
309
CONTENTFORMAT_END
171
     1
301
MARGIN
  1
CELLMARGIN_BEGIN
 40
0.06
 40
0.06
 40
0.06
 40
0.06
 40
0.06
 40
0.06
309
CELLMARGIN_END
 94
        6
 95
        1
302
GRIDFORMAT
  1
GRIDFORMAT_BEGIN
 90
        0
 91
        1
 62
     0
 92
       -2
340
14
 93
        0
 40
0.045
309
GRIDFORMAT_END
 95
        2
302
GRIDFORMAT
  1
GRIDFORMAT_BEGIN
 90
        0
 91
        1
 62
     0
 92
       -2
340
14
 93
        0
 40
0.045
309
GRIDFORMAT_END
 95
        4
302
GRIDFORMAT
  1
GRIDFORMAT_BEGIN
 90
        0
 91
        1
 62
     0
 92
       -2
340
14
 93
        0
 40
0.045
309
GRIDFORMAT_END
 95
        8
302
GRIDFORMAT
  1
GRIDFORMAT_BEGIN
 90
        0
 91
        1
 62
     0
 92
       -2
340
14
 93
        0
 40
0.045
309
GRIDFORMAT_END
 95
       16
302
GRIDFORMAT
  1
GRIDFORMAT_BEGIN
 90
        0
 91
        1
 62
     0
 92
       -2
340
14
 93
        0
 40
0.045
309
GRIDFORMAT_END
 95
       32
302
GRIDFORMAT
  1
GRIDFORMAT_BEGIN
 90
        0
 91
        1
 62
     0
 92
       -2
340
14
 93
        0
 40
0.045
309
GRIDFORMAT_END
309
TABLEFORMAT_END
  1
CELLSTYLE_BEGIN
 90
        2
 91
        1
300
_HEADER
309
CELLSTYLE_END
300
CELLSTYLE
  1
TABLEFORMAT_BEGIN
 90
        5
170
     1
 91
        0
 92
        0
 62
   257
 93
        1
300
CONTENTFORMAT
  1
CONTENTFORMAT_BEGIN
 90
        0
 91
        0
 92
        4
 93
        0
300

 40
0.0
140
1.0
 94
        2
 62
     0
340
11
144
0.18
309
CONTENTFORMAT_END
171
     1
301
MARGIN
  1
CELLMARGIN_BEGIN
 40
0.06
 40
0.06
 40
0.06
 40
0.06
 40
0.06
 40
0.06
309
CELLMARGIN_END
 94
        6
 95
        1
302
GRIDFORMAT
  1
GRIDFORMAT_BEGIN
 90
        0
 91
        1
 62
     0
 92
       -2
340
14
 93
        0
 40
0.045
309
GRIDFORMAT_END
 95
        2
302
GRIDFORMAT
  1
GRIDFORMAT_BEGIN
 90
        0
 91
        1
 62
     0
 92
       -2
340
14
 93
        0
 40
0.045
309
GRIDFORMAT_END
 95
        4
302
GRIDFORMAT
  1
GRIDFORMAT_BEGIN
 90
        0
 91
        1
 62
     0
 92
       -2
340
14
 93
        0
 40
0.045
309
GRIDFORMAT_END
 95
        8
302
GRIDFORMAT
  1
GRIDFORMAT_BEGIN
 90
        0
 91
        1
 62
     0
 92
       -2
340
14
 93
        0
 40
0.045
309
GRIDFORMAT_END
 95
       16
302
GRIDFORMAT
  1
GRIDFORMAT_BEGIN
 90
        0
 91
        1
 62
     0
 92
       -2
340
14
 93
        0
 40
0.045
309
GRIDFORMAT_END
 95
       32
302
GRIDFORMAT
  1
GRIDFORMAT_BEGIN
 90
        0
 91
        1
 62
     0
 92
       -2
340
14
 93
        0
 40
0.045
309
GRIDFORMAT_END
309
TABLEFORMAT_END
  1
CELLSTYLE_BEGIN
 90
        3
 91
        2
300
_DATA
309
CELLSTYLE_END
  0
XRECORD
  5
32B
102
{ACAD_REACTORS
330
32A
102
}
330
32A
100
AcDbXrecord
280
     1
102
ACAD_ROUNDTRIP_PRE2007_TABLESTYLE
 90
        4
 91
        0
  1

 92
        4
 93
        0
  2

 94
        4
 95
        0
  3

  0
XRECORD
  5
2FD
102
{ACAD_REACTORS
330
2FC
102
}
330
2FC
100
AcDbXrecord
280
     1
102
RTVSPropertyOp0
 70
     1
102
RTVSPropertyOp1
 70
     1
102
RTVSPropertyOp2
 70
     1
102
RTVSPropertyOp3
 70
     1
102
RTVSPropertyOp4
 70
     1
102
RTVSPropertyOp5
 70
     1
102
RTVSPropertyOp6
 70
     1
102
RTVSPropertyOp7
 70
     1
102
RTVSPropertyOp8
 70
     1
102
RTVSPropertyOp9
 70
     1
102
RTVSPropertyOp10
 70
     1
102
RTVSPropertyOp11
 70
     1
102
RTVSPropertyOp12
 70
     1
102
RTVSPropertyOp13
 70
     1
102
RTVSPropertyOp14
 70
     1
102
RTVSPropertyOp15
 70
     1
102
RTVSPropertyOp16
 70
     1
102
RTVSPropertyOp17
 70
     1
102
RTVSPropertyOp18
 70
     1
102
RTVSPropertyOp19
 70
     1
102
RTVSPropertyOp20
 70
     1
102
RTVSPropertyOp21
 70
     1
102
RTVSPropertyOp22
 70
     1
102
RTVSPropertyOp23
 70
     1
102
RTVSPropertyOp24
 70
     1
102
RTVSPropertyOp25
 70
     1
102
RTVSPropertyOp26
 70
     1
102
RTVSPropertyOp27
 70
     1
102
RTVSPropertyOp28
 70
     1
102
RTVSPropertyOp29
 70
     1
102
RTVSPropertyOp30
 70
     1
102
RTVSPropertyOp31
 70
     1
102
RTVSPropertyOp32
 70
     1
102
RTVSPropertyOp33
 70
     1
102
RTVSPropertyOp34
 70
     1
102
RTVSPropertyOp35
 70
     1
102
RTVSPropertyOp36
 70
     1
102
RTVSPropertyOp37
 70
     1
102
RTVSPropertyOp38
 70
     1
102
RTVSPropertyOp39
 70
     1
102
RTVSPropertyOp40
 70
     1
102
RTVSPropertyOp41
 70
     1
102
RTVSPropertyOp42
 70
     1
102
RTVSPropertyOp43
 70
     1
102
RTVSPropertyOp44
 70
     1
102
RTVSPropertyOp45
 70
     1
102
RTVSPropertyOp46
 70
     1
102
RTVSPropertyOp47
 70
     1
102
RTVSPropertyOp48
 70
     1
102
RTVSPropertyOp49
 70
     1
102
RTVSPropertyOp50
 70
     1
102
RTVSPropertyOp51
 70
     0
102
RTVSPropertyOp52
 70
     0
102
RTVSPropertyOp53
 70
     1
102
RTVSPropertyOp54
 70
     1
102
RTVSPropertyOp55
 70
     1
102
RTVSPropertyOp56
 70
     1
102
RTVSPropertyOp57
 70
     1
102
RTVSPost2010Prop28
280
     1
102
RTVSPost2010PropOp28
 70
     1
102
RTVSPost2010Prop29
280
     1
102
RTVSPost2010PropOp29
 70
     1
102
RTVSPost2010Prop30
280
     0
102
RTVSPost2010PropOp30
 70
     1
102
RTVSPost2010Prop31
280
     0
102
RTVSPost2010PropOp31
 70
     1
102
RTVSPost2010Prop32
280
     0
102
RTVSPost2010PropOp32
 70
     1
102
RTVSPost2010Prop33
280
     0
102
RTVSPost2010PropOp33
 70
     1
102
RTVSPost2010Prop34
280
     0
102
RTVSPost2010PropOp34
 70
     1
102
RTVSPost2010Prop35
280
     0
102
RTVSPost2010PropOp35
 70
     1
102
RTVSPost2010Prop36
280
     0
102
RTVSPost2010PropOp36
 70
     1
102
RTVSPost2010Prop37
 90
       50
102
RTVSPost2010PropOp37
 70
     1
102
RTVSPost2010Prop38
140
0.0
102
RTVSPost2010PropOp38
 70
     1
102
RTVSPost2010Prop39
140
1.0
102
RTVSPost2010PropOp39
 70
     1
102
RTVSPost2010Prop40
 90
        0
102
RTVSPost2010PropOp40
 70
     1
102
RTVSPost2010Prop41ColorIndex
 90
       18
102
RTVSPost2010Prop41ColorRGB
 90
        0
102
RTVSPost2010PropOp41
 70
     1
102
RTVSPost2010Prop42
 90
       50
102
RTVSPost2010PropOp42
 70
     1
102
RTVSPost2010Prop43
 90
        3
102
RTVSPost2010PropOp43
 70
     1
102
RTVSPost2010Prop44ColorIndex
 90
        5
102
RTVSPost2010Prop44ColorRGB
 90
      255
102
RTVSPost2010PropOp44
 70
     1
102
RTVSPost2010Prop45
280
     0
102
RTVSPost2010PropOp45
 70
     1
102
RTVSPost2010Prop46
 90
       50
102
RTVSPost2010PropOp46
 70
     1
102
RTVSPost2010Prop47
 90
       50
102
RTVSPost2010PropOp47
 70
     1
102
RTVSPost2010Prop48
 90
       50
102
RTVSPost2010PropOp48
 70
     1
102
RTVSPost2010Prop49
280
     0
102
RTVSPost2010PropOp49
 70
     1
102
RTVSPost2010Prop50
 90
       50
102
RTVSPost2010PropOp50
 70
     1
102
RTVSPost2010Prop51ColorIndex
 90
      256
102
RTVSPost2010Prop51ColorRGB
 90
-16777216
102
RTVSPost2010PropOp51
 70
     0
102
RTVSPost2010Prop52
140
1.0
102
RTVSPost2010PropOp52
 70
     0
102
RTVSPost2010Prop53
 90
        2
102
RTVSPost2010PropOp53
 70
     1
102
RTVSPost2010Prop54
  1
strokes_ogs.tif
102
RTVSPost2010PropOp54
 70
     1
102
RTVSPost2010Prop55
280
     0
102
RTVSPost2010PropOp55
 70
     1
102
RTVSPost2010Prop56
140
1.0
102
RTVSPost2010PropOp56
 70
     1
102
RTVSPost2010Prop57
140
1.0
102
RTVSPost2010PropOp57
 70
     1
  0
XRECORD
  5
303
102
{ACAD_REACTORS
330
302
102
}
330
302
100
AcDbXrecord
280
     1
102
RTVSPropertyOp0
 70
     1
102
RTVSPropertyOp1
 70
     1
102
RTVSPropertyOp2
 70
     1
102
RTVSPropertyOp3
 70
     1
102
RTVSPropertyOp4
 70
     1
102
RTVSPropertyOp5
 70
     1
102
RTVSPropertyOp6
 70
     1
102
RTVSPropertyOp7
 70
     1
102
RTVSPropertyOp8
 70
     1
102
RTVSPropertyOp9
 70
     1
102
RTVSPropertyOp10
 70
     1
102
RTVSPropertyOp11
 70
     1
102
RTVSPropertyOp12
 70
     1
102
RTVSPropertyOp13
 70
     1
102
RTVSPropertyOp14
 70
     1
102
RTVSPropertyOp15
 70
     1
102
RTVSPropertyOp16
 70
     1
102
RTVSPropertyOp17
 70
     1
102
RTVSPropertyOp18
 70
     1
102
RTVSPropertyOp19
 70
     1
102
RTVSPropertyOp20
 70
     1
102
RTVSPropertyOp21
 70
     1
102
RTVSPropertyOp22
 70
     1
102
RTVSPropertyOp23
 70
     1
102
RTVSPropertyOp24
 70
     1
102
RTVSPropertyOp25
 70
     1
102
RTVSPropertyOp26
 70
     1
102
RTVSPropertyOp27
 70
     1
102
RTVSPropertyOp28
 70
     1
102
RTVSPropertyOp29
 70
     1
102
RTVSPropertyOp30
 70
     1
102
RTVSPropertyOp31
 70
     1
102
RTVSPropertyOp32
 70
     1
102
RTVSPropertyOp33
 70
     1
102
RTVSPropertyOp34
 70
     1
102
RTVSPropertyOp35
 70
     1
102
RTVSPropertyOp36
 70
     1
102
RTVSPropertyOp37
 70
     1
102
RTVSPropertyOp38
 70
     1
102
RTVSPropertyOp39
 70
     1
102
RTVSPropertyOp40
 70
     1
102
RTVSPropertyOp41
 70
     1
102
RTVSPropertyOp42
 70
     1
102
RTVSPropertyOp43
 70
     1
102
RTVSPropertyOp44
 70
     1
102
RTVSPropertyOp45
 70
     1
102
RTVSPropertyOp46
 70
     1
102
RTVSPropertyOp47
 70
     1
102
RTVSPropertyOp48
 70
     1
102
RTVSPropertyOp49
 70
     1
102
RTVSPropertyOp50
 70
     1
102
RTVSPropertyOp51
 70
     0
102
RTVSPropertyOp52
 70
     0
102
RTVSPropertyOp53
 70
     1
102
RTVSPropertyOp54
 70
     1
102
RTVSPropertyOp55
 70
     1
102
RTVSPropertyOp56
 70
     1
102
RTVSPropertyOp57
 70
     1
102
RTVSPost2010Prop28
280
     0
102
RTVSPost2010PropOp28
 70
     1
102
RTVSPost2010Prop29
280
     1
102
RTVSPost2010PropOp29
 70
     1
102
RTVSPost2010Prop30
280
     1
102
RTVSPost2010PropOp30
 70
     1
102
RTVSPost2010Prop31
280
     0
102
RTVSPost2010PropOp31
 70
     1
102
RTVSPost2010Prop32
280
     0
102
RTVSPost2010PropOp32
 70
     1
102
RTVSPost2010Prop33
280
     0
102
RTVSPost2010PropOp33
 70
     1
102
RTVSPost2010Prop34
280
     0
102
RTVSPost2010PropOp34
 70
     1
102
RTVSPost2010Prop35
280
     0
102
RTVSPost2010PropOp35
 70
     1
102
RTVSPost2010Prop36
280
     0
102
RTVSPost2010PropOp36
 70
     1
102
RTVSPost2010Prop37
 90
       50
102
RTVSPost2010PropOp37
 70
     1
102
RTVSPost2010Prop38
140
0.0
102
RTVSPost2010PropOp38
 70
     1
102
RTVSPost2010Prop39
140
1.0
102
RTVSPost2010PropOp39
 70
     1
102
RTVSPost2010Prop40
 90
        0
102
RTVSPost2010PropOp40
 70
     1
102
RTVSPost2010Prop41ColorIndex
 90
       18
102
RTVSPost2010Prop41ColorRGB
 90
        0
102
RTVSPost2010PropOp41
 70
     1
102
RTVSPost2010Prop42
 90
       50
102
RTVSPost2010PropOp42
 70
     1
102
RTVSPost2010Prop43
 90
        3
102
RTVSPost2010PropOp43
 70
     1
102
RTVSPost2010Prop44ColorIndex
 90
        5
102
RTVSPost2010Prop44ColorRGB
 90
      255
102
RTVSPost2010PropOp44
 70
     1
102
RTVSPost2010Prop45
280
     0
102
RTVSPost2010PropOp45
 70
     1
102
RTVSPost2010Prop46
 90
       50
102
RTVSPost2010PropOp46
 70
     1
102
RTVSPost2010Prop47
 90
       50
102
RTVSPost2010PropOp47
 70
     1
102
RTVSPost2010Prop48
 90
       50
102
RTVSPost2010PropOp48
 70
     1
102
RTVSPost2010Prop49
280
     0
102
RTVSPost2010PropOp49
 70
     1
102
RTVSPost2010Prop50
 90
       50
102
RTVSPost2010PropOp50
 70
     1
102
RTVSPost2010Prop51ColorIndex
 90
      256
102
RTVSPost2010Prop51ColorRGB
 90
-16777216
102
RTVSPost2010PropOp51
 70
     0
102
RTVSPost2010Prop52
140
1.0
102
RTVSPost2010PropOp52
 70
     0
102
RTVSPost2010Prop53
 90
        2
102
RTVSPost2010PropOp53
 70
     1
102
RTVSPost2010Prop54
  1
strokes_ogs.tif
102
RTVSPost2010PropOp54
 70
     1
102
RTVSPost2010Prop55
280
     0
102
RTVSPost2010PropOp55
 70
     1
102
RTVSPost2010Prop56
140
1.0
102
RTVSPost2010PropOp56
 70
     1
102
RTVSPost2010Prop57
140
1.0
102
RTVSPost2010PropOp57
 70
     1
  0
XRECORD
  5
30B
102
{ACAD_REACTORS
330
30A
102
}
330
30A
100
AcDbXrecord
280
     1
102
RTVSPropertyOp0
 70
     1
102
RTVSPropertyOp1
 70
     1
102
RTVSPropertyOp2
 70
     1
102
RTVSPropertyOp3
 70
     1
102
RTVSPropertyOp4
 70
     1
102
RTVSPropertyOp5
 70
     1
102
RTVSPropertyOp6
 70
     1
102
RTVSPropertyOp7
 70
     1
102
RTVSPropertyOp8
 70
     1
102
RTVSPropertyOp9
 70
     1
102
RTVSPropertyOp10
 70
     1
102
RTVSPropertyOp11
 70
     1
102
RTVSPropertyOp12
 70
     1
102
RTVSPropertyOp13
 70
     1
102
RTVSPropertyOp14
 70
     1
102
RTVSPropertyOp15
 70
     1
102
RTVSPropertyOp16
 70
     1
102
RTVSPropertyOp17
 70
     1
102
RTVSPropertyOp18
 70
     1
102
RTVSPropertyOp19
 70
     1
102
RTVSPropertyOp20
 70
     1
102
RTVSPropertyOp21
 70
     1
102
RTVSPropertyOp22
 70
     1
102
RTVSPropertyOp23
 70
     1
102
RTVSPropertyOp24
 70
     1
102
RTVSPropertyOp25
 70
     1
102
RTVSPropertyOp26
 70
     1
102
RTVSPropertyOp27
 70
     1
102
RTVSPropertyOp28
 70
     1
102
RTVSPropertyOp29
 70
     1
102
RTVSPropertyOp30
 70
     1
102
RTVSPropertyOp31
 70
     1
102
RTVSPropertyOp32
 70
     1
102
RTVSPropertyOp33
 70
     1
102
RTVSPropertyOp34
 70
     1
102
RTVSPropertyOp35
 70
     1
102
RTVSPropertyOp36
 70
     1
102
RTVSPropertyOp37
 70
     1
102
RTVSPropertyOp38
 70
     1
102
RTVSPropertyOp39
 70
     1
102
RTVSPropertyOp40
 70
     1
102
RTVSPropertyOp41
 70
     1
102
RTVSPropertyOp42
 70
     1
102
RTVSPropertyOp43
 70
     1
102
RTVSPropertyOp44
 70
     1
102
RTVSPropertyOp45
 70
     1
102
RTVSPropertyOp46
 70
     1
102
RTVSPropertyOp47
 70
     1
102
RTVSPropertyOp48
 70
     1
102
RTVSPropertyOp49
 70
     1
102
RTVSPropertyOp50
 70
     1
102
RTVSPropertyOp51
 70
     0
102
RTVSPropertyOp52
 70
     0
102
RTVSPropertyOp53
 70
     1
102
RTVSPropertyOp54
 70
     1
102
RTVSPropertyOp55
 70
     1
102
RTVSPropertyOp56
 70
     1
102
RTVSPropertyOp57
 70
     1
102
RTVSPost2010Prop28
280
     0
102
RTVSPost2010PropOp28
 70
     1
102
RTVSPost2010Prop29
280
     1
102
RTVSPost2010PropOp29
 70
     1
102
RTVSPost2010Prop30
280
     1
102
RTVSPost2010PropOp30
 70
     1
102
RTVSPost2010Prop31
280
     0
102
RTVSPost2010PropOp31
 70
     1
102
RTVSPost2010Prop32
280
     0
102
RTVSPost2010PropOp32
 70
     1
102
RTVSPost2010Prop33
280
     0
102
RTVSPost2010PropOp33
 70
     1
102
RTVSPost2010Prop34
280
     0
102
RTVSPost2010PropOp34
 70
     1
102
RTVSPost2010Prop35
280
     0
102
RTVSPost2010PropOp35
 70
     1
102
RTVSPost2010Prop36
280
     0
102
RTVSPost2010PropOp36
 70
     1
102
RTVSPost2010Prop37
 90
       50
102
RTVSPost2010PropOp37
 70
     1
102
RTVSPost2010Prop38
140
0.0
102
RTVSPost2010PropOp38
 70
     1
102
RTVSPost2010Prop39
140
1.0
102
RTVSPost2010PropOp39
 70
     1
102
RTVSPost2010Prop40
 90
        0
102
RTVSPost2010PropOp40
 70
     1
102
RTVSPost2010Prop41ColorIndex
 90
       18
102
RTVSPost2010Prop41ColorRGB
 90
        0
102
RTVSPost2010PropOp41
 70
     1
102
RTVSPost2010Prop42
 90
       50
102
RTVSPost2010PropOp42
 70
     1
102
RTVSPost2010Prop43
 90
        3
102
RTVSPost2010PropOp43
 70
     1
102
RTVSPost2010Prop44ColorIndex
 90
        5
102
RTVSPost2010Prop44ColorRGB
 90
      255
102
RTVSPost2010PropOp44
 70
     1
102
RTVSPost2010Prop45
280
     0
102
RTVSPost2010PropOp45
 70
     1
102
RTVSPost2010Prop46
 90
       50
102
RTVSPost2010PropOp46
 70
     1
102
RTVSPost2010Prop47
 90
       50
102
RTVSPost2010PropOp47
 70
     1
102
RTVSPost2010Prop48
 90
       50
102
RTVSPost2010PropOp48
 70
     1
102
RTVSPost2010Prop49
280
     0
102
RTVSPost2010PropOp49
 70
     1
102
RTVSPost2010Prop50
 90
       50
102
RTVSPost2010PropOp50
 70
     1
102
RTVSPost2010Prop51ColorIndex
 90
      256
102
RTVSPost2010Prop51ColorRGB
 90
-16777216
102
RTVSPost2010PropOp51
 70
     0
102
RTVSPost2010Prop52
140
1.0
102
RTVSPost2010PropOp52
 70
     0
102
RTVSPost2010Prop53
 90
        2
102
RTVSPost2010PropOp53
 70
     1
102
RTVSPost2010Prop54
  1
strokes_ogs.tif
102
RTVSPost2010PropOp54
 70
     1
102
RTVSPost2010Prop55
280
     0
102
RTVSPost2010PropOp55
 70
     1
102
RTVSPost2010Prop56
140
1.0
102
RTVSPost2010PropOp56
 70
     1
102
RTVSPost2010Prop57
140
1.0
102
RTVSPost2010PropOp57
 70
     1
  0
XRECORD
  5
313
102
{ACAD_REACTORS
330
312
102
}
330
312
100
AcDbXrecord
280
     1
102
RTVSPropertyOp0
 70
     1
102
RTVSPropertyOp1
 70
     1
102
RTVSPropertyOp2
 70
     1
102
RTVSPropertyOp3
 70
     1
102
RTVSPropertyOp4
 70
     1
102
RTVSPropertyOp5
 70
     1
102
RTVSPropertyOp6
 70
     1
102
RTVSPropertyOp7
 70
     1
102
RTVSPropertyOp8
 70
     1
102
RTVSPropertyOp9
 70
     1
102
RTVSPropertyOp10
 70
     1
102
RTVSPropertyOp11
 70
     1
102
RTVSPropertyOp12
 70
     1
102
RTVSPropertyOp13
 70
     1
102
RTVSPropertyOp14
 70
     1
102
RTVSPropertyOp15
 70
     1
102
RTVSPropertyOp16
 70
     1
102
RTVSPropertyOp17
 70
     1
102
RTVSPropertyOp18
 70
     1
102
RTVSPropertyOp19
 70
     1
102
RTVSPropertyOp20
 70
     1
102
RTVSPropertyOp21
 70
     1
102
RTVSPropertyOp22
 70
     1
102
RTVSPropertyOp23
 70
     1
102
RTVSPropertyOp24
 70
     1
102
RTVSPropertyOp25
 70
     1
102
RTVSPropertyOp26
 70
     1
102
RTVSPropertyOp27
 70
     1
102
RTVSPropertyOp28
 70
     1
102
RTVSPropertyOp29
 70
     1
102
RTVSPropertyOp30
 70
     1
102
RTVSPropertyOp31
 70
     1
102
RTVSPropertyOp32
 70
     1
102
RTVSPropertyOp33
 70
     1
102
RTVSPropertyOp34
 70
     1
102
RTVSPropertyOp35
 70
     1
102
RTVSPropertyOp36
 70
     1
102
RTVSPropertyOp37
 70
     1
102
RTVSPropertyOp38
 70
     1
102
RTVSPropertyOp39
 70
     1
102
RTVSPropertyOp40
 70
     1
102
RTVSPropertyOp41
 70
     1
102
RTVSPropertyOp42
 70
     1
102
RTVSPropertyOp43
 70
     1
102
RTVSPropertyOp44
 70
     1
102
RTVSPropertyOp45
 70
     1
102
RTVSPropertyOp46
 70
     1
102
RTVSPropertyOp47
 70
     1
102
RTVSPropertyOp48
 70
     1
102
RTVSPropertyOp49
 70
     1
102
RTVSPropertyOp50
 70
     1
102
RTVSPropertyOp51
 70
     0
102
RTVSPropertyOp52
 70
     0
102
RTVSPropertyOp53
 70
     1
102
RTVSPropertyOp54
 70
     1
102
RTVSPropertyOp55
 70
     1
102
RTVSPropertyOp56
 70
     1
102
RTVSPropertyOp57
 70
     1
102
RTVSPost2010Prop28
280
     0
102
RTVSPost2010PropOp28
 70
     1
102
RTVSPost2010Prop29
280
     1
102
RTVSPost2010PropOp29
 70
     1
102
RTVSPost2010Prop30
280
     1
102
RTVSPost2010PropOp30
 70
     1
102
RTVSPost2010Prop31
280
     0
102
RTVSPost2010PropOp31
 70
     1
102
RTVSPost2010Prop32
280
     0
102
RTVSPost2010PropOp32
 70
     1
102
RTVSPost2010Prop33
280
     0
102
RTVSPost2010PropOp33
 70
     1
102
RTVSPost2010Prop34
280
     0
102
RTVSPost2010PropOp34
 70
     1
102
RTVSPost2010Prop35
280
     0
102
RTVSPost2010PropOp35
 70
     1
102
RTVSPost2010Prop36
280
     0
102
RTVSPost2010PropOp36
 70
     1
102
RTVSPost2010Prop37
 90
       50
102
RTVSPost2010PropOp37
 70
     1
102
RTVSPost2010Prop38
140
0.0
102
RTVSPost2010PropOp38
 70
     1
102
RTVSPost2010Prop39
140
1.0
102
RTVSPost2010PropOp39
 70
     1
102
RTVSPost2010Prop40
 90
        0
102
RTVSPost2010PropOp40
 70
     1
102
RTVSPost2010Prop41ColorIndex
 90
       18
102
RTVSPost2010Prop41ColorRGB
 90
        0
102
RTVSPost2010PropOp41
 70
     1
102
RTVSPost2010Prop42
 90
       50
102
RTVSPost2010PropOp42
 70
     1
102
RTVSPost2010Prop43
 90
        3
102
RTVSPost2010PropOp43
 70
     1
102
RTVSPost2010Prop44ColorIndex
 90
        5
102
RTVSPost2010Prop44ColorRGB
 90
      255
102
RTVSPost2010PropOp44
 70
     1
102
RTVSPost2010Prop45
280
     0
102
RTVSPost2010PropOp45
 70
     1
102
RTVSPost2010Prop46
 90
       50
102
RTVSPost2010PropOp46
 70
     1
102
RTVSPost2010Prop47
 90
       50
102
RTVSPost2010PropOp47
 70
     1
102
RTVSPost2010Prop48
 90
       50
102
RTVSPost2010PropOp48
 70
     1
102
RTVSPost2010Prop49
280
     0
102
RTVSPost2010PropOp49
 70
     1
102
RTVSPost2010Prop50
 90
       50
102
RTVSPost2010PropOp50
 70
     1
102
RTVSPost2010Prop51ColorIndex
 90
      256
102
RTVSPost2010Prop51ColorRGB
 90
-16777216
102
RTVSPost2010PropOp51
 70
     0
102
RTVSPost2010Prop52
140
1.0
102
RTVSPost2010PropOp52
 70
     0
102
RTVSPost2010Prop53
 90
        2
102
RTVSPost2010PropOp53
 70
     1
102
RTVSPost2010Prop54
  1
strokes_ogs.tif
102
RTVSPost2010PropOp54
 70
     1
102
RTVSPost2010Prop55
280
     0
102
RTVSPost2010PropOp55
 70
     1
102
RTVSPost2010Prop56
140
1.0
102
RTVSPost2010PropOp56
 70
     1
102
RTVSPost2010Prop57
140
1.0
102
RTVSPost2010PropOp57
 70
     1
  0
XRECORD
  5
307
102
{ACAD_REACTORS
330
306
102
}
330
306
100
AcDbXrecord
280
     1
102
RTVSPropertyOp0
 70
     1
102
RTVSPropertyOp1
 70
     1
102
RTVSPropertyOp2
 70
     1
102
RTVSPropertyOp3
 70
     1
102
RTVSPropertyOp4
 70
     1
102
RTVSPropertyOp5
 70
     1
102
RTVSPropertyOp6
 70
     1
102
RTVSPropertyOp7
 70
     1
102
RTVSPropertyOp8
 70
     1
102
RTVSPropertyOp9
 70
     1
102
RTVSPropertyOp10
 70
     1
102
RTVSPropertyOp11
 70
     1
102
RTVSPropertyOp12
 70
     1
102
RTVSPropertyOp13
 70
     1
102
RTVSPropertyOp14
 70
     1
102
RTVSPropertyOp15
 70
     1
102
RTVSPropertyOp16
 70
     1
102
RTVSPropertyOp17
 70
     1
102
RTVSPropertyOp18
 70
     1
102
RTVSPropertyOp19
 70
     1
102
RTVSPropertyOp20
 70
     1
102
RTVSPropertyOp21
 70
     1
102
RTVSPropertyOp22
 70
     1
102
RTVSPropertyOp23
 70
     1
102
RTVSPropertyOp24
 70
     1
102
RTVSPropertyOp25
 70
     1
102
RTVSPropertyOp26
 70
     1
102
RTVSPropertyOp27
 70
     1
102
RTVSPropertyOp28
 70
     1
102
RTVSPropertyOp29
 70
     1
102
RTVSPropertyOp30
 70
     1
102
RTVSPropertyOp31
 70
     1
102
RTVSPropertyOp32
 70
     1
102
RTVSPropertyOp33
 70
     1
102
RTVSPropertyOp34
 70
     1
102
RTVSPropertyOp35
 70
     1
102
RTVSPropertyOp36
 70
     1
102
RTVSPropertyOp37
 70
     1
102
RTVSPropertyOp38
 70
     1
102
RTVSPropertyOp39
 70
     1
102
RTVSPropertyOp40
 70
     1
102
RTVSPropertyOp41
 70
     1
102
RTVSPropertyOp42
 70
     1
102
RTVSPropertyOp43
 70
     1
102
RTVSPropertyOp44
 70
     1
102
RTVSPropertyOp45
 70
     1
102
RTVSPropertyOp46
 70
     1
102
RTVSPropertyOp47
 70
     1
102
RTVSPropertyOp48
 70
     1
102
RTVSPropertyOp49
 70
     1
102
RTVSPropertyOp50
 70
     1
102
RTVSPropertyOp51
 70
     0
102
RTVSPropertyOp52
 70
     0
102
RTVSPropertyOp53
 70
     1
102
RTVSPropertyOp54
 70
     1
102
RTVSPropertyOp55
 70
     1
102
RTVSPropertyOp56
 70
     1
102
RTVSPropertyOp57
 70
     1
102
RTVSPost2010Prop28
280
     0
102
RTVSPost2010PropOp28
 70
     1
102
RTVSPost2010Prop29
280
     1
102
RTVSPost2010PropOp29
 70
     1
102
RTVSPost2010Prop30
280
     1
102
RTVSPost2010PropOp30
 70
     1
102
RTVSPost2010Prop31
280
     0
102
RTVSPost2010PropOp31
 70
     1
102
RTVSPost2010Prop32
280
     0
102
RTVSPost2010PropOp32
 70
     1
102
RTVSPost2010Prop33
280
     0
102
RTVSPost2010PropOp33
 70
     1
102
RTVSPost2010Prop34
280
     0
102
RTVSPost2010PropOp34
 70
     1
102
RTVSPost2010Prop35
280
     0
102
RTVSPost2010PropOp35
 70
     1
102
RTVSPost2010Prop36
280
     0
102
RTVSPost2010PropOp36
 70
     1
102
RTVSPost2010Prop37
 90
       50
102
RTVSPost2010PropOp37
 70
     1
102
RTVSPost2010Prop38
140
0.0
102
RTVSPost2010PropOp38
 70
     1
102
RTVSPost2010Prop39
140
1.0
102
RTVSPost2010PropOp39
 70
     1
102
RTVSPost2010Prop40
 90
        0
102
RTVSPost2010PropOp40
 70
     1
102
RTVSPost2010Prop41ColorIndex
 90
       18
102
RTVSPost2010Prop41ColorRGB
 90
        0
102
RTVSPost2010PropOp41
 70
     1
102
RTVSPost2010Prop42
 90
       50
102
RTVSPost2010PropOp42
 70
     1
102
RTVSPost2010Prop43
 90
        3
102
RTVSPost2010PropOp43
 70
     1
102
RTVSPost2010Prop44ColorIndex
 90
        5
102
RTVSPost2010Prop44ColorRGB
 90
      255
102
RTVSPost2010PropOp44
 70
     1
102
RTVSPost2010Prop45
280
     0
102
RTVSPost2010PropOp45
 70
     1
102
RTVSPost2010Prop46
 90
       50
102
RTVSPost2010PropOp46
 70
     1
102
RTVSPost2010Prop47
 90
       50
102
RTVSPost2010PropOp47
 70
     1
102
RTVSPost2010Prop48
 90
       50
102
RTVSPost2010PropOp48
 70
     1
102
RTVSPost2010Prop49
280
     0
102
RTVSPost2010PropOp49
 70
     1
102
RTVSPost2010Prop50
 90
       50
102
RTVSPost2010PropOp50
 70
     1
102
RTVSPost2010Prop51ColorIndex
 90
      256
102
RTVSPost2010Prop51ColorRGB
 90
-16777216
102
RTVSPost2010PropOp51
 70
     0
102
RTVSPost2010Prop52
140
1.0
102
RTVSPost2010PropOp52
 70
     0
102
RTVSPost2010Prop53
 90
        2
102
RTVSPost2010PropOp53
 70
     1
102
RTVSPost2010Prop54
  1
strokes_ogs.tif
102
RTVSPost2010PropOp54
 70
     1
102
RTVSPost2010Prop55
280
     0
102
RTVSPost2010PropOp55
 70
     1
102
RTVSPost2010Prop56
140
1.0
102
RTVSPost2010PropOp56
 70
     1
102
RTVSPost2010Prop57
140
1.0
102
RTVSPost2010PropOp57
 70
     1
  0
XRECORD
  5
309
102
{ACAD_REACTORS
330
308
102
}
330
308
100
AcDbXrecord
280
     1
102
RTVSPropertyOp0
 70
     1
102
RTVSPropertyOp1
 70
     1
102
RTVSPropertyOp2
 70
     1
102
RTVSPropertyOp3
 70
     1
102
RTVSPropertyOp4
 70
     1
102
RTVSPropertyOp5
 70
     1
102
RTVSPropertyOp6
 70
     1
102
RTVSPropertyOp7
 70
     1
102
RTVSPropertyOp8
 70
     1
102
RTVSPropertyOp9
 70
     1
102
RTVSPropertyOp10
 70
     1
102
RTVSPropertyOp11
 70
     1
102
RTVSPropertyOp12
 70
     1
102
RTVSPropertyOp13
 70
     1
102
RTVSPropertyOp14
 70
     1
102
RTVSPropertyOp15
 70
     1
102
RTVSPropertyOp16
 70
     1
102
RTVSPropertyOp17
 70
     1
102
RTVSPropertyOp18
 70
     1
102
RTVSPropertyOp19
 70
     1
102
RTVSPropertyOp20
 70
     1
102
RTVSPropertyOp21
 70
     1
102
RTVSPropertyOp22
 70
     1
102
RTVSPropertyOp23
 70
     1
102
RTVSPropertyOp24
 70
     1
102
RTVSPropertyOp25
 70
     1
102
RTVSPropertyOp26
 70
     1
102
RTVSPropertyOp27
 70
     1
102
RTVSPropertyOp28
 70
     1
102
RTVSPropertyOp29
 70
     1
102
RTVSPropertyOp30
 70
     1
102
RTVSPropertyOp31
 70
     1
102
RTVSPropertyOp32
 70
     1
102
RTVSPropertyOp33
 70
     1
102
RTVSPropertyOp34
 70
     1
102
RTVSPropertyOp35
 70
     1
102
RTVSPropertyOp36
 70
     1
102
RTVSPropertyOp37
 70
     1
102
RTVSPropertyOp38
 70
     1
102
RTVSPropertyOp39
 70
     1
102
RTVSPropertyOp40
 70
     1
102
RTVSPropertyOp41
 70
     1
102
RTVSPropertyOp42
 70
     1
102
RTVSPropertyOp43
 70
     1
102
RTVSPropertyOp44
 70
     1
102
RTVSPropertyOp45
 70
     1
102
RTVSPropertyOp46
 70
     1
102
RTVSPropertyOp47
 70
     1
102
RTVSPropertyOp48
 70
     1
102
RTVSPropertyOp49
 70
     1
102
RTVSPropertyOp50
 70
     1
102
RTVSPropertyOp51
 70
     0
102
RTVSPropertyOp52
 70
     0
102
RTVSPropertyOp53
 70
     1
102
RTVSPropertyOp54
 70
     1
102
RTVSPropertyOp55
 70
     1
102
RTVSPropertyOp56
 70
     1
102
RTVSPropertyOp57
 70
     1
102
RTVSPost2010Prop28
280
     0
102
RTVSPost2010PropOp28
 70
     1
102
RTVSPost2010Prop29
280
     1
102
RTVSPost2010PropOp29
 70
     1
102
RTVSPost2010Prop30
280
     1
102
RTVSPost2010PropOp30
 70
     1
102
RTVSPost2010Prop31
280
     0
102
RTVSPost2010PropOp31
 70
     1
102
RTVSPost2010Prop32
280
     0
102
RTVSPost2010PropOp32
 70
     1
102
RTVSPost2010Prop33
280
     0
102
RTVSPost2010PropOp33
 70
     1
102
RTVSPost2010Prop34
280
     0
102
RTVSPost2010PropOp34
 70
     1
102
RTVSPost2010Prop35
280
     0
102
RTVSPost2010PropOp35
 70
     1
102
RTVSPost2010Prop36
280
     0
102
RTVSPost2010PropOp36
 70
     1
102
RTVSPost2010Prop37
 90
       50
102
RTVSPost2010PropOp37
 70
     1
102
RTVSPost2010Prop38
140
0.0
102
RTVSPost2010PropOp38
 70
     1
102
RTVSPost2010Prop39
140
1.0
102
RTVSPost2010PropOp39
 70
     1
102
RTVSPost2010Prop40
 90
        0
102
RTVSPost2010PropOp40
 70
     1
102
RTVSPost2010Prop41ColorIndex
 90
       18
102
RTVSPost2010Prop41ColorRGB
 90
        0
102
RTVSPost2010PropOp41
 70
     1
102
RTVSPost2010Prop42
 90
       50
102
RTVSPost2010PropOp42
 70
     1
102
RTVSPost2010Prop43
 90
        3
102
RTVSPost2010PropOp43
 70
     1
102
RTVSPost2010Prop44ColorIndex
 90
        5
102
RTVSPost2010Prop44ColorRGB
 90
      255
102
RTVSPost2010PropOp44
 70
     1
102
RTVSPost2010Prop45
280
     0
102
RTVSPost2010PropOp45
 70
     1
102
RTVSPost2010Prop46
 90
       50
102
RTVSPost2010PropOp46
 70
     1
102
RTVSPost2010Prop47
 90
       50
102
RTVSPost2010PropOp47
 70
     1
102
RTVSPost2010Prop48
 90
       50
102
RTVSPost2010PropOp48
 70
     1
102
RTVSPost2010Prop49
280
     0
102
RTVSPost2010PropOp49
 70
     1
102
RTVSPost2010Prop50
 90
       50
102
RTVSPost2010PropOp50
 70
     1
102
RTVSPost2010Prop51ColorIndex
 90
      256
102
RTVSPost2010Prop51ColorRGB
 90
-16777216
102
RTVSPost2010PropOp51
 70
     0
102
RTVSPost2010Prop52
140
1.0
102
RTVSPost2010PropOp52
 70
     0
102
RTVSPost2010Prop53
 90
        2
102
RTVSPost2010PropOp53
 70
     1
102
RTVSPost2010Prop54
  1
strokes_ogs.tif
102
RTVSPost2010PropOp54
 70
     1
102
RTVSPost2010Prop55
280
     0
102
RTVSPost2010PropOp55
 70
     1
102
RTVSPost2010Prop56
140
1.0
102
RTVSPost2010PropOp56
 70
     1
102
RTVSPost2010Prop57
140
1.0
102
RTVSPost2010PropOp57
 70
     1
  0
XRECORD
  5
319
102
{ACAD_REACTORS
330
318
102
}
330
318
100
AcDbXrecord
280
     1
102
RTVSPropertyOp0
 70
     0
102
RTVSPropertyOp1
 70
     0
102
RTVSPropertyOp2
 70
     0
102
RTVSPropertyOp3
 70
     0
102
RTVSPropertyOp4
 70
     0
102
RTVSPropertyOp5
 70
     0
102
RTVSPropertyOp6
 70
     0
102
RTVSPropertyOp7
 70
     0
102
RTVSPropertyOp8
 70
     0
102
RTVSPropertyOp9
 70
     0
102
RTVSPropertyOp10
 70
     0
102
RTVSPropertyOp11
 70
     0
102
RTVSPropertyOp12
 70
     0
102
RTVSPropertyOp13
 70
     0
102
RTVSPropertyOp14
 70
     2
102
RTVSPropertyOp15
 70
     0
102
RTVSPropertyOp16
 70
     0
102
RTVSPropertyOp17
 70
     0
102
RTVSPropertyOp18
 70
     0
102
RTVSPropertyOp19
 70
     0
102
RTVSPropertyOp20
 70
     0
102
RTVSPropertyOp21
 70
     0
102
RTVSPropertyOp22
 70
     0
102
RTVSPropertyOp23
 70
     0
102
RTVSPropertyOp24
 70
     0
102
RTVSPropertyOp25
 70
     0
102
RTVSPropertyOp26
 70
     0
102
RTVSPropertyOp27
 70
     0
102
RTVSPropertyOp28
 70
     0
102
RTVSPropertyOp29
 70
     0
102
RTVSPropertyOp30
 70
     0
102
RTVSPropertyOp31
 70
     0
102
RTVSPropertyOp32
 70
     0
102
RTVSPropertyOp33
 70
     0
102
RTVSPropertyOp34
 70
     0
102
RTVSPropertyOp35
 70
     0
102
RTVSPropertyOp36
 70
     0
102
RTVSPropertyOp37
 70
     0
102
RTVSPropertyOp38
 70
     0
102
RTVSPropertyOp39
 70
     0
102
RTVSPropertyOp40
 70
     0
102
RTVSPropertyOp41
 70
     0
102
RTVSPropertyOp42
 70
     0
102
RTVSPropertyOp43
 70
     0
102
RTVSPropertyOp44
 70
     0
102
RTVSPropertyOp45
 70
     0
102
RTVSPropertyOp46
 70
     0
102
RTVSPropertyOp47
 70
     0
102
RTVSPropertyOp48
 70
     0
102
RTVSPropertyOp49
 70
     0
102
RTVSPropertyOp50
 70
     0
102
RTVSPropertyOp51
 70
     0
102
RTVSPropertyOp52
 70
     0
102
RTVSPropertyOp53
 70
     0
102
RTVSPropertyOp54
 70
     0
102
RTVSPropertyOp55
 70
     0
102
RTVSPropertyOp56
 70
     0
102
RTVSPropertyOp57
 70
     0
102
RTVSPost2010Prop28
280
     0
102
RTVSPost2010PropOp28
 70
     0
102
RTVSPost2010Prop29
280
     1
102
RTVSPost2010PropOp29
 70
     0
102
RTVSPost2010Prop30
280
     1
102
RTVSPost2010PropOp30
 70
     0
102
RTVSPost2010Prop31
280
     0
102
RTVSPost2010PropOp31
 70
     0
102
RTVSPost2010Prop32
280
     0
102
RTVSPost2010PropOp32
 70
     0
102
RTVSPost2010Prop33
280
     0
102
RTVSPost2010PropOp33
 70
     0
102
RTVSPost2010Prop34
280
     0
102
RTVSPost2010PropOp34
 70
     0
102
RTVSPost2010Prop35
280
     0
102
RTVSPost2010PropOp35
 70
     0
102
RTVSPost2010Prop36
280
     0
102
RTVSPost2010PropOp36
 70
     0
102
RTVSPost2010Prop37
 90
       50
102
RTVSPost2010PropOp37
 70
     0
102
RTVSPost2010Prop38
140
0.0
102
RTVSPost2010PropOp38
 70
     0
102
RTVSPost2010Prop39
140
1.0
102
RTVSPost2010PropOp39
 70
     0
102
RTVSPost2010Prop40
 90
        0
102
RTVSPost2010PropOp40
 70
     0
102
RTVSPost2010Prop41ColorIndex
 90
       18
102
RTVSPost2010Prop41ColorRGB
 90
        0
102
RTVSPost2010PropOp41
 70
     0
102
RTVSPost2010Prop42
 90
       50
102
RTVSPost2010PropOp42
 70
     0
102
RTVSPost2010Prop43
 90
        3
102
RTVSPost2010PropOp43
 70
     0
102
RTVSPost2010Prop44ColorIndex
 90
        5
102
RTVSPost2010Prop44ColorRGB
 90
      255
102
RTVSPost2010PropOp44
 70
     0
102
RTVSPost2010Prop45
280
     0
102
RTVSPost2010PropOp45
 70
     0
102
RTVSPost2010Prop46
 90
       50
102
RTVSPost2010PropOp46
 70
     0
102
RTVSPost2010Prop47
 90
       50
102
RTVSPost2010PropOp47
 70
     0
102
RTVSPost2010Prop48
 90
       50
102
RTVSPost2010PropOp48
 70
     0
102
RTVSPost2010Prop49
280
     0
102
RTVSPost2010PropOp49
 70
     0
102
RTVSPost2010Prop50
 90
       50
102
RTVSPost2010PropOp50
 70
     0
102
RTVSPost2010Prop51ColorIndex
 90
      256
102
RTVSPost2010Prop51ColorRGB
 90
-16777216
102
RTVSPost2010PropOp51
 70
     0
102
RTVSPost2010Prop52
140
1.0
102
RTVSPost2010PropOp52
 70
     0
102
RTVSPost2010Prop53
 90
        2
102
RTVSPost2010PropOp53
 70
     0
102
RTVSPost2010Prop54
  1
strokes_ogs.tif
102
RTVSPost2010PropOp54
 70
     0
102
RTVSPost2010Prop55
280
     0
102
RTVSPost2010PropOp55
 70
     0
102
RTVSPost2010Prop56
140
1.0
102
RTVSPost2010PropOp56
 70
     0
102
RTVSPost2010Prop57
140
1.0
102
RTVSPost2010PropOp57
 70
     0
  0
XRECORD
  5
311
102
{ACAD_REACTORS
330
310
102
}
330
310
100
AcDbXrecord
280
     1
102
RTVSPropertyOp0
 70
     1
102
RTVSPropertyOp1
 70
     1
102
RTVSPropertyOp2
 70
     1
102
RTVSPropertyOp3
 70
     1
102
RTVSPropertyOp4
 70
     1
102
RTVSPropertyOp5
 70
     1
102
RTVSPropertyOp6
 70
     1
102
RTVSPropertyOp7
 70
     1
102
RTVSPropertyOp8
 70
     1
102
RTVSPropertyOp9
 70
     1
102
RTVSPropertyOp10
 70
     1
102
RTVSPropertyOp11
 70
     1
102
RTVSPropertyOp12
 70
     1
102
RTVSPropertyOp13
 70
     1
102
RTVSPropertyOp14
 70
     1
102
RTVSPropertyOp15
 70
     1
102
RTVSPropertyOp16
 70
     1
102
RTVSPropertyOp17
 70
     1
102
RTVSPropertyOp18
 70
     1
102
RTVSPropertyOp19
 70
     1
102
RTVSPropertyOp20
 70
     1
102
RTVSPropertyOp21
 70
     1
102
RTVSPropertyOp22
 70
     1
102
RTVSPropertyOp23
 70
     1
102
RTVSPropertyOp24
 70
     1
102
RTVSPropertyOp25
 70
     1
102
RTVSPropertyOp26
 70
     1
102
RTVSPropertyOp27
 70
     1
102
RTVSPropertyOp28
 70
     1
102
RTVSPropertyOp29
 70
     1
102
RTVSPropertyOp30
 70
     1
102
RTVSPropertyOp31
 70
     1
102
RTVSPropertyOp32
 70
     1
102
RTVSPropertyOp33
 70
     1
102
RTVSPropertyOp34
 70
     1
102
RTVSPropertyOp35
 70
     1
102
RTVSPropertyOp36
 70
     1
102
RTVSPropertyOp37
 70
     1
102
RTVSPropertyOp38
 70
     1
102
RTVSPropertyOp39
 70
     1
102
RTVSPropertyOp40
 70
     1
102
RTVSPropertyOp41
 70
     1
102
RTVSPropertyOp42
 70
     1
102
RTVSPropertyOp43
 70
     1
102
RTVSPropertyOp44
 70
     1
102
RTVSPropertyOp45
 70
     1
102
RTVSPropertyOp46
 70
     1
102
RTVSPropertyOp47
 70
     1
102
RTVSPropertyOp48
 70
     1
102
RTVSPropertyOp49
 70
     1
102
RTVSPropertyOp50
 70
     1
102
RTVSPropertyOp51
 70
     0
102
RTVSPropertyOp52
 70
     0
102
RTVSPropertyOp53
 70
     1
102
RTVSPropertyOp54
 70
     1
102
RTVSPropertyOp55
 70
     1
102
RTVSPropertyOp56
 70
     1
102
RTVSPropertyOp57
 70
     1
102
RTVSPost2010Prop28
280
     0
102
RTVSPost2010PropOp28
 70
     1
102
RTVSPost2010Prop29
280
     1
102
RTVSPost2010PropOp29
 70
     1
102
RTVSPost2010Prop30
280
     1
102
RTVSPost2010PropOp30
 70
     1
102
RTVSPost2010Prop31
280
     0
102
RTVSPost2010PropOp31
 70
     1
102
RTVSPost2010Prop32
280
     0
102
RTVSPost2010PropOp32
 70
     1
102
RTVSPost2010Prop33
280
     0
102
RTVSPost2010PropOp33
 70
     1
102
RTVSPost2010Prop34
280
     0
102
RTVSPost2010PropOp34
 70
     1
102
RTVSPost2010Prop35
280
     0
102
RTVSPost2010PropOp35
 70
     1
102
RTVSPost2010Prop36
280
     0
102
RTVSPost2010PropOp36
 70
     1
102
RTVSPost2010Prop37
 90
       50
102
RTVSPost2010PropOp37
 70
     1
102
RTVSPost2010Prop38
140
0.0
102
RTVSPost2010PropOp38
 70
     1
102
RTVSPost2010Prop39
140
1.0
102
RTVSPost2010PropOp39
 70
     1
102
RTVSPost2010Prop40
 90
        0
102
RTVSPost2010PropOp40
 70
     1
102
RTVSPost2010Prop41ColorIndex
 90
       18
102
RTVSPost2010Prop41ColorRGB
 90
        0
102
RTVSPost2010PropOp41
 70
     1
102
RTVSPost2010Prop42
 90
       50
102
RTVSPost2010PropOp42
 70
     1
102
RTVSPost2010Prop43
 90
        3
102
RTVSPost2010PropOp43
 70
     1
102
RTVSPost2010Prop44ColorIndex
 90
        5
102
RTVSPost2010Prop44ColorRGB
 90
      255
102
RTVSPost2010PropOp44
 70
     1
102
RTVSPost2010Prop45
280
     0
102
RTVSPost2010PropOp45
 70
     1
102
RTVSPost2010Prop46
 90
       50
102
RTVSPost2010PropOp46
 70
     1
102
RTVSPost2010Prop47
 90
       50
102
RTVSPost2010PropOp47
 70
     1
102
RTVSPost2010Prop48
 90
       50
102
RTVSPost2010PropOp48
 70
     1
102
RTVSPost2010Prop49
280
     0
102
RTVSPost2010PropOp49
 70
     1
102
RTVSPost2010Prop50
 90
       50
102
RTVSPost2010PropOp50
 70
     1
102
RTVSPost2010Prop51ColorIndex
 90
      256
102
RTVSPost2010Prop51ColorRGB
 90
-16777216
102
RTVSPost2010PropOp51
 70
     0
102
RTVSPost2010Prop52
140
1.0
102
RTVSPost2010PropOp52
 70
     0
102
RTVSPost2010Prop53
 90
        2
102
RTVSPost2010PropOp53
 70
     1
102
RTVSPost2010Prop54
  1
strokes_ogs.tif
102
RTVSPost2010PropOp54
 70
     1
102
RTVSPost2010Prop55
280
     0
102
RTVSPost2010PropOp55
 70
     1
102
RTVSPost2010Prop56
140
1.0
102
RTVSPost2010PropOp56
 70
     1
102
RTVSPost2010Prop57
140
1.0
102
RTVSPost2010PropOp57
 70
     1
  0
XRECORD
  5
2F5
102
{ACAD_REACTORS
330
2F4
102
}
330
2F4
100
AcDbXrecord
280
     1
102
RTVSPropertyOp0
 70
     1
102
RTVSPropertyOp1
 70
     1
102
RTVSPropertyOp2
 70
     1
102
RTVSPropertyOp3
 70
     1
102
RTVSPropertyOp4
 70
     1
102
RTVSPropertyOp5
 70
     1
102
RTVSPropertyOp6
 70
     1
102
RTVSPropertyOp7
 70
     1
102
RTVSPropertyOp8
 70
     1
102
RTVSPropertyOp9
 70
     1
102
RTVSPropertyOp10
 70
     1
102
RTVSPropertyOp11
 70
     1
102
RTVSPropertyOp12
 70
     1
102
RTVSPropertyOp13
 70
     1
102
RTVSPropertyOp14
 70
     1
102
RTVSPropertyOp15
 70
     1
102
RTVSPropertyOp16
 70
     1
102
RTVSPropertyOp17
 70
     1
102
RTVSPropertyOp18
 70
     1
102
RTVSPropertyOp19
 70
     1
102
RTVSPropertyOp20
 70
     1
102
RTVSPropertyOp21
 70
     1
102
RTVSPropertyOp22
 70
     1
102
RTVSPropertyOp23
 70
     1
102
RTVSPropertyOp24
 70
     1
102
RTVSPropertyOp25
 70
     1
102
RTVSPropertyOp26
 70
     1
102
RTVSPropertyOp27
 70
     1
102
RTVSPropertyOp28
 70
     1
102
RTVSPropertyOp29
 70
     1
102
RTVSPropertyOp30
 70
     1
102
RTVSPropertyOp31
 70
     1
102
RTVSPropertyOp32
 70
     1
102
RTVSPropertyOp33
 70
     1
102
RTVSPropertyOp34
 70
     1
102
RTVSPropertyOp35
 70
     1
102
RTVSPropertyOp36
 70
     1
102
RTVSPropertyOp37
 70
     1
102
RTVSPropertyOp38
 70
     1
102
RTVSPropertyOp39
 70
     1
102
RTVSPropertyOp40
 70
     1
102
RTVSPropertyOp41
 70
     1
102
RTVSPropertyOp42
 70
     1
102
RTVSPropertyOp43
 70
     1
102
RTVSPropertyOp44
 70
     1
102
RTVSPropertyOp45
 70
     1
102
RTVSPropertyOp46
 70
     1
102
RTVSPropertyOp47
 70
     1
102
RTVSPropertyOp48
 70
     1
102
RTVSPropertyOp49
 70
     1
102
RTVSPropertyOp50
 70
     1
102
RTVSPropertyOp51
 70
     0
102
RTVSPropertyOp52
 70
     0
102
RTVSPropertyOp53
 70
     1
102
RTVSPropertyOp54
 70
     1
102
RTVSPropertyOp55
 70
     1
102
RTVSPropertyOp56
 70
     1
102
RTVSPropertyOp57
 70
     1
102
RTVSPost2010Prop28
280
     0
102
RTVSPost2010PropOp28
 70
     1
102
RTVSPost2010Prop29
280
     1
102
RTVSPost2010PropOp29
 70
     1
102
RTVSPost2010Prop30
280
     1
102
RTVSPost2010PropOp30
 70
     1
102
RTVSPost2010Prop31
280
     0
102
RTVSPost2010PropOp31
 70
     1
102
RTVSPost2010Prop32
280
     0
102
RTVSPost2010PropOp32
 70
     1
102
RTVSPost2010Prop33
280
     0
102
RTVSPost2010PropOp33
 70
     1
102
RTVSPost2010Prop34
280
     0
102
RTVSPost2010PropOp34
 70
     1
102
RTVSPost2010Prop35
280
     0
102
RTVSPost2010PropOp35
 70
     1
102
RTVSPost2010Prop36
280
     0
102
RTVSPost2010PropOp36
 70
     1
102
RTVSPost2010Prop37
 90
       50
102
RTVSPost2010PropOp37
 70
     1
102
RTVSPost2010Prop38
140
0.0
102
RTVSPost2010PropOp38
 70
     1
102
RTVSPost2010Prop39
140
1.0
102
RTVSPost2010PropOp39
 70
     1
102
RTVSPost2010Prop40
 90
        0
102
RTVSPost2010PropOp40
 70
     1
102
RTVSPost2010Prop41ColorIndex
 90
       18
102
RTVSPost2010Prop41ColorRGB
 90
        0
102
RTVSPost2010PropOp41
 70
     1
102
RTVSPost2010Prop42
 90
       50
102
RTVSPost2010PropOp42
 70
     1
102
RTVSPost2010Prop43
 90
        3
102
RTVSPost2010PropOp43
 70
     1
102
RTVSPost2010Prop44ColorIndex
 90
        5
102
RTVSPost2010Prop44ColorRGB
 90
      255
102
RTVSPost2010PropOp44
 70
     1
102
RTVSPost2010Prop45
280
     0
102
RTVSPost2010PropOp45
 70
     1
102
RTVSPost2010Prop46
 90
       50
102
RTVSPost2010PropOp46
 70
     1
102
RTVSPost2010Prop47
 90
       50
102
RTVSPost2010PropOp47
 70
     1
102
RTVSPost2010Prop48
 90
       50
102
RTVSPost2010PropOp48
 70
     1
102
RTVSPost2010Prop49
280
     0
102
RTVSPost2010PropOp49
 70
     1
102
RTVSPost2010Prop50
 90
       50
102
RTVSPost2010PropOp50
 70
     1
102
RTVSPost2010Prop51ColorIndex
 90
      256
102
RTVSPost2010Prop51ColorRGB
 90
-16777216
102
RTVSPost2010PropOp51
 70
     0
102
RTVSPost2010Prop52
140
1.0
102
RTVSPost2010PropOp52
 70
     0
102
RTVSPost2010Prop53
 90
        2
102
RTVSPost2010PropOp53
 70
     1
102
RTVSPost2010Prop54
  1
strokes_ogs.tif
102
RTVSPost2010PropOp54
 70
     1
102
RTVSPost2010Prop55
280
     0
102
RTVSPost2010PropOp55
 70
     1
102
RTVSPost2010Prop56
140
1.0
102
RTVSPost2010PropOp56
 70
     1
102
RTVSPost2010Prop57
140
1.0
102
RTVSPost2010PropOp57
 70
     1
  0
XRECORD
  5
2F7
102
{ACAD_REACTORS
330
2F6
102
}
330
2F6
100
AcDbXrecord
280
     1
102
RTVSPropertyOp0
 70
     1
102
RTVSPropertyOp1
 70
     1
102
RTVSPropertyOp2
 70
     1
102
RTVSPropertyOp3
 70
     1
102
RTVSPropertyOp4
 70
     1
102
RTVSPropertyOp5
 70
     1
102
RTVSPropertyOp6
 70
     1
102
RTVSPropertyOp7
 70
     1
102
RTVSPropertyOp8
 70
     1
102
RTVSPropertyOp9
 70
     1
102
RTVSPropertyOp10
 70
     1
102
RTVSPropertyOp11
 70
     1
102
RTVSPropertyOp12
 70
     1
102
RTVSPropertyOp13
 70
     1
102
RTVSPropertyOp14
 70
     1
102
RTVSPropertyOp15
 70
     1
102
RTVSPropertyOp16
 70
     1
102
RTVSPropertyOp17
 70
     1
102
RTVSPropertyOp18
 70
     1
102
RTVSPropertyOp19
 70
     1
102
RTVSPropertyOp20
 70
     1
102
RTVSPropertyOp21
 70
     1
102
RTVSPropertyOp22
 70
     1
102
RTVSPropertyOp23
 70
     1
102
RTVSPropertyOp24
 70
     1
102
RTVSPropertyOp25
 70
     1
102
RTVSPropertyOp26
 70
     1
102
RTVSPropertyOp27
 70
     1
102
RTVSPropertyOp28
 70
     1
102
RTVSPropertyOp29
 70
     1
102
RTVSPropertyOp30
 70
     1
102
RTVSPropertyOp31
 70
     1
102
RTVSPropertyOp32
 70
     1
102
RTVSPropertyOp33
 70
     1
102
RTVSPropertyOp34
 70
     1
102
RTVSPropertyOp35
 70
     1
102
RTVSPropertyOp36
 70
     1
102
RTVSPropertyOp37
 70
     1
102
RTVSPropertyOp38
 70
     1
102
RTVSPropertyOp39
 70
     1
102
RTVSPropertyOp40
 70
     1
102
RTVSPropertyOp41
 70
     1
102
RTVSPropertyOp42
 70
     1
102
RTVSPropertyOp43
 70
     1
102
RTVSPropertyOp44
 70
     1
102
RTVSPropertyOp45
 70
     1
102
RTVSPropertyOp46
 70
     1
102
RTVSPropertyOp47
 70
     1
102
RTVSPropertyOp48
 70
     1
102
RTVSPropertyOp49
 70
     1
102
RTVSPropertyOp50
 70
     1
102
RTVSPropertyOp51
 70
     0
102
RTVSPropertyOp52
 70
     0
102
RTVSPropertyOp53
 70
     1
102
RTVSPropertyOp54
 70
     1
102
RTVSPropertyOp55
 70
     1
102
RTVSPropertyOp56
 70
     1
102
RTVSPropertyOp57
 70
     1
102
RTVSPost2010Prop28
280
     0
102
RTVSPost2010PropOp28
 70
     1
102
RTVSPost2010Prop29
280
     1
102
RTVSPost2010PropOp29
 70
     1
102
RTVSPost2010Prop30
280
     1
102
RTVSPost2010PropOp30
 70
     1
102
RTVSPost2010Prop31
280
     0
102
RTVSPost2010PropOp31
 70
     1
102
RTVSPost2010Prop32
280
     0
102
RTVSPost2010PropOp32
 70
     1
102
RTVSPost2010Prop33
280
     0
102
RTVSPost2010PropOp33
 70
     1
102
RTVSPost2010Prop34
280
     0
102
RTVSPost2010PropOp34
 70
     1
102
RTVSPost2010Prop35
280
     0
102
RTVSPost2010PropOp35
 70
     1
102
RTVSPost2010Prop36
280
     0
102
RTVSPost2010PropOp36
 70
     1
102
RTVSPost2010Prop37
 90
       50
102
RTVSPost2010PropOp37
 70
     1
102
RTVSPost2010Prop38
140
0.0
102
RTVSPost2010PropOp38
 70
     1
102
RTVSPost2010Prop39
140
1.0
102
RTVSPost2010PropOp39
 70
     1
102
RTVSPost2010Prop40
 90
        0
102
RTVSPost2010PropOp40
 70
     1
102
RTVSPost2010Prop41ColorIndex
 90
       18
102
RTVSPost2010Prop41ColorRGB
 90
        0
102
RTVSPost2010PropOp41
 70
     1
102
RTVSPost2010Prop42
 90
       50
102
RTVSPost2010PropOp42
 70
     1
102
RTVSPost2010Prop43
 90
        3
102
RTVSPost2010PropOp43
 70
     1
102
RTVSPost2010Prop44ColorIndex
 90
        5
102
RTVSPost2010Prop44ColorRGB
 90
      255
102
RTVSPost2010PropOp44
 70
     1
102
RTVSPost2010Prop45
280
     0
102
RTVSPost2010PropOp45
 70
     1
102
RTVSPost2010Prop46
 90
       50
102
RTVSPost2010PropOp46
 70
     1
102
RTVSPost2010Prop47
 90
       50
102
RTVSPost2010PropOp47
 70
     1
102
RTVSPost2010Prop48
 90
       50
102
RTVSPost2010PropOp48
 70
     1
102
RTVSPost2010Prop49
280
     0
102
RTVSPost2010PropOp49
 70
     1
102
RTVSPost2010Prop50
 90
       50
102
RTVSPost2010PropOp50
 70
     1
102
RTVSPost2010Prop51ColorIndex
 90
      256
102
RTVSPost2010Prop51ColorRGB
 90
-16777216
102
RTVSPost2010PropOp51
 70
     0
102
RTVSPost2010Prop52
140
1.0
102
RTVSPost2010PropOp52
 70
     0
102
RTVSPost2010Prop53
 90
        2
102
RTVSPost2010PropOp53
 70
     1
102
RTVSPost2010Prop54
  1
strokes_ogs.tif
102
RTVSPost2010PropOp54
 70
     1
102
RTVSPost2010Prop55
280
     0
102
RTVSPost2010PropOp55
 70
     1
102
RTVSPost2010Prop56
140
1.0
102
RTVSPost2010PropOp56
 70
     1
102
RTVSPost2010Prop57
140
1.0
102
RTVSPost2010PropOp57
 70
     1
  0
XRECORD
  5
2F9
102
{ACAD_REACTORS
330
2F8
102
}
330
2F8
100
AcDbXrecord
280
     1
102
RTVSPropertyOp0
 70
     1
102
RTVSPropertyOp1
 70
     1
102
RTVSPropertyOp2
 70
     1
102
RTVSPropertyOp3
 70
     1
102
RTVSPropertyOp4
 70
     1
102
RTVSPropertyOp5
 70
     1
102
RTVSPropertyOp6
 70
     1
102
RTVSPropertyOp7
 70
     1
102
RTVSPropertyOp8
 70
     1
102
RTVSPropertyOp9
 70
     1
102
RTVSPropertyOp10
 70
     1
102
RTVSPropertyOp11
 70
     1
102
RTVSPropertyOp12
 70
     1
102
RTVSPropertyOp13
 70
     1
102
RTVSPropertyOp14
 70
     1
102
RTVSPropertyOp15
 70
     1
102
RTVSPropertyOp16
 70
     1
102
RTVSPropertyOp17
 70
     1
102
RTVSPropertyOp18
 70
     1
102
RTVSPropertyOp19
 70
     1
102
RTVSPropertyOp20
 70
     1
102
RTVSPropertyOp21
 70
     1
102
RTVSPropertyOp22
 70
     1
102
RTVSPropertyOp23
 70
     1
102
RTVSPropertyOp24
 70
     1
102
RTVSPropertyOp25
 70
     1
102
RTVSPropertyOp26
 70
     1
102
RTVSPropertyOp27
 70
     1
102
RTVSPropertyOp28
 70
     1
102
RTVSPropertyOp29
 70
     1
102
RTVSPropertyOp30
 70
     1
102
RTVSPropertyOp31
 70
     1
102
RTVSPropertyOp32
 70
     1
102
RTVSPropertyOp33
 70
     1
102
RTVSPropertyOp34
 70
     1
102
RTVSPropertyOp35
 70
     1
102
RTVSPropertyOp36
 70
     1
102
RTVSPropertyOp37
 70
     1
102
RTVSPropertyOp38
 70
     1
102
RTVSPropertyOp39
 70
     1
102
RTVSPropertyOp40
 70
     1
102
RTVSPropertyOp41
 70
     1
102
RTVSPropertyOp42
 70
     1
102
RTVSPropertyOp43
 70
     1
102
RTVSPropertyOp44
 70
     1
102
RTVSPropertyOp45
 70
     1
102
RTVSPropertyOp46
 70
     1
102
RTVSPropertyOp47
 70
     1
102
RTVSPropertyOp48
 70
     1
102
RTVSPropertyOp49
 70
     1
102
RTVSPropertyOp50
 70
     1
102
RTVSPropertyOp51
 70
     0
102
RTVSPropertyOp52
 70
     0
102
RTVSPropertyOp53
 70
     1
102
RTVSPropertyOp54
 70
     1
102
RTVSPropertyOp55
 70
     1
102
RTVSPropertyOp56
 70
     1
102
RTVSPropertyOp57
 70
     1
102
RTVSPost2010Prop28
280
     0
102
RTVSPost2010PropOp28
 70
     1
102
RTVSPost2010Prop29
280
     1
102
RTVSPost2010PropOp29
 70
     1
102
RTVSPost2010Prop30
280
     1
102
RTVSPost2010PropOp30
 70
     1
102
RTVSPost2010Prop31
280
     0
102
RTVSPost2010PropOp31
 70
     1
102
RTVSPost2010Prop32
280
     0
102
RTVSPost2010PropOp32
 70
     1
102
RTVSPost2010Prop33
280
     0
102
RTVSPost2010PropOp33
 70
     1
102
RTVSPost2010Prop34
280
     0
102
RTVSPost2010PropOp34
 70
     1
102
RTVSPost2010Prop35
280
     0
102
RTVSPost2010PropOp35
 70
     1
102
RTVSPost2010Prop36
280
     0
102
RTVSPost2010PropOp36
 70
     1
102
RTVSPost2010Prop37
 90
       50
102
RTVSPost2010PropOp37
 70
     1
102
RTVSPost2010Prop38
140
0.0
102
RTVSPost2010PropOp38
 70
     1
102
RTVSPost2010Prop39
140
1.0
102
RTVSPost2010PropOp39
 70
     1
102
RTVSPost2010Prop40
 90
        0
102
RTVSPost2010PropOp40
 70
     1
102
RTVSPost2010Prop41ColorIndex
 90
       18
102
RTVSPost2010Prop41ColorRGB
 90
        0
102
RTVSPost2010PropOp41
 70
     1
102
RTVSPost2010Prop42
 90
       50
102
RTVSPost2010PropOp42
 70
     1
102
RTVSPost2010Prop43
 90
        3
102
RTVSPost2010PropOp43
 70
     1
102
RTVSPost2010Prop44ColorIndex
 90
        5
102
RTVSPost2010Prop44ColorRGB
 90
      255
102
RTVSPost2010PropOp44
 70
     1
102
RTVSPost2010Prop45
280
     0
102
RTVSPost2010PropOp45
 70
     1
102
RTVSPost2010Prop46
 90
       50
102
RTVSPost2010PropOp46
 70
     1
102
RTVSPost2010Prop47
 90
       50
102
RTVSPost2010PropOp47
 70
     1
102
RTVSPost2010Prop48
 90
       50
102
RTVSPost2010PropOp48
 70
     1
102
RTVSPost2010Prop49
280
     0
102
RTVSPost2010PropOp49
 70
     1
102
RTVSPost2010Prop50
 90
       50
102
RTVSPost2010PropOp50
 70
     1
102
RTVSPost2010Prop51ColorIndex
 90
      256
102
RTVSPost2010Prop51ColorRGB
 90
-16777216
102
RTVSPost2010PropOp51
 70
     0
102
RTVSPost2010Prop52
140
1.0
102
RTVSPost2010PropOp52
 70
     0
102
RTVSPost2010Prop53
 90
        2
102
RTVSPost2010PropOp53
 70
     1
102
RTVSPost2010Prop54
  1
strokes_ogs.tif
102
RTVSPost2010PropOp54
 70
     1
102
RTVSPost2010Prop55
280
     0
102
RTVSPost2010PropOp55
 70
     1
102
RTVSPost2010Prop56
140
1.0
102
RTVSPost2010PropOp56
 70
     1
102
RTVSPost2010Prop57
140
1.0
102
RTVSPost2010PropOp57
 70
     1
  0
XRECORD
  5
2FB
102
{ACAD_REACTORS
330
2FA
102
}
330
2FA
100
AcDbXrecord
280
     1
102
RTVSPropertyOp0
 70
     1
102
RTVSPropertyOp1
 70
     1
102
RTVSPropertyOp2
 70
     1
102
RTVSPropertyOp3
 70
     1
102
RTVSPropertyOp4
 70
     1
102
RTVSPropertyOp5
 70
     1
102
RTVSPropertyOp6
 70
     1
102
RTVSPropertyOp7
 70
     1
102
RTVSPropertyOp8
 70
     1
102
RTVSPropertyOp9
 70
     1
102
RTVSPropertyOp10
 70
     1
102
RTVSPropertyOp11
 70
     1
102
RTVSPropertyOp12
 70
     1
102
RTVSPropertyOp13
 70
     1
102
RTVSPropertyOp14
 70
     1
102
RTVSPropertyOp15
 70
     1
102
RTVSPropertyOp16
 70
     1
102
RTVSPropertyOp17
 70
     1
102
RTVSPropertyOp18
 70
     1
102
RTVSPropertyOp19
 70
     1
102
RTVSPropertyOp20
 70
     1
102
RTVSPropertyOp21
 70
     1
102
RTVSPropertyOp22
 70
     1
102
RTVSPropertyOp23
 70
     1
102
RTVSPropertyOp24
 70
     1
102
RTVSPropertyOp25
 70
     1
102
RTVSPropertyOp26
 70
     1
102
RTVSPropertyOp27
 70
     1
102
RTVSPropertyOp28
 70
     1
102
RTVSPropertyOp29
 70
     1
102
RTVSPropertyOp30
 70
     1
102
RTVSPropertyOp31
 70
     1
102
RTVSPropertyOp32
 70
     1
102
RTVSPropertyOp33
 70
     1
102
RTVSPropertyOp34
 70
     1
102
RTVSPropertyOp35
 70
     1
102
RTVSPropertyOp36
 70
     1
102
RTVSPropertyOp37
 70
     1
102
RTVSPropertyOp38
 70
     1
102
RTVSPropertyOp39
 70
     1
102
RTVSPropertyOp40
 70
     1
102
RTVSPropertyOp41
 70
     1
102
RTVSPropertyOp42
 70
     1
102
RTVSPropertyOp43
 70
     1
102
RTVSPropertyOp44
 70
     1
102
RTVSPropertyOp45
 70
     1
102
RTVSPropertyOp46
 70
     1
102
RTVSPropertyOp47
 70
     1
102
RTVSPropertyOp48
 70
     1
102
RTVSPropertyOp49
 70
     1
102
RTVSPropertyOp50
 70
     1
102
RTVSPropertyOp51
 70
     0
102
RTVSPropertyOp52
 70
     0
102
RTVSPropertyOp53
 70
     1
102
RTVSPropertyOp54
 70
     1
102
RTVSPropertyOp55
 70
     1
102
RTVSPropertyOp56
 70
     1
102
RTVSPropertyOp57
 70
     1
102
RTVSPost2010Prop28
280
     0
102
RTVSPost2010PropOp28
 70
     1
102
RTVSPost2010Prop29
280
     1
102
RTVSPost2010PropOp29
 70
     1
102
RTVSPost2010Prop30
280
     1
102
RTVSPost2010PropOp30
 70
     1
102
RTVSPost2010Prop31
280
     0
102
RTVSPost2010PropOp31
 70
     1
102
RTVSPost2010Prop32
280
     0
102
RTVSPost2010PropOp32
 70
     1
102
RTVSPost2010Prop33
280
     0
102
RTVSPost2010PropOp33
 70
     1
102
RTVSPost2010Prop34
280
     0
102
RTVSPost2010PropOp34
 70
     1
102
RTVSPost2010Prop35
280
     0
102
RTVSPost2010PropOp35
 70
     1
102
RTVSPost2010Prop36
280
     0
102
RTVSPost2010PropOp36
 70
     1
102
RTVSPost2010Prop37
 90
       50
102
RTVSPost2010PropOp37
 70
     1
102
RTVSPost2010Prop38
140
0.0
102
RTVSPost2010PropOp38
 70
     1
102
RTVSPost2010Prop39
140
1.0
102
RTVSPost2010PropOp39
 70
     1
102
RTVSPost2010Prop40
 90
        0
102
RTVSPost2010PropOp40
 70
     1
102
RTVSPost2010Prop41ColorIndex
 90
       18
102
RTVSPost2010Prop41ColorRGB
 90
        0
102
RTVSPost2010PropOp41
 70
     1
102
RTVSPost2010Prop42
 90
       50
102
RTVSPost2010PropOp42
 70
     1
102
RTVSPost2010Prop43
 90
        3
102
RTVSPost2010PropOp43
 70
     1
102
RTVSPost2010Prop44ColorIndex
 90
        5
102
RTVSPost2010Prop44ColorRGB
 90
      255
102
RTVSPost2010PropOp44
 70
     1
102
RTVSPost2010Prop45
280
     0
102
RTVSPost2010PropOp45
 70
     1
102
RTVSPost2010Prop46
 90
       50
102
RTVSPost2010PropOp46
 70
     1
102
RTVSPost2010Prop47
 90
       50
102
RTVSPost2010PropOp47
 70
     1
102
RTVSPost2010Prop48
 90
       50
102
RTVSPost2010PropOp48
 70
     1
102
RTVSPost2010Prop49
280
     0
102
RTVSPost2010PropOp49
 70
     1
102
RTVSPost2010Prop50
 90
       50
102
RTVSPost2010PropOp50
 70
     1
102
RTVSPost2010Prop51ColorIndex
 90
      256
102
RTVSPost2010Prop51ColorRGB
 90
-16777216
102
RTVSPost2010PropOp51
 70
     0
102
RTVSPost2010Prop52
140
1.0
102
RTVSPost2010PropOp52
 70
     0
102
RTVSPost2010Prop53
 90
        2
102
RTVSPost2010PropOp53
 70
     1
102
RTVSPost2010Prop54
  1
strokes_ogs.tif
102
RTVSPost2010PropOp54
 70
     1
102
RTVSPost2010Prop55
280
     0
102
RTVSPost2010PropOp55
 70
     1
102
RTVSPost2010Prop56
140
1.0
102
RTVSPost2010PropOp56
 70
     1
102
RTVSPost2010Prop57
140
1.0
102
RTVSPost2010PropOp57
 70
     1
  0
XRECORD
  5
301
102
{ACAD_REACTORS
330
300
102
}
330
300
100
AcDbXrecord
280
     1
102
RTVSPropertyOp0
 70
     1
102
RTVSPropertyOp1
 70
     1
102
RTVSPropertyOp2
 70
     1
102
RTVSPropertyOp3
 70
     1
102
RTVSPropertyOp4
 70
     1
102
RTVSPropertyOp5
 70
     1
102
RTVSPropertyOp6
 70
     1
102
RTVSPropertyOp7
 70
     1
102
RTVSPropertyOp8
 70
     1
102
RTVSPropertyOp9
 70
     1
102
RTVSPropertyOp10
 70
     1
102
RTVSPropertyOp11
 70
     1
102
RTVSPropertyOp12
 70
     1
102
RTVSPropertyOp13
 70
     1
102
RTVSPropertyOp14
 70
     1
102
RTVSPropertyOp15
 70
     1
102
RTVSPropertyOp16
 70
     1
102
RTVSPropertyOp17
 70
     1
102
RTVSPropertyOp18
 70
     1
102
RTVSPropertyOp19
 70
     1
102
RTVSPropertyOp20
 70
     1
102
RTVSPropertyOp21
 70
     1
102
RTVSPropertyOp22
 70
     1
102
RTVSPropertyOp23
 70
     1
102
RTVSPropertyOp24
 70
     1
102
RTVSPropertyOp25
 70
     1
102
RTVSPropertyOp26
 70
     1
102
RTVSPropertyOp27
 70
     1
102
RTVSPropertyOp28
 70
     1
102
RTVSPropertyOp29
 70
     1
102
RTVSPropertyOp30
 70
     1
102
RTVSPropertyOp31
 70
     1
102
RTVSPropertyOp32
 70
     1
102
RTVSPropertyOp33
 70
     1
102
RTVSPropertyOp34
 70
     1
102
RTVSPropertyOp35
 70
     1
102
RTVSPropertyOp36
 70
     1
102
RTVSPropertyOp37
 70
     1
102
RTVSPropertyOp38
 70
     1
102
RTVSPropertyOp39
 70
     1
102
RTVSPropertyOp40
 70
     1
102
RTVSPropertyOp41
 70
     1
102
RTVSPropertyOp42
 70
     1
102
RTVSPropertyOp43
 70
     1
102
RTVSPropertyOp44
 70
     1
102
RTVSPropertyOp45
 70
     1
102
RTVSPropertyOp46
 70
     1
102
RTVSPropertyOp47
 70
     1
102
RTVSPropertyOp48
 70
     1
102
RTVSPropertyOp49
 70
     1
102
RTVSPropertyOp50
 70
     1
102
RTVSPropertyOp51
 70
     0
102
RTVSPropertyOp52
 70
     0
102
RTVSPropertyOp53
 70
     1
102
RTVSPropertyOp54
 70
     1
102
RTVSPropertyOp55
 70
     1
102
RTVSPropertyOp56
 70
     1
102
RTVSPropertyOp57
 70
     1
102
RTVSPost2010Prop28
280
     0
102
RTVSPost2010PropOp28
 70
     1
102
RTVSPost2010Prop29
280
     1
102
RTVSPost2010PropOp29
 70
     1
102
RTVSPost2010Prop30
280
     1
102
RTVSPost2010PropOp30
 70
     1
102
RTVSPost2010Prop31
280
     0
102
RTVSPost2010PropOp31
 70
     1
102
RTVSPost2010Prop32
280
     0
102
RTVSPost2010PropOp32
 70
     1
102
RTVSPost2010Prop33
280
     0
102
RTVSPost2010PropOp33
 70
     1
102
RTVSPost2010Prop34
280
     0
102
RTVSPost2010PropOp34
 70
     1
102
RTVSPost2010Prop35
280
     0
102
RTVSPost2010PropOp35
 70
     1
102
RTVSPost2010Prop36
280
     0
102
RTVSPost2010PropOp36
 70
     1
102
RTVSPost2010Prop37
 90
       50
102
RTVSPost2010PropOp37
 70
     1
102
RTVSPost2010Prop38
140
0.0
102
RTVSPost2010PropOp38
 70
     1
102
RTVSPost2010Prop39
140
1.0
102
RTVSPost2010PropOp39
 70
     1
102
RTVSPost2010Prop40
 90
        0
102
RTVSPost2010PropOp40
 70
     1
102
RTVSPost2010Prop41ColorIndex
 90
       18
102
RTVSPost2010Prop41ColorRGB
 90
        0
102
RTVSPost2010PropOp41
 70
     1
102
RTVSPost2010Prop42
 90
       50
102
RTVSPost2010PropOp42
 70
     1
102
RTVSPost2010Prop43
 90
        3
102
RTVSPost2010PropOp43
 70
     1
102
RTVSPost2010Prop44ColorIndex
 90
        5
102
RTVSPost2010Prop44ColorRGB
 90
      255
102
RTVSPost2010PropOp44
 70
     1
102
RTVSPost2010Prop45
280
     0
102
RTVSPost2010PropOp45
 70
     1
102
RTVSPost2010Prop46
 90
       50
102
RTVSPost2010PropOp46
 70
     1
102
RTVSPost2010Prop47
 90
       50
102
RTVSPost2010PropOp47
 70
     1
102
RTVSPost2010Prop48
 90
       50
102
RTVSPost2010PropOp48
 70
     1
102
RTVSPost2010Prop49
280
     0
102
RTVSPost2010PropOp49
 70
     1
102
RTVSPost2010Prop50
 90
       50
102
RTVSPost2010PropOp50
 70
     1
102
RTVSPost2010Prop51ColorIndex
 90
      256
102
RTVSPost2010Prop51ColorRGB
 90
-16777216
102
RTVSPost2010PropOp51
 70
     0
102
RTVSPost2010Prop52
140
1.0
102
RTVSPost2010PropOp52
 70
     0
102
RTVSPost2010Prop53
 90
        2
102
RTVSPost2010PropOp53
 70
     1
102
RTVSPost2010Prop54
  1
strokes_ogs.tif
102
RTVSPost2010PropOp54
 70
     1
102
RTVSPost2010Prop55
280
     0
102
RTVSPost2010PropOp55
 70
     1
102
RTVSPost2010Prop56
140
1.0
102
RTVSPost2010PropOp56
 70
     1
102
RTVSPost2010Prop57
140
1.0
102
RTVSPost2010PropOp57
 70
     1
  0
XRECORD
  5
315
102
{ACAD_REACTORS
330
314
102
}
330
314
100
AcDbXrecord
280
     1
102
RTVSPropertyOp0
 70
     0
102
RTVSPropertyOp1
 70
     0
102
RTVSPropertyOp2
 70
     0
102
RTVSPropertyOp3
 70
     0
102
RTVSPropertyOp4
 70
     0
102
RTVSPropertyOp5
 70
     0
102
RTVSPropertyOp6
 70
     0
102
RTVSPropertyOp7
 70
     0
102
RTVSPropertyOp8
 70
     0
102
RTVSPropertyOp9
 70
     0
102
RTVSPropertyOp10
 70
     0
102
RTVSPropertyOp11
 70
     0
102
RTVSPropertyOp12
 70
     0
102
RTVSPropertyOp13
 70
     0
102
RTVSPropertyOp14
 70
     2
102
RTVSPropertyOp15
 70
     0
102
RTVSPropertyOp16
 70
     0
102
RTVSPropertyOp17
 70
     0
102
RTVSPropertyOp18
 70
     0
102
RTVSPropertyOp19
 70
     0
102
RTVSPropertyOp20
 70
     0
102
RTVSPropertyOp21
 70
     0
102
RTVSPropertyOp22
 70
     0
102
RTVSPropertyOp23
 70
     0
102
RTVSPropertyOp24
 70
     0
102
RTVSPropertyOp25
 70
     0
102
RTVSPropertyOp26
 70
     0
102
RTVSPropertyOp27
 70
     0
102
RTVSPropertyOp28
 70
     0
102
RTVSPropertyOp29
 70
     0
102
RTVSPropertyOp30
 70
     0
102
RTVSPropertyOp31
 70
     0
102
RTVSPropertyOp32
 70
     0
102
RTVSPropertyOp33
 70
     0
102
RTVSPropertyOp34
 70
     0
102
RTVSPropertyOp35
 70
     0
102
RTVSPropertyOp36
 70
     0
102
RTVSPropertyOp37
 70
     0
102
RTVSPropertyOp38
 70
     0
102
RTVSPropertyOp39
 70
     0
102
RTVSPropertyOp40
 70
     0
102
RTVSPropertyOp41
 70
     0
102
RTVSPropertyOp42
 70
     0
102
RTVSPropertyOp43
 70
     0
102
RTVSPropertyOp44
 70
     0
102
RTVSPropertyOp45
 70
     0
102
RTVSPropertyOp46
 70
     0
102
RTVSPropertyOp47
 70
     0
102
RTVSPropertyOp48
 70
     0
102
RTVSPropertyOp49
 70
     0
102
RTVSPropertyOp50
 70
     0
102
RTVSPropertyOp51
 70
     0
102
RTVSPropertyOp52
 70
     0
102
RTVSPropertyOp53
 70
     0
102
RTVSPropertyOp54
 70
     0
102
RTVSPropertyOp55
 70
     0
102
RTVSPropertyOp56
 70
     0
102
RTVSPropertyOp57
 70
     0
102
RTVSPost2010Prop28
280
     0
102
RTVSPost2010PropOp28
 70
     0
102
RTVSPost2010Prop29
280
     1
102
RTVSPost2010PropOp29
 70
     0
102
RTVSPost2010Prop30
280
     1
102
RTVSPost2010PropOp30
 70
     0
102
RTVSPost2010Prop31
280
     0
102
RTVSPost2010PropOp31
 70
     0
102
RTVSPost2010Prop32
280
     0
102
RTVSPost2010PropOp32
 70
     0
102
RTVSPost2010Prop33
280
     0
102
RTVSPost2010PropOp33
 70
     0
102
RTVSPost2010Prop34
280
     0
102
RTVSPost2010PropOp34
 70
     0
102
RTVSPost2010Prop35
280
     0
102
RTVSPost2010PropOp35
 70
     0
102
RTVSPost2010Prop36
280
     0
102
RTVSPost2010PropOp36
 70
     0
102
RTVSPost2010Prop37
 90
       50
102
RTVSPost2010PropOp37
 70
     0
102
RTVSPost2010Prop38
140
0.0
102
RTVSPost2010PropOp38
 70
     0
102
RTVSPost2010Prop39
140
1.0
102
RTVSPost2010PropOp39
 70
     0
102
RTVSPost2010Prop40
 90
        0
102
RTVSPost2010PropOp40
 70
     0
102
RTVSPost2010Prop41ColorIndex
 90
       18
102
RTVSPost2010Prop41ColorRGB
 90
        0
102
RTVSPost2010PropOp41
 70
     0
102
RTVSPost2010Prop42
 90
       50
102
RTVSPost2010PropOp42
 70
     0
102
RTVSPost2010Prop43
 90
        3
102
RTVSPost2010PropOp43
 70
     0
102
RTVSPost2010Prop44ColorIndex
 90
        5
102
RTVSPost2010Prop44ColorRGB
 90
      255
102
RTVSPost2010PropOp44
 70
     0
102
RTVSPost2010Prop45
280
     0
102
RTVSPost2010PropOp45
 70
     0
102
RTVSPost2010Prop46
 90
       50
102
RTVSPost2010PropOp46
 70
     0
102
RTVSPost2010Prop47
 90
       50
102
RTVSPost2010PropOp47
 70
     0
102
RTVSPost2010Prop48
 90
       50
102
RTVSPost2010PropOp48
 70
     0
102
RTVSPost2010Prop49
280
     0
102
RTVSPost2010PropOp49
 70
     0
102
RTVSPost2010Prop50
 90
       50
102
RTVSPost2010PropOp50
 70
     0
102
RTVSPost2010Prop51ColorIndex
 90
      256
102
RTVSPost2010Prop51ColorRGB
 90
-16777216
102
RTVSPost2010PropOp51
 70
     0
102
RTVSPost2010Prop52
140
1.0
102
RTVSPost2010PropOp52
 70
     0
102
RTVSPost2010Prop53
 90
        2
102
RTVSPost2010PropOp53
 70
     0
102
RTVSPost2010Prop54
  1
strokes_ogs.tif
102
RTVSPost2010PropOp54
 70
     0
102
RTVSPost2010Prop55
280
     0
102
RTVSPost2010PropOp55
 70
     0
102
RTVSPost2010Prop56
140
1.0
102
RTVSPost2010PropOp56
 70
     0
102
RTVSPost2010Prop57
140
1.0
102
RTVSPost2010PropOp57
 70
     0
  0
XRECORD
  5
30F
102
{ACAD_REACTORS
330
30E
102
}
330
30E
100
AcDbXrecord
280
     1
102
RTVSPropertyOp0
 70
     1
102
RTVSPropertyOp1
 70
     1
102
RTVSPropertyOp2
 70
     1
102
RTVSPropertyOp3
 70
     1
102
RTVSPropertyOp4
 70
     1
102
RTVSPropertyOp5
 70
     1
102
RTVSPropertyOp6
 70
     1
102
RTVSPropertyOp7
 70
     1
102
RTVSPropertyOp8
 70
     1
102
RTVSPropertyOp9
 70
     1
102
RTVSPropertyOp10
 70
     1
102
RTVSPropertyOp11
 70
     1
102
RTVSPropertyOp12
 70
     1
102
RTVSPropertyOp13
 70
     1
102
RTVSPropertyOp14
 70
     1
102
RTVSPropertyOp15
 70
     1
102
RTVSPropertyOp16
 70
     1
102
RTVSPropertyOp17
 70
     1
102
RTVSPropertyOp18
 70
     1
102
RTVSPropertyOp19
 70
     1
102
RTVSPropertyOp20
 70
     1
102
RTVSPropertyOp21
 70
     1
102
RTVSPropertyOp22
 70
     1
102
RTVSPropertyOp23
 70
     1
102
RTVSPropertyOp24
 70
     1
102
RTVSPropertyOp25
 70
     1
102
RTVSPropertyOp26
 70
     1
102
RTVSPropertyOp27
 70
     1
102
RTVSPropertyOp28
 70
     1
102
RTVSPropertyOp29
 70
     1
102
RTVSPropertyOp30
 70
     1
102
RTVSPropertyOp31
 70
     1
102
RTVSPropertyOp32
 70
     1
102
RTVSPropertyOp33
 70
     1
102
RTVSPropertyOp34
 70
     1
102
RTVSPropertyOp35
 70
     1
102
RTVSPropertyOp36
 70
     1
102
RTVSPropertyOp37
 70
     1
102
RTVSPropertyOp38
 70
     1
102
RTVSPropertyOp39
 70
     1
102
RTVSPropertyOp40
 70
     1
102
RTVSPropertyOp41
 70
     1
102
RTVSPropertyOp42
 70
     1
102
RTVSPropertyOp43
 70
     1
102
RTVSPropertyOp44
 70
     1
102
RTVSPropertyOp45
 70
     1
102
RTVSPropertyOp46
 70
     1
102
RTVSPropertyOp47
 70
     1
102
RTVSPropertyOp48
 70
     1
102
RTVSPropertyOp49
 70
     1
102
RTVSPropertyOp50
 70
     1
102
RTVSPropertyOp51
 70
     0
102
RTVSPropertyOp52
 70
     0
102
RTVSPropertyOp53
 70
     1
102
RTVSPropertyOp54
 70
     1
102
RTVSPropertyOp55
 70
     1
102
RTVSPropertyOp56
 70
     1
102
RTVSPropertyOp57
 70
     1
102
RTVSPost2010Prop28
280
     0
102
RTVSPost2010PropOp28
 70
     1
102
RTVSPost2010Prop29
280
     1
102
RTVSPost2010PropOp29
 70
     1
102
RTVSPost2010Prop30
280
     1
102
RTVSPost2010PropOp30
 70
     1
102
RTVSPost2010Prop31
280
     0
102
RTVSPost2010PropOp31
 70
     1
102
RTVSPost2010Prop32
280
     0
102
RTVSPost2010PropOp32
 70
     1
102
RTVSPost2010Prop33
280
     0
102
RTVSPost2010PropOp33
 70
     1
102
RTVSPost2010Prop34
280
     0
102
RTVSPost2010PropOp34
 70
     1
102
RTVSPost2010Prop35
280
     0
102
RTVSPost2010PropOp35
 70
     1
102
RTVSPost2010Prop36
280
     0
102
RTVSPost2010PropOp36
 70
     1
102
RTVSPost2010Prop37
 90
       50
102
RTVSPost2010PropOp37
 70
     1
102
RTVSPost2010Prop38
140
0.0
102
RTVSPost2010PropOp38
 70
     1
102
RTVSPost2010Prop39
140
1.0
102
RTVSPost2010PropOp39
 70
     1
102
RTVSPost2010Prop40
 90
        0
102
RTVSPost2010PropOp40
 70
     1
102
RTVSPost2010Prop41ColorIndex
 90
       18
102
RTVSPost2010Prop41ColorRGB
 90
        0
102
RTVSPost2010PropOp41
 70
     1
102
RTVSPost2010Prop42
 90
       50
102
RTVSPost2010PropOp42
 70
     1
102
RTVSPost2010Prop43
 90
        3
102
RTVSPost2010PropOp43
 70
     1
102
RTVSPost2010Prop44ColorIndex
 90
        5
102
RTVSPost2010Prop44ColorRGB
 90
      255
102
RTVSPost2010PropOp44
 70
     1
102
RTVSPost2010Prop45
280
     0
102
RTVSPost2010PropOp45
 70
     1
102
RTVSPost2010Prop46
 90
       50
102
RTVSPost2010PropOp46
 70
     1
102
RTVSPost2010Prop47
 90
       50
102
RTVSPost2010PropOp47
 70
     1
102
RTVSPost2010Prop48
 90
       50
102
RTVSPost2010PropOp48
 70
     1
102
RTVSPost2010Prop49
280
     0
102
RTVSPost2010PropOp49
 70
     1
102
RTVSPost2010Prop50
 90
       50
102
RTVSPost2010PropOp50
 70
     1
102
RTVSPost2010Prop51ColorIndex
 90
      256
102
RTVSPost2010Prop51ColorRGB
 90
-16777216
102
RTVSPost2010PropOp51
 70
     0
102
RTVSPost2010Prop52
140
1.0
102
RTVSPost2010PropOp52
 70
     0
102
RTVSPost2010Prop53
 90
        2
102
RTVSPost2010PropOp53
 70
     1
102
RTVSPost2010Prop54
  1
strokes_ogs.tif
102
RTVSPost2010PropOp54
 70
     1
102
RTVSPost2010Prop55
280
     0
102
RTVSPost2010PropOp55
 70
     1
102
RTVSPost2010Prop56
140
1.0
102
RTVSPost2010PropOp56
 70
     1
102
RTVSPost2010Prop57
140
1.0
102
RTVSPost2010PropOp57
 70
     1
  0
XRECORD
  5
317
102
{ACAD_REACTORS
330
316
102
}
330
316
100
AcDbXrecord
280
     1
102
RTVSPropertyOp0
 70
     0
102
RTVSPropertyOp1
 70
     0
102
RTVSPropertyOp2
 70
     0
102
RTVSPropertyOp3
 70
     0
102
RTVSPropertyOp4
 70
     0
102
RTVSPropertyOp5
 70
     0
102
RTVSPropertyOp6
 70
     0
102
RTVSPropertyOp7
 70
     0
102
RTVSPropertyOp8
 70
     0
102
RTVSPropertyOp9
 70
     0
102
RTVSPropertyOp10
 70
     0
102
RTVSPropertyOp11
 70
     0
102
RTVSPropertyOp12
 70
     0
102
RTVSPropertyOp13
 70
     0
102
RTVSPropertyOp14
 70
     2
102
RTVSPropertyOp15
 70
     0
102
RTVSPropertyOp16
 70
     0
102
RTVSPropertyOp17
 70
     0
102
RTVSPropertyOp18
 70
     0
102
RTVSPropertyOp19
 70
     0
102
RTVSPropertyOp20
 70
     0
102
RTVSPropertyOp21
 70
     0
102
RTVSPropertyOp22
 70
     0
102
RTVSPropertyOp23
 70
     0
102
RTVSPropertyOp24
 70
     0
102
RTVSPropertyOp25
 70
     0
102
RTVSPropertyOp26
 70
     0
102
RTVSPropertyOp27
 70
     0
102
RTVSPropertyOp28
 70
     0
102
RTVSPropertyOp29
 70
     0
102
RTVSPropertyOp30
 70
     0
102
RTVSPropertyOp31
 70
     0
102
RTVSPropertyOp32
 70
     0
102
RTVSPropertyOp33
 70
     0
102
RTVSPropertyOp34
 70
     0
102
RTVSPropertyOp35
 70
     0
102
RTVSPropertyOp36
 70
     0
102
RTVSPropertyOp37
 70
     0
102
RTVSPropertyOp38
 70
     0
102
RTVSPropertyOp39
 70
     0
102
RTVSPropertyOp40
 70
     0
102
RTVSPropertyOp41
 70
     0
102
RTVSPropertyOp42
 70
     0
102
RTVSPropertyOp43
 70
     0
102
RTVSPropertyOp44
 70
     0
102
RTVSPropertyOp45
 70
     0
102
RTVSPropertyOp46
 70
     0
102
RTVSPropertyOp47
 70
     0
102
RTVSPropertyOp48
 70
     0
102
RTVSPropertyOp49
 70
     0
102
RTVSPropertyOp50
 70
     0
102
RTVSPropertyOp51
 70
     0
102
RTVSPropertyOp52
 70
     0
102
RTVSPropertyOp53
 70
     0
102
RTVSPropertyOp54
 70
     0
102
RTVSPropertyOp55
 70
     0
102
RTVSPropertyOp56
 70
     0
102
RTVSPropertyOp57
 70
     0
102
RTVSPost2010Prop28
280
     0
102
RTVSPost2010PropOp28
 70
     0
102
RTVSPost2010Prop29
280
     1
102
RTVSPost2010PropOp29
 70
     0
102
RTVSPost2010Prop30
280
     1
102
RTVSPost2010PropOp30
 70
     0
102
RTVSPost2010Prop31
280
     0
102
RTVSPost2010PropOp31
 70
     0
102
RTVSPost2010Prop32
280
     0
102
RTVSPost2010PropOp32
 70
     0
102
RTVSPost2010Prop33
280
     0
102
RTVSPost2010PropOp33
 70
     0
102
RTVSPost2010Prop34
280
     0
102
RTVSPost2010PropOp34
 70
     0
102
RTVSPost2010Prop35
280
     0
102
RTVSPost2010PropOp35
 70
     0
102
RTVSPost2010Prop36
280
     0
102
RTVSPost2010PropOp36
 70
     0
102
RTVSPost2010Prop37
 90
       50
102
RTVSPost2010PropOp37
 70
     0
102
RTVSPost2010Prop38
140
0.0
102
RTVSPost2010PropOp38
 70
     0
102
RTVSPost2010Prop39
140
1.0
102
RTVSPost2010PropOp39
 70
     0
102
RTVSPost2010Prop40
 90
        0
102
RTVSPost2010PropOp40
 70
     0
102
RTVSPost2010Prop41ColorIndex
 90
       18
102
RTVSPost2010Prop41ColorRGB
 90
        0
102
RTVSPost2010PropOp41
 70
     0
102
RTVSPost2010Prop42
 90
       50
102
RTVSPost2010PropOp42
 70
     0
102
RTVSPost2010Prop43
 90
        3
102
RTVSPost2010PropOp43
 70
     0
102
RTVSPost2010Prop44ColorIndex
 90
        5
102
RTVSPost2010Prop44ColorRGB
 90
      255
102
RTVSPost2010PropOp44
 70
     0
102
RTVSPost2010Prop45
280
     0
102
RTVSPost2010PropOp45
 70
     0
102
RTVSPost2010Prop46
 90
       50
102
RTVSPost2010PropOp46
 70
     0
102
RTVSPost2010Prop47
 90
       50
102
RTVSPost2010PropOp47
 70
     0
102
RTVSPost2010Prop48
 90
       50
102
RTVSPost2010PropOp48
 70
     0
102
RTVSPost2010Prop49
280
     0
102
RTVSPost2010PropOp49
 70
     0
102
RTVSPost2010Prop50
 90
       50
102
RTVSPost2010PropOp50
 70
     0
102
RTVSPost2010Prop51ColorIndex
 90
      256
102
RTVSPost2010Prop51ColorRGB
 90
-16777216
102
RTVSPost2010PropOp51
 70
     0
102
RTVSPost2010Prop52
140
1.0
102
RTVSPost2010PropOp52
 70
     0
102
RTVSPost2010Prop53
 90
        2
102
RTVSPost2010PropOp53
 70
     0
102
RTVSPost2010Prop54
  1
strokes_ogs.tif
102
RTVSPost2010PropOp54
 70
     0
102
RTVSPost2010Prop55
280
     0
102
RTVSPost2010PropOp55
 70
     0
102
RTVSPost2010Prop56
140
1.0
102
RTVSPost2010PropOp56
 70
     0
102
RTVSPost2010Prop57
140
1.0
102
RTVSPost2010PropOp57
 70
     0
  0
XRECORD
  5
305
102
{ACAD_REACTORS
330
304
102
}
330
304
100
AcDbXrecord
280
     1
102
RTVSPropertyOp0
 70
     1
102
RTVSPropertyOp1
 70
     1
102
RTVSPropertyOp2
 70
     1
102
RTVSPropertyOp3
 70
     1
102
RTVSPropertyOp4
 70
     1
102
RTVSPropertyOp5
 70
     1
102
RTVSPropertyOp6
 70
     1
102
RTVSPropertyOp7
 70
     1
102
RTVSPropertyOp8
 70
     1
102
RTVSPropertyOp9
 70
     1
102
RTVSPropertyOp10
 70
     1
102
RTVSPropertyOp11
 70
     1
102
RTVSPropertyOp12
 70
     1
102
RTVSPropertyOp13
 70
     1
102
RTVSPropertyOp14
 70
     1
102
RTVSPropertyOp15
 70
     1
102
RTVSPropertyOp16
 70
     1
102
RTVSPropertyOp17
 70
     1
102
RTVSPropertyOp18
 70
     1
102
RTVSPropertyOp19
 70
     1
102
RTVSPropertyOp20
 70
     1
102
RTVSPropertyOp21
 70
     1
102
RTVSPropertyOp22
 70
     1
102
RTVSPropertyOp23
 70
     1
102
RTVSPropertyOp24
 70
     1
102
RTVSPropertyOp25
 70
     1
102
RTVSPropertyOp26
 70
     1
102
RTVSPropertyOp27
 70
     1
102
RTVSPropertyOp28
 70
     1
102
RTVSPropertyOp29
 70
     1
102
RTVSPropertyOp30
 70
     1
102
RTVSPropertyOp31
 70
     1
102
RTVSPropertyOp32
 70
     1
102
RTVSPropertyOp33
 70
     1
102
RTVSPropertyOp34
 70
     1
102
RTVSPropertyOp35
 70
     1
102
RTVSPropertyOp36
 70
     1
102
RTVSPropertyOp37
 70
     1
102
RTVSPropertyOp38
 70
     1
102
RTVSPropertyOp39
 70
     1
102
RTVSPropertyOp40
 70
     1
102
RTVSPropertyOp41
 70
     1
102
RTVSPropertyOp42
 70
     1
102
RTVSPropertyOp43
 70
     1
102
RTVSPropertyOp44
 70
     1
102
RTVSPropertyOp45
 70
     1
102
RTVSPropertyOp46
 70
     1
102
RTVSPropertyOp47
 70
     1
102
RTVSPropertyOp48
 70
     1
102
RTVSPropertyOp49
 70
     1
102
RTVSPropertyOp50
 70
     1
102
RTVSPropertyOp51
 70
     0
102
RTVSPropertyOp52
 70
     0
102
RTVSPropertyOp53
 70
     1
102
RTVSPropertyOp54
 70
     1
102
RTVSPropertyOp55
 70
     1
102
RTVSPropertyOp56
 70
     1
102
RTVSPropertyOp57
 70
     1
102
RTVSPost2010Prop28
280
     0
102
RTVSPost2010PropOp28
 70
     1
102
RTVSPost2010Prop29
280
     1
102
RTVSPost2010PropOp29
 70
     1
102
RTVSPost2010Prop30
280
     1
102
RTVSPost2010PropOp30
 70
     1
102
RTVSPost2010Prop31
280
     0
102
RTVSPost2010PropOp31
 70
     1
102
RTVSPost2010Prop32
280
     0
102
RTVSPost2010PropOp32
 70
     1
102
RTVSPost2010Prop33
280
     0
102
RTVSPost2010PropOp33
 70
     1
102
RTVSPost2010Prop34
280
     0
102
RTVSPost2010PropOp34
 70
     1
102
RTVSPost2010Prop35
280
     0
102
RTVSPost2010PropOp35
 70
     1
102
RTVSPost2010Prop36
280
     0
102
RTVSPost2010PropOp36
 70
     1
102
RTVSPost2010Prop37
 90
       50
102
RTVSPost2010PropOp37
 70
     1
102
RTVSPost2010Prop38
140
0.0
102
RTVSPost2010PropOp38
 70
     1
102
RTVSPost2010Prop39
140
1.0
102
RTVSPost2010PropOp39
 70
     1
102
RTVSPost2010Prop40
 90
        0
102
RTVSPost2010PropOp40
 70
     1
102
RTVSPost2010Prop41ColorIndex
 90
       18
102
RTVSPost2010Prop41ColorRGB
 90
        0
102
RTVSPost2010PropOp41
 70
     1
102
RTVSPost2010Prop42
 90
       50
102
RTVSPost2010PropOp42
 70
     1
102
RTVSPost2010Prop43
 90
        3
102
RTVSPost2010PropOp43
 70
     1
102
RTVSPost2010Prop44ColorIndex
 90
        5
102
RTVSPost2010Prop44ColorRGB
 90
      255
102
RTVSPost2010PropOp44
 70
     1
102
RTVSPost2010Prop45
280
     0
102
RTVSPost2010PropOp45
 70
     1
102
RTVSPost2010Prop46
 90
       50
102
RTVSPost2010PropOp46
 70
     1
102
RTVSPost2010Prop47
 90
       50
102
RTVSPost2010PropOp47
 70
     1
102
RTVSPost2010Prop48
 90
       50
102
RTVSPost2010PropOp48
 70
     1
102
RTVSPost2010Prop49
280
     0
102
RTVSPost2010PropOp49
 70
     1
102
RTVSPost2010Prop50
 90
       50
102
RTVSPost2010PropOp50
 70
     1
102
RTVSPost2010Prop51ColorIndex
 90
      256
102
RTVSPost2010Prop51ColorRGB
 90
-16777216
102
RTVSPost2010PropOp51
 70
     0
102
RTVSPost2010Prop52
140
1.0
102
RTVSPost2010PropOp52
 70
     0
102
RTVSPost2010Prop53
 90
        2
102
RTVSPost2010PropOp53
 70
     1
102
RTVSPost2010Prop54
  1
strokes_ogs.tif
102
RTVSPost2010PropOp54
 70
     1
102
RTVSPost2010Prop55
280
     0
102
RTVSPost2010PropOp55
 70
     1
102
RTVSPost2010Prop56
140
1.0
102
RTVSPost2010PropOp56
 70
     1
102
RTVSPost2010Prop57
140
1.0
102
RTVSPost2010PropOp57
 70
     1
  0
XRECORD
  5
323
102
{ACAD_REACTORS
330
322
102
}
330
322
100
AcDbXrecord
280
     1
102
RTVSPropertyOp0
 70
     1
102
RTVSPropertyOp1
 70
     1
102
RTVSPropertyOp2
 70
     1
102
RTVSPropertyOp3
 70
     1
102
RTVSPropertyOp4
 70
     1
102
RTVSPropertyOp5
 70
     1
102
RTVSPropertyOp6
 70
     1
102
RTVSPropertyOp7
 70
     1
102
RTVSPropertyOp8
 70
     1
102
RTVSPropertyOp9
 70
     1
102
RTVSPropertyOp10
 70
     1
102
RTVSPropertyOp11
 70
     1
102
RTVSPropertyOp12
 70
     1
102
RTVSPropertyOp13
 70
     1
102
RTVSPropertyOp14
 70
     1
102
RTVSPropertyOp15
 70
     1
102
RTVSPropertyOp16
 70
     1
102
RTVSPropertyOp17
 70
     1
102
RTVSPropertyOp18
 70
     1
102
RTVSPropertyOp19
 70
     1
102
RTVSPropertyOp20
 70
     1
102
RTVSPropertyOp21
 70
     1
102
RTVSPropertyOp22
 70
     1
102
RTVSPropertyOp23
 70
     1
102
RTVSPropertyOp24
 70
     1
102
RTVSPropertyOp25
 70
     1
102
RTVSPropertyOp26
 70
     1
102
RTVSPropertyOp27
 70
     1
102
RTVSPropertyOp28
 70
     1
102
RTVSPropertyOp29
 70
     1
102
RTVSPropertyOp30
 70
     1
102
RTVSPropertyOp31
 70
     1
102
RTVSPropertyOp32
 70
     1
102
RTVSPropertyOp33
 70
     1
102
RTVSPropertyOp34
 70
     1
102
RTVSPropertyOp35
 70
     1
102
RTVSPropertyOp36
 70
     1
102
RTVSPropertyOp37
 70
     1
102
RTVSPropertyOp38
 70
     1
102
RTVSPropertyOp39
 70
     1
102
RTVSPropertyOp40
 70
     1
102
RTVSPropertyOp41
 70
     1
102
RTVSPropertyOp42
 70
     1
102
RTVSPropertyOp43
 70
     1
102
RTVSPropertyOp44
 70
     1
102
RTVSPropertyOp45
 70
     1
102
RTVSPropertyOp46
 70
     1
102
RTVSPropertyOp47
 70
     1
102
RTVSPropertyOp48
 70
     1
102
RTVSPropertyOp49
 70
     1
102
RTVSPropertyOp50
 70
     1
102
RTVSPropertyOp51
 70
     0
102
RTVSPropertyOp52
 70
     0
102
RTVSPropertyOp53
 70
     1
102
RTVSPropertyOp54
 70
     1
102
RTVSPropertyOp55
 70
     1
102
RTVSPropertyOp56
 70
     1
102
RTVSPropertyOp57
 70
     1
102
RTVSPost2010Prop28
280
     0
102
RTVSPost2010PropOp28
 70
     1
102
RTVSPost2010Prop29
280
     1
102
RTVSPost2010PropOp29
 70
     1
102
RTVSPost2010Prop30
280
     1
102
RTVSPost2010PropOp30
 70
     1
102
RTVSPost2010Prop31
280
     0
102
RTVSPost2010PropOp31
 70
     1
102
RTVSPost2010Prop32
280
     0
102
RTVSPost2010PropOp32
 70
     1
102
RTVSPost2010Prop33
280
     0
102
RTVSPost2010PropOp33
 70
     1
102
RTVSPost2010Prop34
280
     0
102
RTVSPost2010PropOp34
 70
     1
102
RTVSPost2010Prop35
280
     0
102
RTVSPost2010PropOp35
 70
     1
102
RTVSPost2010Prop36
280
     0
102
RTVSPost2010PropOp36
 70
     1
102
RTVSPost2010Prop37
 90
       50
102
RTVSPost2010PropOp37
 70
     1
102
RTVSPost2010Prop38
140
0.0
102
RTVSPost2010PropOp38
 70
     1
102
RTVSPost2010Prop39
140
1.0
102
RTVSPost2010PropOp39
 70
     1
102
RTVSPost2010Prop40
 90
        0
102
RTVSPost2010PropOp40
 70
     1
102
RTVSPost2010Prop41ColorIndex
 90
       18
102
RTVSPost2010Prop41ColorRGB
 90
        0
102
RTVSPost2010PropOp41
 70
     1
102
RTVSPost2010Prop42
 90
       50
102
RTVSPost2010PropOp42
 70
     1
102
RTVSPost2010Prop43
 90
        3
102
RTVSPost2010PropOp43
 70
     1
102
RTVSPost2010Prop44ColorIndex
 90
        5
102
RTVSPost2010Prop44ColorRGB
 90
      255
102
RTVSPost2010PropOp44
 70
     1
102
RTVSPost2010Prop45
280
     0
102
RTVSPost2010PropOp45
 70
     1
102
RTVSPost2010Prop46
 90
       50
102
RTVSPost2010PropOp46
 70
     1
102
RTVSPost2010Prop47
 90
       50
102
RTVSPost2010PropOp47
 70
     1
102
RTVSPost2010Prop48
 90
       50
102
RTVSPost2010PropOp48
 70
     1
102
RTVSPost2010Prop49
280
     0
102
RTVSPost2010PropOp49
 70
     1
102
RTVSPost2010Prop50
 90
       50
102
RTVSPost2010PropOp50
 70
     1
102
RTVSPost2010Prop51ColorIndex
 90
      256
102
RTVSPost2010Prop51ColorRGB
 90
-16777216
102
RTVSPost2010PropOp51
 70
     0
102
RTVSPost2010Prop52
140
1.0
102
RTVSPost2010PropOp52
 70
     0
102
RTVSPost2010Prop53
 90
        2
102
RTVSPost2010PropOp53
 70
     1
102
RTVSPost2010Prop54
  1
strokes_ogs.tif
102
RTVSPost2010PropOp54
 70
     1
102
RTVSPost2010Prop55
280
     0
102
RTVSPost2010PropOp55
 70
     1
102
RTVSPost2010Prop56
140
1.0
102
RTVSPost2010PropOp56
 70
     1
102
RTVSPost2010Prop57
140
1.0
102
RTVSPost2010PropOp57
 70
     1
  0
XRECORD
  5
321
102
{ACAD_REACTORS
330
320
102
}
330
320
100
AcDbXrecord
280
     1
102
RTVSPropertyOp0
 70
     1
102
RTVSPropertyOp1
 70
     1
102
RTVSPropertyOp2
 70
     1
102
RTVSPropertyOp3
 70
     1
102
RTVSPropertyOp4
 70
     1
102
RTVSPropertyOp5
 70
     1
102
RTVSPropertyOp6
 70
     1
102
RTVSPropertyOp7
 70
     1
102
RTVSPropertyOp8
 70
     1
102
RTVSPropertyOp9
 70
     1
102
RTVSPropertyOp10
 70
     1
102
RTVSPropertyOp11
 70
     1
102
RTVSPropertyOp12
 70
     1
102
RTVSPropertyOp13
 70
     1
102
RTVSPropertyOp14
 70
     1
102
RTVSPropertyOp15
 70
     1
102
RTVSPropertyOp16
 70
     1
102
RTVSPropertyOp17
 70
     1
102
RTVSPropertyOp18
 70
     1
102
RTVSPropertyOp19
 70
     1
102
RTVSPropertyOp20
 70
     1
102
RTVSPropertyOp21
 70
     1
102
RTVSPropertyOp22
 70
     1
102
RTVSPropertyOp23
 70
     1
102
RTVSPropertyOp24
 70
     1
102
RTVSPropertyOp25
 70
     1
102
RTVSPropertyOp26
 70
     1
102
RTVSPropertyOp27
 70
     1
102
RTVSPropertyOp28
 70
     1
102
RTVSPropertyOp29
 70
     1
102
RTVSPropertyOp30
 70
     1
102
RTVSPropertyOp31
 70
     1
102
RTVSPropertyOp32
 70
     1
102
RTVSPropertyOp33
 70
     1
102
RTVSPropertyOp34
 70
     1
102
RTVSPropertyOp35
 70
     1
102
RTVSPropertyOp36
 70
     1
102
RTVSPropertyOp37
 70
     1
102
RTVSPropertyOp38
 70
     1
102
RTVSPropertyOp39
 70
     1
102
RTVSPropertyOp40
 70
     1
102
RTVSPropertyOp41
 70
     1
102
RTVSPropertyOp42
 70
     1
102
RTVSPropertyOp43
 70
     1
102
RTVSPropertyOp44
 70
     1
102
RTVSPropertyOp45
 70
     1
102
RTVSPropertyOp46
 70
     1
102
RTVSPropertyOp47
 70
     1
102
RTVSPropertyOp48
 70
     1
102
RTVSPropertyOp49
 70
     1
102
RTVSPropertyOp50
 70
     1
102
RTVSPropertyOp51
 70
     0
102
RTVSPropertyOp52
 70
     0
102
RTVSPropertyOp53
 70
     1
102
RTVSPropertyOp54
 70
     1
102
RTVSPropertyOp55
 70
     1
102
RTVSPropertyOp56
 70
     1
102
RTVSPropertyOp57
 70
     1
102
RTVSPost2010Prop28
280
     0
102
RTVSPost2010PropOp28
 70
     1
102
RTVSPost2010Prop29
280
     1
102
RTVSPost2010PropOp29
 70
     1
102
RTVSPost2010Prop30
280
     1
102
RTVSPost2010PropOp30
 70
     1
102
RTVSPost2010Prop31
280
     0
102
RTVSPost2010PropOp31
 70
     1
102
RTVSPost2010Prop32
280
     0
102
RTVSPost2010PropOp32
 70
     1
102
RTVSPost2010Prop33
280
     0
102
RTVSPost2010PropOp33
 70
     1
102
RTVSPost2010Prop34
280
     0
102
RTVSPost2010PropOp34
 70
     1
102
RTVSPost2010Prop35
280
     0
102
RTVSPost2010PropOp35
 70
     1
102
RTVSPost2010Prop36
280
     0
102
RTVSPost2010PropOp36
 70
     1
102
RTVSPost2010Prop37
 90
       50
102
RTVSPost2010PropOp37
 70
     1
102
RTVSPost2010Prop38
140
0.0
102
RTVSPost2010PropOp38
 70
     1
102
RTVSPost2010Prop39
140
1.0
102
RTVSPost2010PropOp39
 70
     1
102
RTVSPost2010Prop40
 90
        0
102
RTVSPost2010PropOp40
 70
     1
102
RTVSPost2010Prop41ColorIndex
 90
       18
102
RTVSPost2010Prop41ColorRGB
 90
        0
102
RTVSPost2010PropOp41
 70
     1
102
RTVSPost2010Prop42
 90
       50
102
RTVSPost2010PropOp42
 70
     1
102
RTVSPost2010Prop43
 90
        3
102
RTVSPost2010PropOp43
 70
     1
102
RTVSPost2010Prop44ColorIndex
 90
        5
102
RTVSPost2010Prop44ColorRGB
 90
      255
102
RTVSPost2010PropOp44
 70
     1
102
RTVSPost2010Prop45
280
     0
102
RTVSPost2010PropOp45
 70
     1
102
RTVSPost2010Prop46
 90
       50
102
RTVSPost2010PropOp46
 70
     1
102
RTVSPost2010Prop47
 90
       50
102
RTVSPost2010PropOp47
 70
     1
102
RTVSPost2010Prop48
 90
       50
102
RTVSPost2010PropOp48
 70
     1
102
RTVSPost2010Prop49
280
     0
102
RTVSPost2010PropOp49
 70
     1
102
RTVSPost2010Prop50
 90
       50
102
RTVSPost2010PropOp50
 70
     1
102
RTVSPost2010Prop51ColorIndex
 90
      256
102
RTVSPost2010Prop51ColorRGB
 90
-16777216
102
RTVSPost2010PropOp51
 70
     0
102
RTVSPost2010Prop52
140
1.0
102
RTVSPost2010PropOp52
 70
     0
102
RTVSPost2010Prop53
 90
        2
102
RTVSPost2010PropOp53
 70
     1
102
RTVSPost2010Prop54
  1
strokes_ogs.tif
102
RTVSPost2010PropOp54
 70
     1
102
RTVSPost2010Prop55
280
     0
102
RTVSPost2010PropOp55
 70
     1
102
RTVSPost2010Prop56
140
1.0
102
RTVSPost2010PropOp56
 70
     1
102
RTVSPost2010Prop57
140
1.0
102
RTVSPost2010PropOp57
 70
     1
  0
XRECORD
  5
31B
102
{ACAD_REACTORS
330
31A
102
}
330
31A
100
AcDbXrecord
280
     1
102
RTVSPropertyOp0
 70
     1
102
RTVSPropertyOp1
 70
     1
102
RTVSPropertyOp2
 70
     1
102
RTVSPropertyOp3
 70
     1
102
RTVSPropertyOp4
 70
     1
102
RTVSPropertyOp5
 70
     1
102
RTVSPropertyOp6
 70
     1
102
RTVSPropertyOp7
 70
     1
102
RTVSPropertyOp8
 70
     1
102
RTVSPropertyOp9
 70
     1
102
RTVSPropertyOp10
 70
     1
102
RTVSPropertyOp11
 70
     1
102
RTVSPropertyOp12
 70
     1
102
RTVSPropertyOp13
 70
     1
102
RTVSPropertyOp14
 70
     1
102
RTVSPropertyOp15
 70
     1
102
RTVSPropertyOp16
 70
     1
102
RTVSPropertyOp17
 70
     1
102
RTVSPropertyOp18
 70
     1
102
RTVSPropertyOp19
 70
     1
102
RTVSPropertyOp20
 70
     1
102
RTVSPropertyOp21
 70
     1
102
RTVSPropertyOp22
 70
     1
102
RTVSPropertyOp23
 70
     1
102
RTVSPropertyOp24
 70
     1
102
RTVSPropertyOp25
 70
     1
102
RTVSPropertyOp26
 70
     1
102
RTVSPropertyOp27
 70
     1
102
RTVSPropertyOp28
 70
     1
102
RTVSPropertyOp29
 70
     1
102
RTVSPropertyOp30
 70
     1
102
RTVSPropertyOp31
 70
     1
102
RTVSPropertyOp32
 70
     1
102
RTVSPropertyOp33
 70
     1
102
RTVSPropertyOp34
 70
     1
102
RTVSPropertyOp35
 70
     1
102
RTVSPropertyOp36
 70
     1
102
RTVSPropertyOp37
 70
     1
102
RTVSPropertyOp38
 70
     1
102
RTVSPropertyOp39
 70
     1
102
RTVSPropertyOp40
 70
     1
102
RTVSPropertyOp41
 70
     1
102
RTVSPropertyOp42
 70
     1
102
RTVSPropertyOp43
 70
     1
102
RTVSPropertyOp44
 70
     1
102
RTVSPropertyOp45
 70
     1
102
RTVSPropertyOp46
 70
     1
102
RTVSPropertyOp47
 70
     1
102
RTVSPropertyOp48
 70
     1
102
RTVSPropertyOp49
 70
     1
102
RTVSPropertyOp50
 70
     1
102
RTVSPropertyOp51
 70
     0
102
RTVSPropertyOp52
 70
     0
102
RTVSPropertyOp53
 70
     1
102
RTVSPropertyOp54
 70
     1
102
RTVSPropertyOp55
 70
     1
102
RTVSPropertyOp56
 70
     1
102
RTVSPropertyOp57
 70
     1
102
RTVSPost2010Prop28
280
     0
102
RTVSPost2010PropOp28
 70
     1
102
RTVSPost2010Prop29
280
     1
102
RTVSPost2010PropOp29
 70
     1
102
RTVSPost2010Prop30
280
     1
102
RTVSPost2010PropOp30
 70
     1
102
RTVSPost2010Prop31
280
     0
102
RTVSPost2010PropOp31
 70
     1
102
RTVSPost2010Prop32
280
     0
102
RTVSPost2010PropOp32
 70
     1
102
RTVSPost2010Prop33
280
     0
102
RTVSPost2010PropOp33
 70
     1
102
RTVSPost2010Prop34
280
     0
102
RTVSPost2010PropOp34
 70
     1
102
RTVSPost2010Prop35
280
     0
102
RTVSPost2010PropOp35
 70
     1
102
RTVSPost2010Prop36
280
     0
102
RTVSPost2010PropOp36
 70
     1
102
RTVSPost2010Prop37
 90
       50
102
RTVSPost2010PropOp37
 70
     1
102
RTVSPost2010Prop38
140
0.0
102
RTVSPost2010PropOp38
 70
     1
102
RTVSPost2010Prop39
140
1.0
102
RTVSPost2010PropOp39
 70
     1
102
RTVSPost2010Prop40
 90
        0
102
RTVSPost2010PropOp40
 70
     1
102
RTVSPost2010Prop41ColorIndex
 90
       18
102
RTVSPost2010Prop41ColorRGB
 90
        0
102
RTVSPost2010PropOp41
 70
     1
102
RTVSPost2010Prop42
 90
       50
102
RTVSPost2010PropOp42
 70
     1
102
RTVSPost2010Prop43
 90
        3
102
RTVSPost2010PropOp43
 70
     1
102
RTVSPost2010Prop44ColorIndex
 90
        5
102
RTVSPost2010Prop44ColorRGB
 90
      255
102
RTVSPost2010PropOp44
 70
     1
102
RTVSPost2010Prop45
280
     0
102
RTVSPost2010PropOp45
 70
     1
102
RTVSPost2010Prop46
 90
       50
102
RTVSPost2010PropOp46
 70
     1
102
RTVSPost2010Prop47
 90
       50
102
RTVSPost2010PropOp47
 70
     1
102
RTVSPost2010Prop48
 90
       50
102
RTVSPost2010PropOp48
 70
     1
102
RTVSPost2010Prop49
280
     0
102
RTVSPost2010PropOp49
 70
     1
102
RTVSPost2010Prop50
 90
       50
102
RTVSPost2010PropOp50
 70
     1
102
RTVSPost2010Prop51ColorIndex
 90
      256
102
RTVSPost2010Prop51ColorRGB
 90
-16777216
102
RTVSPost2010PropOp51
 70
     0
102
RTVSPost2010Prop52
140
1.0
102
RTVSPost2010PropOp52
 70
     0
102
RTVSPost2010Prop53
 90
        2
102
RTVSPost2010PropOp53
 70
     1
102
RTVSPost2010Prop54
  1
strokes_ogs.tif
102
RTVSPost2010PropOp54
 70
     1
102
RTVSPost2010Prop55
280
     0
102
RTVSPost2010PropOp55
 70
     1
102
RTVSPost2010Prop56
140
1.0
102
RTVSPost2010PropOp56
 70
     1
102
RTVSPost2010Prop57
140
1.0
102
RTVSPost2010PropOp57
 70
     1
  0
XRECORD
  5
31D
102
{ACAD_REACTORS
330
31C
102
}
330
31C
100
AcDbXrecord
280
     1
102
RTVSPropertyOp0
 70
     1
102
RTVSPropertyOp1
 70
     1
102
RTVSPropertyOp2
 70
     1
102
RTVSPropertyOp3
 70
     1
102
RTVSPropertyOp4
 70
     1
102
RTVSPropertyOp5
 70
     1
102
RTVSPropertyOp6
 70
     1
102
RTVSPropertyOp7
 70
     1
102
RTVSPropertyOp8
 70
     1
102
RTVSPropertyOp9
 70
     1
102
RTVSPropertyOp10
 70
     1
102
RTVSPropertyOp11
 70
     1
102
RTVSPropertyOp12
 70
     1
102
RTVSPropertyOp13
 70
     1
102
RTVSPropertyOp14
 70
     1
102
RTVSPropertyOp15
 70
     1
102
RTVSPropertyOp16
 70
     1
102
RTVSPropertyOp17
 70
     1
102
RTVSPropertyOp18
 70
     1
102
RTVSPropertyOp19
 70
     1
102
RTVSPropertyOp20
 70
     1
102
RTVSPropertyOp21
 70
     1
102
RTVSPropertyOp22
 70
     1
102
RTVSPropertyOp23
 70
     1
102
RTVSPropertyOp24
 70
     1
102
RTVSPropertyOp25
 70
     1
102
RTVSPropertyOp26
 70
     1
102
RTVSPropertyOp27
 70
     1
102
RTVSPropertyOp28
 70
     1
102
RTVSPropertyOp29
 70
     1
102
RTVSPropertyOp30
 70
     1
102
RTVSPropertyOp31
 70
     1
102
RTVSPropertyOp32
 70
     1
102
RTVSPropertyOp33
 70
     1
102
RTVSPropertyOp34
 70
     1
102
RTVSPropertyOp35
 70
     1
102
RTVSPropertyOp36
 70
     1
102
RTVSPropertyOp37
 70
     1
102
RTVSPropertyOp38
 70
     1
102
RTVSPropertyOp39
 70
     1
102
RTVSPropertyOp40
 70
     1
102
RTVSPropertyOp41
 70
     1
102
RTVSPropertyOp42
 70
     1
102
RTVSPropertyOp43
 70
     1
102
RTVSPropertyOp44
 70
     1
102
RTVSPropertyOp45
 70
     1
102
RTVSPropertyOp46
 70
     1
102
RTVSPropertyOp47
 70
     1
102
RTVSPropertyOp48
 70
     1
102
RTVSPropertyOp49
 70
     1
102
RTVSPropertyOp50
 70
     1
102
RTVSPropertyOp51
 70
     0
102
RTVSPropertyOp52
 70
     0
102
RTVSPropertyOp53
 70
     1
102
RTVSPropertyOp54
 70
     1
102
RTVSPropertyOp55
 70
     1
102
RTVSPropertyOp56
 70
     1
102
RTVSPropertyOp57
 70
     1
102
RTVSPost2010Prop28
280
     0
102
RTVSPost2010PropOp28
 70
     1
102
RTVSPost2010Prop29
280
     1
102
RTVSPost2010PropOp29
 70
     1
102
RTVSPost2010Prop30
280
     1
102
RTVSPost2010PropOp30
 70
     1
102
RTVSPost2010Prop31
280
     0
102
RTVSPost2010PropOp31
 70
     1
102
RTVSPost2010Prop32
280
     0
102
RTVSPost2010PropOp32
 70
     1
102
RTVSPost2010Prop33
280
     0
102
RTVSPost2010PropOp33
 70
     1
102
RTVSPost2010Prop34
280
     0
102
RTVSPost2010PropOp34
 70
     1
102
RTVSPost2010Prop35
280
     0
102
RTVSPost2010PropOp35
 70
     1
102
RTVSPost2010Prop36
280
     0
102
RTVSPost2010PropOp36
 70
     1
102
RTVSPost2010Prop37
 90
       50
102
RTVSPost2010PropOp37
 70
     1
102
RTVSPost2010Prop38
140
0.0
102
RTVSPost2010PropOp38
 70
     1
102
RTVSPost2010Prop39
140
1.0
102
RTVSPost2010PropOp39
 70
     1
102
RTVSPost2010Prop40
 90
        0
102
RTVSPost2010PropOp40
 70
     1
102
RTVSPost2010Prop41ColorIndex
 90
       18
102
RTVSPost2010Prop41ColorRGB
 90
        0
102
RTVSPost2010PropOp41
 70
     1
102
RTVSPost2010Prop42
 90
       50
102
RTVSPost2010PropOp42
 70
     1
102
RTVSPost2010Prop43
 90
        3
102
RTVSPost2010PropOp43
 70
     1
102
RTVSPost2010Prop44ColorIndex
 90
        5
102
RTVSPost2010Prop44ColorRGB
 90
      255
102
RTVSPost2010PropOp44
 70
     1
102
RTVSPost2010Prop45
280
     0
102
RTVSPost2010PropOp45
 70
     1
102
RTVSPost2010Prop46
 90
       50
102
RTVSPost2010PropOp46
 70
     1
102
RTVSPost2010Prop47
 90
       50
102
RTVSPost2010PropOp47
 70
     1
102
RTVSPost2010Prop48
 90
       50
102
RTVSPost2010PropOp48
 70
     1
102
RTVSPost2010Prop49
280
     0
102
RTVSPost2010PropOp49
 70
     1
102
RTVSPost2010Prop50
 90
       50
102
RTVSPost2010PropOp50
 70
     1
102
RTVSPost2010Prop51ColorIndex
 90
      256
102
RTVSPost2010Prop51ColorRGB
 90
-16777216
102
RTVSPost2010PropOp51
 70
     0
102
RTVSPost2010Prop52
140
1.0
102
RTVSPost2010PropOp52
 70
     0
102
RTVSPost2010Prop53
 90
        2
102
RTVSPost2010PropOp53
 70
     1
102
RTVSPost2010Prop54
  1
strokes_ogs.tif
102
RTVSPost2010PropOp54
 70
     1
102
RTVSPost2010Prop55
280
     0
102
RTVSPost2010PropOp55
 70
     1
102
RTVSPost2010Prop56
140
1.0
102
RTVSPost2010PropOp56
 70
     1
102
RTVSPost2010Prop57
140
1.0
102
RTVSPost2010PropOp57
 70
     1
  0
XRECORD
  5
30D
102
{ACAD_REACTORS
330
30C
102
}
330
30C
100
AcDbXrecord
280
     1
102
RTVSPropertyOp0
 70
     1
102
RTVSPropertyOp1
 70
     1
102
RTVSPropertyOp2
 70
     1
102
RTVSPropertyOp3
 70
     1
102
RTVSPropertyOp4
 70
     1
102
RTVSPropertyOp5
 70
     1
102
RTVSPropertyOp6
 70
     1
102
RTVSPropertyOp7
 70
     1
102
RTVSPropertyOp8
 70
     1
102
RTVSPropertyOp9
 70
     1
102
RTVSPropertyOp10
 70
     1
102
RTVSPropertyOp11
 70
     1
102
RTVSPropertyOp12
 70
     1
102
RTVSPropertyOp13
 70
     1
102
RTVSPropertyOp14
 70
     1
102
RTVSPropertyOp15
 70
     1
102
RTVSPropertyOp16
 70
     1
102
RTVSPropertyOp17
 70
     1
102
RTVSPropertyOp18
 70
     1
102
RTVSPropertyOp19
 70
     1
102
RTVSPropertyOp20
 70
     1
102
RTVSPropertyOp21
 70
     1
102
RTVSPropertyOp22
 70
     1
102
RTVSPropertyOp23
 70
     1
102
RTVSPropertyOp24
 70
     1
102
RTVSPropertyOp25
 70
     1
102
RTVSPropertyOp26
 70
     1
102
RTVSPropertyOp27
 70
     1
102
RTVSPropertyOp28
 70
     1
102
RTVSPropertyOp29
 70
     1
102
RTVSPropertyOp30
 70
     1
102
RTVSPropertyOp31
 70
     1
102
RTVSPropertyOp32
 70
     1
102
RTVSPropertyOp33
 70
     1
102
RTVSPropertyOp34
 70
     1
102
RTVSPropertyOp35
 70
     1
102
RTVSPropertyOp36
 70
     1
102
RTVSPropertyOp37
 70
     1
102
RTVSPropertyOp38
 70
     1
102
RTVSPropertyOp39
 70
     1
102
RTVSPropertyOp40
 70
     1
102
RTVSPropertyOp41
 70
     1
102
RTVSPropertyOp42
 70
     1
102
RTVSPropertyOp43
 70
     1
102
RTVSPropertyOp44
 70
     1
102
RTVSPropertyOp45
 70
     1
102
RTVSPropertyOp46
 70
     1
102
RTVSPropertyOp47
 70
     1
102
RTVSPropertyOp48
 70
     1
102
RTVSPropertyOp49
 70
     1
102
RTVSPropertyOp50
 70
     1
102
RTVSPropertyOp51
 70
     0
102
RTVSPropertyOp52
 70
     0
102
RTVSPropertyOp53
 70
     1
102
RTVSPropertyOp54
 70
     1
102
RTVSPropertyOp55
 70
     1
102
RTVSPropertyOp56
 70
     1
102
RTVSPropertyOp57
 70
     1
102
RTVSPost2010Prop28
280
     0
102
RTVSPost2010PropOp28
 70
     1
102
RTVSPost2010Prop29
280
     1
102
RTVSPost2010PropOp29
 70
     1
102
RTVSPost2010Prop30
280
     1
102
RTVSPost2010PropOp30
 70
     1
102
RTVSPost2010Prop31
280
     0
102
RTVSPost2010PropOp31
 70
     1
102
RTVSPost2010Prop32
280
     0
102
RTVSPost2010PropOp32
 70
     1
102
RTVSPost2010Prop33
280
     0
102
RTVSPost2010PropOp33
 70
     1
102
RTVSPost2010Prop34
280
     0
102
RTVSPost2010PropOp34
 70
     1
102
RTVSPost2010Prop35
280
     0
102
RTVSPost2010PropOp35
 70
     1
102
RTVSPost2010Prop36
280
     0
102
RTVSPost2010PropOp36
 70
     1
102
RTVSPost2010Prop37
 90
       50
102
RTVSPost2010PropOp37
 70
     1
102
RTVSPost2010Prop38
140
0.0
102
RTVSPost2010PropOp38
 70
     1
102
RTVSPost2010Prop39
140
1.0
102
RTVSPost2010PropOp39
 70
     1
102
RTVSPost2010Prop40
 90
        0
102
RTVSPost2010PropOp40
 70
     1
102
RTVSPost2010Prop41ColorIndex
 90
       18
102
RTVSPost2010Prop41ColorRGB
 90
        0
102
RTVSPost2010PropOp41
 70
     1
102
RTVSPost2010Prop42
 90
       50
102
RTVSPost2010PropOp42
 70
     1
102
RTVSPost2010Prop43
 90
        3
102
RTVSPost2010PropOp43
 70
     1
102
RTVSPost2010Prop44ColorIndex
 90
        5
102
RTVSPost2010Prop44ColorRGB
 90
      255
102
RTVSPost2010PropOp44
 70
     1
102
RTVSPost2010Prop45
280
     0
102
RTVSPost2010PropOp45
 70
     1
102
RTVSPost2010Prop46
 90
       50
102
RTVSPost2010PropOp46
 70
     1
102
RTVSPost2010Prop47
 90
       50
102
RTVSPost2010PropOp47
 70
     1
102
RTVSPost2010Prop48
 90
       50
102
RTVSPost2010PropOp48
 70
     1
102
RTVSPost2010Prop49
280
     0
102
RTVSPost2010PropOp49
 70
     1
102
RTVSPost2010Prop50
 90
       50
102
RTVSPost2010PropOp50
 70
     1
102
RTVSPost2010Prop51ColorIndex
 90
      256
102
RTVSPost2010Prop51ColorRGB
 90
-16777216
102
RTVSPost2010PropOp51
 70
     0
102
RTVSPost2010Prop52
140
1.0
102
RTVSPost2010PropOp52
 70
     0
102
RTVSPost2010Prop53
 90
        2
102
RTVSPost2010PropOp53
 70
     1
102
RTVSPost2010Prop54
  1
strokes_ogs.tif
102
RTVSPost2010PropOp54
 70
     1
102
RTVSPost2010Prop55
280
     0
102
RTVSPost2010PropOp55
 70
     1
102
RTVSPost2010Prop56
140
1.0
102
RTVSPost2010PropOp56
 70
     1
102
RTVSPost2010Prop57
140
1.0
102
RTVSPost2010PropOp57
 70
     1
  0
XRECORD
  5
2FF
102
{ACAD_REACTORS
330
2FE
102
}
330
2FE
100
AcDbXrecord
280
     1
102
RTVSPropertyOp0
 70
     1
102
RTVSPropertyOp1
 70
     1
102
RTVSPropertyOp2
 70
     1
102
RTVSPropertyOp3
 70
     1
102
RTVSPropertyOp4
 70
     1
102
RTVSPropertyOp5
 70
     1
102
RTVSPropertyOp6
 70
     1
102
RTVSPropertyOp7
 70
     1
102
RTVSPropertyOp8
 70
     1
102
RTVSPropertyOp9
 70
     1
102
RTVSPropertyOp10
 70
     1
102
RTVSPropertyOp11
 70
     1
102
RTVSPropertyOp12
 70
     1
102
RTVSPropertyOp13
 70
     1
102
RTVSPropertyOp14
 70
     1
102
RTVSPropertyOp15
 70
     1
102
RTVSPropertyOp16
 70
     1
102
RTVSPropertyOp17
 70
     1
102
RTVSPropertyOp18
 70
     1
102
RTVSPropertyOp19
 70
     1
102
RTVSPropertyOp20
 70
     1
102
RTVSPropertyOp21
 70
     1
102
RTVSPropertyOp22
 70
     1
102
RTVSPropertyOp23
 70
     1
102
RTVSPropertyOp24
 70
     1
102
RTVSPropertyOp25
 70
     1
102
RTVSPropertyOp26
 70
     1
102
RTVSPropertyOp27
 70
     1
102
RTVSPropertyOp28
 70
     1
102
RTVSPropertyOp29
 70
     1
102
RTVSPropertyOp30
 70
     1
102
RTVSPropertyOp31
 70
     1
102
RTVSPropertyOp32
 70
     1
102
RTVSPropertyOp33
 70
     1
102
RTVSPropertyOp34
 70
     1
102
RTVSPropertyOp35
 70
     1
102
RTVSPropertyOp36
 70
     1
102
RTVSPropertyOp37
 70
     1
102
RTVSPropertyOp38
 70
     1
102
RTVSPropertyOp39
 70
     1
102
RTVSPropertyOp40
 70
     1
102
RTVSPropertyOp41
 70
     1
102
RTVSPropertyOp42
 70
     1
102
RTVSPropertyOp43
 70
     1
102
RTVSPropertyOp44
 70
     1
102
RTVSPropertyOp45
 70
     1
102
RTVSPropertyOp46
 70
     1
102
RTVSPropertyOp47
 70
     1
102
RTVSPropertyOp48
 70
     1
102
RTVSPropertyOp49
 70
     1
102
RTVSPropertyOp50
 70
     1
102
RTVSPropertyOp51
 70
     0
102
RTVSPropertyOp52
 70
     0
102
RTVSPropertyOp53
 70
     1
102
RTVSPropertyOp54
 70
     1
102
RTVSPropertyOp55
 70
     1
102
RTVSPropertyOp56
 70
     1
102
RTVSPropertyOp57
 70
     1
102
RTVSPost2010Prop28
280
     0
102
RTVSPost2010PropOp28
 70
     1
102
RTVSPost2010Prop29
280
     1
102
RTVSPost2010PropOp29
 70
     1
102
RTVSPost2010Prop30
280
     1
102
RTVSPost2010PropOp30
 70
     1
102
RTVSPost2010Prop31
280
     0
102
RTVSPost2010PropOp31
 70
     1
102
RTVSPost2010Prop32
280
     0
102
RTVSPost2010PropOp32
 70
     1
102
RTVSPost2010Prop33
280
     0
102
RTVSPost2010PropOp33
 70
     1
102
RTVSPost2010Prop34
280
     0
102
RTVSPost2010PropOp34
 70
     1
102
RTVSPost2010Prop35
280
     0
102
RTVSPost2010PropOp35
 70
     1
102
RTVSPost2010Prop36
280
     0
102
RTVSPost2010PropOp36
 70
     1
102
RTVSPost2010Prop37
 90
       50
102
RTVSPost2010PropOp37
 70
     1
102
RTVSPost2010Prop38
140
0.0
102
RTVSPost2010PropOp38
 70
     1
102
RTVSPost2010Prop39
140
1.0
102
RTVSPost2010PropOp39
 70
     1
102
RTVSPost2010Prop40
 90
        0
102
RTVSPost2010PropOp40
 70
     1
102
RTVSPost2010Prop41ColorIndex
 90
       18
102
RTVSPost2010Prop41ColorRGB
 90
        0
102
RTVSPost2010PropOp41
 70
     1
102
RTVSPost2010Prop42
 90
       50
102
RTVSPost2010PropOp42
 70
     1
102
RTVSPost2010Prop43
 90
        3
102
RTVSPost2010PropOp43
 70
     1
102
RTVSPost2010Prop44ColorIndex
 90
        5
102
RTVSPost2010Prop44ColorRGB
 90
      255
102
RTVSPost2010PropOp44
 70
     1
102
RTVSPost2010Prop45
280
     0
102
RTVSPost2010PropOp45
 70
     1
102
RTVSPost2010Prop46
 90
       50
102
RTVSPost2010PropOp46
 70
     1
102
RTVSPost2010Prop47
 90
       50
102
RTVSPost2010PropOp47
 70
     1
102
RTVSPost2010Prop48
 90
       50
102
RTVSPost2010PropOp48
 70
     1
102
RTVSPost2010Prop49
280
     0
102
RTVSPost2010PropOp49
 70
     1
102
RTVSPost2010Prop50
 90
       50
102
RTVSPost2010PropOp50
 70
     1
102
RTVSPost2010Prop51ColorIndex
 90
      256
102
RTVSPost2010Prop51ColorRGB
 90
-16777216
102
RTVSPost2010PropOp51
 70
     0
102
RTVSPost2010Prop52
140
1.0
102
RTVSPost2010PropOp52
 70
     0
102
RTVSPost2010Prop53
 90
        2
102
RTVSPost2010PropOp53
 70
     1
102
RTVSPost2010Prop54
  1
strokes_ogs.tif
102
RTVSPost2010PropOp54
 70
     1
102
RTVSPost2010Prop55
280
     0
102
RTVSPost2010PropOp55
 70
     1
102
RTVSPost2010Prop56
140
1.0
102
RTVSPost2010PropOp56
 70
     1
102
RTVSPost2010Prop57
140
1.0
102
RTVSPost2010PropOp57
 70
     1
  0
XRECORD
  5
31F
102
{ACAD_REACTORS
330
31E
102
}
330
31E
100
AcDbXrecord
280
     1
102
RTVSPropertyOp0
 70
     1
102
RTVSPropertyOp1
 70
     1
102
RTVSPropertyOp2
 70
     1
102
RTVSPropertyOp3
 70
     1
102
RTVSPropertyOp4
 70
     1
102
RTVSPropertyOp5
 70
     1
102
RTVSPropertyOp6
 70
     1
102
RTVSPropertyOp7
 70
     1
102
RTVSPropertyOp8
 70
     1
102
RTVSPropertyOp9
 70
     1
102
RTVSPropertyOp10
 70
     1
102
RTVSPropertyOp11
 70
     1
102
RTVSPropertyOp12
 70
     1
102
RTVSPropertyOp13
 70
     1
102
RTVSPropertyOp14
 70
     1
102
RTVSPropertyOp15
 70
     1
102
RTVSPropertyOp16
 70
     1
102
RTVSPropertyOp17
 70
     1
102
RTVSPropertyOp18
 70
     1
102
RTVSPropertyOp19
 70
     1
102
RTVSPropertyOp20
 70
     1
102
RTVSPropertyOp21
 70
     1
102
RTVSPropertyOp22
 70
     1
102
RTVSPropertyOp23
 70
     1
102
RTVSPropertyOp24
 70
     1
102
RTVSPropertyOp25
 70
     1
102
RTVSPropertyOp26
 70
     1
102
RTVSPropertyOp27
 70
     1
102
RTVSPropertyOp28
 70
     1
102
RTVSPropertyOp29
 70
     1
102
RTVSPropertyOp30
 70
     1
102
RTVSPropertyOp31
 70
     1
102
RTVSPropertyOp32
 70
     1
102
RTVSPropertyOp33
 70
     1
102
RTVSPropertyOp34
 70
     1
102
RTVSPropertyOp35
 70
     1
102
RTVSPropertyOp36
 70
     1
102
RTVSPropertyOp37
 70
     1
102
RTVSPropertyOp38
 70
     1
102
RTVSPropertyOp39
 70
     1
102
RTVSPropertyOp40
 70
     1
102
RTVSPropertyOp41
 70
     1
102
RTVSPropertyOp42
 70
     1
102
RTVSPropertyOp43
 70
     1
102
RTVSPropertyOp44
 70
     1
102
RTVSPropertyOp45
 70
     1
102
RTVSPropertyOp46
 70
     1
102
RTVSPropertyOp47
 70
     1
102
RTVSPropertyOp48
 70
     1
102
RTVSPropertyOp49
 70
     1
102
RTVSPropertyOp50
 70
     1
102
RTVSPropertyOp51
 70
     0
102
RTVSPropertyOp52
 70
     0
102
RTVSPropertyOp53
 70
     1
102
RTVSPropertyOp54
 70
     1
102
RTVSPropertyOp55
 70
     1
102
RTVSPropertyOp56
 70
     1
102
RTVSPropertyOp57
 70
     1
102
RTVSPost2010Prop28
280
     0
102
RTVSPost2010PropOp28
 70
     1
102
RTVSPost2010Prop29
280
     1
102
RTVSPost2010PropOp29
 70
     1
102
RTVSPost2010Prop30
280
     1
102
RTVSPost2010PropOp30
 70
     1
102
RTVSPost2010Prop31
280
     0
102
RTVSPost2010PropOp31
 70
     1
102
RTVSPost2010Prop32
280
     0
102
RTVSPost2010PropOp32
 70
     1
102
RTVSPost2010Prop33
280
     0
102
RTVSPost2010PropOp33
 70
     1
102
RTVSPost2010Prop34
280
     0
102
RTVSPost2010PropOp34
 70
     1
102
RTVSPost2010Prop35
280
     0
102
RTVSPost2010PropOp35
 70
     1
102
RTVSPost2010Prop36
280
     0
102
RTVSPost2010PropOp36
 70
     1
102
RTVSPost2010Prop37
 90
       50
102
RTVSPost2010PropOp37
 70
     1
102
RTVSPost2010Prop38
140
0.0
102
RTVSPost2010PropOp38
 70
     1
102
RTVSPost2010Prop39
140
1.0
102
RTVSPost2010PropOp39
 70
     1
102
RTVSPost2010Prop40
 90
        0
102
RTVSPost2010PropOp40
 70
     1
102
RTVSPost2010Prop41ColorIndex
 90
       18
102
RTVSPost2010Prop41ColorRGB
 90
        0
102
RTVSPost2010PropOp41
 70
     1
102
RTVSPost2010Prop42
 90
       50
102
RTVSPost2010PropOp42
 70
     1
102
RTVSPost2010Prop43
 90
        3
102
RTVSPost2010PropOp43
 70
     1
102
RTVSPost2010Prop44ColorIndex
 90
        5
102
RTVSPost2010Prop44ColorRGB
 90
      255
102
RTVSPost2010PropOp44
 70
     1
102
RTVSPost2010Prop45
280
     0
102
RTVSPost2010PropOp45
 70
     1
102
RTVSPost2010Prop46
 90
       50
102
RTVSPost2010PropOp46
 70
     1
102
RTVSPost2010Prop47
 90
       50
102
RTVSPost2010PropOp47
 70
     1
102
RTVSPost2010Prop48
 90
       50
102
RTVSPost2010PropOp48
 70
     1
102
RTVSPost2010Prop49
280
     0
102
RTVSPost2010PropOp49
 70
     1
102
RTVSPost2010Prop50
 90
       50
102
RTVSPost2010PropOp50
 70
     1
102
RTVSPost2010Prop51ColorIndex
 90
      256
102
RTVSPost2010Prop51ColorRGB
 90
-16777216
102
RTVSPost2010PropOp51
 70
     0
102
RTVSPost2010Prop52
140
1.0
102
RTVSPost2010PropOp52
 70
     0
102
RTVSPost2010Prop53
 90
        2
102
RTVSPost2010PropOp53
 70
     1
102
RTVSPost2010Prop54
  1
strokes_ogs.tif
102
RTVSPost2010PropOp54
 70
     1
102
RTVSPost2010Prop55
280
     0
102
RTVSPost2010PropOp55
 70
     1
102
RTVSPost2010Prop56
140
1.0
102
RTVSPost2010PropOp56
 70
     1
102
RTVSPost2010Prop57
140
1.0
102
RTVSPost2010PropOp57
 70
     1
  0
ENDSEC
  0
EOF
