  0
SECTION
  2
HEADER
  9
$ACADVER
  1
AC1018
  9
$ACADMAINTVER
 70
     0
  9
$DWGCODEPAGE
  3
ANSI_1252
  9
$INSBASE
 10
0.0
 20
0.0
 30
0.0
  9
$EXTMIN
 10
-90.67321815373242
 20
332.9078770298354
 30
0.0
  9
$EXTMAX
 10
206.3267818462657
 20
542.9078770298355
 30
0.0
  9
$LIMMIN
 10
0.0
 20
0.0
  9
$LIMMAX
 10
12.0
 20
9.0
  9
$ORTHOMODE
 70
     0
  9
$REGENMODE
 70
     1
  9
$FILLMODE
 70
     1
  9
$QTEXTMODE
 70
     0
  9
$MIRRTEXT
 70
     1
  9
$LTSCALE
 40
1.0
  9
$ATTMODE
 70
     1
  9
$TEXTSIZE
 40
0.2
  9
$TRACEWID
 40
0.05
  9
$TEXTSTYLE
  7
Standard
  9
$CLAYER
  8
0
  9
$CELTYPE
  6
ByLayer
  9
$CECOLOR
 62
   256
  9
$CELTSCALE
 40
1.0
  9
$DISPSILH
 70
     0
  9
$DIMSCALE
 40
1.0
  9
$DIMASZ
 40
0.18
  9
$DIMEXO
 40
0.0625
  9
$DIMDLI
 40
0.38
  9
$DIMRND
 40
0.0
  9
$DIMDLE
 40
0.0
  9
$DIMEXE
 40
0.18
  9
$DIMTP
 40
0.0
  9
$DIMTM
 40
0.0
  9
$DIMTXT
 40
0.18
  9
$DIMCEN
 40
0.09
  9
$DIMTSZ
 40
0.0
  9
$DIMTOL
 70
     0
  9
$DIMLIM
 70
     0
  9
$DIMTIH
 70
     1
  9
$DIMTOH
 70
     1
  9
$DIMSE1
 70
     0
  9
$DIMSE2
 70
     0
  9
$DIMTAD
 70
     0
  9
$DIMZIN
 70
     0
  9
$DIMBLK
  1

  9
$DIMASO
 70
     1
  9
$DIMSHO
 70
     1
  9
$DIMPOST
  1

  9
$DIMAPOST
  1

  9
$DIMALT
 70
     0
  9
$DIMALTD
 70
     2
  9
$DIMALTF
 40
25.4
  9
$DIMLFAC
 40
1.0
  9
$DIMTOFL
 70
     0
  9
$DIMTVP
 40
0.0
  9
$DIMTIX
 70
     0
  9
$DIMSOXD
 70
     0
  9
$DIMSAH
 70
     0
  9
$DIMBLK1
  1

  9
$DIMBLK2
  1

  9
$DIMSTYLE
  2
Standard
  9
$DIMCLRD
 70
     0
  9
$DIMCLRE
 70
     0
  9
$DIMCLRT
 70
     0
  9
$DIMTFAC
 40
1.0
  9
$DIMGAP
 40
0.09
  9
$DIMJUST
 70
     0
  9
$DIMSD1
 70
     0
  9
$DIMSD2
 70
     0
  9
$DIMTOLJ
 70
     1
  9
$DIMTZIN
 70
     0
  9
$DIMALTZ
 70
     0
  9
$DIMALTTZ
 70
     0
  9
$DIMUPT
 70
     0
  9
$DIMDEC
 70
     4
  9
$DIMTDEC
 70
     4
  9
$DIMALTU
 70
     2
  9
$DIMALTTD
 70
     2
  9
$DIMTXSTY
  7
Standard
  9
$DIMAUNIT
 70
     0
  9
$DIMADEC
 70
     0
  9
$DIMALTRND
 40
0.0
  9
$DIMAZIN
 70
     0
  9
$DIMDSEP
 70
    46
  9
$DIMATFIT
 70
     3
  9
$DIMFRAC
 70
     0
  9
$DIMLDRBLK
  1

  9
$DIMLUNIT
 70
     2
  9
$DIMLWD
 70
    -2
  9
$DIMLWE
 70
    -2
  9
$DIMTMOVE
 70
     0
  9
$LUNITS
 70
     2
  9
$LUPREC
 70
     4
  9
$SKETCHINC
 40
0.1
  9
$FILLETRAD
 40
0.5
  9
$AUNITS
 70
     0
  9
$AUPREC
 70
     0
  9
$MENU
  1
.
  9
$ELEVATION
 40
0.0
  9
$PELEVATION
 40
0.0
  9
$THICKNESS
 40
0.0
  9
$LIMCHECK
 70
     0
  9
$CHAMFERA
 40
0.0
  9
$CHAMFERB
 40
0.0
  9
$CHAMFERC
 40
0.0
  9
$CHAMFERD
 40
0.0
  9
$SKPOLY
 70
     0
  9
$TDCREATE
 40
2459016.358749202
  9
$TDUCREATE
 40
2459016.275415868
  9
$TDUPDATE
 40
2459016.358749386
  9
$TDUUPDATE
 40
2459016.275416053
  9
$TDINDWG
 40
0.0000000116
  9
$TDUSRTIMER
 40
0.0000000116
  9
$USRTIMER
 70
     1
  9
$ANGBASE
 50
0.0
  9
$ANGDIR
 70
     0
  9
$PDMODE
 70
     0
  9
$PDSIZE
 40
0.0
  9
$PLINEWID
 40
0.0
  9
$SPLFRAME
 70
     0
  9
$SPLINETYPE
 70
     6
  9
$SPLINESEGS
 70
     8
  9
$HANDSEED
  5
350
  9
$SURFTAB1
 70
     6
  9
$SURFTAB2
 70
     6
  9
$SURFTYPE
 70
     6
  9
$SURFU
 70
     6
  9
$SURFV
 70
     6
  9
$UCSBASE
  2

  9
$UCSNAME
  2

  9
$UCSORG
 10
0.0
 20
0.0
 30
0.0
  9
$UCSXDIR
 10
1.0
 20
0.0
 30
0.0
  9
$UCSYDIR
 10
0.0
 20
1.0
 30
0.0
  9
$UCSORTHOREF
  2

  9
$UCSORTHOVIEW
 70
     0
  9
$UCSORGTOP
 10
0.0
 20
0.0
 30
0.0
  9
$UCSORGBOTTOM
 10
0.0
 20
0.0
 30
0.0
  9
$UCSORGLEFT
 10
0.0
 20
0.0
 30
0.0
  9
$UCSORGRIGHT
 10
0.0
 20
0.0
 30
0.0
  9
$UCSORGFRONT
 10
0.0
 20
0.0
 30
0.0
  9
$UCSORGBACK
 10
0.0
 20
0.0
 30
0.0
  9
$PUCSBASE
  2

  9
$PUCSNAME
  2

  9
$PUCSORG
 10
0.0
 20
0.0
 30
0.0
  9
$PUCSXDIR
 10
1.0
 20
0.0
 30
0.0
  9
$PUCSYDIR
 10
0.0
 20
1.0
 30
0.0
  9
$PUCSORTHOREF
  2

  9
$PUCSORTHOVIEW
 70
     0
  9
$PUCSORGTOP
 10
0.0
 20
0.0
 30
0.0
  9
$PUCSORGBOTTOM
 10
0.0
 20
0.0
 30
0.0
  9
$PUCSORGLEFT
 10
0.0
 20
0.0
 30
0.0
  9
$PUCSORGRIGHT
 10
0.0
 20
0.0
 30
0.0
  9
$PUCSORGFRONT
 10
0.0
 20
0.0
 30
0.0
  9
$PUCSORGBACK
 10
0.0
 20
0.0
 30
0.0
  9
$USERI1
 70
     0
  9
$USERI2
 70
     0
  9
$USERI3
 70
     0
  9
$USERI4
 70
     0
  9
$USERI5
 70
     0
  9
$USERR1
 40
20.1
  9
$USERR2
 40
0.0
  9
$USERR3
 40
0.0
  9
$USERR4
 40
0.0
  9
$USERR5
 40
0.0
  9
$WORLDVIEW
 70
     1
  9
$SHADEDGE
 70
     3
  9
$SHADEDIF
 70
    70
  9
$TILEMODE
 70
     1
  9
$MAXACTVP
 70
    64
  9
$PINSBASE
 10
0.0
 20
0.0
 30
0.0
  9
$PLIMCHECK
 70
     0
  9
$PEXTMIN
 10
1.00000000000000E+20
 20
1.00000000000000E+20
 30
1.00000000000000E+20
  9
$PEXTMAX
 10
-1.00000000000000E+20
 20
-1.00000000000000E+20
 30
-1.00000000000000E+20
  9
$PLIMMIN
 10
0.0
 20
0.0
  9
$PLIMMAX
 10
12.0
 20
9.0
  9
$UNITMODE
 70
     0
  9
$VISRETAIN
 70
     1
  9
$PLINEGEN
 70
     0
  9
$PSLTSCALE
 70
     1
  9
$TREEDEPTH
 70
  3020
  9
$CMLSTYLE
  2
Standard
  9
$CMLJUST
 70
     0
  9
$CMLSCALE
 40
1.0
  9
$PROXYGRAPHICS
 70
     1
  9
$MEASUREMENT
 70
     1
  9
$CELWEIGHT
370
    -1
  9
$ENDCAPS
280
     0
  9
$JOINSTYLE
280
     0
  9
$LWDISPLAY
290
     0
  9
$INSUNITS
 70
     4
  9
$HYPERLINKBASE
  1

  9
$STYLESHEET
  1

  9
$XEDIT
290
     1
  9
$CEPSNTYPE
380
     0
  9
$PSTYLEMODE
290
     1
  9
$FINGERPRINTGUID
  2
{042a63fd-8858-4699-ae99-96369e8f4095}
  9
$VERSIONGUID
  2
{FAEB1C32-E019-11D5-929B-00C0DF256EC4}
  9
$EXTNAMES
290
     1
  9
$PSVPSCALE
 40
0.0
  9
$OLESTARTUP
290
     0
  9
$SORTENTS
280
   127
  9
$INDEXCTL
280
     0
  9
$HIDETEXT
280
     1
  9
$XCLIPFRAME
290
     0
  9
$HALOGAP
280
     0
  9
$OBSCOLOR
 70
   257
  9
$OBSLTYPE
280
     0
  9
$INTERSECTIONDISPLAY
280
     0
  9
$INTERSECTIONCOLOR
 70
   257
  9
$DIMASSOC
280
     2
  9
$PROJECTNAME
  1

  0
ENDSEC
  0
SECTION
  2
CLASSES
  0
CLASS
  1
ACDBDICTIONARYWDFLT
  2
AcDbDictionaryWithDefault
  3
ObjectDBX Classes
 90
        0
 91
        3
280
     0
281
     0
  0
CLASS
  1
VISUALSTYLE
  2
AcDbVisualStyle
  3
ObjectDBX Classes
 90
     4095
 91
        3
280
     0
281
     0
  0
CLASS
  1
MATERIAL
  2
AcDbMaterial
  3
ObjectDBX Classes
 90
     1153
 91
        3
280
     0
281
     0
  0
CLASS
  1
SCALE
  2
AcDbScale
  3
ObjectDBX Classes
 90
     1153
 91
        3
280
     0
281
     0
  0
CLASS
  1
TABLESTYLE
  2
AcDbTableStyle
  3
ObjectDBX Classes
 90
     4095
 91
        3
280
     0
281
     0
  0
CLASS
  1
MLEADERSTYLE
  2
AcDbMLeaderStyle
  3
ACDB_MLEADERSTYLE_CLASS
 90
     4095
 91
        3
280
     0
281
     0
  0
CLASS
  1
SUN
  2
AcDbSun
  3
SCENEOE
 90
     1153
 91
        3
280
     0
281
     0
  0
CLASS
  1
DICTIONARYVAR
  2
AcDbDictionaryVar
  3
ObjectDBX Classes
 90
        0
 91
        3
280
     0
281
     0
  0
CLASS
  1
CELLSTYLEMAP
  2
AcDbCellStyleMap
  3
ObjectDBX Classes
 90
     1152
 91
        3
280
     0
281
     0
  0
ENDSEC
  0
SECTION
  2
TABLES
  0
TABLE
  2
VPORT
  5
8
102
{ACAD_XDICTIONARY
360
309
102
}
330
0
100
AcDbSymbolTable
 70
     1
  0
VPORT
  5
29
330
8
100
AcDbSymbolTableRecord
100
AcDbViewportTableRecord
  2
*Active
 70
     0
 10
0.0
 20
0.0
 11
1.0
 21
1.0
 12
57.82678184626664
 22
437.9078770298354
 13
0.0
 23
0.0
 14
0.5
 24
0.5
 15
0.5
 25
0.5
 16
0.0
 26
0.0
 36
1.0
 17
0.0
 27
0.0
 37
0.0
 40
231.0000000000001
 41
1.60267857142857
 42
50.0
 43
0.0
 44
0.0
 50
0.0
 51
0.0
 71
     0
 72
   100
 73
     1
 74
     3
 75
     0
 76
     0
 77
     0
 78
     0
281
     0
 65
     1
110
0.0
120
0.0
130
0.0
111
1.0
121
0.0
131
0.0
112
0.0
122
1.0
132
0.0
 79
     0
146
0.0
  0
ENDTAB
  0
TABLE
  2
LTYPE
  5
5
330
0
100
AcDbSymbolTable
 70
     8
  0
LTYPE
  5
14
330
5
100
AcDbSymbolTableRecord
100
AcDbLinetypeTableRecord
  2
ByBlock
 70
     0
  3

 72
    65
 73
     0
 40
0.0
  0
LTYPE
  5
15
330
5
100
AcDbSymbolTableRecord
100
AcDbLinetypeTableRecord
  2
ByLayer
 70
     0
  3

 72
    65
 73
     0
 40
0.0
  0
LTYPE
  5
16
330
5
100
AcDbSymbolTableRecord
100
AcDbLinetypeTableRecord
  2
Continuous
 70
     0
  3
Solid line
 72
    65
 73
     0
 40
0.0
  0
LTYPE
  5
6E
330
5
100
AcDbSymbolTableRecord
100
AcDbLinetypeTableRecord
  2
DASHED
 70
     0
  3
Dashed
 72
    65
 73
     2
 40
15.0
 49
7.0
 74
     0
 49
-8.0
 74
     0
  0
LTYPE
  5
6F
330
5
100
AcDbSymbolTableRecord
100
AcDbLinetypeTableRecord
  2
DOTTED
 70
     0
  3
Dotted
 72
    65
 73
     2
 40
1.0
 49
0.0
 74
     0
 49
-1.0
 74
     0
  0
LTYPE
  5
70
330
5
100
AcDbSymbolTableRecord
100
AcDbLinetypeTableRecord
  2
DOT_CENTER
 70
     0
  3
Dot_Center
 72
    65
 73
     4
 40
14.0
 49
12.0
 74
     0
 49
-1.0
 74
     0
 49
0.0
 74
     0
 49
-1.0
 74
     0
  0
LTYPE
  5
71
330
5
100
AcDbSymbolTableRecord
100
AcDbLinetypeTableRecord
  2
LONG_DASHED
 70
     0
  3
Long_Dashed
 72
    65
 73
     2
 40
15.0
 49
10.0
 74
     0
 49
-5.0
 74
     0
  0
LTYPE
  5
72
330
5
100
AcDbSymbolTableRecord
100
AcDbLinetypeTableRecord
  2
DASH_CENTER
 70
     0
  3
Dash_Center
 72
    65
 73
     4
 40
14.0
 49
11.0
 74
     0
 49
-1.0
 74
     0
 49
1.0
 74
     0
 49
-1.0
 74
     0
  0
LTYPE
  5
73
330
5
100
AcDbSymbolTableRecord
100
AcDbLinetypeTableRecord
  2
PHANTOM
 70
     0
  3
Phantom
 72
    65
 73
     6
 40
13.0
 49
10.0
 74
     0
 49
-1.0
 74
     0
 49
0.0
 74
     0
 49
-1.0
 74
     0
 49
0.0
 74
     0
 49
-1.0
 74
     0
  0
LTYPE
  5
74
330
5
100
AcDbSymbolTableRecord
100
AcDbLinetypeTableRecord
  2
CENTER_DASH_DASH
 70
     0
  3
Center_Dash_Dash
 72
    65
 73
     6
 40
14.0
 49
9.0
 74
     0
 49
-1.0
 74
     0
 49
1.0
 74
     0
 49
-1.0
 74
     0
 49
1.0
 74
     0
 49
-1.0
 74
     0
  0
ENDTAB
  0
TABLE
  2
LAYER
  5
2
330
0
100
AcDbSymbolTable
 70
     2
  0
LAYER
  5
10
330
2
100
AcDbSymbolTableRecord
100
AcDbLayerTableRecord
  2
0
 70
     0
 62
     7
  6
Continuous
370
    -3
390
F
  0
LAYER
  5
75
330
2
100
AcDbSymbolTableRecord
100
AcDbLayerTableRecord
  2
1
 70
     0
 62
     7
  6
Continuous
370
    -3
390
F
  0
ENDTAB
  0
TABLE
  2
STYLE
  5
3
330
0
100
AcDbSymbolTable
 70
     5
  0
STYLE
  5
11
330
3
100
AcDbSymbolTableRecord
100
AcDbTextStyleTableRecord
  2
Standard
 70
     0
 40
0.0
 41
1.0
 50
0.0
 71
     0
 42
0.2
  3
txt
  4

  0
STYLE
  5
1AC
330
3
100
AcDbSymbolTableRecord
100
AcDbTextStyleTableRecord
  2
CONVERTER_11
 70
     0
 40
0.0
 41
0.9
 50
0.0
 71
     0
 42
0.2
  3
txt.shx
  4

  0
STYLE
  5
1B3
330
3
100
AcDbSymbolTableRecord
100
AcDbTextStyleTableRecord
  2
CONVERTER_12
 70
     0
 40
0.0
 41
0.81
 50
0.0
 71
     0
 42
0.2
  3
txt.shx
  4

  0
STYLE
  5
1C9
330
3
100
AcDbSymbolTableRecord
100
AcDbTextStyleTableRecord
  2
CONVERTER_13
 70
     0
 40
0.0
 41
0.72
 50
0.0
 71
     0
 42
0.2
  3
txt.shx
  4

  0
STYLE
  5
1CC
330
3
100
AcDbSymbolTableRecord
100
AcDbTextStyleTableRecord
  2
CONVERTER_14
 70
     0
 40
0.0
 41
0.855
 50
0.0
 71
     0
 42
0.2
  3
txt.shx
  4

  0
ENDTAB
  0
TABLE
  2
VIEW
  5
6
330
0
100
AcDbSymbolTable
 70
     0
  0
ENDTAB
  0
TABLE
  2
UCS
  5
7
330
0
100
AcDbSymbolTable
 70
     0
  0
ENDTAB
  0
TABLE
  2
APPID
  5
9
330
0
100
AcDbSymbolTable
 70
     2
  0
APPID
  5
12
330
9
100
AcDbSymbolTableRecord
100
AcDbRegAppTableRecord
  2
ACAD
 70
     0
  0
APPID
  5
348
330
9
100
AcDbSymbolTableRecord
100
AcDbRegAppTableRecord
  2
ACAD_MLEADERVER
 70
     0
  0
ENDTAB
  0
TABLE
  2
DIMSTYLE
  5
A
330
0
100
AcDbSymbolTable
 70
     3
100
AcDbDimStyleTable
  0
DIMSTYLE
105
27
330
A
100
AcDbSymbolTableRecord
100
AcDbDimStyleTableRecord
  2
Standard
 70
     0
178
     0
340
11
  0
DIMSTYLE
105
275
102
{ACAD_REACTORS
330
276
102
}
330
A
100
AcDbSymbolTableRecord
100
AcDbDimStyleTableRecord
  2
ME10_DIM_10
 70
     0
 41
3.5
 42
0.0
 44
1.5
 73
     0
 74
     0
 77
     1
 78
     8
140
3.5
147
1.5
172
     1
173
     1
174
     1
175
     1
176
     2
177
     2
178
     3
340
1AC
  0
DIMSTYLE
105
307
102
{ACAD_REACTORS
330
308
102
}
330
A
100
AcDbSymbolTableRecord
100
AcDbDimStyleTableRecord
  2
ME10_DIM_11
 70
     0
 41
3.5
 42
0.0
 44
1.5
 73
     0
 74
     0
 77
     1
 78
     8
140
3.5
147
1.5
172
     1
173
     1
174
     1
175
     1
176
     2
177
     2
178
     3
340
1AC
  0
ENDTAB
  0
TABLE
  2
BLOCK_RECORD
  5
1
330
0
100
AcDbSymbolTable
 70
    20
  0
BLOCK_RECORD
  5
1F
330
1
100
AcDbSymbolTableRecord
100
AcDbBlockTableRecord
  2
*Model_Space
340
22
  0
BLOCK_RECORD
  5
1B
330
1
100
AcDbSymbolTableRecord
100
AcDbBlockTableRecord
  2
*Paper_Space
340
1E
  0
BLOCK_RECORD
  5
23
330
1
100
AcDbSymbolTableRecord
100
AcDbBlockTableRecord
  2
*Paper_Space0
340
26
  0
BLOCK_RECORD
  5
76
330
1
100
AcDbSymbolTableRecord
100
AcDbBlockTableRecord
  2
_rahmen
340
0
102
{BLKREFS
331
7D
102
}
  0
BLOCK_RECORD
  5
79
330
1
100
AcDbSymbolTableRecord
100
AcDbBlockTableRecord
  2
_punkt
340
0
102
{BLKREFS
331
7E
102
}
  0
BLOCK_RECORD
  5
7C
330
1
100
AcDbSymbolTableRecord
100
AcDbBlockTableRecord
  2
A4I_CS
340
0
102
{BLKREFS
331
AC
102
}
  0
BLOCK_RECORD
  5
81
330
1
100
AcDbSymbolTableRecord
100
AcDbBlockTableRecord
  2
PSBJ_GSK_FARBLOS-select__1
340
0
102
{BLKREFS
331
85
102
}
  0
BLOCK_RECORD
  5
84
330
1
100
AcDbSymbolTableRecord
100
AcDbBlockTableRecord
  2
Gen1
340
0
102
{BLKREFS
331
AD
102
}
  0
BLOCK_RECORD
  5
88
330
1
100
AcDbSymbolTableRecord
100
AcDbBlockTableRecord
  2
PSBJ_GSK_FARBLOS-select__2
340
0
102
{BLKREFS
331
8C
102
}
  0
BLOCK_RECORD
  5
8B
330
1
100
AcDbSymbolTableRecord
100
AcDbBlockTableRecord
  2
Back1
340
0
102
{BLKREFS
331
AE
102
}
  0
BLOCK_RECORD
  5
8F
330
1
100
AcDbSymbolTableRecord
100
AcDbBlockTableRecord
  2
PSBJ_GSK_FARBLOS-select__3
340
0
102
{BLKREFS
331
93
102
}
  0
BLOCK_RECORD
  5
92
330
1
100
AcDbSymbolTableRecord
100
AcDbBlockTableRecord
  2
Front1
340
0
102
{BLKREFS
331
AF
102
}
  0
BLOCK_RECORD
  5
96
330
1
100
AcDbSymbolTableRecord
100
AcDbBlockTableRecord
  2
PSBJ_GSK_FARBLOS-select__4
340
0
102
{BLKREFS
331
9A
102
}
  0
BLOCK_RECORD
  5
99
330
1
100
AcDbSymbolTableRecord
100
AcDbBlockTableRecord
  2
Left1
340
0
102
{BLKREFS
331
B0
102
}
  0
BLOCK_RECORD
  5
9D
330
1
100
AcDbSymbolTableRecord
100
AcDbBlockTableRecord
  2
PSBJ_GSK_FARBLOS-select__5
340
0
102
{BLKREFS
331
A1
102
}
  0
BLOCK_RECORD
  5
A0
330
1
100
AcDbSymbolTableRecord
100
AcDbBlockTableRecord
  2
Right1
340
0
102
{BLKREFS
331
B1
102
}
  0
BLOCK_RECORD
  5
A4
330
1
100
AcDbSymbolTableRecord
100
AcDbBlockTableRecord
  2
PSBJ_GSK_FARBLOS-select__6
340
0
102
{BLKREFS
331
A8
102
}
  0
BLOCK_RECORD
  5
A7
330
1
100
AcDbSymbolTableRecord
100
AcDbBlockTableRecord
  2
Top1
340
0
102
{BLKREFS
331
B2
102
}
  0
BLOCK_RECORD
  5
AB
330
1
100
AcDbSymbolTableRecord
100
AcDbBlockTableRecord
  2
1
340
0
102
{BLKREFS
331
B5
102
}
  0
BLOCK_RECORD
  5
26C
330
1
100
AcDbSymbolTableRecord
100
AcDbBlockTableRecord
  2
*D17
340
0
  0
BLOCK_RECORD
  5
277
330
1
100
AcDbSymbolTableRecord
100
AcDbBlockTableRecord
  2
*D18
340
0
102
{BLKREFS
331
280
102
}
  0
BLOCK_RECORD
  5
2FC
330
1
100
AcDbSymbolTableRecord
100
AcDbBlockTableRecord
  2
*D19
340
0
  0
ENDTAB
  0
ENDSEC
  0
SECTION
  2
BLOCKS
  0
BLOCK
  5
20
330
1F
100
AcDbEntity
  8
0
100
AcDbBlockBegin
  2
*Model_Space
 70
     0
 10
0.0
 20
0.0
 30
0.0
  3
*Model_Space
  1

  0
ENDBLK
  5
21
330
1F
100
AcDbEntity
  8
0
100
AcDbBlockEnd
  0
BLOCK
  5
1C
330
1B
100
AcDbEntity
 67
     1
  8
0
100
AcDbBlockBegin
  2
*Paper_Space
 70
     0
 10
0.0
 20
0.0
 30
0.0
  3
*Paper_Space
  1

  0
ENDBLK
  5
1D
330
1B
100
AcDbEntity
 67
     1
  8
0
100
AcDbBlockEnd
  0
BLOCK
  5
24
330
23
100
AcDbEntity
  8
0
100
AcDbBlockBegin
  2
*Paper_Space0
 70
     0
 10
0.0
 20
0.0
 30
0.0
  3
*Paper_Space0
  1

  0
ENDBLK
  5
25
330
23
100
AcDbEntity
  8
0
100
AcDbBlockEnd
  0
BLOCK
  5
77
330
76
100
AcDbEntity
  8
0
100
AcDbBlockBegin
  2
_rahmen
 70
     0
 10
201.3267818462667
 20
332.9078770298354
 30
0.0
  3
_rahmen
  1

  0
LINE
  5
B6
330
76
100
AcDbEntity
  8
1
  6
Continuous
 62
     6
100
AcDbLine
 10
71.78197731951664
 20
363.4078770298355
 30
0.0
 11
201.3267818462684
 21
363.4078770298355
 31
0.0
  0
LINE
  5
B7
330
76
100
AcDbEntity
  8
1
  6
Continuous
 62
     7
100
AcDbLine
 10
89.98197731951666
 20
342.1578770298355
 30
0.0
 11
108.1819773195166
 21
342.1578770298355
 31
0.0
  0
LINE
  5
B8
330
76
100
AcDbEntity
  8
1
  6
Continuous
 62
     6
100
AcDbLine
 10
89.98197731951666
 20
337.9078770298355
 30
0.0
 11
71.78197731951664
 21
337.9078770298354
 31
0.0
  0
LINE
  5
B9
330
76
100
AcDbEntity
  8
1
  6
Continuous
 62
     7
100
AcDbLine
 10
89.98197731951666
 20
342.1578770298355
 30
0.0
 11
89.98197731951666
 21
337.9078770298355
 31
0.0
  0
LINE
  5
BA
330
76
100
AcDbEntity
  8
1
  6
Continuous
 62
     7
100
AcDbLine
 10
108.1819773195166
 20
342.1578770298355
 30
0.0
 11
108.1819773195166
 21
337.9078770298354
 31
0.0
  0
LINE
  5
BB
330
76
100
AcDbEntity
  8
1
  6
Continuous
 62
     7
100
AcDbLine
 10
71.78197731951664
 20
342.1578770298354
 30
0.0
 11
71.78197731951664
 21
337.9078770298354
 31
0.0
  0
LINE
  5
BC
330
76
100
AcDbEntity
  8
1
  6
Continuous
 62
     7
100
AcDbLine
 10
71.78197731951664
 20
342.1578770298354
 30
0.0
 11
89.98197731951666
 21
342.1578770298355
 31
0.0
  0
LINE
  5
BD
330
76
100
AcDbEntity
  8
1
  6
Continuous
 62
     2
100
AcDbLine
 10
81.01863220607925
 20
361.5328770298354
 30
0.0
 11
81.01863220607925
 21
356.5328770298354
 31
0.0
  0
LINE
  5
BE
330
76
100
AcDbEntity
  8
1
  6
Continuous
 62
     2
100
AcDbLine
 10
81.01863220607925
 20
356.5328770298354
 30
0.0
 11
76.01863220607925
 21
357.7828770298354
 31
0.0
  0
LINE
  5
BF
330
76
100
AcDbEntity
  8
1
  6
Continuous
 62
     2
100
AcDbLine
 10
76.01863220607925
 20
357.7828770298354
 30
0.0
 11
76.01863220607925
 21
360.2828770298354
 31
0.0
  0
LINE
  5
C0
330
76
100
AcDbEntity
  8
1
  6
Continuous
 62
     2
100
AcDbLine
 10
76.01863220607925
 20
360.2828770298354
 30
0.0
 11
81.01863220607925
 21
361.5328770298354
 31
0.0
  0
LINE
  5
C1
330
76
100
AcDbEntity
  8
1
  6
Continuous
 62
     6
100
AcDbLine
 10
-50.67321815373157
 20
337.9078770298355
 30
0.0
 11
-85.67321815373145
 21
337.9078770298355
 31
0.0
  0
LINE
  5
C2
330
76
100
AcDbEntity
  8
1
  6
Continuous
 62
     6
100
AcDbLine
 10
201.3267818462684
 20
354.9078770298355
 30
0.0
 11
201.326781846268
 21
346.4078770298355
 31
0.0
  0
LINE
  5
C3
330
76
100
AcDbEntity
  8
1
  6
Continuous
 62
     6
100
AcDbLine
 10
108.1819773195166
 20
337.9078770298354
 30
0.0
 11
107.8267818462666
 21
337.9078770298355
 31
0.0
  0
LINE
  5
C4
330
76
100
AcDbEntity
  8
1
  6
Continuous
 62
     6
100
AcDbLine
 10
-44.47321815373357
 20
337.9078770298354
 30
0.0
 11
-50.67321815373157
 21
337.9078770298355
 31
0.0
  0
LINE
  5
C5
330
76
100
AcDbEntity
  8
1
  6
Continuous
 62
     7
100
AcDbLine
 10
108.1819773195166
 20
354.9078770298355
 30
0.0
 11
108.1819773195166
 21
342.1578770298355
 31
0.0
  0
LINE
  5
C6
330
76
100
AcDbEntity
  8
1
  6
Continuous
 62
     7
100
AcDbLine
 10
71.78197731951664
 20
354.9078770298355
 30
0.0
 11
71.78197731951664
 21
342.1578770298354
 31
0.0
  0
LINE
  5
C7
330
76
100
AcDbEntity
  8
1
  6
Continuous
 62
     6
100
AcDbLine
 10
57.82678184626667
 20
337.9078770298355
 30
0.0
 11
7.82678184626644
 21
337.9078770298355
 31
0.0
  0
LINE
  5
C8
330
76
100
AcDbEntity
  8
1
  6
Continuous
 62
     6
100
AcDbLine
 10
-44.47321815373357
 20
337.9078770298354
 30
0.0
 11
-42.17321815373333
 21
337.9078770298355
 31
0.0
  0
LINE
  5
C9
330
76
100
AcDbEntity
  8
1
  6
Continuous
 62
     6
100
AcDbLine
 10
108.1819773195166
 20
337.9078770298354
 30
0.0
 11
157.8267818462666
 21
337.9078770298355
 31
0.0
  0
LINE
  5
CA
330
76
100
AcDbEntity
  8
1
  6
Continuous
 62
     6
100
AcDbLine
 10
201.3267818462667
 20
337.9078770298355
 30
0.0
 11
201.326781846268
 21
346.4078770298355
 31
0.0
  0
LINE
  5
CB
330
76
100
AcDbEntity
  8
1
  6
Continuous
 62
     2
100
AcDbLine
 10
-90.67321815373242
 20
337.9078770298355
 30
0.0
 11
-90.67321815373242
 21
332.9078770298354
 31
0.0
  0
LINE
  5
CC
330
76
100
AcDbEntity
  8
1
  6
Continuous
 62
     2
100
AcDbLine
 10
-85.67321815373145
 20
337.9078770298355
 30
0.0
 11
-90.67321815373242
 21
337.9078770298355
 31
0.0
  0
LINE
  5
CD
330
76
100
AcDbEntity
  8
1
  6
Continuous
 62
     2
100
AcDbLine
 10
-85.67321815373145
 20
332.9078770298354
 30
0.0
 11
-42.17321815373333
 21
332.9078770298354
 31
0.0
  0
LINE
  5
CE
330
76
100
AcDbEntity
  8
1
  6
Continuous
 62
     2
100
AcDbLine
 10
-85.67321815373145
 20
337.9078770298355
 30
0.0
 11
-85.67321815373145
 21
332.9078770298354
 31
0.0
  0
LINE
  5
CF
330
76
100
AcDbEntity
  8
1
  6
Continuous
 62
     2
100
AcDbLine
 10
157.8267818462666
 20
332.9078770298354
 30
0.0
 11
107.8267818462666
 21
332.9078770298354
 31
0.0
  0
LINE
  5
D0
330
76
100
AcDbEntity
  8
1
  6
Continuous
 62
     2
100
AcDbLine
 10
157.8267818462666
 20
332.9078770298354
 30
0.0
 11
157.8267818462666
 21
337.9078770298355
 31
0.0
  0
LINE
  5
D1
330
76
100
AcDbEntity
  8
1
  6
Continuous
 62
     2
100
AcDbLine
 10
107.8267818462666
 20
332.9078770298354
 30
0.0
 11
107.8267818462666
 21
337.9078770298355
 31
0.0
  0
LINE
  5
D2
330
76
100
AcDbEntity
  8
1
  6
Continuous
 62
     2
100
AcDbLine
 10
57.82678184626667
 20
332.9078770298354
 30
0.0
 11
107.8267818462666
 21
332.9078770298354
 31
0.0
  0
LINE
  5
D3
330
76
100
AcDbEntity
  8
1
  6
Continuous
 62
     2
100
AcDbLine
 10
57.82678184626667
 20
332.9078770298354
 30
0.0
 11
57.82678184626667
 21
337.9078770298355
 31
0.0
  0
LINE
  5
D4
330
76
100
AcDbEntity
  8
1
  6
Continuous
 62
     2
100
AcDbLine
 10
7.82678184626644
 20
332.9078770298354
 30
0.0
 11
57.82678184626667
 21
332.9078770298354
 31
0.0
  0
LINE
  5
D5
330
76
100
AcDbEntity
  8
1
  6
Continuous
 62
     2
100
AcDbLine
 10
7.82678184626644
 20
332.9078770298354
 30
0.0
 11
7.82678184626644
 21
337.9078770298355
 31
0.0
  0
LINE
  5
D6
330
76
100
AcDbEntity
  8
1
  6
Continuous
 62
     2
100
AcDbLine
 10
-42.17321815373333
 20
332.9078770298354
 30
0.0
 11
7.82678184626644
 21
332.9078770298354
 31
0.0
  0
LINE
  5
D7
330
76
100
AcDbEntity
  8
1
  6
Continuous
 62
     2
100
AcDbLine
 10
-42.17321815373333
 20
332.9078770298354
 30
0.0
 11
-42.17321815373333
 21
337.9078770298355
 31
0.0
  0
LINE
  5
D8
330
76
100
AcDbEntity
  8
1
  6
Continuous
 62
     6
100
AcDbLine
 10
-85.67321815373163
 20
387.9078770298356
 30
0.0
 11
-85.67321815373145
 21
337.9078770298355
 31
0.0
  0
LINE
  5
D9
330
76
100
AcDbEntity
  8
1
  6
Continuous
 62
     2
100
AcDbLine
 10
-90.67321815373242
 20
387.9078770298356
 30
0.0
 11
-90.67321815373242
 21
337.9078770298355
 31
0.0
  0
LINE
  5
DA
330
76
100
AcDbEntity
  8
1
  6
Continuous
 62
     2
100
AcDbLine
 10
-90.67321815373242
 20
387.9078770298356
 30
0.0
 11
-85.67321815373163
 21
387.9078770298356
 31
0.0
  0
LINE
  5
DB
330
76
100
AcDbEntity
  8
1
  6
Continuous
 62
     6
100
AcDbLine
 10
-85.67321815373185
 20
437.9078770298354
 30
0.0
 11
-85.67321815373163
 21
387.9078770298356
 31
0.0
  0
LINE
  5
DC
330
76
100
AcDbEntity
  8
1
  6
Continuous
 62
     2
100
AcDbLine
 10
-90.67321815373242
 20
437.9078770298354
 30
0.0
 11
-90.67321815373242
 21
387.9078770298356
 31
0.0
  0
LINE
  5
DD
330
76
100
AcDbEntity
  8
1
  6
Continuous
 62
     2
100
AcDbLine
 10
-90.67321815373242
 20
437.9078770298354
 30
0.0
 11
-85.67321815373185
 21
437.9078770298354
 31
0.0
  0
LINE
  5
DE
330
76
100
AcDbEntity
  8
1
  6
Continuous
 62
     6
100
AcDbLine
 10
-85.67321815373236
 20
487.9078770298355
 30
0.0
 11
-85.67321815373185
 21
437.9078770298354
 31
0.0
  0
LINE
  5
DF
330
76
100
AcDbEntity
  8
1
  6
Continuous
 62
     2
100
AcDbLine
 10
-90.67321815373242
 20
487.9078770298355
 30
0.0
 11
-90.67321815373242
 21
437.9078770298354
 31
0.0
  0
LINE
  5
E0
330
76
100
AcDbEntity
  8
1
  6
Continuous
 62
     2
100
AcDbLine
 10
-90.67321815373242
 20
487.9078770298355
 30
0.0
 11
-85.67321815373236
 21
487.9078770298355
 31
0.0
  0
LINE
  5
E1
330
76
100
AcDbEntity
  8
1
  6
Continuous
 62
     6
100
AcDbLine
 10
-85.67321815373242
 20
522.9078770298355
 30
0.0
 11
-85.67321815373236
 21
487.9078770298355
 31
0.0
  0
LINE
  5
E2
330
76
100
AcDbEntity
  8
1
  6
Continuous
 62
     2
100
AcDbLine
 10
-90.67321815373242
 20
542.9078770298355
 30
0.0
 11
-90.67321815373242
 21
487.9078770298355
 31
0.0
  0
LINE
  5
E3
330
76
100
AcDbEntity
  8
1
  6
Continuous
 62
     2
100
AcDbLine
 10
-90.67321815373242
 20
332.9078770298354
 30
0.0
 11
-85.67321815373145
 21
332.9078770298354
 31
0.0
  0
LINE
  5
E4
330
76
100
AcDbEntity
  8
1
  6
Continuous
 62
     2
100
AcDbLine
 10
57.82678184626667
 20
542.9078770298355
 30
0.0
 11
57.82678184626667
 21
533.6991851851342
 31
0.0
  0
LINE
  5
E5
330
76
100
AcDbEntity
  8
1
  6
Continuous
 62
     2
100
AcDbLine
 10
57.82678184626667
 20
542.9078770298355
 30
0.0
 11
-90.67321815373242
 21
542.9078770298355
 31
0.0
  0
LINE
  5
E6
330
76
100
AcDbEntity
  8
1
  6
Continuous
 62
     2
100
AcDbLine
 10
206.3267818462657
 20
337.9078770298355
 30
0.0
 11
206.3267818462657
 21
387.9078770298356
 31
0.0
  0
LINE
  5
E7
330
76
100
AcDbEntity
  8
1
  6
Continuous
 62
     2
100
AcDbLine
 10
206.3267818462657
 20
487.9078770298355
 30
0.0
 11
206.3267818462657
 21
542.9078770298355
 31
0.0
  0
LINE
  5
E8
330
76
100
AcDbEntity
  8
1
  6
Continuous
 62
     6
100
AcDbLine
 10
201.3267818462659
 20
487.9078770298355
 30
0.0
 11
201.3267818462657
 21
522.9078770298355
 31
0.0
  0
LINE
  5
E9
330
76
100
AcDbEntity
  8
1
  6
Continuous
 62
     2
100
AcDbLine
 10
201.3267818462659
 20
487.9078770298355
 30
0.0
 11
206.3267818462657
 21
487.9078770298355
 31
0.0
  0
LINE
  5
EA
330
76
100
AcDbEntity
  8
1
  6
Continuous
 62
     2
100
AcDbLine
 10
206.3267818462657
 20
437.9078770298354
 30
0.0
 11
206.3267818462657
 21
487.9078770298355
 31
0.0
  0
LINE
  5
EB
330
76
100
AcDbEntity
  8
1
  6
Continuous
 62
     6
100
AcDbLine
 10
201.3267818462671
 20
437.9078770298354
 30
0.0
 11
201.3267818462659
 21
487.9078770298355
 31
0.0
  0
LINE
  5
EC
330
76
100
AcDbEntity
  8
1
  6
Continuous
 62
     2
100
AcDbLine
 10
201.3267818462671
 20
437.9078770298354
 30
0.0
 11
206.3267818462657
 21
437.9078770298354
 31
0.0
  0
LINE
  5
ED
330
76
100
AcDbEntity
  8
1
  6
Continuous
 62
     2
100
AcDbLine
 10
206.3267818462657
 20
387.9078770298356
 30
0.0
 11
206.3267818462657
 21
437.9078770298354
 31
0.0
  0
LINE
  5
EE
330
76
100
AcDbEntity
  8
1
  6
Continuous
 62
     6
100
AcDbLine
 10
201.3267818462676
 20
387.9078770298356
 30
0.0
 11
201.3267818462671
 21
437.9078770298354
 31
0.0
  0
LINE
  5
EF
330
76
100
AcDbEntity
  8
1
  6
Continuous
 62
     2
100
AcDbLine
 10
201.3267818462676
 20
387.9078770298356
 30
0.0
 11
206.3267818462657
 21
387.9078770298356
 31
0.0
  0
LINE
  5
F0
330
76
100
AcDbEntity
  8
1
  6
Continuous
 62
     6
100
AcDbLine
 10
201.3267818462657
 20
522.9078770298355
 30
0.0
 11
-85.67321815373242
 21
522.9078770298355
 31
0.0
  0
LINE
  5
F1
330
76
100
AcDbEntity
  8
1
  6
Continuous
 62
     2
100
AcDbLine
 10
206.3267818462657
 20
542.9078770298355
 30
0.0
 11
57.82678184626667
 21
542.9078770298355
 31
0.0
  0
LINE
  5
F2
330
76
100
AcDbEntity
  8
1
  6
Continuous
 62
     6
100
AcDbLine
 10
201.3267818462684
 20
354.9078770298355
 30
0.0
 11
201.3267818462676
 21
387.9078770298356
 31
0.0
  0
LINE
  5
F3
330
76
100
AcDbEntity
  8
1
  6
Continuous
 62
     2
100
AcDbLine
 10
201.3267818462667
 20
332.9078770298354
 30
0.0
 11
157.8267818462666
 21
332.9078770298354
 31
0.0
  0
LINE
  5
F4
330
76
100
AcDbEntity
  8
1
  6
Continuous
 62
     2
100
AcDbLine
 10
206.3267818462657
 20
332.9078770298354
 30
0.0
 11
201.3267818462667
 21
332.9078770298354
 31
0.0
  0
LINE
  5
F5
330
76
100
AcDbEntity
  8
1
  6
Continuous
 62
     2
100
AcDbLine
 10
206.3267818462657
 20
332.9078770298354
 30
0.0
 11
206.3267818462657
 21
337.9078770298355
 31
0.0
  0
LINE
  5
F6
330
76
100
AcDbEntity
  8
1
  6
Continuous
 62
     6
100
AcDbLine
 10
71.78197731951664
 20
354.9078770298355
 30
0.0
 11
108.1819773195166
 21
354.9078770298355
 31
0.0
  0
LINE
  5
F7
330
76
100
AcDbEntity
  8
1
  6
Continuous
 62
     2
100
AcDbLine
 10
201.3267818462667
 20
337.9078770298355
 30
0.0
 11
201.3267818462667
 21
332.9078770298354
 31
0.0
  0
LINE
  5
F8
330
76
100
AcDbEntity
  8
1
  6
Continuous
 62
     2
100
AcDbLine
 10
201.3267818462667
 20
337.9078770298355
 30
0.0
 11
206.3267818462657
 21
337.9078770298355
 31
0.0
  0
LINE
  5
F9
330
76
100
AcDbEntity
  8
1
  6
Continuous
 62
     6
100
AcDbLine
 10
107.8267818462666
 20
337.9078770298355
 30
0.0
 11
89.98197731951666
 21
337.9078770298355
 31
0.0
  0
LINE
  5
FA
330
76
100
AcDbEntity
  8
1
  6
Continuous
 62
     6
100
AcDbLine
 10
157.8267818462666
 20
337.9078770298355
 30
0.0
 11
201.3267818462667
 21
337.9078770298355
 31
0.0
  0
LINE
  5
FB
330
76
100
AcDbEntity
  8
1
  6
Continuous
 62
     6
100
AcDbLine
 10
7.82678184626644
 20
337.9078770298355
 30
0.0
 11
2.78197731951667
 21
337.9078770298355
 31
0.0
  0
LINE
  5
FC
330
76
100
AcDbEntity
  8
1
  6
Continuous
 62
     6
100
AcDbLine
 10
57.82678184626667
 20
337.9078770298355
 30
0.0
 11
71.78197731951664
 21
337.9078770298354
 31
0.0
  0
LINE
  5
FD
102
{ACAD_REACTORS
330
1E8
330
1E9
102
}
330
76
100
AcDbEntity
  8
0
  6
Continuous
 62
     2
100
AcDbLine
 10
79.29660326166345
 20
349.9803917860476
 30
0.0
 11
79.29660326166345
 21
350.5859270745544
 31
0.0
  0
LINE
  5
FE
102
{ACAD_REACTORS
330
1E8
330
1E9
102
}
330
76
100
AcDbEntity
  8
0
  6
Continuous
 62
     2
100
AcDbLine
 10
79.29660326166345
 20
347.1802571794163
 30
0.0
 11
79.29660326166345
 21
347.7621085861114
 31
0.0
  0
LINE
  5
FF
102
{ACAD_REACTORS
330
1EA
330
1EB
102
}
330
76
100
AcDbEntity
  8
0
  6
Continuous
 62
     2
100
AcDbLine
 10
101.9260896971427
 20
347.4699212475393
 30
0.0
 11
101.9260896971427
 21
345.2013770298518
 31
0.0
  0
LINE
  5
100
102
{ACAD_REACTORS
330
1EA
330
1EB
102
}
330
76
100
AcDbEntity
  8
0
  6
Continuous
 62
     2
100
AcDbLine
 10
100.5450359181551
 20
348.2551865536624
 30
0.0
 11
103.9299814367838
 21
348.2551865536629
 31
0.0
  0
LINE
  5
101
102
{ACAD_REACTORS
330
1EA
330
1EB
102
}
330
76
100
AcDbEntity
  8
0
  6
Continuous
 62
     2
100
AcDbLine
 10
103.9299814367838
 20
347.4699212475393
 30
0.0
 11
103.9299814367838
 21
348.2551865536629
 31
0.0
  0
LINE
  5
102
102
{ACAD_REACTORS
330
1EA
330
1EB
102
}
330
76
100
AcDbEntity
  8
0
  6
Continuous
 62
     2
100
AcDbLine
 10
103.1188823993104
 20
347.4699212475393
 30
0.0
 11
103.9299814367838
 21
347.4699212475393
 31
0.0
  0
LINE
  5
103
102
{ACAD_REACTORS
330
1EA
330
1EB
102
}
330
76
100
AcDbEntity
  8
0
  6
Continuous
 62
     2
100
AcDbLine
 10
103.1188823993104
 20
345.2013770298518
 30
0.0
 11
103.1188823993104
 21
347.4699212475393
 31
0.0
  0
LINE
  5
104
102
{ACAD_REACTORS
330
1EA
330
1EB
102
}
330
76
100
AcDbEntity
  8
0
  6
Continuous
 62
     2
100
AcDbLine
 10
101.9260896971427
 20
345.2013770298518
 30
0.0
 11
103.1188823993104
 21
345.2013770298518
 31
0.0
  0
LINE
  5
105
102
{ACAD_REACTORS
330
1E0
330
1E1
102
}
330
76
100
AcDbEntity
  8
0
  6
Continuous
 62
     2
100
AcDbLine
 10
101.2294987590782
 20
351.6143770298373
 30
0.0
 11
99.82677454132886
 21
351.6143770298373
 31
0.0
  0
LINE
  5
106
102
{ACAD_REACTORS
330
1E0
330
1E1
102
}
330
76
100
AcDbEntity
  8
0
  6
Continuous
 62
     2
100
AcDbLine
 10
101.2294987590782
 20
351.6143770298373
 30
0.0
 11
101.83066628097
 21
350.9345537082818
 31
0.0
  0
LINE
  5
107
102
{ACAD_REACTORS
330
1E0
330
1E1
102
}
330
76
100
AcDbEntity
  8
0
  6
Continuous
 62
     2
100
AcDbLine
 10
101.83066628097
 20
350.9345537082818
 30
0.0
 11
102.4318338028627
 21
351.6143770298373
 31
0.0
  0
LINE
  5
108
102
{ACAD_REACTORS
330
1E0
330
1E1
102
}
330
76
100
AcDbEntity
  8
0
  6
Continuous
 62
     2
100
AcDbLine
 10
102.5320283898435
 20
350.1414264998011
 30
0.0
 11
103.83455802061
 21
351.6143770298373
 31
0.0
  0
LINE
  5
109
102
{ACAD_REACTORS
330
1E0
330
1E1
102
}
330
76
100
AcDbEntity
  8
0
  6
Continuous
 62
     2
100
AcDbLine
 10
102.5320283898435
 20
350.1414264998011
 30
0.0
 11
103.9299814367838
 21
348.5605675060261
 31
0.0
  0
LINE
  5
10A
102
{ACAD_REACTORS
330
1E0
330
1E1
102
}
330
76
100
AcDbEntity
  8
0
  6
Continuous
 62
     2
100
AcDbLine
 10
102.5272572190355
 20
348.5605675060261
 30
0.0
 11
103.9299814367838
 21
348.5605675060261
 31
0.0
  0
LINE
  5
10B
102
{ACAD_REACTORS
330
1E0
330
1E1
102
}
330
76
100
AcDbEntity
  8
0
  6
Continuous
 62
     2
100
AcDbLine
 10
101.83066628097
 20
349.3482992913198
 30
0.0
 11
102.5272572190355
 21
348.5605675060261
 31
0.0
  0
LINE
  5
10C
102
{ACAD_REACTORS
330
1DE
330
1DF
102
}
330
76
100
AcDbEntity
  8
0
  6
Continuous
 62
     2
100
AcDbLine
 10
98.37156744468626
 20
351.6143770298373
 30
0.0
 11
99.61207185493916
 21
351.6143770298373
 31
0.0
  0
LINE
  5
10D
102
{ACAD_REACTORS
330
1DE
330
1DF
102
}
330
76
100
AcDbEntity
  8
0
  6
Continuous
 62
     2
100
AcDbLine
 10
99.61207185493916
 20
351.6143770298373
 30
0.0
 11
99.61207185493916
 21
348.5605675060261
 31
0.0
  0
LINE
  5
10E
102
{ACAD_REACTORS
330
1DE
330
1DF
102
}
330
76
100
AcDbEntity
  8
0
  6
Continuous
 62
     2
100
AcDbLine
 10
98.37156744468626
 20
348.5605675060261
 30
0.0
 11
98.37156744468626
 21
351.6143770298373
 31
0.0
  0
LINE
  5
10F
102
{ACAD_REACTORS
330
1DC
330
1DD
102
}
330
76
100
AcDbEntity
  8
0
  6
Continuous
 62
     2
100
AcDbLine
 10
96.90325736214865
 20
346.4229008393763
 30
0.0
 11
97.20342259934105
 21
347.190715805363
 31
0.0
  0
LINE
  5
110
102
{ACAD_REACTORS
330
1DC
330
1DD
102
}
330
76
100
AcDbEntity
  8
0
  6
Continuous
 62
     2
100
AcDbLine
 10
96.42572175752784
 20
345.2013770298518
 30
0.0
 11
96.63720181100365
 21
345.7423375740697
 31
0.0
  0
LINE
  5
111
102
{ACAD_REACTORS
330
1DC
330
1DD
102
}
330
76
100
AcDbEntity
  8
0
  6
Continuous
 62
     2
100
AcDbLine
 10
96.58317039421416
 20
348.2551865536629
 30
0.0
 11
95.18521734727486
 21
345.2013770298518
 31
0.0
  0
LINE
  5
112
102
{ACAD_REACTORS
330
1DC
330
1DD
102
}
330
76
100
AcDbEntity
  8
0
  6
Continuous
 62
     2
100
AcDbLine
 10
99.22162785140716
 20
345.2013770298518
 30
0.0
 11
97.98112344115324
 21
345.2013770298518
 31
0.0
  0
LINE
  5
113
102
{ACAD_REACTORS
330
1DC
330
1DD
102
}
330
76
100
AcDbEntity
  8
0
  6
Continuous
 62
     2
100
AcDbLine
 10
96.63720181100365
 20
345.7423375740697
 30
0.0
 11
97.76964338767746
 21
345.7423375740697
 31
0.0
  0
LINE
  5
114
102
{ACAD_REACTORS
330
1DA
330
1DB
102
}
330
76
100
AcDbEntity
  8
0
  6
Continuous
 62
     2
100
AcDbLine
 10
93.02770520809264
 20
347.4699212475393
 30
0.0
 11
93.83880424556725
 21
347.4699212475393
 31
0.0
  0
LINE
  5
115
102
{ACAD_REACTORS
330
1DA
330
1DB
102
}
330
76
100
AcDbEntity
  8
0
  6
Continuous
 62
     2
100
AcDbLine
 10
95.84269598520626
 20
348.2551865536629
 30
0.0
 11
93.02770520809264
 21
348.2551865536629
 31
0.0
  0
LINE
  5
116
102
{ACAD_REACTORS
330
1DA
330
1DB
102
}
330
76
100
AcDbEntity
  8
0
  6
Continuous
 62
     2
100
AcDbLine
 10
95.84269598520626
 20
347.4699212475393
 30
0.0
 11
95.84269598520626
 21
348.2551865536629
 31
0.0
  0
LINE
  5
117
102
{ACAD_REACTORS
330
1DA
330
1DB
102
}
330
76
100
AcDbEntity
  8
0
  6
Continuous
 62
     2
100
AcDbLine
 10
95.03159694773376
 20
347.4699212475393
 30
0.0
 11
95.84269598520626
 21
347.4699212475393
 31
0.0
  0
LINE
  5
118
102
{ACAD_REACTORS
330
1DA
330
1DB
102
}
330
76
100
AcDbEntity
  8
0
  6
Continuous
 62
     2
100
AcDbLine
 10
95.03159694773376
 20
345.2013770298518
 30
0.0
 11
95.03159694773376
 21
347.4699212475393
 31
0.0
  0
LINE
  5
119
102
{ACAD_REACTORS
330
1D8
330
1D9
102
}
330
76
100
AcDbEntity
  8
0
  6
Continuous
 62
     2
100
AcDbLine
 10
95.69971179183176
 20
348.5605675060261
 30
0.0
 11
95.69971179183176
 21
349.8693430162308
 31
0.0
  0
LINE
  5
11A
102
{ACAD_REACTORS
330
1D8
330
1D9
102
}
330
76
100
AcDbEntity
  8
0
  6
Continuous
 62
     2
100
AcDbLine
 10
94.50691908966525
 20
351.6143770298373
 30
0.0
 11
94.50691908966525
 21
348.5605675060261
 31
0.0
  0
LINE
  5
11B
102
{ACAD_REACTORS
330
1D8
330
1D9
102
}
330
76
100
AcDbEntity
  8
0
  6
Continuous
 62
     2
100
AcDbLine
 10
95.69971179183176
 20
351.6143770298373
 30
0.0
 11
94.50691908966525
 21
351.6143770298373
 31
0.0
  0
LINE
  5
11C
102
{ACAD_REACTORS
330
1D8
330
1D9
102
}
330
76
100
AcDbEntity
  8
0
  6
Continuous
 62
     2
100
AcDbLine
 10
96.94021620208576
 20
351.6143770298373
 30
0.0
 11
96.94021620208576
 21
350.3056015196321
 31
0.0
  0
LINE
  5
11D
102
{ACAD_REACTORS
330
1D6
330
1D7
102
}
330
76
100
AcDbEntity
  8
0
  6
Continuous
 62
     2
100
AcDbLine
 10
89.25848026924555
 20
348.2551865536629
 30
0.0
 11
89.25848026924555
 21
345.2013770298518
 31
0.0
  0
LINE
  5
11E
102
{ACAD_REACTORS
330
1D6
330
1D7
102
}
330
76
100
AcDbEntity
  8
0
  6
Continuous
 62
     2
100
AcDbLine
 10
90.45127297141315
 20
348.2551865536629
 30
0.0
 11
89.25848026924555
 21
348.2551865536629
 31
0.0
  0
LINE
  5
11F
102
{ACAD_REACTORS
330
1D6
330
1D7
102
}
330
76
100
AcDbEntity
  8
0
  6
Continuous
 62
     2
100
AcDbLine
 10
91.69177738166604
 20
345.2013770298518
 30
0.0
 11
92.88457008383244
 21
345.2013770298518
 31
0.0
  0
LINE
  5
120
102
{ACAD_REACTORS
330
1D6
330
1D7
102
}
330
76
100
AcDbEntity
  8
0
  6
Continuous
 62
     2
100
AcDbLine
 10
89.25848026924555
 20
345.2013770298518
 30
0.0
 11
90.45127297141315
 21
345.2013770298518
 31
0.0
  0
LINE
  5
121
102
{ACAD_REACTORS
330
1E6
330
1E7
102
}
330
76
100
AcDbEntity
  8
0
  6
Continuous
 62
     2
100
AcDbLine
 10
92.93243272280466
 20
350.4364790706526
 30
0.0
 11
92.93243272280466
 21
350.9163634243943
 31
0.0
  0
LINE
  5
122
102
{ACAD_REACTORS
330
1E6
330
1E7
102
}
330
76
100
AcDbEntity
  8
0
  6
Continuous
 62
     2
100
AcDbLine
 10
94.26836054923234
 20
350.4364790706526
 30
0.0
 11
92.93243272280466
 21
350.4364790706526
 31
0.0
  0
LINE
  5
123
102
{ACAD_REACTORS
330
1E6
330
1E7
102
}
330
76
100
AcDbEntity
  8
0
  6
Continuous
 62
     2
100
AcDbLine
 10
94.26836054923234
 20
349.7384654652103
 30
0.0
 11
94.26836054923234
 21
350.4364790706526
 31
0.0
  0
LINE
  5
124
102
{ACAD_REACTORS
330
1E6
330
1E7
102
}
330
76
100
AcDbEntity
  8
0
  6
Continuous
 62
     2
100
AcDbLine
 10
92.93243272280466
 20
349.7384654652103
 30
0.0
 11
94.26836054923234
 21
349.7384654652103
 31
0.0
  0
LINE
  5
125
102
{ACAD_REACTORS
330
1D4
330
1D5
102
}
330
76
100
AcDbEntity
  8
0
  6
Continuous
 62
     2
100
AcDbLine
 10
89.44947803247774
 20
351.6143770298373
 30
0.0
 11
89.44947803247774
 21
348.5605675060261
 31
0.0
  0
LINE
  5
126
102
{ACAD_REACTORS
330
1D4
330
1D5
102
}
330
76
100
AcDbEntity
  8
0
  6
Continuous
 62
     2
100
AcDbLine
 10
89.44947803247774
 20
348.5605675060261
 30
0.0
 11
88.25668533031134
 21
348.5605675060261
 31
0.0
  0
LINE
  5
127
102
{ACAD_REACTORS
330
1D4
330
1D5
102
}
330
76
100
AcDbEntity
  8
0
  6
Continuous
 62
     2
100
AcDbLine
 10
88.25668533031134
 20
348.5605675060261
 30
0.0
 11
88.25668533031134
 21
349.6948396148699
 31
0.0
  0
LINE
  5
128
102
{ACAD_REACTORS
330
1D4
330
1D5
102
}
330
76
100
AcDbEntity
  8
0
  6
Continuous
 62
     2
100
AcDbLine
 10
87.20702775240386
 20
348.5605675060261
 30
0.0
 11
86.01423505023726
 21
348.5605675060261
 31
0.0
  0
LINE
  5
129
102
{ACAD_REACTORS
330
1D4
330
1D5
102
}
330
76
100
AcDbEntity
  8
0
  6
Continuous
 62
     2
100
AcDbLine
 10
86.01423505023726
 20
351.6143770298373
 30
0.0
 11
87.20702775240386
 21
351.6143770298373
 31
0.0
  0
LINE
  5
12A
102
{ACAD_REACTORS
330
1D4
330
1D5
102
}
330
76
100
AcDbEntity
  8
0
  6
Continuous
 62
     2
100
AcDbLine
 10
87.20702775240386
 20
351.6143770298373
 30
0.0
 11
87.20702775240386
 21
350.5455436965027
 31
0.0
  0
LINE
  5
12B
102
{ACAD_REACTORS
330
1D4
330
1D5
102
}
330
76
100
AcDbEntity
  8
0
  6
Continuous
 62
     2
100
AcDbLine
 10
87.20702775240386
 20
350.5455436965027
 30
0.0
 11
88.25668533031134
 21
350.5455436965027
 31
0.0
  0
LINE
  5
12C
102
{ACAD_REACTORS
330
1E2
330
1E3
102
}
330
76
100
AcDbEntity
  8
0
  6
Continuous
 62
     2
100
AcDbLine
 10
84.05805501868366
 20
350.9512711843972
 30
0.0
 11
84.37535008022556
 21
350.9512711843972
 31
0.0
  0
LINE
  5
12D
102
{ACAD_REACTORS
330
1E2
330
1E3
102
}
330
76
100
AcDbEntity
  8
0
  6
Continuous
 62
     2
100
AcDbLine
 10
84.05805501868366
 20
350.245543535055
 30
0.0
 11
84.37535008022556
 21
350.245543535055
 31
0.0
  0
LINE
  5
12E
102
{ACAD_REACTORS
330
1E2
330
1E3
102
}
330
76
100
AcDbEntity
  8
0
  6
Continuous
 62
     2
100
AcDbLine
 10
82.81755060842954
 20
351.6143770298373
 30
0.0
 11
82.81755060842954
 21
348.5605675060261
 31
0.0
  0
LINE
  5
12F
102
{ACAD_REACTORS
330
1E2
330
1E3
102
}
330
76
100
AcDbEntity
  8
0
  6
Continuous
 62
     2
100
AcDbLine
 10
82.81755060842954
 20
351.6143770298373
 30
0.0
 11
84.81682260646394
 21
351.6143770298373
 31
0.0
  0
LINE
  5
130
102
{ACAD_REACTORS
330
1E2
330
1E3
102
}
330
76
100
AcDbEntity
  8
0
  6
Continuous
 62
     2
100
AcDbLine
 10
84.05805501868366
 20
349.5036457471699
 30
0.0
 11
84.81682260646394
 21
349.5036457471699
 31
0.0
  0
LINE
  5
131
102
{ACAD_REACTORS
330
1E8
330
1E9
102
}
330
76
100
AcDbEntity
  8
0
  6
Continuous
 62
     2
100
AcDbLine
 10
76.72105457513285
 20
350.5861045512025
 30
0.0
 11
76.72105457513285
 21
346.2296495084854
 31
0.0
  0
LINE
  5
132
102
{ACAD_REACTORS
330
1E8
330
1E9
102
}
330
76
100
AcDbEntity
  8
0
  6
Continuous
 62
     2
100
AcDbLine
 10
77.03677149820854
 20
350.9018214742787
 30
0.0
 11
78.51260475921816
 21
350.9018214742787
 31
0.0
  0
LINE
  5
133
102
{ACAD_REACTORS
330
1E8
330
1E9
102
}
330
76
100
AcDbEntity
  8
0
  6
Continuous
 62
     2
100
AcDbLine
 10
78.82832168229476
 20
349.982079932142
 30
0.0
 11
78.82832168229476
 21
350.5861045512025
 31
0.0
  0
LINE
  5
134
102
{ACAD_REACTORS
330
1E8
330
1E9
102
}
330
76
100
AcDbEntity
  8
0
  6
Continuous
 62
     2
100
AcDbLine
 10
78.82832168229476
 20
346.2296495084854
 30
0.0
 11
78.82832168229476
 21
347.760420440017
 31
0.0
  0
LINE
  5
135
102
{ACAD_REACTORS
330
1E8
330
1E9
102
}
330
76
100
AcDbEntity
  8
0
  6
Continuous
 62
     2
100
AcDbLine
 10
81.91618891217885
 20
345.2013770298518
 30
0.0
 11
76.44287682146205
 21
345.2013770298518
 31
0.0
  0
LINE
  5
136
102
{ACAD_REACTORS
330
1E8
330
1E9
102
}
330
76
100
AcDbEntity
  8
0
  6
Continuous
 62
     2
100
AcDbLine
 10
82.34043352756274
 20
351.1901324144353
 30
0.0
 11
82.34043352756274
 21
345.6256216452351
 31
0.0
  0
LINE
  5
137
102
{ACAD_REACTORS
330
1E8
330
1E9
102
}
330
76
100
AcDbEntity
  8
0
  6
Continuous
 62
     2
100
AcDbLine
 10
76.44287682146205
 20
351.6143770298191
 30
0.0
 11
81.91618891217885
 21
351.6143770298191
 31
0.0
  0
LINE
  5
138
102
{ACAD_REACTORS
330
1E8
330
1E9
102
}
330
76
100
AcDbEntity
  8
0
  6
Continuous
 62
     2
100
AcDbLine
 10
76.01863220607925
 20
351.1901324144353
 30
0.0
 11
76.01863220607925
 21
345.6256216452351
 31
0.0
  0
LINE
  5
139
102
{ACAD_REACTORS
330
1E8
330
1E9
102
}
330
76
100
AcDbEntity
  8
0
  6
Continuous
 62
     2
100
AcDbLine
 10
78.51260475921816
 20
345.9139325854087
 30
0.0
 11
77.03677149820854
 21
345.9139325854087
 31
0.0
  0
LINE
  5
13A
102
{ACAD_REACTORS
330
1E2
330
1E3
102
}
330
76
100
AcDbEntity
  8
0
  6
Continuous
 62
     2
100
AcDbLine
 10
84.05805501868366
 20
348.5605675060261
 30
0.0
 11
84.05805501868366
 21
349.5036457471699
 31
0.0
  0
LINE
  5
13B
102
{ACAD_REACTORS
330
1E2
330
1E3
102
}
330
76
100
AcDbEntity
  8
0
  6
Continuous
 62
     2
100
AcDbLine
 10
82.81755060842954
 20
348.5605675060261
 30
0.0
 11
84.05805501868366
 21
348.5605675060261
 31
0.0
  0
LINE
  5
13C
102
{ACAD_REACTORS
330
1E2
330
1E3
102
}
330
76
100
AcDbEntity
  8
0
  6
Continuous
 62
     2
100
AcDbLine
 10
84.05805501868366
 20
350.245543535055
 30
0.0
 11
84.05805501868366
 21
350.9512711843972
 31
0.0
  0
LINE
  5
13D
102
{ACAD_REACTORS
330
1D4
330
1D5
102
}
330
76
100
AcDbEntity
  8
0
  6
Continuous
 62
     2
100
AcDbLine
 10
86.01423505023726
 20
351.6143770298373
 30
0.0
 11
86.01423505023726
 21
348.5605675060261
 31
0.0
  0
LINE
  5
13E
102
{ACAD_REACTORS
330
1D4
330
1D5
102
}
330
76
100
AcDbEntity
  8
0
  6
Continuous
 62
     2
100
AcDbLine
 10
87.20702775240386
 20
349.6948396148699
 30
0.0
 11
87.20702775240386
 21
348.5605675060261
 31
0.0
  0
LINE
  5
13F
102
{ACAD_REACTORS
330
1D4
330
1D5
102
}
330
76
100
AcDbEntity
  8
0
  6
Continuous
 62
     2
100
AcDbLine
 10
88.25668533031134
 20
349.6948396148699
 30
0.0
 11
87.20702775240386
 21
349.6948396148699
 31
0.0
  0
LINE
  5
140
102
{ACAD_REACTORS
330
1D4
330
1D5
102
}
330
76
100
AcDbEntity
  8
0
  6
Continuous
 62
     2
100
AcDbLine
 10
88.25668533031134
 20
351.6143770298373
 30
0.0
 11
89.44947803247774
 21
351.6143770298373
 31
0.0
  0
LINE
  5
141
102
{ACAD_REACTORS
330
1D4
330
1D5
102
}
330
76
100
AcDbEntity
  8
0
  6
Continuous
 62
     2
100
AcDbLine
 10
88.25668533031134
 20
350.5455436965027
 30
0.0
 11
88.25668533031134
 21
351.6143770298373
 31
0.0
  0
LINE
  5
142
102
{ACAD_REACTORS
330
1E6
330
1E7
102
}
330
76
100
AcDbEntity
  8
0
  6
Continuous
 62
     2
100
AcDbLine
 10
94.26836054923234
 20
350.9163634243943
 30
0.0
 11
94.26836054923234
 21
351.6143770298373
 31
0.0
  0
LINE
  5
143
102
{ACAD_REACTORS
330
1E6
330
1E7
102
}
330
76
100
AcDbEntity
  8
0
  6
Continuous
 62
     2
100
AcDbLine
 10
91.11804082545135
 20
351.6143770298373
 30
0.0
 11
94.26836054923234
 21
351.6143770298373
 31
0.0
  0
LINE
  5
144
102
{ACAD_REACTORS
330
1E6
330
1E7
102
}
330
76
100
AcDbEntity
  8
0
  6
Continuous
 62
     2
100
AcDbLine
 10
91.11804082545135
 20
348.5605675060261
 30
0.0
 11
94.26836054923234
 21
348.5605675060261
 31
0.0
  0
LINE
  5
145
102
{ACAD_REACTORS
330
1E6
330
1E7
102
}
330
76
100
AcDbEntity
  8
0
  6
Continuous
 62
     2
100
AcDbLine
 10
94.26836054923234
 20
348.5605675060261
 30
0.0
 11
94.26836054923234
 21
349.2585811114686
 31
0.0
  0
LINE
  5
146
102
{ACAD_REACTORS
330
1E6
330
1E7
102
}
330
76
100
AcDbEntity
  8
0
  6
Continuous
 62
     2
100
AcDbLine
 10
94.26836054923234
 20
349.2585811114686
 30
0.0
 11
92.93243272280466
 21
349.2585811114686
 31
0.0
  0
LINE
  5
147
102
{ACAD_REACTORS
330
1E6
330
1E7
102
}
330
76
100
AcDbEntity
  8
0
  6
Continuous
 62
     2
100
AcDbLine
 10
92.93243272280466
 20
349.2585811114686
 30
0.0
 11
92.93243272280466
 21
349.7384654652103
 31
0.0
  0
LINE
  5
148
102
{ACAD_REACTORS
330
1E6
330
1E7
102
}
330
76
100
AcDbEntity
  8
0
  6
Continuous
 62
     2
100
AcDbLine
 10
92.93243272280466
 20
350.9163634243943
 30
0.0
 11
94.26836054923234
 21
350.9163634243943
 31
0.0
  0
LINE
  5
149
102
{ACAD_REACTORS
330
1D6
330
1D7
102
}
330
76
100
AcDbEntity
  8
0
  6
Continuous
 62
     2
100
AcDbLine
 10
90.45127297141315
 20
345.2013770298518
 30
0.0
 11
90.45127297141315
 21
346.5101525400564
 31
0.0
  0
LINE
  5
14A
102
{ACAD_REACTORS
330
1D6
330
1D7
102
}
330
76
100
AcDbEntity
  8
0
  6
Continuous
 62
     2
100
AcDbLine
 10
90.45127297141315
 20
346.5101525400564
 30
0.0
 11
91.69177738166604
 21
345.2013770298518
 31
0.0
  0
LINE
  5
14B
102
{ACAD_REACTORS
330
1D6
330
1D7
102
}
330
76
100
AcDbEntity
  8
0
  6
Continuous
 62
     2
100
AcDbLine
 10
92.88457008383244
 20
345.2013770298518
 30
0.0
 11
92.88457008383244
 21
348.2551865536629
 31
0.0
  0
LINE
  5
14C
102
{ACAD_REACTORS
330
1D6
330
1D7
102
}
330
76
100
AcDbEntity
  8
0
  6
Continuous
 62
     2
100
AcDbLine
 10
92.88457008383244
 20
348.2551865536629
 30
0.0
 11
91.69177738166604
 21
348.2551865536629
 31
0.0
  0
LINE
  5
14D
102
{ACAD_REACTORS
330
1D6
330
1D7
102
}
330
76
100
AcDbEntity
  8
0
  6
Continuous
 62
     2
100
AcDbLine
 10
91.69177738166604
 20
348.2551865536629
 30
0.0
 11
91.69177738166604
 21
346.9464110434578
 31
0.0
  0
LINE
  5
14E
102
{ACAD_REACTORS
330
1D6
330
1D7
102
}
330
76
100
AcDbEntity
  8
0
  6
Continuous
 62
     2
100
AcDbLine
 10
91.69177738166604
 20
346.9464110434578
 30
0.0
 11
90.45127297141315
 21
348.2551865536629
 31
0.0
  0
LINE
  5
14F
102
{ACAD_REACTORS
330
1D8
330
1D9
102
}
330
76
100
AcDbEntity
  8
0
  6
Continuous
 62
     2
100
AcDbLine
 10
95.69971179183176
 20
349.8693430162308
 30
0.0
 11
96.94021620208576
 21
348.5605675060261
 31
0.0
  0
LINE
  5
150
102
{ACAD_REACTORS
330
1D8
330
1D9
102
}
330
76
100
AcDbEntity
  8
0
  6
Continuous
 62
     2
100
AcDbLine
 10
96.94021620208576
 20
348.5605675060261
 30
0.0
 11
98.13300890425236
 21
348.5605675060261
 31
0.0
  0
LINE
  5
151
102
{ACAD_REACTORS
330
1D8
330
1D9
102
}
330
76
100
AcDbEntity
  8
0
  6
Continuous
 62
     2
100
AcDbLine
 10
98.13300890425236
 20
348.5605675060261
 30
0.0
 11
98.13300890425236
 21
351.6143770298373
 31
0.0
  0
LINE
  5
152
102
{ACAD_REACTORS
330
1D8
330
1D9
102
}
330
76
100
AcDbEntity
  8
0
  6
Continuous
 62
     2
100
AcDbLine
 10
98.13300890425236
 20
351.6143770298373
 30
0.0
 11
96.94021620208576
 21
351.6143770298373
 31
0.0
  0
LINE
  5
153
102
{ACAD_REACTORS
330
1D8
330
1D9
102
}
330
76
100
AcDbEntity
  8
0
  6
Continuous
 62
     2
100
AcDbLine
 10
96.94021620208576
 20
350.3056015196321
 30
0.0
 11
95.69971179183176
 21
351.6143770298373
 31
0.0
  0
LINE
  5
154
102
{ACAD_REACTORS
330
1D8
330
1D9
102
}
330
76
100
AcDbEntity
  8
0
  6
Continuous
 62
     2
100
AcDbLine
 10
94.50691908966525
 20
348.5605675060261
 30
0.0
 11
95.69971179183176
 21
348.5605675060261
 31
0.0
  0
LINE
  5
155
102
{ACAD_REACTORS
330
1DA
330
1DB
102
}
330
76
100
AcDbEntity
  8
0
  6
Continuous
 62
     2
100
AcDbLine
 10
93.02770520809264
 20
348.2551865536629
 30
0.0
 11
93.02770520809264
 21
347.4699212475393
 31
0.0
  0
LINE
  5
156
102
{ACAD_REACTORS
330
1DA
330
1DB
102
}
330
76
100
AcDbEntity
  8
0
  6
Continuous
 62
     2
100
AcDbLine
 10
93.83880424556725
 20
347.4699212475393
 30
0.0
 11
93.83880424556725
 21
345.2013770298518
 31
0.0
  0
LINE
  5
157
102
{ACAD_REACTORS
330
1DA
330
1DB
102
}
330
76
100
AcDbEntity
  8
0
  6
Continuous
 62
     2
100
AcDbLine
 10
93.83880424556725
 20
345.2013770298518
 30
0.0
 11
95.03159694773376
 21
345.2013770298518
 31
0.0
  0
LINE
  5
158
102
{ACAD_REACTORS
330
1DC
330
1DD
102
}
330
76
100
AcDbEntity
  8
0
  6
Continuous
 62
     2
100
AcDbLine
 10
97.98112344115324
 20
345.2013770298518
 30
0.0
 11
97.76964338767746
 21
345.7423375740697
 31
0.0
  0
LINE
  5
159
102
{ACAD_REACTORS
330
1DC
330
1DD
102
}
330
76
100
AcDbEntity
  8
0
  6
Continuous
 62
     2
100
AcDbLine
 10
97.82367480446686
 20
348.2551865536629
 30
0.0
 11
99.22162785140716
 21
345.2013770298518
 31
0.0
  0
LINE
  5
15A
102
{ACAD_REACTORS
330
1DC
330
1DD
102
}
330
76
100
AcDbEntity
  8
0
  6
Continuous
 62
     2
100
AcDbLine
 10
96.58317039421416
 20
348.2551865536629
 30
0.0
 11
97.82367480446686
 21
348.2551865536629
 31
0.0
  0
LINE
  5
15B
102
{ACAD_REACTORS
330
1DC
330
1DD
102
}
330
76
100
AcDbEntity
  8
0
  6
Continuous
 62
     2
100
AcDbLine
 10
95.18521734727486
 20
345.2013770298518
 30
0.0
 11
96.42572175752784
 21
345.2013770298518
 31
0.0
  0
LINE
  5
15C
102
{ACAD_REACTORS
330
1DC
330
1DD
102
}
330
76
100
AcDbEntity
  8
0
  6
Continuous
 62
     2
100
AcDbLine
 10
96.90325736214865
 20
346.4229008393763
 30
0.0
 11
97.50358783653115
 21
346.4229008393763
 31
0.0
  0
LINE
  5
15D
102
{ACAD_REACTORS
330
1DC
330
1DD
102
}
330
76
100
AcDbEntity
  8
0
  6
Continuous
 62
     2
100
AcDbLine
 10
97.50358783653115
 20
346.4229008393763
 30
0.0
 11
97.20342259934105
 21
347.190715805363
 31
0.0
  0
LINE
  5
15E
102
{ACAD_REACTORS
330
1DE
330
1DF
102
}
330
76
100
AcDbEntity
  8
0
  6
Continuous
 62
     2
100
AcDbLine
 10
99.61207185493916
 20
348.5605675060261
 30
0.0
 11
98.37156744468626
 21
348.5605675060261
 31
0.0
  0
LINE
  5
15F
102
{ACAD_REACTORS
330
1E0
330
1E1
102
}
330
76
100
AcDbEntity
  8
0
  6
Continuous
 62
     2
100
AcDbLine
 10
101.1340753429043
 20
348.5605675060261
 30
0.0
 11
99.73135112515604
 21
348.5605675060261
 31
0.0
  0
LINE
  5
160
102
{ACAD_REACTORS
330
1E0
330
1E1
102
}
330
76
100
AcDbEntity
  8
0
  6
Continuous
 62
     2
100
AcDbLine
 10
101.1340753429043
 20
348.5605675060261
 30
0.0
 11
101.83066628097
 21
349.3482992913198
 31
0.0
  0
LINE
  5
161
102
{ACAD_REACTORS
330
1E0
330
1E1
102
}
330
76
100
AcDbEntity
  8
0
  6
Continuous
 62
     2
100
AcDbLine
 10
102.4318338028627
 20
351.6143770298373
 30
0.0
 11
103.83455802061
 21
351.6143770298373
 31
0.0
  0
LINE
  5
162
102
{ACAD_REACTORS
330
1E0
330
1E1
102
}
330
76
100
AcDbEntity
  8
0
  6
Continuous
 62
     2
100
AcDbLine
 10
99.82677454132886
 20
351.6143770298373
 30
0.0
 11
101.1293041720963
 21
350.1414264998011
 31
0.0
  0
LINE
  5
163
102
{ACAD_REACTORS
330
1E0
330
1E1
102
}
330
76
100
AcDbEntity
  8
0
  6
Continuous
 62
     2
100
AcDbLine
 10
99.73135112515604
 20
348.5605675060261
 30
0.0
 11
101.1293041720963
 21
350.1414264998011
 31
0.0
  0
LINE
  5
164
102
{ACAD_REACTORS
330
1EA
330
1EB
102
}
330
76
100
AcDbEntity
  8
0
  6
Continuous
 62
     2
100
AcDbLine
 10
101.592107740536
 20
346.2483974380155
 30
0.0
 11
101.592107740536
 21
345.3758804312121
 31
0.0
  0
LINE
  5
165
102
{ACAD_REACTORS
330
1EA
330
1EB
102
}
330
76
100
AcDbEntity
  8
0
  6
Continuous
 62
     2
100
AcDbLine
 10
100.8224503975746
 20
347.4699212475393
 30
0.0
 11
101.9260896971427
 21
347.4699212475393
 31
0.0
  0
LINE
  5
166
102
{ACAD_REACTORS
330
1EC
330
1ED
102
}
330
76
100
AcDbEntity
  8
0
  6
Continuous
 62
     2
100
AcDbLine
 10
85.48940626128405
 20
346.2483974380159
 30
0.0
 11
85.48940626128405
 21
345.3758804312127
 31
0.0
  0
LINE
  5
167
102
{ACAD_REACTORS
330
1EC
330
1ED
102
}
330
76
100
AcDbEntity
  8
0
  6
Continuous
 62
     2
100
AcDbLine
 10
85.48940626128405
 20
347.2081661454988
 30
0.0
 11
85.48940626128405
 21
348.0806831523021
 31
0.0
  0
LINE
  5
168
330
76
100
AcDbEntity
  8
1
  6
Continuous
 62
     7
100
AcDbLine
 10
201.326781846268
 20
346.4078770298355
 30
0.0
 11
108.1819773195166
 21
346.4078770298355
 31
0.0
  0
LINE
  5
169
330
76
100
AcDbEntity
  8
1
  6
Continuous
 62
     6
100
AcDbLine
 10
2.78197731951667
 20
337.9078770298355
 30
0.0
 11
-42.17321815373333
 21
337.9078770298355
 31
0.0
  0
LINE
  5
16A
330
76
100
AcDbEntity
  8
1
  6
Continuous
 62
     7
100
AcDbLine
 10
192.4083735645891
 20
363.4078770298355
 30
0.0
 11
192.4083735645891
 21
354.9078770298355
 31
0.0
  0
LINE
  5
16B
330
76
100
AcDbEntity
  8
1
  6
Continuous
 62
     7
100
AcDbLine
 10
165.9083735645895
 20
363.4078770298355
 30
0.0
 11
165.9083735645895
 21
354.9078770298355
 31
0.0
  0
LINE
  5
16C
330
76
100
AcDbEntity
  8
1
  6
Continuous
 62
     7
100
AcDbLine
 10
108.1819773195166
 20
354.9078770298355
 30
0.0
 11
108.1819773195166
 21
363.4078770298355
 31
0.0
  0
LINE
  5
16D
330
76
100
AcDbEntity
  8
1
  6
Continuous
 62
     7
100
AcDbLine
 10
71.78197731951664
 20
354.9078770298355
 30
0.0
 11
71.78197731951664
 21
363.4078770298355
 31
0.0
  0
LINE
  5
16E
330
76
100
AcDbEntity
  8
1
  6
Continuous
 62
     6
100
AcDbLine
 10
108.1819773195166
 20
354.9078770298355
 30
0.0
 11
201.3267818462684
 21
354.9078770298355
 31
0.0
  0
LINE
  5
16F
330
76
100
AcDbEntity
  8
1
  6
Continuous
 62
     7
100
AcDbLine
 10
136.0819773195167
 20
346.4078770298354
 30
0.0
 11
136.0819773195167
 21
354.9078770298355
 31
0.0
  0
LINE
  5
170
330
76
100
AcDbEntity
  8
1
  6
PHANTOM
 62
     2
100
AcDbLine
 10
87.26863220607925
 20
359.0328770298354
 30
0.0
 11
81.76863220607925
 21
359.0328770298354
 31
0.0
  0
LINE
  5
171
330
76
100
AcDbEntity
  8
1
  6
PHANTOM
 62
     2
100
AcDbLine
 10
84.51863220607925
 20
361.7828770298354
 30
0.0
 11
84.51863220607925
 21
356.2828770298354
 31
0.0
  0
LINE
  5
172
330
76
100
AcDbEntity
  8
1
  6
DOT_CENTER
 62
     2
100
AcDbLine
 10
75.76863220607925
 20
359.0328770298354
 30
0.0
 11
81.26863220607925
 21
359.0328770298354
 31
0.0
  0
ARC
  5
173
102
{ACAD_REACTORS
330
1EC
330
1ED
102
}
330
76
100
AcDbEntity
  8
0
  6
Continuous
 62
     2
100
AcDbCircle
 10
84.15347834416625
 20
343.4156008465012
 30
0.0
 40
4.85259686349804
100
AcDbArc
 50
74.02000874164729
 51
84.84185523037509
  0
ARC
  5
174
102
{ACAD_REACTORS
330
1EC
330
1ED
102
}
330
76
100
AcDbEntity
  8
0
  6
Continuous
 62
     2
100
AcDbCircle
 10
84.72951895291996
 20
346.5713612023855
 30
0.0
 40
0.9059297849853228
100
AcDbArc
 50
71.55192388185348
 51
113.372277888129
  0
ARC
  5
175
102
{ACAD_REACTORS
330
1EC
330
1ED
102
}
330
76
100
AcDbEntity
  8
0
  6
Continuous
 62
     2
100
AcDbCircle
 10
84.57307892021794
 20
346.5232103624186
 30
0.0
 40
0.5115800601948034
100
AcDbArc
 50
208.5214732576956
 51
246.6277221118274
  0
ARC
  5
176
102
{ACAD_REACTORS
330
1EC
330
1ED
102
}
330
76
100
AcDbEntity
  8
0
  6
Continuous
 62
     2
100
AcDbCircle
 10
84.72951895291996
 20
346.8852023811286
 30
0.0
 40
0.9059297849849192
100
AcDbArc
 50
246.627722111871
 51
288.448076118159
  0
ARC
  5
177
102
{ACAD_REACTORS
330
1EC
330
1ED
102
}
330
76
100
AcDbEntity
  8
0
  6
Continuous
 62
     2
100
AcDbCircle
 10
84.31135121925917
 20
348.1387481571658
 30
0.0
 40
2.227384008972764
100
AcDbArc
 50
288.4480761181326
 51
301.9309089499589
  0
ARC
  5
178
102
{ACAD_REACTORS
330
1E8
330
1E9
102
}
330
76
100
AcDbEntity
  8
0
  6
Continuous
 62
     2
100
AcDbCircle
 10
79.08627748665236
 20
348.8712501860798
 30
0.0
 40
0.9118481501444847
100
AcDbArc
 50
295.3740086781757
 51
64.62599132180748
  0
ARC
  5
179
102
{ACAD_REACTORS
330
1E8
330
1E9
102
}
330
76
100
AcDbEntity
  8
0
  6
Continuous
 62
     2
100
AcDbCircle
 10
79.61232018474024
 20
350.5859270745544
 30
0.0
 40
0.3157169230760711
100
AcDbArc
 50
90.18896704254594
 51
180.0
  0
ARC
  5
17A
102
{ACAD_REACTORS
330
1EA
330
1EB
102
}
330
76
100
AcDbEntity
  8
0
  6
Continuous
 62
     2
100
AcDbCircle
 10
100.8224503975746
 20
346.5153982407132
 30
0.0
 40
0.9545230068260935
100
AcDbArc
 50
90.0
 51
109.3371432194301
  0
ARC
  5
17B
102
{ACAD_REACTORS
330
1EA
330
1EB
102
}
330
76
100
AcDbEntity
  8
0
  6
Continuous
 62
     2
100
AcDbCircle
 10
101.0531376575522
 20
346.7282817917571
 30
0.0
 40
0.9410597353347915
100
AcDbArc
 50
151.4785267423611
 51
208.5214732576724
  0
ARC
  5
17C
102
{ACAD_REACTORS
330
1EA
330
1EB
102
}
330
76
100
AcDbEntity
  8
0
  6
Continuous
 62
     2
100
AcDbCircle
 10
100.832220432174
 20
346.8852023811286
 30
0.0
 40
0.9059297849852744
100
AcDbArc
 50
246.6277221118191
 51
288.448076118084
  0
ARC
  5
17D
102
{ACAD_REACTORS
330
1EA
330
1EB
102
}
330
76
100
AcDbEntity
  8
0
  6
Continuous
 62
     2
100
AcDbCircle
 10
100.4140526985121
 20
348.1387481571652
 30
0.0
 40
2.227384008972665
100
AcDbArc
 50
288.4480761181342
 51
301.9309089499406
  0
ARC
  5
17E
102
{ACAD_REACTORS
330
1EA
330
1EB
102
}
330
76
100
AcDbEntity
  8
0
  6
Continuous
 62
     2
100
AcDbCircle
 10
100.2561798234193
 20
350.0409627370135
 30
0.0
 40
4.852596863498824
100
AcDbArc
 50
275.1581447696362
 51
285.9799912583384
  0
ARC
  5
17F
102
{ACAD_REACTORS
330
1EA
330
1EB
102
}
330
76
100
AcDbEntity
  8
0
  6
Continuous
 62
     2
100
AcDbCircle
 10
100.5450359181551
 20
346.8410721537919
 30
0.0
 40
1.639695123940476
100
AcDbArc
 50
195.061891777101
 51
275.1581447696767
  0
ARC
  5
180
102
{ACAD_REACTORS
330
1E2
330
1E3
102
}
330
76
100
AcDbEntity
  8
0
  6
Continuous
 62
     2
100
AcDbCircle
 10
84.81682260646394
 20
350.5590113885036
 30
0.0
 40
1.055365641333708
100
AcDbArc
 50
270.0
 51
90.0
  0
ARC
  5
181
102
{ACAD_REACTORS
330
1E8
330
1E9
102
}
330
76
100
AcDbEntity
  8
0
  6
Continuous
 62
     2
100
AcDbCircle
 10
77.03677149820854
 20
346.2296495084854
 30
0.0
 40
0.3157169230756836
100
AcDbArc
 50
180.0
 51
270.0
  0
ARC
  5
182
102
{ACAD_REACTORS
330
1E8
330
1E9
102
}
330
76
100
AcDbEntity
  8
0
  6
Continuous
 62
     2
100
AcDbCircle
 10
78.51260475921816
 20
350.5861045512025
 30
0.0
 40
0.315716923076593
100
AcDbArc
 50
0.0
 51
90.0
  0
ARC
  5
183
102
{ACAD_REACTORS
330
1E8
330
1E9
102
}
330
76
100
AcDbEntity
  8
0
  6
Continuous
 62
     2
100
AcDbCircle
 10
78.51260475921816
 20
349.982079932142
 30
0.0
 40
0.3157169230761717
100
AcDbArc
 50
295.1944106485354
 51
0.0
  0
ARC
  5
184
102
{ACAD_REACTORS
330
1E8
330
1E9
102
}
330
76
100
AcDbEntity
  8
0
  6
Continuous
 62
     2
100
AcDbCircle
 10
78.51260475921816
 20
346.2296495084854
 30
0.0
 40
0.3157169230767067
100
AcDbArc
 50
270.0
 51
0.0
  0
ARC
  5
185
102
{ACAD_REACTORS
330
1E8
330
1E9
102
}
330
76
100
AcDbEntity
  8
0
  6
Continuous
 62
     2
100
AcDbCircle
 10
76.44287682146205
 20
351.1901324144353
 30
0.0
 40
0.4242446153837705
100
AcDbArc
 50
90.0
 51
180.0
  0
ARC
  5
186
102
{ACAD_REACTORS
330
1E8
330
1E9
102
}
330
76
100
AcDbEntity
  8
0
  6
Continuous
 62
     2
100
AcDbCircle
 10
81.91618891217885
 20
351.1901324144353
 30
0.0
 40
0.4242446153838841
100
AcDbArc
 50
0.0
 51
90.0
  0
ARC
  5
187
102
{ACAD_REACTORS
330
1E8
330
1E9
102
}
330
76
100
AcDbEntity
  8
0
  6
Continuous
 62
     2
100
AcDbCircle
 10
81.91618891217885
 20
345.6256216452351
 30
0.0
 40
0.4242446153833157
100
AcDbArc
 50
270.0
 51
0.0
  0
ARC
  5
188
102
{ACAD_REACTORS
330
1E6
330
1E7
102
}
330
76
100
AcDbEntity
  8
0
  6
Continuous
 62
     2
100
AcDbCircle
 10
91.13457279927036
 20
350.0874722679314
 30
0.0
 40
0.7717997786796023
100
AcDbArc
 50
321.8795802028471
 51
38.12041979716289
  0
ARC
  5
189
102
{ACAD_REACTORS
330
1E6
330
1E7
102
}
330
76
100
AcDbEntity
  8
0
  6
Continuous
 62
     2
100
AcDbCircle
 10
91.33431283561654
 20
349.930741089811
 30
0.0
 40
0.5179085730134372
100
AcDbArc
 50
218.1204197971511
 51
321.8795802028566
  0
ARC
  5
18A
102
{ACAD_REACTORS
330
1E4
330
1E5
102
}
330
76
100
AcDbEntity
  8
0
  6
Continuous
 62
     2
100
AcDbCircle
 10
87.65430524665635
 20
346.7282817917571
 30
0.0
 40
1.458034083652028
100
AcDbArc
 50
297.5481481757005
 51
62.45185182429842
  0
ARC
  5
18B
102
{ACAD_REACTORS
330
1E4
330
1E5
102
}
330
76
100
AcDbEntity
  8
0
  6
Continuous
 62
     2
100
AcDbCircle
 10
87.09242546298975
 20
346.7282817917571
 30
0.0
 40
1.458034083651465
100
AcDbArc
 50
117.548148175663
 51
242.451851824338
  0
ARC
  5
18C
102
{ACAD_REACTORS
330
1E4
330
1E5
102
}
330
76
100
AcDbEntity
  8
0
  6
Continuous
 62
     2
100
AcDbCircle
 10
87.37336535482305
 20
346.1897067814543
 30
0.0
 40
2.065479772208593
100
AcDbArc
 50
62.45185182430674
 51
117.548148175666
  0
ARC
  5
18D
102
{ACAD_REACTORS
330
1E4
330
1E5
102
}
330
76
100
AcDbEntity
  8
0
  6
Continuous
 62
     2
100
AcDbCircle
 10
87.37336535482305
 20
347.2668568020604
 30
0.0
 40
2.065479772208483
100
AcDbArc
 50
242.4518518243399
 51
297.5481481756875
  0
ARC
  5
18E
102
{ACAD_REACTORS
330
1E6
330
1E7
102
}
330
76
100
AcDbEntity
  8
0
  6
Continuous
 62
     2
100
AcDbCircle
 10
91.53405287196284
 20
350.0874722679314
 30
0.0
 40
0.7717997786797075
100
AcDbArc
 50
141.8795802028371
 51
218.1204197971529
  0
ARC
  5
18F
102
{ACAD_REACTORS
330
1E6
330
1E7
102
}
330
76
100
AcDbEntity
  8
0
  6
Continuous
 62
     2
100
AcDbCircle
 10
91.33431283561654
 20
350.2442034460519
 30
0.0
 40
0.5179085730135266
100
AcDbArc
 50
38.12041979714334
 51
141.8795802028489
  0
ARC
  5
190
102
{ACAD_REACTORS
330
1E8
330
1E9
102
}
330
76
100
AcDbEntity
  8
0
  6
Continuous
 62
     2
100
AcDbCircle
 10
76.44287682146205
 20
345.6256216452351
 30
0.0
 40
0.4242446153828041
100
AcDbArc
 50
180.0
 51
270.0
  0
ARC
  5
191
102
{ACAD_REACTORS
330
1E8
330
1E9
102
}
330
76
100
AcDbEntity
  8
0
  6
Continuous
 62
     2
100
AcDbCircle
 10
78.51260475921816
 20
347.760420440017
 30
0.0
 40
0.315716923076593
100
AcDbArc
 50
0.0
 51
64.80558935146027
  0
ARC
  5
192
102
{ACAD_REACTORS
330
1E8
330
1E9
102
}
330
76
100
AcDbEntity
  8
0
  6
Continuous
 62
     2
100
AcDbCircle
 10
79.03518920679315
 20
348.8712501860798
 30
0.0
 40
0.9118975235575889
100
AcDbArc
 50
115.194410648529
 51
244.8055893514878
  0
ARC
  5
193
102
{ACAD_REACTORS
330
1E8
330
1E9
102
}
330
76
100
AcDbEntity
  8
0
  6
Continuous
 62
     2
100
AcDbCircle
 10
77.03677149820854
 20
350.5861045512025
 30
0.0
 40
0.3157169230761951
100
AcDbArc
 50
90.0
 51
180.0
  0
ARC
  5
194
102
{ACAD_REACTORS
330
1E2
330
1E3
102
}
330
76
100
AcDbEntity
  8
0
  6
Continuous
 62
     2
100
AcDbCircle
 10
84.37535008022556
 20
350.5984073597261
 30
0.0
 40
0.3528638246710898
100
AcDbArc
 50
270.0
 51
90.0
  0
ARC
  5
195
102
{ACAD_REACTORS
330
1E6
330
1E7
102
}
330
76
100
AcDbEntity
  8
0
  6
Continuous
 62
     2
100
AcDbCircle
 10
91.11804082545135
 20
350.0874722679314
 30
0.0
 40
1.526904761905939
100
AcDbArc
 50
90.0
 51
270.0
  0
ARC
  5
196
102
{ACAD_REACTORS
330
1EA
330
1EB
102
}
330
76
100
AcDbEntity
  8
0
  6
Continuous
 62
     2
100
AcDbCircle
 10
100.5450359181551
 20
346.6154914297222
 30
0.0
 40
1.639695123940157
100
AcDbArc
 50
90.0
 51
164.9381082228971
  0
ARC
  5
197
102
{ACAD_REACTORS
330
1EA
330
1EB
102
}
330
76
100
AcDbEntity
  8
0
  6
Continuous
 62
     2
100
AcDbCircle
 10
100.1259080746935
 20
346.7282817917571
 30
0.0
 40
1.205656168393029
100
AcDbArc
 50
164.9381082229059
 51
195.0618917770967
  0
ARC
  5
198
102
{ACAD_REACTORS
330
1EA
330
1EB
102
}
330
76
100
AcDbEntity
  8
0
  6
Continuous
 62
     2
100
AcDbCircle
 10
100.6757803994709
 20
346.5232103624186
 30
0.0
 40
0.511580060195982
100
AcDbArc
 50
208.5214732576817
 51
246.6277221118464
  0
ARC
  5
199
102
{ACAD_REACTORS
330
1EA
330
1EB
102
}
330
76
100
AcDbEntity
  8
0
  6
Continuous
 62
     2
100
AcDbCircle
 10
100.6757803994709
 20
346.9333532210961
 30
0.0
 40
0.5115800601944096
100
AcDbArc
 50
109.3371432194838
 51
151.4785267424245
  0
ARC
  5
19A
102
{ACAD_REACTORS
330
1E8
330
1E9
102
}
330
76
100
AcDbEntity
  8
0
  6
Continuous
 62
     2
100
AcDbCircle
 10
79.61232018474024
 20
347.1802571794163
 30
0.0
 40
0.315716923076792
100
AcDbArc
 50
180.0
 51
269.8110329574541
  0
ARC
  5
19B
102
{ACAD_REACTORS
330
1E8
330
1E9
102
}
330
76
100
AcDbEntity
  8
0
  6
Continuous
 62
     2
100
AcDbCircle
 10
79.61793632005026
 20
348.8830921269853
 30
0.0
 40
2.018561131933209
100
AcDbArc
 50
269.8110329575858
 51
90.18896704241416
  0
ARC
  5
19C
102
{ACAD_REACTORS
330
1E8
330
1E9
102
}
330
76
100
AcDbEntity
  8
0
  6
Continuous
 62
     2
100
AcDbCircle
 10
79.61232018474024
 20
349.9803917860476
 30
0.0
 40
0.315716923076792
100
AcDbArc
 50
180.0
 51
244.6259913216482
  0
ARC
  5
19D
102
{ACAD_REACTORS
330
1E8
330
1E9
102
}
330
76
100
AcDbEntity
  8
0
  6
Continuous
 62
     2
100
AcDbCircle
 10
79.61232018474024
 20
347.7621085861114
 30
0.0
 40
0.3157169230764815
100
AcDbArc
 50
115.3740086783563
 51
180.0
  0
ARC
  5
19E
102
{ACAD_REACTORS
330
1EC
330
1ED
102
}
330
76
100
AcDbEntity
  8
0
  6
Continuous
 62
     2
100
AcDbCircle
 10
84.44233443890215
 20
346.6154914297222
 30
0.0
 40
1.639695123940507
100
AcDbArc
 50
84.84185523036236
 51
164.9381082228884
  0
ARC
  5
19F
102
{ACAD_REACTORS
330
1EC
330
1ED
102
}
330
76
100
AcDbEntity
  8
0
  6
Continuous
 62
     2
100
AcDbCircle
 10
84.02320659543935
 20
346.7282817917571
 30
0.0
 40
1.205656168390929
100
AcDbArc
 50
164.9381082228791
 51
195.0618917770974
  0
ARC
  5
1A0
102
{ACAD_REACTORS
330
1EC
330
1ED
102
}
330
76
100
AcDbEntity
  8
0
  6
Continuous
 62
     2
100
AcDbCircle
 10
84.44233443890215
 20
346.8410721537919
 30
0.0
 40
1.639695123939395
100
AcDbArc
 50
195.0618917770906
 51
275.1581447696395
  0
ARC
  5
1A1
102
{ACAD_REACTORS
330
1EC
330
1ED
102
}
330
76
100
AcDbEntity
  8
0
  6
Continuous
 62
     2
100
AcDbCircle
 10
84.15347834416625
 20
350.0409627370135
 30
0.0
 40
4.852596863498166
100
AcDbArc
 50
275.1581447696249
 51
285.9799912583529
  0
ARC
  5
1A2
102
{ACAD_REACTORS
330
1EC
330
1ED
102
}
330
76
100
AcDbEntity
  8
0
  6
Continuous
 62
     2
100
AcDbCircle
 10
84.95043617829825
 20
346.7282817917571
 30
0.0
 40
0.9410597353332545
100
AcDbArc
 50
151.4785267422669
 51
208.5214732577088
  0
ARC
  5
1A3
102
{ACAD_REACTORS
330
1EC
330
1ED
102
}
330
76
100
AcDbEntity
  8
0
  6
Continuous
 62
     2
100
AcDbCircle
 10
84.57307892021794
 20
346.9333532210961
 30
0.0
 40
0.5115800601948517
100
AcDbArc
 50
113.3722778882004
 51
151.4785267423044
  0
ARC
  5
1A4
102
{ACAD_REACTORS
330
1EC
330
1ED
102
}
330
76
100
AcDbEntity
  8
0
  6
Continuous
 62
     2
100
AcDbCircle
 10
84.31135121925917
 20
345.3178154263489
 30
0.0
 40
2.227384008973501
100
AcDbArc
 50
58.06909105004111
 51
71.55192388186745
  0
ARC
  5
1A5
102
{ACAD_REACTORS
330
1E4
330
1E5
102
}
330
76
100
AcDbEntity
  8
0
  6
Continuous
 62
     2
100
AcDbCircle
 10
87.37336535482305
 20
346.8850129698776
 30
0.0
 40
0.5179085730132998
100
AcDbArc
 50
38.12041979714704
 51
141.8795802028588
  0
ARC
  5
1A6
102
{ACAD_REACTORS
330
1E4
330
1E5
102
}
330
76
100
AcDbEntity
  8
0
  6
Continuous
 62
     2
100
AcDbCircle
 10
87.57310539116915
 20
346.7282817917571
 30
0.0
 40
0.7717997786794457
100
AcDbArc
 50
141.879580202838
 51
218.120419797172
  0
ARC
  5
1A7
102
{ACAD_REACTORS
330
1E4
330
1E5
102
}
330
76
100
AcDbEntity
  8
0
  6
Continuous
 62
     2
100
AcDbCircle
 10
87.37336535482305
 20
346.5715506136371
 30
0.0
 40
0.5179085730137529
100
AcDbArc
 50
218.1204197971956
 51
321.8795802027985
  0
ARC
  5
1A8
102
{ACAD_REACTORS
330
1E4
330
1E5
102
}
330
76
100
AcDbEntity
  8
0
  6
Continuous
 62
     2
100
AcDbCircle
 10
87.17362531847664
 20
346.7282817917571
 30
0.0
 40
0.7717997786797298
100
AcDbArc
 50
321.8795802028384
 51
38.12041979715163
  0
CIRCLE
  5
1A9
330
76
100
AcDbEntity
  8
1
  6
Continuous
 62
     2
100
AcDbCircle
 10
84.51863220607925
 20
359.0328770298354
 30
0.0
 40
2.5
  0
CIRCLE
  5
1AA
330
76
100
AcDbEntity
  8
1
  6
Continuous
 62
     2
100
AcDbCircle
 10
84.51863220607925
 20
359.0328770298354
 30
0.0
 40
1.249999999999915
  0
CIRCLE
  5
1AB
102
{ACAD_REACTORS
330
1E8
330
1E9
102
}
330
76
100
AcDbEntity
  8
0
  6
Continuous
 62
     2
100
AcDbCircle
 10
79.06246247197956
 20
348.8712501860798
 30
0.0
 40
0.4709789327785074
  0
MTEXT
  5
1AD
330
76
100
AcDbEntity
  8
1
 62
     3
100
AcDbMText
 10
-85.66815036766155
 20
524.6991851851343
 30
0.0
 40
1.8
 41
0.0
 71
     7
 72
     1
  3
Weitergabe sowie Vervielfältigung dieses Dokuments, Verwertung und \PMitteilung seines Inhalts sind verboten, soweit nicht ausdrücklich gestattet. \PZuwiderhandlungen verpflichten zu Schadenersatz. Alle Rechte für den Fall\Pder Patent-, Gebrauchsmus
  1
ter- oder Designeintragung vorbehalten.
  7
CONVERTER_11
 73
     1
 44
0.99639855942377
  0
MTEXT
  5
1AE
330
76
100
AcDbEntity
  8
1
 62
     3
100
AcDbMText
 10
97.18495947112655
 20
524.6991851851343
 30
0.0
 40
1.8
 41
0.0
 71
     7
 72
     1
  3
Transfer or duplication of this document as well as the utilisation or\Pcommunication of its content are not permitted unless express consent\Pis granted. Violations give rise to claims for damages. All rights reserved\Pin case of patent, utility mo
  1
del or design patent registrations.
  7
CONVERTER_11
 73
     1
 44
0.99639855942377
  0
TEXT
  5
1AF
330
76
100
AcDbEntity
  8
1
 62
     2
100
AcDbText
 10
90.98197731951646
 20
339.1488598148439
 30
0.0
 40
1.8
  1
of
 41
0.9
  7
CONVERTER_11
100
AcDbText
  0
TEXT
  5
1B0
330
76
100
AcDbEntity
  8
1
 62
     2
100
AcDbText
 10
72.78197731951664
 20
339.1488598148438
 30
0.0
 40
1.8
  1
page
 41
0.9
  7
CONVERTER_11
100
AcDbText
  0
TEXT
  5
1B1
330
76
100
AcDbEntity
  8
1
 62
     2
100
AcDbText
 10
81.42824228985864
 20
339.1086283760335
 30
0.0
 40
1.8
  1
1
 41
0.9
  7
CONVERTER_11
100
AcDbText
  0
TEXT
  5
1B2
330
76
100
AcDbEntity
  8
1
 62
     2
100
AcDbText
 10
96.21728612933015
 20
339.1578770298354
 30
0.0
 40
1.8
  1
1
 41
0.9
  7
CONVERTER_11
100
AcDbText
  0
MTEXT
  5
1B4
330
76
100
AcDbEntity
  8
1
 62
     7
100
AcDbMText
 10
154.7543795828921
 20
341.1578770298357
 30
0.0
 40
3.0
 41
0.0
 71
     5
 72
     1
  1
PSBJ-GSK FARBLOS
  7
CONVERTER_12
 73
     1
 44
1.20048019207683
  0
MTEXT
  5
1B5
330
76
100
AcDbEntity
  8
1
 62
     2
100
AcDbMText
 10
109.1819773195166
 20
345.4078770298355
 30
0.0
 40
1.8
 41
0.0
 71
     1
 72
     1
  1
description
  7
CONVERTER_11
 73
     1
 44
1.20048019207683
  0
MTEXT
  5
1B6
330
76
100
AcDbEntity
  8
1
 62
     3
100
AcDbMText
 10
97.98197731951655
 20
359.0328770298355
 30
0.0
 40
2.5
 41
0.0
 71
     5
 72
     1
  1
DIN A4
  7
CONVERTER_11
 73
     1
 44
1.20048019207683
  0
MTEXT
  5
1B7
330
76
100
AcDbEntity
  8
1
 62
     7
100
AcDbMText
 10
-88.17321815373242
 20
360.4078770298355
 30
0.0
 40
3.5
 41
0.0
 71
     5
 72
     1
  1
D
  7
CONVERTER_11
 73
     1
 44
1.20048019207683
  0
MTEXT
  5
1B8
330
76
100
AcDbEntity
  8
1
 62
     7
100
AcDbMText
 10
-88.17321815373242
 20
412.9078770298355
 30
0.0
 40
3.5
 41
0.0
 71
     5
 72
     1
  1
C
  7
CONVERTER_11
 73
     1
 44
1.20048019207683
  0
MTEXT
  5
1B9
330
76
100
AcDbEntity
  8
1
 62
     7
100
AcDbMText
 10
-88.17321815373242
 20
462.9078770298355
 30
0.0
 40
3.5
 41
0.0
 71
     5
 72
     1
  1
B
  7
CONVERTER_11
 73
     1
 44
1.20048019207683
  0
MTEXT
  5
1BA
330
76
100
AcDbEntity
  8
1
 62
     7
100
AcDbMText
 10
-88.17321815373242
 20
515.4078770298355
 30
0.0
 40
3.5
 41
0.0
 71
     5
 72
     1
  1
A
  7
CONVERTER_11
 73
     1
 44
1.20048019207683
  0
MTEXT
  5
1BB
330
76
100
AcDbEntity
  8
1
 62
     7
100
AcDbMText
 10
182.0767818462659
 20
335.4078770298354
 30
0.0
 40
3.5
 41
0.0
 71
     5
 72
     1
  1
6
  7
CONVERTER_11
 73
     1
 44
1.20048019207683
  0
MTEXT
  5
1BC
330
76
100
AcDbEntity
  8
1
 62
     7
100
AcDbMText
 10
132.8267818462666
 20
335.4078770298354
 30
0.0
 40
3.5
 41
0.0
 71
     5
 72
     1
  1
5
  7
CONVERTER_11
 73
     1
 44
1.20048019207683
  0
MTEXT
  5
1BD
330
76
100
AcDbEntity
  8
1
 62
     7
100
AcDbMText
 10
82.82678184626656
 20
335.4078770298354
 30
0.0
 40
3.5
 41
0.0
 71
     5
 72
     1
  1
4
  7
CONVERTER_11
 73
     1
 44
1.20048019207683
  0
MTEXT
  5
1BE
330
76
100
AcDbEntity
  8
1
 62
     7
100
AcDbMText
 10
32.82678184626667
 20
335.4078770298354
 30
0.0
 40
3.5
 41
0.0
 71
     5
 72
     1
  1
3
  7
CONVERTER_11
 73
     1
 44
1.20048019207683
  0
MTEXT
  5
1BF
330
76
100
AcDbEntity
  8
1
 62
     7
100
AcDbMText
 10
-17.17321815373333
 20
335.4078770298354
 30
0.0
 40
3.5
 41
0.0
 71
     5
 72
     1
  1
2
  7
CONVERTER_11
 73
     1
 44
1.20048019207683
  0
MTEXT
  5
1C0
330
76
100
AcDbEntity
  8
1
 62
     7
100
AcDbMText
 10
-66.42321815373293
 20
335.4078770298354
 30
0.0
 40
3.5
 41
0.0
 71
     5
 72
     1
  1
1
  7
CONVERTER_11
 73
     1
 44
1.20048019207683
  0
MTEXT
  5
1C1
330
76
100
AcDbEntity
  8
1
 62
     7
100
AcDbMText
 10
203.8267818462657
 20
360.4078770298355
 30
0.0
 40
3.5
 41
0.0
 71
     5
 72
     1
  1
D
  7
CONVERTER_11
 73
     1
 44
1.20048019207683
  0
MTEXT
  5
1C2
330
76
100
AcDbEntity
  8
1
 62
     7
100
AcDbMText
 10
203.8267818462657
 20
462.9078770298374
 30
0.0
 40
3.5
 41
0.0
 71
     5
 72
     1
  1
B
  7
CONVERTER_11
 73
     1
 44
1.20048019207683
  0
MTEXT
  5
1C3
330
76
100
AcDbEntity
  8
1
 62
     7
100
AcDbMText
 10
203.8267818462657
 20
515.4078770298355
 30
0.0
 40
3.5
 41
0.0
 71
     5
 72
     1
  1
A
  7
CONVERTER_11
 73
     1
 44
1.20048019207683
  0
MTEXT
  5
1C4
330
76
100
AcDbEntity
  8
1
 62
     7
100
AcDbMText
 10
203.8267818462657
 20
412.9078770298374
 30
0.0
 40
3.5
 41
0.0
 71
     5
 72
     1
  1
C
  7
CONVERTER_11
 73
     1
 44
1.20048019207683
  0
MTEXT
  5
1C5
330
76
100
AcDbEntity
  8
1
 62
     2
100
AcDbMText
 10
37.34396259446913
 20
350.6578770298354
 30
0.0
 40
2.0
 41
0.0
 71
     5
 72
     1
  1
General Information\P- Simplified representation\P- Document excluded from change process\P- Linear dimensions [mm]
  7
CONVERTER_11
 73
     1
 44
1.20048019207683
  0
TEXT
  5
1C6
330
76
100
AcDbEntity
  8
1
 62
     7
100
AcDbText
 10
109.6819773195164
 20
347.7078770298354
 30
0.0
 40
2.5
  1
0304395
 41
0.81
  7
CONVERTER_12
100
AcDbText
  0
MTEXT
  5
1C7
330
76
100
AcDbEntity
  8
1
 62
     2
100
AcDbMText
 10
109.2819773195166
 20
353.9078770298355
 30
0.0
 40
1.8
 41
0.0
 71
     1
 72
     1
  1
ident.-No.
  7
CONVERTER_11
 73
     1
 44
1.20048019207683
  0
MTEXT
  5
1C8
330
76
100
AcDbEntity
  8
1
 62
     2
100
AcDbMText
 10
193.5083735645894
 20
362.4078770298355
 30
0.0
 40
1.8
 41
0.0
 71
     1
 72
     1
  1
scale
  7
CONVERTER_11
 73
     1
 44
1.20048019207683
  0
MTEXT
  5
1CA
330
76
100
AcDbEntity
  8
1
 62
     3
100
AcDbMText
 10
196.867577705429
 20
356.2078770298356
 30
0.0
 40
2.5
 41
0.0
 71
     8
 72
     1
  1
1:1
  7
CONVERTER_13
 73
     1
 44
1.32052821128451
  0
TEXT
  5
1CB
330
76
100
AcDbEntity
  8
1
 62
     7
100
AcDbText
 10
109.2819773195166
 20
356.2078770298354
 30
0.0
 40
2.5
  1
00327347
 41
0.81
  7
CONVERTER_12
100
AcDbText
  0
MTEXT
  5
1CD
330
76
100
AcDbEntity
  8
1
 62
     2
100
AcDbMText
 10
109.2819773195166
 20
362.4078770298355
 30
0.0
 40
1.8
 41
0.0
 71
     1
 72
     1
  1
document-No. / RI
  7
CONVERTER_14
 73
     1
 44
1.32052821128451
  0
TEXT
  5
1CE
330
76
100
AcDbEntity
  8
1
 62
     3
100
AcDbText
 10
137.0819773195167
 20
347.7078770298354
 30
0.0
 40
2.5
  1
TECDOC 2D_Productdrawing
 41
0.81
  7
CONVERTER_12
100
AcDbText
  0
MTEXT
  5
1CF
330
76
100
AcDbEntity
  8
1
 62
     2
100
AcDbMText
 10
137.0819773195167
 20
353.9078770298354
 30
0.0
 40
1.8
 41
0.0
 71
     1
 72
     1
  1
document-type
  7
CONVERTER_11
 73
     1
 44
1.20048019207683
  0
MTEXT
  5
1D0
330
76
100
AcDbEntity
  8
1
 62
     2
100
AcDbMText
 10
166.9083735645895
 20
362.4078770298354
 30
0.0
 40
1.8
 41
0.0
 71
     1
 72
     1
  1
date
  7
CONVERTER_11
 73
     1
 44
1.32052821128451
  0
TEXT
  5
1D1
330
76
100
AcDbEntity
  8
1
 62
     3
100
AcDbText
 10
166.9083735645895
 20
356.2078770298354
 30
0.0
 40
2.5
  1
17.03.2018
 41
0.81
  7
CONVERTER_12
100
AcDbText
  0
TEXT
  5
1D2
330
76
100
AcDbEntity
  8
1
 62
     7
100
AcDbText
 10
129.3118895385724
 20
356.2078770298354
 30
0.0
 40
2.5
  1
01
 41
0.81
  7
CONVERTER_12
100
AcDbText
  0
TEXT
  5
1D3
330
76
100
AcDbEntity
  8
1
 62
     7
100
AcDbText
 10
127.1555250415304
 20
356.2078770298354
 30
0.0
 40
2.5
  1
/
 41
0.9
  7
CONVERTER_11
100
AcDbText
  0
HATCH
  5
1D4
330
76
100
AcDbEntity
  8
1
  6
Continuous
 62
     2
100
AcDbHatch
 10
0.0
 20
0.0
 30
0.0
210
0.0
220
0.0
230
1.0
  2
_USER
 70
     0
 71
     1
 91
        1
 92
        1
 93
       12
 72
     1
 10
89.44947803247774
 20
348.5605675060261
 11
88.25668533031134
 21
348.5605675060261
 72
     1
 10
88.25668533031134
 20
348.5605675060261
 11
88.25668533031134
 21
349.6948396148699
 72
     1
 10
88.25668533031134
 20
349.6948396148699
 11
87.20702775240386
 21
349.6948396148699
 72
     1
 10
87.20702775240386
 20
349.6948396148699
 11
87.20702775240386
 21
348.5605675060261
 72
     1
 10
87.20702775240386
 20
348.5605675060261
 11
86.01423505023726
 21
348.5605675060261
 72
     1
 10
86.01423505023726
 20
348.5605675060261
 11
86.01423505023726
 21
351.6143770298373
 72
     1
 10
86.01423505023726
 20
351.6143770298373
 11
87.20702775240386
 21
351.6143770298373
 72
     1
 10
87.20702775240386
 20
351.6143770298373
 11
87.20702775240386
 21
350.5455436965027
 72
     1
 10
87.20702775240386
 20
350.5455436965027
 11
88.25668533031134
 21
350.5455436965027
 72
     1
 10
88.25668533031134
 20
350.5455436965027
 11
88.25668533031134
 21
351.6143770298373
 72
     1
 10
88.25668533031134
 20
351.6143770298373
 11
89.44947803247774
 21
351.6143770298373
 72
     1
 10
89.44947803247774
 20
351.6143770298373
 11
89.44947803247774
 21
348.5605675060261
 97
       12
330
140
330
141
330
12B
330
12A
330
129
330
13D
330
128
330
13E
330
13F
330
127
330
126
330
125
 75
     1
 76
     0
 52
45.0
 41
0.1
 77
     0
 78
     1
 53
45.0
 43
0.0
 44
0.0
 45
-0.0707106781186548
 46
0.0707106781186548
 79
     0
 98
        1
 10
0.0
 20
0.0
  0
HATCH
  5
1D5
330
76
100
AcDbEntity
  8
1
  6
Continuous
 62
     2
100
AcDbHatch
 10
0.0
 20
0.0
 30
0.0
210
0.0
220
0.0
230
1.0
  2
_USER
 70
     0
 71
     1
 91
        1
 92
        1
 93
       12
 72
     1
 10
89.44947803247774
 20
348.5605675060261
 11
88.25668533031134
 21
348.5605675060261
 72
     1
 10
88.25668533031134
 20
348.5605675060261
 11
88.25668533031134
 21
349.6948396148699
 72
     1
 10
88.25668533031134
 20
349.6948396148699
 11
87.20702775240386
 21
349.6948396148699
 72
     1
 10
87.20702775240386
 20
349.6948396148699
 11
87.20702775240386
 21
348.5605675060261
 72
     1
 10
87.20702775240386
 20
348.5605675060261
 11
86.01423505023726
 21
348.5605675060261
 72
     1
 10
86.01423505023726
 20
348.5605675060261
 11
86.01423505023726
 21
351.6143770298373
 72
     1
 10
86.01423505023726
 20
351.6143770298373
 11
87.20702775240386
 21
351.6143770298373
 72
     1
 10
87.20702775240386
 20
351.6143770298373
 11
87.20702775240386
 21
350.5455436965027
 72
     1
 10
87.20702775240386
 20
350.5455436965027
 11
88.25668533031134
 21
350.5455436965027
 72
     1
 10
88.25668533031134
 20
350.5455436965027
 11
88.25668533031134
 21
351.6143770298373
 72
     1
 10
88.25668533031134
 20
351.6143770298373
 11
89.44947803247774
 21
351.6143770298373
 72
     1
 10
89.44947803247774
 20
351.6143770298373
 11
89.44947803247774
 21
348.5605675060261
 97
       12
330
140
330
141
330
12B
330
12A
330
129
330
13D
330
128
330
13E
330
13F
330
127
330
126
330
125
 75
     1
 76
     0
 52
45.0
 41
0.1
 77
     0
 78
     1
 53
45.0
 43
0.0
 44
0.0
 45
-0.0707106781186548
 46
0.0707106781186548
 79
     0
 98
        1
 10
0.0
 20
0.0
  0
HATCH
  5
1D6
330
76
100
AcDbEntity
  8
1
  6
Continuous
 62
     2
100
AcDbHatch
 10
0.0
 20
0.0
 30
0.0
210
0.0
220
0.0
230
1.0
  2
_USER
 70
     0
 71
     1
 91
        1
 92
        1
 93
       10
 72
     1
 10
91.69177738166604
 20
346.9464110434578
 11
90.45127297141315
 21
348.2551865536629
 72
     1
 10
90.45127297141315
 20
348.2551865536629
 11
89.25848026924555
 21
348.2551865536629
 72
     1
 10
89.25848026924555
 20
348.2551865536629
 11
89.25848026924555
 21
345.2013770298518
 72
     1
 10
89.25848026924555
 20
345.2013770298518
 11
90.45127297141315
 21
345.2013770298518
 72
     1
 10
90.45127297141315
 20
345.2013770298518
 11
90.45127297141315
 21
346.5101525400564
 72
     1
 10
90.45127297141315
 20
346.5101525400564
 11
91.69177738166604
 21
345.2013770298518
 72
     1
 10
91.69177738166604
 20
345.2013770298518
 11
92.88457008383244
 21
345.2013770298518
 72
     1
 10
92.88457008383244
 20
345.2013770298518
 11
92.88457008383244
 21
348.2551865536629
 72
     1
 10
92.88457008383244
 20
348.2551865536629
 11
91.69177738166604
 21
348.2551865536629
 72
     1
 10
91.69177738166604
 20
348.2551865536629
 11
91.69177738166604
 21
346.9464110434578
 97
       10
330
14E
330
11E
330
11D
330
120
330
149
330
14A
330
11F
330
14B
330
14C
330
14D
 75
     1
 76
     0
 52
45.0
 41
0.1
 77
     0
 78
     1
 53
45.0
 43
0.0
 44
0.0
 45
-0.0707106781186548
 46
0.0707106781186548
 79
     0
 98
        1
 10
0.0
 20
0.0
  0
HATCH
  5
1D7
330
76
100
AcDbEntity
  8
1
  6
Continuous
 62
     2
100
AcDbHatch
 10
0.0
 20
0.0
 30
0.0
210
0.0
220
0.0
230
1.0
  2
_USER
 70
     0
 71
     1
 91
        1
 92
        1
 93
       10
 72
     1
 10
91.69177738166604
 20
346.9464110434578
 11
90.45127297141315
 21
348.2551865536629
 72
     1
 10
90.45127297141315
 20
348.2551865536629
 11
89.25848026924555
 21
348.2551865536629
 72
     1
 10
89.25848026924555
 20
348.2551865536629
 11
89.25848026924555
 21
345.2013770298518
 72
     1
 10
89.25848026924555
 20
345.2013770298518
 11
90.45127297141315
 21
345.2013770298518
 72
     1
 10
90.45127297141315
 20
345.2013770298518
 11
90.45127297141315
 21
346.5101525400564
 72
     1
 10
90.45127297141315
 20
346.5101525400564
 11
91.69177738166604
 21
345.2013770298518
 72
     1
 10
91.69177738166604
 20
345.2013770298518
 11
92.88457008383244
 21
345.2013770298518
 72
     1
 10
92.88457008383244
 20
345.2013770298518
 11
92.88457008383244
 21
348.2551865536629
 72
     1
 10
92.88457008383244
 20
348.2551865536629
 11
91.69177738166604
 21
348.2551865536629
 72
     1
 10
91.69177738166604
 20
348.2551865536629
 11
91.69177738166604
 21
346.9464110434578
 97
       10
330
14E
330
11E
330
11D
330
120
330
149
330
14A
330
11F
330
14B
330
14C
330
14D
 75
     1
 76
     0
 52
45.0
 41
0.1
 77
     0
 78
     1
 53
45.0
 43
0.0
 44
0.0
 45
-0.0707106781186548
 46
0.0707106781186548
 79
     0
 98
        1
 10
0.0
 20
0.0
  0
HATCH
  5
1D8
330
76
100
AcDbEntity
  8
1
  6
Continuous
 62
     2
100
AcDbHatch
 10
0.0
 20
0.0
 30
0.0
210
0.0
220
0.0
230
1.0
  2
_USER
 70
     0
 71
     1
 91
        1
 92
        1
 93
       10
 72
     1
 10
96.94021620208576
 20
350.3056015196321
 11
95.69971179183176
 21
351.6143770298373
 72
     1
 10
95.69971179183176
 20
351.6143770298373
 11
94.50691908966525
 21
351.6143770298373
 72
     1
 10
94.50691908966525
 20
351.6143770298373
 11
94.50691908966525
 21
348.5605675060261
 72
     1
 10
94.50691908966525
 20
348.5605675060261
 11
95.69971179183176
 21
348.5605675060261
 72
     1
 10
95.69971179183176
 20
348.5605675060261
 11
95.69971179183176
 21
349.8693430162308
 72
     1
 10
95.69971179183176
 20
349.8693430162308
 11
96.94021620208576
 21
348.5605675060261
 72
     1
 10
96.94021620208576
 20
348.5605675060261
 11
98.13300890425236
 21
348.5605675060261
 72
     1
 10
98.13300890425236
 20
348.5605675060261
 11
98.13300890425236
 21
351.6143770298373
 72
     1
 10
98.13300890425236
 20
351.6143770298373
 11
96.94021620208576
 21
351.6143770298373
 72
     1
 10
96.94021620208576
 20
351.6143770298373
 11
96.94021620208576
 21
350.3056015196321
 97
       10
330
153
330
11B
330
11A
330
154
330
119
330
14F
330
150
330
151
330
152
330
11C
 75
     1
 76
     0
 52
45.0
 41
0.1
 77
     0
 78
     1
 53
45.0
 43
0.0
 44
0.0
 45
-0.0707106781186548
 46
0.0707106781186548
 79
     0
 98
        1
 10
0.0
 20
0.0
  0
HATCH
  5
1D9
330
76
100
AcDbEntity
  8
1
  6
Continuous
 62
     2
100
AcDbHatch
 10
0.0
 20
0.0
 30
0.0
210
0.0
220
0.0
230
1.0
  2
_USER
 70
     0
 71
     1
 91
        1
 92
        1
 93
       10
 72
     1
 10
96.94021620208576
 20
350.3056015196321
 11
95.69971179183176
 21
351.6143770298373
 72
     1
 10
95.69971179183176
 20
351.6143770298373
 11
94.50691908966525
 21
351.6143770298373
 72
     1
 10
94.50691908966525
 20
351.6143770298373
 11
94.50691908966525
 21
348.5605675060261
 72
     1
 10
94.50691908966525
 20
348.5605675060261
 11
95.69971179183176
 21
348.5605675060261
 72
     1
 10
95.69971179183176
 20
348.5605675060261
 11
95.69971179183176
 21
349.8693430162308
 72
     1
 10
95.69971179183176
 20
349.8693430162308
 11
96.94021620208576
 21
348.5605675060261
 72
     1
 10
96.94021620208576
 20
348.5605675060261
 11
98.13300890425236
 21
348.5605675060261
 72
     1
 10
98.13300890425236
 20
348.5605675060261
 11
98.13300890425236
 21
351.6143770298373
 72
     1
 10
98.13300890425236
 20
351.6143770298373
 11
96.94021620208576
 21
351.6143770298373
 72
     1
 10
96.94021620208576
 20
351.6143770298373
 11
96.94021620208576
 21
350.3056015196321
 97
       10
330
153
330
11B
330
11A
330
154
330
119
330
14F
330
150
330
151
330
152
330
11C
 75
     1
 76
     0
 52
45.0
 41
0.1
 77
     0
 78
     1
 53
45.0
 43
0.0
 44
0.0
 45
-0.0707106781186548
 46
0.0707106781186548
 79
     0
 98
        1
 10
0.0
 20
0.0
  0
HATCH
  5
1DA
330
76
100
AcDbEntity
  8
1
  6
Continuous
 62
     2
100
AcDbHatch
 10
0.0
 20
0.0
 30
0.0
210
0.0
220
0.0
230
1.0
  2
_USER
 70
     0
 71
     1
 91
        1
 92
        1
 93
        8
 72
     1
 10
95.84269598520626
 20
348.2551865536629
 11
93.02770520809264
 21
348.2551865536629
 72
     1
 10
93.02770520809264
 20
348.2551865536629
 11
93.02770520809264
 21
347.4699212475393
 72
     1
 10
93.02770520809264
 20
347.4699212475393
 11
93.83880424556725
 21
347.4699212475393
 72
     1
 10
93.83880424556725
 20
347.4699212475393
 11
93.83880424556725
 21
345.2013770298518
 72
     1
 10
93.83880424556725
 20
345.2013770298518
 11
95.03159694773376
 21
345.2013770298518
 72
     1
 10
95.03159694773376
 20
345.2013770298518
 11
95.03159694773376
 21
347.4699212475393
 72
     1
 10
95.03159694773376
 20
347.4699212475393
 11
95.84269598520626
 21
347.4699212475393
 72
     1
 10
95.84269598520626
 20
347.4699212475393
 11
95.84269598520626
 21
348.2551865536629
 97
        8
330
115
330
155
330
114
330
156
330
157
330
118
330
117
330
116
 75
     1
 76
     0
 52
45.0
 41
0.1
 77
     0
 78
     1
 53
45.0
 43
0.0
 44
0.0
 45
-0.0707106781186548
 46
0.0707106781186548
 79
     0
 98
        1
 10
0.0
 20
0.0
  0
HATCH
  5
1DB
330
76
100
AcDbEntity
  8
1
  6
Continuous
 62
     2
100
AcDbHatch
 10
0.0
 20
0.0
 30
0.0
210
0.0
220
0.0
230
1.0
  2
_USER
 70
     0
 71
     1
 91
        1
 92
        1
 93
        8
 72
     1
 10
95.84269598520626
 20
348.2551865536629
 11
93.02770520809264
 21
348.2551865536629
 72
     1
 10
93.02770520809264
 20
348.2551865536629
 11
93.02770520809264
 21
347.4699212475393
 72
     1
 10
93.02770520809264
 20
347.4699212475393
 11
93.83880424556725
 21
347.4699212475393
 72
     1
 10
93.83880424556725
 20
347.4699212475393
 11
93.83880424556725
 21
345.2013770298518
 72
     1
 10
93.83880424556725
 20
345.2013770298518
 11
95.03159694773376
 21
345.2013770298518
 72
     1
 10
95.03159694773376
 20
345.2013770298518
 11
95.03159694773376
 21
347.4699212475393
 72
     1
 10
95.03159694773376
 20
347.4699212475393
 11
95.84269598520626
 21
347.4699212475393
 72
     1
 10
95.84269598520626
 20
347.4699212475393
 11
95.84269598520626
 21
348.2551865536629
 97
        8
330
115
330
155
330
114
330
156
330
157
330
118
330
117
330
116
 75
     1
 76
     0
 52
45.0
 41
0.1
 77
     0
 78
     1
 53
45.0
 43
0.0
 44
0.0
 45
-0.0707106781186548
 46
0.0707106781186548
 79
     0
 98
        1
 10
0.0
 20
0.0
  0
HATCH
  5
1DC
330
76
100
AcDbEntity
  8
1
  6
Continuous
 62
     2
100
AcDbHatch
 10
0.0
 20
0.0
 30
0.0
210
0.0
220
0.0
230
1.0
  2
_USER
 70
     0
 71
     1
 91
        2
 92
        1
 93
        8
 72
     1
 10
97.98112344115324
 20
345.2013770298518
 11
97.76964338767746
 21
345.7423375740697
 72
     1
 10
97.76964338767746
 20
345.7423375740697
 11
96.63720181100365
 21
345.7423375740697
 72
     1
 10
96.63720181100365
 20
345.7423375740697
 11
96.42572175752784
 21
345.2013770298518
 72
     1
 10
96.42572175752784
 20
345.2013770298518
 11
95.18521734727486
 21
345.2013770298518
 72
     1
 10
95.18521734727486
 20
345.2013770298518
 11
96.58317039421416
 21
348.2551865536629
 72
     1
 10
96.58317039421416
 20
348.2551865536629
 11
97.82367480446686
 21
348.2551865536629
 72
     1
 10
97.82367480446686
 20
348.2551865536629
 11
99.22162785140716
 21
345.2013770298518
 72
     1
 10
99.22162785140716
 20
345.2013770298518
 11
97.98112344115324
 21
345.2013770298518
 97
        8
330
159
330
15A
330
111
330
15B
330
110
330
113
330
158
330
112
 92
       16
 93
        3
 72
     1
 10
96.90325736214865
 20
346.4229008393763
 11
97.20342259934105
 21
347.190715805363
 72
     1
 10
97.20342259934105
 20
347.190715805363
 11
97.50358783653115
 21
346.4229008393763
 72
     1
 10
97.50358783653115
 20
346.4229008393763
 11
96.90325736214865
 21
346.4229008393763
 97
        3
330
10F
330
15D
330
15C
 75
     1
 76
     0
 52
45.0
 41
0.1
 77
     0
 78
     1
 53
45.0
 43
0.0
 44
0.0
 45
-0.0707106781186548
 46
0.0707106781186548
 79
     0
 98
        1
 10
0.0
 20
0.0
  0
HATCH
  5
1DD
330
76
100
AcDbEntity
  8
1
  6
Continuous
 62
     2
100
AcDbHatch
 10
0.0
 20
0.0
 30
0.0
210
0.0
220
0.0
230
1.0
  2
_USER
 70
     0
 71
     1
 91
        2
 92
        1
 93
        8
 72
     1
 10
97.98112344115324
 20
345.2013770298518
 11
97.76964338767746
 21
345.7423375740697
 72
     1
 10
97.76964338767746
 20
345.7423375740697
 11
96.63720181100365
 21
345.7423375740697
 72
     1
 10
96.63720181100365
 20
345.7423375740697
 11
96.42572175752784
 21
345.2013770298518
 72
     1
 10
96.42572175752784
 20
345.2013770298518
 11
95.18521734727486
 21
345.2013770298518
 72
     1
 10
95.18521734727486
 20
345.2013770298518
 11
96.58317039421416
 21
348.2551865536629
 72
     1
 10
96.58317039421416
 20
348.2551865536629
 11
97.82367480446686
 21
348.2551865536629
 72
     1
 10
97.82367480446686
 20
348.2551865536629
 11
99.22162785140716
 21
345.2013770298518
 72
     1
 10
99.22162785140716
 20
345.2013770298518
 11
97.98112344115324
 21
345.2013770298518
 97
        8
330
159
330
15A
330
111
330
15B
330
110
330
113
330
158
330
112
 92
       16
 93
        3
 72
     1
 10
96.90325736214865
 20
346.4229008393763
 11
97.20342259934105
 21
347.190715805363
 72
     1
 10
97.20342259934105
 20
347.190715805363
 11
97.50358783653115
 21
346.4229008393763
 72
     1
 10
97.50358783653115
 20
346.4229008393763
 11
96.90325736214865
 21
346.4229008393763
 97
        3
330
10F
330
15D
330
15C
 75
     1
 76
     0
 52
45.0
 41
0.1
 77
     0
 78
     1
 53
45.0
 43
0.0
 44
0.0
 45
-0.0707106781186548
 46
0.0707106781186548
 79
     0
 98
        1
 10
0.0
 20
0.0
  0
HATCH
  5
1DE
330
76
100
AcDbEntity
  8
1
  6
Continuous
 62
     2
100
AcDbHatch
 10
0.0
 20
0.0
 30
0.0
210
0.0
220
0.0
230
1.0
  2
_USER
 70
     0
 71
     1
 91
        1
 92
        1
 93
        4
 72
     1
 10
99.61207185493916
 20
348.5605675060261
 11
98.37156744468626
 21
348.5605675060261
 72
     1
 10
98.37156744468626
 20
348.5605675060261
 11
98.37156744468626
 21
351.6143770298373
 72
     1
 10
98.37156744468626
 20
351.6143770298373
 11
99.61207185493916
 21
351.6143770298373
 72
     1
 10
99.61207185493916
 20
351.6143770298373
 11
99.61207185493916
 21
348.5605675060261
 97
        4
330
10C
330
10E
330
15E
330
10D
 75
     1
 76
     0
 52
45.0
 41
0.1
 77
     0
 78
     1
 53
45.0
 43
0.0
 44
0.0
 45
-0.0707106781186548
 46
0.0707106781186548
 79
     0
 98
        1
 10
0.0
 20
0.0
  0
HATCH
  5
1DF
330
76
100
AcDbEntity
  8
1
  6
Continuous
 62
     2
100
AcDbHatch
 10
0.0
 20
0.0
 30
0.0
210
0.0
220
0.0
230
1.0
  2
_USER
 70
     0
 71
     1
 91
        1
 92
        1
 93
        4
 72
     1
 10
99.61207185493916
 20
348.5605675060261
 11
98.37156744468626
 21
348.5605675060261
 72
     1
 10
98.37156744468626
 20
348.5605675060261
 11
98.37156744468626
 21
351.6143770298373
 72
     1
 10
98.37156744468626
 20
351.6143770298373
 11
99.61207185493916
 21
351.6143770298373
 72
     1
 10
99.61207185493916
 20
351.6143770298373
 11
99.61207185493916
 21
348.5605675060261
 97
        4
330
10C
330
10E
330
15E
330
10D
 75
     1
 76
     0
 52
45.0
 41
0.1
 77
     0
 78
     1
 53
45.0
 43
0.0
 44
0.0
 45
-0.0707106781186548
 46
0.0707106781186548
 79
     0
 98
        1
 10
0.0
 20
0.0
  0
HATCH
  5
1E0
330
76
100
AcDbEntity
  8
1
  6
Continuous
 62
     2
100
AcDbHatch
 10
0.0
 20
0.0
 30
0.0
210
0.0
220
0.0
230
1.0
  2
_USER
 70
     0
 71
     1
 91
        1
 92
        1
 93
       12
 72
     1
 10
103.83455802061
 20
351.6143770298373
 11
102.5320283898435
 21
350.1414264998011
 72
     1
 10
102.5320283898435
 20
350.1414264998011
 11
103.9299814367838
 21
348.5605675060261
 72
     1
 10
103.9299814367838
 20
348.5605675060261
 11
102.5272572190355
 21
348.5605675060261
 72
     1
 10
102.5272572190355
 20
348.5605675060261
 11
101.83066628097
 21
349.3482992913198
 72
     1
 10
101.83066628097
 20
349.3482992913198
 11
101.1340753429043
 21
348.5605675060261
 72
     1
 10
101.1340753429043
 20
348.5605675060261
 11
99.73135112515604
 21
348.5605675060261
 72
     1
 10
99.73135112515604
 20
348.5605675060261
 11
101.1293041720963
 21
350.1414264998011
 72
     1
 10
101.1293041720963
 20
350.1414264998011
 11
99.82677454132886
 21
351.6143770298373
 72
     1
 10
99.82677454132886
 20
351.6143770298373
 11
101.2294987590782
 21
351.6143770298373
 72
     1
 10
101.2294987590782
 20
351.6143770298373
 11
101.83066628097
 21
350.9345537082818
 72
     1
 10
101.83066628097
 20
350.9345537082818
 11
102.4318338028627
 21
351.6143770298373
 72
     1
 10
102.4318338028627
 20
351.6143770298373
 11
103.83455802061
 21
351.6143770298373
 97
       12
330
107
330
106
330
105
330
162
330
163
330
15F
330
160
330
10B
330
10A
330
109
330
108
330
161
 75
     1
 76
     0
 52
45.0
 41
0.1
 77
     0
 78
     1
 53
45.0
 43
0.0
 44
0.0
 45
-0.0707106781186548
 46
0.0707106781186548
 79
     0
 98
        1
 10
0.0
 20
0.0
  0
HATCH
  5
1E1
330
76
100
AcDbEntity
  8
1
  6
Continuous
 62
     2
100
AcDbHatch
 10
0.0
 20
0.0
 30
0.0
210
0.0
220
0.0
230
1.0
  2
_USER
 70
     0
 71
     1
 91
        1
 92
        1
 93
       12
 72
     1
 10
103.83455802061
 20
351.6143770298373
 11
102.5320283898435
 21
350.1414264998011
 72
     1
 10
102.5320283898435
 20
350.1414264998011
 11
103.9299814367838
 21
348.5605675060261
 72
     1
 10
103.9299814367838
 20
348.5605675060261
 11
102.5272572190355
 21
348.5605675060261
 72
     1
 10
102.5272572190355
 20
348.5605675060261
 11
101.83066628097
 21
349.3482992913198
 72
     1
 10
101.83066628097
 20
349.3482992913198
 11
101.1340753429043
 21
348.5605675060261
 72
     1
 10
101.1340753429043
 20
348.5605675060261
 11
99.73135112515604
 21
348.5605675060261
 72
     1
 10
99.73135112515604
 20
348.5605675060261
 11
101.1293041720963
 21
350.1414264998011
 72
     1
 10
101.1293041720963
 20
350.1414264998011
 11
99.82677454132886
 21
351.6143770298373
 72
     1
 10
99.82677454132886
 20
351.6143770298373
 11
101.2294987590782
 21
351.6143770298373
 72
     1
 10
101.2294987590782
 20
351.6143770298373
 11
101.83066628097
 21
350.9345537082818
 72
     1
 10
101.83066628097
 20
350.9345537082818
 11
102.4318338028627
 21
351.6143770298373
 72
     1
 10
102.4318338028627
 20
351.6143770298373
 11
103.83455802061
 21
351.6143770298373
 97
       12
330
107
330
106
330
105
330
162
330
163
330
15F
330
160
330
10B
330
10A
330
109
330
108
330
161
 75
     1
 76
     0
 52
45.0
 41
0.1
 77
     0
 78
     1
 53
45.0
 43
0.0
 44
0.0
 45
-0.0707106781186548
 46
0.0707106781186548
 79
     0
 98
        1
 10
0.0
 20
0.0
  0
HATCH
  5
1E2
330
76
100
AcDbEntity
  8
1
  6
Continuous
 62
     2
100
AcDbHatch
 10
0.0
 20
0.0
 30
0.0
210
0.0
220
0.0
230
1.0
  2
_USER
 70
     0
 71
     1
 91
        2
 92
        1
 93
        6
 72
     1
 10
84.81682260646394
 20
349.5036457471699
 11
84.05805501868366
 21
349.5036457471699
 72
     1
 10
84.05805501868366
 20
349.5036457471699
 11
84.05805501868366
 21
348.5605675060261
 72
     1
 10
84.05805501868366
 20
348.5605675060261
 11
82.81755060842954
 21
348.5605675060261
 72
     1
 10
82.81755060842954
 20
348.5605675060261
 11
82.81755060842954
 21
351.6143770298373
 72
     1
 10
82.81755060842954
 20
351.6143770298373
 11
84.81682260646394
 21
351.6143770298373
 72
     2
 10
84.81682260646394
 20
350.5590113885036
 40
1.055365641333708
 50
270.0
 51
450.0
 73
     0
 97
        6
330
12F
330
12E
330
13B
330
13A
330
130
330
180
 92
       16
 93
        4
 72
     2
 10
84.37535008022556
 20
350.5984073597261
 40
0.3528638246710898
 50
270.0
 51
450.0
 73
     1
 72
     1
 10
84.37535008022556
 20
350.9512711843972
 11
84.05805501868366
 21
350.9512711843972
 72
     1
 10
84.05805501868366
 20
350.9512711843972
 11
84.05805501868366
 21
350.245543535055
 72
     1
 10
84.05805501868366
 20
350.245543535055
 11
84.37535008022556
 21
350.245543535055
 97
        4
330
194
330
12C
330
13C
330
12D
 75
     1
 76
     0
 52
45.0
 41
0.1
 77
     0
 78
     1
 53
45.0
 43
0.0
 44
0.0
 45
-0.0707106781186548
 46
0.0707106781186548
 79
     0
 98
        1
 10
0.0
 20
0.0
  0
HATCH
  5
1E3
330
76
100
AcDbEntity
  8
1
  6
Continuous
 62
     2
100
AcDbHatch
 10
0.0
 20
0.0
 30
0.0
210
0.0
220
0.0
230
1.0
  2
_USER
 70
     0
 71
     1
 91
        2
 92
        1
 93
        6
 72
     1
 10
84.81682260646394
 20
349.5036457471699
 11
84.05805501868366
 21
349.5036457471699
 72
     1
 10
84.05805501868366
 20
349.5036457471699
 11
84.05805501868366
 21
348.5605675060261
 72
     1
 10
84.05805501868366
 20
348.5605675060261
 11
82.81755060842954
 21
348.5605675060261
 72
     1
 10
82.81755060842954
 20
348.5605675060261
 11
82.81755060842954
 21
351.6143770298373
 72
     1
 10
82.81755060842954
 20
351.6143770298373
 11
84.81682260646394
 21
351.6143770298373
 72
     2
 10
84.81682260646394
 20
350.5590113885036
 40
1.055365641333708
 50
270.0
 51
450.0
 73
     0
 97
        6
330
12F
330
12E
330
13B
330
13A
330
130
330
180
 92
       16
 93
        4
 72
     2
 10
84.37535008022556
 20
350.5984073597261
 40
0.3528638246710898
 50
270.0
 51
450.0
 73
     1
 72
     1
 10
84.37535008022556
 20
350.9512711843972
 11
84.05805501868366
 21
350.9512711843972
 72
     1
 10
84.05805501868366
 20
350.9512711843972
 11
84.05805501868366
 21
350.245543535055
 72
     1
 10
84.05805501868366
 20
350.245543535055
 11
84.37535008022556
 21
350.245543535055
 97
        4
330
194
330
12C
330
13C
330
12D
 75
     1
 76
     0
 52
45.0
 41
0.1
 77
     0
 78
     1
 53
45.0
 43
0.0
 44
0.0
 45
-0.0707106781186548
 46
0.0707106781186548
 79
     0
 98
        1
 10
0.0
 20
0.0
  0
HATCH
  5
1E4
330
76
100
AcDbEntity
  8
1
  6
Continuous
 62
     2
100
AcDbHatch
 10
0.0
 20
0.0
 30
0.0
210
0.0
220
0.0
230
1.0
  2
_USER
 70
     0
 71
     1
 91
        2
 92
        1
 93
        4
 72
     2
 10
87.37336535482305
 20
346.1897067814543
 40
2.065479772208593
 50
62.45185182430674
 51
117.548148175666
 73
     1
 72
     2
 10
87.09242546298975
 20
346.7282817917571
 40
1.458034083651465
 50
117.548148175663
 51
242.451851824338
 73
     1
 72
     2
 10
87.37336535482305
 20
347.2668568020604
 40
2.065479772208483
 50
242.4518518243399
 51
297.5481481756875
 73
     1
 72
     2
 10
87.65430524665635
 20
346.7282817917571
 40
1.458034083652028
 50
297.5481481757005
 51
422.4518518242985
 73
     1
 97
        4
330
18C
330
18B
330
18D
330
18A
 92
       16
 93
        4
 72
     2
 10
87.17362531847664
 20
346.7282817917571
 40
0.7717997786797298
 50
321.8795802028384
 51
398.1204197971516
 73
     1
 72
     2
 10
87.37336535482305
 20
346.8850129698776
 40
0.5179085730132998
 50
38.12041979714704
 51
141.8795802028588
 73
     1
 72
     2
 10
87.57310539116915
 20
346.7282817917571
 40
0.7717997786794457
 50
141.879580202838
 51
218.120419797172
 73
     1
 72
     2
 10
87.37336535482305
 20
346.5715506136371
 40
0.5179085730137529
 50
218.1204197971956
 51
321.8795802027985
 73
     1
 97
        4
330
1A8
330
1A5
330
1A6
330
1A7
 75
     1
 76
     0
 52
45.0
 41
0.1
 77
     0
 78
     1
 53
45.0
 43
0.0
 44
0.0
 45
-0.0707106781186548
 46
0.0707106781186548
 79
     0
 98
        1
 10
0.0
 20
0.0
  0
HATCH
  5
1E5
330
76
100
AcDbEntity
  8
1
  6
Continuous
 62
     2
100
AcDbHatch
 10
0.0
 20
0.0
 30
0.0
210
0.0
220
0.0
230
1.0
  2
_USER
 70
     0
 71
     1
 91
        2
 92
        1
 93
        4
 72
     2
 10
87.37336535482305
 20
346.1897067814543
 40
2.065479772208593
 50
62.45185182430674
 51
117.548148175666
 73
     1
 72
     2
 10
87.09242546298975
 20
346.7282817917571
 40
1.458034083651465
 50
117.548148175663
 51
242.451851824338
 73
     1
 72
     2
 10
87.37336535482305
 20
347.2668568020604
 40
2.065479772208483
 50
242.4518518243399
 51
297.5481481756875
 73
     1
 72
     2
 10
87.65430524665635
 20
346.7282817917571
 40
1.458034083652028
 50
297.5481481757005
 51
422.4518518242985
 73
     1
 97
        4
330
18C
330
18B
330
18D
330
18A
 92
       16
 93
        4
 72
     2
 10
87.17362531847664
 20
346.7282817917571
 40
0.7717997786797298
 50
321.8795802028384
 51
398.1204197971516
 73
     1
 72
     2
 10
87.37336535482305
 20
346.8850129698776
 40
0.5179085730132998
 50
38.12041979714704
 51
141.8795802028588
 73
     1
 72
     2
 10
87.57310539116915
 20
346.7282817917571
 40
0.7717997786794457
 50
141.879580202838
 51
218.120419797172
 73
     1
 72
     2
 10
87.37336535482305
 20
346.5715506136371
 40
0.5179085730137529
 50
218.1204197971956
 51
321.8795802027985
 73
     1
 97
        4
330
1A8
330
1A5
330
1A6
330
1A7
 75
     1
 76
     0
 52
45.0
 41
0.1
 77
     0
 78
     1
 53
45.0
 43
0.0
 44
0.0
 45
-0.0707106781186548
 46
0.0707106781186548
 79
     0
 98
        1
 10
0.0
 20
0.0
  0
HATCH
  5
1E6
330
76
100
AcDbEntity
  8
1
  6
Continuous
 62
     2
100
AcDbHatch
 10
0.0
 20
0.0
 30
0.0
210
0.0
220
0.0
230
1.0
  2
_USER
 70
     0
 71
     1
 91
        2
 92
        1
 93
       12
 72
     1
 10
94.26836054923234
 20
350.9163634243943
 11
92.93243272280466
 21
350.9163634243943
 72
     1
 10
92.93243272280466
 20
350.9163634243943
 11
92.93243272280466
 21
350.4364790706526
 72
     1
 10
92.93243272280466
 20
350.4364790706526
 11
94.26836054923234
 21
350.4364790706526
 72
     1
 10
94.26836054923234
 20
350.4364790706526
 11
94.26836054923234
 21
349.7384654652103
 72
     1
 10
94.26836054923234
 20
349.7384654652103
 11
92.93243272280466
 21
349.7384654652103
 72
     1
 10
92.93243272280466
 20
349.7384654652103
 11
92.93243272280466
 21
349.2585811114686
 72
     1
 10
92.93243272280466
 20
349.2585811114686
 11
94.26836054923234
 21
349.2585811114686
 72
     1
 10
94.26836054923234
 20
349.2585811114686
 11
94.26836054923234
 21
348.5605675060261
 72
     1
 10
94.26836054923234
 20
348.5605675060261
 11
91.11804082545135
 21
348.5605675060261
 72
     2
 10
91.11804082545135
 20
350.0874722679314
 40
1.526904761905939
 50
90.0
 51
270.0
 73
     0
 72
     1
 10
91.11804082545135
 20
351.6143770298373
 11
94.26836054923234
 21
351.6143770298373
 72
     1
 10
94.26836054923234
 20
351.6143770298373
 11
94.26836054923234
 21
350.9163634243943
 97
       12
330
143
330
195
330
144
330
145
330
146
330
147
330
124
330
123
330
122
330
121
330
148
330
142
 92
       16
 93
        4
 72
     2
 10
91.33431283561654
 20
350.2442034460519
 40
0.5179085730135266
 50
38.12041979714334
 51
141.8795802028489
 73
     1
 72
     2
 10
91.53405287196284
 20
350.0874722679314
 40
0.7717997786797075
 50
141.8795802028371
 51
218.1204197971529
 73
     1
 72
     2
 10
91.33431283561654
 20
349.930741089811
 40
0.5179085730134372
 50
218.1204197971511
 51
321.8795802028566
 73
     1
 72
     2
 10
91.13457279927036
 20
350.0874722679314
 40
0.7717997786796023
 50
321.8795802028471
 51
398.1204197971629
 73
     1
 97
        4
330
18F
330
18E
330
189
330
188
 75
     1
 76
     0
 52
45.0
 41
0.1
 77
     0
 78
     1
 53
45.0
 43
0.0
 44
0.0
 45
-0.0707106781186548
 46
0.0707106781186548
 79
     0
 98
        1
 10
0.0
 20
0.0
  0
HATCH
  5
1E7
330
76
100
AcDbEntity
  8
1
  6
Continuous
 62
     2
100
AcDbHatch
 10
0.0
 20
0.0
 30
0.0
210
0.0
220
0.0
230
1.0
  2
_USER
 70
     0
 71
     1
 91
        2
 92
        1
 93
       12
 72
     1
 10
94.26836054923234
 20
350.9163634243943
 11
92.93243272280466
 21
350.9163634243943
 72
     1
 10
92.93243272280466
 20
350.9163634243943
 11
92.93243272280466
 21
350.4364790706526
 72
     1
 10
92.93243272280466
 20
350.4364790706526
 11
94.26836054923234
 21
350.4364790706526
 72
     1
 10
94.26836054923234
 20
350.4364790706526
 11
94.26836054923234
 21
349.7384654652103
 72
     1
 10
94.26836054923234
 20
349.7384654652103
 11
92.93243272280466
 21
349.7384654652103
 72
     1
 10
92.93243272280466
 20
349.7384654652103
 11
92.93243272280466
 21
349.2585811114686
 72
     1
 10
92.93243272280466
 20
349.2585811114686
 11
94.26836054923234
 21
349.2585811114686
 72
     1
 10
94.26836054923234
 20
349.2585811114686
 11
94.26836054923234
 21
348.5605675060261
 72
     1
 10
94.26836054923234
 20
348.5605675060261
 11
91.11804082545135
 21
348.5605675060261
 72
     2
 10
91.11804082545135
 20
350.0874722679314
 40
1.526904761905939
 50
90.0
 51
270.0
 73
     0
 72
     1
 10
91.11804082545135
 20
351.6143770298373
 11
94.26836054923234
 21
351.6143770298373
 72
     1
 10
94.26836054923234
 20
351.6143770298373
 11
94.26836054923234
 21
350.9163634243943
 97
       12
330
143
330
195
330
144
330
145
330
146
330
147
330
124
330
123
330
122
330
121
330
148
330
142
 92
       16
 93
        4
 72
     2
 10
91.33431283561654
 20
350.2442034460519
 40
0.5179085730135266
 50
38.12041979714334
 51
141.8795802028489
 73
     1
 72
     2
 10
91.53405287196284
 20
350.0874722679314
 40
0.7717997786797075
 50
141.8795802028371
 51
218.1204197971529
 73
     1
 72
     2
 10
91.33431283561654
 20
349.930741089811
 40
0.5179085730134372
 50
218.1204197971511
 51
321.8795802028566
 73
     1
 72
     2
 10
91.13457279927036
 20
350.0874722679314
 40
0.7717997786796023
 50
321.8795802028471
 51
398.1204197971629
 73
     1
 97
        4
330
18F
330
18E
330
189
330
188
 75
     1
 76
     0
 52
45.0
 41
0.1
 77
     0
 78
     1
 53
45.0
 43
0.0
 44
0.0
 45
-0.0707106781186548
 46
0.0707106781186548
 79
     0
 98
        1
 10
0.0
 20
0.0
  0
HATCH
  5
1E8
330
76
100
AcDbEntity
  8
1
  6
Continuous
 62
     2
100
AcDbHatch
 10
0.0
 20
0.0
 30
0.0
210
0.0
220
0.0
230
1.0
  2
_USER
 70
     0
 71
     1
 91
        4
 92
        1
 93
        8
 72
     1
 10
82.34043352756274
 20
351.1901324144353
 11
82.34043352756274
 21
345.6256216452351
 72
     2
 10
81.91618891217885
 20
345.6256216452351
 40
0.4242446153833157
 50
0.0
 51
90.0
 73
     0
 72
     1
 10
81.91618891217885
 20
345.2013770298518
 11
76.44287682146205
 21
345.2013770298518
 72
     2
 10
76.44287682146205
 20
345.6256216452351
 40
0.4242446153828041
 50
90.0
 51
180.0
 73
     0
 72
     1
 10
76.01863220607925
 20
345.6256216452351
 11
76.01863220607925
 21
351.1901324144353
 72
     2
 10
76.44287682146205
 20
351.1901324144353
 40
0.4242446153837705
 50
180.0
 51
270.0
 73
     0
 72
     1
 10
76.44287682146205
 20
351.6143770298191
 11
81.91618891217885
 21
351.6143770298191
 72
     2
 10
81.91618891217885
 20
351.1901324144353
 40
0.4242446153838841
 50
270.0
 51
360.0
 73
     0
 97
        8
330
137
330
185
330
138
330
190
330
135
330
187
330
136
330
186
 92
       16
 93
        1
 72
     2
 10
79.06246247197956
 20
348.8712501860798
 40
0.4709789327785074
 50
0.0
 51
360.0
 73
     1
 97
        1
330
1AB
 92
       16
 93
        8
 72
     2
 10
79.61232018474024
 20
347.7621085861114
 40
0.3157169230764815
 50
115.3740086783563
 51
180.0
 73
     1
 72
     1
 10
79.29660326166345
 20
347.7621085861114
 11
79.29660326166345
 21
347.1802571794163
 72
     2
 10
79.61232018474024
 20
347.1802571794163
 40
0.315716923076792
 50
180.0
 51
269.8110329574541
 73
     1
 72
     2
 10
79.61793632005026
 20
348.8830921269853
 40
2.018561131933209
 50
269.8110329575858
 51
450.1889670424142
 73
     1
 72
     2
 10
79.61232018474024
 20
350.5859270745544
 40
0.3157169230760711
 50
90.18896704254594
 51
180.0
 73
     1
 72
     1
 10
79.29660326166345
 20
350.5859270745544
 11
79.29660326166345
 21
349.9803917860476
 72
     2
 10
79.61232018474024
 20
349.9803917860476
 40
0.315716923076792
 50
180.0
 51
244.6259913216482
 73
     1
 72
     2
 10
79.08627748665236
 20
348.8712501860798
 40
0.9118481501444847
 50
295.3740086781925
 51
424.6259913218244
 73
     0
 97
        8
330
19D
330
FE
330
19A
330
19B
330
179
330
FD
330
19C
330
178
 92
       16
 93
       12
 72
     2
 10
77.03677149820854
 20
346.2296495084854
 40
0.3157169230756836
 50
180.0
 51
270.0
 73
     1
 72
     1
 10
77.03677149820854
 20
345.9139325854087
 11
78.51260475921816
 21
345.9139325854087
 72
     2
 10
78.51260475921816
 20
346.2296495084854
 40
0.3157169230767067
 50
270.0
 51
360.0
 73
     1
 72
     1
 10
78.82832168229476
 20
346.2296495084854
 11
78.82832168229476
 21
347.760420440017
 72
     2
 10
78.51260475921816
 20
347.760420440017
 40
0.315716923076593
 50
0.0
 51
64.80558935146027
 73
     1
 72
     2
 10
79.03518920679315
 20
348.8712501860798
 40
0.9118975235575889
 50
115.1944106485122
 51
244.805589351471
 73
     0
 72
     2
 10
78.51260475921816
 20
349.982079932142
 40
0.3157169230761717
 50
295.1944106485354
 51
360.0
 73
     1
 72
     1
 10
78.82832168229476
 20
349.982079932142
 11
78.82832168229476
 21
350.5861045512025
 72
     2
 10
78.51260475921816
 20
350.5861045512025
 40
0.315716923076593
 50
0.0
 51
90.0
 73
     1
 72
     1
 10
78.51260475921816
 20
350.9018214742787
 11
77.03677149820854
 21
350.9018214742787
 72
     2
 10
77.03677149820854
 20
350.5861045512025
 40
0.3157169230761951
 50
90.0
 51
180.0
 73
     1
 72
     1
 10
76.72105457513285
 20
350.5861045512025
 11
76.72105457513285
 21
346.2296495084854
 97
       12
330
181
330
139
330
184
330
134
330
191
330
192
330
183
330
133
330
182
330
132
330
193
330
131
 75
     1
 76
     0
 52
45.0
 41
0.1
 77
     0
 78
     1
 53
45.0
 43
0.0
 44
0.0
 45
-0.0707106781186548
 46
0.0707106781186548
 79
     0
 98
        1
 10
0.0
 20
0.0
  0
HATCH
  5
1E9
330
76
100
AcDbEntity
  8
1
  6
Continuous
 62
     2
100
AcDbHatch
 10
0.0
 20
0.0
 30
0.0
210
0.0
220
0.0
230
1.0
  2
_USER
 70
     0
 71
     1
 91
        4
 92
        1
 93
        8
 72
     1
 10
82.34043352756274
 20
351.1901324144353
 11
82.34043352756274
 21
345.6256216452351
 72
     2
 10
81.91618891217885
 20
345.6256216452351
 40
0.4242446153833157
 50
0.0
 51
90.0
 73
     0
 72
     1
 10
81.91618891217885
 20
345.2013770298518
 11
76.44287682146205
 21
345.2013770298518
 72
     2
 10
76.44287682146205
 20
345.6256216452351
 40
0.4242446153828041
 50
90.0
 51
180.0
 73
     0
 72
     1
 10
76.01863220607925
 20
345.6256216452351
 11
76.01863220607925
 21
351.1901324144353
 72
     2
 10
76.44287682146205
 20
351.1901324144353
 40
0.4242446153837705
 50
180.0
 51
270.0
 73
     0
 72
     1
 10
76.44287682146205
 20
351.6143770298191
 11
81.91618891217885
 21
351.6143770298191
 72
     2
 10
81.91618891217885
 20
351.1901324144353
 40
0.4242446153838841
 50
270.0
 51
360.0
 73
     0
 97
        8
330
137
330
185
330
138
330
190
330
135
330
187
330
136
330
186
 92
       16
 93
        1
 72
     2
 10
79.06246247197956
 20
348.8712501860798
 40
0.4709789327785074
 50
0.0
 51
360.0
 73
     1
 97
        1
330
1AB
 92
       16
 93
        8
 72
     2
 10
79.61232018474024
 20
347.7621085861114
 40
0.3157169230764815
 50
115.3740086783563
 51
180.0
 73
     1
 72
     1
 10
79.29660326166345
 20
347.7621085861114
 11
79.29660326166345
 21
347.1802571794163
 72
     2
 10
79.61232018474024
 20
347.1802571794163
 40
0.315716923076792
 50
180.0
 51
269.8110329574541
 73
     1
 72
     2
 10
79.61793632005026
 20
348.8830921269853
 40
2.018561131933209
 50
269.8110329575858
 51
450.1889670424142
 73
     1
 72
     2
 10
79.61232018474024
 20
350.5859270745544
 40
0.3157169230760711
 50
90.18896704254594
 51
180.0
 73
     1
 72
     1
 10
79.29660326166345
 20
350.5859270745544
 11
79.29660326166345
 21
349.9803917860476
 72
     2
 10
79.61232018474024
 20
349.9803917860476
 40
0.315716923076792
 50
180.0
 51
244.6259913216482
 73
     1
 72
     2
 10
79.08627748665236
 20
348.8712501860798
 40
0.9118481501444847
 50
295.3740086781925
 51
424.6259913218244
 73
     0
 97
        8
330
19D
330
FE
330
19A
330
19B
330
179
330
FD
330
19C
330
178
 92
       16
 93
       12
 72
     2
 10
77.03677149820854
 20
346.2296495084854
 40
0.3157169230756836
 50
180.0
 51
270.0
 73
     1
 72
     1
 10
77.03677149820854
 20
345.9139325854087
 11
78.51260475921816
 21
345.9139325854087
 72
     2
 10
78.51260475921816
 20
346.2296495084854
 40
0.3157169230767067
 50
270.0
 51
360.0
 73
     1
 72
     1
 10
78.82832168229476
 20
346.2296495084854
 11
78.82832168229476
 21
347.760420440017
 72
     2
 10
78.51260475921816
 20
347.760420440017
 40
0.315716923076593
 50
0.0
 51
64.80558935146027
 73
     1
 72
     2
 10
79.03518920679315
 20
348.8712501860798
 40
0.9118975235575889
 50
115.1944106485122
 51
244.805589351471
 73
     0
 72
     2
 10
78.51260475921816
 20
349.982079932142
 40
0.3157169230761717
 50
295.1944106485354
 51
360.0
 73
     1
 72
     1
 10
78.82832168229476
 20
349.982079932142
 11
78.82832168229476
 21
350.5861045512025
 72
     2
 10
78.51260475921816
 20
350.5861045512025
 40
0.315716923076593
 50
0.0
 51
90.0
 73
     1
 72
     1
 10
78.51260475921816
 20
350.9018214742787
 11
77.03677149820854
 21
350.9018214742787
 72
     2
 10
77.03677149820854
 20
350.5861045512025
 40
0.3157169230761951
 50
90.0
 51
180.0
 73
     1
 72
     1
 10
76.72105457513285
 20
350.5861045512025
 11
76.72105457513285
 21
346.2296495084854
 97
       12
330
181
330
139
330
184
330
134
330
191
330
192
330
183
330
133
330
182
330
132
330
193
330
131
 75
     1
 76
     0
 52
45.0
 41
0.1
 77
     0
 78
     1
 53
45.0
 43
0.0
 44
0.0
 45
-0.0707106781186548
 46
0.0707106781186548
 79
     0
 98
        1
 10
0.0
 20
0.0
  0
HATCH
  5
1EA
330
76
100
AcDbEntity
  8
1
  6
Continuous
 62
     2
100
AcDbHatch
 10
0.0
 20
0.0
 30
0.0
210
0.0
220
0.0
230
1.0
  2
_USER
 70
     0
 71
     1
 91
        1
 92
        1
 93
       18
 72
     1
 10
103.9299814367838
 20
347.4699212475393
 11
103.1188823993104
 21
347.4699212475393
 72
     1
 10
103.1188823993104
 20
347.4699212475393
 11
103.1188823993104
 21
345.2013770298518
 72
     1
 10
103.1188823993104
 20
345.2013770298518
 11
101.9260896971427
 21
345.2013770298518
 72
     1
 10
101.9260896971427
 20
345.2013770298518
 11
101.9260896971427
 21
347.4699212475393
 72
     1
 10
101.9260896971427
 20
347.4699212475393
 11
100.8224503975746
 21
347.4699212475393
 72
     2
 10
100.8224503975746
 20
346.5153982407132
 40
0.9545230068260935
 50
90.0
 51
109.3371432194301
 73
     1
 72
     2
 10
100.6757803994709
 20
346.9333532210961
 40
0.5115800601944096
 50
109.3371432194838
 51
151.4785267424245
 73
     1
 72
     2
 10
101.0531376575522
 20
346.7282817917571
 40
0.9410597353347915
 50
151.4785267423611
 51
208.5214732576724
 73
     1
 72
     2
 10
100.6757803994709
 20
346.5232103624186
 40
0.511580060195982
 50
208.5214732576817
 51
246.6277221118464
 73
     1
 72
     2
 10
100.832220432174
 20
346.8852023811286
 40
0.9059297849852744
 50
246.6277221118191
 51
288.448076118084
 73
     1
 72
     2
 10
100.4140526985121
 20
348.1387481571652
 40
2.227384008972665
 50
288.4480761181342
 51
301.9309089499406
 73
     1
 72
     1
 10
101.592107740536
 20
346.2483974380155
 11
101.592107740536
 21
345.3758804312121
 72
     2
 10
100.2561798234193
 20
350.0409627370135
 40
4.852596863498824
 50
74.02000874166154
 51
84.8418552303638
 73
     0
 72
     2
 10
100.5450359181551
 20
346.8410721537919
 40
1.639695123940476
 50
84.84185523032329
 51
164.9381082228991
 73
     0
 72
     2
 10
100.1259080746935
 20
346.7282817917571
 40
1.205656168393029
 50
164.9381082229033
 51
195.0618917770941
 73
     0
 72
     2
 10
100.5450359181551
 20
346.6154914297222
 40
1.639695123940157
 50
195.0618917771029
 51
270.0
 73
     0
 72
     1
 10
100.5450359181551
 20
348.2551865536624
 11
103.9299814367838
 21
348.2551865536629
 72
     1
 10
103.9299814367838
 20
348.2551865536629
 11
103.9299814367838
 21
347.4699212475393
 97
       18
330
100
330
196
330
197
330
17F
330
17E
330
164
330
17D
330
17C
330
198
330
17B
330
199
330
17A
330
165
330
FF
330
104
330
103
330
102
330
101
 75
     1
 76
     0
 52
45.0
 41
0.1
 77
     0
 78
     1
 53
45.0
 43
0.0
 44
0.0
 45
-0.0707106781186548
 46
0.0707106781186548
 79
     0
 98
        1
 10
0.0
 20
0.0
  0
HATCH
  5
1EB
330
76
100
AcDbEntity
  8
1
  6
Continuous
 62
     2
100
AcDbHatch
 10
0.0
 20
0.0
 30
0.0
210
0.0
220
0.0
230
1.0
  2
_USER
 70
     0
 71
     1
 91
        1
 92
        1
 93
       18
 72
     1
 10
103.9299814367838
 20
347.4699212475393
 11
103.1188823993104
 21
347.4699212475393
 72
     1
 10
103.1188823993104
 20
347.4699212475393
 11
103.1188823993104
 21
345.2013770298518
 72
     1
 10
103.1188823993104
 20
345.2013770298518
 11
101.9260896971427
 21
345.2013770298518
 72
     1
 10
101.9260896971427
 20
345.2013770298518
 11
101.9260896971427
 21
347.4699212475393
 72
     1
 10
101.9260896971427
 20
347.4699212475393
 11
100.8224503975746
 21
347.4699212475393
 72
     2
 10
100.8224503975746
 20
346.5153982407132
 40
0.9545230068260935
 50
90.0
 51
109.3371432194301
 73
     1
 72
     2
 10
100.6757803994709
 20
346.9333532210961
 40
0.5115800601944096
 50
109.3371432194838
 51
151.4785267424245
 73
     1
 72
     2
 10
101.0531376575522
 20
346.7282817917571
 40
0.9410597353347915
 50
151.4785267423611
 51
208.5214732576724
 73
     1
 72
     2
 10
100.6757803994709
 20
346.5232103624186
 40
0.511580060195982
 50
208.5214732576817
 51
246.6277221118464
 73
     1
 72
     2
 10
100.832220432174
 20
346.8852023811286
 40
0.9059297849852744
 50
246.6277221118191
 51
288.448076118084
 73
     1
 72
     2
 10
100.4140526985121
 20
348.1387481571652
 40
2.227384008972665
 50
288.4480761181342
 51
301.9309089499406
 73
     1
 72
     1
 10
101.592107740536
 20
346.2483974380155
 11
101.592107740536
 21
345.3758804312121
 72
     2
 10
100.2561798234193
 20
350.0409627370135
 40
4.852596863498824
 50
74.02000874166154
 51
84.8418552303638
 73
     0
 72
     2
 10
100.5450359181551
 20
346.8410721537919
 40
1.639695123940476
 50
84.84185523032329
 51
164.9381082228991
 73
     0
 72
     2
 10
100.1259080746935
 20
346.7282817917571
 40
1.205656168393029
 50
164.9381082229033
 51
195.0618917770941
 73
     0
 72
     2
 10
100.5450359181551
 20
346.6154914297222
 40
1.639695123940157
 50
195.0618917771029
 51
270.0
 73
     0
 72
     1
 10
100.5450359181551
 20
348.2551865536624
 11
103.9299814367838
 21
348.2551865536629
 72
     1
 10
103.9299814367838
 20
348.2551865536629
 11
103.9299814367838
 21
347.4699212475393
 97
       18
330
100
330
196
330
197
330
17F
330
17E
330
164
330
17D
330
17C
330
198
330
17B
330
199
330
17A
330
165
330
FF
330
104
330
103
330
102
330
101
 75
     1
 76
     0
 52
45.0
 41
0.1
 77
     0
 78
     1
 53
45.0
 43
0.0
 44
0.0
 45
-0.0707106781186548
 46
0.0707106781186548
 79
     0
 98
        1
 10
0.0
 20
0.0
  0
HATCH
  5
1EC
330
76
100
AcDbEntity
  8
1
  6
Continuous
 62
     2
100
AcDbHatch
 10
0.0
 20
0.0
 30
0.0
210
0.0
220
0.0
230
1.0
  2
_USER
 70
     0
 71
     1
 91
        1
 92
        1
 93
       14
 72
     2
 10
84.44233443890215
 20
346.6154914297222
 40
1.639695123940507
 50
84.84185523036236
 51
164.9381082228884
 73
     1
 72
     2
 10
84.02320659543935
 20
346.7282817917571
 40
1.205656168390929
 50
164.9381082228791
 51
195.0618917770974
 73
     1
 72
     2
 10
84.44233443890215
 20
346.8410721537919
 40
1.639695123939395
 50
195.0618917770906
 51
275.1581447696395
 73
     1
 72
     2
 10
84.15347834416625
 20
350.0409627370135
 40
4.852596863498166
 50
275.1581447696249
 51
285.9799912583529
 73
     1
 72
     1
 10
85.48940626128405
 20
345.3758804312127
 11
85.48940626128405
 21
346.2483974380159
 72
     2
 10
84.31135121925917
 20
348.1387481571658
 40
2.227384008972764
 50
58.06909105004111
 51
71.55192388186742
 73
     0
 72
     2
 10
84.72951895291996
 20
346.8852023811286
 40
0.9059297849849192
 50
71.55192388184098
 51
113.372277888129
 73
     0
 72
     2
 10
84.57307892021794
 20
346.5232103624186
 40
0.5115800601948034
 50
113.3722778881726
 51
151.4785267423044
 73
     0
 72
     2
 10
84.95043617829825
 20
346.7282817917571
 40
0.9410597353332545
 50
151.4785267422912
 51
208.5214732577331
 73
     0
 72
     2
 10
84.57307892021794
 20
346.9333532210961
 40
0.5115800601948517
 50
208.5214732576956
 51
246.6277221117996
 73
     0
 72
     2
 10
84.72951895291996
 20
346.5713612023855
 40
0.9059297849853228
 50
246.627722111871
 51
288.4480761181465
 73
     0
 72
     2
 10
84.31135121925917
 20
345.3178154263489
 40
2.227384008973501
 50
288.4480761181326
 51
301.9309089499589
 73
     0
 72
     1
 10
85.48940626128405
 20
347.2081661454988
 11
85.48940626128405
 21
348.0806831523021
 72
     2
 10
84.15347834416625
 20
343.4156008465012
 40
4.85259686349804
 50
74.02000874164729
 51
84.84185523037509
 73
     1
 97
       14
330
19E
330
19F
330
1A0
330
1A1
330
166
330
177
330
176
330
175
330
1A2
330
1A3
330
174
330
1A4
330
167
330
173
 75
     1
 76
     0
 52
45.0
 41
0.1
 77
     0
 78
     1
 53
45.0
 43
0.0
 44
0.0
 45
-0.0707106781186548
 46
0.0707106781186548
 79
     0
 98
        1
 10
0.0
 20
0.0
  0
HATCH
  5
1ED
330
76
100
AcDbEntity
  8
1
  6
Continuous
 62
     2
100
AcDbHatch
 10
0.0
 20
0.0
 30
0.0
210
0.0
220
0.0
230
1.0
  2
_USER
 70
     0
 71
     1
 91
        1
 92
        1
 93
       14
 72
     2
 10
84.44233443890215
 20
346.6154914297222
 40
1.639695123940507
 50
84.84185523036236
 51
164.9381082228884
 73
     1
 72
     2
 10
84.02320659543935
 20
346.7282817917571
 40
1.205656168390929
 50
164.9381082228791
 51
195.0618917770974
 73
     1
 72
     2
 10
84.44233443890215
 20
346.8410721537919
 40
1.639695123939395
 50
195.0618917770906
 51
275.1581447696395
 73
     1
 72
     2
 10
84.15347834416625
 20
350.0409627370135
 40
4.852596863498166
 50
275.1581447696249
 51
285.9799912583529
 73
     1
 72
     1
 10
85.48940626128405
 20
345.3758804312127
 11
85.48940626128405
 21
346.2483974380159
 72
     2
 10
84.31135121925917
 20
348.1387481571658
 40
2.227384008972764
 50
58.06909105004111
 51
71.55192388186742
 73
     0
 72
     2
 10
84.72951895291996
 20
346.8852023811286
 40
0.9059297849849192
 50
71.55192388184098
 51
113.372277888129
 73
     0
 72
     2
 10
84.57307892021794
 20
346.5232103624186
 40
0.5115800601948034
 50
113.3722778881726
 51
151.4785267423044
 73
     0
 72
     2
 10
84.95043617829825
 20
346.7282817917571
 40
0.9410597353332545
 50
151.4785267422912
 51
208.5214732577331
 73
     0
 72
     2
 10
84.57307892021794
 20
346.9333532210961
 40
0.5115800601948517
 50
208.5214732576956
 51
246.6277221117996
 73
     0
 72
     2
 10
84.72951895291996
 20
346.5713612023855
 40
0.9059297849853228
 50
246.627722111871
 51
288.4480761181465
 73
     0
 72
     2
 10
84.31135121925917
 20
345.3178154263489
 40
2.227384008973501
 50
288.4480761181326
 51
301.9309089499589
 73
     0
 72
     1
 10
85.48940626128405
 20
347.2081661454988
 11
85.48940626128405
 21
348.0806831523021
 72
     2
 10
84.15347834416625
 20
343.4156008465012
 40
4.85259686349804
 50
74.02000874164729
 51
84.84185523037509
 73
     1
 97
       14
330
19E
330
19F
330
1A0
330
1A1
330
166
330
177
330
176
330
175
330
1A2
330
1A3
330
174
330
1A4
330
167
330
173
 75
     1
 76
     0
 52
45.0
 41
0.1
 77
     0
 78
     1
 53
45.0
 43
0.0
 44
0.0
 45
-0.0707106781186548
 46
0.0707106781186548
 79
     0
 98
        1
 10
0.0
 20
0.0
  0
ENDBLK
  5
78
330
76
100
AcDbEntity
  8
0
100
AcDbBlockEnd
  0
BLOCK
  5
7A
330
79
100
AcDbEntity
  8
0
100
AcDbBlockBegin
  2
_punkt
 70
     0
 10
201.3267818462667
 20
337.9078770298355
 30
0.0
  3
_punkt
  1

  0
LINE
  5
1EE
330
79
100
AcDbEntity
  8
1
  6
Continuous
 62
     2
100
AcDbLine
 10
201.3267818462667
 20
337.9078770298355
 30
0.0
 11
206.3267818462657
 21
337.9078770298355
 31
0.0
  0
LINE
  5
1EF
330
79
100
AcDbEntity
  8
1
  6
Continuous
 62
     2
100
AcDbLine
 10
201.3267818462667
 20
337.9078770298355
 30
0.0
 11
201.3267818462667
 21
332.9078770298354
 31
0.0
  0
ENDBLK
  5
7B
330
79
100
AcDbEntity
  8
0
100
AcDbBlockEnd
  0
BLOCK
  5
7F
330
7C
100
AcDbEntity
  8
0
100
AcDbBlockBegin
  2
A4I_CS
 70
     0
 10
201.3267818462667
 20
332.9078770298354
 30
0.0
  3
A4I_CS
  1

  0
INSERT
  5
7D
330
7C
100
AcDbEntity
  8
1
100
AcDbBlockReference
  2
_rahmen
 10
201.3267818462667
 20
332.9078770298354
 30
0.0
  0
INSERT
  5
7E
330
7C
100
AcDbEntity
  8
1
100
AcDbBlockReference
  2
_punkt
 10
201.3267818462667
 20
337.9078770298355
 30
0.0
  0
ENDBLK
  5
80
330
7C
100
AcDbEntity
  8
0
100
AcDbBlockEnd
  0
BLOCK
  5
82
330
81
100
AcDbEntity
  8
0
100
AcDbBlockBegin
  2
PSBJ_GSK_FARBLOS-select__1
 70
     0
 10
99.03165627274615
 20
394.1836286795909
 30
0.0
  3
PSBJ_GSK_FARBLOS-select__1
  1

  0
LINE
  5
1F0
330
81
100
AcDbEntity
  8
0
  6
Continuous
 62
     7
100
AcDbLine
 10
109.0239431258848
 20
397.7000061611334
 30
0.0
 11
109.0239431258848
 21
395.0586286795909
 31
0.0
  0
LINE
  5
1F1
330
81
100
AcDbEntity
  8
0
  6
Continuous
 62
     7
100
AcDbLine
 10
111.8504205153521
 20
396.8840724202997
 30
0.0
 11
111.6610020024606
 21
399.1038163444645
 31
0.0
  0
LINE
  5
1F2
330
81
100
AcDbEntity
  8
0
  6
Continuous
 62
     7
100
AcDbLine
 10
111.8504205153521
 20
396.8840724202997
 30
0.0
 11
115.5504205153521
 21
400.0883664143021
 31
0.0
  0
LINE
  5
1F3
330
81
100
AcDbEntity
  8
0
  6
Continuous
 62
     7
100
AcDbLine
 10
113.7788296712261
 20
402.7648441491382
 30
0.0
 11
113.5894111583346
 21
404.984588073303
 31
0.0
  0
LINE
  5
1F4
330
81
100
AcDbEntity
  8
0
  6
Continuous
 62
     7
100
AcDbLine
 10
115.3610020024606
 20
402.308110338467
 30
0.0
 11
113.7788296712261
 21
402.7648441491382
 31
0.0
  0
LINE
  5
1F5
330
81
100
AcDbEntity
  8
0
  6
Continuous
 62
     7
100
AcDbLine
 10
109.8894111583346
 20
401.7802940793006
 30
0.0
 11
113.5894111583346
 21
404.984588073303
 31
0.0
  0
LINE
  5
1F6
330
81
100
AcDbEntity
  8
0
  6
Continuous
 62
     7
100
AcDbLine
 10
113.5894111583346
 20
404.984588073303
 30
0.0
 11
111.8573603507658
 21
407.2166388808719
 31
0.0
  0
LINE
  5
1F7
330
81
100
AcDbEntity
  8
0
  6
Continuous
 62
     7
100
AcDbLine
 10
111.0239431258848
 20
420.9527882527457
 30
0.0
 11
111.0239431258848
 21
414.0245850224702
 31
0.0
  0
LINE
  5
1F8
330
81
100
AcDbEntity
  8
0
  6
Continuous
 62
     7
100
AcDbLine
 10
105.0739431258847
 20
407.2890134547743
 30
0.0
 11
105.0739431258847
 21
406.403561469167
 31
0.0
  0
LINE
  5
1F9
330
81
100
AcDbEntity
  8
0
  6
Continuous
 62
     7
100
AcDbLine
 10
102.4090480094248
 20
405.6717397256991
 30
0.0
 11
102.0680946862201
 21
401.8730501551358
 31
0.0
  0
LINE
  5
1FA
330
81
100
AcDbEntity
  8
0
  6
Continuous
 62
     7
100
AcDbLine
 10
103.0005376528772
 20
407.175307153914
 30
0.0
 11
103.8590480094248
 21
406.9274765611866
 31
0.0
  0
LINE
  5
1FB
330
81
100
AcDbEntity
  8
0
  6
Continuous
 62
     7
100
AcDbLine
 10
104.6327171587616
 20
407.5974936986366
 30
0.0
 11
102.4090480094248
 21
405.6717397256991
 31
0.0
  0
LINE
  5
1FC
330
81
100
AcDbEntity
  8
0
  6
Continuous
 62
     7
100
AcDbLine
 10
109.7272028881081
 20
420.1113398676596
 30
0.0
 11
109.0648806303651
 21
420.022605510614
 31
0.0
  0
LINE
  5
1FD
330
81
100
AcDbEntity
  8
0
  6
Continuous
 62
     7
100
AcDbLine
 10
109.0648806303651
 20
420.022605510614
 30
0.0
 11
109.0648806303651
 21
419.7650206139537
 31
0.0
  0
LINE
  5
1FE
330
81
100
AcDbEntity
  8
0
  6
Continuous
 62
     7
100
AcDbLine
 10
109.4739431258848
 20
407.2890134547743
 30
0.0
 11
109.4739431258848
 21
406.403561469167
 31
0.0
  0
LINE
  5
1FF
330
81
100
AcDbEntity
  8
0
  6
Continuous
 62
     7
100
AcDbLine
 10
109.8894111583346
 20
401.7802940793006
 30
0.0
 11
108.1573603507657
 21
404.0123448868695
 31
0.0
  0
LINE
  5
200
330
81
100
AcDbEntity
  8
0
  6
Continuous
 62
     7
100
AcDbLine
 10
108.1573603507657
 20
404.0123448868695
 30
0.0
 11
111.8573603507658
 21
407.2166388808719
 31
0.0
  0
LINE
  5
201
330
81
100
AcDbEntity
  8
0
  6
Continuous
 62
     7
100
AcDbLine
 10
110.0488217638015
 20
407.7387190008838
 30
0.0
 11
111.8573603507658
 21
407.2166388808719
 31
0.0
  0
LINE
  5
202
330
81
100
AcDbEntity
  8
0
  6
Continuous
 62
     7
100
AcDbLine
 10
100.7690565805434
 20
402.2480501551358
 30
0.0
 11
102.0680946862201
 21
401.8730501551358
 31
0.0
  0
LINE
  5
203
330
81
100
AcDbEntity
  8
0
  6
Continuous
 62
     7
100
AcDbLine
 10
100.7690565805434
 20
403.5470882608125
 30
0.0
 11
102.3404978282107
 21
404.9079963018471
 31
0.0
  0
LINE
  5
204
330
81
100
AcDbEntity
  8
0
  6
Continuous
 62
     7
100
AcDbLine
 10
105.5239431258848
 20
398.7103691322153
 30
0.0
 11
105.5239431258848
 21
395.0586286795909
 31
0.0
  0
LINE
  5
205
330
81
100
AcDbEntity
  8
0
  6
Continuous
 62
     7
100
AcDbLine
 10
100.7690565805434
 20
402.2480501551358
 30
0.0
 11
102.2140750900443
 21
403.4994728933023
 31
0.0
  0
LINE
  5
206
330
81
100
AcDbEntity
  8
0
  6
Continuous
 62
     7
100
AcDbLine
 10
100.7690565805434
 20
403.5470882608125
 30
0.0
 11
100.7690565805434
 21
402.2480501551358
 31
0.0
  0
LINE
  5
207
330
81
100
AcDbEntity
  8
0
  6
Continuous
 62
     7
100
AcDbLine
 10
99.30053765287718
 20
403.9710131599116
 30
0.0
 11
100.7690565805434
 21
403.5470882608125
 31
0.0
  0
LINE
  5
208
330
81
100
AcDbEntity
  8
0
  6
Continuous
 62
     7
100
AcDbLine
 10
103.0005376528772
 20
407.175307153914
 30
0.0
 11
99.30053765287718
 21
403.9710131599116
 31
0.0
  0
LINE
  5
209
330
81
100
AcDbEntity
  8
0
  6
Continuous
 62
     7
100
AcDbLine
 10
110.2739431258848
 20
408.3088173574928
 30
0.0
 11
110.2739431258848
 21
412.8995850224702
 31
0.0
  0
LINE
  5
20A
330
81
100
AcDbEntity
  8
0
  6
Continuous
 62
     7
100
AcDbLine
 10
103.5239431258848
 20
420.9527882527457
 30
0.0
 11
103.5239431258848
 21
414.0245850224702
 31
0.0
  0
LINE
  5
20B
330
81
100
AcDbEntity
  8
0
  6
Continuous
 62
     7
100
AcDbLine
 10
104.2739431258848
 20
408.3088173574928
 30
0.0
 11
104.2739431258848
 21
412.8995850224702
 31
0.0
  0
LINE
  5
20C
330
81
100
AcDbEntity
  8
0
  6
Continuous
 62
     7
100
AcDbLine
 10
102.4090480094248
 20
405.6717397256991
 30
0.0
 11
108.1573603507657
 21
404.0123448868695
 31
0.0
  0
LINE
  5
20D
330
81
100
AcDbEntity
  8
0
  6
Continuous
 62
     7
100
AcDbLine
 10
99.30053765287718
 20
403.9710131599116
 30
0.0
 11
99.03865351706531
 21
401.0532632284724
 31
0.0
  0
LINE
  5
20E
330
81
100
AcDbEntity
  8
0
  6
Continuous
 62
     7
100
AcDbLine
 10
110.0788296712261
 20
399.5605501551358
 30
0.0
 11
109.8894111583346
 21
401.7802940793006
 31
0.0
  0
LINE
  5
20F
330
81
100
AcDbEntity
  8
0
  6
Continuous
 62
     7
100
AcDbLine
 10
111.6610020024606
 20
399.1038163444645
 30
0.0
 11
110.0788296712261
 21
399.5605501551358
 31
0.0
  0
LINE
  5
210
330
81
100
AcDbEntity
  8
0
  6
Continuous
 62
     7
100
AcDbLine
 10
113.7788296712261
 20
402.7648441491382
 30
0.0
 11
110.0788296712261
 21
399.5605501551358
 31
0.0
  0
LINE
  5
211
330
81
100
AcDbEntity
  8
0
  6
Continuous
 62
     7
100
AcDbLine
 10
111.6610020024606
 20
399.1038163444645
 30
0.0
 11
115.3610020024606
 21
402.308110338467
 31
0.0
  0
LINE
  5
212
330
81
100
AcDbEntity
  8
0
  6
Continuous
 62
     7
100
AcDbLine
 10
115.5504205153521
 20
400.0883664143021
 30
0.0
 11
115.3610020024606
 21
402.308110338467
 31
0.0
  0
LINE
  5
213
330
81
100
AcDbEntity
  8
0
  6
Continuous
 62
     7
100
AcDbLine
 10
99.47001847489673
 20
400.4579866456661
 30
0.0
 11
111.8504205153521
 21
396.8840724202997
 31
0.0
  0
SPLINE
  5
214
330
81
100
AcDbEntity
  8
0
  6
Continuous
 62
     7
100
AcDbSpline
210
0.0
220
0.0
230
1.0
 70
  1064
 71
     3
 72
     9
 73
     5
 74
     3
 42
0.000000001
 43
0.0000000001
 44
0.00000001
 40
0.0
 40
0.0
 40
0.0
 40
0.0
 40
0.2341855867212824
 40
0.5082275079408088
 40
0.5082275079408088
 40
0.5082275079408088
 40
0.5082275079408088
 10
109.0239431258848
 20
395.0586286795909
 30
0.0
 10
109.010960440483
 20
394.9795974473022
 30
0.0
 10
108.9827855122043
 20
394.8080845662163
 30
0.0
 10
108.8572030504757
 20
394.6866224156507
 30
0.0
 10
108.7894875825075
 20
394.6211286795909
 30
0.0
 11
109.0239431258848
 21
395.0586286795909
 31
0.0
 11
108.9643128712282
 21
394.8321620755036
 31
0.0
 11
108.7894875825075
 21
394.6211286795909
 31
0.0
  0
SPLINE
  5
215
330
81
100
AcDbEntity
  8
0
  6
Continuous
 62
     7
100
AcDbSpline
210
0.0
220
0.0
230
1.0
 70
  1064
 71
     3
 72
    17
 73
    13
 74
    11
 42
0.000000001
 43
0.0000000001
 44
0.00000001
 40
0.0
 40
0.0
 40
0.0
 40
0.0
 40
0.3319398748172585
 40
0.7201360215051188
 40
1.151159625126779
 40
1.605073089436847
 40
2.058986553969956
 40
2.490010158500666
 40
2.878206304581355
 40
3.210146173724986
 40
3.484188097001279
 40
3.718373676932098
 40
3.718373676932098
 40
3.718373676932098
 40
3.718373676932098
 10
108.7894875825075
 20
394.6211286795909
 30
0.0
 10
108.6991231540337
 20
394.5564657252486
 30
0.0
 10
108.5030795716767
 20
394.4161809248695
 30
0.0
 10
108.1369218617031
 20
394.2880133558505
 30
0.0
 10
107.7208852473277
 20
394.2021514254653
 30
0.0
 10
107.2738780787117
 20
394.1740282869166
 30
0.0
 10
106.8272545818189
 20
394.2025392199432
 30
0.0
 10
106.4101602451814
 20
394.2866131453739
 30
0.0
 10
106.0473086309824
 20
394.4205770011188
 30
0.0
 10
105.7668633040398
 20
394.5970208018965
 30
0.0
 10
105.566216410734
 20
394.8100460734283
 30
0.0
 10
105.5372777389021
 20
394.9802161835041
 30
0.0
 10
105.5239431258848
 20
395.0586286795909
 30
0.0
 11
108.7894875825075
 21
394.6211286795909
 31
0.0
 11
108.5113796630534
 21
394.4399104110066
 31
0.0
 11
108.1489431258848
 21
394.3008564512795
 31
0.0
 11
107.7268763340595
 21
394.2134438069192
 31
0.0
 11
107.2739431258848
 21
394.1836286795909
 31
0.0
 11
106.82100991771
 21
394.2134438069192
 31
0.0
 11
106.3989431258848
 21
394.3008564512795
 31
0.0
 11
106.0365065887161
 21
394.4399104110066
 31
0.0
 11
105.758398669262
 21
394.6211286795909
 31
0.0
 11
105.5835733805414
 21
394.8321620755036
 31
0.0
 11
105.5239431258848
 21
395.0586286795909
 31
0.0
  0
SPLINE
  5
216
330
81
100
AcDbEntity
  8
0
  6
Continuous
 62
     7
100
AcDbSpline
210
0.0
220
0.0
230
1.0
 70
  1064
 71
     3
 72
    11
 73
     7
 74
     5
 42
0.000000001
 43
0.0000000001
 44
0.00000001
 40
0.0
 40
0.0
 40
0.0
 40
0.0
 40
0.3089575394807796
 40
0.5896692136020054
 40
0.8485546374522617
 40
1.095385040688625
 40
1.095385040688625
 40
1.095385040688625
 40
1.095385040688625
 10
110.5215383900764
 20
413.0870850224702
 30
0.0
 10
110.5968686768129
 20
413.157762595981
 30
0.0
 10
110.7406423091686
 20
413.292656187969
 30
0.0
 10
110.9001616826126
 20
413.5283718719967
 30
0.0
 10
111.0043820878039
 20
413.773025906865
 30
0.0
 10
111.0175272339451
 20
413.9420752231281
 30
0.0
 10
111.0239431258848
 20
414.0245850224702
 30
0.0
 11
110.5215383900764
 21
413.0870850224702
 31
0.0
 11
110.7384913583798
 21
413.3070535897726
 31
0.0
 11
110.8961649744687
 21
413.5392993129029
 31
0.0
 11
110.9918613405596
 21
413.7798484130764
 31
0.0
 11
111.0239431258848
 21
414.0245850224702
 31
0.0
  0
SPLINE
  5
217
330
81
100
AcDbEntity
  8
0
  6
Continuous
 62
     7
100
AcDbSpline
210
0.0
220
0.0
230
1.0
 70
  1064
 71
     3
 72
     9
 73
     5
 74
     3
 42
0.000000001
 43
0.0000000001
 44
0.00000001
 40
0.0
 40
0.0
 40
0.0
 40
0.0
 40
0.2944047381467275
 40
0.6389145825194953
 40
0.6389145825194953
 40
0.6389145825194953
 40
0.6389145825194953
 10
109.4739431258848
 20
406.403561469167
 30
0.0
 10
109.4576220356347
 20
406.304207919817
 30
0.0
 10
109.4222021304167
 20
406.0885917243778
 30
0.0
 10
109.2643270312218
 20
405.9358964517745
 30
0.0
 10
109.1791990142106
 20
405.853561469167
 30
0.0
 11
109.4739431258848
 21
406.403561469167
 31
0.0
 11
109.3989793771737
 21
406.1188605954571
 31
0.0
 11
109.1791990142106
 21
405.853561469167
 31
0.0
  0
SPLINE
  5
218
330
81
100
AcDbEntity
  8
0
  6
Continuous
 62
     7
100
AcDbSpline
210
0.0
220
0.0
230
1.0
 70
  1064
 71
     3
 72
    13
 73
     9
 74
     7
 42
0.000000001
 43
0.0000000001
 44
0.00000001
 40
0.0
 40
0.0
 40
0.0
 40
0.0
 40
0.1210298523051371
 40
0.2508393331383348
 40
0.3866640479554487
 40
0.5243809405011801
 40
0.659470410271769
 40
0.7879673977188832
 40
0.7879673977188832
 40
0.7879673977188832
 40
0.7879673977188832
 10
99.03865351706531
 20
401.0532632284724
 30
0.0
 10
99.03857114622826
 20
401.0126917695433
 30
0.0
 10
99.03840044407167
 20
400.928605757576
 30
0.0
 10
99.07996180762825
 20
400.8045295639841
 30
0.0
 10
99.14715450311269
 20
400.687230066668
 30
0.0
 10
99.23903150052766
 20
400.585600185462
 30
0.0
 10
99.34700917876344
 20
400.5038623947947
 30
0.0
 10
99.42970479946082
 20
400.4730214396374
 30
0.0
 10
99.47001847489673
 20
400.4579866456661
 30
0.0
 11
99.03865351706531
 21
401.0532632284724
 31
0.0
 11
99.04472305171639
 21
400.9323856610926
 31
0.0
 11
99.0830641908112
 21
400.8083676819731
 31
0.0
 11
99.15076814098357
 21
400.69061994739
 31
0.0
 11
99.24269694741594
 21
400.5880770901426
 31
0.0
 11
99.35187533432793
 21
400.5085205374318
 31
0.0
 11
99.47001847489673
 21
400.4579866456661
 31
0.0
  0
SPLINE
  5
219
330
81
100
AcDbEntity
  8
0
  6
Continuous
 62
     7
100
AcDbSpline
210
0.0
220
0.0
230
1.0
 70
  1064
 71
     3
 72
    19
 73
    15
 74
    13
 42
0.000000001
 43
0.0000000001
 44
0.00000001
 40
0.0
 40
0.0
 40
0.0
 40
0.0
 40
0.5843753545724495
 40
1.254676373552657
 40
1.996969046810221
 40
2.789131920408798
 40
3.604322669165454
 40
4.413707558932554
 40
5.188945033616712
 40
5.904727066422045
 40
6.541725128645078
 40
7.090572415030477
 40
7.557831286453371
 40
7.973276579163959
 40
7.973276579163959
 40
7.973276579163959
 40
7.973276579163959
 10
104.0263478616931
 20
421.8902882527456
 30
0.0
 10
104.1834493841263
 20
422.0065214752674
 30
0.0
 10
104.5207524050717
 20
422.2560786660185
 30
0.0
 10
105.1419934172994
 20
422.5104411487811
 30
0.0
 10
105.8516795574162
 20
422.704119007423
 30
0.0
 10
106.6292930600951
 20
422.8144937682638
 30
0.0
 10
107.4358609823046
 20
422.840679692173
 30
0.0
 10
108.2351209391145
 20
422.7802113898643
 30
0.0
 10
108.9902595621382
 20
422.6362676557452
 30
0.0
 10
109.6662332133055
 20
422.4153983130112
 30
0.0
 10
110.2358359072081
 20
422.1271477515066
 30
0.0
 10
110.6671187467713
 20
421.7820229352325
 30
0.0
 10
110.9642694560213
 20
421.3875804683101
 30
0.0
 10
111.0048458321134
 20
421.0919343116867
 30
0.0
 10
111.0239431258848
 20
420.9527882527457
 30
0.0
 11
104.0263478616931
 21
421.8902882527456
 31
0.0
 11
104.5091533596322
 21
422.2195197789564
 31
0.0
 11
105.1230314895683
 21
422.4886983357875
 31
0.0
 11
105.8388803826095
 21
422.6850622215813
 31
0.0
 11
106.6227624596337
 21
422.7993027896435
 31
0.0
 11
107.4375158139042
 21
422.8260035010082
 31
0.0
 11
108.2445145450192
 21
422.7638991770376
 31
0.0
 11
109.0055002709572
 21
422.6159334165023
 31
0.0
 11
109.6843966622093
 21
422.3891215835937
 31
0.0
 11
110.2490178864214
 21
422.0942158302531
 31
0.0
 11
110.6725973272722
 21
421.7451974935094
 31
0.0
 11
110.9350528257935
 21
421.3586124926557
 31
0.0
 11
111.0239431258848
 21
420.9527882527457
 31
0.0
  0
SPLINE
  5
21A
330
81
100
AcDbEntity
  8
0
  6
Continuous
 62
     7
100
AcDbSpline
210
0.0
220
0.0
230
1.0
 70
  1064
 71
     3
 72
    19
 73
    15
 74
    13
 42
0.000000001
 43
0.0000000001
 44
0.00000001
 40
0.0
 40
0.0
 40
0.0
 40
0.0
 40
0.4014610051778394
 40
0.871247155898069
 40
1.440286931547113
 40
2.10576604014142
 40
2.844663649928952
 40
3.62280102061695
 40
4.400938391304948
 40
5.13983600109248
 40
5.805315109686746
 40
6.374354885335791
 40
6.844141036056055
 40
7.245602041233832
 40
7.245602041233832
 40
7.245602041233832
 40
7.245602041233832
 10
110.2739431258848
 20
408.3088173574928
 30
0.0
 10
110.251083806139
 20
408.1743959626806
 30
0.0
 10
110.2014746924585
 20
407.8826758368939
 30
0.0
 10
109.8575082340813
 20
407.5174890550211
 30
0.0
 10
109.3767465466056
 20
407.2150170059994
 30
0.0
 10
108.7547071253702
 20
406.9853504745234
 30
0.0
 10
108.0397232200278
 20
406.8412852112624
 30
0.0
 10
107.2739431258847
 20
406.7921635072908
 30
0.0
 10
106.5081630317417
 20
406.8412852112626
 30
0.0
 10
105.7931791263993
 20
406.9853504745233
 30
0.0
 10
105.1711397051639
 20
407.2150170059997
 30
0.0
 10
104.6903780176882
 20
407.5174890550211
 30
0.0
 10
104.3464115593111
 20
407.8826758368938
 30
0.0
 10
104.2968024456306
 20
408.1743959626808
 30
0.0
 10
104.2739431258848
 20
408.3088173574928
 30
0.0
 11
110.2739431258848
 21
408.3088173574928
 31
0.0
 11
110.1717198321878
 21
407.9205888933429
 31
0.0
 11
109.8720193372381
 21
407.5588173574928
 31
0.0
 11
109.3952629038882
 21
407.2481574684911
 31
0.0
 11
108.7739431258848
 21
407.0097792518162
 31
0.0
 11
108.0504000541844
 21
406.8599290043413
 31
0.0
 11
107.2739431258848
 21
406.8088173574928
 31
0.0
 11
106.4974861975851
 21
406.8599290043413
 31
0.0
 11
105.7739431258848
 21
407.0097792518162
 31
0.0
 11
105.1526233478814
 21
407.2481574684911
 31
0.0
 11
104.6758669145315
 21
407.5588173574928
 31
0.0
 11
104.3761664195818
 21
407.920588893343
 31
0.0
 11
104.2739431258848
 21
408.3088173574928
 31
0.0
  0
SPLINE
  5
21B
330
81
100
AcDbEntity
  8
0
  6
Continuous
 62
     7
100
AcDbSpline
210
0.0
220
0.0
230
1.0
 70
  1064
 71
     3
 72
    11
 73
     7
 74
     5
 42
0.000000001
 43
0.0000000001
 44
0.00000001
 40
0.0
 40
0.0
 40
0.0
 40
0.0
 40
0.2468304032363573
 40
0.5057158270864869
 40
0.7864275012077757
 40
1.095385040688535
 40
1.095385040688535
 40
1.095385040688535
 40
1.095385040688535
 10
103.5239431258848
 20
420.9527882527457
 30
0.0
 10
103.5303590178245
 20
421.0352980520879
 30
0.0
 10
103.5435041639656
 20
421.2043473683506
 30
0.0
 10
103.647724569157
 20
421.4490014032193
 30
0.0
 10
103.8072439426009
 20
421.6847170872468
 30
0.0
 10
103.9510175749566
 20
421.8196106792349
 30
0.0
 10
104.0263478616931
 20
421.8902882527456
 30
0.0
 11
103.5239431258848
 21
420.9527882527457
 31
0.0
 11
103.55602491121
 21
421.1975248621395
 31
0.0
 11
103.6517212773008
 21
421.4380739623128
 31
0.0
 11
103.8093948933897
 21
421.6703196854432
 31
0.0
 11
104.0263478616931
 21
421.8902882527456
 31
0.0
  0
SPLINE
  5
21C
330
81
100
AcDbEntity
  8
0
  6
Continuous
 62
     7
100
AcDbSpline
210
0.0
220
0.0
230
1.0
 70
  1064
 71
     3
 72
    13
 73
     9
 74
     7
 42
0.000000001
 43
0.0000000001
 44
0.00000001
 40
0.0
 40
0.0
 40
0.0
 40
0.0
 40
0.6150217388096928
 40
1.182875484560701
 40
1.688227279821476
 40
2.123646124759152
 40
2.494338153844164
 40
2.823924754737773
 40
2.823924754737773
 40
2.823924754737773
 40
2.823924754737773
 10
108.0439297850648
 20
419.5159735861407
 30
0.0
 10
108.2464330382162
 20
419.5496630903905
 30
0.0
 10
108.6359089182021
 20
419.6144583481889
 30
0.0
 10
109.1717455138889
 20
419.7930839591972
 30
0.0
 10
109.623728980213
 20
420.0209924719713
 30
0.0
 10
109.9658587651031
 20
420.2949574788504
 30
0.0
 10
110.2016027545295
 20
420.6078472652983
 30
0.0
 10
110.2337928451475
 20
420.8423971788025
 30
0.0
 10
110.2489431258847
 20
420.9527882527457
 30
0.0
 11
108.0439297850648
 21
419.5159735861407
 31
0.0
 11
108.6476451276422
 21
419.6333597561654
 31
0.0
 11
109.1862362647022
 21
419.8132971436062
 31
0.0
 11
109.6341691025772
 21
420.0472557079232
 31
0.0
 11
109.9702087923188
 21
420.3241435884064
 31
0.0
 11
110.1784234878123
 21
420.6308343557504
 31
0.0
 11
110.2489431258847
 21
420.9527882527457
 31
0.0
  0
SPLINE
  5
21D
330
81
100
AcDbEntity
  8
0
  6
Continuous
 62
     7
100
AcDbSpline
210
0.0
220
0.0
230
1.0
 70
  1064
 71
     3
 72
    15
 73
    11
 74
     9
 42
0.000000001
 43
0.0000000001
 44
0.00000001
 40
0.0
 40
0.0
 40
0.0
 40
0.0
 40
0.568571026776627
 40
1.237844619138172
 40
1.984386803595587
 40
2.772361257899512
 40
3.56033571220347
 40
4.306877896660846
 40
4.976151489022412
 40
5.544722515799019
 40
5.544722515799019
 40
5.544722515799019
 40
5.544722515799019
 10
109.883301284513
 20
420.2383172946235
 30
0.0
 10
109.730792637632
 20
420.3523133787959
 30
0.0
 10
109.3987637348966
 20
420.6004959666967
 30
0.0
 10
108.7687464334499
 20
420.8266082160455
 30
0.0
 10
108.0492978235436
 20
420.9786344047654
 30
0.0
 10
107.2739431258847
 20
421.0281439319999
 30
0.0
 10
106.498588428226
 20
420.9786344047653
 30
0.0
 10
105.7791398183195
 20
420.8266082160455
 30
0.0
 10
105.1491225168729
 20
420.6004959666965
 30
0.0
 10
104.8170936141375
 20
420.3523133787959
 30
0.0
 10
104.6645849672565
 20
420.2383172946235
 30
0.0
 11
109.883301284513
 21
420.2383172946235
 31
0.0
 11
109.412911831072
 21
420.5577022880533
 31
0.0
 11
108.7904395484281
 21
420.8035790820789
 31
0.0
 11
108.0601410699789
 21
420.9584640929709
 31
0.0
 11
107.2739431258848
 21
421.0113463365013
 31
0.0
 11
106.4877451817906
 21
420.9584640929708
 31
0.0
 11
105.7574467033415
 21
420.8035790820789
 31
0.0
 11
105.1349744206975
 21
420.5577022880532
 31
0.0
 11
104.6645849672565
 21
420.2383172946235
 31
0.0
  0
SPLINE
  5
21E
330
81
100
AcDbEntity
  8
0
  6
Continuous
 62
     7
100
AcDbSpline
210
0.0
220
0.0
230
1.0
 70
  1064
 71
     3
 72
    17
 73
    13
 74
    11
 42
0.000000001
 43
0.0000000001
 44
0.00000001
 40
0.0
 40
0.0
 40
0.0
 40
0.0
 40
0.4172958407830247
 40
0.9053138533935237
 40
1.447172098028979
 40
2.017806167391563
 40
2.588440236977248
 40
3.130298482521811
 40
3.618316494525113
 40
4.035612329634443
 40
4.380122176064109
 40
4.674526907420341
 40
4.674526907420341
 40
4.674526907420341
 40
4.674526907420341
 10
109.1791990142106
 20
405.853561469167
 30
0.0
 10
109.0655980189171
 20
405.7722708983531
 30
0.0
 10
108.8191432319592
 20
405.5959128612313
 30
0.0
 10
108.3588306811717
 20
405.4347879213976
 30
0.0
 10
107.8358132236898
 20
405.326847208118
 30
0.0
 10
107.2738613544898
 20
405.2914924055156
 30
0.0
 10
106.7123918156134
 20
405.3273347210284
 30
0.0
 10
106.1880446498698
 20
405.433027655791
 30
0.0
 10
105.7318883343797
 20
405.6014393593626
 30
0.0
 10
105.3793284967165
 20
405.823254424161
 30
0.0
 10
105.1270866814274
 20
406.0910576185626
 30
0.0
 10
105.0907066395231
 20
406.3049857590305
 30
0.0
 10
105.0739431258847
 20
406.403561469167
 30
0.0
 11
109.1791990142106
 21
405.853561469167
 31
0.0
 11
108.8295776297539
 21
405.6257442172325
 31
0.0
 11
108.3739431258848
 21
405.4509335250041
 31
0.0
 11
107.8433448733045
 21
405.3410433435225
 31
0.0
 11
107.2739431258848
 21
405.303561469167
 31
0.0
 11
106.7045413784651
 21
405.3410433435226
 31
0.0
 11
106.1739431258847
 21
405.4509335250041
 31
0.0
 11
105.7183086220156
 21
405.6257442172324
 31
0.0
 11
105.368687237559
 21
405.8535614691669
 31
0.0
 11
105.1489068745958
 21
406.1188605954571
 31
0.0
 11
105.0739431258847
 21
406.403561469167
 31
0.0
  0
SPLINE
  5
21F
330
81
100
AcDbEntity
  8
0
  6
Continuous
 62
     7
100
AcDbSpline
210
0.0
220
0.0
230
1.0
 70
  1064
 71
     3
 72
    17
 73
    13
 74
    11
 42
0.000000001
 43
0.0000000001
 44
0.00000001
 40
0.0
 40
0.0
 40
0.0
 40
0.0
 40
0.2918378962083196
 40
0.6378234096382148
 40
1.036492364243464
 40
1.477521940032163
 40
1.945327620797084
 40
2.421520252730926
 40
2.886894288503735
 40
3.32330269994638
 40
3.715679396159936
 40
4.054598993385107
 40
4.054598993385107
 40
4.054598993385107
 40
4.054598993385107
 10
105.3185977832614
 20
419.8317118067482
 30
0.0
 10
105.3799460497226
 20
419.9080447564937
 30
0.0
 10
105.5140251574474
 20
420.0748734599923
 30
0.0
 10
105.8156548670975
 20
420.2549891318898
 30
0.0
 10
106.1824669536058
 20
420.4026952063389
 30
0.0
 10
106.6085445416783
 20
420.5027600983219
 30
0.0
 10
107.0684284499964
 20
420.5528435854225
 30
0.0
 10
107.5391829676064
 20
420.5492396073797
 30
0.0
 10
107.9965038897159
 20
420.4931635687096
 30
0.0
 10
108.4144902666187
 20
420.3848029488742
 30
0.0
 10
108.7792770715576
 20
420.2385810390513
 30
0.0
 10
108.9744347300347
 20
420.091001378319
 30
0.0
 10
109.0648806303651
 20
420.022605510614
 30
0.0
 11
105.3185977832614
 21
419.8317118067482
 31
0.0
 11
105.5134314533764
 21
420.0489885892125
 31
0.0
 11
105.8032744866309
 21
420.2379250705208
 31
0.0
 11
106.1724857070809
 21
420.3883245672757
 31
0.0
 11
106.6011391735098
 21
420.4920708509696
 31
0.0
 11
107.0661021311543
 21
420.5435645588891
 31
0.0
 11
107.5422816236573
 21
420.5400272321363
 31
0.0
 11
108.0039795806502
 21
420.481649247606
 31
0.0
 11
108.4262797309038
 21
420.3715816060185
 31
0.0
 11
108.7863912514835
 21
420.2157638819397
 31
0.0
 11
109.0648806303651
 21
420.022605510614
 31
0.0
  0
SPLINE
  5
220
330
81
100
AcDbEntity
  8
0
  6
Continuous
 62
     7
100
AcDbSpline
210
0.0
220
0.0
230
1.0
 70
  1064
 71
     3
 72
    15
 73
    11
 74
     9
 42
0.000000001
 43
0.0000000001
 44
0.00000001
 40
0.0
 40
0.0
 40
0.0
 40
0.0
 40
0.3466011861607122
 40
0.740254895512576
 40
1.206561124709536
 40
1.749405230834787
 40
2.358296373362011
 40
3.014007337794737
 40
3.692309628871259
 40
4.36680456758508
 40
4.36680456758508
 40
4.36680456758508
 40
4.36680456758508
 10
104.2989431258848
 20
420.9527882527457
 30
0.0
 10
104.3158056360049
 20
420.8366936508945
 30
0.0
 10
104.3518198237481
 20
420.5887441366553
 30
0.0
 10
104.6122180449433
 20
420.2627290614553
 30
0.0
 10
104.986654709083
 20
419.9811848029534
 30
0.0
 10
105.4787082316241
 20
419.7509273748084
 30
0.0
 10
106.0584178468894
 20
419.5809523734109
 30
0.0
 10
106.69972336329
 20
419.481230949226
 30
0.0
 10
107.3706777416068
 20
419.4496806344522
 30
0.0
 10
107.8199339039107
 20
419.4939174345979
 30
0.0
 10
108.0439297850648
 20
419.5159735861407
 30
0.0
 11
104.2989431258848
 21
420.9527882527457
 31
0.0
 11
104.3766594591224
 21
420.6150123518885
 31
0.0
 11
104.605746719825
 21
420.2948838260449
 31
0.0
 11
104.974237302233
 21
420.0091283554376
 31
0.0
 11
105.4628778745839
 21
419.7726751590624
 31
0.0
 11
106.0461398590927
 21
419.5978784752566
 31
0.0
 11
106.6935494178868
 21
419.4938701481459
 31
0.0
 11
107.3712823856354
 21
419.4660848567215
 31
0.0
 11
108.0439297850648
 21
419.5159735861407
 31
0.0
  0
SPLINE
  5
221
330
81
100
AcDbEntity
  8
0
  6
Continuous
 62
     7
100
AcDbSpline
210
0.0
220
0.0
230
1.0
 70
  1064
 71
     3
 72
    19
 73
    15
 74
    13
 42
0.000000001
 43
0.0000000001
 44
0.00000001
 40
0.0
 40
0.0
 40
0.0
 40
0.0
 40
0.3981154967652762
 40
0.8639867628658582
 40
1.4282845404057
 40
2.088217989782073
 40
2.820958119513292
 40
3.592611012142785
 40
4.364263904772282
 40
5.097004034503447
 40
5.756937483879833
 40
6.321235261419675
 40
6.787106527520337
 40
7.185222024285555
 40
7.185222024285555
 40
7.185222024285555
 40
7.185222024285555
 10
110.2489431258847
 20
420.9527882527457
 30
0.0
 10
110.2262743004721
 20
421.0860894692556
 30
0.0
 10
110.177078595924
 20
421.3753785939099
 30
0.0
 10
109.8359785249816
 20
421.7375221527814
 30
0.0
 10
109.3592231848129
 20
422.0374736013421
 30
0.0
 10
108.7423674254342
 20
422.2652262450948
 30
0.0
 10
108.0333417192701
 20
422.4080909645018
 30
0.0
 10
107.2739431258847
 20
422.4568033209488
 30
0.0
 10
106.5145445324995
 20
422.4080909645018
 30
0.0
 10
105.8055188263353
 20
422.2652262450946
 30
0.0
 10
105.1886630669566
 20
422.0374736013422
 30
0.0
 10
104.7119077267879
 20
421.7375221527814
 30
0.0
 10
104.3708076558455
 20
421.3753785939098
 30
0.0
 10
104.3216119512974
 20
421.0860894692557
 30
0.0
 10
104.2989431258848
 20
420.9527882527457
 30
0.0
 11
110.2489431258847
 21
420.9527882527457
 31
0.0
 11
110.1475716929685
 21
421.3377814796942
 31
0.0
 11
109.8503687021434
 21
421.6965382527457
 31
0.0
 11
109.3775852390715
 21
422.004609309339
 31
0.0
 11
108.7614431258848
 21
422.241001040875
 31
0.0
 11
108.0439295797819
 21
422.3896025362876
 31
0.0
 11
107.2739431258848
 21
422.4402882527456
 31
0.0
 11
106.5039566719877
 21
422.3896025362875
 31
0.0
 11
105.7864431258848
 21
422.241001040875
 31
0.0
 11
105.1703010126981
 21
422.004609309339
 31
0.0
 11
104.6975175496261
 21
421.6965382527457
 31
0.0
 11
104.400314558801
 21
421.3377814796942
 31
0.0
 11
104.2989431258848
 21
420.9527882527457
 31
0.0
  0
SPLINE
  5
222
330
81
100
AcDbEntity
  8
0
  6
Continuous
 62
     7
100
AcDbSpline
210
0.0
220
0.0
230
1.0
 70
  1064
 71
     3
 72
    21
 73
    17
 74
    15
 42
0.000000001
 43
0.0000000001
 44
0.00000001
 40
0.0
 40
0.0
 40
0.0
 40
0.0
 40
0.4276891572083865
 40
0.91140261761415
 40
1.482355911729986
 40
2.146223369605952
 40
2.891510752550481
 40
3.696160661203352
 40
4.531937300152212
 40
5.367713939101071
 40
6.172363847753924
 40
6.917651230698422
 40
7.5815186885744
 40
8.152471982690212
 40
8.636185443096021
 40
9.063874600304343
 40
9.063874600304343
 40
9.063874600304343
 40
9.063874600304343
 10
111.0239431258848
 20
420.9527882527457
 30
0.0
 10
111.0036295710387
 20
420.8095353664478
 30
0.0
 10
110.9603415095582
 20
420.5042644690202
 30
0.0
 10
110.6456079118333
 20
420.1003152641282
 30
0.0
 10
110.1912255512539
 20
419.7495006034354
 30
0.0
 10
109.5928179487028
 20
419.4598768135767
 30
0.0
 10
108.8856045335334
 20
419.2427310886625
 30
0.0
 10
108.0997659432386
 20
419.1080339327312
 30
0.0
 10
107.2739431258848
 20
419.062378744285
 30
0.0
 10
106.4481203085309
 20
419.1080339327312
 30
0.0
 10
105.6622817182362
 20
419.2427310886625
 30
0.0
 10
104.9550683030667
 20
419.4598768135767
 30
0.0
 10
104.3566607005158
 20
419.7495006034355
 30
0.0
 10
103.9022783399362
 20
420.1003152641282
 30
0.0
 10
103.5875447422114
 20
420.5042644690203
 30
0.0
 10
103.5442566807309
 20
420.8095353664478
 30
0.0
 10
103.5239431258848
 20
420.9527882527457
 30
0.0
 11
111.0239431258848
 21
420.9527882527457
 31
0.0
 11
110.9299224101247
 21
420.5355615456789
 31
0.0
 11
110.6525763805189
 21
420.1392562419003
 31
0.0
 11
110.2058108752376
 21
419.78374499783
 31
0.0
 11
109.612029882855
 21
419.4868542231181
 31
0.0
 11
108.9010069755928
 21
419.2634718039916
 31
0.0
 11
108.108396628221
 21
419.1247984174047
 31
0.0
 11
107.2739431258848
 21
419.0777884509357
 31
0.0
 11
106.4394896235486
 21
419.1247984174047
 31
0.0
 11
105.6468792761767
 21
419.2634718039916
 31
0.0
 11
104.9358563689146
 21
419.4868542231181
 31
0.0
 11
104.342075376532
 21
419.78374499783
 31
0.0
 11
103.8953098712507
 21
420.1392562419003
 31
0.0
 11
103.6179638416448
 21
420.535561545679
 31
0.0
 11
103.5239431258848
 21
420.9527882527457
 31
0.0
  0
SPLINE
  5
223
330
81
100
AcDbEntity
  8
0
  6
Continuous
 62
     7
100
AcDbSpline
210
0.0
220
0.0
230
1.0
 70
  1064
 71
     3
 72
    19
 73
    15
 74
    13
 42
0.000000001
 43
0.0000000001
 44
0.00000001
 40
0.0
 40
0.0
 40
0.0
 40
0.0
 40
0.4154452927106899
 40
0.882704164133551
 40
1.431551450518958
 40
2.068549512741991
 40
2.784331545547266
 40
3.559569020231431
 40
4.368953909998532
 40
5.184144658755185
 40
5.976307532353771
 40
6.718600205611335
 40
7.388901224591594
 40
7.973276579164028
 40
7.973276579164028
 40
7.973276579164028
 40
7.973276579164028
 10
103.5239431258848
 20
414.0245850224702
 30
0.0
 10
103.5430404196561
 20
413.8854389635292
 30
0.0
 10
103.5836167957483
 20
413.5897928069055
 30
0.0
 10
103.8807675049982
 20
413.1953503399833
 30
0.0
 10
104.3120503445614
 20
412.8502255237091
 30
0.0
 10
104.881653038464
 20
412.5619749622047
 30
0.0
 10
105.5576266896313
 20
412.3411056194708
 30
0.0
 10
106.312765312655
 20
412.1971618853516
 30
0.0
 10
107.1120252694649
 20
412.1366935830428
 30
0.0
 10
107.9185931916743
 20
412.1628795069517
 30
0.0
 10
108.6962066943534
 20
412.2732542677929
 30
0.0
 10
109.4058928344701
 20
412.4669321264347
 30
0.0
 10
110.0271338466978
 20
412.7212946091972
 30
0.0
 10
110.3644368676432
 20
412.9708517999483
 30
0.0
 10
110.5215383900764
 20
413.0870850224702
 30
0.0
 11
103.5239431258848
 21
414.0245850224702
 31
0.0
 11
103.612833425976
 21
413.6187607825601
 31
0.0
 11
103.8752889244973
 21
413.2321757817064
 31
0.0
 11
104.2988683653481
 21
412.8831574449628
 31
0.0
 11
104.8634895895602
 21
412.5882516916221
 31
0.0
 11
105.5423859808123
 21
412.3614398587135
 31
0.0
 11
106.3033717067503
 21
412.2134740981782
 31
0.0
 11
107.1103704378653
 21
412.1513697742075
 31
0.0
 11
107.9251237921358
 21
412.1780704855722
 31
0.0
 11
108.70900586916
 21
412.2923110536344
 31
0.0
 11
109.4248547622012
 21
412.4886749394283
 31
0.0
 11
110.0387328921373
 21
412.7578534962594
 31
0.0
 11
110.5215383900764
 21
413.0870850224702
 31
0.0
  0
ENDBLK
  5
83
330
81
100
AcDbEntity
  8
0
100
AcDbBlockEnd
  0
BLOCK
  5
86
330
84
100
AcDbEntity
  8
0
100
AcDbBlockBegin
  2
Gen1
 70
     0
 10
107.293712899417
 20
407.999999912927
 30
0.0
  3
Gen1
  1

  0
INSERT
  5
85
330
84
100
AcDbEntity
  8
0
100
AcDbBlockReference
  2
PSBJ_GSK_FARBLOS-select__1
 10
99.03165627274615
 20
394.1836286795909
 30
0.0
  0
ENDBLK
  5
87
330
84
100
AcDbEntity
  8
0
100
AcDbBlockEnd
  0
BLOCK
  5
89
330
88
100
AcDbEntity
  8
0
100
AcDbBlockBegin
  2
PSBJ_GSK_FARBLOS-select__2
 70
     0
 10
99.89588421518467
 20
451.7490290820401
 30
0.0
  3
PSBJ_GSK_FARBLOS-select__2
  1

  0
LINE
  5
224
330
88
100
AcDbEntity
  8
0
  6
Continuous
 62
     7
100
AcDbLine
 10
105.5665411166847
 20
457.84902908204
 30
0.0
 11
105.5665411166847
 21
451.7490290820401
 31
0.0
  0
LINE
  5
225
330
88
100
AcDbEntity
  8
0
  6
Continuous
 62
     7
100
AcDbLine
 10
109.0665411166847
 20
451.7490290820401
 30
0.0
 11
105.5665411166847
 21
451.7490290820401
 31
0.0
  0
LINE
  5
226
330
88
100
AcDbEntity
  8
0
  6
Continuous
 62
     7
100
AcDbLine
 10
112.6915411166847
 20
461.84902908204
 30
0.0
 11
112.6915411166847
 21
460.34902908204
 31
0.0
  0
LINE
  5
227
330
88
100
AcDbEntity
  8
0
  6
Continuous
 62
     7
100
AcDbLine
 10
109.0665411166847
 20
457.84902908204
 30
0.0
 11
109.0665411166847
 21
451.7490290820401
 31
0.0
  0
LINE
  5
228
330
88
100
AcDbEntity
  8
0
  6
Continuous
 62
     7
100
AcDbLine
 10
109.0665411166847
 20
457.84902908204
 30
0.0
 11
105.5665411166847
 21
457.84902908204
 31
0.0
  0
LINE
  5
229
330
88
100
AcDbEntity
  8
0
  6
Continuous
 62
     7
100
AcDbLine
 10
114.19154111665
 20
457.84902908204
 30
0.0
 11
109.0665411166847
 21
457.84902908204
 31
0.0
  0
LINE
  5
22A
330
88
100
AcDbEntity
  8
0
  6
Continuous
 62
     7
100
AcDbLine
 10
105.5665411166847
 20
457.84902908204
 30
0.0
 11
99.89588421518467
 21
457.84902908204
 31
0.0
  0
LINE
  5
22B
330
88
100
AcDbEntity
  8
0
  6
Continuous
 62
     7
100
AcDbLine
 10
99.89588421518467
 20
457.84902908204
 30
0.0
 11
100.1146058739995
 21
460.34902908204
 31
0.0
  0
LINE
  5
22C
330
88
100
AcDbEntity
  8
0
  6
Continuous
 62
     7
100
AcDbLine
 10
100.1146058739995
 20
460.34902908204
 30
0.0
 11
101.9415411166847
 21
460.34902908204
 31
0.0
  0
LINE
  5
22D
330
88
100
AcDbEntity
  8
0
  6
Continuous
 62
     7
100
AcDbLine
 10
110.3165411166847
 20
467.04902908204
 30
0.0
 11
109.5165411166847
 21
467.04902908204
 31
0.0
  0
LINE
  5
22E
330
88
100
AcDbEntity
  8
0
  6
Continuous
 62
     7
100
AcDbLine
 10
109.5165411166847
 20
467.04902908204
 30
0.0
 11
109.5165411166847
 21
464.84902908204
 31
0.0
  0
LINE
  5
22F
330
88
100
AcDbEntity
  8
0
  6
Continuous
 62
     7
100
AcDbLine
 10
110.797842130818
 20
464.84902908204
 30
0.0
 11
109.5165411166847
 21
464.84902908204
 31
0.0
  0
LINE
  5
230
330
88
100
AcDbEntity
  8
0
  6
Continuous
 62
     7
100
AcDbLine
 10
110.3165411166847
 20
473.64902908204
 30
0.0
 11
111.0665411166847
 21
473.64902908204
 31
0.0
  0
LINE
  5
231
330
88
100
AcDbEntity
  8
0
  6
Continuous
 62
     7
100
AcDbLine
 10
110.797842130818
 20
464.84902908204
 30
0.0
 11
111.1915411166847
 21
460.34902908204
 31
0.0
  0
LINE
  5
232
330
88
100
AcDbEntity
  8
0
  6
Continuous
 62
     7
100
AcDbLine
 10
110.3165411166847
 20
467.04902908204
 30
0.0
 11
110.3165411166847
 21
473.64902908204
 31
0.0
  0
LINE
  5
233
330
88
100
AcDbEntity
  8
0
  6
Continuous
 62
     7
100
AcDbLine
 10
114.387240713081
 20
461.84902908204
 30
0.0
 11
114.6896384656959
 21
458.3926069534138
 31
0.0
  0
LINE
  5
234
330
88
100
AcDbEntity
  8
0
  6
Continuous
 62
     7
100
AcDbLine
 10
105.1165411166846
 20
467.04902908204
 30
0.0
 11
105.1165411166846
 21
464.84902908204
 31
0.0
  0
LINE
  5
235
330
88
100
AcDbEntity
  8
0
  6
Continuous
 62
     7
100
AcDbLine
 10
103.5665411166847
 20
473.64902908204
 30
0.0
 11
104.3165411166847
 21
473.64902908204
 31
0.0
  0
LINE
  5
236
330
88
100
AcDbEntity
  8
0
  6
Continuous
 62
     7
100
AcDbLine
 10
101.9415411166847
 20
460.34902908204
 30
0.0
 11
102.1602627754995
 21
462.84902908204
 31
0.0
  0
LINE
  5
237
330
88
100
AcDbEntity
  8
0
  6
Continuous
 62
     7
100
AcDbLine
 10
104.3165411166847
 20
467.04902908204
 30
0.0
 11
104.3165411166847
 21
473.64902908204
 31
0.0
  0
LINE
  5
238
330
88
100
AcDbEntity
  8
0
  6
Continuous
 62
     7
100
AcDbLine
 10
114.387240713081
 20
461.84902908204
 30
0.0
 11
112.6915411166847
 21
461.84902908204
 31
0.0
  0
LINE
  5
239
330
88
100
AcDbEntity
  8
0
  6
Continuous
 62
     7
100
AcDbLine
 10
112.6915411166847
 20
460.34902908204
 30
0.0
 11
111.1915411166847
 21
460.34902908204
 31
0.0
  0
LINE
  5
23A
330
88
100
AcDbEntity
  8
0
  6
Continuous
 62
     7
100
AcDbLine
 10
111.0665411166847
 20
481.64902908204
 30
0.0
 11
111.0665411166847
 21
473.64902908204
 31
0.0
  0
LINE
  5
23B
330
88
100
AcDbEntity
  8
0
  6
Continuous
 62
     7
100
AcDbLine
 10
104.3165411166847
 20
473.64902908204
 30
0.0
 11
110.3165411166847
 21
473.64902908204
 31
0.0
  0
LINE
  5
23C
330
88
100
AcDbEntity
  8
0
  6
Continuous
 62
     7
100
AcDbLine
 10
111.0665411166847
 20
481.64902908204
 30
0.0
 11
103.5665411166847
 21
481.64902908204
 31
0.0
  0
LINE
  5
23D
330
88
100
AcDbEntity
  8
0
  6
Continuous
 62
     7
100
AcDbLine
 10
105.1165411166846
 20
467.04902908204
 30
0.0
 11
104.3165411166847
 21
467.04902908204
 31
0.0
  0
LINE
  5
23E
330
88
100
AcDbEntity
  8
0
  6
Continuous
 62
     7
100
AcDbLine
 10
105.1165411166846
 20
464.84902908204
 30
0.0
 11
104.1602627754995
 21
464.84902908204
 31
0.0
  0
LINE
  5
23F
330
88
100
AcDbEntity
  8
0
  6
Continuous
 62
     7
100
AcDbLine
 10
109.5165411166847
 20
464.84902908204
 30
0.0
 11
105.1165411166846
 21
464.84902908204
 31
0.0
  0
LINE
  5
240
330
88
100
AcDbEntity
  8
0
  6
Continuous
 62
     7
100
AcDbLine
 10
109.5165411166847
 20
467.04902908204
 30
0.0
 11
105.1165411166846
 21
467.04902908204
 31
0.0
  0
LINE
  5
241
330
88
100
AcDbEntity
  8
0
  6
Continuous
 62
     7
100
AcDbLine
 10
103.5665411166847
 20
481.64902908204
 30
0.0
 11
103.5665411166847
 21
473.64902908204
 31
0.0
  0
LINE
  5
242
330
88
100
AcDbEntity
  8
0
  6
Continuous
 62
     7
100
AcDbLine
 10
102.1602627754995
 20
462.84902908204
 30
0.0
 11
104.1602627754995
 21
464.84902908204
 31
0.0
  0
LINE
  5
243
330
88
100
AcDbEntity
  8
1
  6
Continuous
 62
     2
100
AcDbLine
 10
105.8115411166847
 20
451.7490290820401
 30
0.0
 11
105.8115411166847
 21
457.84902908204
 31
0.0
  0
LINE
  5
244
330
88
100
AcDbEntity
  8
1
  6
Continuous
 62
     2
100
AcDbLine
 10
108.8215411166847
 20
451.7490290820401
 30
0.0
 11
108.8215411166847
 21
457.84902908204
 31
0.0
  0
LINE
  5
245
330
88
100
AcDbEntity
  8
1
  6
DOT_CENTER
 62
     2
100
AcDbLine
 10
107.3165411166847
 20
457.84902908204
 30
0.0
 11
107.3165411166847
 21
451.7490290820401
 31
0.0
  0
LINE
  5
246
330
88
100
AcDbEntity
  8
1
  6
DOT_CENTER
 62
     2
100
AcDbLine
 10
107.3165411166847
 20
481.64902908204
 30
0.0
 11
107.3165411166847
 21
464.8490290820399
 31
0.0
  0
ARC
  5
247
330
88
100
AcDbEntity
  8
0
  6
Continuous
 62
     7
100
AcDbCircle
 10
114.19154111665
 20
458.34902908204
 30
0.0
 40
0.5
100
AcDbArc
 50
270.0
 51
4.9999999999996
  0
ENDBLK
  5
8A
330
88
100
AcDbEntity
  8
0
100
AcDbBlockEnd
  0
BLOCK
  5
8D
330
8B
100
AcDbEntity
  8
0
100
AcDbBlockBegin
  2
Back1
 70
     0
 10
107.2937130145729
 20
466.6990272608055
 30
0.0
  3
Back1
  1

  0
INSERT
  5
8C
330
8B
100
AcDbEntity
  8
0
100
AcDbBlockReference
  2
PSBJ_GSK_FARBLOS-select__2
 10
99.89588421518467
 20
451.7490290820401
 30
0.0
  0
ENDBLK
  5
8E
330
8B
100
AcDbEntity
  8
0
100
AcDbBlockEnd
  0
BLOCK
  5
90
330
8F
100
AcDbEntity
  8
0
100
AcDbBlockBegin
  2
PSBJ_GSK_FARBLOS-select__3
 70
     0
 10
37.60217189792293
 20
451.7490290820401
 30
0.0
  3
PSBJ_GSK_FARBLOS-select__3
  1

  0
LINE
  5
248
330
8F
100
AcDbEntity
  8
0
  6
Continuous
 62
     7
100
AcDbLine
 10
48.7271718978883
 20
481.64902908204
 30
0.0
 11
48.7271718978883
 21
473.64902908204
 31
0.0
  0
LINE
  5
249
330
8F
100
AcDbEntity
  8
0
  6
Continuous
 62
     7
100
AcDbLine
 10
47.9771718978883
 20
473.64902908204
 30
0.0
 11
48.7271718978883
 21
473.64902908204
 31
0.0
  0
LINE
  5
24A
330
8F
100
AcDbEntity
  8
0
  6
Continuous
 62
     7
100
AcDbLine
 10
41.9771718978883
 20
473.64902908204
 30
0.0
 11
47.9771718978883
 21
473.64902908204
 31
0.0
  0
LINE
  5
24B
330
8F
100
AcDbEntity
  8
0
  6
Continuous
 62
     7
100
AcDbLine
 10
48.7271718978883
 20
481.64902908204
 30
0.0
 11
41.2271718978883
 21
481.64902908204
 31
0.0
  0
LINE
  5
24C
330
8F
100
AcDbEntity
  8
0
  6
Continuous
 62
     7
100
AcDbLine
 10
47.17717189788834
 20
464.84902908204
 30
0.0
 11
48.1334502390735
 21
464.84902908204
 31
0.0
  0
LINE
  5
24D
330
8F
100
AcDbEntity
  8
0
  6
Continuous
 62
     7
100
AcDbLine
 10
42.77717189788825
 20
464.84902908204
 30
0.0
 11
47.17717189788834
 21
464.84902908204
 31
0.0
  0
LINE
  5
24E
330
8F
100
AcDbEntity
  8
0
  6
Continuous
 62
     7
100
AcDbLine
 10
47.17717189788834
 20
467.04902908204
 30
0.0
 11
42.77717189788825
 21
467.04902908204
 31
0.0
  0
LINE
  5
24F
330
8F
100
AcDbEntity
  8
0
  6
Continuous
 62
     7
100
AcDbLine
 10
41.2271718978883
 20
481.64902908204
 30
0.0
 11
41.2271718978883
 21
473.64902908204
 31
0.0
  0
LINE
  5
250
330
8F
100
AcDbEntity
  8
0
  6
Continuous
 62
     7
100
AcDbLine
 10
46.7271718978883
 20
451.7490290820401
 30
0.0
 11
43.2271718978883
 21
451.7490290820401
 31
0.0
  0
LINE
  5
251
330
8F
100
AcDbEntity
  8
0
  6
Continuous
 62
     7
100
AcDbLine
 10
46.7271718978883
 20
457.84902908204
 30
0.0
 11
46.7271718978883
 21
451.7490290820401
 31
0.0
  0
LINE
  5
252
330
8F
100
AcDbEntity
  8
0
  6
Continuous
 62
     7
100
AcDbLine
 10
47.9771718978883
 20
467.04902908204
 30
0.0
 11
47.17717189788834
 21
467.04902908204
 31
0.0
  0
LINE
  5
253
330
8F
100
AcDbEntity
  8
0
  6
Continuous
 62
     7
100
AcDbLine
 10
50.3521718978883
 20
460.34902908204
 30
0.0
 11
50.13345023907349
 21
462.84902908204
 31
0.0
  0
LINE
  5
254
330
8F
100
AcDbEntity
  8
0
  6
Continuous
 62
     7
100
AcDbLine
 10
47.17717189788834
 20
467.04902908204
 30
0.0
 11
47.17717189788834
 21
464.84902908204
 31
0.0
  0
LINE
  5
255
330
8F
100
AcDbEntity
  8
0
  6
Continuous
 62
     7
100
AcDbLine
 10
47.9771718978883
 20
467.04902908204
 30
0.0
 11
47.9771718978883
 21
473.64902908204
 31
0.0
  0
LINE
  5
256
330
8F
100
AcDbEntity
  8
0
  6
Continuous
 62
     7
100
AcDbLine
 10
41.2271718978883
 20
473.64902908204
 30
0.0
 11
41.9771718978883
 21
473.64902908204
 31
0.0
  0
LINE
  5
257
330
8F
100
AcDbEntity
  8
0
  6
Continuous
 62
     7
100
AcDbLine
 10
42.77717189788825
 20
467.04902908204
 30
0.0
 11
41.9771718978883
 21
467.04902908204
 31
0.0
  0
LINE
  5
258
330
8F
100
AcDbEntity
  8
0
  6
Continuous
 62
     7
100
AcDbLine
 10
41.49587088375496
 20
464.84902908204
 30
0.0
 11
42.77717189788825
 21
464.84902908204
 31
0.0
  0
LINE
  5
259
330
8F
100
AcDbEntity
  8
0
  6
Continuous
 62
     7
100
AcDbLine
 10
42.77717189788825
 20
467.04902908204
 30
0.0
 11
42.77717189788825
 21
464.84902908204
 31
0.0
  0
LINE
  5
25A
330
8F
100
AcDbEntity
  8
0
  6
Continuous
 62
     7
100
AcDbLine
 10
41.49587088375496
 20
464.84902908204
 30
0.0
 11
41.1021718978883
 21
460.34902908204
 31
0.0
  0
LINE
  5
25B
330
8F
100
AcDbEntity
  8
0
  6
Continuous
 62
     7
100
AcDbLine
 10
41.9771718978883
 20
467.04902908204
 30
0.0
 11
41.9771718978883
 21
473.64902908204
 31
0.0
  0
LINE
  5
25C
330
8F
100
AcDbEntity
  8
0
  6
Continuous
 62
     7
100
AcDbLine
 10
37.906472301492
 20
461.84902908204
 30
0.0
 11
37.60407454887706
 21
458.3926069534138
 31
0.0
  0
LINE
  5
25D
330
8F
100
AcDbEntity
  8
0
  6
Continuous
 62
     7
100
AcDbLine
 10
39.6021718978883
 20
461.84902908204
 30
0.0
 11
39.6021718978883
 21
460.34902908204
 31
0.0
  0
LINE
  5
25E
330
8F
100
AcDbEntity
  8
0
  6
Continuous
 62
     7
100
AcDbLine
 10
37.906472301492
 20
461.84902908204
 30
0.0
 11
39.6021718978883
 21
461.84902908204
 31
0.0
  0
LINE
  5
25F
330
8F
100
AcDbEntity
  8
0
  6
Continuous
 62
     7
100
AcDbLine
 10
52.17910714057349
 20
460.34902908204
 30
0.0
 11
50.3521718978883
 21
460.34902908204
 31
0.0
  0
LINE
  5
260
330
8F
100
AcDbEntity
  8
0
  6
Continuous
 62
     7
100
AcDbLine
 10
52.39782879938829
 20
457.84902908204
 30
0.0
 11
52.17910714057349
 21
460.34902908204
 31
0.0
  0
LINE
  5
261
330
8F
100
AcDbEntity
  8
0
  6
Continuous
 62
     7
100
AcDbLine
 10
43.2271718978883
 20
457.84902908204
 30
0.0
 11
46.7271718978883
 21
457.84902908204
 31
0.0
  0
LINE
  5
262
330
8F
100
AcDbEntity
  8
0
  6
Continuous
 62
     7
100
AcDbLine
 10
38.10217189792293
 20
457.84902908204
 30
0.0
 11
43.2271718978883
 21
457.84902908204
 31
0.0
  0
LINE
  5
263
330
8F
100
AcDbEntity
  8
0
  6
Continuous
 62
     7
100
AcDbLine
 10
46.7271718978883
 20
457.84902908204
 30
0.0
 11
52.39782879938829
 21
457.84902908204
 31
0.0
  0
LINE
  5
264
330
8F
100
AcDbEntity
  8
0
  6
Continuous
 62
     7
100
AcDbLine
 10
39.6021718978883
 20
460.34902908204
 30
0.0
 11
41.1021718978883
 21
460.34902908204
 31
0.0
  0
LINE
  5
265
330
8F
100
AcDbEntity
  8
0
  6
Continuous
 62
     7
100
AcDbLine
 10
43.2271718978883
 20
457.84902908204
 30
0.0
 11
43.2271718978883
 21
451.7490290820401
 31
0.0
  0
LINE
  5
266
330
8F
100
AcDbEntity
  8
0
  6
Continuous
 62
     7
100
AcDbLine
 10
50.13345023907349
 20
462.84902908204
 30
0.0
 11
48.1334502390735
 21
464.84902908204
 31
0.0
  0
LINE
  5
267
330
8F
100
AcDbEntity
  8
1
  6
Continuous
 62
     2
100
AcDbLine
 10
46.4821718978883
 20
451.7490290820401
 30
0.0
 11
46.4821718978883
 21
457.84902908204
 31
0.0
  0
LINE
  5
268
330
8F
100
AcDbEntity
  8
1
  6
Continuous
 62
     2
100
AcDbLine
 10
43.4721718978883
 20
451.7490290820401
 30
0.0
 11
43.4721718978883
 21
457.84902908204
 31
0.0
  0
LINE
  5
269
330
8F
100
AcDbEntity
  8
1
  6
DOT_CENTER
 62
     2
100
AcDbLine
 10
44.9771718978883
 20
457.84902908204
 30
0.0
 11
44.9771718978883
 21
451.7490290820401
 31
0.0
  0
LINE
  5
26A
330
8F
100
AcDbEntity
  8
1
  6
DOT_CENTER
 62
     2
100
AcDbLine
 10
44.9771718978883
 20
481.64902908204
 30
0.0
 11
44.97717189788824
 21
464.8490290820399
 31
0.0
  0
ARC
  5
26B
330
8F
100
AcDbEntity
  8
0
  6
Continuous
 62
     7
100
AcDbCircle
 10
38.10217189792293
 20
458.34902908204
 30
0.0
 40
0.4999999999999979
100
AcDbArc
 50
175.0000000000002
 51
270.0
  0
ENDBLK
  5
91
330
8F
100
AcDbEntity
  8
0
100
AcDbBlockEnd
  0
BLOCK
  5
94
330
92
100
AcDbEntity
  8
0
100
AcDbBlockBegin
  2
Front1
 70
     0
 10
45.0000000000001
 20
466.6990272608055
 30
0.0
  3
Front1
  1

  0
INSERT
  5
93
330
92
100
AcDbEntity
  8
0
100
AcDbBlockReference
  2
PSBJ_GSK_FARBLOS-select__3
 10
37.60217189792293
 20
451.7490290820401
 30
0.0
  0
DIMENSION
  5
276
330
92
100
AcDbEntity
  8
1
100
AcDbDimension
  2
*D17
 10
27.60217189792287
 20
451.7490290820401
 30
0.0
 11
24.17717189792287
 21
467.239682691061
 31
0.0
 70
    32
  1
<>
 71
     5
 42
-1.0
 53
90.0
  3
ME10_DIM_10
100
AcDbAlignedDimension
 13
41.2271718978883
 23
481.64902908204
 33
0.0
 14
43.2271718978883
 24
451.7490290820401
 34
0.0
 50
90.0
100
AcDbRotatedDimension
  0
INSERT
  5
280
330
92
100
AcDbEntity
  8
1
100
AcDbBlockReference
  2
*D18
 10
0.0
 20
0.0
 30
0.0
  0
ENDBLK
  5
95
330
92
100
AcDbEntity
  8
0
100
AcDbBlockEnd
  0
BLOCK
  5
97
330
96
100
AcDbEntity
  8
0
100
AcDbBlockBegin
  2
PSBJ_GSK_FARBLOS-select__4
 70
     0
 10
72.39685682282288
 20
451.7490290820401
 30
0.0
  3
PSBJ_GSK_FARBLOS-select__4
  1

  0
LINE
  5
281
330
96
100
AcDbEntity
  8
0
  6
Continuous
 62
     7
100
AcDbLine
 10
79.84685682282287
 20
464.84902908204
 30
0.0
 11
79.84685682282287
 21
461.84902908204
 31
0.0
  0
LINE
  5
282
330
96
100
AcDbEntity
  8
0
  6
Continuous
 62
     7
100
AcDbLine
 10
79.14685682282288
 20
467.04902908204
 30
0.0
 11
79.14685682282288
 21
473.64902908204
 31
0.0
  0
LINE
  5
283
330
96
100
AcDbEntity
  8
0
  6
Continuous
 62
     7
100
AcDbLine
 10
79.14685682282288
 20
473.64902908204
 30
0.0
 11
79.89685682282288
 21
473.64902908204
 31
0.0
  0
LINE
  5
284
330
96
100
AcDbEntity
  8
0
  6
Continuous
 62
     7
100
AcDbLine
 10
79.89685682282288
 20
481.64902908204
 30
0.0
 11
79.89685682282288
 21
473.64902908204
 31
0.0
  0
LINE
  5
285
330
96
100
AcDbEntity
  8
0
  6
Continuous
 62
     7
100
AcDbLine
 10
79.84685682282287
 20
461.84902908204
 30
0.0
 11
79.84685682282287
 21
458.3926069534138
 31
0.0
  0
LINE
  5
286
330
96
100
AcDbEntity
  8
0
  6
Continuous
 62
     7
100
AcDbLine
 10
72.44685682282288
 20
461.84902908204
 30
0.0
 11
79.84685682282287
 21
461.84902908204
 31
0.0
  0
LINE
  5
287
330
96
100
AcDbEntity
  8
0
  6
Continuous
 62
     7
100
AcDbLine
 10
79.89685682282288
 20
481.64902908204
 30
0.0
 11
76.14685682282288
 21
481.64902908204
 31
0.0
  0
LINE
  5
288
330
96
100
AcDbEntity
  8
0
  6
Continuous
 62
     7
100
AcDbLine
 10
72.44685682282288
 20
464.84902908204
 30
0.0
 11
72.44685682282288
 21
461.84902908204
 31
0.0
  0
LINE
  5
289
330
96
100
AcDbEntity
  8
0
  6
Continuous
 62
     7
100
AcDbLine
 10
73.14685682282288
 20
467.04902908204
 30
0.0
 11
73.14685682282288
 21
473.64902908204
 31
0.0
  0
LINE
  5
28A
330
96
100
AcDbEntity
  8
0
  6
Continuous
 62
     7
100
AcDbLine
 10
72.39685682282288
 20
473.64902908204
 30
0.0
 11
73.14685682282288
 21
473.64902908204
 31
0.0
  0
LINE
  5
28B
330
96
100
AcDbEntity
  8
0
  6
Continuous
 62
     7
100
AcDbLine
 10
77.89685682282288
 20
451.7490290820401
 30
0.0
 11
74.39685682282288
 21
451.7490290820401
 31
0.0
  0
LINE
  5
28C
330
96
100
AcDbEntity
  8
0
  6
Continuous
 62
     7
100
AcDbLine
 10
77.89685682282288
 20
457.84902908204
 30
0.0
 11
79.84685682282287
 21
457.84902908204
 31
0.0
  0
LINE
  5
28D
330
96
100
AcDbEntity
  8
0
  6
Continuous
 62
     7
100
AcDbLine
 10
72.44685682282288
 20
457.84902908204
 30
0.0
 11
74.39685682282288
 21
457.84902908204
 31
0.0
  0
LINE
  5
28E
330
96
100
AcDbEntity
  8
0
  6
Continuous
 62
     7
100
AcDbLine
 10
72.44685682282288
 20
458.3926069534138
 30
0.0
 11
72.44685682282288
 21
457.84902908204
 31
0.0
  0
LINE
  5
28F
330
96
100
AcDbEntity
  8
0
  6
Continuous
 62
     7
100
AcDbLine
 10
79.84685682282287
 20
458.3926069534138
 30
0.0
 11
79.84685682282287
 21
457.84902908204
 31
0.0
  0
LINE
  5
290
330
96
100
AcDbEntity
  8
0
  6
Continuous
 62
     2
100
AcDbLine
 10
72.44685682282288
 20
458.3926069534138
 30
0.0
 11
79.84685682282287
 21
458.3926069534138
 31
0.0
  0
LINE
  5
291
330
96
100
AcDbEntity
  8
0
  6
Continuous
 62
     7
100
AcDbLine
 10
74.39685682282288
 20
457.84902908204
 30
0.0
 11
77.89685682282288
 21
457.84902908204
 31
0.0
  0
LINE
  5
292
330
96
100
AcDbEntity
  8
0
  6
Continuous
 62
     7
100
AcDbLine
 10
77.89685682282288
 20
457.84902908204
 30
0.0
 11
77.89685682282288
 21
451.7490290820401
 31
0.0
  0
LINE
  5
293
330
96
100
AcDbEntity
  8
0
  6
Continuous
 62
     7
100
AcDbLine
 10
73.14685682282288
 20
473.64902908204
 30
0.0
 11
79.14685682282288
 21
473.64902908204
 31
0.0
  0
LINE
  5
294
330
96
100
AcDbEntity
  8
0
  6
Continuous
 62
     7
100
AcDbLine
 10
73.94685682282284
 20
467.04902908204
 30
0.0
 11
73.94685682282284
 21
464.84902908204
 31
0.0
  0
LINE
  5
295
330
96
100
AcDbEntity
  8
0
  6
Continuous
 62
     7
100
AcDbLine
 10
78.34685682282293
 20
467.04902908204
 30
0.0
 11
78.34685682282293
 21
464.84902908204
 31
0.0
  0
LINE
  5
296
330
96
100
AcDbEntity
  8
0
  6
Continuous
 62
     7
100
AcDbLine
 10
73.94685682282284
 20
467.04902908204
 30
0.0
 11
73.14685682282288
 21
467.04902908204
 31
0.0
  0
LINE
  5
297
330
96
100
AcDbEntity
  8
0
  6
Continuous
 62
     7
100
AcDbLine
 10
76.14685682282288
 20
467.04902908204
 30
0.0
 11
73.94685682282284
 21
467.04902908204
 31
0.0
  0
LINE
  5
298
330
96
100
AcDbEntity
  8
0
  6
Continuous
 62
     7
100
AcDbLine
 10
79.14685682282288
 20
467.04902908204
 30
0.0
 11
78.34685682282293
 21
467.04902908204
 31
0.0
  0
LINE
  5
299
330
96
100
AcDbEntity
  8
0
  6
Continuous
 62
     7
100
AcDbLine
 10
78.34685682282293
 20
467.04902908204
 30
0.0
 11
76.14685682282288
 21
467.04902908204
 31
0.0
  0
LINE
  5
29A
330
96
100
AcDbEntity
  8
0
  6
Continuous
 62
     7
100
AcDbLine
 10
72.44685682282288
 20
464.84902908204
 30
0.0
 11
73.94685682282284
 21
464.84902908204
 31
0.0
  0
LINE
  5
29B
330
96
100
AcDbEntity
  8
0
  6
Continuous
 62
     7
100
AcDbLine
 10
78.34685682282293
 20
464.84902908204
 30
0.0
 11
79.84685682282287
 21
464.84902908204
 31
0.0
  0
LINE
  5
29C
330
96
100
AcDbEntity
  8
0
  6
Continuous
 62
     7
100
AcDbLine
 10
73.94685682282284
 20
464.84902908204
 30
0.0
 11
78.34685682282293
 21
464.84902908204
 31
0.0
  0
LINE
  5
29D
330
96
100
AcDbEntity
  8
0
  6
Continuous
 62
     7
100
AcDbLine
 10
76.14685682282288
 20
481.64902908204
 30
0.0
 11
72.39685682282288
 21
481.64902908204
 31
0.0
  0
LINE
  5
29E
330
96
100
AcDbEntity
  8
0
  6
Continuous
 62
     7
100
AcDbLine
 10
72.44685682282288
 20
461.84902908204
 30
0.0
 11
72.44685682282288
 21
458.3926069534138
 31
0.0
  0
LINE
  5
29F
330
96
100
AcDbEntity
  8
0
  6
Continuous
 62
     7
100
AcDbLine
 10
74.39685682282288
 20
457.84902908204
 30
0.0
 11
74.39685682282288
 21
451.7490290820401
 31
0.0
  0
LINE
  5
2A0
330
96
100
AcDbEntity
  8
0
  6
Continuous
 62
     7
100
AcDbLine
 10
72.39685682282288
 20
481.64902908204
 30
0.0
 11
72.39685682282288
 21
473.64902908204
 31
0.0
  0
LINE
  5
2A1
330
96
100
AcDbEntity
  8
1
  6
Continuous
 62
     2
100
AcDbLine
 10
77.6518568228229
 20
451.7490290820401
 30
0.0
 11
77.6518568228229
 21
457.84902908204
 31
0.0
  0
LINE
  5
2A2
330
96
100
AcDbEntity
  8
1
  6
Continuous
 62
     2
100
AcDbLine
 10
74.64185682282289
 20
451.7490290820401
 30
0.0
 11
74.64185682282289
 21
457.84902908204
 31
0.0
  0
LINE
  5
2A3
330
96
100
AcDbEntity
  8
1
  6
DOT_CENTER
 62
     2
100
AcDbLine
 10
76.14685682282288
 20
457.84902908204
 30
0.0
 11
76.14685682282288
 21
451.7490290820401
 31
0.0
  0
LINE
  5
2A4
330
96
100
AcDbEntity
  8
1
  6
DOT_CENTER
 62
     2
100
AcDbLine
 10
76.14685682282288
 20
481.64902908204
 30
0.0
 11
76.14685682282285
 21
464.8490290820399
 31
0.0
  0
ENDBLK
  5
98
330
96
100
AcDbEntity
  8
0
100
AcDbBlockEnd
  0
BLOCK
  5
9B
330
99
100
AcDbEntity
  8
0
100
AcDbBlockBegin
  2
Left1
 70
     0
 10
76.14685670845648
 20
466.6990272608055
 30
0.0
  3
Left1
  1

  0
INSERT
  5
9A
330
99
100
AcDbEntity
  8
0
100
AcDbBlockReference
  2
PSBJ_GSK_FARBLOS-select__4
 10
72.39685682282288
 20
451.7490290820401
 30
0.0
  0
ENDBLK
  5
9C
330
99
100
AcDbEntity
  8
0
100
AcDbBlockEnd
  0
BLOCK
  5
9E
330
9D
100
AcDbEntity
  8
0
100
AcDbBlockBegin
  2
PSBJ_GSK_FARBLOS-select__5
 70
     0
 10
0.10314317718111
 20
451.7490290820401
 30
0.0
  3
PSBJ_GSK_FARBLOS-select__5
  1

  0
LINE
  5
2A5
330
9D
100
AcDbEntity
  8
0
  6
Continuous
 62
     7
100
AcDbLine
 10
7.60314317718111
 20
481.64902908204
 30
0.0
 11
0.10314317718111
 21
481.64902908204
 31
0.0
  0
LINE
  5
2A6
330
9D
100
AcDbEntity
  8
0
  6
Continuous
 62
     7
100
AcDbLine
 10
0.85314317718111
 20
473.64902908204
 30
0.0
 11
3.85314317718111
 21
473.64902908204
 31
0.0
  0
LINE
  5
2A7
330
9D
100
AcDbEntity
  8
0
  6
Continuous
 62
     7
100
AcDbLine
 10
0.10314317718111
 20
481.64902908204
 30
0.0
 11
0.10314317718111
 21
473.64902908204
 31
0.0
  0
LINE
  5
2A8
330
9D
100
AcDbEntity
  8
0
  6
Continuous
 62
     7
100
AcDbLine
 10
0.15314317718111
 20
464.84902908204
 30
0.0
 11
1.65314317718107
 21
464.84902908204
 31
0.0
  0
LINE
  5
2A9
330
9D
100
AcDbEntity
  8
0
  6
Continuous
 62
     7
100
AcDbLine
 10
1.65314317718107
 20
467.04902908204
 30
0.0
 11
1.65314317718107
 21
464.84902908204
 31
0.0
  0
LINE
  5
2AA
330
9D
100
AcDbEntity
  8
0
  6
Continuous
 62
     7
100
AcDbLine
 10
0.15314317718111
 20
462.84902908204
 30
0.0
 11
0.15314317718111
 21
460.34902908204
 31
0.0
  0
LINE
  5
2AB
330
9D
100
AcDbEntity
  8
0
  6
Continuous
 62
     7
100
AcDbLine
 10
0.85314317718111
 20
467.04902908204
 30
0.0
 11
0.85314317718111
 21
473.64902908204
 31
0.0
  0
LINE
  5
2AC
330
9D
100
AcDbEntity
  8
0
  6
Continuous
 62
     7
100
AcDbLine
 10
0.10314317718111
 20
473.64902908204
 30
0.0
 11
0.85314317718111
 21
473.64902908204
 31
0.0
  0
LINE
  5
2AD
330
9D
100
AcDbEntity
  8
0
  6
Continuous
 62
     7
100
AcDbLine
 10
0.15314317718111
 20
457.84902908204
 30
0.0
 11
2.10314317718111
 21
457.84902908204
 31
0.0
  0
LINE
  5
2AE
330
9D
100
AcDbEntity
  8
0
  6
Continuous
 62
     7
100
AcDbLine
 10
5.60314317718111
 20
457.84902908204
 30
0.0
 11
7.55314317718111
 21
457.84902908204
 31
0.0
  0
LINE
  5
2AF
330
9D
100
AcDbEntity
  8
0
  6
Continuous
 62
     7
100
AcDbLine
 10
2.10314317718111
 20
457.84902908204
 30
0.0
 11
5.60314317718111
 21
457.84902908204
 31
0.0
  0
LINE
  5
2B0
330
9D
100
AcDbEntity
  8
0
  6
Continuous
 62
     7
100
AcDbLine
 10
5.60314317718111
 20
451.7490290820401
 30
0.0
 11
3.85314317718111
 21
451.7490290820401
 31
0.0
  0
LINE
  5
2B1
330
9D
100
AcDbEntity
  8
0
  6
Continuous
 62
     7
100
AcDbLine
 10
7.55314317718111
 20
457.84902908204
 30
0.0
 11
7.55314317718111
 21
460.34902908204
 31
0.0
  0
LINE
  5
2B2
330
9D
100
AcDbEntity
  8
0
  6
Continuous
 62
     7
100
AcDbLine
 10
5.60314317718111
 20
457.84902908204
 30
0.0
 11
5.60314317718111
 21
451.7490290820401
 31
0.0
  0
LINE
  5
2B3
330
9D
100
AcDbEntity
  8
0
  6
Continuous
 62
     7
100
AcDbLine
 10
0.15314317718111
 20
460.34902908204
 30
0.0
 11
7.55314317718111
 21
460.34902908204
 31
0.0
  0
LINE
  5
2B4
330
9D
100
AcDbEntity
  8
0
  6
Continuous
 62
     7
100
AcDbLine
 10
0.15314317718111
 20
462.84902908204
 30
0.0
 11
0.15314317718111
 21
464.84902908204
 31
0.0
  0
LINE
  5
2B5
330
9D
100
AcDbEntity
  8
0
  6
Continuous
 62
     7
100
AcDbLine
 10
0.15314317718111
 20
457.84902908204
 30
0.0
 11
0.15314317718111
 21
460.34902908204
 31
0.0
  0
LINE
  5
2B6
330
9D
100
AcDbEntity
  8
0
  6
Continuous
 62
     7
100
AcDbLine
 10
2.10314317718111
 20
457.84902908204
 30
0.0
 11
2.10314317718111
 21
451.7490290820401
 31
0.0
  0
LINE
  5
2B7
330
9D
100
AcDbEntity
  8
0
  6
Continuous
 62
     7
100
AcDbLine
 10
3.85314317718111
 20
451.7490290820401
 30
0.0
 11
2.10314317718111
 21
451.7490290820401
 31
0.0
  0
LINE
  5
2B8
330
9D
100
AcDbEntity
  8
0
  6
Continuous
 62
     7
100
AcDbLine
 10
6.85314317718111
 20
467.04902908204
 30
0.0
 11
6.05314317718116
 21
467.04902908204
 31
0.0
  0
LINE
  5
2B9
330
9D
100
AcDbEntity
  8
0
  6
Continuous
 62
     7
100
AcDbLine
 10
1.65314317718107
 20
467.04902908204
 30
0.0
 11
0.85314317718111
 21
467.04902908204
 31
0.0
  0
LINE
  5
2BA
330
9D
100
AcDbEntity
  8
0
  6
Continuous
 62
     7
100
AcDbLine
 10
6.05314317718116
 20
467.04902908204
 30
0.0
 11
6.05314317718116
 21
464.84902908204
 31
0.0
  0
LINE
  5
2BB
330
9D
100
AcDbEntity
  8
0
  6
Continuous
 62
     7
100
AcDbLine
 10
6.05314317718116
 20
464.84902908204
 30
0.0
 11
7.55314317718111
 21
464.84902908204
 31
0.0
  0
LINE
  5
2BC
330
9D
100
AcDbEntity
  8
0
  6
Continuous
 62
     7
100
AcDbLine
 10
0.15314317718111
 20
462.84902908204
 30
0.0
 11
7.55314317718111
 21
462.84902908204
 31
0.0
  0
LINE
  5
2BD
330
9D
100
AcDbEntity
  8
0
  6
Continuous
 62
     7
100
AcDbLine
 10
1.65314317718107
 20
464.84902908204
 30
0.0
 11
6.05314317718116
 21
464.84902908204
 31
0.0
  0
LINE
  5
2BE
330
9D
100
AcDbEntity
  8
0
  6
Continuous
 62
     7
100
AcDbLine
 10
6.05314317718116
 20
467.04902908204
 30
0.0
 11
1.65314317718107
 21
467.04902908204
 31
0.0
  0
LINE
  5
2BF
330
9D
100
AcDbEntity
  8
0
  6
Continuous
 62
     7
100
AcDbLine
 10
7.55314317718111
 20
462.84902908204
 30
0.0
 11
7.55314317718111
 21
460.34902908204
 31
0.0
  0
LINE
  5
2C0
330
9D
100
AcDbEntity
  8
0
  6
Continuous
 62
     7
100
AcDbLine
 10
7.55314317718111
 20
462.84902908204
 30
0.0
 11
7.55314317718111
 21
464.84902908204
 31
0.0
  0
LINE
  5
2C1
330
9D
100
AcDbEntity
  8
0
  6
Continuous
 62
     7
100
AcDbLine
 10
6.85314317718111
 20
467.04902908204
 30
0.0
 11
6.85314317718111
 21
473.64902908204
 31
0.0
  0
LINE
  5
2C2
330
9D
100
AcDbEntity
  8
0
  6
Continuous
 62
     7
100
AcDbLine
 10
6.85314317718111
 20
473.64902908204
 30
0.0
 11
7.60314317718111
 21
473.64902908204
 31
0.0
  0
LINE
  5
2C3
330
9D
100
AcDbEntity
  8
0
  6
Continuous
 62
     7
100
AcDbLine
 10
3.85314317718111
 20
473.64902908204
 30
0.0
 11
6.85314317718111
 21
473.64902908204
 31
0.0
  0
LINE
  5
2C4
330
9D
100
AcDbEntity
  8
0
  6
Continuous
 62
     7
100
AcDbLine
 10
7.60314317718111
 20
481.64902908204
 30
0.0
 11
7.60314317718111
 21
473.64902908204
 31
0.0
  0
LINE
  5
2C5
330
9D
100
AcDbEntity
  8
1
  6
Continuous
 62
     2
100
AcDbLine
 10
5.35814317718111
 20
451.7490290820401
 30
0.0
 11
5.35814317718111
 21
457.84902908204
 31
0.0
  0
LINE
  5
2C6
330
9D
100
AcDbEntity
  8
1
  6
Continuous
 62
     2
100
AcDbLine
 10
2.34814317718111
 20
451.7490290820401
 30
0.0
 11
2.34814317718111
 21
457.84902908204
 31
0.0
  0
LINE
  5
2C7
330
9D
100
AcDbEntity
  8
1
  6
DOT_CENTER
 62
     2
100
AcDbLine
 10
3.85314317718111
 20
457.84902908204
 30
0.0
 11
3.85314317718111
 21
451.7490290820401
 31
0.0
  0
LINE
  5
2C8
330
9D
100
AcDbEntity
  8
1
  6
DOT_CENTER
 62
     2
100
AcDbLine
 10
3.85314317718111
 20
481.64902908204
 30
0.0
 11
3.85314317718108
 21
464.8490290820399
 31
0.0
  0
ENDBLK
  5
9F
330
9D
100
AcDbEntity
  8
0
100
AcDbBlockEnd
  0
BLOCK
  5
A2
330
A0
100
AcDbEntity
  8
0
100
AcDbBlockBegin
  2
Right1
 70
     0
 10
3.85314329154752
 20
466.6990272608055
 30
0.0
  3
Right1
  1

  0
INSERT
  5
A1
330
A0
100
AcDbEntity
  8
0
100
AcDbBlockReference
  2
PSBJ_GSK_FARBLOS-select__5
 10
0.10314317718111
 20
451.7490290820401
 30
0.0
  0
ENDBLK
  5
A3
330
A0
100
AcDbEntity
  8
0
100
AcDbBlockEnd
  0
BLOCK
  5
A5
330
A4
100
AcDbEntity
  8
0
100
AcDbBlockBegin
  2
PSBJ_GSK_FARBLOS-select__6
 70
     0
 10
37.60217189792283
 20
414.2499996844675
 30
0.0
  3
PSBJ_GSK_FARBLOS-select__6
  1

  0
LINE
  5
2C9
330
A4
100
AcDbEntity
  8
0
  6
Continuous
 62
     7
100
AcDbLine
 10
37.60407454887697
 20
421.6999996844675
 30
0.0
 11
37.60217189792283
 21
421.6999996844675
 31
0.0
  0
LINE
  5
2CA
330
A4
100
AcDbEntity
  8
0
  6
Continuous
 62
     7
100
AcDbLine
 10
37.60217189792283
 20
421.6999996844675
 30
0.0
 11
37.60217189792283
 21
414.2999996844675
 31
0.0
  0
LINE
  5
2CB
330
A4
100
AcDbEntity
  8
0
  6
Continuous
 62
     7
100
AcDbLine
 10
37.60407454887696
 20
414.2999996844675
 30
0.0
 11
37.60217189792283
 21
414.2999996844675
 31
0.0
  0
LINE
  5
2CC
330
A4
100
AcDbEntity
  8
0
  6
Continuous
 62
     7
100
AcDbLine
 10
46.73651688043248
 20
419.0522378858252
 30
0.0
 11
47.40444477288622
 21
419.720165778279
 31
0.0
  0
LINE
  5
2CD
330
A4
100
AcDbEntity
  8
0
  6
Continuous
 62
     7
100
AcDbLine
 10
48.1334502390734
 20
420.0249458647313
 30
0.0
 11
48.1334502390734
 21
421.6999996844675
 31
0.0
  0
LINE
  5
2CE
330
A4
100
AcDbEntity
  8
0
  6
Continuous
 62
     7
100
AcDbLine
 10
41.49587088375487
 20
421.6999996844675
 30
0.0
 11
41.49587088375487
 21
419.3939305468111
 31
0.0
  0
LINE
  5
2CF
330
A4
100
AcDbEntity
  8
0
  6
Continuous
 62
     7
100
AcDbLine
 10
41.49587088375487
 20
416.6060688221238
 30
0.0
 11
41.49587088375487
 21
414.2999996844675
 31
0.0
  0
LINE
  5
2D0
330
A4
100
AcDbEntity
  8
0
  6
Continuous
 62
     7
100
AcDbLine
 10
41.49587088375487
 20
421.6999996844675
 30
0.0
 11
41.1021718978882
 21
421.6999996844675
 31
0.0
  0
LINE
  5
2D1
330
A4
100
AcDbEntity
  8
0
  6
Continuous
 62
     7
100
AcDbLine
 10
41.49587088375487
 20
414.2999996844675
 30
0.0
 11
41.1021718978882
 21
414.2999996844675
 31
0.0
  0
LINE
  5
2D2
330
A4
100
AcDbEntity
  8
0
  6
Continuous
 62
     7
100
AcDbLine
 10
41.1021718978882
 20
421.6999996844675
 30
0.0
 11
41.1021718978882
 21
414.2999996844675
 31
0.0
  0
LINE
  5
2D3
330
A4
100
AcDbEntity
  8
0
  6
Continuous
 62
     7
100
AcDbLine
 10
43.21782691534392
 20
416.9477614831097
 30
0.0
 11
42.54989902289017
 21
416.279833590656
 31
0.0
  0
LINE
  5
2D4
330
A4
100
AcDbEntity
  8
0
  6
Continuous
 62
     7
100
AcDbLine
 10
52.17910714057339
 20
414.2999996844675
 30
0.0
 11
52.17910714057339
 21
421.6999996844675
 31
0.0
  0
LINE
  5
2D5
330
A4
100
AcDbEntity
  8
0
  6
Continuous
 62
     7
100
AcDbLine
 10
52.39782879938819
 20
414.2999996844675
 30
0.0
 11
52.39782879938819
 21
421.6999996844675
 31
0.0
  0
LINE
  5
2D6
330
A4
100
AcDbEntity
  8
0
  6
Continuous
 62
     7
100
AcDbLine
 10
48.1334502390734
 20
414.2999996844675
 30
0.0
 11
48.1334502390734
 21
415.9750535042036
 31
0.0
  0
LINE
  5
2D7
330
A4
100
AcDbEntity
  8
0
  6
Continuous
 62
     7
100
AcDbLine
 10
52.17910714057339
 20
414.2999996844675
 30
0.0
 11
50.3521718978882
 21
414.2999996844675
 31
0.0
  0
LINE
  5
2D8
330
A4
100
AcDbEntity
  8
0
  6
Continuous
 62
     7
100
AcDbLine
 10
52.39782879938819
 20
414.2999996844675
 30
0.0
 11
52.17910714057339
 21
414.2999996844675
 31
0.0
  0
LINE
  5
2D9
330
A4
100
AcDbEntity
  8
0
  6
Continuous
 62
     7
100
AcDbLine
 10
50.13345023907339
 20
414.2999996844675
 30
0.0
 11
48.1334502390734
 21
414.2999996844675
 31
0.0
  0
LINE
  5
2DA
330
A4
100
AcDbEntity
  8
0
  6
Continuous
 62
     7
100
AcDbLine
 10
43.25700580407673
 20
415.5727268094694
 30
0.0
 11
43.92493369653047
 21
416.2406547019232
 31
0.0
  0
LINE
  5
2DB
330
A4
100
AcDbEntity
  8
0
  6
Continuous
 62
     7
100
AcDbLine
 10
50.3521718978882
 20
421.6999996844675
 30
0.0
 11
50.13345023907339
 21
421.6999996844675
 31
0.0
  0
LINE
  5
2DC
330
A4
100
AcDbEntity
  8
0
  6
Continuous
 62
     7
100
AcDbLine
 10
50.3521718978882
 20
414.2999996844675
 30
0.0
 11
50.13345023907339
 21
414.2999996844675
 31
0.0
  0
LINE
  5
2DD
330
A4
100
AcDbEntity
  8
0
  6
Continuous
 62
     7
100
AcDbLine
 10
50.3521718978882
 20
421.6999996844675
 30
0.0
 11
50.3521718978882
 21
414.2999996844675
 31
0.0
  0
LINE
  5
2DE
330
A4
100
AcDbEntity
  8
0
  6
Continuous
 62
     7
100
AcDbLine
 10
50.13345023907339
 20
414.2999996844675
 30
0.0
 11
50.13345023907339
 21
421.6999996844675
 31
0.0
  0
LINE
  5
2DF
330
A4
100
AcDbEntity
  8
0
  6
Continuous
 62
     7
100
AcDbLine
 10
52.17910714057339
 20
421.6999996844675
 30
0.0
 11
50.3521718978882
 21
421.6999996844675
 31
0.0
  0
LINE
  5
2E0
330
A4
100
AcDbEntity
  8
0
  6
Continuous
 62
     7
100
AcDbLine
 10
52.39782879938819
 20
421.6999996844675
 30
0.0
 11
52.17910714057339
 21
421.6999996844675
 31
0.0
  0
LINE
  5
2E1
330
A4
100
AcDbEntity
  8
0
  6
Continuous
 62
     7
100
AcDbLine
 10
50.13345023907339
 20
421.6999996844675
 30
0.0
 11
48.1334502390734
 21
421.6999996844675
 31
0.0
  0
LINE
  5
2E2
330
A4
100
AcDbEntity
  8
0
  6
Continuous
 62
     7
100
AcDbLine
 10
46.69733799169968
 20
420.4272725594655
 30
0.0
 11
46.02941009924593
 21
419.7593446670118
 31
0.0
  0
LINE
  5
2E3
330
A4
100
AcDbEntity
  8
0
  6
Continuous
 62
     7
100
AcDbLine
 10
45.58749967867489
 20
421.6999996844675
 30
0.0
 11
48.1334502390734
 21
421.6999996844675
 31
0.0
  0
LINE
  5
2E4
330
A4
100
AcDbEntity
  8
0
  6
Continuous
 62
     7
100
AcDbLine
 10
39.6021718978882
 20
421.6999996844675
 30
0.0
 11
41.1021718978882
 21
421.6999996844675
 31
0.0
  0
LINE
  5
2E5
330
A4
100
AcDbEntity
  8
0
  6
Continuous
 62
     7
100
AcDbLine
 10
37.9064723014919
 20
421.6999996844675
 30
0.0
 11
37.60407454887697
 21
421.6999996844675
 31
0.0
  0
LINE
  5
2E6
330
A4
100
AcDbEntity
  8
0
  6
Continuous
 62
     7
100
AcDbLine
 10
37.9064723014919
 20
421.6999996844675
 30
0.0
 11
39.6021718978882
 21
421.6999996844675
 31
0.0
  0
LINE
  5
2E7
330
A4
100
AcDbEntity
  8
0
  6
Continuous
 62
     7
100
AcDbLine
 10
41.49587088375487
 20
421.6999996844675
 30
0.0
 11
44.36684411710151
 21
421.6999996844675
 31
0.0
  0
LINE
  5
2E8
330
A4
100
AcDbEntity
  8
0
  6
Continuous
 62
     2
100
AcDbLine
 10
37.60407454887697
 20
421.6999996844675
 30
0.0
 11
37.60407454887696
 21
414.2999996844675
 31
0.0
  0
LINE
  5
2E9
330
A4
100
AcDbEntity
  8
0
  6
Continuous
 62
     7
100
AcDbLine
 10
37.9064723014919
 20
421.6999996844675
 30
0.0
 11
37.9064723014919
 21
414.2999996844675
 31
0.0
  0
LINE
  5
2EA
330
A4
100
AcDbEntity
  8
0
  6
Continuous
 62
     7
100
AcDbLine
 10
45.58749967867488
 20
414.2999996844675
 30
0.0
 11
48.1334502390734
 21
414.2999996844675
 31
0.0
  0
LINE
  5
2EB
330
A4
100
AcDbEntity
  8
0
  6
Continuous
 62
     7
100
AcDbLine
 10
39.6021718978882
 20
414.2999996844675
 30
0.0
 11
41.1021718978882
 21
414.2999996844675
 31
0.0
  0
LINE
  5
2EC
330
A4
100
AcDbEntity
  8
0
  6
Continuous
 62
     7
100
AcDbLine
 10
37.9064723014919
 20
414.2999996844675
 30
0.0
 11
37.60407454887696
 21
414.2999996844675
 31
0.0
  0
LINE
  5
2ED
330
A4
100
AcDbEntity
  8
0
  6
Continuous
 62
     7
100
AcDbLine
 10
37.9064723014919
 20
414.2999996844675
 30
0.0
 11
39.6021718978882
 21
414.2999996844675
 31
0.0
  0
LINE
  5
2EE
330
A4
100
AcDbEntity
  8
0
  6
Continuous
 62
     7
100
AcDbLine
 10
41.49587088375487
 20
414.2999996844675
 30
0.0
 11
44.36684411710152
 21
414.2999996844675
 31
0.0
  0
LINE
  5
2EF
330
A4
100
AcDbEntity
  8
0
  6
Continuous
 62
     7
100
AcDbLine
 10
39.6021718978882
 20
414.2999996844675
 30
0.0
 11
39.6021718978882
 21
421.6999996844675
 31
0.0
  0
LINE
  5
2F0
330
A4
100
AcDbEntity
  8
1
  6
DOT_CENTER
 62
     2
100
AcDbLine
 10
49.1021718978882
 20
417.9999996844675
 30
0.0
 11
40.8521718978882
 21
417.9999996844675
 31
0.0
  0
LINE
  5
2F1
330
A4
100
AcDbEntity
  8
1
  6
DOT_CENTER
 62
     2
100
AcDbLine
 10
44.9771718978882
 20
422.1249996844675
 30
0.0
 11
44.9771718978882
 21
413.8749996844675
 31
0.0
  0
ARC
  5
2F2
330
A4
100
AcDbEntity
  8
0
  6
Continuous
 62
     7
100
AcDbCircle
 10
44.9771718978882
 20
417.9999996844675
 30
0.0
 40
2.974999999999973
100
AcDbArc
 50
35.32453748288793
 51
54.6754625171116
  0
ARC
  5
2F3
330
A4
100
AcDbEntity
  8
0
  6
Continuous
 62
     7
100
AcDbCircle
 10
44.9771718978882
 20
417.9999996844675
 30
0.0
 40
2.050000000000048
100
AcDbArc
 50
30.88301942869618
 51
59.11698057130273
  0
ARC
  5
2F4
330
A4
100
AcDbEntity
  8
0
  6
Continuous
 62
     7
100
AcDbCircle
 10
44.9771718978882
 20
417.9999996844675
 30
0.0
 40
2.975000000000013
100
AcDbArc
 50
314.9999999999989
 51
35.32453748288793
  0
ARC
  5
2F5
330
A4
100
AcDbEntity
  8
0
  6
Continuous
 62
     7
100
AcDbCircle
 10
44.9771718978882
 20
417.9999996844675
 30
0.0
 40
2.050000000000125
100
AcDbArc
 50
239.1169805713037
 51
30.88301942869618
  0
ARC
  5
2F6
330
A4
100
AcDbEntity
  8
0
  6
Continuous
 62
     7
100
AcDbCircle
 10
44.9771718978882
 20
417.9999996844675
 30
0.0
 40
2.975000000000006
100
AcDbArc
 50
215.3245374828888
 51
234.6754625171137
  0
ARC
  5
2F7
330
A4
100
AcDbEntity
  8
0
  6
Continuous
 62
     7
100
AcDbCircle
 10
44.9771718978882
 20
417.9999996844675
 30
0.0
 40
2.050000000000129
100
AcDbArc
 50
210.8830194287004
 51
239.1169805713037
  0
ARC
  5
2F8
330
A4
100
AcDbEntity
  8
0
  6
Continuous
 62
     7
100
AcDbCircle
 10
44.9771718978882
 20
417.9999996844675
 30
0.0
 40
2.05000000000008
100
AcDbArc
 50
59.11698057130273
 51
210.8830194287004
  0
ARC
  5
2F9
330
A4
100
AcDbEntity
  8
0
  6
Continuous
 62
     7
100
AcDbCircle
 10
44.9771718978882
 20
417.9999996844675
 30
0.0
 40
2.974999999999938
100
AcDbArc
 50
54.6754625171116
 51
215.3245374828888
  0
ARC
  5
2FA
330
A4
100
AcDbEntity
  8
0
  6
Continuous
 62
     7
100
AcDbCircle
 10
44.9771718978882
 20
417.9999996844675
 30
0.0
 40
2.975000000000069
100
AcDbArc
 50
234.6754625171137
 51
314.9999999999989
  0
CIRCLE
  5
2FB
330
A4
100
AcDbEntity
  8
0
  6
Continuous
 62
     7
100
AcDbCircle
 10
44.9771718978882
 20
417.9999996844675
 30
0.0
 40
3.75
  0
ENDBLK
  5
A6
330
A4
100
AcDbEntity
  8
0
100
AcDbBlockEnd
  0
BLOCK
  5
A9
330
A7
100
AcDbEntity
  8
0
100
AcDbBlockBegin
  2
Top1
 70
     0
 10
45.0
 20
417.9999997988339
 30
0.0
  3
Top1
  1

  0
INSERT
  5
A8
330
A7
100
AcDbEntity
  8
0
100
AcDbBlockReference
  2
PSBJ_GSK_FARBLOS-select__6
 10
37.60217189792283
 20
414.2499996844675
 30
0.0
  0
DIMENSION
  5
308
330
A7
100
AcDbEntity
  8
1
100
AcDbDimension
  2
*D19
 10
27.60217189792283
 20
421.6999996844675
 30
0.0
 11
24.17717189792283
 21
429.444309224276
 31
0.0
 70
    32
  1
<>
 71
     5
 42
-1.0
 53
90.0
  3
ME10_DIM_11
100
AcDbAlignedDimension
 13
37.60217189792283
 23
414.2999996844675
 33
0.0
 14
37.60217189792283
 24
421.6999996844675
 34
0.0
 50
90.0
100
AcDbRotatedDimension
  0
ENDBLK
  5
AA
330
A7
100
AcDbEntity
  8
0
100
AcDbBlockEnd
  0
BLOCK
  5
B3
330
AB
100
AcDbEntity
  8
0
100
AcDbBlockBegin
  2
1
 70
     0
 10
0.0
 20
0.0
 30
0.0
  3
1
  1

  0
INSERT
  5
AC
330
AB
100
AcDbEntity
  8
0
100
AcDbBlockReference
  2
A4I_CS
 10
201.3267818462667
 20
332.9078770298354
 30
0.0
  0
INSERT
  5
AD
330
AB
100
AcDbEntity
  8
0
100
AcDbBlockReference
  2
Gen1
 10
107.293712899417
 20
407.999999912927
 30
0.0
  0
INSERT
  5
AE
330
AB
100
AcDbEntity
  8
0
100
AcDbBlockReference
  2
Back1
 10
107.2937130145729
 20
466.6990272608055
 30
0.0
  0
INSERT
  5
AF
330
AB
100
AcDbEntity
  8
0
100
AcDbBlockReference
  2
Front1
 10
45.0000000000001
 20
466.6990272608055
 30
0.0
  0
INSERT
  5
B0
330
AB
100
AcDbEntity
  8
0
100
AcDbBlockReference
  2
Left1
 10
76.14685670845648
 20
466.6990272608055
 30
0.0
  0
INSERT
  5
B1
330
AB
100
AcDbEntity
  8
0
100
AcDbBlockReference
  2
Right1
 10
3.85314329154752
 20
466.6990272608055
 30
0.0
  0
INSERT
  5
B2
330
AB
100
AcDbEntity
  8
0
100
AcDbBlockReference
  2
Top1
 10
45.0
 20
417.9999997988339
 30
0.0
  0
ENDBLK
  5
B4
330
AB
100
AcDbEntity
  8
0
100
AcDbBlockEnd
  0
BLOCK
  5
273
330
26C
100
AcDbEntity
  8
0
100
AcDbBlockBegin
  2
*D17
 70
     1
 10
0.0
 20
0.0
 30
0.0
  3
*D17
  1

  0
LINE
  5
26D
330
26C
100
AcDbEntity
  8
1
  6
Continuous
 62
     2
100
AcDbLine
 10
27.60217189792287
 20
451.7490290820401
 30
0.0
 11
27.60217189792287
 21
481.64902908204
 31
0.0
  0
LINE
  5
26E
330
26C
100
AcDbEntity
  8
1
  6
Continuous
 62
     2
100
AcDbLine
 10
43.2271718978883
 20
451.7490290820401
 30
0.0
 11
26.10217189792287
 21
451.7490290820401
 31
0.0
  0
LINE
  5
26F
330
26C
100
AcDbEntity
  8
1
  6
Continuous
 62
     2
100
AcDbLine
 10
41.2271718978883
 20
481.64902908204
 30
0.0
 11
26.10217189792287
 21
481.64902908204
 31
0.0
  0
SOLID
  5
270
330
26C
100
AcDbEntity
  8
1
 62
     2
100
AcDbTrace
 10
27.14138815636699
 20
455.2490290820401
 30
0.0
 11
28.06295563947876
 21
455.2490290820401
 31
0.0
 12
27.60217189792287
 22
451.7490290820401
 32
0.0
 13
27.60217189792287
 23
451.7490290820401
 33
0.0
  0
SOLID
  5
271
330
26C
100
AcDbEntity
  8
1
 62
     2
100
AcDbTrace
 10
28.06295563947875
 20
478.14902908204
 30
0.0
 11
27.14138815636699
 21
478.14902908204
 31
0.0
 12
27.60217189792287
 22
481.64902908204
 32
0.0
 13
27.60217189792287
 23
481.64902908204
 33
0.0
  0
MTEXT
  5
272
330
26C
100
AcDbEntity
  8
1
 62
     3
100
AcDbMText
 10
25.75217189792287
 20
462.427182691061
 30
0.0
 40
3.5
 41
0.0
 71
     7
 72
     1
  1
29,9
  7
CONVERTER_11
 11
0.0
 21
1.0
 31
0.0
 73
     1
 44
0.60024009603842
  0
ENDBLK
  5
274
330
26C
100
AcDbEntity
  8
0
100
AcDbBlockEnd
  0
BLOCK
  5
27E
330
277
100
AcDbEntity
  8
0
100
AcDbBlockBegin
  2
*D18
 70
     1
 10
0.0
 20
0.0
 30
0.0
  3
*D18
  1

  0
LINE
  5
278
330
277
100
AcDbEntity
  8
1
  6
Continuous
 62
     2
100
AcDbLine
 10
37.60217189792294
 20
441.598104981517
 30
0.0
 11
52.3978287993883
 21
441.598104981517
 31
0.0
  0
LINE
  5
279
330
277
100
AcDbEntity
  8
1
  6
Continuous
 62
     2
100
AcDbLine
 10
37.60217189792294
 20
458.34902908204
 30
0.0
 11
37.60217189792294
 21
440.098104981517
 31
0.0
  0
LINE
  5
27A
330
277
100
AcDbEntity
  8
1
  6
Continuous
 62
     2
100
AcDbLine
 10
52.3978287993883
 20
457.84902908204
 30
0.0
 11
52.3978287993883
 21
440.098104981517
 31
0.0
  0
SOLID
  5
27B
330
277
100
AcDbEntity
  8
1
 62
     2
100
AcDbTrace
 10
41.10217189792294
 20
442.0588887230729
 30
0.0
 11
41.10217189792294
 21
441.1373212399611
 31
0.0
 12
37.60217189792294
 22
441.598104981517
 32
0.0
 13
37.60217189792294
 23
441.598104981517
 33
0.0
  0
SOLID
  5
27C
330
277
100
AcDbEntity
  8
1
 62
     2
100
AcDbTrace
 10
48.8978287993883
 20
441.1373212399611
 30
0.0
 11
48.8978287993883
 21
442.0588887230729
 31
0.0
 12
52.3978287993883
 22
441.598104981517
 32
0.0
 13
52.3978287993883
 23
441.598104981517
 33
0.0
  0
MTEXT
  5
27D
330
277
100
AcDbEntity
  8
1
 62
     3
100
AcDbMText
 10
40.68967189788826
 20
443.448104981517
 30
0.0
 40
3.5
 41
0.0
 71
     7
 72
     1
  1
14,8
  7
CONVERTER_11
 11
0.9999999999970619
 21
2.424068405545306E-6
 31
0.0
 73
     1
 44
0.60024009603842
  0
ENDBLK
  5
27F
330
277
100
AcDbEntity
  8
0
100
AcDbBlockEnd
  0
BLOCK
  5
305
330
2FC
100
AcDbEntity
  8
0
100
AcDbBlockBegin
  2
*D19
 70
     1
 10
0.0
 20
0.0
 30
0.0
  3
*D19
  1

  0
LINE
  5
2FD
330
2FC
100
AcDbEntity
  8
1
  6
Continuous
 62
     2
100
AcDbLine
 10
27.60217189792283
 20
432.681809224276
 30
0.0
 11
27.60217189792283
 21
421.6999996844675
 31
0.0
  0
LINE
  5
2FE
330
2FC
100
AcDbEntity
  8
1
  6
Continuous
 62
     2
100
AcDbLine
 10
27.60217189792283
 20
421.6999996844675
 30
0.0
 11
27.60217189792283
 21
414.2999996844675
 31
0.0
  0
LINE
  5
2FF
330
2FC
100
AcDbEntity
  8
1
  6
Continuous
 62
     2
100
AcDbLine
 10
27.60217189792283
 20
414.2999996844675
 30
0.0
 11
27.60217189792283
 21
407.2999996844675
 31
0.0
  0
LINE
  5
300
330
2FC
100
AcDbEntity
  8
1
  6
Continuous
 62
     2
100
AcDbLine
 10
37.60217189792283
 20
421.6999996844675
 30
0.0
 11
26.10217189792283
 21
421.6999996844675
 31
0.0
  0
LINE
  5
301
330
2FC
100
AcDbEntity
  8
1
  6
Continuous
 62
     2
100
AcDbLine
 10
37.60217189792283
 20
414.2999996844675
 30
0.0
 11
26.10217189792283
 21
414.2999996844675
 31
0.0
  0
SOLID
  5
302
330
2FC
100
AcDbEntity
  8
1
 62
     2
100
AcDbTrace
 10
27.14138815636694
 20
425.1999996844675
 30
0.0
 11
28.06295563947872
 21
425.1999996844675
 31
0.0
 12
27.60217189792283
 22
421.6999996844675
 32
0.0
 13
27.60217189792283
 23
421.6999996844675
 33
0.0
  0
SOLID
  5
303
330
2FC
100
AcDbEntity
  8
1
 62
     2
100
AcDbTrace
 10
28.06295563947871
 20
410.7999996844675
 30
0.0
 11
27.14138815636694
 21
410.7999996844675
 31
0.0
 12
27.60217189792283
 22
414.2999996844675
 32
0.0
 13
27.60217189792283
 23
414.2999996844675
 33
0.0
  0
MTEXT
  5
304
330
2FC
100
AcDbEntity
  8
1
 62
     3
100
AcDbMText
 10
25.75217189792283
 20
426.206809224276
 30
0.0
 40
3.5
 41
0.0
 71
     7
 72
     1
  1
7,4
  7
CONVERTER_11
 11
0.0
 21
1.0
 31
0.0
 73
     1
 44
0.60024009603842
  0
ENDBLK
  5
306
330
2FC
100
AcDbEntity
  8
0
100
AcDbBlockEnd
  0
ENDSEC
  0
SECTION
  2
ENTITIES
  0
INSERT
  5
B5
330
1F
100
AcDbEntity
  8
1
100
AcDbBlockReference
  2
1
 10
0.0
 20
0.0
 30
0.0
  0
ENDSEC
  0
SECTION
  2
OBJECTS
  0
DICTIONARY
  5
C
330
0
100
AcDbDictionary
281
     1
  3
ACAD_DETAILVIEWSTYLE
350
34E
  3
ACAD_GROUP
350
D
  3
ACAD_LAYOUT
350
1A
  3
ACAD_MATERIAL
350
43
  3
ACAD_MLEADERSTYLE
350
6B
  3
ACAD_MLINESTYLE
350
17
  3
ACAD_PLOTSETTINGS
350
19
  3
ACAD_PLOTSTYLENAME
350
E
  3
ACAD_SCALELIST
350
47
  3
ACAD_SECTIONVIEWSTYLE
350
34F
  3
ACAD_TABLESTYLE
350
69
  3
ACAD_VISUALSTYLE
350
2A
  3
ACDB_RECOMPOSE_DATA
350
34B
  3
AcDbVariableDictionary
350
30B
  0
DICTIONARY
  5
309
330
8
100
AcDbDictionary
280
     1
281
     1
  3
ACAD_XREC_ROUNDTRIP
360
30A
  0
DICTIONARY
  5
34E
102
{ACAD_REACTORS
330
C
102
}
330
C
100
AcDbDictionary
281
     1
  0
DICTIONARY
  5
D
102
{ACAD_REACTORS
330
C
102
}
330
C
100
AcDbDictionary
281
     1
  0
DICTIONARY
  5
1A
102
{ACAD_REACTORS
330
C
102
}
330
C
100
AcDbDictionary
281
     1
  3
Layout1
350
1E
  3
Layout2
350
26
  3
Model
350
22
  0
DICTIONARY
  5
43
102
{ACAD_REACTORS
330
C
102
}
330
C
100
AcDbDictionary
281
     1
  3
ByBlock
350
45
  3
ByLayer
350
44
  3
Global
350
46
  0
DICTIONARY
  5
6B
102
{ACAD_REACTORS
330
C
102
}
330
C
100
AcDbDictionary
281
     1
  3
Standard
350
6C
  0
DICTIONARY
  5
17
102
{ACAD_REACTORS
330
C
102
}
330
C
100
AcDbDictionary
281
     1
  3
Standard
350
18
  0
DICTIONARY
  5
19
102
{ACAD_REACTORS
330
C
102
}
330
C
100
AcDbDictionary
281
     1
  0
ACDBDICTIONARYWDFLT
  5
E
102
{ACAD_REACTORS
330
C
102
}
330
C
100
AcDbDictionary
281
     1
  3
Normal
350
F
100
AcDbDictionaryWithDefault
340
F
  0
DICTIONARY
  5
47
102
{ACAD_REACTORS
330
C
102
}
330
C
100
AcDbDictionary
281
     1
  3
A0
350
48
  3
A1
350
49
  3
A2
350
4A
  3
A3
350
4B
  3
A4
350
4C
  3
A5
350
4D
  3
A6
350
4E
  3
A7
350
4F
  3
A8
350
50
  3
A9
350
51
  3
B0
350
52
  3
B1
350
53
  3
B2
350
54
  3
B3
350
55
  3
B4
350
56
  3
B5
350
57
  3
B6
350
58
  3
B7
350
59
  3
B8
350
5A
  3
B9
350
5B
  3
C0
350
5C
  3
C1
350
5D
  3
C2
350
5E
  3
C3
350
5F
  3
C4
350
60
  3
C5
350
61
  3
C6
350
62
  3
C7
350
63
  3
C8
350
64
  3
C9
350
65
  3
D0
350
66
  3
D1
350
67
  3
D2
350
68
  0
DICTIONARY
  5
34F
102
{ACAD_REACTORS
330
C
102
}
330
C
100
AcDbDictionary
281
     1
  0
DICTIONARY
  5
69
102
{ACAD_REACTORS
330
C
102
}
330
C
100
AcDbDictionary
281
     1
  3
Standard
350
6A
  0
DICTIONARY
  5
2A
102
{ACAD_REACTORS
330
C
102
}
330
C
100
AcDbDictionary
281
     1
  3
2dWireframe
350
2F
  3
Basic
350
32
  3
Brighten
350
36
  3
ColorChange
350
3A
  3
Conceptual
350
34
  3
Dim
350
35
  3
EdgeColorOff
350
3D
  3
Facepattern
350
39
  3
Flat
350
2B
  3
FlatWithEdges
350
2C
  3
Gouraud
350
2D
  3
GouraudWithEdges
350
2E
  3
Hidden
350
31
  3
JitterOff
350
3B
  3
Linepattern
350
38
  3
OverhangOff
350
3C
  3
Realistic
350
33
  3
Shaded
350
42
  3
Shaded with edges
350
41
  3
Shades of Gray
350
3E
  3
Sketchy
350
3F
  3
Thicken
350
37
  3
Wireframe
350
30
  3
X-Ray
350
40
  0
XRECORD
  5
34B
102
{ACAD_REACTORS
330
C
102
}
330
C
100
AcDbXrecord
280
     1
 90
        1
330
6A
  0
DICTIONARY
  5
30B
102
{ACAD_REACTORS
330
C
102
}
330
C
100
AcDbDictionary
281
     1
  3
CANNOSCALE
350
30C
  3
CMLEADERSTYLE
350
34D
  3
CTABLESTYLE
350
34C
  3
MSLTSCALE
350
30D
  3
XCLIPFRAME
350
30E
  0
XRECORD
  5
30A
102
{ACAD_REACTORS
330
309
102
}
330
309
100
AcDbXrecord
280
     1
102
VTR_0.000_0.000_1.000_1.000_VISUALSTYLE
340
2F
102
VTR_0.000_0.000_1.000_1.000_GRIDDISPLAY
 70
     3
102
VTR_0.000_0.000_1.000_1.000_GRIDMAJOR
 70
     5
102
VTR_0.000_0.000_1.000_1.000_DEFAULTLIGHTING
280
     1
102
VTR_0.000_0.000_1.000_1.000_DEFAULTLIGHTINGTYPE
 70
     1
102
VTR_0.000_0.000_1.000_1.000_BRIGHTNESS
141
0.0
102
VTR_0.000_0.000_1.000_1.000_CONTRAST
142
0.0
  0
LAYOUT
  5
1E
102
{ACAD_REACTORS
330
1A
102
}
330
1A
100
AcDbPlotSettings
  1

  2
none_device
  4

  6

 40
0.0
 41
0.0
 42
0.0
 43
0.0
 44
0.0
 45
0.0
 46
0.0
 47
0.0
 48
0.0
 49
0.0
140
0.0
141
0.0
142
1.0
143
1.0
 70
   688
 72
     0
 73
     0
 74
     5
  7

 75
    16
 76
     0
 77
     2
 78
   300
147
1.0
148
0.0
149
0.0
100
AcDbLayout
  1
Layout1
 70
     1
 71
     1
 10
0.0
 20
0.0
 11
12.0
 21
9.0
 12
0.0
 22
0.0
 32
0.0
 14
1.00000000000000E+20
 24
1.00000000000000E+20
 34
1.00000000000000E+20
 15
-1.00000000000000E+20
 25
-1.00000000000000E+20
 35
-1.00000000000000E+20
146
0.0
 13
0.0
 23
0.0
 33
0.0
 16
1.0
 26
0.0
 36
0.0
 17
0.0
 27
1.0
 37
0.0
 76
     0
330
1B
  0
LAYOUT
  5
26
102
{ACAD_REACTORS
330
1A
102
}
330
1A
100
AcDbPlotSettings
  1

  2
none_device
  4

  6

 40
0.0
 41
0.0
 42
0.0
 43
0.0
 44
0.0
 45
0.0
 46
0.0
 47
0.0
 48
0.0
 49
0.0
140
0.0
141
0.0
142
1.0
143
1.0
 70
   688
 72
     0
 73
     0
 74
     5
  7

 75
    16
 76
     0
 77
     2
 78
   300
147
1.0
148
0.0
149
0.0
100
AcDbLayout
  1
Layout2
 70
     1
 71
     2
 10
0.0
 20
0.0
 11
0.0
 21
0.0
 12
0.0
 22
0.0
 32
0.0
 14
0.0
 24
0.0
 34
0.0
 15
0.0
 25
0.0
 35
0.0
146
0.0
 13
0.0
 23
0.0
 33
0.0
 16
1.0
 26
0.0
 36
0.0
 17
0.0
 27
1.0
 37
0.0
 76
     0
330
23
  0
LAYOUT
  5
22
102
{ACAD_REACTORS
330
1A
102
}
330
1A
100
AcDbPlotSettings
  1

  2
none_device
  4
Letter_(8.50_x_11.00_Inches)
  6

 40
6.35
 41
6.35
 42
6.35000508
 43
6.35000508
 44
215.9
 45
279.4
 46
0.0
 47
0.0
 48
0.0
 49
0.0
140
0.0
141
0.0
142
1.0
143
1.0
 70
  1712
 72
     0
 73
     0
 74
     0
  7

 75
     0
 76
     0
 77
     2
 78
   300
147
1.0
148
0.0
149
0.0
100
AcDbLayout
  1
Model
 70
     1
 71
     0
 10
0.0
 20
0.0
 11
12.0
 21
9.0
 12
0.0
 22
0.0
 32
0.0
 14
-90.67321815373242
 24
332.9078770298354
 34
0.0
 15
206.3267818462657
 25
542.9078770298355
 35
0.0
146
0.0
 13
0.0
 23
0.0
 33
0.0
 16
1.0
 26
0.0
 36
0.0
 17
0.0
 27
1.0
 37
0.0
 76
     0
330
1F
331
29
  0
MATERIAL
  5
45
102
{ACAD_REACTORS
330
43
102
}
102
{ACAD_XDICTIONARY
360
341
102
}
330
43
100
AcDbMaterial
  1
ByBlock
  0
MATERIAL
  5
44
102
{ACAD_REACTORS
330
43
102
}
102
{ACAD_XDICTIONARY
360
33F
102
}
330
43
100
AcDbMaterial
  1
ByLayer
  0
MATERIAL
  5
46
102
{ACAD_REACTORS
330
43
102
}
102
{ACAD_XDICTIONARY
360
343
102
}
330
43
100
AcDbMaterial
  1
Global
  0
MLEADERSTYLE
  5
6C
102
{ACAD_REACTORS
330
6B
102
}
102
{ACAD_XDICTIONARY
360
349
102
}
330
6B
100
AcDbMLeaderStyle
170
     2
171
     1
172
     0
 90
        2
 40
0.0
 41
0.0
173
     1
 91
-1056964608
340
14
 92
       -2
290
     1
 42
0.09
291
     1
 43
0.36
  3
Standard
341
0
 44
0.18
300

342
11
174
     1
178
     6
175
     1
176
     0
 93
-1056964608
 45
0.18
292
     0
297
     0
 46
0.18
343
0
 94
-1056964608
 47
1.0
 49
1.0
140
1.0
293
     1
141
0.0
294
     1
177
     0
142
1.0
295
     0
296
     0
143
0.125
1001
ACAD_MLEADERVER
1070
     2
  0
MLINESTYLE
  5
18
102
{ACAD_REACTORS
330
17
102
}
330
17
100
AcDbMlineStyle
  2
Standard
 70
     0
  3

 62
   256
 51
90.0
 52
90.0
 71
     2
 49
0.5
 62
   256
  6
BYLAYER
 49
-0.5
 62
   256
  6
BYLAYER
  0
ACDBPLACEHOLDER
  5
F
102
{ACAD_REACTORS
330
E
102
}
330
E
  0
SCALE
  5
48
102
{ACAD_REACTORS
330
47
102
}
330
47
100
AcDbScale
 70
     0
300
1:1
140
1.0
141
1.0
290
     1
  0
SCALE
  5
49
102
{ACAD_REACTORS
330
47
102
}
330
47
100
AcDbScale
 70
     0
300
1:2
140
1.0
141
2.0
290
     0
  0
SCALE
  5
4A
102
{ACAD_REACTORS
330
47
102
}
330
47
100
AcDbScale
 70
     0
300
1:4
140
1.0
141
4.0
290
     0
  0
SCALE
  5
4B
102
{ACAD_REACTORS
330
47
102
}
330
47
100
AcDbScale
 70
     0
300
1:5
140
1.0
141
5.0
290
     0
  0
SCALE
  5
4C
102
{ACAD_REACTORS
330
47
102
}
330
47
100
AcDbScale
 70
     0
300
1:8
140
1.0
141
8.0
290
     0
  0
SCALE
  5
4D
102
{ACAD_REACTORS
330
47
102
}
330
47
100
AcDbScale
 70
     0
300
1:10
140
1.0
141
10.0
290
     0
  0
SCALE
  5
4E
102
{ACAD_REACTORS
330
47
102
}
330
47
100
AcDbScale
 70
     0
300
1:16
140
1.0
141
16.0
290
     0
  0
SCALE
  5
4F
102
{ACAD_REACTORS
330
47
102
}
330
47
100
AcDbScale
 70
     0
300
1:20
140
1.0
141
20.0
290
     0
  0
SCALE
  5
50
102
{ACAD_REACTORS
330
47
102
}
330
47
100
AcDbScale
 70
     0
300
1:30
140
1.0
141
30.0
290
     0
  0
SCALE
  5
51
102
{ACAD_REACTORS
330
47
102
}
330
47
100
AcDbScale
 70
     0
300
1:40
140
1.0
141
40.0
290
     0
  0
SCALE
  5
52
102
{ACAD_REACTORS
330
47
102
}
330
47
100
AcDbScale
 70
     0
300
1:50
140
1.0
141
50.0
290
     0
  0
SCALE
  5
53
102
{ACAD_REACTORS
330
47
102
}
330
47
100
AcDbScale
 70
     0
300
1:100
140
1.0
141
100.0
290
     0
  0
SCALE
  5
54
102
{ACAD_REACTORS
330
47
102
}
330
47
100
AcDbScale
 70
     0
300
2:1
140
2.0
141
1.0
290
     0
  0
SCALE
  5
55
102
{ACAD_REACTORS
330
47
102
}
330
47
100
AcDbScale
 70
     0
300
4:1
140
4.0
141
1.0
290
     0
  0
SCALE
  5
56
102
{ACAD_REACTORS
330
47
102
}
330
47
100
AcDbScale
 70
     0
300
8:1
140
8.0
141
1.0
290
     0
  0
SCALE
  5
57
102
{ACAD_REACTORS
330
47
102
}
330
47
100
AcDbScale
 70
     0
300
10:1
140
10.0
141
1.0
290
     0
  0
SCALE
  5
58
102
{ACAD_REACTORS
330
47
102
}
330
47
100
AcDbScale
 70
     0
300
100:1
140
100.0
141
1.0
290
     0
  0
SCALE
  5
59
102
{ACAD_REACTORS
330
47
102
}
330
47
100
AcDbScale
 70
     0
300
1/128" = 1'-0"
140
0.0078125
141
12.0
290
     0
  0
SCALE
  5
5A
102
{ACAD_REACTORS
330
47
102
}
330
47
100
AcDbScale
 70
     0
300
1/64" = 1'-0"
140
0.015625
141
12.0
290
     0
  0
SCALE
  5
5B
102
{ACAD_REACTORS
330
47
102
}
330
47
100
AcDbScale
 70
     0
300
1/32" = 1'-0"
140
0.03125
141
12.0
290
     0
  0
SCALE
  5
5C
102
{ACAD_REACTORS
330
47
102
}
330
47
100
AcDbScale
 70
     0
300
1/16" = 1'-0"
140
0.0625
141
12.0
290
     0
  0
SCALE
  5
5D
102
{ACAD_REACTORS
330
47
102
}
330
47
100
AcDbScale
 70
     0
300
3/32" = 1'-0"
140
0.09375
141
12.0
290
     0
  0
SCALE
  5
5E
102
{ACAD_REACTORS
330
47
102
}
330
47
100
AcDbScale
 70
     0
300
1/8" = 1'-0"
140
0.125
141
12.0
290
     0
  0
SCALE
  5
5F
102
{ACAD_REACTORS
330
47
102
}
330
47
100
AcDbScale
 70
     0
300
3/16" = 1'-0"
140
0.1875
141
12.0
290
     0
  0
SCALE
  5
60
102
{ACAD_REACTORS
330
47
102
}
330
47
100
AcDbScale
 70
     0
300
1/4" = 1'-0"
140
0.25
141
12.0
290
     0
  0
SCALE
  5
61
102
{ACAD_REACTORS
330
47
102
}
330
47
100
AcDbScale
 70
     0
300
3/8" = 1'-0"
140
0.375
141
12.0
290
     0
  0
SCALE
  5
62
102
{ACAD_REACTORS
330
47
102
}
330
47
100
AcDbScale
 70
     0
300
1/2" = 1'-0"
140
0.5
141
12.0
290
     0
  0
SCALE
  5
63
102
{ACAD_REACTORS
330
47
102
}
330
47
100
AcDbScale
 70
     0
300
3/4" = 1'-0"
140
0.75
141
12.0
290
     0
  0
SCALE
  5
64
102
{ACAD_REACTORS
330
47
102
}
330
47
100
AcDbScale
 70
     0
300
1" = 1'-0"
140
1.0
141
12.0
290
     0
  0
SCALE
  5
65
102
{ACAD_REACTORS
330
47
102
}
330
47
100
AcDbScale
 70
     0
300
1-1/2" = 1'-0"
140
1.5
141
12.0
290
     0
  0
SCALE
  5
66
102
{ACAD_REACTORS
330
47
102
}
330
47
100
AcDbScale
 70
     0
300
3" = 1'-0"
140
3.0
141
12.0
290
     0
  0
SCALE
  5
67
102
{ACAD_REACTORS
330
47
102
}
330
47
100
AcDbScale
 70
     0
300
6" = 1'-0"
140
6.0
141
12.0
290
     0
  0
SCALE
  5
68
102
{ACAD_REACTORS
330
47
102
}
330
47
100
AcDbScale
 70
     0
300
1'-0" = 1'-0"
140
12.0
141
12.0
290
     0
  0
TABLESTYLE
  5
6A
102
{ACAD_REACTORS
330
69
102
}
102
{ACAD_XDICTIONARY
360
345
102
}
330
69
100
AcDbTableStyle
  3
Standard
 70
     0
 71
     0
 40
0.06
 41
0.06
280
     0
281
     0
  7
Standard
140
0.18
170
     2
 62
     0
 63
   257
283
     0
274
    -2
284
     1
 64
     0
275
    -2
285
     1
 65
     0
276
    -2
286
     1
 66
     0
277
    -2
287
     1
 67
     0
278
    -2
288
     1
 68
     0
279
    -2
289
     1
 69
     0
  7
Standard
140
0.25
170
     5
 62
     0
 63
   257
283
     0
274
    -2
284
     1
 64
     0
275
    -2
285
     1
 65
     0
276
    -2
286
     1
 66
     0
277
    -2
287
     1
 67
     0
278
    -2
288
     1
 68
     0
279
    -2
289
     1
 69
     0
  7
Standard
140
0.18
170
     5
 62
     0
 63
   257
283
     0
274
    -2
284
     1
 64
     0
275
    -2
285
     1
 65
     0
276
    -2
286
     1
 66
     0
277
    -2
287
     1
 67
     0
278
    -2
288
     1
 68
     0
279
    -2
289
     1
 69
     0
  0
VISUALSTYLE
  5
2F
102
{ACAD_REACTORS
330
2A
102
}
102
{ACAD_XDICTIONARY
360
317
102
}
330
2A
100
AcDbVisualStyle
  2
2dWireframe
 70
     4
 71
     0
 72
     2
 73
     0
 90
        0
 40
0.6
 41
30.0
 62
     5
 63
     7
421
 16777215
 74
     1
 91
        4
 64
     7
 65
   257
 75
     1
175
     1
 42
1.0
 92
        0
 66
   257
 43
1.0
 76
     1
 77
     6
 78
     2
 67
     7
 79
     5
170
     0
171
     0
290
     0
174
     0
 93
        1
 44
0.0
173
     0
291
     0
 45
0.0
1001
ACAD
1000
AcDbSavedByObjectVersion
1070
     0
  0
VISUALSTYLE
  5
32
102
{ACAD_REACTORS
330
2A
102
}
102
{ACAD_XDICTIONARY
360
31D
102
}
330
2A
100
AcDbVisualStyle
  2
Basic
 70
     7
 71
     1
 72
     0
 73
     1
 90
        0
 40
0.6
 41
30.0
 62
     5
 63
     7
421
 16777215
 74
     0
 91
        4
 64
     7
 65
   257
 75
     1
175
     1
 42
1.0
 92
        8
 66
     7
 43
1.0
 76
     1
 77
     6
 78
     2
 67
     7
 79
     5
170
     0
171
     0
290
     0
174
     0
 93
        1
 44
0.0
173
     0
291
     1
 45
0.0
1001
ACAD
1000
AcDbSavedByObjectVersion
1070
     0
  0
VISUALSTYLE
  5
36
102
{ACAD_REACTORS
330
2A
102
}
102
{ACAD_XDICTIONARY
360
325
102
}
330
2A
100
AcDbVisualStyle
  2
Brighten
 70
    12
 71
     2
 72
     2
 73
     0
 90
        0
 40
0.6
 41
30.0
 62
     5
 63
     7
421
 16777215
 74
     1
 91
        4
 64
     7
 65
   257
 75
     1
175
     1
 42
1.0
 92
        8
 66
     7
 43
1.0
 76
     1
 77
     6
 78
     2
 67
     7
 79
     5
170
     0
171
     0
290
     0
174
     0
 93
        1
 44
50.0
173
     0
291
     1
 45
0.0
1001
ACAD
1000
AcDbSavedByObjectVersion
1070
     0
  0
VISUALSTYLE
  5
3A
102
{ACAD_REACTORS
330
2A
102
}
102
{ACAD_XDICTIONARY
360
32D
102
}
330
2A
100
AcDbVisualStyle
  2
ColorChange
 70
    16
 71
     2
 72
     2
 73
     3
 90
        0
 40
0.6
 41
30.0
 62
     5
 63
     8
421
  8421504
 74
     1
 91
        4
 64
     7
 65
   257
 75
     1
175
     1
 42
1.0
 92
        8
 66
     8
424
  8421504
 43
1.0
 76
     1
 77
     6
 78
     2
 67
     7
 79
     5
170
     0
171
     0
290
     0
174
     0
 93
        1
 44
0.0
173
     0
291
     1
 45
0.0
1001
ACAD
1000
AcDbSavedByObjectVersion
1070
     0
  0
VISUALSTYLE
  5
34
102
{ACAD_REACTORS
330
2A
102
}
102
{ACAD_XDICTIONARY
360
321
102
}
330
2A
100
AcDbVisualStyle
  2
Conceptual
 70
     9
 71
     3
 72
     2
 73
     0
 90
        0
 40
0.6
 41
30.0
 62
     5
 63
     7
421
 16777215
 74
     2
 91
        2
 64
     7
 65
   257
 75
     1
175
     1
 42
179.0
 92
        8
 66
     7
 43
1.0
 76
     1
 77
     6
 78
     2
 67
     7
 79
     3
170
     0
171
     0
290
     0
174
     0
 93
        1
 44
0.0
173
     0
291
     0
 45
0.0
1001
ACAD
1000
AcDbSavedByObjectVersion
1070
     0
  0
VISUALSTYLE
  5
35
102
{ACAD_REACTORS
330
2A
102
}
102
{ACAD_XDICTIONARY
360
323
102
}
330
2A
100
AcDbVisualStyle
  2
Dim
 70
    11
 71
     2
 72
     2
 73
     0
 90
        0
 40
0.6
 41
30.0
 62
     5
 63
     7
421
 16777215
 74
     1
 91
        4
 64
     7
 65
   257
 75
     1
175
     1
 42
1.0
 92
        8
 66
     7
 43
1.0
 76
     1
 77
     6
 78
     2
 67
     7
 79
     5
170
     0
171
     0
290
     0
174
     0
 93
        1
 44
-50.0
173
     0
291
     1
 45
0.0
1001
ACAD
1000
AcDbSavedByObjectVersion
1070
     0
  0
VISUALSTYLE
  5
3D
102
{ACAD_REACTORS
330
2A
102
}
102
{ACAD_XDICTIONARY
360
333
102
}
330
2A
100
AcDbVisualStyle
  2
EdgeColorOff
 70
    22
 71
     2
 72
     2
 73
     0
 90
        0
 40
0.6
 41
30.0
 62
     5
 63
     7
421
 16777215
 74
     1
 91
        4
 64
     7
 65
   257
 75
     1
175
     1
 42
1.0
 92
        8
 66
     7
 43
1.0
 76
     1
 77
     6
 78
     2
 67
     7
 79
     5
170
     0
171
     0
290
     0
174
     0
 93
        1
 44
0.0
173
     0
291
     1
 45
0.0
1001
ACAD
1000
AcDbSavedByObjectVersion
1070
     0
  0
VISUALSTYLE
  5
39
102
{ACAD_REACTORS
330
2A
102
}
102
{ACAD_XDICTIONARY
360
32B
102
}
330
2A
100
AcDbVisualStyle
  2
Facepattern
 70
    15
 71
     2
 72
     2
 73
     0
 90
        0
 40
0.6
 41
30.0
 62
     5
 63
     7
421
 16777215
 74
     1
 91
        4
 64
     7
 65
   257
 75
     1
175
     1
 42
1.0
 92
        8
 66
     7
 43
1.0
 76
     1
 77
     6
 78
     2
 67
     7
 79
     5
170
     0
171
     0
290
     0
174
     0
 93
        1
 44
0.0
173
     0
291
     1
 45
0.0
1001
ACAD
1000
AcDbSavedByObjectVersion
1070
     0
  0
VISUALSTYLE
  5
2B
102
{ACAD_REACTORS
330
2A
102
}
102
{ACAD_XDICTIONARY
360
30F
102
}
330
2A
100
AcDbVisualStyle
  2
Flat
 70
     0
 71
     2
 72
     1
 73
     1
 90
        2
 40
0.6
 41
30.0
 62
     5
 63
     7
421
 16777215
 74
     0
 91
        0
 64
     7
 65
   257
 75
     1
175
     1
 42
1.0
 92
        8
 66
     7
 43
1.0
 76
     1
 77
     6
 78
     2
 67
     7
 79
     5
170
     0
171
     0
290
     0
174
     0
 93
       13
 44
0.0
173
     0
291
     1
 45
0.0
1001
ACAD
1000
AcDbSavedByObjectVersion
1070
     0
  0
VISUALSTYLE
  5
2C
102
{ACAD_REACTORS
330
2A
102
}
102
{ACAD_XDICTIONARY
360
311
102
}
330
2A
100
AcDbVisualStyle
  2
FlatWithEdges
 70
     1
 71
     2
 72
     1
 73
     1
 90
        2
 40
0.6
 41
30.0
 62
     5
 63
     7
421
 16777215
 74
     1
 91
        0
 64
     7
 65
   257
 75
     1
175
     1
 42
1.0
 92
        0
 66
   257
 43
1.0
 76
     1
 77
     6
 78
     2
 67
     7
 79
     5
170
     0
171
     0
290
     0
174
     0
 93
       13
 44
0.0
173
     0
291
     1
 45
0.0
1001
ACAD
1000
AcDbSavedByObjectVersion
1070
     0
  0
VISUALSTYLE
  5
2D
102
{ACAD_REACTORS
330
2A
102
}
102
{ACAD_XDICTIONARY
360
313
102
}
330
2A
100
AcDbVisualStyle
  2
Gouraud
 70
     2
 71
     2
 72
     2
 73
     1
 90
        2
 40
0.6
 41
30.0
 62
     5
 63
     7
421
 16777215
 74
     0
 91
        0
 64
     7
 65
   257
 75
     1
175
     1
 42
1.0
 92
        0
 66
     7
 43
1.0
 76
     1
 77
     6
 78
     2
 67
     7
 79
     5
170
     0
171
     0
290
     0
174
     0
 93
       13
 44
0.0
173
     0
291
     1
 45
0.0
1001
ACAD
1000
AcDbSavedByObjectVersion
1070
     0
  0
VISUALSTYLE
  5
2E
102
{ACAD_REACTORS
330
2A
102
}
102
{ACAD_XDICTIONARY
360
315
102
}
330
2A
100
AcDbVisualStyle
  2
GouraudWithEdges
 70
     3
 71
     2
 72
     2
 73
     1
 90
        2
 40
0.6
 41
30.0
 62
     5
 63
     7
421
 16777215
 74
     1
 91
        0
 64
     7
 65
   257
 75
     1
175
     1
 42
1.0
 92
        0
 66
   257
 43
1.0
 76
     1
 77
     6
 78
     2
 67
     7
 79
     5
170
     0
171
     0
290
     0
174
     0
 93
       13
 44
0.0
173
     0
291
     1
 45
0.0
1001
ACAD
1000
AcDbSavedByObjectVersion
1070
     0
  0
VISUALSTYLE
  5
31
102
{ACAD_REACTORS
330
2A
102
}
102
{ACAD_XDICTIONARY
360
31B
102
}
330
2A
100
AcDbVisualStyle
  2
Hidden
 70
     6
 71
     1
 72
     2
 73
     2
 90
        0
 40
0.6
 41
30.0
 62
     5
 63
     7
421
 16777215
 74
     2
 91
        2
 64
     7
 65
   257
 75
     2
175
     1
 42
40.0
 92
        0
 66
   257
 43
1.0
 76
     1
 77
     6
 78
     2
 67
     7
 79
     3
170
     0
171
     0
290
     0
174
     0
 93
        1
 44
0.0
173
     0
291
     0
 45
0.0
1001
ACAD
1000
AcDbSavedByObjectVersion
1070
     0
  0
VISUALSTYLE
  5
3B
102
{ACAD_REACTORS
330
2A
102
}
102
{ACAD_XDICTIONARY
360
32F
102
}
330
2A
100
AcDbVisualStyle
  2
JitterOff
 70
    20
 71
     2
 72
     2
 73
     0
 90
        0
 40
0.6
 41
30.0
 62
     5
 63
     7
421
 16777215
 74
     1
 91
        4
 64
     7
 65
   257
 75
     1
175
     1
 42
1.0
 92
       10
 66
     7
 43
1.0
 76
     1
 77
     6
 78
     2
 67
     7
 79
     5
170
     0
171
     0
290
     0
174
     0
 93
        1
 44
0.0
173
     0
291
     1
 45
0.0
1001
ACAD
1000
AcDbSavedByObjectVersion
1070
     0
  0
VISUALSTYLE
  5
38
102
{ACAD_REACTORS
330
2A
102
}
102
{ACAD_XDICTIONARY
360
329
102
}
330
2A
100
AcDbVisualStyle
  2
Linepattern
 70
    14
 71
     2
 72
     2
 73
     0
 90
        0
 40
0.6
 41
30.0
 62
     5
 63
     7
421
 16777215
 74
     1
 91
        4
 64
     7
 65
   257
 75
     7
175
     7
 42
1.0
 92
        8
 66
     7
 43
1.0
 76
     1
 77
     6
 78
     2
 67
     7
 79
     5
170
     0
171
     0
290
     0
174
     0
 93
        1
 44
0.0
173
     0
291
     1
 45
0.0
1001
ACAD
1000
AcDbSavedByObjectVersion
1070
     0
  0
VISUALSTYLE
  5
3C
102
{ACAD_REACTORS
330
2A
102
}
102
{ACAD_XDICTIONARY
360
331
102
}
330
2A
100
AcDbVisualStyle
  2
OverhangOff
 70
    21
 71
     2
 72
     2
 73
     0
 90
        0
 40
0.6
 41
30.0
 62
     5
 63
     7
421
 16777215
 74
     1
 91
        4
 64
     7
 65
   257
 75
     1
175
     1
 42
1.0
 92
        9
 66
     7
 43
1.0
 76
     1
 77
     6
 78
     2
 67
     7
 79
     5
170
     0
171
     0
290
     0
174
     0
 93
        1
 44
0.0
173
     0
291
     1
 45
0.0
1001
ACAD
1000
AcDbSavedByObjectVersion
1070
     0
  0
VISUALSTYLE
  5
33
102
{ACAD_REACTORS
330
2A
102
}
102
{ACAD_XDICTIONARY
360
31F
102
}
330
2A
100
AcDbVisualStyle
  2
Realistic
 70
     8
 71
     2
 72
     3
 73
     0
 90
        2
 40
0.6
 41
30.0
 62
     5
 63
     7
421
 16777215
 74
     0
 91
        0
 64
     7
 65
   257
 75
     1
175
     1
 42
1.0
 92
        8
 66
   257
 43
1.0
 76
     1
 77
     6
 78
     2
 67
     7
 79
     3
170
     0
171
     0
290
     0
174
     0
 93
       13
 44
0.0
173
     0
291
     0
 45
0.0
1001
ACAD
1000
AcDbSavedByObjectVersion
1070
     0
  0
VISUALSTYLE
  5
42
102
{ACAD_REACTORS
330
2A
102
}
102
{ACAD_XDICTIONARY
360
33D
102
}
330
2A
100
AcDbVisualStyle
  2
Shaded
 70
    27
 71
     2
 72
     2
 73
     1
 90
        2
 40
0.6
 41
30.0
 62
     5
 63
     7
421
 16777215
 74
     0
 91
        4
 64
     7
 65
   257
 75
     1
175
     1
 42
1.0
 92
        8
 66
   257
 43
1.0
 76
     1
 77
     6
 78
     2
 67
     8
425
  7895160
 79
     3
170
     0
171
     0
290
     0
174
     0
 93
        5
 44
0.0
173
     0
291
     0
 45
0.0
1001
ACAD
1000
AcDbSavedByObjectVersion
1070
     0
  0
VISUALSTYLE
  5
41
102
{ACAD_REACTORS
330
2A
102
}
102
{ACAD_XDICTIONARY
360
33B
102
}
330
2A
100
AcDbVisualStyle
  2
Shaded with edges
 70
    26
 71
     2
 72
     2
 73
     1
 90
        2
 40
0.6
 41
30.0
 62
     5
 63
     7
421
 16777215
 74
     1
 91
       10
 64
     7
 65
   257
 75
     2
175
     1
 42
1.0
 92
        8
 66
   257
 43
1.0
 76
     1
 77
     6
 78
     2
 67
     7
 79
     3
170
     0
171
     0
290
     0
174
     0
 93
        5
 44
0.0
173
     0
291
     0
 45
0.0
1001
ACAD
1000
AcDbSavedByObjectVersion
1070
     0
  0
VISUALSTYLE
  5
3E
102
{ACAD_REACTORS
330
2A
102
}
102
{ACAD_XDICTIONARY
360
335
102
}
330
2A
100
AcDbVisualStyle
  2
Shades of Gray
 70
    23
 71
     2
 72
     2
 73
     3
 90
        0
 40
0.6
 41
30.0
 62
     5
 63
     7
421
 16777215
 74
     2
 91
        2
 64
     7
 65
     7
 75
     1
175
     1
 42
40.0
 92
        8
 66
     7
 43
1.0
 76
     1
 77
     6
 78
     2
 67
     7
 79
     3
170
     0
171
     0
290
     0
174
     0
 93
        1
 44
0.0
173
     0
291
     0
 45
0.0
1001
ACAD
1000
AcDbSavedByObjectVersion
1070
     0
  0
VISUALSTYLE
  5
3F
102
{ACAD_REACTORS
330
2A
102
}
102
{ACAD_XDICTIONARY
360
337
102
}
330
2A
100
AcDbVisualStyle
  2
Sketchy
 70
    24
 71
     1
 72
     2
 73
     2
 90
        0
 40
0.6
 41
30.0
 62
     5
 63
     7
421
 16777215
 74
     2
 91
        2
 64
     7
 65
     7
 75
     1
175
     1
 42
40.0
 92
       11
 66
     7
 43
1.0
 76
     1
 77
     6
 78
     2
 67
     7
 79
     6
170
     0
171
     0
290
     0
174
     0
 93
        1
 44
0.0
173
     0
291
     0
 45
0.0
1001
ACAD
1000
AcDbSavedByObjectVersion
1070
     0
  0
VISUALSTYLE
  5
37
102
{ACAD_REACTORS
330
2A
102
}
102
{ACAD_XDICTIONARY
360
327
102
}
330
2A
100
AcDbVisualStyle
  2
Thicken
 70
    13
 71
     2
 72
     2
 73
     0
 90
        0
 40
0.6
 41
30.0
 62
     5
 63
     7
421
 16777215
 74
     1
 91
        4
 64
     7
 65
   257
 75
     1
175
     1
 42
1.0
 92
       12
 66
     7
 43
1.0
 76
     1
 77
     6
 78
     2
 67
     7
 79
     5
170
     0
171
     0
290
     0
174
     0
 93
        1
 44
0.0
173
     0
291
     1
 45
0.0
1001
ACAD
1000
AcDbSavedByObjectVersion
1070
     0
  0
VISUALSTYLE
  5
30
102
{ACAD_REACTORS
330
2A
102
}
102
{ACAD_XDICTIONARY
360
319
102
}
330
2A
100
AcDbVisualStyle
  2
Wireframe
 70
     5
 71
     0
 72
     2
 73
     0
 90
        0
 40
0.6
 41
30.0
 62
     5
 63
     7
421
 16777215
 74
     1
 91
        4
 64
     7
 65
   257
 75
     1
175
     1
 42
1.0
 92
        0
 66
   257
 43
1.0
 76
     1
 77
     6
 78
     2
 67
     7
 79
     3
170
     0
171
     0
290
     0
174
     0
 93
        1
 44
0.0
173
     0
291
     0
 45
0.0
1001
ACAD
1000
AcDbSavedByObjectVersion
1070
     0
  0
VISUALSTYLE
  5
40
102
{ACAD_REACTORS
330
2A
102
}
102
{ACAD_XDICTIONARY
360
339
102
}
330
2A
100
AcDbVisualStyle
  2
X-Ray
 70
    25
 71
     2
 72
     2
 73
     1
 90
        1
 40
0.5
 41
30.0
 62
     5
 63
     7
421
 16777215
 74
     1
 91
        0
 64
     7
 65
   257
 75
     1
175
     1
 42
1.0
 92
        8
 66
     7
 43
1.0
 76
     1
 77
     6
 78
     2
 67
     7
 79
     3
170
     0
171
     0
290
     0
174
     0
 93
       13
 44
0.0
173
     0
291
     0
 45
0.0
1001
ACAD
1000
AcDbSavedByObjectVersion
1070
     0
  0
DICTIONARYVAR
  5
30C
102
{ACAD_REACTORS
330
30B
102
}
330
30B
100
DictionaryVariables
280
     0
  1
1:1
  0
DICTIONARYVAR
  5
34D
102
{ACAD_REACTORS
330
30B
102
}
330
30B
100
DictionaryVariables
280
     0
  1
Standard
  0
DICTIONARYVAR
  5
34C
102
{ACAD_REACTORS
330
30B
102
}
330
30B
100
DictionaryVariables
280
     0
  1
Standard
  0
DICTIONARYVAR
  5
30D
102
{ACAD_REACTORS
330
30B
102
}
330
30B
100
DictionaryVariables
280
     0
  1
1
  0
DICTIONARYVAR
  5
30E
102
{ACAD_REACTORS
330
30B
102
}
330
30B
100
DictionaryVariables
280
     0
  1
2
  0
DICTIONARY
  5
341
330
45
100
AcDbDictionary
280
     1
281
     1
  3
ACAD_XREC_ROUNDTRIP
360
342
  0
DICTIONARY
  5
33F
330
44
100
AcDbDictionary
280
     1
281
     1
  3
ACAD_XREC_ROUNDTRIP
360
340
  0
DICTIONARY
  5
343
330
46
100
AcDbDictionary
280
     1
281
     1
  3
ACAD_XREC_ROUNDTRIP
360
344
  0
DICTIONARY
  5
349
330
6C
100
AcDbDictionary
280
     1
281
     1
  3
ACAD_XREC_ROUNDTRIP
360
34A
  0
DICTIONARY
  5
345
330
6A
100
AcDbDictionary
280
     1
281
     1
  3
ACAD_ROUNDTRIP_2008_TABLESTYLE_CELLSTYLEMAP
360
347
  3
ACAD_XREC_ROUNDTRIP
360
346
  0
DICTIONARY
  5
317
330
2F
100
AcDbDictionary
280
     1
281
     1
  3
ACAD_XREC_ROUNDTRIP
360
318
  0
DICTIONARY
  5
31D
330
32
100
AcDbDictionary
280
     1
281
     1
  3
ACAD_XREC_ROUNDTRIP
360
31E
  0
DICTIONARY
  5
325
330
36
100
AcDbDictionary
280
     1
281
     1
  3
ACAD_XREC_ROUNDTRIP
360
326
  0
DICTIONARY
  5
32D
330
3A
100
AcDbDictionary
280
     1
281
     1
  3
ACAD_XREC_ROUNDTRIP
360
32E
  0
DICTIONARY
  5
321
330
34
100
AcDbDictionary
280
     1
281
     1
  3
ACAD_XREC_ROUNDTRIP
360
322
  0
DICTIONARY
  5
323
330
35
100
AcDbDictionary
280
     1
281
     1
  3
ACAD_XREC_ROUNDTRIP
360
324
  0
DICTIONARY
  5
333
330
3D
100
AcDbDictionary
280
     1
281
     1
  3
ACAD_XREC_ROUNDTRIP
360
334
  0
DICTIONARY
  5
32B
330
39
100
AcDbDictionary
280
     1
281
     1
  3
ACAD_XREC_ROUNDTRIP
360
32C
  0
DICTIONARY
  5
30F
330
2B
100
AcDbDictionary
280
     1
281
     1
  3
ACAD_XREC_ROUNDTRIP
360
310
  0
DICTIONARY
  5
311
330
2C
100
AcDbDictionary
280
     1
281
     1
  3
ACAD_XREC_ROUNDTRIP
360
312
  0
DICTIONARY
  5
313
330
2D
100
AcDbDictionary
280
     1
281
     1
  3
ACAD_XREC_ROUNDTRIP
360
314
  0
DICTIONARY
  5
315
330
2E
100
AcDbDictionary
280
     1
281
     1
  3
ACAD_XREC_ROUNDTRIP
360
316
  0
DICTIONARY
  5
31B
330
31
100
AcDbDictionary
280
     1
281
     1
  3
ACAD_XREC_ROUNDTRIP
360
31C
  0
DICTIONARY
  5
32F
330
3B
100
AcDbDictionary
280
     1
281
     1
  3
ACAD_XREC_ROUNDTRIP
360
330
  0
DICTIONARY
  5
329
330
38
100
AcDbDictionary
280
     1
281
     1
  3
ACAD_XREC_ROUNDTRIP
360
32A
  0
DICTIONARY
  5
331
330
3C
100
AcDbDictionary
280
     1
281
     1
  3
ACAD_XREC_ROUNDTRIP
360
332
  0
DICTIONARY
  5
31F
330
33
100
AcDbDictionary
280
     1
281
     1
  3
ACAD_XREC_ROUNDTRIP
360
320
  0
DICTIONARY
  5
33D
330
42
100
AcDbDictionary
280
     1
281
     1
  3
ACAD_XREC_ROUNDTRIP
360
33E
  0
DICTIONARY
  5
33B
330
41
100
AcDbDictionary
280
     1
281
     1
  3
ACAD_XREC_ROUNDTRIP
360
33C
  0
DICTIONARY
  5
335
330
3E
100
AcDbDictionary
280
     1
281
     1
  3
ACAD_XREC_ROUNDTRIP
360
336
  0
DICTIONARY
  5
337
330
3F
100
AcDbDictionary
280
     1
281
     1
  3
ACAD_XREC_ROUNDTRIP
360
338
  0
DICTIONARY
  5
327
330
37
100
AcDbDictionary
280
     1
281
     1
  3
ACAD_XREC_ROUNDTRIP
360
328
  0
DICTIONARY
  5
319
330
30
100
AcDbDictionary
280
     1
281
     1
  3
ACAD_XREC_ROUNDTRIP
360
31A
  0
DICTIONARY
  5
339
330
40
100
AcDbDictionary
280
     1
281
     1
  3
ACAD_XREC_ROUNDTRIP
360
33A
  0
XRECORD
  5
342
102
{ACAD_REACTORS
330
341
102
}
330
341
100
AcDbXrecord
280
     1
102
MATERIAL
148
0.0
149
0.0
149
0.0
 93
        0
 94
      127
282
     0
 72
     1
 77
     1
171
     1
175
     1
179
     1
273
     0
  0
XRECORD
  5
340
102
{ACAD_REACTORS
330
33F
102
}
330
33F
100
AcDbXrecord
280
     1
102
MATERIAL
148
0.0
149
0.0
149
0.0
 93
        0
 94
      127
282
     0
 72
     1
 77
     1
171
     1
175
     1
179
     1
273
     0
  0
XRECORD
  5
344
102
{ACAD_REACTORS
330
343
102
}
330
343
100
AcDbXrecord
280
     1
102
MATERIAL
148
0.0
149
0.0
149
0.0
 93
        0
 94
      127
282
     0
 72
     1
 77
     1
171
     1
175
     1
179
     1
273
     0
  0
XRECORD
  5
34A
102
{ACAD_REACTORS
330
349
102
}
330
349
100
AcDbXrecord
280
     1
102
ACAD_ROUNDTRIP_2010_MLEADER_STYLE
  0
CELLSTYLEMAP
  5
347
102
{ACAD_REACTORS
330
345
102
}
330
345
100
AcDbCellStyleMap
 90
        3
300
CELLSTYLE
  1
TABLEFORMAT_BEGIN
 90
        5
170
     1
 91
        0
 92
    32768
 62
   257
 93
        1
300
CONTENTFORMAT
  1
CONTENTFORMAT_BEGIN
 90
        0
 91
        0
 92
        4
 93
        0
300

 40
0.0
140
1.0
 94
        5
 62
     0
340
11
144
0.25
309
CONTENTFORMAT_END
171
     1
301
MARGIN
  1
CELLMARGIN_BEGIN
 40
0.06
 40
0.06
 40
0.06
 40
0.06
 40
0.06
 40
0.06
309
CELLMARGIN_END
 94
        6
 95
        1
302
GRIDFORMAT
  1
GRIDFORMAT_BEGIN
 90
        0
 91
        1
 62
     0
 92
       -2
340
14
 93
        0
 40
0.045
309
GRIDFORMAT_END
 95
        2
302
GRIDFORMAT
  1
GRIDFORMAT_BEGIN
 90
        0
 91
        1
 62
     0
 92
       -2
340
14
 93
        0
 40
0.045
309
GRIDFORMAT_END
 95
        4
302
GRIDFORMAT
  1
GRIDFORMAT_BEGIN
 90
        0
 91
        1
 62
     0
 92
       -2
340
14
 93
        0
 40
0.045
309
GRIDFORMAT_END
 95
        8
302
GRIDFORMAT
  1
GRIDFORMAT_BEGIN
 90
        0
 91
        1
 62
     0
 92
       -2
340
14
 93
        0
 40
0.045
309
GRIDFORMAT_END
 95
       16
302
GRIDFORMAT
  1
GRIDFORMAT_BEGIN
 90
        0
 91
        1
 62
     0
 92
       -2
340
14
 93
        0
 40
0.045
309
GRIDFORMAT_END
 95
       32
302
GRIDFORMAT
  1
GRIDFORMAT_BEGIN
 90
        0
 91
        1
 62
     0
 92
       -2
340
14
 93
        0
 40
0.045
309
GRIDFORMAT_END
309
TABLEFORMAT_END
  1
CELLSTYLE_BEGIN
 90
        1
 91
        1
300
_TITLE
309
CELLSTYLE_END
300
CELLSTYLE
  1
TABLEFORMAT_BEGIN
 90
        5
170
     1
 91
        0
 92
        0
 62
   257
 93
        1
300
CONTENTFORMAT
  1
CONTENTFORMAT_BEGIN
 90
        0
 91
        0
 92
        4
 93
        0
300

 40
0.0
140
1.0
 94
        5
 62
     0
340
11
144
0.18
309
CONTENTFORMAT_END
171
     1
301
MARGIN
  1
CELLMARGIN_BEGIN
 40
0.06
 40
0.06
 40
0.06
 40
0.06
 40
0.06
 40
0.06
309
CELLMARGIN_END
 94
        6
 95
        1
302
GRIDFORMAT
  1
GRIDFORMAT_BEGIN
 90
        0
 91
        1
 62
     0
 92
       -2
340
14
 93
        0
 40
0.045
309
GRIDFORMAT_END
 95
        2
302
GRIDFORMAT
  1
GRIDFORMAT_BEGIN
 90
        0
 91
        1
 62
     0
 92
       -2
340
14
 93
        0
 40
0.045
309
GRIDFORMAT_END
 95
        4
302
GRIDFORMAT
  1
GRIDFORMAT_BEGIN
 90
        0
 91
        1
 62
     0
 92
       -2
340
14
 93
        0
 40
0.045
309
GRIDFORMAT_END
 95
        8
302
GRIDFORMAT
  1
GRIDFORMAT_BEGIN
 90
        0
 91
        1
 62
     0
 92
       -2
340
14
 93
        0
 40
0.045
309
GRIDFORMAT_END
 95
       16
302
GRIDFORMAT
  1
GRIDFORMAT_BEGIN
 90
        0
 91
        1
 62
     0
 92
       -2
340
14
 93
        0
 40
0.045
309
GRIDFORMAT_END
 95
       32
302
GRIDFORMAT
  1
GRIDFORMAT_BEGIN
 90
        0
 91
        1
 62
     0
 92
       -2
340
14
 93
        0
 40
0.045
309
GRIDFORMAT_END
309
TABLEFORMAT_END
  1
CELLSTYLE_BEGIN
 90
        2
 91
        1
300
_HEADER
309
CELLSTYLE_END
300
CELLSTYLE
  1
TABLEFORMAT_BEGIN
 90
        5
170
     1
 91
        0
 92
        0
 62
   257
 93
        1
300
CONTENTFORMAT
  1
CONTENTFORMAT_BEGIN
 90
        0
 91
        0
 92
        4
 93
        0
300

 40
0.0
140
1.0
 94
        2
 62
     0
340
11
144
0.18
309
CONTENTFORMAT_END
171
     1
301
MARGIN
  1
CELLMARGIN_BEGIN
 40
0.06
 40
0.06
 40
0.06
 40
0.06
 40
0.06
 40
0.06
309
CELLMARGIN_END
 94
        6
 95
        1
302
GRIDFORMAT
  1
GRIDFORMAT_BEGIN
 90
        0
 91
        1
 62
     0
 92
       -2
340
14
 93
        0
 40
0.045
309
GRIDFORMAT_END
 95
        2
302
GRIDFORMAT
  1
GRIDFORMAT_BEGIN
 90
        0
 91
        1
 62
     0
 92
       -2
340
14
 93
        0
 40
0.045
309
GRIDFORMAT_END
 95
        4
302
GRIDFORMAT
  1
GRIDFORMAT_BEGIN
 90
        0
 91
        1
 62
     0
 92
       -2
340
14
 93
        0
 40
0.045
309
GRIDFORMAT_END
 95
        8
302
GRIDFORMAT
  1
GRIDFORMAT_BEGIN
 90
        0
 91
        1
 62
     0
 92
       -2
340
14
 93
        0
 40
0.045
309
GRIDFORMAT_END
 95
       16
302
GRIDFORMAT
  1
GRIDFORMAT_BEGIN
 90
        0
 91
        1
 62
     0
 92
       -2
340
14
 93
        0
 40
0.045
309
GRIDFORMAT_END
 95
       32
302
GRIDFORMAT
  1
GRIDFORMAT_BEGIN
 90
        0
 91
        1
 62
     0
 92
       -2
340
14
 93
        0
 40
0.045
309
GRIDFORMAT_END
309
TABLEFORMAT_END
  1
CELLSTYLE_BEGIN
 90
        3
 91
        2
300
_DATA
309
CELLSTYLE_END
  0
XRECORD
  5
346
102
{ACAD_REACTORS
330
345
102
}
330
345
100
AcDbXrecord
280
     1
102
ACAD_ROUNDTRIP_PRE2007_TABLESTYLE
 90
        4
 91
        0
  1

 92
        4
 93
        0
  2

 94
        4
 95
        0
  3

  0
XRECORD
  5
318
102
{ACAD_REACTORS
330
317
102
}
330
317
100
AcDbXrecord
280
     1
102
RTVSPropertyOp0
 70
     1
102
RTVSPropertyOp1
 70
     1
102
RTVSPropertyOp2
 70
     1
102
RTVSPropertyOp3
 70
     1
102
RTVSPropertyOp4
 70
     1
102
RTVSPropertyOp5
 70
     1
102
RTVSPropertyOp6
 70
     1
102
RTVSPropertyOp7
 70
     1
102
RTVSPropertyOp8
 70
     1
102
RTVSPropertyOp9
 70
     1
102
RTVSPropertyOp10
 70
     1
102
RTVSPropertyOp11
 70
     1
102
RTVSPropertyOp12
 70
     1
102
RTVSPropertyOp13
 70
     1
102
RTVSPropertyOp14
 70
     1
102
RTVSPropertyOp15
 70
     1
102
RTVSPropertyOp16
 70
     1
102
RTVSPropertyOp17
 70
     1
102
RTVSPropertyOp18
 70
     1
102
RTVSPropertyOp19
 70
     1
102
RTVSPropertyOp20
 70
     1
102
RTVSPropertyOp21
 70
     1
102
RTVSPropertyOp22
 70
     1
102
RTVSPropertyOp23
 70
     1
102
RTVSPropertyOp24
 70
     1
102
RTVSPropertyOp25
 70
     1
102
RTVSPropertyOp26
 70
     1
102
RTVSPropertyOp27
 70
     1
102
RTVSPropertyOp28
 70
     1
102
RTVSPropertyOp29
 70
     1
102
RTVSPropertyOp30
 70
     1
102
RTVSPropertyOp31
 70
     1
102
RTVSPropertyOp32
 70
     1
102
RTVSPropertyOp33
 70
     1
102
RTVSPropertyOp34
 70
     1
102
RTVSPropertyOp35
 70
     1
102
RTVSPropertyOp36
 70
     1
102
RTVSPropertyOp37
 70
     1
102
RTVSPropertyOp38
 70
     1
102
RTVSPropertyOp39
 70
     1
102
RTVSPropertyOp40
 70
     1
102
RTVSPropertyOp41
 70
     1
102
RTVSPropertyOp42
 70
     1
102
RTVSPropertyOp43
 70
     1
102
RTVSPropertyOp44
 70
     1
102
RTVSPropertyOp45
 70
     1
102
RTVSPropertyOp46
 70
     1
102
RTVSPropertyOp47
 70
     1
102
RTVSPropertyOp48
 70
     1
102
RTVSPropertyOp49
 70
     1
102
RTVSPropertyOp50
 70
     1
102
RTVSPropertyOp51
 70
     0
102
RTVSPropertyOp52
 70
     0
102
RTVSPropertyOp53
 70
     1
102
RTVSPropertyOp54
 70
     1
102
RTVSPropertyOp55
 70
     1
102
RTVSPropertyOp56
 70
     1
102
RTVSPropertyOp57
 70
     1
102
RTVSPost2010Prop28
280
     1
102
RTVSPost2010PropOp28
 70
     1
102
RTVSPost2010Prop29
280
     1
102
RTVSPost2010PropOp29
 70
     1
102
RTVSPost2010Prop30
280
     0
102
RTVSPost2010PropOp30
 70
     1
102
RTVSPost2010Prop31
280
     0
102
RTVSPost2010PropOp31
 70
     1
102
RTVSPost2010Prop32
280
     0
102
RTVSPost2010PropOp32
 70
     1
102
RTVSPost2010Prop33
280
     0
102
RTVSPost2010PropOp33
 70
     1
102
RTVSPost2010Prop34
280
     0
102
RTVSPost2010PropOp34
 70
     1
102
RTVSPost2010Prop35
280
     0
102
RTVSPost2010PropOp35
 70
     1
102
RTVSPost2010Prop36
280
     0
102
RTVSPost2010PropOp36
 70
     1
102
RTVSPost2010Prop37
 90
       50
102
RTVSPost2010PropOp37
 70
     1
102
RTVSPost2010Prop38
140
0.0
102
RTVSPost2010PropOp38
 70
     1
102
RTVSPost2010Prop39
140
1.0
102
RTVSPost2010PropOp39
 70
     1
102
RTVSPost2010Prop40
 90
        0
102
RTVSPost2010PropOp40
 70
     1
102
RTVSPost2010Prop41ColorIndex
 90
       18
102
RTVSPost2010Prop41ColorRGB
 90
        0
102
RTVSPost2010PropOp41
 70
     1
102
RTVSPost2010Prop42
 90
       50
102
RTVSPost2010PropOp42
 70
     1
102
RTVSPost2010Prop43
 90
        3
102
RTVSPost2010PropOp43
 70
     1
102
RTVSPost2010Prop44ColorIndex
 90
        5
102
RTVSPost2010Prop44ColorRGB
 90
      255
102
RTVSPost2010PropOp44
 70
     1
102
RTVSPost2010Prop45
280
     0
102
RTVSPost2010PropOp45
 70
     1
102
RTVSPost2010Prop46
 90
       50
102
RTVSPost2010PropOp46
 70
     1
102
RTVSPost2010Prop47
 90
       50
102
RTVSPost2010PropOp47
 70
     1
102
RTVSPost2010Prop48
 90
       50
102
RTVSPost2010PropOp48
 70
     1
102
RTVSPost2010Prop49
280
     0
102
RTVSPost2010PropOp49
 70
     1
102
RTVSPost2010Prop50
 90
       50
102
RTVSPost2010PropOp50
 70
     1
102
RTVSPost2010Prop51ColorIndex
 90
      256
102
RTVSPost2010Prop51ColorRGB
 90
-16777216
102
RTVSPost2010PropOp51
 70
     0
102
RTVSPost2010Prop52
140
1.0
102
RTVSPost2010PropOp52
 70
     0
102
RTVSPost2010Prop53
 90
        2
102
RTVSPost2010PropOp53
 70
     1
102
RTVSPost2010Prop54
  1
strokes_ogs.tif
102
RTVSPost2010PropOp54
 70
     1
102
RTVSPost2010Prop55
280
     0
102
RTVSPost2010PropOp55
 70
     1
102
RTVSPost2010Prop56
140
1.0
102
RTVSPost2010PropOp56
 70
     1
102
RTVSPost2010Prop57
140
1.0
102
RTVSPost2010PropOp57
 70
     1
  0
XRECORD
  5
31E
102
{ACAD_REACTORS
330
31D
102
}
330
31D
100
AcDbXrecord
280
     1
102
RTVSPropertyOp0
 70
     1
102
RTVSPropertyOp1
 70
     1
102
RTVSPropertyOp2
 70
     1
102
RTVSPropertyOp3
 70
     1
102
RTVSPropertyOp4
 70
     1
102
RTVSPropertyOp5
 70
     1
102
RTVSPropertyOp6
 70
     1
102
RTVSPropertyOp7
 70
     1
102
RTVSPropertyOp8
 70
     1
102
RTVSPropertyOp9
 70
     1
102
RTVSPropertyOp10
 70
     1
102
RTVSPropertyOp11
 70
     1
102
RTVSPropertyOp12
 70
     1
102
RTVSPropertyOp13
 70
     1
102
RTVSPropertyOp14
 70
     1
102
RTVSPropertyOp15
 70
     1
102
RTVSPropertyOp16
 70
     1
102
RTVSPropertyOp17
 70
     1
102
RTVSPropertyOp18
 70
     1
102
RTVSPropertyOp19
 70
     1
102
RTVSPropertyOp20
 70
     1
102
RTVSPropertyOp21
 70
     1
102
RTVSPropertyOp22
 70
     1
102
RTVSPropertyOp23
 70
     1
102
RTVSPropertyOp24
 70
     1
102
RTVSPropertyOp25
 70
     1
102
RTVSPropertyOp26
 70
     1
102
RTVSPropertyOp27
 70
     1
102
RTVSPropertyOp28
 70
     1
102
RTVSPropertyOp29
 70
     1
102
RTVSPropertyOp30
 70
     1
102
RTVSPropertyOp31
 70
     1
102
RTVSPropertyOp32
 70
     1
102
RTVSPropertyOp33
 70
     1
102
RTVSPropertyOp34
 70
     1
102
RTVSPropertyOp35
 70
     1
102
RTVSPropertyOp36
 70
     1
102
RTVSPropertyOp37
 70
     1
102
RTVSPropertyOp38
 70
     1
102
RTVSPropertyOp39
 70
     1
102
RTVSPropertyOp40
 70
     1
102
RTVSPropertyOp41
 70
     1
102
RTVSPropertyOp42
 70
     1
102
RTVSPropertyOp43
 70
     1
102
RTVSPropertyOp44
 70
     1
102
RTVSPropertyOp45
 70
     1
102
RTVSPropertyOp46
 70
     1
102
RTVSPropertyOp47
 70
     1
102
RTVSPropertyOp48
 70
     1
102
RTVSPropertyOp49
 70
     1
102
RTVSPropertyOp50
 70
     1
102
RTVSPropertyOp51
 70
     0
102
RTVSPropertyOp52
 70
     0
102
RTVSPropertyOp53
 70
     1
102
RTVSPropertyOp54
 70
     1
102
RTVSPropertyOp55
 70
     1
102
RTVSPropertyOp56
 70
     1
102
RTVSPropertyOp57
 70
     1
102
RTVSPost2010Prop28
280
     0
102
RTVSPost2010PropOp28
 70
     1
102
RTVSPost2010Prop29
280
     1
102
RTVSPost2010PropOp29
 70
     1
102
RTVSPost2010Prop30
280
     1
102
RTVSPost2010PropOp30
 70
     1
102
RTVSPost2010Prop31
280
     0
102
RTVSPost2010PropOp31
 70
     1
102
RTVSPost2010Prop32
280
     0
102
RTVSPost2010PropOp32
 70
     1
102
RTVSPost2010Prop33
280
     0
102
RTVSPost2010PropOp33
 70
     1
102
RTVSPost2010Prop34
280
     0
102
RTVSPost2010PropOp34
 70
     1
102
RTVSPost2010Prop35
280
     0
102
RTVSPost2010PropOp35
 70
     1
102
RTVSPost2010Prop36
280
     0
102
RTVSPost2010PropOp36
 70
     1
102
RTVSPost2010Prop37
 90
       50
102
RTVSPost2010PropOp37
 70
     1
102
RTVSPost2010Prop38
140
0.0
102
RTVSPost2010PropOp38
 70
     1
102
RTVSPost2010Prop39
140
1.0
102
RTVSPost2010PropOp39
 70
     1
102
RTVSPost2010Prop40
 90
        0
102
RTVSPost2010PropOp40
 70
     1
102
RTVSPost2010Prop41ColorIndex
 90
       18
102
RTVSPost2010Prop41ColorRGB
 90
        0
102
RTVSPost2010PropOp41
 70
     1
102
RTVSPost2010Prop42
 90
       50
102
RTVSPost2010PropOp42
 70
     1
102
RTVSPost2010Prop43
 90
        3
102
RTVSPost2010PropOp43
 70
     1
102
RTVSPost2010Prop44ColorIndex
 90
        5
102
RTVSPost2010Prop44ColorRGB
 90
      255
102
RTVSPost2010PropOp44
 70
     1
102
RTVSPost2010Prop45
280
     0
102
RTVSPost2010PropOp45
 70
     1
102
RTVSPost2010Prop46
 90
       50
102
RTVSPost2010PropOp46
 70
     1
102
RTVSPost2010Prop47
 90
       50
102
RTVSPost2010PropOp47
 70
     1
102
RTVSPost2010Prop48
 90
       50
102
RTVSPost2010PropOp48
 70
     1
102
RTVSPost2010Prop49
280
     0
102
RTVSPost2010PropOp49
 70
     1
102
RTVSPost2010Prop50
 90
       50
102
RTVSPost2010PropOp50
 70
     1
102
RTVSPost2010Prop51ColorIndex
 90
      256
102
RTVSPost2010Prop51ColorRGB
 90
-16777216
102
RTVSPost2010PropOp51
 70
     0
102
RTVSPost2010Prop52
140
1.0
102
RTVSPost2010PropOp52
 70
     0
102
RTVSPost2010Prop53
 90
        2
102
RTVSPost2010PropOp53
 70
     1
102
RTVSPost2010Prop54
  1
strokes_ogs.tif
102
RTVSPost2010PropOp54
 70
     1
102
RTVSPost2010Prop55
280
     0
102
RTVSPost2010PropOp55
 70
     1
102
RTVSPost2010Prop56
140
1.0
102
RTVSPost2010PropOp56
 70
     1
102
RTVSPost2010Prop57
140
1.0
102
RTVSPost2010PropOp57
 70
     1
  0
XRECORD
  5
326
102
{ACAD_REACTORS
330
325
102
}
330
325
100
AcDbXrecord
280
     1
102
RTVSPropertyOp0
 70
     1
102
RTVSPropertyOp1
 70
     1
102
RTVSPropertyOp2
 70
     1
102
RTVSPropertyOp3
 70
     1
102
RTVSPropertyOp4
 70
     1
102
RTVSPropertyOp5
 70
     1
102
RTVSPropertyOp6
 70
     1
102
RTVSPropertyOp7
 70
     1
102
RTVSPropertyOp8
 70
     1
102
RTVSPropertyOp9
 70
     1
102
RTVSPropertyOp10
 70
     1
102
RTVSPropertyOp11
 70
     1
102
RTVSPropertyOp12
 70
     1
102
RTVSPropertyOp13
 70
     1
102
RTVSPropertyOp14
 70
     1
102
RTVSPropertyOp15
 70
     1
102
RTVSPropertyOp16
 70
     1
102
RTVSPropertyOp17
 70
     1
102
RTVSPropertyOp18
 70
     1
102
RTVSPropertyOp19
 70
     1
102
RTVSPropertyOp20
 70
     1
102
RTVSPropertyOp21
 70
     1
102
RTVSPropertyOp22
 70
     1
102
RTVSPropertyOp23
 70
     1
102
RTVSPropertyOp24
 70
     1
102
RTVSPropertyOp25
 70
     1
102
RTVSPropertyOp26
 70
     1
102
RTVSPropertyOp27
 70
     1
102
RTVSPropertyOp28
 70
     1
102
RTVSPropertyOp29
 70
     1
102
RTVSPropertyOp30
 70
     1
102
RTVSPropertyOp31
 70
     1
102
RTVSPropertyOp32
 70
     1
102
RTVSPropertyOp33
 70
     1
102
RTVSPropertyOp34
 70
     1
102
RTVSPropertyOp35
 70
     1
102
RTVSPropertyOp36
 70
     1
102
RTVSPropertyOp37
 70
     1
102
RTVSPropertyOp38
 70
     1
102
RTVSPropertyOp39
 70
     1
102
RTVSPropertyOp40
 70
     1
102
RTVSPropertyOp41
 70
     1
102
RTVSPropertyOp42
 70
     1
102
RTVSPropertyOp43
 70
     1
102
RTVSPropertyOp44
 70
     1
102
RTVSPropertyOp45
 70
     1
102
RTVSPropertyOp46
 70
     1
102
RTVSPropertyOp47
 70
     1
102
RTVSPropertyOp48
 70
     1
102
RTVSPropertyOp49
 70
     1
102
RTVSPropertyOp50
 70
     1
102
RTVSPropertyOp51
 70
     0
102
RTVSPropertyOp52
 70
     0
102
RTVSPropertyOp53
 70
     1
102
RTVSPropertyOp54
 70
     1
102
RTVSPropertyOp55
 70
     1
102
RTVSPropertyOp56
 70
     1
102
RTVSPropertyOp57
 70
     1
102
RTVSPost2010Prop28
280
     0
102
RTVSPost2010PropOp28
 70
     1
102
RTVSPost2010Prop29
280
     1
102
RTVSPost2010PropOp29
 70
     1
102
RTVSPost2010Prop30
280
     1
102
RTVSPost2010PropOp30
 70
     1
102
RTVSPost2010Prop31
280
     0
102
RTVSPost2010PropOp31
 70
     1
102
RTVSPost2010Prop32
280
     0
102
RTVSPost2010PropOp32
 70
     1
102
RTVSPost2010Prop33
280
     0
102
RTVSPost2010PropOp33
 70
     1
102
RTVSPost2010Prop34
280
     0
102
RTVSPost2010PropOp34
 70
     1
102
RTVSPost2010Prop35
280
     0
102
RTVSPost2010PropOp35
 70
     1
102
RTVSPost2010Prop36
280
     0
102
RTVSPost2010PropOp36
 70
     1
102
RTVSPost2010Prop37
 90
       50
102
RTVSPost2010PropOp37
 70
     1
102
RTVSPost2010Prop38
140
0.0
102
RTVSPost2010PropOp38
 70
     1
102
RTVSPost2010Prop39
140
1.0
102
RTVSPost2010PropOp39
 70
     1
102
RTVSPost2010Prop40
 90
        0
102
RTVSPost2010PropOp40
 70
     1
102
RTVSPost2010Prop41ColorIndex
 90
       18
102
RTVSPost2010Prop41ColorRGB
 90
        0
102
RTVSPost2010PropOp41
 70
     1
102
RTVSPost2010Prop42
 90
       50
102
RTVSPost2010PropOp42
 70
     1
102
RTVSPost2010Prop43
 90
        3
102
RTVSPost2010PropOp43
 70
     1
102
RTVSPost2010Prop44ColorIndex
 90
        5
102
RTVSPost2010Prop44ColorRGB
 90
      255
102
RTVSPost2010PropOp44
 70
     1
102
RTVSPost2010Prop45
280
     0
102
RTVSPost2010PropOp45
 70
     1
102
RTVSPost2010Prop46
 90
       50
102
RTVSPost2010PropOp46
 70
     1
102
RTVSPost2010Prop47
 90
       50
102
RTVSPost2010PropOp47
 70
     1
102
RTVSPost2010Prop48
 90
       50
102
RTVSPost2010PropOp48
 70
     1
102
RTVSPost2010Prop49
280
     0
102
RTVSPost2010PropOp49
 70
     1
102
RTVSPost2010Prop50
 90
       50
102
RTVSPost2010PropOp50
 70
     1
102
RTVSPost2010Prop51ColorIndex
 90
      256
102
RTVSPost2010Prop51ColorRGB
 90
-16777216
102
RTVSPost2010PropOp51
 70
     0
102
RTVSPost2010Prop52
140
1.0
102
RTVSPost2010PropOp52
 70
     0
102
RTVSPost2010Prop53
 90
        2
102
RTVSPost2010PropOp53
 70
     1
102
RTVSPost2010Prop54
  1
strokes_ogs.tif
102
RTVSPost2010PropOp54
 70
     1
102
RTVSPost2010Prop55
280
     0
102
RTVSPost2010PropOp55
 70
     1
102
RTVSPost2010Prop56
140
1.0
102
RTVSPost2010PropOp56
 70
     1
102
RTVSPost2010Prop57
140
1.0
102
RTVSPost2010PropOp57
 70
     1
  0
XRECORD
  5
32E
102
{ACAD_REACTORS
330
32D
102
}
330
32D
100
AcDbXrecord
280
     1
102
RTVSPropertyOp0
 70
     1
102
RTVSPropertyOp1
 70
     1
102
RTVSPropertyOp2
 70
     1
102
RTVSPropertyOp3
 70
     1
102
RTVSPropertyOp4
 70
     1
102
RTVSPropertyOp5
 70
     1
102
RTVSPropertyOp6
 70
     1
102
RTVSPropertyOp7
 70
     1
102
RTVSPropertyOp8
 70
     1
102
RTVSPropertyOp9
 70
     1
102
RTVSPropertyOp10
 70
     1
102
RTVSPropertyOp11
 70
     1
102
RTVSPropertyOp12
 70
     1
102
RTVSPropertyOp13
 70
     1
102
RTVSPropertyOp14
 70
     1
102
RTVSPropertyOp15
 70
     1
102
RTVSPropertyOp16
 70
     1
102
RTVSPropertyOp17
 70
     1
102
RTVSPropertyOp18
 70
     1
102
RTVSPropertyOp19
 70
     1
102
RTVSPropertyOp20
 70
     1
102
RTVSPropertyOp21
 70
     1
102
RTVSPropertyOp22
 70
     1
102
RTVSPropertyOp23
 70
     1
102
RTVSPropertyOp24
 70
     1
102
RTVSPropertyOp25
 70
     1
102
RTVSPropertyOp26
 70
     1
102
RTVSPropertyOp27
 70
     1
102
RTVSPropertyOp28
 70
     1
102
RTVSPropertyOp29
 70
     1
102
RTVSPropertyOp30
 70
     1
102
RTVSPropertyOp31
 70
     1
102
RTVSPropertyOp32
 70
     1
102
RTVSPropertyOp33
 70
     1
102
RTVSPropertyOp34
 70
     1
102
RTVSPropertyOp35
 70
     1
102
RTVSPropertyOp36
 70
     1
102
RTVSPropertyOp37
 70
     1
102
RTVSPropertyOp38
 70
     1
102
RTVSPropertyOp39
 70
     1
102
RTVSPropertyOp40
 70
     1
102
RTVSPropertyOp41
 70
     1
102
RTVSPropertyOp42
 70
     1
102
RTVSPropertyOp43
 70
     1
102
RTVSPropertyOp44
 70
     1
102
RTVSPropertyOp45
 70
     1
102
RTVSPropertyOp46
 70
     1
102
RTVSPropertyOp47
 70
     1
102
RTVSPropertyOp48
 70
     1
102
RTVSPropertyOp49
 70
     1
102
RTVSPropertyOp50
 70
     1
102
RTVSPropertyOp51
 70
     0
102
RTVSPropertyOp52
 70
     0
102
RTVSPropertyOp53
 70
     1
102
RTVSPropertyOp54
 70
     1
102
RTVSPropertyOp55
 70
     1
102
RTVSPropertyOp56
 70
     1
102
RTVSPropertyOp57
 70
     1
102
RTVSPost2010Prop28
280
     0
102
RTVSPost2010PropOp28
 70
     1
102
RTVSPost2010Prop29
280
     1
102
RTVSPost2010PropOp29
 70
     1
102
RTVSPost2010Prop30
280
     1
102
RTVSPost2010PropOp30
 70
     1
102
RTVSPost2010Prop31
280
     0
102
RTVSPost2010PropOp31
 70
     1
102
RTVSPost2010Prop32
280
     0
102
RTVSPost2010PropOp32
 70
     1
102
RTVSPost2010Prop33
280
     0
102
RTVSPost2010PropOp33
 70
     1
102
RTVSPost2010Prop34
280
     0
102
RTVSPost2010PropOp34
 70
     1
102
RTVSPost2010Prop35
280
     0
102
RTVSPost2010PropOp35
 70
     1
102
RTVSPost2010Prop36
280
     0
102
RTVSPost2010PropOp36
 70
     1
102
RTVSPost2010Prop37
 90
       50
102
RTVSPost2010PropOp37
 70
     1
102
RTVSPost2010Prop38
140
0.0
102
RTVSPost2010PropOp38
 70
     1
102
RTVSPost2010Prop39
140
1.0
102
RTVSPost2010PropOp39
 70
     1
102
RTVSPost2010Prop40
 90
        0
102
RTVSPost2010PropOp40
 70
     1
102
RTVSPost2010Prop41ColorIndex
 90
       18
102
RTVSPost2010Prop41ColorRGB
 90
        0
102
RTVSPost2010PropOp41
 70
     1
102
RTVSPost2010Prop42
 90
       50
102
RTVSPost2010PropOp42
 70
     1
102
RTVSPost2010Prop43
 90
        3
102
RTVSPost2010PropOp43
 70
     1
102
RTVSPost2010Prop44ColorIndex
 90
        5
102
RTVSPost2010Prop44ColorRGB
 90
      255
102
RTVSPost2010PropOp44
 70
     1
102
RTVSPost2010Prop45
280
     0
102
RTVSPost2010PropOp45
 70
     1
102
RTVSPost2010Prop46
 90
       50
102
RTVSPost2010PropOp46
 70
     1
102
RTVSPost2010Prop47
 90
       50
102
RTVSPost2010PropOp47
 70
     1
102
RTVSPost2010Prop48
 90
       50
102
RTVSPost2010PropOp48
 70
     1
102
RTVSPost2010Prop49
280
     0
102
RTVSPost2010PropOp49
 70
     1
102
RTVSPost2010Prop50
 90
       50
102
RTVSPost2010PropOp50
 70
     1
102
RTVSPost2010Prop51ColorIndex
 90
      256
102
RTVSPost2010Prop51ColorRGB
 90
-16777216
102
RTVSPost2010PropOp51
 70
     0
102
RTVSPost2010Prop52
140
1.0
102
RTVSPost2010PropOp52
 70
     0
102
RTVSPost2010Prop53
 90
        2
102
RTVSPost2010PropOp53
 70
     1
102
RTVSPost2010Prop54
  1
strokes_ogs.tif
102
RTVSPost2010PropOp54
 70
     1
102
RTVSPost2010Prop55
280
     0
102
RTVSPost2010PropOp55
 70
     1
102
RTVSPost2010Prop56
140
1.0
102
RTVSPost2010PropOp56
 70
     1
102
RTVSPost2010Prop57
140
1.0
102
RTVSPost2010PropOp57
 70
     1
  0
XRECORD
  5
322
102
{ACAD_REACTORS
330
321
102
}
330
321
100
AcDbXrecord
280
     1
102
RTVSPropertyOp0
 70
     1
102
RTVSPropertyOp1
 70
     1
102
RTVSPropertyOp2
 70
     1
102
RTVSPropertyOp3
 70
     1
102
RTVSPropertyOp4
 70
     1
102
RTVSPropertyOp5
 70
     1
102
RTVSPropertyOp6
 70
     1
102
RTVSPropertyOp7
 70
     1
102
RTVSPropertyOp8
 70
     1
102
RTVSPropertyOp9
 70
     1
102
RTVSPropertyOp10
 70
     1
102
RTVSPropertyOp11
 70
     1
102
RTVSPropertyOp12
 70
     1
102
RTVSPropertyOp13
 70
     1
102
RTVSPropertyOp14
 70
     1
102
RTVSPropertyOp15
 70
     1
102
RTVSPropertyOp16
 70
     1
102
RTVSPropertyOp17
 70
     1
102
RTVSPropertyOp18
 70
     1
102
RTVSPropertyOp19
 70
     1
102
RTVSPropertyOp20
 70
     1
102
RTVSPropertyOp21
 70
     1
102
RTVSPropertyOp22
 70
     1
102
RTVSPropertyOp23
 70
     1
102
RTVSPropertyOp24
 70
     1
102
RTVSPropertyOp25
 70
     1
102
RTVSPropertyOp26
 70
     1
102
RTVSPropertyOp27
 70
     1
102
RTVSPropertyOp28
 70
     1
102
RTVSPropertyOp29
 70
     1
102
RTVSPropertyOp30
 70
     1
102
RTVSPropertyOp31
 70
     1
102
RTVSPropertyOp32
 70
     1
102
RTVSPropertyOp33
 70
     1
102
RTVSPropertyOp34
 70
     1
102
RTVSPropertyOp35
 70
     1
102
RTVSPropertyOp36
 70
     1
102
RTVSPropertyOp37
 70
     1
102
RTVSPropertyOp38
 70
     1
102
RTVSPropertyOp39
 70
     1
102
RTVSPropertyOp40
 70
     1
102
RTVSPropertyOp41
 70
     1
102
RTVSPropertyOp42
 70
     1
102
RTVSPropertyOp43
 70
     1
102
RTVSPropertyOp44
 70
     1
102
RTVSPropertyOp45
 70
     1
102
RTVSPropertyOp46
 70
     1
102
RTVSPropertyOp47
 70
     1
102
RTVSPropertyOp48
 70
     1
102
RTVSPropertyOp49
 70
     1
102
RTVSPropertyOp50
 70
     1
102
RTVSPropertyOp51
 70
     0
102
RTVSPropertyOp52
 70
     0
102
RTVSPropertyOp53
 70
     1
102
RTVSPropertyOp54
 70
     1
102
RTVSPropertyOp55
 70
     1
102
RTVSPropertyOp56
 70
     1
102
RTVSPropertyOp57
 70
     1
102
RTVSPost2010Prop28
280
     0
102
RTVSPost2010PropOp28
 70
     1
102
RTVSPost2010Prop29
280
     1
102
RTVSPost2010PropOp29
 70
     1
102
RTVSPost2010Prop30
280
     1
102
RTVSPost2010PropOp30
 70
     1
102
RTVSPost2010Prop31
280
     0
102
RTVSPost2010PropOp31
 70
     1
102
RTVSPost2010Prop32
280
     0
102
RTVSPost2010PropOp32
 70
     1
102
RTVSPost2010Prop33
280
     0
102
RTVSPost2010PropOp33
 70
     1
102
RTVSPost2010Prop34
280
     0
102
RTVSPost2010PropOp34
 70
     1
102
RTVSPost2010Prop35
280
     0
102
RTVSPost2010PropOp35
 70
     1
102
RTVSPost2010Prop36
280
     0
102
RTVSPost2010PropOp36
 70
     1
102
RTVSPost2010Prop37
 90
       50
102
RTVSPost2010PropOp37
 70
     1
102
RTVSPost2010Prop38
140
0.0
102
RTVSPost2010PropOp38
 70
     1
102
RTVSPost2010Prop39
140
1.0
102
RTVSPost2010PropOp39
 70
     1
102
RTVSPost2010Prop40
 90
        0
102
RTVSPost2010PropOp40
 70
     1
102
RTVSPost2010Prop41ColorIndex
 90
       18
102
RTVSPost2010Prop41ColorRGB
 90
        0
102
RTVSPost2010PropOp41
 70
     1
102
RTVSPost2010Prop42
 90
       50
102
RTVSPost2010PropOp42
 70
     1
102
RTVSPost2010Prop43
 90
        3
102
RTVSPost2010PropOp43
 70
     1
102
RTVSPost2010Prop44ColorIndex
 90
        5
102
RTVSPost2010Prop44ColorRGB
 90
      255
102
RTVSPost2010PropOp44
 70
     1
102
RTVSPost2010Prop45
280
     0
102
RTVSPost2010PropOp45
 70
     1
102
RTVSPost2010Prop46
 90
       50
102
RTVSPost2010PropOp46
 70
     1
102
RTVSPost2010Prop47
 90
       50
102
RTVSPost2010PropOp47
 70
     1
102
RTVSPost2010Prop48
 90
       50
102
RTVSPost2010PropOp48
 70
     1
102
RTVSPost2010Prop49
280
     0
102
RTVSPost2010PropOp49
 70
     1
102
RTVSPost2010Prop50
 90
       50
102
RTVSPost2010PropOp50
 70
     1
102
RTVSPost2010Prop51ColorIndex
 90
      256
102
RTVSPost2010Prop51ColorRGB
 90
-16777216
102
RTVSPost2010PropOp51
 70
     0
102
RTVSPost2010Prop52
140
1.0
102
RTVSPost2010PropOp52
 70
     0
102
RTVSPost2010Prop53
 90
        2
102
RTVSPost2010PropOp53
 70
     1
102
RTVSPost2010Prop54
  1
strokes_ogs.tif
102
RTVSPost2010PropOp54
 70
     1
102
RTVSPost2010Prop55
280
     0
102
RTVSPost2010PropOp55
 70
     1
102
RTVSPost2010Prop56
140
1.0
102
RTVSPost2010PropOp56
 70
     1
102
RTVSPost2010Prop57
140
1.0
102
RTVSPost2010PropOp57
 70
     1
  0
XRECORD
  5
324
102
{ACAD_REACTORS
330
323
102
}
330
323
100
AcDbXrecord
280
     1
102
RTVSPropertyOp0
 70
     1
102
RTVSPropertyOp1
 70
     1
102
RTVSPropertyOp2
 70
     1
102
RTVSPropertyOp3
 70
     1
102
RTVSPropertyOp4
 70
     1
102
RTVSPropertyOp5
 70
     1
102
RTVSPropertyOp6
 70
     1
102
RTVSPropertyOp7
 70
     1
102
RTVSPropertyOp8
 70
     1
102
RTVSPropertyOp9
 70
     1
102
RTVSPropertyOp10
 70
     1
102
RTVSPropertyOp11
 70
     1
102
RTVSPropertyOp12
 70
     1
102
RTVSPropertyOp13
 70
     1
102
RTVSPropertyOp14
 70
     1
102
RTVSPropertyOp15
 70
     1
102
RTVSPropertyOp16
 70
     1
102
RTVSPropertyOp17
 70
     1
102
RTVSPropertyOp18
 70
     1
102
RTVSPropertyOp19
 70
     1
102
RTVSPropertyOp20
 70
     1
102
RTVSPropertyOp21
 70
     1
102
RTVSPropertyOp22
 70
     1
102
RTVSPropertyOp23
 70
     1
102
RTVSPropertyOp24
 70
     1
102
RTVSPropertyOp25
 70
     1
102
RTVSPropertyOp26
 70
     1
102
RTVSPropertyOp27
 70
     1
102
RTVSPropertyOp28
 70
     1
102
RTVSPropertyOp29
 70
     1
102
RTVSPropertyOp30
 70
     1
102
RTVSPropertyOp31
 70
     1
102
RTVSPropertyOp32
 70
     1
102
RTVSPropertyOp33
 70
     1
102
RTVSPropertyOp34
 70
     1
102
RTVSPropertyOp35
 70
     1
102
RTVSPropertyOp36
 70
     1
102
RTVSPropertyOp37
 70
     1
102
RTVSPropertyOp38
 70
     1
102
RTVSPropertyOp39
 70
     1
102
RTVSPropertyOp40
 70
     1
102
RTVSPropertyOp41
 70
     1
102
RTVSPropertyOp42
 70
     1
102
RTVSPropertyOp43
 70
     1
102
RTVSPropertyOp44
 70
     1
102
RTVSPropertyOp45
 70
     1
102
RTVSPropertyOp46
 70
     1
102
RTVSPropertyOp47
 70
     1
102
RTVSPropertyOp48
 70
     1
102
RTVSPropertyOp49
 70
     1
102
RTVSPropertyOp50
 70
     1
102
RTVSPropertyOp51
 70
     0
102
RTVSPropertyOp52
 70
     0
102
RTVSPropertyOp53
 70
     1
102
RTVSPropertyOp54
 70
     1
102
RTVSPropertyOp55
 70
     1
102
RTVSPropertyOp56
 70
     1
102
RTVSPropertyOp57
 70
     1
102
RTVSPost2010Prop28
280
     0
102
RTVSPost2010PropOp28
 70
     1
102
RTVSPost2010Prop29
280
     1
102
RTVSPost2010PropOp29
 70
     1
102
RTVSPost2010Prop30
280
     1
102
RTVSPost2010PropOp30
 70
     1
102
RTVSPost2010Prop31
280
     0
102
RTVSPost2010PropOp31
 70
     1
102
RTVSPost2010Prop32
280
     0
102
RTVSPost2010PropOp32
 70
     1
102
RTVSPost2010Prop33
280
     0
102
RTVSPost2010PropOp33
 70
     1
102
RTVSPost2010Prop34
280
     0
102
RTVSPost2010PropOp34
 70
     1
102
RTVSPost2010Prop35
280
     0
102
RTVSPost2010PropOp35
 70
     1
102
RTVSPost2010Prop36
280
     0
102
RTVSPost2010PropOp36
 70
     1
102
RTVSPost2010Prop37
 90
       50
102
RTVSPost2010PropOp37
 70
     1
102
RTVSPost2010Prop38
140
0.0
102
RTVSPost2010PropOp38
 70
     1
102
RTVSPost2010Prop39
140
1.0
102
RTVSPost2010PropOp39
 70
     1
102
RTVSPost2010Prop40
 90
        0
102
RTVSPost2010PropOp40
 70
     1
102
RTVSPost2010Prop41ColorIndex
 90
       18
102
RTVSPost2010Prop41ColorRGB
 90
        0
102
RTVSPost2010PropOp41
 70
     1
102
RTVSPost2010Prop42
 90
       50
102
RTVSPost2010PropOp42
 70
     1
102
RTVSPost2010Prop43
 90
        3
102
RTVSPost2010PropOp43
 70
     1
102
RTVSPost2010Prop44ColorIndex
 90
        5
102
RTVSPost2010Prop44ColorRGB
 90
      255
102
RTVSPost2010PropOp44
 70
     1
102
RTVSPost2010Prop45
280
     0
102
RTVSPost2010PropOp45
 70
     1
102
RTVSPost2010Prop46
 90
       50
102
RTVSPost2010PropOp46
 70
     1
102
RTVSPost2010Prop47
 90
       50
102
RTVSPost2010PropOp47
 70
     1
102
RTVSPost2010Prop48
 90
       50
102
RTVSPost2010PropOp48
 70
     1
102
RTVSPost2010Prop49
280
     0
102
RTVSPost2010PropOp49
 70
     1
102
RTVSPost2010Prop50
 90
       50
102
RTVSPost2010PropOp50
 70
     1
102
RTVSPost2010Prop51ColorIndex
 90
      256
102
RTVSPost2010Prop51ColorRGB
 90
-16777216
102
RTVSPost2010PropOp51
 70
     0
102
RTVSPost2010Prop52
140
1.0
102
RTVSPost2010PropOp52
 70
     0
102
RTVSPost2010Prop53
 90
        2
102
RTVSPost2010PropOp53
 70
     1
102
RTVSPost2010Prop54
  1
strokes_ogs.tif
102
RTVSPost2010PropOp54
 70
     1
102
RTVSPost2010Prop55
280
     0
102
RTVSPost2010PropOp55
 70
     1
102
RTVSPost2010Prop56
140
1.0
102
RTVSPost2010PropOp56
 70
     1
102
RTVSPost2010Prop57
140
1.0
102
RTVSPost2010PropOp57
 70
     1
  0
XRECORD
  5
334
102
{ACAD_REACTORS
330
333
102
}
330
333
100
AcDbXrecord
280
     1
102
RTVSPropertyOp0
 70
     0
102
RTVSPropertyOp1
 70
     0
102
RTVSPropertyOp2
 70
     0
102
RTVSPropertyOp3
 70
     0
102
RTVSPropertyOp4
 70
     0
102
RTVSPropertyOp5
 70
     0
102
RTVSPropertyOp6
 70
     0
102
RTVSPropertyOp7
 70
     0
102
RTVSPropertyOp8
 70
     0
102
RTVSPropertyOp9
 70
     0
102
RTVSPropertyOp10
 70
     0
102
RTVSPropertyOp11
 70
     0
102
RTVSPropertyOp12
 70
     0
102
RTVSPropertyOp13
 70
     0
102
RTVSPropertyOp14
 70
     2
102
RTVSPropertyOp15
 70
     0
102
RTVSPropertyOp16
 70
     0
102
RTVSPropertyOp17
 70
     0
102
RTVSPropertyOp18
 70
     0
102
RTVSPropertyOp19
 70
     0
102
RTVSPropertyOp20
 70
     0
102
RTVSPropertyOp21
 70
     0
102
RTVSPropertyOp22
 70
     0
102
RTVSPropertyOp23
 70
     0
102
RTVSPropertyOp24
 70
     0
102
RTVSPropertyOp25
 70
     0
102
RTVSPropertyOp26
 70
     0
102
RTVSPropertyOp27
 70
     0
102
RTVSPropertyOp28
 70
     0
102
RTVSPropertyOp29
 70
     0
102
RTVSPropertyOp30
 70
     0
102
RTVSPropertyOp31
 70
     0
102
RTVSPropertyOp32
 70
     0
102
RTVSPropertyOp33
 70
     0
102
RTVSPropertyOp34
 70
     0
102
RTVSPropertyOp35
 70
     0
102
RTVSPropertyOp36
 70
     0
102
RTVSPropertyOp37
 70
     0
102
RTVSPropertyOp38
 70
     0
102
RTVSPropertyOp39
 70
     0
102
RTVSPropertyOp40
 70
     0
102
RTVSPropertyOp41
 70
     0
102
RTVSPropertyOp42
 70
     0
102
RTVSPropertyOp43
 70
     0
102
RTVSPropertyOp44
 70
     0
102
RTVSPropertyOp45
 70
     0
102
RTVSPropertyOp46
 70
     0
102
RTVSPropertyOp47
 70
     0
102
RTVSPropertyOp48
 70
     0
102
RTVSPropertyOp49
 70
     0
102
RTVSPropertyOp50
 70
     0
102
RTVSPropertyOp51
 70
     0
102
RTVSPropertyOp52
 70
     0
102
RTVSPropertyOp53
 70
     0
102
RTVSPropertyOp54
 70
     0
102
RTVSPropertyOp55
 70
     0
102
RTVSPropertyOp56
 70
     0
102
RTVSPropertyOp57
 70
     0
102
RTVSPost2010Prop28
280
     0
102
RTVSPost2010PropOp28
 70
     0
102
RTVSPost2010Prop29
280
     1
102
RTVSPost2010PropOp29
 70
     0
102
RTVSPost2010Prop30
280
     1
102
RTVSPost2010PropOp30
 70
     0
102
RTVSPost2010Prop31
280
     0
102
RTVSPost2010PropOp31
 70
     0
102
RTVSPost2010Prop32
280
     0
102
RTVSPost2010PropOp32
 70
     0
102
RTVSPost2010Prop33
280
     0
102
RTVSPost2010PropOp33
 70
     0
102
RTVSPost2010Prop34
280
     0
102
RTVSPost2010PropOp34
 70
     0
102
RTVSPost2010Prop35
280
     0
102
RTVSPost2010PropOp35
 70
     0
102
RTVSPost2010Prop36
280
     0
102
RTVSPost2010PropOp36
 70
     0
102
RTVSPost2010Prop37
 90
       50
102
RTVSPost2010PropOp37
 70
     0
102
RTVSPost2010Prop38
140
0.0
102
RTVSPost2010PropOp38
 70
     0
102
RTVSPost2010Prop39
140
1.0
102
RTVSPost2010PropOp39
 70
     0
102
RTVSPost2010Prop40
 90
        0
102
RTVSPost2010PropOp40
 70
     0
102
RTVSPost2010Prop41ColorIndex
 90
       18
102
RTVSPost2010Prop41ColorRGB
 90
        0
102
RTVSPost2010PropOp41
 70
     0
102
RTVSPost2010Prop42
 90
       50
102
RTVSPost2010PropOp42
 70
     0
102
RTVSPost2010Prop43
 90
        3
102
RTVSPost2010PropOp43
 70
     0
102
RTVSPost2010Prop44ColorIndex
 90
        5
102
RTVSPost2010Prop44ColorRGB
 90
      255
102
RTVSPost2010PropOp44
 70
     0
102
RTVSPost2010Prop45
280
     0
102
RTVSPost2010PropOp45
 70
     0
102
RTVSPost2010Prop46
 90
       50
102
RTVSPost2010PropOp46
 70
     0
102
RTVSPost2010Prop47
 90
       50
102
RTVSPost2010PropOp47
 70
     0
102
RTVSPost2010Prop48
 90
       50
102
RTVSPost2010PropOp48
 70
     0
102
RTVSPost2010Prop49
280
     0
102
RTVSPost2010PropOp49
 70
     0
102
RTVSPost2010Prop50
 90
       50
102
RTVSPost2010PropOp50
 70
     0
102
RTVSPost2010Prop51ColorIndex
 90
      256
102
RTVSPost2010Prop51ColorRGB
 90
-16777216
102
RTVSPost2010PropOp51
 70
     0
102
RTVSPost2010Prop52
140
1.0
102
RTVSPost2010PropOp52
 70
     0
102
RTVSPost2010Prop53
 90
        2
102
RTVSPost2010PropOp53
 70
     0
102
RTVSPost2010Prop54
  1
strokes_ogs.tif
102
RTVSPost2010PropOp54
 70
     0
102
RTVSPost2010Prop55
280
     0
102
RTVSPost2010PropOp55
 70
     0
102
RTVSPost2010Prop56
140
1.0
102
RTVSPost2010PropOp56
 70
     0
102
RTVSPost2010Prop57
140
1.0
102
RTVSPost2010PropOp57
 70
     0
  0
XRECORD
  5
32C
102
{ACAD_REACTORS
330
32B
102
}
330
32B
100
AcDbXrecord
280
     1
102
RTVSPropertyOp0
 70
     1
102
RTVSPropertyOp1
 70
     1
102
RTVSPropertyOp2
 70
     1
102
RTVSPropertyOp3
 70
     1
102
RTVSPropertyOp4
 70
     1
102
RTVSPropertyOp5
 70
     1
102
RTVSPropertyOp6
 70
     1
102
RTVSPropertyOp7
 70
     1
102
RTVSPropertyOp8
 70
     1
102
RTVSPropertyOp9
 70
     1
102
RTVSPropertyOp10
 70
     1
102
RTVSPropertyOp11
 70
     1
102
RTVSPropertyOp12
 70
     1
102
RTVSPropertyOp13
 70
     1
102
RTVSPropertyOp14
 70
     1
102
RTVSPropertyOp15
 70
     1
102
RTVSPropertyOp16
 70
     1
102
RTVSPropertyOp17
 70
     1
102
RTVSPropertyOp18
 70
     1
102
RTVSPropertyOp19
 70
     1
102
RTVSPropertyOp20
 70
     1
102
RTVSPropertyOp21
 70
     1
102
RTVSPropertyOp22
 70
     1
102
RTVSPropertyOp23
 70
     1
102
RTVSPropertyOp24
 70
     1
102
RTVSPropertyOp25
 70
     1
102
RTVSPropertyOp26
 70
     1
102
RTVSPropertyOp27
 70
     1
102
RTVSPropertyOp28
 70
     1
102
RTVSPropertyOp29
 70
     1
102
RTVSPropertyOp30
 70
     1
102
RTVSPropertyOp31
 70
     1
102
RTVSPropertyOp32
 70
     1
102
RTVSPropertyOp33
 70
     1
102
RTVSPropertyOp34
 70
     1
102
RTVSPropertyOp35
 70
     1
102
RTVSPropertyOp36
 70
     1
102
RTVSPropertyOp37
 70
     1
102
RTVSPropertyOp38
 70
     1
102
RTVSPropertyOp39
 70
     1
102
RTVSPropertyOp40
 70
     1
102
RTVSPropertyOp41
 70
     1
102
RTVSPropertyOp42
 70
     1
102
RTVSPropertyOp43
 70
     1
102
RTVSPropertyOp44
 70
     1
102
RTVSPropertyOp45
 70
     1
102
RTVSPropertyOp46
 70
     1
102
RTVSPropertyOp47
 70
     1
102
RTVSPropertyOp48
 70
     1
102
RTVSPropertyOp49
 70
     1
102
RTVSPropertyOp50
 70
     1
102
RTVSPropertyOp51
 70
     0
102
RTVSPropertyOp52
 70
     0
102
RTVSPropertyOp53
 70
     1
102
RTVSPropertyOp54
 70
     1
102
RTVSPropertyOp55
 70
     1
102
RTVSPropertyOp56
 70
     1
102
RTVSPropertyOp57
 70
     1
102
RTVSPost2010Prop28
280
     0
102
RTVSPost2010PropOp28
 70
     1
102
RTVSPost2010Prop29
280
     1
102
RTVSPost2010PropOp29
 70
     1
102
RTVSPost2010Prop30
280
     1
102
RTVSPost2010PropOp30
 70
     1
102
RTVSPost2010Prop31
280
     0
102
RTVSPost2010PropOp31
 70
     1
102
RTVSPost2010Prop32
280
     0
102
RTVSPost2010PropOp32
 70
     1
102
RTVSPost2010Prop33
280
     0
102
RTVSPost2010PropOp33
 70
     1
102
RTVSPost2010Prop34
280
     0
102
RTVSPost2010PropOp34
 70
     1
102
RTVSPost2010Prop35
280
     0
102
RTVSPost2010PropOp35
 70
     1
102
RTVSPost2010Prop36
280
     0
102
RTVSPost2010PropOp36
 70
     1
102
RTVSPost2010Prop37
 90
       50
102
RTVSPost2010PropOp37
 70
     1
102
RTVSPost2010Prop38
140
0.0
102
RTVSPost2010PropOp38
 70
     1
102
RTVSPost2010Prop39
140
1.0
102
RTVSPost2010PropOp39
 70
     1
102
RTVSPost2010Prop40
 90
        0
102
RTVSPost2010PropOp40
 70
     1
102
RTVSPost2010Prop41ColorIndex
 90
       18
102
RTVSPost2010Prop41ColorRGB
 90
        0
102
RTVSPost2010PropOp41
 70
     1
102
RTVSPost2010Prop42
 90
       50
102
RTVSPost2010PropOp42
 70
     1
102
RTVSPost2010Prop43
 90
        3
102
RTVSPost2010PropOp43
 70
     1
102
RTVSPost2010Prop44ColorIndex
 90
        5
102
RTVSPost2010Prop44ColorRGB
 90
      255
102
RTVSPost2010PropOp44
 70
     1
102
RTVSPost2010Prop45
280
     0
102
RTVSPost2010PropOp45
 70
     1
102
RTVSPost2010Prop46
 90
       50
102
RTVSPost2010PropOp46
 70
     1
102
RTVSPost2010Prop47
 90
       50
102
RTVSPost2010PropOp47
 70
     1
102
RTVSPost2010Prop48
 90
       50
102
RTVSPost2010PropOp48
 70
     1
102
RTVSPost2010Prop49
280
     0
102
RTVSPost2010PropOp49
 70
     1
102
RTVSPost2010Prop50
 90
       50
102
RTVSPost2010PropOp50
 70
     1
102
RTVSPost2010Prop51ColorIndex
 90
      256
102
RTVSPost2010Prop51ColorRGB
 90
-16777216
102
RTVSPost2010PropOp51
 70
     0
102
RTVSPost2010Prop52
140
1.0
102
RTVSPost2010PropOp52
 70
     0
102
RTVSPost2010Prop53
 90
        2
102
RTVSPost2010PropOp53
 70
     1
102
RTVSPost2010Prop54
  1
strokes_ogs.tif
102
RTVSPost2010PropOp54
 70
     1
102
RTVSPost2010Prop55
280
     0
102
RTVSPost2010PropOp55
 70
     1
102
RTVSPost2010Prop56
140
1.0
102
RTVSPost2010PropOp56
 70
     1
102
RTVSPost2010Prop57
140
1.0
102
RTVSPost2010PropOp57
 70
     1
  0
XRECORD
  5
310
102
{ACAD_REACTORS
330
30F
102
}
330
30F
100
AcDbXrecord
280
     1
102
RTVSPropertyOp0
 70
     1
102
RTVSPropertyOp1
 70
     1
102
RTVSPropertyOp2
 70
     1
102
RTVSPropertyOp3
 70
     1
102
RTVSPropertyOp4
 70
     1
102
RTVSPropertyOp5
 70
     1
102
RTVSPropertyOp6
 70
     1
102
RTVSPropertyOp7
 70
     1
102
RTVSPropertyOp8
 70
     1
102
RTVSPropertyOp9
 70
     1
102
RTVSPropertyOp10
 70
     1
102
RTVSPropertyOp11
 70
     1
102
RTVSPropertyOp12
 70
     1
102
RTVSPropertyOp13
 70
     1
102
RTVSPropertyOp14
 70
     1
102
RTVSPropertyOp15
 70
     1
102
RTVSPropertyOp16
 70
     1
102
RTVSPropertyOp17
 70
     1
102
RTVSPropertyOp18
 70
     1
102
RTVSPropertyOp19
 70
     1
102
RTVSPropertyOp20
 70
     1
102
RTVSPropertyOp21
 70
     1
102
RTVSPropertyOp22
 70
     1
102
RTVSPropertyOp23
 70
     1
102
RTVSPropertyOp24
 70
     1
102
RTVSPropertyOp25
 70
     1
102
RTVSPropertyOp26
 70
     1
102
RTVSPropertyOp27
 70
     1
102
RTVSPropertyOp28
 70
     1
102
RTVSPropertyOp29
 70
     1
102
RTVSPropertyOp30
 70
     1
102
RTVSPropertyOp31
 70
     1
102
RTVSPropertyOp32
 70
     1
102
RTVSPropertyOp33
 70
     1
102
RTVSPropertyOp34
 70
     1
102
RTVSPropertyOp35
 70
     1
102
RTVSPropertyOp36
 70
     1
102
RTVSPropertyOp37
 70
     1
102
RTVSPropertyOp38
 70
     1
102
RTVSPropertyOp39
 70
     1
102
RTVSPropertyOp40
 70
     1
102
RTVSPropertyOp41
 70
     1
102
RTVSPropertyOp42
 70
     1
102
RTVSPropertyOp43
 70
     1
102
RTVSPropertyOp44
 70
     1
102
RTVSPropertyOp45
 70
     1
102
RTVSPropertyOp46
 70
     1
102
RTVSPropertyOp47
 70
     1
102
RTVSPropertyOp48
 70
     1
102
RTVSPropertyOp49
 70
     1
102
RTVSPropertyOp50
 70
     1
102
RTVSPropertyOp51
 70
     0
102
RTVSPropertyOp52
 70
     0
102
RTVSPropertyOp53
 70
     1
102
RTVSPropertyOp54
 70
     1
102
RTVSPropertyOp55
 70
     1
102
RTVSPropertyOp56
 70
     1
102
RTVSPropertyOp57
 70
     1
102
RTVSPost2010Prop28
280
     0
102
RTVSPost2010PropOp28
 70
     1
102
RTVSPost2010Prop29
280
     1
102
RTVSPost2010PropOp29
 70
     1
102
RTVSPost2010Prop30
280
     1
102
RTVSPost2010PropOp30
 70
     1
102
RTVSPost2010Prop31
280
     0
102
RTVSPost2010PropOp31
 70
     1
102
RTVSPost2010Prop32
280
     0
102
RTVSPost2010PropOp32
 70
     1
102
RTVSPost2010Prop33
280
     0
102
RTVSPost2010PropOp33
 70
     1
102
RTVSPost2010Prop34
280
     0
102
RTVSPost2010PropOp34
 70
     1
102
RTVSPost2010Prop35
280
     0
102
RTVSPost2010PropOp35
 70
     1
102
RTVSPost2010Prop36
280
     0
102
RTVSPost2010PropOp36
 70
     1
102
RTVSPost2010Prop37
 90
       50
102
RTVSPost2010PropOp37
 70
     1
102
RTVSPost2010Prop38
140
0.0
102
RTVSPost2010PropOp38
 70
     1
102
RTVSPost2010Prop39
140
1.0
102
RTVSPost2010PropOp39
 70
     1
102
RTVSPost2010Prop40
 90
        0
102
RTVSPost2010PropOp40
 70
     1
102
RTVSPost2010Prop41ColorIndex
 90
       18
102
RTVSPost2010Prop41ColorRGB
 90
        0
102
RTVSPost2010PropOp41
 70
     1
102
RTVSPost2010Prop42
 90
       50
102
RTVSPost2010PropOp42
 70
     1
102
RTVSPost2010Prop43
 90
        3
102
RTVSPost2010PropOp43
 70
     1
102
RTVSPost2010Prop44ColorIndex
 90
        5
102
RTVSPost2010Prop44ColorRGB
 90
      255
102
RTVSPost2010PropOp44
 70
     1
102
RTVSPost2010Prop45
280
     0
102
RTVSPost2010PropOp45
 70
     1
102
RTVSPost2010Prop46
 90
       50
102
RTVSPost2010PropOp46
 70
     1
102
RTVSPost2010Prop47
 90
       50
102
RTVSPost2010PropOp47
 70
     1
102
RTVSPost2010Prop48
 90
       50
102
RTVSPost2010PropOp48
 70
     1
102
RTVSPost2010Prop49
280
     0
102
RTVSPost2010PropOp49
 70
     1
102
RTVSPost2010Prop50
 90
       50
102
RTVSPost2010PropOp50
 70
     1
102
RTVSPost2010Prop51ColorIndex
 90
      256
102
RTVSPost2010Prop51ColorRGB
 90
-16777216
102
RTVSPost2010PropOp51
 70
     0
102
RTVSPost2010Prop52
140
1.0
102
RTVSPost2010PropOp52
 70
     0
102
RTVSPost2010Prop53
 90
        2
102
RTVSPost2010PropOp53
 70
     1
102
RTVSPost2010Prop54
  1
strokes_ogs.tif
102
RTVSPost2010PropOp54
 70
     1
102
RTVSPost2010Prop55
280
     0
102
RTVSPost2010PropOp55
 70
     1
102
RTVSPost2010Prop56
140
1.0
102
RTVSPost2010PropOp56
 70
     1
102
RTVSPost2010Prop57
140
1.0
102
RTVSPost2010PropOp57
 70
     1
  0
XRECORD
  5
312
102
{ACAD_REACTORS
330
311
102
}
330
311
100
AcDbXrecord
280
     1
102
RTVSPropertyOp0
 70
     1
102
RTVSPropertyOp1
 70
     1
102
RTVSPropertyOp2
 70
     1
102
RTVSPropertyOp3
 70
     1
102
RTVSPropertyOp4
 70
     1
102
RTVSPropertyOp5
 70
     1
102
RTVSPropertyOp6
 70
     1
102
RTVSPropertyOp7
 70
     1
102
RTVSPropertyOp8
 70
     1
102
RTVSPropertyOp9
 70
     1
102
RTVSPropertyOp10
 70
     1
102
RTVSPropertyOp11
 70
     1
102
RTVSPropertyOp12
 70
     1
102
RTVSPropertyOp13
 70
     1
102
RTVSPropertyOp14
 70
     1
102
RTVSPropertyOp15
 70
     1
102
RTVSPropertyOp16
 70
     1
102
RTVSPropertyOp17
 70
     1
102
RTVSPropertyOp18
 70
     1
102
RTVSPropertyOp19
 70
     1
102
RTVSPropertyOp20
 70
     1
102
RTVSPropertyOp21
 70
     1
102
RTVSPropertyOp22
 70
     1
102
RTVSPropertyOp23
 70
     1
102
RTVSPropertyOp24
 70
     1
102
RTVSPropertyOp25
 70
     1
102
RTVSPropertyOp26
 70
     1
102
RTVSPropertyOp27
 70
     1
102
RTVSPropertyOp28
 70
     1
102
RTVSPropertyOp29
 70
     1
102
RTVSPropertyOp30
 70
     1
102
RTVSPropertyOp31
 70
     1
102
RTVSPropertyOp32
 70
     1
102
RTVSPropertyOp33
 70
     1
102
RTVSPropertyOp34
 70
     1
102
RTVSPropertyOp35
 70
     1
102
RTVSPropertyOp36
 70
     1
102
RTVSPropertyOp37
 70
     1
102
RTVSPropertyOp38
 70
     1
102
RTVSPropertyOp39
 70
     1
102
RTVSPropertyOp40
 70
     1
102
RTVSPropertyOp41
 70
     1
102
RTVSPropertyOp42
 70
     1
102
RTVSPropertyOp43
 70
     1
102
RTVSPropertyOp44
 70
     1
102
RTVSPropertyOp45
 70
     1
102
RTVSPropertyOp46
 70
     1
102
RTVSPropertyOp47
 70
     1
102
RTVSPropertyOp48
 70
     1
102
RTVSPropertyOp49
 70
     1
102
RTVSPropertyOp50
 70
     1
102
RTVSPropertyOp51
 70
     0
102
RTVSPropertyOp52
 70
     0
102
RTVSPropertyOp53
 70
     1
102
RTVSPropertyOp54
 70
     1
102
RTVSPropertyOp55
 70
     1
102
RTVSPropertyOp56
 70
     1
102
RTVSPropertyOp57
 70
     1
102
RTVSPost2010Prop28
280
     0
102
RTVSPost2010PropOp28
 70
     1
102
RTVSPost2010Prop29
280
     1
102
RTVSPost2010PropOp29
 70
     1
102
RTVSPost2010Prop30
280
     1
102
RTVSPost2010PropOp30
 70
     1
102
RTVSPost2010Prop31
280
     0
102
RTVSPost2010PropOp31
 70
     1
102
RTVSPost2010Prop32
280
     0
102
RTVSPost2010PropOp32
 70
     1
102
RTVSPost2010Prop33
280
     0
102
RTVSPost2010PropOp33
 70
     1
102
RTVSPost2010Prop34
280
     0
102
RTVSPost2010PropOp34
 70
     1
102
RTVSPost2010Prop35
280
     0
102
RTVSPost2010PropOp35
 70
     1
102
RTVSPost2010Prop36
280
     0
102
RTVSPost2010PropOp36
 70
     1
102
RTVSPost2010Prop37
 90
       50
102
RTVSPost2010PropOp37
 70
     1
102
RTVSPost2010Prop38
140
0.0
102
RTVSPost2010PropOp38
 70
     1
102
RTVSPost2010Prop39
140
1.0
102
RTVSPost2010PropOp39
 70
     1
102
RTVSPost2010Prop40
 90
        0
102
RTVSPost2010PropOp40
 70
     1
102
RTVSPost2010Prop41ColorIndex
 90
       18
102
RTVSPost2010Prop41ColorRGB
 90
        0
102
RTVSPost2010PropOp41
 70
     1
102
RTVSPost2010Prop42
 90
       50
102
RTVSPost2010PropOp42
 70
     1
102
RTVSPost2010Prop43
 90
        3
102
RTVSPost2010PropOp43
 70
     1
102
RTVSPost2010Prop44ColorIndex
 90
        5
102
RTVSPost2010Prop44ColorRGB
 90
      255
102
RTVSPost2010PropOp44
 70
     1
102
RTVSPost2010Prop45
280
     0
102
RTVSPost2010PropOp45
 70
     1
102
RTVSPost2010Prop46
 90
       50
102
RTVSPost2010PropOp46
 70
     1
102
RTVSPost2010Prop47
 90
       50
102
RTVSPost2010PropOp47
 70
     1
102
RTVSPost2010Prop48
 90
       50
102
RTVSPost2010PropOp48
 70
     1
102
RTVSPost2010Prop49
280
     0
102
RTVSPost2010PropOp49
 70
     1
102
RTVSPost2010Prop50
 90
       50
102
RTVSPost2010PropOp50
 70
     1
102
RTVSPost2010Prop51ColorIndex
 90
      256
102
RTVSPost2010Prop51ColorRGB
 90
-16777216
102
RTVSPost2010PropOp51
 70
     0
102
RTVSPost2010Prop52
140
1.0
102
RTVSPost2010PropOp52
 70
     0
102
RTVSPost2010Prop53
 90
        2
102
RTVSPost2010PropOp53
 70
     1
102
RTVSPost2010Prop54
  1
strokes_ogs.tif
102
RTVSPost2010PropOp54
 70
     1
102
RTVSPost2010Prop55
280
     0
102
RTVSPost2010PropOp55
 70
     1
102
RTVSPost2010Prop56
140
1.0
102
RTVSPost2010PropOp56
 70
     1
102
RTVSPost2010Prop57
140
1.0
102
RTVSPost2010PropOp57
 70
     1
  0
XRECORD
  5
314
102
{ACAD_REACTORS
330
313
102
}
330
313
100
AcDbXrecord
280
     1
102
RTVSPropertyOp0
 70
     1
102
RTVSPropertyOp1
 70
     1
102
RTVSPropertyOp2
 70
     1
102
RTVSPropertyOp3
 70
     1
102
RTVSPropertyOp4
 70
     1
102
RTVSPropertyOp5
 70
     1
102
RTVSPropertyOp6
 70
     1
102
RTVSPropertyOp7
 70
     1
102
RTVSPropertyOp8
 70
     1
102
RTVSPropertyOp9
 70
     1
102
RTVSPropertyOp10
 70
     1
102
RTVSPropertyOp11
 70
     1
102
RTVSPropertyOp12
 70
     1
102
RTVSPropertyOp13
 70
     1
102
RTVSPropertyOp14
 70
     1
102
RTVSPropertyOp15
 70
     1
102
RTVSPropertyOp16
 70
     1
102
RTVSPropertyOp17
 70
     1
102
RTVSPropertyOp18
 70
     1
102
RTVSPropertyOp19
 70
     1
102
RTVSPropertyOp20
 70
     1
102
RTVSPropertyOp21
 70
     1
102
RTVSPropertyOp22
 70
     1
102
RTVSPropertyOp23
 70
     1
102
RTVSPropertyOp24
 70
     1
102
RTVSPropertyOp25
 70
     1
102
RTVSPropertyOp26
 70
     1
102
RTVSPropertyOp27
 70
     1
102
RTVSPropertyOp28
 70
     1
102
RTVSPropertyOp29
 70
     1
102
RTVSPropertyOp30
 70
     1
102
RTVSPropertyOp31
 70
     1
102
RTVSPropertyOp32
 70
     1
102
RTVSPropertyOp33
 70
     1
102
RTVSPropertyOp34
 70
     1
102
RTVSPropertyOp35
 70
     1
102
RTVSPropertyOp36
 70
     1
102
RTVSPropertyOp37
 70
     1
102
RTVSPropertyOp38
 70
     1
102
RTVSPropertyOp39
 70
     1
102
RTVSPropertyOp40
 70
     1
102
RTVSPropertyOp41
 70
     1
102
RTVSPropertyOp42
 70
     1
102
RTVSPropertyOp43
 70
     1
102
RTVSPropertyOp44
 70
     1
102
RTVSPropertyOp45
 70
     1
102
RTVSPropertyOp46
 70
     1
102
RTVSPropertyOp47
 70
     1
102
RTVSPropertyOp48
 70
     1
102
RTVSPropertyOp49
 70
     1
102
RTVSPropertyOp50
 70
     1
102
RTVSPropertyOp51
 70
     0
102
RTVSPropertyOp52
 70
     0
102
RTVSPropertyOp53
 70
     1
102
RTVSPropertyOp54
 70
     1
102
RTVSPropertyOp55
 70
     1
102
RTVSPropertyOp56
 70
     1
102
RTVSPropertyOp57
 70
     1
102
RTVSPost2010Prop28
280
     0
102
RTVSPost2010PropOp28
 70
     1
102
RTVSPost2010Prop29
280
     1
102
RTVSPost2010PropOp29
 70
     1
102
RTVSPost2010Prop30
280
     1
102
RTVSPost2010PropOp30
 70
     1
102
RTVSPost2010Prop31
280
     0
102
RTVSPost2010PropOp31
 70
     1
102
RTVSPost2010Prop32
280
     0
102
RTVSPost2010PropOp32
 70
     1
102
RTVSPost2010Prop33
280
     0
102
RTVSPost2010PropOp33
 70
     1
102
RTVSPost2010Prop34
280
     0
102
RTVSPost2010PropOp34
 70
     1
102
RTVSPost2010Prop35
280
     0
102
RTVSPost2010PropOp35
 70
     1
102
RTVSPost2010Prop36
280
     0
102
RTVSPost2010PropOp36
 70
     1
102
RTVSPost2010Prop37
 90
       50
102
RTVSPost2010PropOp37
 70
     1
102
RTVSPost2010Prop38
140
0.0
102
RTVSPost2010PropOp38
 70
     1
102
RTVSPost2010Prop39
140
1.0
102
RTVSPost2010PropOp39
 70
     1
102
RTVSPost2010Prop40
 90
        0
102
RTVSPost2010PropOp40
 70
     1
102
RTVSPost2010Prop41ColorIndex
 90
       18
102
RTVSPost2010Prop41ColorRGB
 90
        0
102
RTVSPost2010PropOp41
 70
     1
102
RTVSPost2010Prop42
 90
       50
102
RTVSPost2010PropOp42
 70
     1
102
RTVSPost2010Prop43
 90
        3
102
RTVSPost2010PropOp43
 70
     1
102
RTVSPost2010Prop44ColorIndex
 90
        5
102
RTVSPost2010Prop44ColorRGB
 90
      255
102
RTVSPost2010PropOp44
 70
     1
102
RTVSPost2010Prop45
280
     0
102
RTVSPost2010PropOp45
 70
     1
102
RTVSPost2010Prop46
 90
       50
102
RTVSPost2010PropOp46
 70
     1
102
RTVSPost2010Prop47
 90
       50
102
RTVSPost2010PropOp47
 70
     1
102
RTVSPost2010Prop48
 90
       50
102
RTVSPost2010PropOp48
 70
     1
102
RTVSPost2010Prop49
280
     0
102
RTVSPost2010PropOp49
 70
     1
102
RTVSPost2010Prop50
 90
       50
102
RTVSPost2010PropOp50
 70
     1
102
RTVSPost2010Prop51ColorIndex
 90
      256
102
RTVSPost2010Prop51ColorRGB
 90
-16777216
102
RTVSPost2010PropOp51
 70
     0
102
RTVSPost2010Prop52
140
1.0
102
RTVSPost2010PropOp52
 70
     0
102
RTVSPost2010Prop53
 90
        2
102
RTVSPost2010PropOp53
 70
     1
102
RTVSPost2010Prop54
  1
strokes_ogs.tif
102
RTVSPost2010PropOp54
 70
     1
102
RTVSPost2010Prop55
280
     0
102
RTVSPost2010PropOp55
 70
     1
102
RTVSPost2010Prop56
140
1.0
102
RTVSPost2010PropOp56
 70
     1
102
RTVSPost2010Prop57
140
1.0
102
RTVSPost2010PropOp57
 70
     1
  0
XRECORD
  5
316
102
{ACAD_REACTORS
330
315
102
}
330
315
100
AcDbXrecord
280
     1
102
RTVSPropertyOp0
 70
     1
102
RTVSPropertyOp1
 70
     1
102
RTVSPropertyOp2
 70
     1
102
RTVSPropertyOp3
 70
     1
102
RTVSPropertyOp4
 70
     1
102
RTVSPropertyOp5
 70
     1
102
RTVSPropertyOp6
 70
     1
102
RTVSPropertyOp7
 70
     1
102
RTVSPropertyOp8
 70
     1
102
RTVSPropertyOp9
 70
     1
102
RTVSPropertyOp10
 70
     1
102
RTVSPropertyOp11
 70
     1
102
RTVSPropertyOp12
 70
     1
102
RTVSPropertyOp13
 70
     1
102
RTVSPropertyOp14
 70
     1
102
RTVSPropertyOp15
 70
     1
102
RTVSPropertyOp16
 70
     1
102
RTVSPropertyOp17
 70
     1
102
RTVSPropertyOp18
 70
     1
102
RTVSPropertyOp19
 70
     1
102
RTVSPropertyOp20
 70
     1
102
RTVSPropertyOp21
 70
     1
102
RTVSPropertyOp22
 70
     1
102
RTVSPropertyOp23
 70
     1
102
RTVSPropertyOp24
 70
     1
102
RTVSPropertyOp25
 70
     1
102
RTVSPropertyOp26
 70
     1
102
RTVSPropertyOp27
 70
     1
102
RTVSPropertyOp28
 70
     1
102
RTVSPropertyOp29
 70
     1
102
RTVSPropertyOp30
 70
     1
102
RTVSPropertyOp31
 70
     1
102
RTVSPropertyOp32
 70
     1
102
RTVSPropertyOp33
 70
     1
102
RTVSPropertyOp34
 70
     1
102
RTVSPropertyOp35
 70
     1
102
RTVSPropertyOp36
 70
     1
102
RTVSPropertyOp37
 70
     1
102
RTVSPropertyOp38
 70
     1
102
RTVSPropertyOp39
 70
     1
102
RTVSPropertyOp40
 70
     1
102
RTVSPropertyOp41
 70
     1
102
RTVSPropertyOp42
 70
     1
102
RTVSPropertyOp43
 70
     1
102
RTVSPropertyOp44
 70
     1
102
RTVSPropertyOp45
 70
     1
102
RTVSPropertyOp46
 70
     1
102
RTVSPropertyOp47
 70
     1
102
RTVSPropertyOp48
 70
     1
102
RTVSPropertyOp49
 70
     1
102
RTVSPropertyOp50
 70
     1
102
RTVSPropertyOp51
 70
     0
102
RTVSPropertyOp52
 70
     0
102
RTVSPropertyOp53
 70
     1
102
RTVSPropertyOp54
 70
     1
102
RTVSPropertyOp55
 70
     1
102
RTVSPropertyOp56
 70
     1
102
RTVSPropertyOp57
 70
     1
102
RTVSPost2010Prop28
280
     0
102
RTVSPost2010PropOp28
 70
     1
102
RTVSPost2010Prop29
280
     1
102
RTVSPost2010PropOp29
 70
     1
102
RTVSPost2010Prop30
280
     1
102
RTVSPost2010PropOp30
 70
     1
102
RTVSPost2010Prop31
280
     0
102
RTVSPost2010PropOp31
 70
     1
102
RTVSPost2010Prop32
280
     0
102
RTVSPost2010PropOp32
 70
     1
102
RTVSPost2010Prop33
280
     0
102
RTVSPost2010PropOp33
 70
     1
102
RTVSPost2010Prop34
280
     0
102
RTVSPost2010PropOp34
 70
     1
102
RTVSPost2010Prop35
280
     0
102
RTVSPost2010PropOp35
 70
     1
102
RTVSPost2010Prop36
280
     0
102
RTVSPost2010PropOp36
 70
     1
102
RTVSPost2010Prop37
 90
       50
102
RTVSPost2010PropOp37
 70
     1
102
RTVSPost2010Prop38
140
0.0
102
RTVSPost2010PropOp38
 70
     1
102
RTVSPost2010Prop39
140
1.0
102
RTVSPost2010PropOp39
 70
     1
102
RTVSPost2010Prop40
 90
        0
102
RTVSPost2010PropOp40
 70
     1
102
RTVSPost2010Prop41ColorIndex
 90
       18
102
RTVSPost2010Prop41ColorRGB
 90
        0
102
RTVSPost2010PropOp41
 70
     1
102
RTVSPost2010Prop42
 90
       50
102
RTVSPost2010PropOp42
 70
     1
102
RTVSPost2010Prop43
 90
        3
102
RTVSPost2010PropOp43
 70
     1
102
RTVSPost2010Prop44ColorIndex
 90
        5
102
RTVSPost2010Prop44ColorRGB
 90
      255
102
RTVSPost2010PropOp44
 70
     1
102
RTVSPost2010Prop45
280
     0
102
RTVSPost2010PropOp45
 70
     1
102
RTVSPost2010Prop46
 90
       50
102
RTVSPost2010PropOp46
 70
     1
102
RTVSPost2010Prop47
 90
       50
102
RTVSPost2010PropOp47
 70
     1
102
RTVSPost2010Prop48
 90
       50
102
RTVSPost2010PropOp48
 70
     1
102
RTVSPost2010Prop49
280
     0
102
RTVSPost2010PropOp49
 70
     1
102
RTVSPost2010Prop50
 90
       50
102
RTVSPost2010PropOp50
 70
     1
102
RTVSPost2010Prop51ColorIndex
 90
      256
102
RTVSPost2010Prop51ColorRGB
 90
-16777216
102
RTVSPost2010PropOp51
 70
     0
102
RTVSPost2010Prop52
140
1.0
102
RTVSPost2010PropOp52
 70
     0
102
RTVSPost2010Prop53
 90
        2
102
RTVSPost2010PropOp53
 70
     1
102
RTVSPost2010Prop54
  1
strokes_ogs.tif
102
RTVSPost2010PropOp54
 70
     1
102
RTVSPost2010Prop55
280
     0
102
RTVSPost2010PropOp55
 70
     1
102
RTVSPost2010Prop56
140
1.0
102
RTVSPost2010PropOp56
 70
     1
102
RTVSPost2010Prop57
140
1.0
102
RTVSPost2010PropOp57
 70
     1
  0
XRECORD
  5
31C
102
{ACAD_REACTORS
330
31B
102
}
330
31B
100
AcDbXrecord
280
     1
102
RTVSPropertyOp0
 70
     1
102
RTVSPropertyOp1
 70
     1
102
RTVSPropertyOp2
 70
     1
102
RTVSPropertyOp3
 70
     1
102
RTVSPropertyOp4
 70
     1
102
RTVSPropertyOp5
 70
     1
102
RTVSPropertyOp6
 70
     1
102
RTVSPropertyOp7
 70
     1
102
RTVSPropertyOp8
 70
     1
102
RTVSPropertyOp9
 70
     1
102
RTVSPropertyOp10
 70
     1
102
RTVSPropertyOp11
 70
     1
102
RTVSPropertyOp12
 70
     1
102
RTVSPropertyOp13
 70
     1
102
RTVSPropertyOp14
 70
     1
102
RTVSPropertyOp15
 70
     1
102
RTVSPropertyOp16
 70
     1
102
RTVSPropertyOp17
 70
     1
102
RTVSPropertyOp18
 70
     1
102
RTVSPropertyOp19
 70
     1
102
RTVSPropertyOp20
 70
     1
102
RTVSPropertyOp21
 70
     1
102
RTVSPropertyOp22
 70
     1
102
RTVSPropertyOp23
 70
     1
102
RTVSPropertyOp24
 70
     1
102
RTVSPropertyOp25
 70
     1
102
RTVSPropertyOp26
 70
     1
102
RTVSPropertyOp27
 70
     1
102
RTVSPropertyOp28
 70
     1
102
RTVSPropertyOp29
 70
     1
102
RTVSPropertyOp30
 70
     1
102
RTVSPropertyOp31
 70
     1
102
RTVSPropertyOp32
 70
     1
102
RTVSPropertyOp33
 70
     1
102
RTVSPropertyOp34
 70
     1
102
RTVSPropertyOp35
 70
     1
102
RTVSPropertyOp36
 70
     1
102
RTVSPropertyOp37
 70
     1
102
RTVSPropertyOp38
 70
     1
102
RTVSPropertyOp39
 70
     1
102
RTVSPropertyOp40
 70
     1
102
RTVSPropertyOp41
 70
     1
102
RTVSPropertyOp42
 70
     1
102
RTVSPropertyOp43
 70
     1
102
RTVSPropertyOp44
 70
     1
102
RTVSPropertyOp45
 70
     1
102
RTVSPropertyOp46
 70
     1
102
RTVSPropertyOp47
 70
     1
102
RTVSPropertyOp48
 70
     1
102
RTVSPropertyOp49
 70
     1
102
RTVSPropertyOp50
 70
     1
102
RTVSPropertyOp51
 70
     0
102
RTVSPropertyOp52
 70
     0
102
RTVSPropertyOp53
 70
     1
102
RTVSPropertyOp54
 70
     1
102
RTVSPropertyOp55
 70
     1
102
RTVSPropertyOp56
 70
     1
102
RTVSPropertyOp57
 70
     1
102
RTVSPost2010Prop28
280
     0
102
RTVSPost2010PropOp28
 70
     1
102
RTVSPost2010Prop29
280
     1
102
RTVSPost2010PropOp29
 70
     1
102
RTVSPost2010Prop30
280
     1
102
RTVSPost2010PropOp30
 70
     1
102
RTVSPost2010Prop31
280
     0
102
RTVSPost2010PropOp31
 70
     1
102
RTVSPost2010Prop32
280
     0
102
RTVSPost2010PropOp32
 70
     1
102
RTVSPost2010Prop33
280
     0
102
RTVSPost2010PropOp33
 70
     1
102
RTVSPost2010Prop34
280
     0
102
RTVSPost2010PropOp34
 70
     1
102
RTVSPost2010Prop35
280
     0
102
RTVSPost2010PropOp35
 70
     1
102
RTVSPost2010Prop36
280
     0
102
RTVSPost2010PropOp36
 70
     1
102
RTVSPost2010Prop37
 90
       50
102
RTVSPost2010PropOp37
 70
     1
102
RTVSPost2010Prop38
140
0.0
102
RTVSPost2010PropOp38
 70
     1
102
RTVSPost2010Prop39
140
1.0
102
RTVSPost2010PropOp39
 70
     1
102
RTVSPost2010Prop40
 90
        0
102
RTVSPost2010PropOp40
 70
     1
102
RTVSPost2010Prop41ColorIndex
 90
       18
102
RTVSPost2010Prop41ColorRGB
 90
        0
102
RTVSPost2010PropOp41
 70
     1
102
RTVSPost2010Prop42
 90
       50
102
RTVSPost2010PropOp42
 70
     1
102
RTVSPost2010Prop43
 90
        3
102
RTVSPost2010PropOp43
 70
     1
102
RTVSPost2010Prop44ColorIndex
 90
        5
102
RTVSPost2010Prop44ColorRGB
 90
      255
102
RTVSPost2010PropOp44
 70
     1
102
RTVSPost2010Prop45
280
     0
102
RTVSPost2010PropOp45
 70
     1
102
RTVSPost2010Prop46
 90
       50
102
RTVSPost2010PropOp46
 70
     1
102
RTVSPost2010Prop47
 90
       50
102
RTVSPost2010PropOp47
 70
     1
102
RTVSPost2010Prop48
 90
       50
102
RTVSPost2010PropOp48
 70
     1
102
RTVSPost2010Prop49
280
     0
102
RTVSPost2010PropOp49
 70
     1
102
RTVSPost2010Prop50
 90
       50
102
RTVSPost2010PropOp50
 70
     1
102
RTVSPost2010Prop51ColorIndex
 90
      256
102
RTVSPost2010Prop51ColorRGB
 90
-16777216
102
RTVSPost2010PropOp51
 70
     0
102
RTVSPost2010Prop52
140
1.0
102
RTVSPost2010PropOp52
 70
     0
102
RTVSPost2010Prop53
 90
        2
102
RTVSPost2010PropOp53
 70
     1
102
RTVSPost2010Prop54
  1
strokes_ogs.tif
102
RTVSPost2010PropOp54
 70
     1
102
RTVSPost2010Prop55
280
     0
102
RTVSPost2010PropOp55
 70
     1
102
RTVSPost2010Prop56
140
1.0
102
RTVSPost2010PropOp56
 70
     1
102
RTVSPost2010Prop57
140
1.0
102
RTVSPost2010PropOp57
 70
     1
  0
XRECORD
  5
330
102
{ACAD_REACTORS
330
32F
102
}
330
32F
100
AcDbXrecord
280
     1
102
RTVSPropertyOp0
 70
     0
102
RTVSPropertyOp1
 70
     0
102
RTVSPropertyOp2
 70
     0
102
RTVSPropertyOp3
 70
     0
102
RTVSPropertyOp4
 70
     0
102
RTVSPropertyOp5
 70
     0
102
RTVSPropertyOp6
 70
     0
102
RTVSPropertyOp7
 70
     0
102
RTVSPropertyOp8
 70
     0
102
RTVSPropertyOp9
 70
     0
102
RTVSPropertyOp10
 70
     0
102
RTVSPropertyOp11
 70
     0
102
RTVSPropertyOp12
 70
     0
102
RTVSPropertyOp13
 70
     0
102
RTVSPropertyOp14
 70
     2
102
RTVSPropertyOp15
 70
     0
102
RTVSPropertyOp16
 70
     0
102
RTVSPropertyOp17
 70
     0
102
RTVSPropertyOp18
 70
     0
102
RTVSPropertyOp19
 70
     0
102
RTVSPropertyOp20
 70
     0
102
RTVSPropertyOp21
 70
     0
102
RTVSPropertyOp22
 70
     0
102
RTVSPropertyOp23
 70
     0
102
RTVSPropertyOp24
 70
     0
102
RTVSPropertyOp25
 70
     0
102
RTVSPropertyOp26
 70
     0
102
RTVSPropertyOp27
 70
     0
102
RTVSPropertyOp28
 70
     0
102
RTVSPropertyOp29
 70
     0
102
RTVSPropertyOp30
 70
     0
102
RTVSPropertyOp31
 70
     0
102
RTVSPropertyOp32
 70
     0
102
RTVSPropertyOp33
 70
     0
102
RTVSPropertyOp34
 70
     0
102
RTVSPropertyOp35
 70
     0
102
RTVSPropertyOp36
 70
     0
102
RTVSPropertyOp37
 70
     0
102
RTVSPropertyOp38
 70
     0
102
RTVSPropertyOp39
 70
     0
102
RTVSPropertyOp40
 70
     0
102
RTVSPropertyOp41
 70
     0
102
RTVSPropertyOp42
 70
     0
102
RTVSPropertyOp43
 70
     0
102
RTVSPropertyOp44
 70
     0
102
RTVSPropertyOp45
 70
     0
102
RTVSPropertyOp46
 70
     0
102
RTVSPropertyOp47
 70
     0
102
RTVSPropertyOp48
 70
     0
102
RTVSPropertyOp49
 70
     0
102
RTVSPropertyOp50
 70
     0
102
RTVSPropertyOp51
 70
     0
102
RTVSPropertyOp52
 70
     0
102
RTVSPropertyOp53
 70
     0
102
RTVSPropertyOp54
 70
     0
102
RTVSPropertyOp55
 70
     0
102
RTVSPropertyOp56
 70
     0
102
RTVSPropertyOp57
 70
     0
102
RTVSPost2010Prop28
280
     0
102
RTVSPost2010PropOp28
 70
     0
102
RTVSPost2010Prop29
280
     1
102
RTVSPost2010PropOp29
 70
     0
102
RTVSPost2010Prop30
280
     1
102
RTVSPost2010PropOp30
 70
     0
102
RTVSPost2010Prop31
280
     0
102
RTVSPost2010PropOp31
 70
     0
102
RTVSPost2010Prop32
280
     0
102
RTVSPost2010PropOp32
 70
     0
102
RTVSPost2010Prop33
280
     0
102
RTVSPost2010PropOp33
 70
     0
102
RTVSPost2010Prop34
280
     0
102
RTVSPost2010PropOp34
 70
     0
102
RTVSPost2010Prop35
280
     0
102
RTVSPost2010PropOp35
 70
     0
102
RTVSPost2010Prop36
280
     0
102
RTVSPost2010PropOp36
 70
     0
102
RTVSPost2010Prop37
 90
       50
102
RTVSPost2010PropOp37
 70
     0
102
RTVSPost2010Prop38
140
0.0
102
RTVSPost2010PropOp38
 70
     0
102
RTVSPost2010Prop39
140
1.0
102
RTVSPost2010PropOp39
 70
     0
102
RTVSPost2010Prop40
 90
        0
102
RTVSPost2010PropOp40
 70
     0
102
RTVSPost2010Prop41ColorIndex
 90
       18
102
RTVSPost2010Prop41ColorRGB
 90
        0
102
RTVSPost2010PropOp41
 70
     0
102
RTVSPost2010Prop42
 90
       50
102
RTVSPost2010PropOp42
 70
     0
102
RTVSPost2010Prop43
 90
        3
102
RTVSPost2010PropOp43
 70
     0
102
RTVSPost2010Prop44ColorIndex
 90
        5
102
RTVSPost2010Prop44ColorRGB
 90
      255
102
RTVSPost2010PropOp44
 70
     0
102
RTVSPost2010Prop45
280
     0
102
RTVSPost2010PropOp45
 70
     0
102
RTVSPost2010Prop46
 90
       50
102
RTVSPost2010PropOp46
 70
     0
102
RTVSPost2010Prop47
 90
       50
102
RTVSPost2010PropOp47
 70
     0
102
RTVSPost2010Prop48
 90
       50
102
RTVSPost2010PropOp48
 70
     0
102
RTVSPost2010Prop49
280
     0
102
RTVSPost2010PropOp49
 70
     0
102
RTVSPost2010Prop50
 90
       50
102
RTVSPost2010PropOp50
 70
     0
102
RTVSPost2010Prop51ColorIndex
 90
      256
102
RTVSPost2010Prop51ColorRGB
 90
-16777216
102
RTVSPost2010PropOp51
 70
     0
102
RTVSPost2010Prop52
140
1.0
102
RTVSPost2010PropOp52
 70
     0
102
RTVSPost2010Prop53
 90
        2
102
RTVSPost2010PropOp53
 70
     0
102
RTVSPost2010Prop54
  1
strokes_ogs.tif
102
RTVSPost2010PropOp54
 70
     0
102
RTVSPost2010Prop55
280
     0
102
RTVSPost2010PropOp55
 70
     0
102
RTVSPost2010Prop56
140
1.0
102
RTVSPost2010PropOp56
 70
     0
102
RTVSPost2010Prop57
140
1.0
102
RTVSPost2010PropOp57
 70
     0
  0
XRECORD
  5
32A
102
{ACAD_REACTORS
330
329
102
}
330
329
100
AcDbXrecord
280
     1
102
RTVSPropertyOp0
 70
     1
102
RTVSPropertyOp1
 70
     1
102
RTVSPropertyOp2
 70
     1
102
RTVSPropertyOp3
 70
     1
102
RTVSPropertyOp4
 70
     1
102
RTVSPropertyOp5
 70
     1
102
RTVSPropertyOp6
 70
     1
102
RTVSPropertyOp7
 70
     1
102
RTVSPropertyOp8
 70
     1
102
RTVSPropertyOp9
 70
     1
102
RTVSPropertyOp10
 70
     1
102
RTVSPropertyOp11
 70
     1
102
RTVSPropertyOp12
 70
     1
102
RTVSPropertyOp13
 70
     1
102
RTVSPropertyOp14
 70
     1
102
RTVSPropertyOp15
 70
     1
102
RTVSPropertyOp16
 70
     1
102
RTVSPropertyOp17
 70
     1
102
RTVSPropertyOp18
 70
     1
102
RTVSPropertyOp19
 70
     1
102
RTVSPropertyOp20
 70
     1
102
RTVSPropertyOp21
 70
     1
102
RTVSPropertyOp22
 70
     1
102
RTVSPropertyOp23
 70
     1
102
RTVSPropertyOp24
 70
     1
102
RTVSPropertyOp25
 70
     1
102
RTVSPropertyOp26
 70
     1
102
RTVSPropertyOp27
 70
     1
102
RTVSPropertyOp28
 70
     1
102
RTVSPropertyOp29
 70
     1
102
RTVSPropertyOp30
 70
     1
102
RTVSPropertyOp31
 70
     1
102
RTVSPropertyOp32
 70
     1
102
RTVSPropertyOp33
 70
     1
102
RTVSPropertyOp34
 70
     1
102
RTVSPropertyOp35
 70
     1
102
RTVSPropertyOp36
 70
     1
102
RTVSPropertyOp37
 70
     1
102
RTVSPropertyOp38
 70
     1
102
RTVSPropertyOp39
 70
     1
102
RTVSPropertyOp40
 70
     1
102
RTVSPropertyOp41
 70
     1
102
RTVSPropertyOp42
 70
     1
102
RTVSPropertyOp43
 70
     1
102
RTVSPropertyOp44
 70
     1
102
RTVSPropertyOp45
 70
     1
102
RTVSPropertyOp46
 70
     1
102
RTVSPropertyOp47
 70
     1
102
RTVSPropertyOp48
 70
     1
102
RTVSPropertyOp49
 70
     1
102
RTVSPropertyOp50
 70
     1
102
RTVSPropertyOp51
 70
     0
102
RTVSPropertyOp52
 70
     0
102
RTVSPropertyOp53
 70
     1
102
RTVSPropertyOp54
 70
     1
102
RTVSPropertyOp55
 70
     1
102
RTVSPropertyOp56
 70
     1
102
RTVSPropertyOp57
 70
     1
102
RTVSPost2010Prop28
280
     0
102
RTVSPost2010PropOp28
 70
     1
102
RTVSPost2010Prop29
280
     1
102
RTVSPost2010PropOp29
 70
     1
102
RTVSPost2010Prop30
280
     1
102
RTVSPost2010PropOp30
 70
     1
102
RTVSPost2010Prop31
280
     0
102
RTVSPost2010PropOp31
 70
     1
102
RTVSPost2010Prop32
280
     0
102
RTVSPost2010PropOp32
 70
     1
102
RTVSPost2010Prop33
280
     0
102
RTVSPost2010PropOp33
 70
     1
102
RTVSPost2010Prop34
280
     0
102
RTVSPost2010PropOp34
 70
     1
102
RTVSPost2010Prop35
280
     0
102
RTVSPost2010PropOp35
 70
     1
102
RTVSPost2010Prop36
280
     0
102
RTVSPost2010PropOp36
 70
     1
102
RTVSPost2010Prop37
 90
       50
102
RTVSPost2010PropOp37
 70
     1
102
RTVSPost2010Prop38
140
0.0
102
RTVSPost2010PropOp38
 70
     1
102
RTVSPost2010Prop39
140
1.0
102
RTVSPost2010PropOp39
 70
     1
102
RTVSPost2010Prop40
 90
        0
102
RTVSPost2010PropOp40
 70
     1
102
RTVSPost2010Prop41ColorIndex
 90
       18
102
RTVSPost2010Prop41ColorRGB
 90
        0
102
RTVSPost2010PropOp41
 70
     1
102
RTVSPost2010Prop42
 90
       50
102
RTVSPost2010PropOp42
 70
     1
102
RTVSPost2010Prop43
 90
        3
102
RTVSPost2010PropOp43
 70
     1
102
RTVSPost2010Prop44ColorIndex
 90
        5
102
RTVSPost2010Prop44ColorRGB
 90
      255
102
RTVSPost2010PropOp44
 70
     1
102
RTVSPost2010Prop45
280
     0
102
RTVSPost2010PropOp45
 70
     1
102
RTVSPost2010Prop46
 90
       50
102
RTVSPost2010PropOp46
 70
     1
102
RTVSPost2010Prop47
 90
       50
102
RTVSPost2010PropOp47
 70
     1
102
RTVSPost2010Prop48
 90
       50
102
RTVSPost2010PropOp48
 70
     1
102
RTVSPost2010Prop49
280
     0
102
RTVSPost2010PropOp49
 70
     1
102
RTVSPost2010Prop50
 90
       50
102
RTVSPost2010PropOp50
 70
     1
102
RTVSPost2010Prop51ColorIndex
 90
      256
102
RTVSPost2010Prop51ColorRGB
 90
-16777216
102
RTVSPost2010PropOp51
 70
     0
102
RTVSPost2010Prop52
140
1.0
102
RTVSPost2010PropOp52
 70
     0
102
RTVSPost2010Prop53
 90
        2
102
RTVSPost2010PropOp53
 70
     1
102
RTVSPost2010Prop54
  1
strokes_ogs.tif
102
RTVSPost2010PropOp54
 70
     1
102
RTVSPost2010Prop55
280
     0
102
RTVSPost2010PropOp55
 70
     1
102
RTVSPost2010Prop56
140
1.0
102
RTVSPost2010PropOp56
 70
     1
102
RTVSPost2010Prop57
140
1.0
102
RTVSPost2010PropOp57
 70
     1
  0
XRECORD
  5
332
102
{ACAD_REACTORS
330
331
102
}
330
331
100
AcDbXrecord
280
     1
102
RTVSPropertyOp0
 70
     0
102
RTVSPropertyOp1
 70
     0
102
RTVSPropertyOp2
 70
     0
102
RTVSPropertyOp3
 70
     0
102
RTVSPropertyOp4
 70
     0
102
RTVSPropertyOp5
 70
     0
102
RTVSPropertyOp6
 70
     0
102
RTVSPropertyOp7
 70
     0
102
RTVSPropertyOp8
 70
     0
102
RTVSPropertyOp9
 70
     0
102
RTVSPropertyOp10
 70
     0
102
RTVSPropertyOp11
 70
     0
102
RTVSPropertyOp12
 70
     0
102
RTVSPropertyOp13
 70
     0
102
RTVSPropertyOp14
 70
     2
102
RTVSPropertyOp15
 70
     0
102
RTVSPropertyOp16
 70
     0
102
RTVSPropertyOp17
 70
     0
102
RTVSPropertyOp18
 70
     0
102
RTVSPropertyOp19
 70
     0
102
RTVSPropertyOp20
 70
     0
102
RTVSPropertyOp21
 70
     0
102
RTVSPropertyOp22
 70
     0
102
RTVSPropertyOp23
 70
     0
102
RTVSPropertyOp24
 70
     0
102
RTVSPropertyOp25
 70
     0
102
RTVSPropertyOp26
 70
     0
102
RTVSPropertyOp27
 70
     0
102
RTVSPropertyOp28
 70
     0
102
RTVSPropertyOp29
 70
     0
102
RTVSPropertyOp30
 70
     0
102
RTVSPropertyOp31
 70
     0
102
RTVSPropertyOp32
 70
     0
102
RTVSPropertyOp33
 70
     0
102
RTVSPropertyOp34
 70
     0
102
RTVSPropertyOp35
 70
     0
102
RTVSPropertyOp36
 70
     0
102
RTVSPropertyOp37
 70
     0
102
RTVSPropertyOp38
 70
     0
102
RTVSPropertyOp39
 70
     0
102
RTVSPropertyOp40
 70
     0
102
RTVSPropertyOp41
 70
     0
102
RTVSPropertyOp42
 70
     0
102
RTVSPropertyOp43
 70
     0
102
RTVSPropertyOp44
 70
     0
102
RTVSPropertyOp45
 70
     0
102
RTVSPropertyOp46
 70
     0
102
RTVSPropertyOp47
 70
     0
102
RTVSPropertyOp48
 70
     0
102
RTVSPropertyOp49
 70
     0
102
RTVSPropertyOp50
 70
     0
102
RTVSPropertyOp51
 70
     0
102
RTVSPropertyOp52
 70
     0
102
RTVSPropertyOp53
 70
     0
102
RTVSPropertyOp54
 70
     0
102
RTVSPropertyOp55
 70
     0
102
RTVSPropertyOp56
 70
     0
102
RTVSPropertyOp57
 70
     0
102
RTVSPost2010Prop28
280
     0
102
RTVSPost2010PropOp28
 70
     0
102
RTVSPost2010Prop29
280
     1
102
RTVSPost2010PropOp29
 70
     0
102
RTVSPost2010Prop30
280
     1
102
RTVSPost2010PropOp30
 70
     0
102
RTVSPost2010Prop31
280
     0
102
RTVSPost2010PropOp31
 70
     0
102
RTVSPost2010Prop32
280
     0
102
RTVSPost2010PropOp32
 70
     0
102
RTVSPost2010Prop33
280
     0
102
RTVSPost2010PropOp33
 70
     0
102
RTVSPost2010Prop34
280
     0
102
RTVSPost2010PropOp34
 70
     0
102
RTVSPost2010Prop35
280
     0
102
RTVSPost2010PropOp35
 70
     0
102
RTVSPost2010Prop36
280
     0
102
RTVSPost2010PropOp36
 70
     0
102
RTVSPost2010Prop37
 90
       50
102
RTVSPost2010PropOp37
 70
     0
102
RTVSPost2010Prop38
140
0.0
102
RTVSPost2010PropOp38
 70
     0
102
RTVSPost2010Prop39
140
1.0
102
RTVSPost2010PropOp39
 70
     0
102
RTVSPost2010Prop40
 90
        0
102
RTVSPost2010PropOp40
 70
     0
102
RTVSPost2010Prop41ColorIndex
 90
       18
102
RTVSPost2010Prop41ColorRGB
 90
        0
102
RTVSPost2010PropOp41
 70
     0
102
RTVSPost2010Prop42
 90
       50
102
RTVSPost2010PropOp42
 70
     0
102
RTVSPost2010Prop43
 90
        3
102
RTVSPost2010PropOp43
 70
     0
102
RTVSPost2010Prop44ColorIndex
 90
        5
102
RTVSPost2010Prop44ColorRGB
 90
      255
102
RTVSPost2010PropOp44
 70
     0
102
RTVSPost2010Prop45
280
     0
102
RTVSPost2010PropOp45
 70
     0
102
RTVSPost2010Prop46
 90
       50
102
RTVSPost2010PropOp46
 70
     0
102
RTVSPost2010Prop47
 90
       50
102
RTVSPost2010PropOp47
 70
     0
102
RTVSPost2010Prop48
 90
       50
102
RTVSPost2010PropOp48
 70
     0
102
RTVSPost2010Prop49
280
     0
102
RTVSPost2010PropOp49
 70
     0
102
RTVSPost2010Prop50
 90
       50
102
RTVSPost2010PropOp50
 70
     0
102
RTVSPost2010Prop51ColorIndex
 90
      256
102
RTVSPost2010Prop51ColorRGB
 90
-16777216
102
RTVSPost2010PropOp51
 70
     0
102
RTVSPost2010Prop52
140
1.0
102
RTVSPost2010PropOp52
 70
     0
102
RTVSPost2010Prop53
 90
        2
102
RTVSPost2010PropOp53
 70
     0
102
RTVSPost2010Prop54
  1
strokes_ogs.tif
102
RTVSPost2010PropOp54
 70
     0
102
RTVSPost2010Prop55
280
     0
102
RTVSPost2010PropOp55
 70
     0
102
RTVSPost2010Prop56
140
1.0
102
RTVSPost2010PropOp56
 70
     0
102
RTVSPost2010Prop57
140
1.0
102
RTVSPost2010PropOp57
 70
     0
  0
XRECORD
  5
320
102
{ACAD_REACTORS
330
31F
102
}
330
31F
100
AcDbXrecord
280
     1
102
RTVSPropertyOp0
 70
     1
102
RTVSPropertyOp1
 70
     1
102
RTVSPropertyOp2
 70
     1
102
RTVSPropertyOp3
 70
     1
102
RTVSPropertyOp4
 70
     1
102
RTVSPropertyOp5
 70
     1
102
RTVSPropertyOp6
 70
     1
102
RTVSPropertyOp7
 70
     1
102
RTVSPropertyOp8
 70
     1
102
RTVSPropertyOp9
 70
     1
102
RTVSPropertyOp10
 70
     1
102
RTVSPropertyOp11
 70
     1
102
RTVSPropertyOp12
 70
     1
102
RTVSPropertyOp13
 70
     1
102
RTVSPropertyOp14
 70
     1
102
RTVSPropertyOp15
 70
     1
102
RTVSPropertyOp16
 70
     1
102
RTVSPropertyOp17
 70
     1
102
RTVSPropertyOp18
 70
     1
102
RTVSPropertyOp19
 70
     1
102
RTVSPropertyOp20
 70
     1
102
RTVSPropertyOp21
 70
     1
102
RTVSPropertyOp22
 70
     1
102
RTVSPropertyOp23
 70
     1
102
RTVSPropertyOp24
 70
     1
102
RTVSPropertyOp25
 70
     1
102
RTVSPropertyOp26
 70
     1
102
RTVSPropertyOp27
 70
     1
102
RTVSPropertyOp28
 70
     1
102
RTVSPropertyOp29
 70
     1
102
RTVSPropertyOp30
 70
     1
102
RTVSPropertyOp31
 70
     1
102
RTVSPropertyOp32
 70
     1
102
RTVSPropertyOp33
 70
     1
102
RTVSPropertyOp34
 70
     1
102
RTVSPropertyOp35
 70
     1
102
RTVSPropertyOp36
 70
     1
102
RTVSPropertyOp37
 70
     1
102
RTVSPropertyOp38
 70
     1
102
RTVSPropertyOp39
 70
     1
102
RTVSPropertyOp40
 70
     1
102
RTVSPropertyOp41
 70
     1
102
RTVSPropertyOp42
 70
     1
102
RTVSPropertyOp43
 70
     1
102
RTVSPropertyOp44
 70
     1
102
RTVSPropertyOp45
 70
     1
102
RTVSPropertyOp46
 70
     1
102
RTVSPropertyOp47
 70
     1
102
RTVSPropertyOp48
 70
     1
102
RTVSPropertyOp49
 70
     1
102
RTVSPropertyOp50
 70
     1
102
RTVSPropertyOp51
 70
     0
102
RTVSPropertyOp52
 70
     0
102
RTVSPropertyOp53
 70
     1
102
RTVSPropertyOp54
 70
     1
102
RTVSPropertyOp55
 70
     1
102
RTVSPropertyOp56
 70
     1
102
RTVSPropertyOp57
 70
     1
102
RTVSPost2010Prop28
280
     0
102
RTVSPost2010PropOp28
 70
     1
102
RTVSPost2010Prop29
280
     1
102
RTVSPost2010PropOp29
 70
     1
102
RTVSPost2010Prop30
280
     1
102
RTVSPost2010PropOp30
 70
     1
102
RTVSPost2010Prop31
280
     0
102
RTVSPost2010PropOp31
 70
     1
102
RTVSPost2010Prop32
280
     0
102
RTVSPost2010PropOp32
 70
     1
102
RTVSPost2010Prop33
280
     0
102
RTVSPost2010PropOp33
 70
     1
102
RTVSPost2010Prop34
280
     0
102
RTVSPost2010PropOp34
 70
     1
102
RTVSPost2010Prop35
280
     0
102
RTVSPost2010PropOp35
 70
     1
102
RTVSPost2010Prop36
280
     0
102
RTVSPost2010PropOp36
 70
     1
102
RTVSPost2010Prop37
 90
       50
102
RTVSPost2010PropOp37
 70
     1
102
RTVSPost2010Prop38
140
0.0
102
RTVSPost2010PropOp38
 70
     1
102
RTVSPost2010Prop39
140
1.0
102
RTVSPost2010PropOp39
 70
     1
102
RTVSPost2010Prop40
 90
        0
102
RTVSPost2010PropOp40
 70
     1
102
RTVSPost2010Prop41ColorIndex
 90
       18
102
RTVSPost2010Prop41ColorRGB
 90
        0
102
RTVSPost2010PropOp41
 70
     1
102
RTVSPost2010Prop42
 90
       50
102
RTVSPost2010PropOp42
 70
     1
102
RTVSPost2010Prop43
 90
        3
102
RTVSPost2010PropOp43
 70
     1
102
RTVSPost2010Prop44ColorIndex
 90
        5
102
RTVSPost2010Prop44ColorRGB
 90
      255
102
RTVSPost2010PropOp44
 70
     1
102
RTVSPost2010Prop45
280
     0
102
RTVSPost2010PropOp45
 70
     1
102
RTVSPost2010Prop46
 90
       50
102
RTVSPost2010PropOp46
 70
     1
102
RTVSPost2010Prop47
 90
       50
102
RTVSPost2010PropOp47
 70
     1
102
RTVSPost2010Prop48
 90
       50
102
RTVSPost2010PropOp48
 70
     1
102
RTVSPost2010Prop49
280
     0
102
RTVSPost2010PropOp49
 70
     1
102
RTVSPost2010Prop50
 90
       50
102
RTVSPost2010PropOp50
 70
     1
102
RTVSPost2010Prop51ColorIndex
 90
      256
102
RTVSPost2010Prop51ColorRGB
 90
-16777216
102
RTVSPost2010PropOp51
 70
     0
102
RTVSPost2010Prop52
140
1.0
102
RTVSPost2010PropOp52
 70
     0
102
RTVSPost2010Prop53
 90
        2
102
RTVSPost2010PropOp53
 70
     1
102
RTVSPost2010Prop54
  1
strokes_ogs.tif
102
RTVSPost2010PropOp54
 70
     1
102
RTVSPost2010Prop55
280
     0
102
RTVSPost2010PropOp55
 70
     1
102
RTVSPost2010Prop56
140
1.0
102
RTVSPost2010PropOp56
 70
     1
102
RTVSPost2010Prop57
140
1.0
102
RTVSPost2010PropOp57
 70
     1
  0
XRECORD
  5
33E
102
{ACAD_REACTORS
330
33D
102
}
330
33D
100
AcDbXrecord
280
     1
102
RTVSPropertyOp0
 70
     1
102
RTVSPropertyOp1
 70
     1
102
RTVSPropertyOp2
 70
     1
102
RTVSPropertyOp3
 70
     1
102
RTVSPropertyOp4
 70
     1
102
RTVSPropertyOp5
 70
     1
102
RTVSPropertyOp6
 70
     1
102
RTVSPropertyOp7
 70
     1
102
RTVSPropertyOp8
 70
     1
102
RTVSPropertyOp9
 70
     1
102
RTVSPropertyOp10
 70
     1
102
RTVSPropertyOp11
 70
     1
102
RTVSPropertyOp12
 70
     1
102
RTVSPropertyOp13
 70
     1
102
RTVSPropertyOp14
 70
     1
102
RTVSPropertyOp15
 70
     1
102
RTVSPropertyOp16
 70
     1
102
RTVSPropertyOp17
 70
     1
102
RTVSPropertyOp18
 70
     1
102
RTVSPropertyOp19
 70
     1
102
RTVSPropertyOp20
 70
     1
102
RTVSPropertyOp21
 70
     1
102
RTVSPropertyOp22
 70
     1
102
RTVSPropertyOp23
 70
     1
102
RTVSPropertyOp24
 70
     1
102
RTVSPropertyOp25
 70
     1
102
RTVSPropertyOp26
 70
     1
102
RTVSPropertyOp27
 70
     1
102
RTVSPropertyOp28
 70
     1
102
RTVSPropertyOp29
 70
     1
102
RTVSPropertyOp30
 70
     1
102
RTVSPropertyOp31
 70
     1
102
RTVSPropertyOp32
 70
     1
102
RTVSPropertyOp33
 70
     1
102
RTVSPropertyOp34
 70
     1
102
RTVSPropertyOp35
 70
     1
102
RTVSPropertyOp36
 70
     1
102
RTVSPropertyOp37
 70
     1
102
RTVSPropertyOp38
 70
     1
102
RTVSPropertyOp39
 70
     1
102
RTVSPropertyOp40
 70
     1
102
RTVSPropertyOp41
 70
     1
102
RTVSPropertyOp42
 70
     1
102
RTVSPropertyOp43
 70
     1
102
RTVSPropertyOp44
 70
     1
102
RTVSPropertyOp45
 70
     1
102
RTVSPropertyOp46
 70
     1
102
RTVSPropertyOp47
 70
     1
102
RTVSPropertyOp48
 70
     1
102
RTVSPropertyOp49
 70
     1
102
RTVSPropertyOp50
 70
     1
102
RTVSPropertyOp51
 70
     0
102
RTVSPropertyOp52
 70
     0
102
RTVSPropertyOp53
 70
     1
102
RTVSPropertyOp54
 70
     1
102
RTVSPropertyOp55
 70
     1
102
RTVSPropertyOp56
 70
     1
102
RTVSPropertyOp57
 70
     1
102
RTVSPost2010Prop28
280
     0
102
RTVSPost2010PropOp28
 70
     1
102
RTVSPost2010Prop29
280
     1
102
RTVSPost2010PropOp29
 70
     1
102
RTVSPost2010Prop30
280
     1
102
RTVSPost2010PropOp30
 70
     1
102
RTVSPost2010Prop31
280
     0
102
RTVSPost2010PropOp31
 70
     1
102
RTVSPost2010Prop32
280
     0
102
RTVSPost2010PropOp32
 70
     1
102
RTVSPost2010Prop33
280
     0
102
RTVSPost2010PropOp33
 70
     1
102
RTVSPost2010Prop34
280
     0
102
RTVSPost2010PropOp34
 70
     1
102
RTVSPost2010Prop35
280
     0
102
RTVSPost2010PropOp35
 70
     1
102
RTVSPost2010Prop36
280
     0
102
RTVSPost2010PropOp36
 70
     1
102
RTVSPost2010Prop37
 90
       50
102
RTVSPost2010PropOp37
 70
     1
102
RTVSPost2010Prop38
140
0.0
102
RTVSPost2010PropOp38
 70
     1
102
RTVSPost2010Prop39
140
1.0
102
RTVSPost2010PropOp39
 70
     1
102
RTVSPost2010Prop40
 90
        0
102
RTVSPost2010PropOp40
 70
     1
102
RTVSPost2010Prop41ColorIndex
 90
       18
102
RTVSPost2010Prop41ColorRGB
 90
        0
102
RTVSPost2010PropOp41
 70
     1
102
RTVSPost2010Prop42
 90
       50
102
RTVSPost2010PropOp42
 70
     1
102
RTVSPost2010Prop43
 90
        3
102
RTVSPost2010PropOp43
 70
     1
102
RTVSPost2010Prop44ColorIndex
 90
        5
102
RTVSPost2010Prop44ColorRGB
 90
      255
102
RTVSPost2010PropOp44
 70
     1
102
RTVSPost2010Prop45
280
     0
102
RTVSPost2010PropOp45
 70
     1
102
RTVSPost2010Prop46
 90
       50
102
RTVSPost2010PropOp46
 70
     1
102
RTVSPost2010Prop47
 90
       50
102
RTVSPost2010PropOp47
 70
     1
102
RTVSPost2010Prop48
 90
       50
102
RTVSPost2010PropOp48
 70
     1
102
RTVSPost2010Prop49
280
     0
102
RTVSPost2010PropOp49
 70
     1
102
RTVSPost2010Prop50
 90
       50
102
RTVSPost2010PropOp50
 70
     1
102
RTVSPost2010Prop51ColorIndex
 90
      256
102
RTVSPost2010Prop51ColorRGB
 90
-16777216
102
RTVSPost2010PropOp51
 70
     0
102
RTVSPost2010Prop52
140
1.0
102
RTVSPost2010PropOp52
 70
     0
102
RTVSPost2010Prop53
 90
        2
102
RTVSPost2010PropOp53
 70
     1
102
RTVSPost2010Prop54
  1
strokes_ogs.tif
102
RTVSPost2010PropOp54
 70
     1
102
RTVSPost2010Prop55
280
     0
102
RTVSPost2010PropOp55
 70
     1
102
RTVSPost2010Prop56
140
1.0
102
RTVSPost2010PropOp56
 70
     1
102
RTVSPost2010Prop57
140
1.0
102
RTVSPost2010PropOp57
 70
     1
  0
XRECORD
  5
33C
102
{ACAD_REACTORS
330
33B
102
}
330
33B
100
AcDbXrecord
280
     1
102
RTVSPropertyOp0
 70
     1
102
RTVSPropertyOp1
 70
     1
102
RTVSPropertyOp2
 70
     1
102
RTVSPropertyOp3
 70
     1
102
RTVSPropertyOp4
 70
     1
102
RTVSPropertyOp5
 70
     1
102
RTVSPropertyOp6
 70
     1
102
RTVSPropertyOp7
 70
     1
102
RTVSPropertyOp8
 70
     1
102
RTVSPropertyOp9
 70
     1
102
RTVSPropertyOp10
 70
     1
102
RTVSPropertyOp11
 70
     1
102
RTVSPropertyOp12
 70
     1
102
RTVSPropertyOp13
 70
     1
102
RTVSPropertyOp14
 70
     1
102
RTVSPropertyOp15
 70
     1
102
RTVSPropertyOp16
 70
     1
102
RTVSPropertyOp17
 70
     1
102
RTVSPropertyOp18
 70
     1
102
RTVSPropertyOp19
 70
     1
102
RTVSPropertyOp20
 70
     1
102
RTVSPropertyOp21
 70
     1
102
RTVSPropertyOp22
 70
     1
102
RTVSPropertyOp23
 70
     1
102
RTVSPropertyOp24
 70
     1
102
RTVSPropertyOp25
 70
     1
102
RTVSPropertyOp26
 70
     1
102
RTVSPropertyOp27
 70
     1
102
RTVSPropertyOp28
 70
     1
102
RTVSPropertyOp29
 70
     1
102
RTVSPropertyOp30
 70
     1
102
RTVSPropertyOp31
 70
     1
102
RTVSPropertyOp32
 70
     1
102
RTVSPropertyOp33
 70
     1
102
RTVSPropertyOp34
 70
     1
102
RTVSPropertyOp35
 70
     1
102
RTVSPropertyOp36
 70
     1
102
RTVSPropertyOp37
 70
     1
102
RTVSPropertyOp38
 70
     1
102
RTVSPropertyOp39
 70
     1
102
RTVSPropertyOp40
 70
     1
102
RTVSPropertyOp41
 70
     1
102
RTVSPropertyOp42
 70
     1
102
RTVSPropertyOp43
 70
     1
102
RTVSPropertyOp44
 70
     1
102
RTVSPropertyOp45
 70
     1
102
RTVSPropertyOp46
 70
     1
102
RTVSPropertyOp47
 70
     1
102
RTVSPropertyOp48
 70
     1
102
RTVSPropertyOp49
 70
     1
102
RTVSPropertyOp50
 70
     1
102
RTVSPropertyOp51
 70
     0
102
RTVSPropertyOp52
 70
     0
102
RTVSPropertyOp53
 70
     1
102
RTVSPropertyOp54
 70
     1
102
RTVSPropertyOp55
 70
     1
102
RTVSPropertyOp56
 70
     1
102
RTVSPropertyOp57
 70
     1
102
RTVSPost2010Prop28
280
     0
102
RTVSPost2010PropOp28
 70
     1
102
RTVSPost2010Prop29
280
     1
102
RTVSPost2010PropOp29
 70
     1
102
RTVSPost2010Prop30
280
     1
102
RTVSPost2010PropOp30
 70
     1
102
RTVSPost2010Prop31
280
     0
102
RTVSPost2010PropOp31
 70
     1
102
RTVSPost2010Prop32
280
     0
102
RTVSPost2010PropOp32
 70
     1
102
RTVSPost2010Prop33
280
     0
102
RTVSPost2010PropOp33
 70
     1
102
RTVSPost2010Prop34
280
     0
102
RTVSPost2010PropOp34
 70
     1
102
RTVSPost2010Prop35
280
     0
102
RTVSPost2010PropOp35
 70
     1
102
RTVSPost2010Prop36
280
     0
102
RTVSPost2010PropOp36
 70
     1
102
RTVSPost2010Prop37
 90
       50
102
RTVSPost2010PropOp37
 70
     1
102
RTVSPost2010Prop38
140
0.0
102
RTVSPost2010PropOp38
 70
     1
102
RTVSPost2010Prop39
140
1.0
102
RTVSPost2010PropOp39
 70
     1
102
RTVSPost2010Prop40
 90
        0
102
RTVSPost2010PropOp40
 70
     1
102
RTVSPost2010Prop41ColorIndex
 90
       18
102
RTVSPost2010Prop41ColorRGB
 90
        0
102
RTVSPost2010PropOp41
 70
     1
102
RTVSPost2010Prop42
 90
       50
102
RTVSPost2010PropOp42
 70
     1
102
RTVSPost2010Prop43
 90
        3
102
RTVSPost2010PropOp43
 70
     1
102
RTVSPost2010Prop44ColorIndex
 90
        5
102
RTVSPost2010Prop44ColorRGB
 90
      255
102
RTVSPost2010PropOp44
 70
     1
102
RTVSPost2010Prop45
280
     0
102
RTVSPost2010PropOp45
 70
     1
102
RTVSPost2010Prop46
 90
       50
102
RTVSPost2010PropOp46
 70
     1
102
RTVSPost2010Prop47
 90
       50
102
RTVSPost2010PropOp47
 70
     1
102
RTVSPost2010Prop48
 90
       50
102
RTVSPost2010PropOp48
 70
     1
102
RTVSPost2010Prop49
280
     0
102
RTVSPost2010PropOp49
 70
     1
102
RTVSPost2010Prop50
 90
       50
102
RTVSPost2010PropOp50
 70
     1
102
RTVSPost2010Prop51ColorIndex
 90
      256
102
RTVSPost2010Prop51ColorRGB
 90
-16777216
102
RTVSPost2010PropOp51
 70
     0
102
RTVSPost2010Prop52
140
1.0
102
RTVSPost2010PropOp52
 70
     0
102
RTVSPost2010Prop53
 90
        2
102
RTVSPost2010PropOp53
 70
     1
102
RTVSPost2010Prop54
  1
strokes_ogs.tif
102
RTVSPost2010PropOp54
 70
     1
102
RTVSPost2010Prop55
280
     0
102
RTVSPost2010PropOp55
 70
     1
102
RTVSPost2010Prop56
140
1.0
102
RTVSPost2010PropOp56
 70
     1
102
RTVSPost2010Prop57
140
1.0
102
RTVSPost2010PropOp57
 70
     1
  0
XRECORD
  5
336
102
{ACAD_REACTORS
330
335
102
}
330
335
100
AcDbXrecord
280
     1
102
RTVSPropertyOp0
 70
     1
102
RTVSPropertyOp1
 70
     1
102
RTVSPropertyOp2
 70
     1
102
RTVSPropertyOp3
 70
     1
102
RTVSPropertyOp4
 70
     1
102
RTVSPropertyOp5
 70
     1
102
RTVSPropertyOp6
 70
     1
102
RTVSPropertyOp7
 70
     1
102
RTVSPropertyOp8
 70
     1
102
RTVSPropertyOp9
 70
     1
102
RTVSPropertyOp10
 70
     1
102
RTVSPropertyOp11
 70
     1
102
RTVSPropertyOp12
 70
     1
102
RTVSPropertyOp13
 70
     1
102
RTVSPropertyOp14
 70
     1
102
RTVSPropertyOp15
 70
     1
102
RTVSPropertyOp16
 70
     1
102
RTVSPropertyOp17
 70
     1
102
RTVSPropertyOp18
 70
     1
102
RTVSPropertyOp19
 70
     1
102
RTVSPropertyOp20
 70
     1
102
RTVSPropertyOp21
 70
     1
102
RTVSPropertyOp22
 70
     1
102
RTVSPropertyOp23
 70
     1
102
RTVSPropertyOp24
 70
     1
102
RTVSPropertyOp25
 70
     1
102
RTVSPropertyOp26
 70
     1
102
RTVSPropertyOp27
 70
     1
102
RTVSPropertyOp28
 70
     1
102
RTVSPropertyOp29
 70
     1
102
RTVSPropertyOp30
 70
     1
102
RTVSPropertyOp31
 70
     1
102
RTVSPropertyOp32
 70
     1
102
RTVSPropertyOp33
 70
     1
102
RTVSPropertyOp34
 70
     1
102
RTVSPropertyOp35
 70
     1
102
RTVSPropertyOp36
 70
     1
102
RTVSPropertyOp37
 70
     1
102
RTVSPropertyOp38
 70
     1
102
RTVSPropertyOp39
 70
     1
102
RTVSPropertyOp40
 70
     1
102
RTVSPropertyOp41
 70
     1
102
RTVSPropertyOp42
 70
     1
102
RTVSPropertyOp43
 70
     1
102
RTVSPropertyOp44
 70
     1
102
RTVSPropertyOp45
 70
     1
102
RTVSPropertyOp46
 70
     1
102
RTVSPropertyOp47
 70
     1
102
RTVSPropertyOp48
 70
     1
102
RTVSPropertyOp49
 70
     1
102
RTVSPropertyOp50
 70
     1
102
RTVSPropertyOp51
 70
     0
102
RTVSPropertyOp52
 70
     0
102
RTVSPropertyOp53
 70
     1
102
RTVSPropertyOp54
 70
     1
102
RTVSPropertyOp55
 70
     1
102
RTVSPropertyOp56
 70
     1
102
RTVSPropertyOp57
 70
     1
102
RTVSPost2010Prop28
280
     0
102
RTVSPost2010PropOp28
 70
     1
102
RTVSPost2010Prop29
280
     1
102
RTVSPost2010PropOp29
 70
     1
102
RTVSPost2010Prop30
280
     1
102
RTVSPost2010PropOp30
 70
     1
102
RTVSPost2010Prop31
280
     0
102
RTVSPost2010PropOp31
 70
     1
102
RTVSPost2010Prop32
280
     0
102
RTVSPost2010PropOp32
 70
     1
102
RTVSPost2010Prop33
280
     0
102
RTVSPost2010PropOp33
 70
     1
102
RTVSPost2010Prop34
280
     0
102
RTVSPost2010PropOp34
 70
     1
102
RTVSPost2010Prop35
280
     0
102
RTVSPost2010PropOp35
 70
     1
102
RTVSPost2010Prop36
280
     0
102
RTVSPost2010PropOp36
 70
     1
102
RTVSPost2010Prop37
 90
       50
102
RTVSPost2010PropOp37
 70
     1
102
RTVSPost2010Prop38
140
0.0
102
RTVSPost2010PropOp38
 70
     1
102
RTVSPost2010Prop39
140
1.0
102
RTVSPost2010PropOp39
 70
     1
102
RTVSPost2010Prop40
 90
        0
102
RTVSPost2010PropOp40
 70
     1
102
RTVSPost2010Prop41ColorIndex
 90
       18
102
RTVSPost2010Prop41ColorRGB
 90
        0
102
RTVSPost2010PropOp41
 70
     1
102
RTVSPost2010Prop42
 90
       50
102
RTVSPost2010PropOp42
 70
     1
102
RTVSPost2010Prop43
 90
        3
102
RTVSPost2010PropOp43
 70
     1
102
RTVSPost2010Prop44ColorIndex
 90
        5
102
RTVSPost2010Prop44ColorRGB
 90
      255
102
RTVSPost2010PropOp44
 70
     1
102
RTVSPost2010Prop45
280
     0
102
RTVSPost2010PropOp45
 70
     1
102
RTVSPost2010Prop46
 90
       50
102
RTVSPost2010PropOp46
 70
     1
102
RTVSPost2010Prop47
 90
       50
102
RTVSPost2010PropOp47
 70
     1
102
RTVSPost2010Prop48
 90
       50
102
RTVSPost2010PropOp48
 70
     1
102
RTVSPost2010Prop49
280
     0
102
RTVSPost2010PropOp49
 70
     1
102
RTVSPost2010Prop50
 90
       50
102
RTVSPost2010PropOp50
 70
     1
102
RTVSPost2010Prop51ColorIndex
 90
      256
102
RTVSPost2010Prop51ColorRGB
 90
-16777216
102
RTVSPost2010PropOp51
 70
     0
102
RTVSPost2010Prop52
140
1.0
102
RTVSPost2010PropOp52
 70
     0
102
RTVSPost2010Prop53
 90
        2
102
RTVSPost2010PropOp53
 70
     1
102
RTVSPost2010Prop54
  1
strokes_ogs.tif
102
RTVSPost2010PropOp54
 70
     1
102
RTVSPost2010Prop55
280
     0
102
RTVSPost2010PropOp55
 70
     1
102
RTVSPost2010Prop56
140
1.0
102
RTVSPost2010PropOp56
 70
     1
102
RTVSPost2010Prop57
140
1.0
102
RTVSPost2010PropOp57
 70
     1
  0
XRECORD
  5
338
102
{ACAD_REACTORS
330
337
102
}
330
337
100
AcDbXrecord
280
     1
102
RTVSPropertyOp0
 70
     1
102
RTVSPropertyOp1
 70
     1
102
RTVSPropertyOp2
 70
     1
102
RTVSPropertyOp3
 70
     1
102
RTVSPropertyOp4
 70
     1
102
RTVSPropertyOp5
 70
     1
102
RTVSPropertyOp6
 70
     1
102
RTVSPropertyOp7
 70
     1
102
RTVSPropertyOp8
 70
     1
102
RTVSPropertyOp9
 70
     1
102
RTVSPropertyOp10
 70
     1
102
RTVSPropertyOp11
 70
     1
102
RTVSPropertyOp12
 70
     1
102
RTVSPropertyOp13
 70
     1
102
RTVSPropertyOp14
 70
     1
102
RTVSPropertyOp15
 70
     1
102
RTVSPropertyOp16
 70
     1
102
RTVSPropertyOp17
 70
     1
102
RTVSPropertyOp18
 70
     1
102
RTVSPropertyOp19
 70
     1
102
RTVSPropertyOp20
 70
     1
102
RTVSPropertyOp21
 70
     1
102
RTVSPropertyOp22
 70
     1
102
RTVSPropertyOp23
 70
     1
102
RTVSPropertyOp24
 70
     1
102
RTVSPropertyOp25
 70
     1
102
RTVSPropertyOp26
 70
     1
102
RTVSPropertyOp27
 70
     1
102
RTVSPropertyOp28
 70
     1
102
RTVSPropertyOp29
 70
     1
102
RTVSPropertyOp30
 70
     1
102
RTVSPropertyOp31
 70
     1
102
RTVSPropertyOp32
 70
     1
102
RTVSPropertyOp33
 70
     1
102
RTVSPropertyOp34
 70
     1
102
RTVSPropertyOp35
 70
     1
102
RTVSPropertyOp36
 70
     1
102
RTVSPropertyOp37
 70
     1
102
RTVSPropertyOp38
 70
     1
102
RTVSPropertyOp39
 70
     1
102
RTVSPropertyOp40
 70
     1
102
RTVSPropertyOp41
 70
     1
102
RTVSPropertyOp42
 70
     1
102
RTVSPropertyOp43
 70
     1
102
RTVSPropertyOp44
 70
     1
102
RTVSPropertyOp45
 70
     1
102
RTVSPropertyOp46
 70
     1
102
RTVSPropertyOp47
 70
     1
102
RTVSPropertyOp48
 70
     1
102
RTVSPropertyOp49
 70
     1
102
RTVSPropertyOp50
 70
     1
102
RTVSPropertyOp51
 70
     0
102
RTVSPropertyOp52
 70
     0
102
RTVSPropertyOp53
 70
     1
102
RTVSPropertyOp54
 70
     1
102
RTVSPropertyOp55
 70
     1
102
RTVSPropertyOp56
 70
     1
102
RTVSPropertyOp57
 70
     1
102
RTVSPost2010Prop28
280
     0
102
RTVSPost2010PropOp28
 70
     1
102
RTVSPost2010Prop29
280
     1
102
RTVSPost2010PropOp29
 70
     1
102
RTVSPost2010Prop30
280
     1
102
RTVSPost2010PropOp30
 70
     1
102
RTVSPost2010Prop31
280
     0
102
RTVSPost2010PropOp31
 70
     1
102
RTVSPost2010Prop32
280
     0
102
RTVSPost2010PropOp32
 70
     1
102
RTVSPost2010Prop33
280
     0
102
RTVSPost2010PropOp33
 70
     1
102
RTVSPost2010Prop34
280
     0
102
RTVSPost2010PropOp34
 70
     1
102
RTVSPost2010Prop35
280
     0
102
RTVSPost2010PropOp35
 70
     1
102
RTVSPost2010Prop36
280
     0
102
RTVSPost2010PropOp36
 70
     1
102
RTVSPost2010Prop37
 90
       50
102
RTVSPost2010PropOp37
 70
     1
102
RTVSPost2010Prop38
140
0.0
102
RTVSPost2010PropOp38
 70
     1
102
RTVSPost2010Prop39
140
1.0
102
RTVSPost2010PropOp39
 70
     1
102
RTVSPost2010Prop40
 90
        0
102
RTVSPost2010PropOp40
 70
     1
102
RTVSPost2010Prop41ColorIndex
 90
       18
102
RTVSPost2010Prop41ColorRGB
 90
        0
102
RTVSPost2010PropOp41
 70
     1
102
RTVSPost2010Prop42
 90
       50
102
RTVSPost2010PropOp42
 70
     1
102
RTVSPost2010Prop43
 90
        3
102
RTVSPost2010PropOp43
 70
     1
102
RTVSPost2010Prop44ColorIndex
 90
        5
102
RTVSPost2010Prop44ColorRGB
 90
      255
102
RTVSPost2010PropOp44
 70
     1
102
RTVSPost2010Prop45
280
     0
102
RTVSPost2010PropOp45
 70
     1
102
RTVSPost2010Prop46
 90
       50
102
RTVSPost2010PropOp46
 70
     1
102
RTVSPost2010Prop47
 90
       50
102
RTVSPost2010PropOp47
 70
     1
102
RTVSPost2010Prop48
 90
       50
102
RTVSPost2010PropOp48
 70
     1
102
RTVSPost2010Prop49
280
     0
102
RTVSPost2010PropOp49
 70
     1
102
RTVSPost2010Prop50
 90
       50
102
RTVSPost2010PropOp50
 70
     1
102
RTVSPost2010Prop51ColorIndex
 90
      256
102
RTVSPost2010Prop51ColorRGB
 90
-16777216
102
RTVSPost2010PropOp51
 70
     0
102
RTVSPost2010Prop52
140
1.0
102
RTVSPost2010PropOp52
 70
     0
102
RTVSPost2010Prop53
 90
        2
102
RTVSPost2010PropOp53
 70
     1
102
RTVSPost2010Prop54
  1
strokes_ogs.tif
102
RTVSPost2010PropOp54
 70
     1
102
RTVSPost2010Prop55
280
     0
102
RTVSPost2010PropOp55
 70
     1
102
RTVSPost2010Prop56
140
1.0
102
RTVSPost2010PropOp56
 70
     1
102
RTVSPost2010Prop57
140
1.0
102
RTVSPost2010PropOp57
 70
     1
  0
XRECORD
  5
328
102
{ACAD_REACTORS
330
327
102
}
330
327
100
AcDbXrecord
280
     1
102
RTVSPropertyOp0
 70
     1
102
RTVSPropertyOp1
 70
     1
102
RTVSPropertyOp2
 70
     1
102
RTVSPropertyOp3
 70
     1
102
RTVSPropertyOp4
 70
     1
102
RTVSPropertyOp5
 70
     1
102
RTVSPropertyOp6
 70
     1
102
RTVSPropertyOp7
 70
     1
102
RTVSPropertyOp8
 70
     1
102
RTVSPropertyOp9
 70
     1
102
RTVSPropertyOp10
 70
     1
102
RTVSPropertyOp11
 70
     1
102
RTVSPropertyOp12
 70
     1
102
RTVSPropertyOp13
 70
     1
102
RTVSPropertyOp14
 70
     1
102
RTVSPropertyOp15
 70
     1
102
RTVSPropertyOp16
 70
     1
102
RTVSPropertyOp17
 70
     1
102
RTVSPropertyOp18
 70
     1
102
RTVSPropertyOp19
 70
     1
102
RTVSPropertyOp20
 70
     1
102
RTVSPropertyOp21
 70
     1
102
RTVSPropertyOp22
 70
     1
102
RTVSPropertyOp23
 70
     1
102
RTVSPropertyOp24
 70
     1
102
RTVSPropertyOp25
 70
     1
102
RTVSPropertyOp26
 70
     1
102
RTVSPropertyOp27
 70
     1
102
RTVSPropertyOp28
 70
     1
102
RTVSPropertyOp29
 70
     1
102
RTVSPropertyOp30
 70
     1
102
RTVSPropertyOp31
 70
     1
102
RTVSPropertyOp32
 70
     1
102
RTVSPropertyOp33
 70
     1
102
RTVSPropertyOp34
 70
     1
102
RTVSPropertyOp35
 70
     1
102
RTVSPropertyOp36
 70
     1
102
RTVSPropertyOp37
 70
     1
102
RTVSPropertyOp38
 70
     1
102
RTVSPropertyOp39
 70
     1
102
RTVSPropertyOp40
 70
     1
102
RTVSPropertyOp41
 70
     1
102
RTVSPropertyOp42
 70
     1
102
RTVSPropertyOp43
 70
     1
102
RTVSPropertyOp44
 70
     1
102
RTVSPropertyOp45
 70
     1
102
RTVSPropertyOp46
 70
     1
102
RTVSPropertyOp47
 70
     1
102
RTVSPropertyOp48
 70
     1
102
RTVSPropertyOp49
 70
     1
102
RTVSPropertyOp50
 70
     1
102
RTVSPropertyOp51
 70
     0
102
RTVSPropertyOp52
 70
     0
102
RTVSPropertyOp53
 70
     1
102
RTVSPropertyOp54
 70
     1
102
RTVSPropertyOp55
 70
     1
102
RTVSPropertyOp56
 70
     1
102
RTVSPropertyOp57
 70
     1
102
RTVSPost2010Prop28
280
     0
102
RTVSPost2010PropOp28
 70
     1
102
RTVSPost2010Prop29
280
     1
102
RTVSPost2010PropOp29
 70
     1
102
RTVSPost2010Prop30
280
     1
102
RTVSPost2010PropOp30
 70
     1
102
RTVSPost2010Prop31
280
     0
102
RTVSPost2010PropOp31
 70
     1
102
RTVSPost2010Prop32
280
     0
102
RTVSPost2010PropOp32
 70
     1
102
RTVSPost2010Prop33
280
     0
102
RTVSPost2010PropOp33
 70
     1
102
RTVSPost2010Prop34
280
     0
102
RTVSPost2010PropOp34
 70
     1
102
RTVSPost2010Prop35
280
     0
102
RTVSPost2010PropOp35
 70
     1
102
RTVSPost2010Prop36
280
     0
102
RTVSPost2010PropOp36
 70
     1
102
RTVSPost2010Prop37
 90
       50
102
RTVSPost2010PropOp37
 70
     1
102
RTVSPost2010Prop38
140
0.0
102
RTVSPost2010PropOp38
 70
     1
102
RTVSPost2010Prop39
140
1.0
102
RTVSPost2010PropOp39
 70
     1
102
RTVSPost2010Prop40
 90
        0
102
RTVSPost2010PropOp40
 70
     1
102
RTVSPost2010Prop41ColorIndex
 90
       18
102
RTVSPost2010Prop41ColorRGB
 90
        0
102
RTVSPost2010PropOp41
 70
     1
102
RTVSPost2010Prop42
 90
       50
102
RTVSPost2010PropOp42
 70
     1
102
RTVSPost2010Prop43
 90
        3
102
RTVSPost2010PropOp43
 70
     1
102
RTVSPost2010Prop44ColorIndex
 90
        5
102
RTVSPost2010Prop44ColorRGB
 90
      255
102
RTVSPost2010PropOp44
 70
     1
102
RTVSPost2010Prop45
280
     0
102
RTVSPost2010PropOp45
 70
     1
102
RTVSPost2010Prop46
 90
       50
102
RTVSPost2010PropOp46
 70
     1
102
RTVSPost2010Prop47
 90
       50
102
RTVSPost2010PropOp47
 70
     1
102
RTVSPost2010Prop48
 90
       50
102
RTVSPost2010PropOp48
 70
     1
102
RTVSPost2010Prop49
280
     0
102
RTVSPost2010PropOp49
 70
     1
102
RTVSPost2010Prop50
 90
       50
102
RTVSPost2010PropOp50
 70
     1
102
RTVSPost2010Prop51ColorIndex
 90
      256
102
RTVSPost2010Prop51ColorRGB
 90
-16777216
102
RTVSPost2010PropOp51
 70
     0
102
RTVSPost2010Prop52
140
1.0
102
RTVSPost2010PropOp52
 70
     0
102
RTVSPost2010Prop53
 90
        2
102
RTVSPost2010PropOp53
 70
     1
102
RTVSPost2010Prop54
  1
strokes_ogs.tif
102
RTVSPost2010PropOp54
 70
     1
102
RTVSPost2010Prop55
280
     0
102
RTVSPost2010PropOp55
 70
     1
102
RTVSPost2010Prop56
140
1.0
102
RTVSPost2010PropOp56
 70
     1
102
RTVSPost2010Prop57
140
1.0
102
RTVSPost2010PropOp57
 70
     1
  0
XRECORD
  5
31A
102
{ACAD_REACTORS
330
319
102
}
330
319
100
AcDbXrecord
280
     1
102
RTVSPropertyOp0
 70
     1
102
RTVSPropertyOp1
 70
     1
102
RTVSPropertyOp2
 70
     1
102
RTVSPropertyOp3
 70
     1
102
RTVSPropertyOp4
 70
     1
102
RTVSPropertyOp5
 70
     1
102
RTVSPropertyOp6
 70
     1
102
RTVSPropertyOp7
 70
     1
102
RTVSPropertyOp8
 70
     1
102
RTVSPropertyOp9
 70
     1
102
RTVSPropertyOp10
 70
     1
102
RTVSPropertyOp11
 70
     1
102
RTVSPropertyOp12
 70
     1
102
RTVSPropertyOp13
 70
     1
102
RTVSPropertyOp14
 70
     1
102
RTVSPropertyOp15
 70
     1
102
RTVSPropertyOp16
 70
     1
102
RTVSPropertyOp17
 70
     1
102
RTVSPropertyOp18
 70
     1
102
RTVSPropertyOp19
 70
     1
102
RTVSPropertyOp20
 70
     1
102
RTVSPropertyOp21
 70
     1
102
RTVSPropertyOp22
 70
     1
102
RTVSPropertyOp23
 70
     1
102
RTVSPropertyOp24
 70
     1
102
RTVSPropertyOp25
 70
     1
102
RTVSPropertyOp26
 70
     1
102
RTVSPropertyOp27
 70
     1
102
RTVSPropertyOp28
 70
     1
102
RTVSPropertyOp29
 70
     1
102
RTVSPropertyOp30
 70
     1
102
RTVSPropertyOp31
 70
     1
102
RTVSPropertyOp32
 70
     1
102
RTVSPropertyOp33
 70
     1
102
RTVSPropertyOp34
 70
     1
102
RTVSPropertyOp35
 70
     1
102
RTVSPropertyOp36
 70
     1
102
RTVSPropertyOp37
 70
     1
102
RTVSPropertyOp38
 70
     1
102
RTVSPropertyOp39
 70
     1
102
RTVSPropertyOp40
 70
     1
102
RTVSPropertyOp41
 70
     1
102
RTVSPropertyOp42
 70
     1
102
RTVSPropertyOp43
 70
     1
102
RTVSPropertyOp44
 70
     1
102
RTVSPropertyOp45
 70
     1
102
RTVSPropertyOp46
 70
     1
102
RTVSPropertyOp47
 70
     1
102
RTVSPropertyOp48
 70
     1
102
RTVSPropertyOp49
 70
     1
102
RTVSPropertyOp50
 70
     1
102
RTVSPropertyOp51
 70
     0
102
RTVSPropertyOp52
 70
     0
102
RTVSPropertyOp53
 70
     1
102
RTVSPropertyOp54
 70
     1
102
RTVSPropertyOp55
 70
     1
102
RTVSPropertyOp56
 70
     1
102
RTVSPropertyOp57
 70
     1
102
RTVSPost2010Prop28
280
     0
102
RTVSPost2010PropOp28
 70
     1
102
RTVSPost2010Prop29
280
     1
102
RTVSPost2010PropOp29
 70
     1
102
RTVSPost2010Prop30
280
     1
102
RTVSPost2010PropOp30
 70
     1
102
RTVSPost2010Prop31
280
     0
102
RTVSPost2010PropOp31
 70
     1
102
RTVSPost2010Prop32
280
     0
102
RTVSPost2010PropOp32
 70
     1
102
RTVSPost2010Prop33
280
     0
102
RTVSPost2010PropOp33
 70
     1
102
RTVSPost2010Prop34
280
     0
102
RTVSPost2010PropOp34
 70
     1
102
RTVSPost2010Prop35
280
     0
102
RTVSPost2010PropOp35
 70
     1
102
RTVSPost2010Prop36
280
     0
102
RTVSPost2010PropOp36
 70
     1
102
RTVSPost2010Prop37
 90
       50
102
RTVSPost2010PropOp37
 70
     1
102
RTVSPost2010Prop38
140
0.0
102
RTVSPost2010PropOp38
 70
     1
102
RTVSPost2010Prop39
140
1.0
102
RTVSPost2010PropOp39
 70
     1
102
RTVSPost2010Prop40
 90
        0
102
RTVSPost2010PropOp40
 70
     1
102
RTVSPost2010Prop41ColorIndex
 90
       18
102
RTVSPost2010Prop41ColorRGB
 90
        0
102
RTVSPost2010PropOp41
 70
     1
102
RTVSPost2010Prop42
 90
       50
102
RTVSPost2010PropOp42
 70
     1
102
RTVSPost2010Prop43
 90
        3
102
RTVSPost2010PropOp43
 70
     1
102
RTVSPost2010Prop44ColorIndex
 90
        5
102
RTVSPost2010Prop44ColorRGB
 90
      255
102
RTVSPost2010PropOp44
 70
     1
102
RTVSPost2010Prop45
280
     0
102
RTVSPost2010PropOp45
 70
     1
102
RTVSPost2010Prop46
 90
       50
102
RTVSPost2010PropOp46
 70
     1
102
RTVSPost2010Prop47
 90
       50
102
RTVSPost2010PropOp47
 70
     1
102
RTVSPost2010Prop48
 90
       50
102
RTVSPost2010PropOp48
 70
     1
102
RTVSPost2010Prop49
280
     0
102
RTVSPost2010PropOp49
 70
     1
102
RTVSPost2010Prop50
 90
       50
102
RTVSPost2010PropOp50
 70
     1
102
RTVSPost2010Prop51ColorIndex
 90
      256
102
RTVSPost2010Prop51ColorRGB
 90
-16777216
102
RTVSPost2010PropOp51
 70
     0
102
RTVSPost2010Prop52
140
1.0
102
RTVSPost2010PropOp52
 70
     0
102
RTVSPost2010Prop53
 90
        2
102
RTVSPost2010PropOp53
 70
     1
102
RTVSPost2010Prop54
  1
strokes_ogs.tif
102
RTVSPost2010PropOp54
 70
     1
102
RTVSPost2010Prop55
280
     0
102
RTVSPost2010PropOp55
 70
     1
102
RTVSPost2010Prop56
140
1.0
102
RTVSPost2010PropOp56
 70
     1
102
RTVSPost2010Prop57
140
1.0
102
RTVSPost2010PropOp57
 70
     1
  0
XRECORD
  5
33A
102
{ACAD_REACTORS
330
339
102
}
330
339
100
AcDbXrecord
280
     1
102
RTVSPropertyOp0
 70
     1
102
RTVSPropertyOp1
 70
     1
102
RTVSPropertyOp2
 70
     1
102
RTVSPropertyOp3
 70
     1
102
RTVSPropertyOp4
 70
     1
102
RTVSPropertyOp5
 70
     1
102
RTVSPropertyOp6
 70
     1
102
RTVSPropertyOp7
 70
     1
102
RTVSPropertyOp8
 70
     1
102
RTVSPropertyOp9
 70
     1
102
RTVSPropertyOp10
 70
     1
102
RTVSPropertyOp11
 70
     1
102
RTVSPropertyOp12
 70
     1
102
RTVSPropertyOp13
 70
     1
102
RTVSPropertyOp14
 70
     1
102
RTVSPropertyOp15
 70
     1
102
RTVSPropertyOp16
 70
     1
102
RTVSPropertyOp17
 70
     1
102
RTVSPropertyOp18
 70
     1
102
RTVSPropertyOp19
 70
     1
102
RTVSPropertyOp20
 70
     1
102
RTVSPropertyOp21
 70
     1
102
RTVSPropertyOp22
 70
     1
102
RTVSPropertyOp23
 70
     1
102
RTVSPropertyOp24
 70
     1
102
RTVSPropertyOp25
 70
     1
102
RTVSPropertyOp26
 70
     1
102
RTVSPropertyOp27
 70
     1
102
RTVSPropertyOp28
 70
     1
102
RTVSPropertyOp29
 70
     1
102
RTVSPropertyOp30
 70
     1
102
RTVSPropertyOp31
 70
     1
102
RTVSPropertyOp32
 70
     1
102
RTVSPropertyOp33
 70
     1
102
RTVSPropertyOp34
 70
     1
102
RTVSPropertyOp35
 70
     1
102
RTVSPropertyOp36
 70
     1
102
RTVSPropertyOp37
 70
     1
102
RTVSPropertyOp38
 70
     1
102
RTVSPropertyOp39
 70
     1
102
RTVSPropertyOp40
 70
     1
102
RTVSPropertyOp41
 70
     1
102
RTVSPropertyOp42
 70
     1
102
RTVSPropertyOp43
 70
     1
102
RTVSPropertyOp44
 70
     1
102
RTVSPropertyOp45
 70
     1
102
RTVSPropertyOp46
 70
     1
102
RTVSPropertyOp47
 70
     1
102
RTVSPropertyOp48
 70
     1
102
RTVSPropertyOp49
 70
     1
102
RTVSPropertyOp50
 70
     1
102
RTVSPropertyOp51
 70
     0
102
RTVSPropertyOp52
 70
     0
102
RTVSPropertyOp53
 70
     1
102
RTVSPropertyOp54
 70
     1
102
RTVSPropertyOp55
 70
     1
102
RTVSPropertyOp56
 70
     1
102
RTVSPropertyOp57
 70
     1
102
RTVSPost2010Prop28
280
     0
102
RTVSPost2010PropOp28
 70
     1
102
RTVSPost2010Prop29
280
     1
102
RTVSPost2010PropOp29
 70
     1
102
RTVSPost2010Prop30
280
     1
102
RTVSPost2010PropOp30
 70
     1
102
RTVSPost2010Prop31
280
     0
102
RTVSPost2010PropOp31
 70
     1
102
RTVSPost2010Prop32
280
     0
102
RTVSPost2010PropOp32
 70
     1
102
RTVSPost2010Prop33
280
     0
102
RTVSPost2010PropOp33
 70
     1
102
RTVSPost2010Prop34
280
     0
102
RTVSPost2010PropOp34
 70
     1
102
RTVSPost2010Prop35
280
     0
102
RTVSPost2010PropOp35
 70
     1
102
RTVSPost2010Prop36
280
     0
102
RTVSPost2010PropOp36
 70
     1
102
RTVSPost2010Prop37
 90
       50
102
RTVSPost2010PropOp37
 70
     1
102
RTVSPost2010Prop38
140
0.0
102
RTVSPost2010PropOp38
 70
     1
102
RTVSPost2010Prop39
140
1.0
102
RTVSPost2010PropOp39
 70
     1
102
RTVSPost2010Prop40
 90
        0
102
RTVSPost2010PropOp40
 70
     1
102
RTVSPost2010Prop41ColorIndex
 90
       18
102
RTVSPost2010Prop41ColorRGB
 90
        0
102
RTVSPost2010PropOp41
 70
     1
102
RTVSPost2010Prop42
 90
       50
102
RTVSPost2010PropOp42
 70
     1
102
RTVSPost2010Prop43
 90
        3
102
RTVSPost2010PropOp43
 70
     1
102
RTVSPost2010Prop44ColorIndex
 90
        5
102
RTVSPost2010Prop44ColorRGB
 90
      255
102
RTVSPost2010PropOp44
 70
     1
102
RTVSPost2010Prop45
280
     0
102
RTVSPost2010PropOp45
 70
     1
102
RTVSPost2010Prop46
 90
       50
102
RTVSPost2010PropOp46
 70
     1
102
RTVSPost2010Prop47
 90
       50
102
RTVSPost2010PropOp47
 70
     1
102
RTVSPost2010Prop48
 90
       50
102
RTVSPost2010PropOp48
 70
     1
102
RTVSPost2010Prop49
280
     0
102
RTVSPost2010PropOp49
 70
     1
102
RTVSPost2010Prop50
 90
       50
102
RTVSPost2010PropOp50
 70
     1
102
RTVSPost2010Prop51ColorIndex
 90
      256
102
RTVSPost2010Prop51ColorRGB
 90
-16777216
102
RTVSPost2010PropOp51
 70
     0
102
RTVSPost2010Prop52
140
1.0
102
RTVSPost2010PropOp52
 70
     0
102
RTVSPost2010Prop53
 90
        2
102
RTVSPost2010PropOp53
 70
     1
102
RTVSPost2010Prop54
  1
strokes_ogs.tif
102
RTVSPost2010PropOp54
 70
     1
102
RTVSPost2010Prop55
280
     0
102
RTVSPost2010PropOp55
 70
     1
102
RTVSPost2010Prop56
140
1.0
102
RTVSPost2010PropOp56
 70
     1
102
RTVSPost2010Prop57
140
1.0
102
RTVSPost2010PropOp57
 70
     1
  0
ENDSEC
  0
EOF
