  0
SECTION
  2
HEADER
  9
$ACADVER
  1
AC1018
  9
$ACADMAINTVER
 70
     0
  9
$DWGCODEPAGE
  3
ANSI_1252
  9
$INSBASE
 10
0.0
 20
0.0
 30
0.0
  9
$EXTMIN
 10
-79.52644776918612
 20
318.320750129836
 30
0.0
  9
$EXTMAX
 10
217.473552230812
 20
528.3207501298361
 30
0.0
  9
$LIMMIN
 10
0.0
 20
0.0
  9
$LIMMAX
 10
12.0
 20
9.0
  9
$ORTHOMODE
 70
     0
  9
$REGENMODE
 70
     1
  9
$FILLMODE
 70
     1
  9
$QTEXTMODE
 70
     0
  9
$MIRRTEXT
 70
     1
  9
$LTSCALE
 40
1.0
  9
$ATTMODE
 70
     1
  9
$TEXTSIZE
 40
0.2
  9
$TRACEWID
 40
0.05
  9
$TEXTSTYLE
  7
Standard
  9
$CLAYER
  8
0
  9
$CELTYPE
  6
ByLayer
  9
$CECOLOR
 62
   256
  9
$CELTSCALE
 40
1.0
  9
$DISPSILH
 70
     0
  9
$DIMSCALE
 40
1.0
  9
$DIMASZ
 40
0.18
  9
$DIMEXO
 40
0.0625
  9
$DIMDLI
 40
0.38
  9
$DIMRND
 40
0.0
  9
$DIMDLE
 40
0.0
  9
$DIMEXE
 40
0.18
  9
$DIMTP
 40
0.0
  9
$DIMTM
 40
0.0
  9
$DIMTXT
 40
0.18
  9
$DIMCEN
 40
0.09
  9
$DIMTSZ
 40
0.0
  9
$DIMTOL
 70
     0
  9
$DIMLIM
 70
     0
  9
$DIMTIH
 70
     1
  9
$DIMTOH
 70
     1
  9
$DIMSE1
 70
     0
  9
$DIMSE2
 70
     0
  9
$DIMTAD
 70
     0
  9
$DIMZIN
 70
     0
  9
$DIMBLK
  1

  9
$DIMASO
 70
     1
  9
$DIMSHO
 70
     1
  9
$DIMPOST
  1

  9
$DIMAPOST
  1

  9
$DIMALT
 70
     0
  9
$DIMALTD
 70
     2
  9
$DIMALTF
 40
25.4
  9
$DIMLFAC
 40
1.0
  9
$DIMTOFL
 70
     0
  9
$DIMTVP
 40
0.0
  9
$DIMTIX
 70
     0
  9
$DIMSOXD
 70
     0
  9
$DIMSAH
 70
     0
  9
$DIMBLK1
  1

  9
$DIMBLK2
  1

  9
$DIMSTYLE
  2
Standard
  9
$DIMCLRD
 70
     0
  9
$DIMCLRE
 70
     0
  9
$DIMCLRT
 70
     0
  9
$DIMTFAC
 40
1.0
  9
$DIMGAP
 40
0.09
  9
$DIMJUST
 70
     0
  9
$DIMSD1
 70
     0
  9
$DIMSD2
 70
     0
  9
$DIMTOLJ
 70
     1
  9
$DIMTZIN
 70
     0
  9
$DIMALTZ
 70
     0
  9
$DIMALTTZ
 70
     0
  9
$DIMUPT
 70
     0
  9
$DIMDEC
 70
     4
  9
$DIMTDEC
 70
     4
  9
$DIMALTU
 70
     2
  9
$DIMALTTD
 70
     2
  9
$DIMTXSTY
  7
Standard
  9
$DIMAUNIT
 70
     0
  9
$DIMADEC
 70
     0
  9
$DIMALTRND
 40
0.0
  9
$DIMAZIN
 70
     0
  9
$DIMDSEP
 70
    46
  9
$DIMATFIT
 70
     3
  9
$DIMFRAC
 70
     0
  9
$DIMLDRBLK
  1

  9
$DIMLUNIT
 70
     2
  9
$DIMLWD
 70
    -2
  9
$DIMLWE
 70
    -2
  9
$DIMTMOVE
 70
     0
  9
$LUNITS
 70
     2
  9
$LUPREC
 70
     4
  9
$SKETCHINC
 40
0.1
  9
$FILLETRAD
 40
0.5
  9
$AUNITS
 70
     0
  9
$AUPREC
 70
     0
  9
$MENU
  1
.
  9
$ELEVATION
 40
0.0
  9
$PELEVATION
 40
0.0
  9
$THICKNESS
 40
0.0
  9
$LIMCHECK
 70
     0
  9
$CHAMFERA
 40
0.5
  9
$CHAMFERB
 40
0.5
  9
$CHAMFERC
 40
1.0
  9
$CHAMFERD
 40
0.0
  9
$SKPOLY
 70
     0
  9
$TDCREATE
 40
2458137.839144537
  9
$TDUCREATE
 40
2458137.79747787
  9
$TDUPDATE
 40
2458137.839145081
  9
$TDUUPDATE
 40
2458137.797478414
  9
$TDINDWG
 40
0.0000000116
  9
$TDUSRTIMER
 40
0.0000000116
  9
$USRTIMER
 70
     1
  9
$ANGBASE
 50
0.0
  9
$ANGDIR
 70
     0
  9
$PDMODE
 70
     0
  9
$PDSIZE
 40
0.0
  9
$PLINEWID
 40
0.0
  9
$SPLFRAME
 70
     0
  9
$SPLINETYPE
 70
     6
  9
$SPLINESEGS
 70
     8
  9
$HANDSEED
  5
278
  9
$SURFTAB1
 70
     6
  9
$SURFTAB2
 70
     6
  9
$SURFTYPE
 70
     6
  9
$SURFU
 70
     6
  9
$SURFV
 70
     6
  9
$UCSBASE
  2

  9
$UCSNAME
  2

  9
$UCSORG
 10
0.0
 20
0.0
 30
0.0
  9
$UCSXDIR
 10
1.0
 20
0.0
 30
0.0
  9
$UCSYDIR
 10
0.0
 20
1.0
 30
0.0
  9
$UCSORTHOREF
  2

  9
$UCSORTHOVIEW
 70
     0
  9
$UCSORGTOP
 10
0.0
 20
0.0
 30
0.0
  9
$UCSORGBOTTOM
 10
0.0
 20
0.0
 30
0.0
  9
$UCSORGLEFT
 10
0.0
 20
0.0
 30
0.0
  9
$UCSORGRIGHT
 10
0.0
 20
0.0
 30
0.0
  9
$UCSORGFRONT
 10
0.0
 20
0.0
 30
0.0
  9
$UCSORGBACK
 10
0.0
 20
0.0
 30
0.0
  9
$PUCSBASE
  2

  9
$PUCSNAME
  2

  9
$PUCSORG
 10
0.0
 20
0.0
 30
0.0
  9
$PUCSXDIR
 10
1.0
 20
0.0
 30
0.0
  9
$PUCSYDIR
 10
0.0
 20
1.0
 30
0.0
  9
$PUCSORTHOREF
  2

  9
$PUCSORTHOVIEW
 70
     0
  9
$PUCSORGTOP
 10
0.0
 20
0.0
 30
0.0
  9
$PUCSORGBOTTOM
 10
0.0
 20
0.0
 30
0.0
  9
$PUCSORGLEFT
 10
0.0
 20
0.0
 30
0.0
  9
$PUCSORGRIGHT
 10
0.0
 20
0.0
 30
0.0
  9
$PUCSORGFRONT
 10
0.0
 20
0.0
 30
0.0
  9
$PUCSORGBACK
 10
0.0
 20
0.0
 30
0.0
  9
$USERI1
 70
     0
  9
$USERI2
 70
     0
  9
$USERI3
 70
     0
  9
$USERI4
 70
     0
  9
$USERI5
 70
     0
  9
$USERR1
 40
18.1
  9
$USERR2
 40
0.0
  9
$USERR3
 40
0.0
  9
$USERR4
 40
0.0
  9
$USERR5
 40
0.0
  9
$WORLDVIEW
 70
     1
  9
$SHADEDGE
 70
     3
  9
$SHADEDIF
 70
    70
  9
$TILEMODE
 70
     1
  9
$MAXACTVP
 70
    64
  9
$PINSBASE
 10
0.0
 20
0.0
 30
0.0
  9
$PLIMCHECK
 70
     0
  9
$PEXTMIN
 10
1.00000000000000E+20
 20
1.00000000000000E+20
 30
1.00000000000000E+20
  9
$PEXTMAX
 10
-1.00000000000000E+20
 20
-1.00000000000000E+20
 30
-1.00000000000000E+20
  9
$PLIMMIN
 10
0.0
 20
0.0
  9
$PLIMMAX
 10
12.0
 20
9.0
  9
$UNITMODE
 70
     0
  9
$VISRETAIN
 70
     1
  9
$PLINEGEN
 70
     0
  9
$PSLTSCALE
 70
     1
  9
$TREEDEPTH
 70
  3020
  9
$CMLSTYLE
  2
Standard
  9
$CMLJUST
 70
     0
  9
$CMLSCALE
 40
1.0
  9
$PROXYGRAPHICS
 70
     1
  9
$MEASUREMENT
 70
     1
  9
$CELWEIGHT
370
    -1
  9
$ENDCAPS
280
     0
  9
$JOINSTYLE
280
     0
  9
$LWDISPLAY
290
     0
  9
$INSUNITS
 70
     4
  9
$HYPERLINKBASE
  1

  9
$STYLESHEET
  1

  9
$XEDIT
290
     1
  9
$CEPSNTYPE
380
     0
  9
$PSTYLEMODE
290
     1
  9
$FINGERPRINTGUID
  2
{60987F11-3A05-44CC-A9AD-383CA90F6578}
  9
$VERSIONGUID
  2
{FAEB1C32-E019-11D5-929B-00C0DF256EC4}
  9
$EXTNAMES
290
     1
  9
$PSVPSCALE
 40
0.0
  9
$OLESTARTUP
290
     0
  9
$SORTENTS
280
   127
  9
$INDEXCTL
280
     0
  9
$HIDETEXT
280
     1
  9
$XCLIPFRAME
290
     0
  9
$HALOGAP
280
     0
  9
$OBSCOLOR
 70
   257
  9
$OBSLTYPE
280
     0
  9
$INTERSECTIONDISPLAY
280
     0
  9
$INTERSECTIONCOLOR
 70
   257
  9
$DIMASSOC
280
     2
  9
$PROJECTNAME
  1

  0
ENDSEC
  0
SECTION
  2
CLASSES
  0
CLASS
  1
ACDBDICTIONARYWDFLT
  2
AcDbDictionaryWithDefault
  3
ObjectDBX Classes
 90
        0
 91
        4
280
     0
281
     0
  0
CLASS
  1
VISUALSTYLE
  2
AcDbVisualStyle
  3
ObjectDBX Classes
 90
     4095
 91
        4
280
     0
281
     0
  0
CLASS
  1
MATERIAL
  2
AcDbMaterial
  3
ObjectDBX Classes
 90
     1153
 91
        4
280
     0
281
     0
  0
ENDSEC
  0
SECTION
  2
TABLES
  0
TABLE
  2
VPORT
  5
8
330
0
100
AcDbSymbolTable
 70
     1
  0
VPORT
  5
29
330
8
100
AcDbSymbolTableRecord
100
AcDbViewportTableRecord
  2
*Active
 70
     0
 10
0.0
 20
0.0
 11
1.0
 21
1.0
 12
68.97355223081294
 22
423.320750129836
 13
0.0
 23
0.0
 14
0.5
 24
0.5
 15
0.5
 25
0.5
 16
0.0
 26
0.0
 36
1.0
 17
0.0
 27
0.0
 37
0.0
 40
231.0000000000002
 41
1.60267857142857
 42
50.0
 43
0.0
 44
0.0
 50
0.0
 51
0.0
 71
     0
 72
   100
 73
     1
 74
     3
 75
     0
 76
     0
 77
     0
 78
     0
281
     0
 65
     1
110
0.0
120
0.0
130
0.0
111
1.0
121
0.0
131
0.0
112
0.0
122
1.0
132
0.0
 79
     0
146
0.0
  0
ENDTAB
  0
TABLE
  2
LTYPE
  5
5
330
0
100
AcDbSymbolTable
 70
     8
  0
LTYPE
  5
14
330
5
100
AcDbSymbolTableRecord
100
AcDbLinetypeTableRecord
  2
ByBlock
 70
     0
  3

 72
    65
 73
     0
 40
0.0
  0
LTYPE
  5
15
330
5
100
AcDbSymbolTableRecord
100
AcDbLinetypeTableRecord
  2
ByLayer
 70
     0
  3

 72
    65
 73
     0
 40
0.0
  0
LTYPE
  5
16
330
5
100
AcDbSymbolTableRecord
100
AcDbLinetypeTableRecord
  2
Continuous
 70
     0
  3
Solid line
 72
    65
 73
     0
 40
0.0
  0
LTYPE
  5
3F
330
5
100
AcDbSymbolTableRecord
100
AcDbLinetypeTableRecord
  2
DASHED
 70
     0
  3
Dashed
 72
    65
 73
     2
 40
15.0
 49
7.0
 74
     0
 49
-8.0
 74
     0
  0
LTYPE
  5
40
330
5
100
AcDbSymbolTableRecord
100
AcDbLinetypeTableRecord
  2
DOTTED
 70
     0
  3
Dotted
 72
    65
 73
     2
 40
1.0
 49
0.0
 74
     0
 49
-1.0
 74
     0
  0
LTYPE
  5
41
330
5
100
AcDbSymbolTableRecord
100
AcDbLinetypeTableRecord
  2
DOT_CENTER
 70
     0
  3
Dot_Center
 72
    65
 73
     4
 40
14.0
 49
12.0
 74
     0
 49
-1.0
 74
     0
 49
0.0
 74
     0
 49
-1.0
 74
     0
  0
LTYPE
  5
42
330
5
100
AcDbSymbolTableRecord
100
AcDbLinetypeTableRecord
  2
LONG_DASHED
 70
     0
  3
Long_Dashed
 72
    65
 73
     2
 40
15.0
 49
10.0
 74
     0
 49
-5.0
 74
     0
  0
LTYPE
  5
43
330
5
100
AcDbSymbolTableRecord
100
AcDbLinetypeTableRecord
  2
DASH_CENTER
 70
     0
  3
Dash_Center
 72
    65
 73
     4
 40
14.0
 49
11.0
 74
     0
 49
-1.0
 74
     0
 49
1.0
 74
     0
 49
-1.0
 74
     0
  0
LTYPE
  5
44
330
5
100
AcDbSymbolTableRecord
100
AcDbLinetypeTableRecord
  2
PHANTOM
 70
     0
  3
Phantom
 72
    65
 73
     6
 40
13.0
 49
10.0
 74
     0
 49
-1.0
 74
     0
 49
0.0
 74
     0
 49
-1.0
 74
     0
 49
0.0
 74
     0
 49
-1.0
 74
     0
  0
LTYPE
  5
45
330
5
100
AcDbSymbolTableRecord
100
AcDbLinetypeTableRecord
  2
CENTER_DASH_DASH
 70
     0
  3
Center_Dash_Dash
 72
    65
 73
     6
 40
14.0
 49
9.0
 74
     0
 49
-1.0
 74
     0
 49
1.0
 74
     0
 49
-1.0
 74
     0
 49
1.0
 74
     0
 49
-1.0
 74
     0
  0
ENDTAB
  0
TABLE
  2
LAYER
  5
2
330
0
100
AcDbSymbolTable
 70
     2
  0
LAYER
  5
10
330
2
100
AcDbSymbolTableRecord
100
AcDbLayerTableRecord
  2
0
 70
     0
 62
     7
  6
Continuous
370
    -3
390
F
  0
LAYER
  5
46
330
2
100
AcDbSymbolTableRecord
100
AcDbLayerTableRecord
  2
1
 70
     0
 62
     7
  6
Continuous
370
    -3
390
F
  0
ENDTAB
  0
TABLE
  2
STYLE
  5
3
330
0
100
AcDbSymbolTable
 70
     5
  0
STYLE
  5
11
330
3
100
AcDbSymbolTableRecord
100
AcDbTextStyleTableRecord
  2
Standard
 70
     0
 40
0.0
 41
1.0
 50
0.0
 71
     0
 42
0.2
  3
txt
  4

  0
STYLE
  5
BA
330
3
100
AcDbSymbolTableRecord
100
AcDbTextStyleTableRecord
  2
CONVERTER_11
 70
     0
 40
0.0
 41
0.9
 50
0.0
 71
     0
 42
0.2
  3
txt.shx
  4

  0
STYLE
  5
20E
330
3
100
AcDbSymbolTableRecord
100
AcDbTextStyleTableRecord
  2
CONVERTER_12
 70
     0
 40
0.0
 41
0.81
 50
0.0
 71
     0
 42
0.2
  3
txt.shx
  4

  0
STYLE
  5
214
330
3
100
AcDbSymbolTableRecord
100
AcDbTextStyleTableRecord
  2
CONVERTER_13
 70
     0
 40
0.0
 41
0.855
 50
0.0
 71
     0
 42
0.2
  3
txt.shx
  4

  0
STYLE
  5
217
330
3
100
AcDbSymbolTableRecord
100
AcDbTextStyleTableRecord
  2
CONVERTER_14
 70
     0
 40
0.0
 41
0.72
 50
0.0
 71
     0
 42
0.2
  3
txt.shx
  4

  0
ENDTAB
  0
TABLE
  2
VIEW
  5
6
330
0
100
AcDbSymbolTable
 70
     0
  0
ENDTAB
  0
TABLE
  2
UCS
  5
7
330
0
100
AcDbSymbolTable
 70
     0
  0
ENDTAB
  0
TABLE
  2
APPID
  5
9
330
0
100
AcDbSymbolTable
 70
     1
  0
APPID
  5
12
330
9
100
AcDbSymbolTableRecord
100
AcDbRegAppTableRecord
  2
ACAD
 70
     0
  0
ENDTAB
  0
TABLE
  2
DIMSTYLE
  5
A
330
0
100
AcDbSymbolTable
 70
     5
100
AcDbDimStyleTable
  0
DIMSTYLE
105
27
330
A
100
AcDbSymbolTableRecord
100
AcDbDimStyleTableRecord
  2
Standard
 70
     0
178
     0
340
11
  0
DIMSTYLE
105
BE
102
{ACAD_REACTORS
330
BF
102
}
330
A
100
AcDbSymbolTableRecord
100
AcDbDimStyleTableRecord
  2
ME10_DIM_10
 70
     0
 41
3.5
 42
0.0
 44
1.5
 73
     0
 74
     0
 77
     1
 78
     8
140
3.5
147
1.5
172
     1
173
     1
174
     1
175
     1
176
     2
177
     2
178
     3
340
BA
  0
DIMSTYLE
105
FF
102
{ACAD_REACTORS
330
100
102
}
330
A
100
AcDbSymbolTableRecord
100
AcDbDimStyleTableRecord
  2
ME10_DIM_11
 70
     0
 41
3.5
 42
0.0
 44
1.5
 73
     0
 74
     0
 77
     1
 78
     8
140
3.5
147
1.5
172
     1
173
     1
174
     1
175
     1
176
     2
177
     2
178
     3
340
BA
  0
DIMSTYLE
105
10A
102
{ACAD_REACTORS
330
10B
102
}
330
A
100
AcDbSymbolTableRecord
100
AcDbDimStyleTableRecord
  2
ME10_DIM_12
 70
     0
 41
3.5
 42
0.0
 44
1.5
 73
     0
 74
     0
 77
     1
 78
     8
140
3.5
147
1.5
172
     1
173
     1
174
     1
175
     1
176
     2
177
     2
178
     3
340
BA
  0
DIMSTYLE
105
115
102
{ACAD_REACTORS
330
116
102
}
330
A
100
AcDbSymbolTableRecord
100
AcDbDimStyleTableRecord
  2
ME10_DIM_13
 70
     0
 41
3.5
 42
0.0
 44
1.5
 73
     0
 74
     0
 77
     1
 78
     8
140
3.5
147
1.5
172
     1
173
     1
174
     1
175
     1
176
     2
177
     2
178
     3
340
BA
  0
ENDTAB
  0
TABLE
  2
BLOCK_RECORD
  5
1
330
0
100
AcDbSymbolTable
 70
    21
  0
BLOCK_RECORD
  5
1F
330
1
100
AcDbSymbolTableRecord
100
AcDbBlockTableRecord
  2
*Model_Space
340
22
  0
BLOCK_RECORD
  5
1B
330
1
100
AcDbSymbolTableRecord
100
AcDbBlockTableRecord
  2
*Paper_Space
340
1E
  0
BLOCK_RECORD
  5
23
330
1
100
AcDbSymbolTableRecord
100
AcDbBlockTableRecord
  2
*Paper_Space0
340
26
  0
BLOCK_RECORD
  5
47
330
1
100
AcDbSymbolTableRecord
100
AcDbBlockTableRecord
  2
ATS_GSK-select__1
340
0
102
{BLKREFS
331
4B
102
}
  0
BLOCK_RECORD
  5
4A
330
1
100
AcDbSymbolTableRecord
100
AcDbBlockTableRecord
  2
AllgSicht1
340
0
102
{BLKREFS
331
7D
102
}
  0
BLOCK_RECORD
  5
4E
330
1
100
AcDbSymbolTableRecord
100
AcDbBlockTableRecord
  2
ATS_GSK-select__2
340
0
102
{BLKREFS
331
52
102
}
  0
BLOCK_RECORD
  5
51
330
1
100
AcDbSymbolTableRecord
100
AcDbBlockTableRecord
  2
Drfsicht1
340
0
102
{BLKREFS
331
7E
102
}
  0
BLOCK_RECORD
  5
55
330
1
100
AcDbSymbolTableRecord
100
AcDbBlockTableRecord
  2
ATS_GSK-select__3
340
0
102
{BLKREFS
331
59
102
}
  0
BLOCK_RECORD
  5
58
330
1
100
AcDbSymbolTableRecord
100
AcDbBlockTableRecord
  2
Rckans1
340
0
102
{BLKREFS
331
7F
102
}
  0
BLOCK_RECORD
  5
5C
330
1
100
AcDbSymbolTableRecord
100
AcDbBlockTableRecord
  2
ATS_GSK-select__4
340
0
102
{BLKREFS
331
60
102
}
  0
BLOCK_RECORD
  5
5F
330
1
100
AcDbSymbolTableRecord
100
AcDbBlockTableRecord
  2
SA_Links1
340
0
102
{BLKREFS
331
80
102
}
  0
BLOCK_RECORD
  5
63
330
1
100
AcDbSymbolTableRecord
100
AcDbBlockTableRecord
  2
ATS_GSK-select__5
340
0
102
{BLKREFS
331
67
102
}
  0
BLOCK_RECORD
  5
66
330
1
100
AcDbSymbolTableRecord
100
AcDbBlockTableRecord
  2
SA_Rechts1
340
0
102
{BLKREFS
331
81
102
}
  0
BLOCK_RECORD
  5
6A
330
1
100
AcDbSymbolTableRecord
100
AcDbBlockTableRecord
  2
ATS_GSK-select__6
340
0
102
{BLKREFS
331
6E
102
}
  0
BLOCK_RECORD
  5
6D
330
1
100
AcDbSymbolTableRecord
100
AcDbBlockTableRecord
  2
Vordans1
340
0
102
{BLKREFS
331
82
102
}
  0
BLOCK_RECORD
  5
71
330
1
100
AcDbSymbolTableRecord
100
AcDbBlockTableRecord
  2
_rahmen
340
0
102
{BLKREFS
331
78
102
}
  0
BLOCK_RECORD
  5
74
330
1
100
AcDbSymbolTableRecord
100
AcDbBlockTableRecord
  2
_punkt
340
0
102
{BLKREFS
331
79
102
}
  0
BLOCK_RECORD
  5
77
330
1
100
AcDbSymbolTableRecord
100
AcDbBlockTableRecord
  2
A4I_CS
340
0
102
{BLKREFS
331
83
102
}
  0
BLOCK_RECORD
  5
7C
330
1
100
AcDbSymbolTableRecord
100
AcDbBlockTableRecord
  2
1
340
0
102
{BLKREFS
331
86
102
}
  0
BLOCK_RECORD
  5
B2
330
1
100
AcDbSymbolTableRecord
100
AcDbBlockTableRecord
  2
*D17
340
0
  0
BLOCK_RECORD
  5
F6
330
1
100
AcDbSymbolTableRecord
100
AcDbBlockTableRecord
  2
*D18
340
0
  0
BLOCK_RECORD
  5
101
330
1
100
AcDbSymbolTableRecord
100
AcDbBlockTableRecord
  2
*D19
340
0
  0
BLOCK_RECORD
  5
10C
330
1
100
AcDbSymbolTableRecord
100
AcDbBlockTableRecord
  2
*D20
340
0
  0
ENDTAB
  0
ENDSEC
  0
SECTION
  2
BLOCKS
  0
BLOCK
  5
20
330
1F
100
AcDbEntity
  8
0
100
AcDbBlockBegin
  2
*Model_Space
 70
     0
 10
0.0
 20
0.0
 30
0.0
  3
*Model_Space
  1

  0
ENDBLK
  5
21
330
1F
100
AcDbEntity
  8
0
100
AcDbBlockEnd
  0
BLOCK
  5
1C
330
1B
100
AcDbEntity
 67
     1
  8
0
100
AcDbBlockBegin
  2
*Paper_Space
 70
     0
 10
0.0
 20
0.0
 30
0.0
  3
*Paper_Space
  1

  0
ENDBLK
  5
1D
330
1B
100
AcDbEntity
 67
     1
  8
0
100
AcDbBlockEnd
  0
BLOCK
  5
24
330
23
100
AcDbEntity
  8
0
100
AcDbBlockBegin
  2
*Paper_Space0
 70
     0
 10
0.0
 20
0.0
 30
0.0
  3
*Paper_Space0
  1

  0
ENDBLK
  5
25
330
23
100
AcDbEntity
  8
0
100
AcDbBlockEnd
  0
BLOCK
  5
48
330
47
100
AcDbEntity
  8
0
100
AcDbBlockBegin
  2
ATS_GSK-select__1
 70
     0
 10
109.302897285932
 20
358.2754383724353
 30
0.0
  3
ATS_GSK-select__1
  1

  0
LINE
  5
87
330
47
100
AcDbEntity
  8
0
  6
Continuous
 62
     7
100
AcDbLine
 10
121.5345792389197
 20
376.4944559383356
 30
0.0
 11
121.9345792389197
 21
376.8408660998493
 31
0.0
  0
LINE
  5
88
330
47
100
AcDbEntity
  8
0
  6
Continuous
 62
     7
100
AcDbLine
 10
121.5345792389197
 20
376.4944559383356
 30
0.0
 11
122.2932783426985
 21
379.1069419753947
 31
0.0
  0
LINE
  5
89
330
47
100
AcDbEntity
  8
0
  6
Continuous
 62
     7
100
AcDbLine
 10
121.9345792389197
 20
376.8408660998493
 30
0.0
 11
122.6089614997958
 21
379.1630175712353
 31
0.0
  0
LINE
  5
8A
330
47
100
AcDbEntity
  8
0
  6
Continuous
 62
     7
100
AcDbLine
 10
109.302897285932
 20
384.9667813235253
 30
0.0
 11
109.302897285932
 21
380.0254383724353
 31
0.0
  0
LINE
  5
8B
330
47
100
AcDbEntity
  8
0
  6
Continuous
 62
     7
100
AcDbLine
 10
129.2000116029619
 20
413.6857920911103
 30
0.0
 11
109.302897285932
 21
384.9667813235253
 31
0.0
  0
LINE
  5
8C
330
47
100
AcDbEntity
  8
0
  6
Continuous
 62
     7
100
AcDbLine
 10
137.8817356108184
 20
380.8687051121719
 30
0.0
 11
140.1767029308472
 21
380.2062051121719
 31
0.0
  0
LINE
  5
8D
330
47
100
AcDbEntity
  8
0
  6
Continuous
 62
     7
100
AcDbLine
 10
140.1767029308472
 20
380.2062051121719
 30
0.0
 11
140.1767029308472
 21
379.5133847891444
 31
0.0
  0
LINE
  5
8E
330
47
100
AcDbEntity
  8
0
  6
Continuous
 62
     7
100
AcDbLine
 10
140.1767029308472
 20
379.5133847891444
 30
0.0
 11
153.7733017702629
 21
375.5883847891444
 31
0.0
  0
LINE
  5
8F
330
47
100
AcDbEntity
  8
0
  6
Continuous
 62
     7
100
AcDbLine
 10
153.7733017702629
 20
375.5883847891444
 30
0.0
 11
154.1733017702629
 21
375.9347949506581
 31
0.0
  0
LINE
  5
90
330
47
100
AcDbEntity
  8
0
  6
Continuous
 62
     7
100
AcDbLine
 10
129.221481572974
 20
380.3376161989264
 30
0.0
 11
137.8817356108184
 21
377.8376161989264
 31
0.0
  0
LINE
  5
91
330
47
100
AcDbEntity
  8
0
  6
Continuous
 62
     7
100
AcDbLine
 10
164.7499930981482
 20
403.4233963981443
 30
0.0
 11
129.2000116029619
 21
413.6857920911103
 31
0.0
  0
LINE
  5
92
330
47
100
AcDbEntity
  8
0
  6
Continuous
 62
     7
100
AcDbLine
 10
164.7499930981482
 20
403.4233963981443
 30
0.0
 11
165.1499930981482
 21
403.769806559658
 31
0.0
  0
LINE
  5
93
330
47
100
AcDbEntity
  8
0
  6
Continuous
 62
     7
100
AcDbLine
 10
165.1499930981482
 20
403.769806559658
 30
0.0
 11
129.6000116029619
 21
414.032202252624
 31
0.0
  0
LINE
  5
94
330
47
100
AcDbEntity
  8
0
  6
Continuous
 62
     7
100
AcDbLine
 10
122.2932783426985
 20
379.1069419753947
 30
0.0
 11
129.221481572974
 21
380.3376161989264
 31
0.0
  0
LINE
  5
95
330
47
100
AcDbEntity
  8
0
  6
Continuous
 62
     7
100
AcDbLine
 10
129.2000116029619
 20
413.6857920911103
 30
0.0
 11
129.6000116029619
 21
414.032202252624
 31
0.0
  0
LINE
  5
96
330
47
100
AcDbEntity
  8
0
  6
Continuous
 62
     7
100
AcDbLine
 10
109.302897285932
 20
380.0254383724353
 30
0.0
 11
121.5345792389197
 21
376.4944559383356
 31
0.0
  0
LINE
  5
97
330
47
100
AcDbEntity
  8
0
  6
Continuous
 62
     7
100
AcDbLine
 10
185.0471074151781
 20
363.5631914850391
 30
0.0
 11
185.0471074151781
 21
358.6218485339491
 31
0.0
  0
LINE
  5
98
330
47
100
AcDbEntity
  8
0
  6
Continuous
 62
     7
100
AcDbLine
 10
185.0471074151781
 20
358.6218485339491
 30
0.0
 11
184.6471074151781
 21
358.2754383724353
 31
0.0
  0
LINE
  5
99
330
47
100
AcDbEntity
  8
0
  6
Continuous
 62
     7
100
AcDbLine
 10
184.6471074151781
 20
363.2167813235253
 30
0.0
 11
184.6471074151781
 21
358.2754383724353
 31
0.0
  0
LINE
  5
9A
330
47
100
AcDbEntity
  8
0
  6
Continuous
 62
     7
100
AcDbLine
 10
154.1733017702629
 20
376.165735058334
 30
0.0
 11
154.1733017702629
 21
375.9347949506581
 31
0.0
  0
LINE
  5
9B
330
47
100
AcDbEntity
  8
0
  6
Continuous
 62
     7
100
AcDbLine
 10
153.7733017702629
 20
376.2812051121719
 30
0.0
 11
153.7733017702629
 21
375.5883847891444
 31
0.0
  0
LINE
  5
9C
330
47
100
AcDbEntity
  8
0
  6
Continuous
 62
     7
100
AcDbLine
 10
153.7733017702629
 20
376.2812051121719
 30
0.0
 11
156.0682690902917
 21
375.6187051121719
 31
0.0
  0
LINE
  5
9D
330
47
100
AcDbEntity
  8
0
  6
Continuous
 62
     7
100
AcDbLine
 10
156.0682690902917
 20
375.6187051121719
 30
0.0
 11
156.0682690902917
 21
372.5876161989264
 31
0.0
  0
LINE
  5
9E
330
47
100
AcDbEntity
  8
0
  6
Continuous
 62
     7
100
AcDbLine
 10
156.0682690902917
 20
372.5876161989264
 30
0.0
 11
164.7285231281361
 21
370.0876161989264
 31
0.0
  0
LINE
  5
9F
330
47
100
AcDbEntity
  8
0
  6
Continuous
 62
     7
100
AcDbLine
 10
164.7285231281361
 20
370.0876161989264
 30
0.0
 11
171.6567263584116
 21
364.8569419753947
 31
0.0
  0
LINE
  5
A0
330
47
100
AcDbEntity
  8
0
  6
Continuous
 62
     7
100
AcDbLine
 10
171.6567263584116
 20
364.8569419753947
 30
0.0
 11
172.4154254621903
 21
361.806420806535
 31
0.0
  0
LINE
  5
A1
330
47
100
AcDbEntity
  8
0
  6
Continuous
 62
     7
100
AcDbLine
 10
172.4154254621903
 20
361.806420806535
 30
0.0
 11
184.6471074151781
 21
358.2754383724353
 31
0.0
  0
LINE
  5
A2
330
47
100
AcDbEntity
  8
0
  6
Continuous
 62
     7
100
AcDbLine
 10
185.0471074151781
 20
363.5631914850391
 30
0.0
 11
184.6471074151781
 21
363.2167813235253
 31
0.0
  0
LINE
  5
A3
330
47
100
AcDbEntity
  8
0
  6
Continuous
 62
     7
100
AcDbLine
 10
185.0471074151781
 20
363.5631914850391
 30
0.0
 11
165.1499930981482
 21
403.769806559658
 31
0.0
  0
LINE
  5
A4
330
47
100
AcDbEntity
  8
0
  6
Continuous
 62
     7
100
AcDbLine
 10
138.2817356108184
 20
378.1840263604402
 30
0.0
 11
138.2817356108184
 21
380.753235058334
 31
0.0
  0
LINE
  5
A5
330
47
100
AcDbEntity
  8
0
  6
Continuous
 62
     7
100
AcDbLine
 10
137.8817356108184
 20
377.8376161989264
 30
0.0
 11
137.8817356108184
 21
380.8687051121719
 31
0.0
  0
LINE
  5
A6
330
47
100
AcDbEntity
  8
0
  6
Continuous
 62
     7
100
AcDbLine
 10
137.8817356108184
 20
377.8376161989264
 30
0.0
 11
138.2817356108184
 21
378.1840263604402
 31
0.0
  0
LINE
  5
A7
330
47
100
AcDbEntity
  8
0
  6
Continuous
 62
     7
100
AcDbLine
 10
184.6471074151781
 20
363.2167813235253
 30
0.0
 11
164.7499930981482
 21
403.4233963981443
 31
0.0
  0
ENDBLK
  5
49
330
47
100
AcDbEntity
  8
0
100
AcDbBlockEnd
  0
BLOCK
  5
4C
330
4A
100
AcDbEntity
  8
0
100
AcDbBlockBegin
  2
AllgSicht1
 70
     0
 10
148.3000020000294
 20
389.999999907479
 30
0.0
  3
AllgSicht1
  1

  0
INSERT
  5
4B
330
4A
100
AcDbEntity
  8
0
100
AcDbBlockReference
  2
ATS_GSK-select__1
 10
109.302897285932
 20
358.2754383724353
 30
0.0
  0
ENDBLK
  5
4D
330
4A
100
AcDbEntity
  8
0
100
AcDbBlockEnd
  0
BLOCK
  5
4F
330
4E
100
AcDbEntity
  8
0
100
AcDbBlockBegin
  2
ATS_GSK-select__2
 70
     0
 10
-13.4999995987237
 20
395.3500000060805
 30
0.0
  3
ATS_GSK-select__2
  1

  0
LINE
  5
A8
330
4E
100
AcDbEntity
  8
0
  6
Continuous
 62
     7
100
AcDbLine
 10
9.47520901534426
 20
395.3500000060805
 30
0.0
 11
-13.4999995987237
 21
395.3500000060805
 31
0.0
  0
LINE
  5
A9
330
4E
100
AcDbEntity
  8
0
  6
Continuous
 62
     7
100
AcDbLine
 10
-13.4999995987237
 20
396.1500000060805
 30
0.0
 11
-13.4999995987237
 21
395.3500000060805
 31
0.0
  0
LINE
  5
AA
330
4E
100
AcDbEntity
  8
0
  6
Continuous
 62
     7
100
AcDbLine
 10
9.47520901534426
 20
396.1500000060805
 30
0.0
 11
-13.4999995987237
 21
396.1500000060805
 31
0.0
  0
LINE
  5
AB
330
4E
100
AcDbEntity
  8
0
  6
Continuous
 62
     7
100
AcDbLine
 10
50.52479178720822
 20
396.1500000060805
 30
0.0
 11
9.47520901534426
 21
396.1500000060805
 31
0.0
  0
LINE
  5
AC
330
4E
100
AcDbEntity
  8
0
  6
Continuous
 62
     7
100
AcDbLine
 10
9.47520901534426
 20
395.3500000060805
 30
0.0
 11
9.47520901534426
 21
396.1500000060805
 31
0.0
  0
LINE
  5
AD
330
4E
100
AcDbEntity
  8
0
  6
Continuous
 62
     7
100
AcDbLine
 10
73.50000040127622
 20
395.3500000060805
 30
0.0
 11
50.52479178720822
 21
395.3500000060805
 31
0.0
  0
LINE
  5
AE
330
4E
100
AcDbEntity
  8
0
  6
Continuous
 62
     7
100
AcDbLine
 10
73.50000040127622
 20
396.1500000060805
 30
0.0
 11
50.52479178720822
 21
396.1500000060805
 31
0.0
  0
LINE
  5
AF
330
4E
100
AcDbEntity
  8
0
  6
Continuous
 62
     7
100
AcDbLine
 10
73.50000040127622
 20
396.1500000060805
 30
0.0
 11
73.50000040127622
 21
395.3500000060805
 31
0.0
  0
LINE
  5
B0
330
4E
100
AcDbEntity
  8
0
  6
Continuous
 62
     7
100
AcDbLine
 10
50.52479178720822
 20
395.3500000060805
 30
0.0
 11
50.52479178720822
 21
396.1500000060805
 31
0.0
  0
LINE
  5
B1
330
4E
100
AcDbEntity
  8
0
  6
Continuous
 62
     7
100
AcDbLine
 10
50.52479178720822
 20
395.3500000060805
 30
0.0
 11
9.47520901534426
 21
395.3500000060805
 31
0.0
  0
ENDBLK
  5
50
330
4E
100
AcDbEntity
  8
0
100
AcDbBlockEnd
  0
BLOCK
  5
53
330
51
100
AcDbEntity
  8
0
100
AcDbBlockBegin
  2
Drfsicht1
 70
     0
 10
30.0
 20
398.00000000006
 30
0.0
  3
Drfsicht1
  1

  0
INSERT
  5
52
330
51
100
AcDbEntity
  8
0
100
AcDbBlockReference
  2
ATS_GSK-select__2
 10
-13.4999995987237
 20
395.3500000060805
 30
0.0
  0
DIMENSION
  5
BF
330
51
100
AcDbEntity
  8
1
100
AcDbDimension
  2
*D17
 10
-23.49999959872371
 20
396.1500000060803
 30
0.0
 11
-26.92499959872371
 21
403.4583460206509
 31
0.0
 70
    32
  1
<>
 71
     5
 42
-1.0
 53
90.0
  3
ME10_DIM_10
100
AcDbAlignedDimension
 13
-13.4999995987237
 23
395.3500000060805
 33
0.0
 14
-13.4999995987237
 24
396.1500000060805
 34
0.0
 50
90.0
100
AcDbRotatedDimension
  0
ENDBLK
  5
54
330
51
100
AcDbEntity
  8
0
100
AcDbBlockEnd
  0
BLOCK
  5
56
330
55
100
AcDbEntity
  8
0
100
AcDbBlockBegin
  2
ATS_GSK-select__3
 70
     0
 10
104.8000015179931
 20
437.6500001893025
 30
0.0
  3
ATS_GSK-select__3
  1

  0
LINE
  5
C0
330
55
100
AcDbEntity
  8
0
  6
Continuous
 62
     7
100
AcDbLine
 10
137.8000015179931
 20
448.1500001893025
 30
0.0
 11
137.8000015179931
 21
444.6500001893025
 31
0.0
  0
LINE
  5
C1
330
55
100
AcDbEntity
  8
0
  6
Continuous
 62
     7
100
AcDbLine
 10
137.8000015179931
 20
444.6500001893025
 30
0.0
 11
127.8000015179931
 21
444.6500001893025
 31
0.0
  0
LINE
  5
C2
330
55
100
AcDbEntity
  8
0
  6
Continuous
 62
     7
100
AcDbLine
 10
140.4500015179931
 20
448.1500001893025
 30
0.0
 11
140.4500015179931
 21
447.3500001893025
 31
0.0
  0
LINE
  5
C3
330
55
100
AcDbEntity
  8
0
  6
Continuous
 62
     7
100
AcDbLine
 10
127.8000015179931
 20
444.6500001893025
 30
0.0
 11
119.8000015179931
 21
440.9195389240625
 31
0.0
  0
LINE
  5
C4
330
55
100
AcDbEntity
  8
0
  6
Continuous
 62
     7
100
AcDbLine
 10
104.8000015179931
 20
443.3557715552426
 30
0.0
 11
104.8000015179931
 21
437.6500001893025
 31
0.0
  0
LINE
  5
C5
330
55
100
AcDbEntity
  8
0
  6
Continuous
 62
     7
100
AcDbLine
 10
191.800001517993
 20
443.3557715552426
 30
0.0
 11
191.800001517993
 21
437.6500001893025
 31
0.0
  0
LINE
  5
C6
330
55
100
AcDbEntity
  8
0
  6
Continuous
 62
     7
100
AcDbLine
 10
191.800001517993
 20
437.6500001893025
 30
0.0
 11
177.6760717815943
 21
437.6500001893025
 31
0.0
  0
LINE
  5
C7
330
55
100
AcDbEntity
  8
0
  6
Continuous
 62
     7
100
AcDbLine
 10
176.8000015179931
 20
440.9195389240625
 30
0.0
 11
168.8000015179931
 21
444.6500001893025
 31
0.0
  0
LINE
  5
C8
330
55
100
AcDbEntity
  8
0
  6
Continuous
 62
     7
100
AcDbLine
 10
168.824792903925
 20
483.1500001893025
 30
0.0
 11
191.800001517993
 21
443.3557715552426
 31
0.0
  0
LINE
  5
C9
330
55
100
AcDbEntity
  8
0
  6
Continuous
 62
     7
100
AcDbLine
 10
177.6760717815943
 20
437.6500001893025
 30
0.0
 11
176.8000015179931
 21
440.9195389240625
 31
0.0
  0
LINE
  5
CA
330
55
100
AcDbEntity
  8
0
  6
Continuous
 62
     7
100
AcDbLine
 10
140.4500015179931
 20
447.3500001893025
 30
0.0
 11
156.1500015179931
 21
447.3500001893025
 31
0.0
  0
LINE
  5
CB
330
55
100
AcDbEntity
  8
0
  6
Continuous
 62
     7
100
AcDbLine
 10
168.8000015179931
 20
444.6500001893025
 30
0.0
 11
158.8000015179931
 21
444.6500001893025
 31
0.0
  0
LINE
  5
CC
330
55
100
AcDbEntity
  8
0
  6
Continuous
 62
     7
100
AcDbLine
 10
158.8000015179931
 20
444.6500001893025
 30
0.0
 11
158.8000015179931
 21
448.1500001893025
 31
0.0
  0
LINE
  5
CD
330
55
100
AcDbEntity
  8
0
  6
Continuous
 62
     7
100
AcDbLine
 10
140.4500015179931
 20
448.1500001893025
 30
0.0
 11
137.8000015179931
 21
448.1500001893025
 31
0.0
  0
LINE
  5
CE
330
55
100
AcDbEntity
  8
0
  6
Continuous
 62
     7
100
AcDbLine
 10
158.8000015179931
 20
448.1500001893025
 30
0.0
 11
156.1500015179931
 21
448.1500001893025
 31
0.0
  0
LINE
  5
CF
330
55
100
AcDbEntity
  8
0
  6
Continuous
 62
     7
100
AcDbLine
 10
127.7752101320611
 20
483.1500001893025
 30
0.0
 11
168.824792903925
 21
483.1500001893025
 31
0.0
  0
LINE
  5
D0
330
55
100
AcDbEntity
  8
0
  6
Continuous
 62
     7
100
AcDbLine
 10
156.1500015179931
 20
447.3500001893025
 30
0.0
 11
156.1500015179931
 21
448.1500001893025
 31
0.0
  0
LINE
  5
D1
330
55
100
AcDbEntity
  8
0
  6
Continuous
 62
     7
100
AcDbLine
 10
118.9239312543919
 20
437.6500001893025
 30
0.0
 11
104.8000015179931
 21
437.6500001893025
 31
0.0
  0
LINE
  5
D2
330
55
100
AcDbEntity
  8
0
  6
Continuous
 62
     7
100
AcDbLine
 10
119.8000015179931
 20
440.9195389240625
 30
0.0
 11
118.9239312543919
 21
437.6500001893025
 31
0.0
  0
LINE
  5
D3
330
55
100
AcDbEntity
  8
0
  6
Continuous
 62
     7
100
AcDbLine
 10
104.8000015179931
 20
443.3557715552426
 30
0.0
 11
127.7752101320611
 21
483.1500001893025
 31
0.0
  0
ENDBLK
  5
57
330
55
100
AcDbEntity
  8
0
100
AcDbBlockEnd
  0
BLOCK
  5
5A
330
58
100
AcDbEntity
  8
0
100
AcDbBlockBegin
  2
Rckans1
 70
     0
 10
148.3000019192693
 20
460.4000000059605
 30
0.0
  3
Rckans1
  1

  0
INSERT
  5
59
330
58
100
AcDbEntity
  8
0
100
AcDbBlockReference
  2
ATS_GSK-select__3
 10
104.8000015179931
 20
437.6500001893025
 30
0.0
  0
ENDBLK
  5
5B
330
58
100
AcDbEntity
  8
0
100
AcDbBlockEnd
  0
BLOCK
  5
5D
330
5C
100
AcDbEntity
  8
0
100
AcDbBlockBegin
  2
ATS_GSK-select__4
 70
     0
 10
92.0000009535537
 20
437.6500001893029
 30
0.0
  3
ATS_GSK-select__4
  1

  0
LINE
  5
D4
330
5C
100
AcDbEntity
  8
0
  6
Continuous
 62
     7
100
AcDbLine
 10
92.8000009535537
 20
483.1500001893029
 30
0.0
 11
92.8000009535537
 21
443.355771555243
 31
0.0
  0
LINE
  5
D5
330
5C
100
AcDbEntity
  8
0
  6
Continuous
 62
     7
100
AcDbLine
 10
92.8000009535537
 20
483.1500001893029
 30
0.0
 11
92.0000009535537
 21
483.1500001893029
 31
0.0
  0
LINE
  5
D6
330
5C
100
AcDbEntity
  8
0
  6
Continuous
 62
     7
100
AcDbLine
 10
92.8000009535537
 20
443.355771555243
 30
0.0
 11
92.8000009535537
 21
437.6500001893029
 31
0.0
  0
LINE
  5
D7
330
5C
100
AcDbEntity
  8
0
  6
Continuous
 62
     7
100
AcDbLine
 10
92.8000009535537
 20
437.6500001893029
 30
0.0
 11
92.0000009535537
 21
437.6500001893029
 31
0.0
  0
LINE
  5
D8
330
5C
100
AcDbEntity
  8
0
  6
Continuous
 62
     7
100
AcDbLine
 10
92.0000009535537
 20
483.1500001893029
 30
0.0
 11
92.0000009535537
 21
443.355771555243
 31
0.0
  0
LINE
  5
D9
330
5C
100
AcDbEntity
  8
0
  6
Continuous
 62
     7
100
AcDbLine
 10
92.0000009535537
 20
443.355771555243
 30
0.0
 11
92.0000009535537
 21
437.6500001893029
 31
0.0
  0
LINE
  5
DA
330
5C
100
AcDbEntity
  8
0
  6
Continuous
 62
     7
100
AcDbLine
 10
92.0000009535537
 20
443.355771555243
 30
0.0
 11
92.8000009535537
 21
443.355771555243
 31
0.0
  0
ENDBLK
  5
5E
330
5C
100
AcDbEntity
  8
0
100
AcDbBlockEnd
  0
BLOCK
  5
61
330
5F
100
AcDbEntity
  8
0
100
AcDbBlockBegin
  2
SA_Links1
 70
     0
 10
90.1500009595741
 20
460.4000000059609
 30
0.0
  3
SA_Links1
  1

  0
INSERT
  5
60
330
5F
100
AcDbEntity
  8
0
100
AcDbBlockReference
  2
ATS_GSK-select__4
 10
92.0000009535537
 20
437.6500001893029
 30
0.0
  0
ENDBLK
  5
62
330
5F
100
AcDbEntity
  8
0
100
AcDbBlockEnd
  0
BLOCK
  5
64
330
63
100
AcDbEntity
  8
0
100
AcDbBlockBegin
  2
ATS_GSK-select__5
 70
     0
 10
-52.80000095355197
 20
437.6500001893025
 30
0.0
  3
ATS_GSK-select__5
  1

  0
LINE
  5
DB
330
63
100
AcDbEntity
  8
0
  6
Continuous
 62
     7
100
AcDbLine
 10
-52.00000095355196
 20
443.3557715552426
 30
0.0
 11
-52.00000095355196
 21
437.6500001893025
 31
0.0
  0
LINE
  5
DC
330
63
100
AcDbEntity
  8
0
  6
Continuous
 62
     7
100
AcDbLine
 10
-52.00000095355196
 20
443.3557715552426
 30
0.0
 11
-52.00000095355196
 21
483.1500001893025
 31
0.0
  0
LINE
  5
DD
330
63
100
AcDbEntity
  8
0
  6
Continuous
 62
     7
100
AcDbLine
 10
-52.80000095355197
 20
443.3557715552426
 30
0.0
 11
-52.80000095355197
 21
437.6500001893025
 31
0.0
  0
LINE
  5
DE
330
63
100
AcDbEntity
  8
0
  6
Continuous
 62
     7
100
AcDbLine
 10
-52.80000095355197
 20
443.3557715552426
 30
0.0
 11
-52.80000095355197
 21
483.1500001893025
 31
0.0
  0
LINE
  5
DF
330
63
100
AcDbEntity
  8
0
  6
Continuous
 62
     7
100
AcDbLine
 10
-52.00000095355196
 20
437.6500001893025
 30
0.0
 11
-52.80000095355197
 21
437.6500001893025
 31
0.0
  0
LINE
  5
E0
330
63
100
AcDbEntity
  8
0
  6
Continuous
 62
     7
100
AcDbLine
 10
-52.00000095355196
 20
443.3557715552426
 30
0.0
 11
-52.80000095355197
 21
443.3557715552426
 31
0.0
  0
LINE
  5
E1
330
63
100
AcDbEntity
  8
0
  6
Continuous
 62
     7
100
AcDbLine
 10
-52.80000095355197
 20
483.1500001893025
 30
0.0
 11
-52.00000095355196
 21
483.1500001893025
 31
0.0
  0
ENDBLK
  5
65
330
63
100
AcDbEntity
  8
0
100
AcDbBlockEnd
  0
BLOCK
  5
68
330
66
100
AcDbEntity
  8
0
100
AcDbBlockBegin
  2
SA_Rechts1
 70
     0
 10
-50.15000095957237
 20
460.4000000059605
 30
0.0
  3
SA_Rechts1
  1

  0
INSERT
  5
67
330
66
100
AcDbEntity
  8
0
100
AcDbBlockReference
  2
ATS_GSK-select__5
 10
-52.80000095355197
 20
437.6500001893025
 30
0.0
  0
ENDBLK
  5
69
330
66
100
AcDbEntity
  8
0
100
AcDbBlockEnd
  0
BLOCK
  5
6B
330
6A
100
AcDbEntity
  8
0
100
AcDbBlockBegin
  2
ATS_GSK-select__6
 70
     0
 10
-13.49999959872131
 20
437.650000189303
 30
0.0
  3
ATS_GSK-select__6
  1

  0
LINE
  5
E2
330
6A
100
AcDbEntity
  8
0
  6
Continuous
 62
     7
100
AcDbLine
 10
1.5000004012786
 20
440.919538924063
 30
0.0
 11
9.50000040127863
 21
444.650000189303
 31
0.0
  0
LINE
  5
E3
330
6A
100
AcDbEntity
  8
0
  6
Continuous
 62
     7
100
AcDbLine
 10
-13.4999995987213
 20
443.3557715552431
 30
0.0
 11
-13.49999959872131
 21
437.650000189303
 31
0.0
  0
LINE
  5
E4
330
6A
100
AcDbEntity
  8
0
  6
Continuous
 62
     7
100
AcDbLine
 10
9.47520901534665
 20
483.150000189303
 30
0.0
 11
-13.4999995987213
 21
443.3557715552431
 31
0.0
  0
LINE
  5
E5
330
6A
100
AcDbEntity
  8
0
  6
Continuous
 62
     7
100
AcDbLine
 10
19.50000040127863
 20
448.150000189303
 30
0.0
 11
22.15000040127863
 21
448.150000189303
 31
0.0
  0
LINE
  5
E6
330
6A
100
AcDbEntity
  8
0
  6
Continuous
 62
     7
100
AcDbLine
 10
19.50000040127863
 20
444.650000189303
 30
0.0
 11
19.50000040127863
 21
448.150000189303
 31
0.0
  0
LINE
  5
E7
330
6A
100
AcDbEntity
  8
0
  6
Continuous
 62
     7
100
AcDbLine
 10
9.50000040127863
 20
444.650000189303
 30
0.0
 11
19.50000040127863
 21
444.650000189303
 31
0.0
  0
LINE
  5
E8
330
6A
100
AcDbEntity
  8
0
  6
Continuous
 62
     7
100
AcDbLine
 10
40.50000040127858
 20
444.650000189303
 30
0.0
 11
50.50000040127868
 21
444.650000189303
 31
0.0
  0
LINE
  5
E9
330
6A
100
AcDbEntity
  8
0
  6
Continuous
 62
     7
100
AcDbLine
 10
22.15000040127863
 20
447.350000189303
 30
0.0
 11
37.85000040127859
 21
447.350000189303
 31
0.0
  0
LINE
  5
EA
330
6A
100
AcDbEntity
  8
0
  6
Continuous
 62
     7
100
AcDbLine
 10
22.15000040127863
 20
448.150000189303
 30
0.0
 11
22.15000040127863
 21
447.350000189303
 31
0.0
  0
LINE
  5
EB
330
6A
100
AcDbEntity
  8
0
  6
Continuous
 62
     7
100
AcDbLine
 10
37.85000040127859
 20
448.150000189303
 30
0.0
 11
37.85000040127859
 21
447.350000189303
 31
0.0
  0
LINE
  5
EC
330
6A
100
AcDbEntity
  8
0
  6
Continuous
 62
     7
100
AcDbLine
 10
-13.49999959872131
 20
437.650000189303
 30
0.0
 11
0.62393013767739
 21
437.650000189303
 31
0.0
  0
LINE
  5
ED
330
6A
100
AcDbEntity
  8
0
  6
Continuous
 62
     7
100
AcDbLine
 10
59.37607066487988
 20
437.650000189303
 30
0.0
 11
73.50000040127858
 21
437.650000189303
 31
0.0
  0
LINE
  5
EE
330
6A
100
AcDbEntity
  8
0
  6
Continuous
 62
     7
100
AcDbLine
 10
0.62393013767739
 20
437.650000189303
 30
0.0
 11
1.5000004012786
 21
440.919538924063
 31
0.0
  0
LINE
  5
EF
330
6A
100
AcDbEntity
  8
0
  6
Continuous
 62
     7
100
AcDbLine
 10
58.5000004012787
 20
440.919538924063
 30
0.0
 11
59.37607066487988
 21
437.650000189303
 31
0.0
  0
LINE
  5
F0
330
6A
100
AcDbEntity
  8
0
  6
Continuous
 62
     7
100
AcDbLine
 10
37.85000040127859
 20
448.150000189303
 30
0.0
 11
40.50000040127858
 21
448.150000189303
 31
0.0
  0
LINE
  5
F1
330
6A
100
AcDbEntity
  8
0
  6
Continuous
 62
     7
100
AcDbLine
 10
40.50000040127858
 20
448.150000189303
 30
0.0
 11
40.50000040127858
 21
444.650000189303
 31
0.0
  0
LINE
  5
F2
330
6A
100
AcDbEntity
  8
0
  6
Continuous
 62
     7
100
AcDbLine
 10
50.50000040127868
 20
444.650000189303
 30
0.0
 11
58.5000004012787
 21
440.919538924063
 31
0.0
  0
LINE
  5
F3
330
6A
100
AcDbEntity
  8
0
  6
Continuous
 62
     7
100
AcDbLine
 10
73.50000040127858
 20
443.3557715552431
 30
0.0
 11
73.50000040127858
 21
437.650000189303
 31
0.0
  0
LINE
  5
F4
330
6A
100
AcDbEntity
  8
0
  6
Continuous
 62
     7
100
AcDbLine
 10
50.52479178721059
 20
483.150000189303
 30
0.0
 11
9.47520901534665
 21
483.150000189303
 31
0.0
  0
LINE
  5
F5
330
6A
100
AcDbEntity
  8
0
  6
Continuous
 62
     7
100
AcDbLine
 10
73.50000040127858
 20
443.3557715552431
 30
0.0
 11
50.52479178721059
 21
483.150000189303
 31
0.0
  0
ENDBLK
  5
6C
330
6A
100
AcDbEntity
  8
0
100
AcDbBlockEnd
  0
BLOCK
  5
6F
330
6D
100
AcDbEntity
  8
0
100
AcDbBlockBegin
  2
Vordans1
 70
     0
 10
30.00000000000239
 20
460.400000005961
 30
0.0
  3
Vordans1
  1

  0
INSERT
  5
6E
330
6D
100
AcDbEntity
  8
0
100
AcDbBlockReference
  2
ATS_GSK-select__6
 10
-13.49999959872131
 20
437.650000189303
 30
0.0
  0
DIMENSION
  5
100
330
6D
100
AcDbEntity
  8
1
100
AcDbDimension
  2
*D18
 10
-23.49999959872329
 20
447.350000189303
 30
0.0
 11
-26.92499959872329
 21
465.5089929405391
 31
0.0
 70
    32
  1
<>
 71
     5
 42
-1.0
 53
90.0
  3
ME10_DIM_11
100
AcDbAlignedDimension
 13
9.47520901534665
 23
483.150000189303
 33
0.0
 14
22.15000040127863
 24
447.350000189303
 34
0.0
 50
90.0
100
AcDbRotatedDimension
  0
DIMENSION
  5
10B
330
6D
100
AcDbEntity
  8
1
100
AcDbDimension
  2
*D19
 10
-31.49999959872329
 20
437.6500001893029
 30
0.0
 11
-34.92499959872329
 21
460.3112367914031
 31
0.0
 70
    32
  1
<>
 71
     5
 42
-1.0
 53
90.0
  3
ME10_DIM_12
100
AcDbAlignedDimension
 13
9.47520901534665
 23
483.150000189303
 33
0.0
 14
0.62393013767739
 24
437.650000189303
 34
0.0
 50
90.0
100
AcDbRotatedDimension
  0
DIMENSION
  5
116
330
6D
100
AcDbEntity
  8
1
100
AcDbDimension
  2
*D20
 10
-13.4999995987213
 20
427.650000189303
 30
0.0
 11
29.60868341873359
 21
430.900000189303
 31
0.0
 70
    32
  1
<>
 71
     5
 42
-1.0
 53
0.00013888888889
  3
ME10_DIM_13
100
AcDbAlignedDimension
 13
73.50000040127858
 23
437.650000189303
 33
0.0
 14
-13.49999959872131
 24
437.650000189303
 34
0.0
100
AcDbRotatedDimension
  0
ENDBLK
  5
70
330
6D
100
AcDbEntity
  8
0
100
AcDbBlockEnd
  0
BLOCK
  5
72
330
71
100
AcDbEntity
  8
0
100
AcDbBlockBegin
  2
_rahmen
 70
     0
 10
212.473552230813
 20
318.320750129836
 30
0.0
  3
_rahmen
  1

  0
LINE
  5
117
330
71
100
AcDbEntity
  8
1
  6
DOT_CENTER
 62
     2
100
AcDbLine
 10
86.91540259062555
 20
344.445750129836
 30
0.0
 11
92.41540259062555
 21
344.445750129836
 31
0.0
  0
LINE
  5
118
330
71
100
AcDbEntity
  8
1
  6
PHANTOM
 62
     2
100
AcDbLine
 10
95.66540259062555
 20
347.195750129836
 30
0.0
 11
95.66540259062555
 21
341.695750129836
 31
0.0
  0
LINE
  5
119
330
71
100
AcDbEntity
  8
1
  6
PHANTOM
 62
     2
100
AcDbLine
 10
98.41540259062555
 20
344.445750129836
 30
0.0
 11
92.91540259062555
 21
344.445750129836
 31
0.0
  0
LINE
  5
11A
330
71
100
AcDbEntity
  8
1
  6
Continuous
 62
     7
100
AcDbLine
 10
147.228747704063
 20
331.820750129836
 30
0.0
 11
147.228747704063
 21
340.3207501298361
 31
0.0
  0
LINE
  5
11B
330
71
100
AcDbEntity
  8
1
  6
Continuous
 62
     6
100
AcDbLine
 10
119.3287477040629
 20
340.3207501298361
 30
0.0
 11
212.4735522308147
 21
340.3207501298361
 31
0.0
  0
LINE
  5
11C
330
71
100
AcDbEntity
  8
1
  6
Continuous
 62
     7
100
AcDbLine
 10
82.92874770406294
 20
340.3207501298361
 30
0.0
 11
82.92874770406294
 21
348.8207501298361
 31
0.0
  0
LINE
  5
11D
330
71
100
AcDbEntity
  8
1
  6
Continuous
 62
     7
100
AcDbLine
 10
119.3287477040629
 20
340.3207501298361
 30
0.0
 11
119.3287477040629
 21
348.8207501298361
 31
0.0
  0
LINE
  5
11E
330
71
100
AcDbEntity
  8
1
  6
Continuous
 62
     7
100
AcDbLine
 10
177.0551439491358
 20
348.8207501298361
 30
0.0
 11
177.0551439491358
 21
340.3207501298361
 31
0.0
  0
LINE
  5
11F
330
71
100
AcDbEntity
  8
1
  6
Continuous
 62
     7
100
AcDbLine
 10
203.5551439491354
 20
348.8207501298361
 30
0.0
 11
203.5551439491354
 21
340.3207501298361
 31
0.0
  0
LINE
  5
120
330
71
100
AcDbEntity
  8
1
  6
Continuous
 62
     6
100
AcDbLine
 10
13.92874770406297
 20
323.3207501298361
 30
0.0
 11
-31.02644776918703
 21
323.3207501298361
 31
0.0
  0
LINE
  5
121
330
71
100
AcDbEntity
  8
1
  6
Continuous
 62
     7
100
AcDbLine
 10
212.4735522308143
 20
331.8207501298361
 30
0.0
 11
119.3287477040629
 21
331.8207501298361
 31
0.0
  0
LINE
  5
122
102
{ACAD_REACTORS
330
234
330
235
102
}
330
71
100
AcDbEntity
  8
0
  6
Continuous
 62
     2
100
AcDbLine
 10
96.63617664583035
 20
332.6210392454995
 30
0.0
 11
96.63617664583035
 21
333.4935562523027
 31
0.0
  0
LINE
  5
123
102
{ACAD_REACTORS
330
234
330
235
102
}
330
71
100
AcDbEntity
  8
0
  6
Continuous
 62
     2
100
AcDbLine
 10
96.63617664583035
 20
331.6612705380165
 30
0.0
 11
96.63617664583035
 21
330.7887535312133
 31
0.0
  0
LINE
  5
124
102
{ACAD_REACTORS
330
236
330
237
102
}
330
71
100
AcDbEntity
  8
0
  6
Continuous
 62
     2
100
AcDbLine
 10
111.9692207821209
 20
332.88279434754
 30
0.0
 11
113.072860081689
 21
332.88279434754
 31
0.0
  0
LINE
  5
125
102
{ACAD_REACTORS
330
236
330
237
102
}
330
71
100
AcDbEntity
  8
0
  6
Continuous
 62
     2
100
AcDbLine
 10
112.7388781250823
 20
331.6612705380161
 30
0.0
 11
112.7388781250823
 21
330.7887535312127
 31
0.0
  0
LINE
  5
126
102
{ACAD_REACTORS
330
240
330
241
102
}
330
71
100
AcDbEntity
  8
0
  6
Continuous
 62
     2
100
AcDbLine
 10
110.8781215097023
 20
333.9734406060268
 30
0.0
 11
112.2760745566426
 21
335.5542995998018
 31
0.0
  0
LINE
  5
127
102
{ACAD_REACTORS
330
240
330
241
102
}
330
71
100
AcDbEntity
  8
0
  6
Continuous
 62
     2
100
AcDbLine
 10
110.9735449258752
 20
337.027250129838
 30
0.0
 11
112.2760745566426
 21
335.5542995998018
 31
0.0
  0
LINE
  5
128
102
{ACAD_REACTORS
330
240
330
241
102
}
330
71
100
AcDbEntity
  8
0
  6
Continuous
 62
     2
100
AcDbLine
 10
113.578604187409
 20
337.027250129838
 30
0.0
 11
114.9813284051563
 21
337.027250129838
 31
0.0
  0
LINE
  5
129
102
{ACAD_REACTORS
330
240
330
241
102
}
330
71
100
AcDbEntity
  8
0
  6
Continuous
 62
     2
100
AcDbLine
 10
112.2808457274506
 20
333.9734406060268
 30
0.0
 11
112.9774366655163
 21
334.7611723913204
 31
0.0
  0
LINE
  5
12A
102
{ACAD_REACTORS
330
240
330
241
102
}
330
71
100
AcDbEntity
  8
0
  6
Continuous
 62
     2
100
AcDbLine
 10
112.2808457274506
 20
333.9734406060268
 30
0.0
 11
110.8781215097023
 21
333.9734406060268
 31
0.0
  0
LINE
  5
12B
102
{ACAD_REACTORS
330
242
330
243
102
}
330
71
100
AcDbEntity
  8
0
  6
Continuous
 62
     2
100
AcDbLine
 10
110.7588422394855
 20
333.9734406060268
 30
0.0
 11
109.5183378292326
 21
333.9734406060268
 31
0.0
  0
LINE
  5
12C
102
{ACAD_REACTORS
330
244
330
245
102
}
330
71
100
AcDbEntity
  8
0
  6
Continuous
 62
     2
100
AcDbLine
 10
108.6503582210775
 20
331.835773939377
 30
0.0
 11
108.3501929838874
 21
332.6035889053636
 31
0.0
  0
LINE
  5
12D
102
{ACAD_REACTORS
330
244
330
245
102
}
330
71
100
AcDbEntity
  8
0
  6
Continuous
 62
     2
100
AcDbLine
 10
108.050027746695
 20
331.835773939377
 30
0.0
 11
108.6503582210775
 21
331.835773939377
 31
0.0
  0
LINE
  5
12E
102
{ACAD_REACTORS
330
244
330
245
102
}
330
71
100
AcDbEntity
  8
0
  6
Continuous
 62
     2
100
AcDbLine
 10
106.3319877318212
 20
330.6142501298525
 30
0.0
 11
107.5724921420741
 21
330.6142501298525
 31
0.0
  0
LINE
  5
12F
102
{ACAD_REACTORS
330
244
330
245
102
}
330
71
100
AcDbEntity
  8
0
  6
Continuous
 62
     2
100
AcDbLine
 10
107.7299407787605
 20
333.6680596536635
 30
0.0
 11
108.9704451890132
 21
333.6680596536635
 31
0.0
  0
LINE
  5
130
102
{ACAD_REACTORS
330
244
330
245
102
}
330
71
100
AcDbEntity
  8
0
  6
Continuous
 62
     2
100
AcDbLine
 10
108.9704451890132
 20
333.6680596536635
 30
0.0
 11
110.3683982359535
 21
330.6142501298525
 31
0.0
  0
LINE
  5
131
102
{ACAD_REACTORS
330
244
330
245
102
}
330
71
100
AcDbEntity
  8
0
  6
Continuous
 62
     2
100
AcDbLine
 10
109.1278938256995
 20
330.6142501298525
 30
0.0
 11
108.9164137722238
 21
331.1552106740703
 31
0.0
  0
LINE
  5
132
102
{ACAD_REACTORS
330
246
330
247
102
}
330
71
100
AcDbEntity
  8
0
  6
Continuous
 62
     2
100
AcDbLine
 10
104.9855746301136
 20
330.6142501298525
 30
0.0
 11
106.1783673322801
 21
330.6142501298525
 31
0.0
  0
LINE
  5
133
102
{ACAD_REACTORS
330
246
330
247
102
}
330
71
100
AcDbEntity
  8
0
  6
Continuous
 62
     2
100
AcDbLine
 10
104.9855746301136
 20
332.88279434754
 30
0.0
 11
104.9855746301136
 21
330.6142501298525
 31
0.0
  0
LINE
  5
134
102
{ACAD_REACTORS
330
246
330
247
102
}
330
71
100
AcDbEntity
  8
0
  6
Continuous
 62
     2
100
AcDbLine
 10
104.1744755926389
 20
333.6680596536635
 30
0.0
 11
104.1744755926389
 21
332.88279434754
 31
0.0
  0
LINE
  5
135
102
{ACAD_REACTORS
330
248
330
249
102
}
330
71
100
AcDbEntity
  8
0
  6
Continuous
 62
     2
100
AcDbLine
 10
105.6536894742116
 20
333.9734406060268
 30
0.0
 11
106.8464821763781
 21
333.9734406060268
 31
0.0
  0
LINE
  5
136
102
{ACAD_REACTORS
330
248
330
249
102
}
330
71
100
AcDbEntity
  8
0
  6
Continuous
 62
     2
100
AcDbLine
 10
108.0869865866321
 20
335.7184746196327
 30
0.0
 11
106.8464821763781
 21
337.027250129838
 31
0.0
  0
LINE
  5
137
102
{ACAD_REACTORS
330
248
330
249
102
}
330
71
100
AcDbEntity
  8
0
  6
Continuous
 62
     2
100
AcDbLine
 10
109.2797792887987
 20
337.027250129838
 30
0.0
 11
108.0869865866321
 21
337.027250129838
 31
0.0
  0
LINE
  5
138
102
{ACAD_REACTORS
330
248
330
249
102
}
330
71
100
AcDbEntity
  8
0
  6
Continuous
 62
     2
100
AcDbLine
 10
109.2797792887987
 20
333.9734406060268
 30
0.0
 11
109.2797792887987
 21
337.027250129838
 31
0.0
  0
LINE
  5
139
102
{ACAD_REACTORS
330
248
330
249
102
}
330
71
100
AcDbEntity
  8
0
  6
Continuous
 62
     2
100
AcDbLine
 10
108.0869865866321
 20
333.9734406060268
 30
0.0
 11
109.2797792887987
 21
333.9734406060268
 31
0.0
  0
LINE
  5
13A
102
{ACAD_REACTORS
330
248
330
249
102
}
330
71
100
AcDbEntity
  8
0
  6
Continuous
 62
     2
100
AcDbLine
 10
106.8464821763781
 20
335.2822161162314
 30
0.0
 11
108.0869865866321
 21
333.9734406060268
 31
0.0
  0
LINE
  5
13B
102
{ACAD_REACTORS
330
24A
330
24B
102
}
330
71
100
AcDbEntity
  8
0
  6
Continuous
 62
     2
100
AcDbLine
 10
102.8385477662123
 20
332.3592841434585
 30
0.0
 11
101.5980433559595
 21
333.6680596536635
 31
0.0
  0
LINE
  5
13C
102
{ACAD_REACTORS
330
24A
330
24B
102
}
330
71
100
AcDbEntity
  8
0
  6
Continuous
 62
     2
100
AcDbLine
 10
102.8385477662123
 20
333.6680596536635
 30
0.0
 11
102.8385477662123
 21
332.3592841434585
 31
0.0
  0
LINE
  5
13D
102
{ACAD_REACTORS
330
24A
330
24B
102
}
330
71
100
AcDbEntity
  8
0
  6
Continuous
 62
     2
100
AcDbLine
 10
104.0313404683787
 20
333.6680596536635
 30
0.0
 11
102.8385477662123
 21
333.6680596536635
 31
0.0
  0
LINE
  5
13E
102
{ACAD_REACTORS
330
24A
330
24B
102
}
330
71
100
AcDbEntity
  8
0
  6
Continuous
 62
     2
100
AcDbLine
 10
104.0313404683787
 20
330.6142501298525
 30
0.0
 11
104.0313404683787
 21
333.6680596536635
 31
0.0
  0
LINE
  5
13F
102
{ACAD_REACTORS
330
24A
330
24B
102
}
330
71
100
AcDbEntity
  8
0
  6
Continuous
 62
     2
100
AcDbLine
 10
101.5980433559595
 20
331.9230256400571
 30
0.0
 11
102.8385477662123
 21
330.6142501298525
 31
0.0
  0
LINE
  5
140
102
{ACAD_REACTORS
330
24A
330
24B
102
}
330
71
100
AcDbEntity
  8
0
  6
Continuous
 62
     2
100
AcDbLine
 10
101.5980433559595
 20
330.6142501298525
 30
0.0
 11
101.5980433559595
 21
331.9230256400571
 31
0.0
  0
LINE
  5
141
102
{ACAD_REACTORS
330
23A
330
23B
102
}
330
71
100
AcDbEntity
  8
0
  6
Continuous
 62
     2
100
AcDbLine
 10
104.079203107351
 20
336.329236524395
 30
0.0
 11
105.4151309337786
 21
336.329236524395
 31
0.0
  0
LINE
  5
142
102
{ACAD_REACTORS
330
23A
330
23B
102
}
330
71
100
AcDbEntity
  8
0
  6
Continuous
 62
     2
100
AcDbLine
 10
104.079203107351
 20
334.6714542114693
 30
0.0
 11
104.079203107351
 21
335.151338565211
 31
0.0
  0
LINE
  5
143
102
{ACAD_REACTORS
330
23A
330
23B
102
}
330
71
100
AcDbEntity
  8
0
  6
Continuous
 62
     2
100
AcDbLine
 10
105.4151309337786
 20
334.6714542114693
 30
0.0
 11
104.079203107351
 21
334.6714542114693
 31
0.0
  0
LINE
  5
144
102
{ACAD_REACTORS
330
23A
330
23B
102
}
330
71
100
AcDbEntity
  8
0
  6
Continuous
 62
     2
100
AcDbLine
 10
105.4151309337786
 20
333.9734406060268
 30
0.0
 11
105.4151309337786
 21
334.6714542114693
 31
0.0
  0
LINE
  5
145
102
{ACAD_REACTORS
330
23A
330
23B
102
}
330
71
100
AcDbEntity
  8
0
  6
Continuous
 62
     2
100
AcDbLine
 10
102.2648112099977
 20
333.9734406060268
 30
0.0
 11
105.4151309337786
 21
333.9734406060268
 31
0.0
  0
LINE
  5
146
102
{ACAD_REACTORS
330
23A
330
23B
102
}
330
71
100
AcDbEntity
  8
0
  6
Continuous
 62
     2
100
AcDbLine
 10
102.2648112099977
 20
337.027250129838
 30
0.0
 11
105.4151309337786
 21
337.027250129838
 31
0.0
  0
LINE
  5
147
102
{ACAD_REACTORS
330
23A
330
23B
102
}
330
71
100
AcDbEntity
  8
0
  6
Continuous
 62
     2
100
AcDbLine
 10
105.4151309337786
 20
336.329236524395
 30
0.0
 11
105.4151309337786
 21
337.027250129838
 31
0.0
  0
LINE
  5
148
102
{ACAD_REACTORS
330
24C
330
24D
102
}
330
71
100
AcDbEntity
  8
0
  6
Continuous
 62
     2
100
AcDbLine
 10
99.40345571485764
 20
335.9584167965033
 30
0.0
 11
99.40345571485764
 21
337.027250129838
 31
0.0
  0
LINE
  5
149
102
{ACAD_REACTORS
330
24C
330
24D
102
}
330
71
100
AcDbEntity
  8
0
  6
Continuous
 62
     2
100
AcDbLine
 10
99.40345571485764
 20
337.027250129838
 30
0.0
 11
100.596248417024
 21
337.027250129838
 31
0.0
  0
LINE
  5
14A
102
{ACAD_REACTORS
330
24C
330
24D
102
}
330
71
100
AcDbEntity
  8
0
  6
Continuous
 62
     2
100
AcDbLine
 10
99.40345571485764
 20
335.1077127148706
 30
0.0
 11
98.35379813695016
 21
335.1077127148706
 31
0.0
  0
LINE
  5
14B
102
{ACAD_REACTORS
330
24C
330
24D
102
}
330
71
100
AcDbEntity
  8
0
  6
Continuous
 62
     2
100
AcDbLine
 10
98.35379813695016
 20
335.1077127148706
 30
0.0
 11
98.35379813695016
 21
333.9734406060268
 31
0.0
  0
LINE
  5
14C
102
{ACAD_REACTORS
330
24C
330
24D
102
}
330
71
100
AcDbEntity
  8
0
  6
Continuous
 62
     2
100
AcDbLine
 10
97.16100543478356
 20
337.027250129838
 30
0.0
 11
97.16100543478356
 21
333.9734406060268
 31
0.0
  0
LINE
  5
14D
102
{ACAD_REACTORS
330
23E
330
23F
102
}
330
71
100
AcDbEntity
  8
0
  6
Continuous
 62
     2
100
AcDbLine
 10
95.20482540322996
 20
335.6584166350556
 30
0.0
 11
95.20482540322996
 21
336.3641442843979
 31
0.0
  0
LINE
  5
14E
102
{ACAD_REACTORS
330
23E
330
23F
102
}
330
71
100
AcDbEntity
  8
0
  6
Continuous
 62
     2
100
AcDbLine
 10
93.96432099297584
 20
333.9734406060268
 30
0.0
 11
95.20482540322996
 21
333.9734406060268
 31
0.0
  0
LINE
  5
14F
102
{ACAD_REACTORS
330
23E
330
23F
102
}
330
71
100
AcDbEntity
  8
0
  6
Continuous
 62
     2
100
AcDbLine
 10
95.20482540322996
 20
333.9734406060268
 30
0.0
 11
95.20482540322996
 21
334.9165188471706
 31
0.0
  0
LINE
  5
150
102
{ACAD_REACTORS
330
238
330
239
102
}
330
71
100
AcDbEntity
  8
0
  6
Continuous
 62
     2
100
AcDbLine
 10
89.65937514376446
 20
331.3268056854093
 30
0.0
 11
88.18354188275484
 21
331.3268056854093
 31
0.0
  0
LINE
  5
151
102
{ACAD_REACTORS
330
238
330
239
102
}
330
71
100
AcDbEntity
  8
0
  6
Continuous
 62
     2
100
AcDbLine
 10
87.16540259062555
 20
336.603005514436
 30
0.0
 11
87.16540259062555
 21
331.0384947452358
 31
0.0
  0
LINE
  5
152
102
{ACAD_REACTORS
330
238
330
239
102
}
330
71
100
AcDbEntity
  8
0
  6
Continuous
 62
     2
100
AcDbLine
 10
87.58964720600835
 20
337.0272501298198
 30
0.0
 11
93.06295929672515
 21
337.0272501298198
 31
0.0
  0
LINE
  5
153
102
{ACAD_REACTORS
330
238
330
239
102
}
330
71
100
AcDbEntity
  8
0
  6
Continuous
 62
     2
100
AcDbLine
 10
93.48720391210904
 20
336.603005514436
 30
0.0
 11
93.48720391210904
 21
331.0384947452358
 31
0.0
  0
LINE
  5
154
102
{ACAD_REACTORS
330
238
330
239
102
}
330
71
100
AcDbEntity
  8
0
  6
Continuous
 62
     2
100
AcDbLine
 10
93.06295929672515
 20
330.6142501298525
 30
0.0
 11
87.58964720600835
 21
330.6142501298525
 31
0.0
  0
LINE
  5
155
102
{ACAD_REACTORS
330
238
330
239
102
}
330
71
100
AcDbEntity
  8
0
  6
Continuous
 62
     2
100
AcDbLine
 10
89.97509206684106
 20
331.6425226084861
 30
0.0
 11
89.97509206684106
 21
333.1732935400177
 31
0.0
  0
LINE
  5
156
102
{ACAD_REACTORS
330
238
330
239
102
}
330
71
100
AcDbEntity
  8
0
  6
Continuous
 62
     2
100
AcDbLine
 10
89.97509206684106
 20
335.3949530321427
 30
0.0
 11
89.97509206684106
 21
335.9989776512032
 31
0.0
  0
LINE
  5
157
102
{ACAD_REACTORS
330
238
330
239
102
}
330
71
100
AcDbEntity
  8
0
  6
Continuous
 62
     2
100
AcDbLine
 10
88.18354188275484
 20
336.3146945742793
 30
0.0
 11
89.65937514376446
 21
336.3146945742793
 31
0.0
  0
LINE
  5
158
102
{ACAD_REACTORS
330
238
330
239
102
}
330
71
100
AcDbEntity
  8
0
  6
Continuous
 62
     2
100
AcDbLine
 10
87.86782495967915
 20
335.9989776512032
 30
0.0
 11
87.86782495967915
 21
331.6425226084861
 31
0.0
  0
LINE
  5
159
102
{ACAD_REACTORS
330
23E
330
23F
102
}
330
71
100
AcDbEntity
  8
0
  6
Continuous
 62
     2
100
AcDbLine
 10
95.20482540322996
 20
334.9165188471706
 30
0.0
 11
95.96359299101024
 21
334.9165188471706
 31
0.0
  0
LINE
  5
15A
102
{ACAD_REACTORS
330
23E
330
23F
102
}
330
71
100
AcDbEntity
  8
0
  6
Continuous
 62
     2
100
AcDbLine
 10
93.96432099297584
 20
337.027250129838
 30
0.0
 11
95.96359299101024
 21
337.027250129838
 31
0.0
  0
LINE
  5
15B
102
{ACAD_REACTORS
330
23E
330
23F
102
}
330
71
100
AcDbEntity
  8
0
  6
Continuous
 62
     2
100
AcDbLine
 10
93.96432099297584
 20
337.027250129838
 30
0.0
 11
93.96432099297584
 21
333.9734406060268
 31
0.0
  0
LINE
  5
15C
102
{ACAD_REACTORS
330
23E
330
23F
102
}
330
71
100
AcDbEntity
  8
0
  6
Continuous
 62
     2
100
AcDbLine
 10
95.20482540322996
 20
335.6584166350556
 30
0.0
 11
95.52212046477186
 21
335.6584166350556
 31
0.0
  0
LINE
  5
15D
102
{ACAD_REACTORS
330
23E
330
23F
102
}
330
71
100
AcDbEntity
  8
0
  6
Continuous
 62
     2
100
AcDbLine
 10
95.20482540322996
 20
336.3641442843979
 30
0.0
 11
95.52212046477186
 21
336.3641442843979
 31
0.0
  0
LINE
  5
15E
102
{ACAD_REACTORS
330
24C
330
24D
102
}
330
71
100
AcDbEntity
  8
0
  6
Continuous
 62
     2
100
AcDbLine
 10
98.35379813695016
 20
335.9584167965033
 30
0.0
 11
99.40345571485764
 21
335.9584167965033
 31
0.0
  0
LINE
  5
15F
102
{ACAD_REACTORS
330
24C
330
24D
102
}
330
71
100
AcDbEntity
  8
0
  6
Continuous
 62
     2
100
AcDbLine
 10
98.35379813695016
 20
337.027250129838
 30
0.0
 11
98.35379813695016
 21
335.9584167965033
 31
0.0
  0
LINE
  5
160
102
{ACAD_REACTORS
330
24C
330
24D
102
}
330
71
100
AcDbEntity
  8
0
  6
Continuous
 62
     2
100
AcDbLine
 10
97.16100543478356
 20
337.027250129838
 30
0.0
 11
98.35379813695016
 21
337.027250129838
 31
0.0
  0
LINE
  5
161
102
{ACAD_REACTORS
330
24C
330
24D
102
}
330
71
100
AcDbEntity
  8
0
  6
Continuous
 62
     2
100
AcDbLine
 10
98.35379813695016
 20
333.9734406060268
 30
0.0
 11
97.16100543478356
 21
333.9734406060268
 31
0.0
  0
LINE
  5
162
102
{ACAD_REACTORS
330
24C
330
24D
102
}
330
71
100
AcDbEntity
  8
0
  6
Continuous
 62
     2
100
AcDbLine
 10
99.40345571485764
 20
333.9734406060268
 30
0.0
 11
99.40345571485764
 21
335.1077127148706
 31
0.0
  0
LINE
  5
163
102
{ACAD_REACTORS
330
24C
330
24D
102
}
330
71
100
AcDbEntity
  8
0
  6
Continuous
 62
     2
100
AcDbLine
 10
100.596248417024
 20
333.9734406060268
 30
0.0
 11
99.40345571485764
 21
333.9734406060268
 31
0.0
  0
LINE
  5
164
102
{ACAD_REACTORS
330
24C
330
24D
102
}
330
71
100
AcDbEntity
  8
0
  6
Continuous
 62
     2
100
AcDbLine
 10
100.596248417024
 20
337.027250129838
 30
0.0
 11
100.596248417024
 21
333.9734406060268
 31
0.0
  0
LINE
  5
165
102
{ACAD_REACTORS
330
23A
330
23B
102
}
330
71
100
AcDbEntity
  8
0
  6
Continuous
 62
     2
100
AcDbLine
 10
104.079203107351
 20
335.151338565211
 30
0.0
 11
105.4151309337786
 21
335.151338565211
 31
0.0
  0
LINE
  5
166
102
{ACAD_REACTORS
330
23A
330
23B
102
}
330
71
100
AcDbEntity
  8
0
  6
Continuous
 62
     2
100
AcDbLine
 10
105.4151309337786
 20
335.151338565211
 30
0.0
 11
105.4151309337786
 21
335.8493521706532
 31
0.0
  0
LINE
  5
167
102
{ACAD_REACTORS
330
23A
330
23B
102
}
330
71
100
AcDbEntity
  8
0
  6
Continuous
 62
     2
100
AcDbLine
 10
105.4151309337786
 20
335.8493521706532
 30
0.0
 11
104.079203107351
 21
335.8493521706532
 31
0.0
  0
LINE
  5
168
102
{ACAD_REACTORS
330
23A
330
23B
102
}
330
71
100
AcDbEntity
  8
0
  6
Continuous
 62
     2
100
AcDbLine
 10
104.079203107351
 20
335.8493521706532
 30
0.0
 11
104.079203107351
 21
336.329236524395
 31
0.0
  0
LINE
  5
169
102
{ACAD_REACTORS
330
24A
330
24B
102
}
330
71
100
AcDbEntity
  8
0
  6
Continuous
 62
     2
100
AcDbLine
 10
100.4052506537919
 20
330.6142501298525
 30
0.0
 11
101.5980433559595
 21
330.6142501298525
 31
0.0
  0
LINE
  5
16A
102
{ACAD_REACTORS
330
24A
330
24B
102
}
330
71
100
AcDbEntity
  8
0
  6
Continuous
 62
     2
100
AcDbLine
 10
102.8385477662123
 20
330.6142501298525
 30
0.0
 11
104.0313404683787
 21
330.6142501298525
 31
0.0
  0
LINE
  5
16B
102
{ACAD_REACTORS
330
24A
330
24B
102
}
330
71
100
AcDbEntity
  8
0
  6
Continuous
 62
     2
100
AcDbLine
 10
101.5980433559595
 20
333.6680596536635
 30
0.0
 11
100.4052506537919
 21
333.6680596536635
 31
0.0
  0
LINE
  5
16C
102
{ACAD_REACTORS
330
24A
330
24B
102
}
330
71
100
AcDbEntity
  8
0
  6
Continuous
 62
     2
100
AcDbLine
 10
100.4052506537919
 20
333.6680596536635
 30
0.0
 11
100.4052506537919
 21
330.6142501298525
 31
0.0
  0
LINE
  5
16D
102
{ACAD_REACTORS
330
248
330
249
102
}
330
71
100
AcDbEntity
  8
0
  6
Continuous
 62
     2
100
AcDbLine
 10
108.0869865866321
 20
337.027250129838
 30
0.0
 11
108.0869865866321
 21
335.7184746196327
 31
0.0
  0
LINE
  5
16E
102
{ACAD_REACTORS
330
248
330
249
102
}
330
71
100
AcDbEntity
  8
0
  6
Continuous
 62
     2
100
AcDbLine
 10
106.8464821763781
 20
337.027250129838
 30
0.0
 11
105.6536894742116
 21
337.027250129838
 31
0.0
  0
LINE
  5
16F
102
{ACAD_REACTORS
330
248
330
249
102
}
330
71
100
AcDbEntity
  8
0
  6
Continuous
 62
     2
100
AcDbLine
 10
105.6536894742116
 20
337.027250129838
 30
0.0
 11
105.6536894742116
 21
333.9734406060268
 31
0.0
  0
LINE
  5
170
102
{ACAD_REACTORS
330
248
330
249
102
}
330
71
100
AcDbEntity
  8
0
  6
Continuous
 62
     2
100
AcDbLine
 10
106.8464821763781
 20
333.9734406060268
 30
0.0
 11
106.8464821763781
 21
335.2822161162314
 31
0.0
  0
LINE
  5
171
102
{ACAD_REACTORS
330
246
330
247
102
}
330
71
100
AcDbEntity
  8
0
  6
Continuous
 62
     2
100
AcDbLine
 10
106.1783673322801
 20
330.6142501298525
 30
0.0
 11
106.1783673322801
 21
332.88279434754
 31
0.0
  0
LINE
  5
172
102
{ACAD_REACTORS
330
246
330
247
102
}
330
71
100
AcDbEntity
  8
0
  6
Continuous
 62
     2
100
AcDbLine
 10
106.1783673322801
 20
332.88279434754
 30
0.0
 11
106.9894663697526
 21
332.88279434754
 31
0.0
  0
LINE
  5
173
102
{ACAD_REACTORS
330
246
330
247
102
}
330
71
100
AcDbEntity
  8
0
  6
Continuous
 62
     2
100
AcDbLine
 10
106.9894663697526
 20
332.88279434754
 30
0.0
 11
106.9894663697526
 21
333.6680596536635
 31
0.0
  0
LINE
  5
174
102
{ACAD_REACTORS
330
246
330
247
102
}
330
71
100
AcDbEntity
  8
0
  6
Continuous
 62
     2
100
AcDbLine
 10
106.9894663697526
 20
333.6680596536635
 30
0.0
 11
104.1744755926389
 21
333.6680596536635
 31
0.0
  0
LINE
  5
175
102
{ACAD_REACTORS
330
246
330
247
102
}
330
71
100
AcDbEntity
  8
0
  6
Continuous
 62
     2
100
AcDbLine
 10
104.1744755926389
 20
332.88279434754
 30
0.0
 11
104.9855746301136
 21
332.88279434754
 31
0.0
  0
LINE
  5
176
102
{ACAD_REACTORS
330
244
330
245
102
}
330
71
100
AcDbEntity
  8
0
  6
Continuous
 62
     2
100
AcDbLine
 10
107.78397219555
 20
331.1552106740703
 30
0.0
 11
108.9164137722238
 21
331.1552106740703
 31
0.0
  0
LINE
  5
177
102
{ACAD_REACTORS
330
244
330
245
102
}
330
71
100
AcDbEntity
  8
0
  6
Continuous
 62
     2
100
AcDbLine
 10
110.3683982359535
 20
330.6142501298525
 30
0.0
 11
109.1278938256995
 21
330.6142501298525
 31
0.0
  0
LINE
  5
178
102
{ACAD_REACTORS
330
244
330
245
102
}
330
71
100
AcDbEntity
  8
0
  6
Continuous
 62
     2
100
AcDbLine
 10
107.7299407787605
 20
333.6680596536635
 30
0.0
 11
106.3319877318212
 21
330.6142501298525
 31
0.0
  0
LINE
  5
179
102
{ACAD_REACTORS
330
244
330
245
102
}
330
71
100
AcDbEntity
  8
0
  6
Continuous
 62
     2
100
AcDbLine
 10
107.5724921420741
 20
330.6142501298525
 30
0.0
 11
107.78397219555
 21
331.1552106740703
 31
0.0
  0
LINE
  5
17A
102
{ACAD_REACTORS
330
244
330
245
102
}
330
71
100
AcDbEntity
  8
0
  6
Continuous
 62
     2
100
AcDbLine
 10
108.050027746695
 20
331.835773939377
 30
0.0
 11
108.3501929838874
 21
332.6035889053636
 31
0.0
  0
LINE
  5
17B
102
{ACAD_REACTORS
330
242
330
243
102
}
330
71
100
AcDbEntity
  8
0
  6
Continuous
 62
     2
100
AcDbLine
 10
109.5183378292326
 20
333.9734406060268
 30
0.0
 11
109.5183378292326
 21
337.027250129838
 31
0.0
  0
LINE
  5
17C
102
{ACAD_REACTORS
330
242
330
243
102
}
330
71
100
AcDbEntity
  8
0
  6
Continuous
 62
     2
100
AcDbLine
 10
110.7588422394855
 20
337.027250129838
 30
0.0
 11
110.7588422394855
 21
333.9734406060268
 31
0.0
  0
LINE
  5
17D
102
{ACAD_REACTORS
330
242
330
243
102
}
330
71
100
AcDbEntity
  8
0
  6
Continuous
 62
     2
100
AcDbLine
 10
109.5183378292326
 20
337.027250129838
 30
0.0
 11
110.7588422394855
 21
337.027250129838
 31
0.0
  0
LINE
  5
17E
102
{ACAD_REACTORS
330
240
330
241
102
}
330
71
100
AcDbEntity
  8
0
  6
Continuous
 62
     2
100
AcDbLine
 10
112.9774366655163
 20
334.7611723913204
 30
0.0
 11
113.6740276035818
 21
333.9734406060268
 31
0.0
  0
LINE
  5
17F
102
{ACAD_REACTORS
330
240
330
241
102
}
330
71
100
AcDbEntity
  8
0
  6
Continuous
 62
     2
100
AcDbLine
 10
113.6740276035818
 20
333.9734406060268
 30
0.0
 11
115.0767518213301
 21
333.9734406060268
 31
0.0
  0
LINE
  5
180
102
{ACAD_REACTORS
330
240
330
241
102
}
330
71
100
AcDbEntity
  8
0
  6
Continuous
 62
     2
100
AcDbLine
 10
113.6787987743898
 20
335.5542995998018
 30
0.0
 11
115.0767518213301
 21
333.9734406060268
 31
0.0
  0
LINE
  5
181
102
{ACAD_REACTORS
330
240
330
241
102
}
330
71
100
AcDbEntity
  8
0
  6
Continuous
 62
     2
100
AcDbLine
 10
113.6787987743898
 20
335.5542995998018
 30
0.0
 11
114.9813284051563
 21
337.027250129838
 31
0.0
  0
LINE
  5
182
102
{ACAD_REACTORS
330
240
330
241
102
}
330
71
100
AcDbEntity
  8
0
  6
Continuous
 62
     2
100
AcDbLine
 10
112.9774366655163
 20
336.3474268082824
 30
0.0
 11
113.578604187409
 21
337.027250129838
 31
0.0
  0
LINE
  5
183
102
{ACAD_REACTORS
330
240
330
241
102
}
330
71
100
AcDbEntity
  8
0
  6
Continuous
 62
     2
100
AcDbLine
 10
112.3762691436245
 20
337.027250129838
 30
0.0
 11
112.9774366655163
 21
336.3474268082824
 31
0.0
  0
LINE
  5
184
102
{ACAD_REACTORS
330
240
330
241
102
}
330
71
100
AcDbEntity
  8
0
  6
Continuous
 62
     2
100
AcDbLine
 10
112.3762691436245
 20
337.027250129838
 30
0.0
 11
110.9735449258752
 21
337.027250129838
 31
0.0
  0
LINE
  5
185
102
{ACAD_REACTORS
330
236
330
237
102
}
330
71
100
AcDbEntity
  8
0
  6
Continuous
 62
     2
100
AcDbLine
 10
113.072860081689
 20
330.6142501298525
 30
0.0
 11
114.2656527838567
 21
330.6142501298525
 31
0.0
  0
LINE
  5
186
102
{ACAD_REACTORS
330
236
330
237
102
}
330
71
100
AcDbEntity
  8
0
  6
Continuous
 62
     2
100
AcDbLine
 10
114.2656527838567
 20
330.6142501298525
 30
0.0
 11
114.2656527838567
 21
332.88279434754
 31
0.0
  0
LINE
  5
187
102
{ACAD_REACTORS
330
236
330
237
102
}
330
71
100
AcDbEntity
  8
0
  6
Continuous
 62
     2
100
AcDbLine
 10
114.2656527838567
 20
332.88279434754
 30
0.0
 11
115.0767518213301
 21
332.88279434754
 31
0.0
  0
LINE
  5
188
102
{ACAD_REACTORS
330
236
330
237
102
}
330
71
100
AcDbEntity
  8
0
  6
Continuous
 62
     2
100
AcDbLine
 10
115.0767518213301
 20
332.88279434754
 30
0.0
 11
115.0767518213301
 21
333.6680596536635
 31
0.0
  0
LINE
  5
189
102
{ACAD_REACTORS
330
236
330
237
102
}
330
71
100
AcDbEntity
  8
0
  6
Continuous
 62
     2
100
AcDbLine
 10
111.6918063027014
 20
333.668059653663
 30
0.0
 11
115.0767518213301
 21
333.6680596536635
 31
0.0
  0
LINE
  5
18A
102
{ACAD_REACTORS
330
236
330
237
102
}
330
71
100
AcDbEntity
  8
0
  6
Continuous
 62
     2
100
AcDbLine
 10
113.072860081689
 20
332.88279434754
 30
0.0
 11
113.072860081689
 21
330.6142501298525
 31
0.0
  0
LINE
  5
18B
102
{ACAD_REACTORS
330
238
330
239
102
}
330
71
100
AcDbEntity
  8
0
  6
Continuous
 62
     2
100
AcDbLine
 10
90.44337364620975
 20
332.593130279417
 30
0.0
 11
90.44337364620975
 21
333.174981686112
 31
0.0
  0
LINE
  5
18C
102
{ACAD_REACTORS
330
238
330
239
102
}
330
71
100
AcDbEntity
  8
0
  6
Continuous
 62
     2
100
AcDbLine
 10
90.44337364620975
 20
335.3932648860483
 30
0.0
 11
90.44337364620975
 21
335.9988001745551
 31
0.0
  0
LINE
  5
18D
330
71
100
AcDbEntity
  8
1
  6
Continuous
 62
     6
100
AcDbLine
 10
68.97355223081297
 20
323.3207501298361
 30
0.0
 11
82.92874770406294
 21
323.320750129836
 31
0.0
  0
LINE
  5
18E
330
71
100
AcDbEntity
  8
1
  6
Continuous
 62
     6
100
AcDbLine
 10
18.97355223081274
 20
323.3207501298361
 30
0.0
 11
13.92874770406297
 21
323.3207501298361
 31
0.0
  0
LINE
  5
18F
330
71
100
AcDbEntity
  8
1
  6
Continuous
 62
     6
100
AcDbLine
 10
168.9735522308129
 20
323.3207501298361
 30
0.0
 11
212.473552230813
 21
323.3207501298361
 31
0.0
  0
LINE
  5
190
330
71
100
AcDbEntity
  8
1
  6
Continuous
 62
     6
100
AcDbLine
 10
118.9735522308129
 20
323.3207501298361
 30
0.0
 11
101.128747704063
 21
323.3207501298361
 31
0.0
  0
LINE
  5
191
330
71
100
AcDbEntity
  8
1
  6
Continuous
 62
     2
100
AcDbLine
 10
212.473552230813
 20
323.3207501298361
 30
0.0
 11
217.473552230812
 21
323.3207501298361
 31
0.0
  0
LINE
  5
192
330
71
100
AcDbEntity
  8
1
  6
Continuous
 62
     2
100
AcDbLine
 10
212.473552230813
 20
323.3207501298361
 30
0.0
 11
212.473552230813
 21
318.320750129836
 31
0.0
  0
LINE
  5
193
330
71
100
AcDbEntity
  8
1
  6
Continuous
 62
     6
100
AcDbLine
 10
82.92874770406294
 20
340.3207501298361
 30
0.0
 11
119.3287477040629
 21
340.3207501298361
 31
0.0
  0
LINE
  5
194
330
71
100
AcDbEntity
  8
1
  6
Continuous
 62
     2
100
AcDbLine
 10
217.473552230812
 20
318.320750129836
 30
0.0
 11
217.473552230812
 21
323.3207501298361
 31
0.0
  0
LINE
  5
195
330
71
100
AcDbEntity
  8
1
  6
Continuous
 62
     2
100
AcDbLine
 10
217.473552230812
 20
318.320750129836
 30
0.0
 11
212.473552230813
 21
318.320750129836
 31
0.0
  0
LINE
  5
196
330
71
100
AcDbEntity
  8
1
  6
Continuous
 62
     2
100
AcDbLine
 10
212.473552230813
 20
318.320750129836
 30
0.0
 11
168.9735522308129
 21
318.320750129836
 31
0.0
  0
LINE
  5
197
330
71
100
AcDbEntity
  8
1
  6
Continuous
 62
     6
100
AcDbLine
 10
212.4735522308147
 20
340.3207501298361
 30
0.0
 11
212.4735522308139
 21
373.3207501298363
 31
0.0
  0
LINE
  5
198
330
71
100
AcDbEntity
  8
1
  6
Continuous
 62
     2
100
AcDbLine
 10
217.473552230812
 20
528.3207501298361
 30
0.0
 11
68.97355223081297
 21
528.3207501298361
 31
0.0
  0
LINE
  5
199
330
71
100
AcDbEntity
  8
1
  6
Continuous
 62
     6
100
AcDbLine
 10
212.473552230812
 20
508.3207501298361
 30
0.0
 11
-74.52644776918612
 21
508.3207501298361
 31
0.0
  0
LINE
  5
19A
330
71
100
AcDbEntity
  8
1
  6
Continuous
 62
     2
100
AcDbLine
 10
212.4735522308139
 20
373.3207501298363
 30
0.0
 11
217.473552230812
 21
373.3207501298363
 31
0.0
  0
LINE
  5
19B
330
71
100
AcDbEntity
  8
1
  6
Continuous
 62
     6
100
AcDbLine
 10
212.4735522308139
 20
373.3207501298363
 30
0.0
 11
212.4735522308134
 21
423.320750129836
 31
0.0
  0
LINE
  5
19C
330
71
100
AcDbEntity
  8
1
  6
Continuous
 62
     2
100
AcDbLine
 10
217.473552230812
 20
373.3207501298363
 30
0.0
 11
217.473552230812
 21
423.320750129836
 31
0.0
  0
LINE
  5
19D
330
71
100
AcDbEntity
  8
1
  6
Continuous
 62
     2
100
AcDbLine
 10
212.4735522308134
 20
423.320750129836
 30
0.0
 11
217.473552230812
 21
423.320750129836
 31
0.0
  0
LINE
  5
19E
330
71
100
AcDbEntity
  8
1
  6
Continuous
 62
     6
100
AcDbLine
 10
212.4735522308134
 20
423.320750129836
 30
0.0
 11
212.4735522308122
 21
473.3207501298361
 31
0.0
  0
LINE
  5
19F
330
71
100
AcDbEntity
  8
1
  6
Continuous
 62
     2
100
AcDbLine
 10
217.473552230812
 20
423.320750129836
 30
0.0
 11
217.473552230812
 21
473.3207501298361
 31
0.0
  0
LINE
  5
1A0
330
71
100
AcDbEntity
  8
1
  6
Continuous
 62
     2
100
AcDbLine
 10
212.4735522308122
 20
473.3207501298361
 30
0.0
 11
217.473552230812
 21
473.3207501298361
 31
0.0
  0
LINE
  5
1A1
330
71
100
AcDbEntity
  8
1
  6
Continuous
 62
     6
100
AcDbLine
 10
212.4735522308122
 20
473.3207501298361
 30
0.0
 11
212.473552230812
 21
508.3207501298361
 31
0.0
  0
LINE
  5
1A2
330
71
100
AcDbEntity
  8
1
  6
Continuous
 62
     2
100
AcDbLine
 10
217.473552230812
 20
473.3207501298361
 30
0.0
 11
217.473552230812
 21
528.3207501298361
 31
0.0
  0
LINE
  5
1A3
330
71
100
AcDbEntity
  8
1
  6
Continuous
 62
     2
100
AcDbLine
 10
217.473552230812
 20
323.3207501298361
 30
0.0
 11
217.473552230812
 21
373.3207501298363
 31
0.0
  0
LINE
  5
1A4
330
71
100
AcDbEntity
  8
1
  6
Continuous
 62
     2
100
AcDbLine
 10
68.97355223081297
 20
528.3207501298361
 30
0.0
 11
-79.52644776918612
 21
528.3207501298361
 31
0.0
  0
LINE
  5
1A5
330
71
100
AcDbEntity
  8
1
  6
Continuous
 62
     2
100
AcDbLine
 10
68.97355223081297
 20
528.3207501298361
 30
0.0
 11
68.97355223081297
 21
519.1120582851348
 31
0.0
  0
LINE
  5
1A6
330
71
100
AcDbEntity
  8
1
  6
Continuous
 62
     2
100
AcDbLine
 10
-79.52644776918612
 20
318.320750129836
 30
0.0
 11
-74.52644776918515
 21
318.320750129836
 31
0.0
  0
LINE
  5
1A7
330
71
100
AcDbEntity
  8
1
  6
Continuous
 62
     2
100
AcDbLine
 10
-79.52644776918612
 20
528.3207501298361
 30
0.0
 11
-79.52644776918612
 21
473.3207501298361
 31
0.0
  0
LINE
  5
1A8
330
71
100
AcDbEntity
  8
1
  6
Continuous
 62
     6
100
AcDbLine
 10
-74.52644776918612
 20
508.3207501298361
 30
0.0
 11
-74.52644776918606
 21
473.3207501298361
 31
0.0
  0
LINE
  5
1A9
330
71
100
AcDbEntity
  8
1
  6
Continuous
 62
     2
100
AcDbLine
 10
-79.52644776918612
 20
473.3207501298361
 30
0.0
 11
-74.52644776918606
 21
473.3207501298361
 31
0.0
  0
LINE
  5
1AA
330
71
100
AcDbEntity
  8
1
  6
Continuous
 62
     2
100
AcDbLine
 10
-79.52644776918612
 20
473.3207501298361
 30
0.0
 11
-79.52644776918612
 21
423.320750129836
 31
0.0
  0
LINE
  5
1AB
330
71
100
AcDbEntity
  8
1
  6
Continuous
 62
     6
100
AcDbLine
 10
-74.52644776918606
 20
473.3207501298361
 30
0.0
 11
-74.52644776918555
 21
423.320750129836
 31
0.0
  0
LINE
  5
1AC
330
71
100
AcDbEntity
  8
1
  6
Continuous
 62
     2
100
AcDbLine
 10
-79.52644776918612
 20
423.320750129836
 30
0.0
 11
-74.52644776918555
 21
423.320750129836
 31
0.0
  0
LINE
  5
1AD
330
71
100
AcDbEntity
  8
1
  6
Continuous
 62
     2
100
AcDbLine
 10
-79.52644776918612
 20
423.320750129836
 30
0.0
 11
-79.52644776918612
 21
373.3207501298363
 31
0.0
  0
LINE
  5
1AE
330
71
100
AcDbEntity
  8
1
  6
Continuous
 62
     6
100
AcDbLine
 10
-74.52644776918555
 20
423.320750129836
 30
0.0
 11
-74.52644776918532
 21
373.3207501298363
 31
0.0
  0
LINE
  5
1AF
330
71
100
AcDbEntity
  8
1
  6
Continuous
 62
     2
100
AcDbLine
 10
-79.52644776918612
 20
373.3207501298363
 30
0.0
 11
-74.52644776918532
 21
373.3207501298363
 31
0.0
  0
LINE
  5
1B0
330
71
100
AcDbEntity
  8
1
  6
Continuous
 62
     2
100
AcDbLine
 10
-79.52644776918612
 20
373.3207501298363
 30
0.0
 11
-79.52644776918612
 21
323.3207501298361
 31
0.0
  0
LINE
  5
1B1
330
71
100
AcDbEntity
  8
1
  6
Continuous
 62
     6
100
AcDbLine
 10
-74.52644776918532
 20
373.3207501298363
 30
0.0
 11
-74.52644776918515
 21
323.3207501298361
 31
0.0
  0
LINE
  5
1B2
330
71
100
AcDbEntity
  8
1
  6
Continuous
 62
     2
100
AcDbLine
 10
-31.02644776918703
 20
318.320750129836
 30
0.0
 11
-31.02644776918703
 21
323.3207501298361
 31
0.0
  0
LINE
  5
1B3
330
71
100
AcDbEntity
  8
1
  6
Continuous
 62
     2
100
AcDbLine
 10
-31.02644776918703
 20
318.320750129836
 30
0.0
 11
18.97355223081274
 21
318.320750129836
 31
0.0
  0
LINE
  5
1B4
330
71
100
AcDbEntity
  8
1
  6
Continuous
 62
     2
100
AcDbLine
 10
18.97355223081274
 20
318.320750129836
 30
0.0
 11
18.97355223081274
 21
323.3207501298361
 31
0.0
  0
LINE
  5
1B5
330
71
100
AcDbEntity
  8
1
  6
Continuous
 62
     2
100
AcDbLine
 10
18.97355223081274
 20
318.320750129836
 30
0.0
 11
68.97355223081297
 21
318.320750129836
 31
0.0
  0
LINE
  5
1B6
330
71
100
AcDbEntity
  8
1
  6
Continuous
 62
     2
100
AcDbLine
 10
68.97355223081297
 20
318.320750129836
 30
0.0
 11
68.97355223081297
 21
323.3207501298361
 31
0.0
  0
LINE
  5
1B7
330
71
100
AcDbEntity
  8
1
  6
Continuous
 62
     2
100
AcDbLine
 10
68.97355223081297
 20
318.320750129836
 30
0.0
 11
118.9735522308129
 21
318.320750129836
 31
0.0
  0
LINE
  5
1B8
330
71
100
AcDbEntity
  8
1
  6
Continuous
 62
     2
100
AcDbLine
 10
118.9735522308129
 20
318.320750129836
 30
0.0
 11
118.9735522308129
 21
323.3207501298361
 31
0.0
  0
LINE
  5
1B9
330
71
100
AcDbEntity
  8
1
  6
Continuous
 62
     2
100
AcDbLine
 10
168.9735522308129
 20
318.320750129836
 30
0.0
 11
168.9735522308129
 21
323.3207501298361
 31
0.0
  0
LINE
  5
1BA
330
71
100
AcDbEntity
  8
1
  6
Continuous
 62
     2
100
AcDbLine
 10
168.9735522308129
 20
318.320750129836
 30
0.0
 11
118.9735522308129
 21
318.320750129836
 31
0.0
  0
LINE
  5
1BB
330
71
100
AcDbEntity
  8
1
  6
Continuous
 62
     2
100
AcDbLine
 10
-74.52644776918515
 20
323.3207501298361
 30
0.0
 11
-74.52644776918515
 21
318.320750129836
 31
0.0
  0
LINE
  5
1BC
330
71
100
AcDbEntity
  8
1
  6
Continuous
 62
     2
100
AcDbLine
 10
-74.52644776918515
 20
318.320750129836
 30
0.0
 11
-31.02644776918703
 21
318.320750129836
 31
0.0
  0
LINE
  5
1BD
330
71
100
AcDbEntity
  8
1
  6
Continuous
 62
     2
100
AcDbLine
 10
-74.52644776918515
 20
323.3207501298361
 30
0.0
 11
-79.52644776918612
 21
323.3207501298361
 31
0.0
  0
LINE
  5
1BE
330
71
100
AcDbEntity
  8
1
  6
Continuous
 62
     2
100
AcDbLine
 10
-79.52644776918612
 20
323.3207501298361
 30
0.0
 11
-79.52644776918612
 21
318.320750129836
 31
0.0
  0
LINE
  5
1BF
330
71
100
AcDbEntity
  8
1
  6
Continuous
 62
     6
100
AcDbLine
 10
212.473552230813
 20
323.3207501298361
 30
0.0
 11
212.4735522308143
 21
331.8207501298361
 31
0.0
  0
LINE
  5
1C0
330
71
100
AcDbEntity
  8
1
  6
Continuous
 62
     6
100
AcDbLine
 10
119.3287477040629
 20
323.320750129836
 30
0.0
 11
168.9735522308129
 21
323.3207501298361
 31
0.0
  0
LINE
  5
1C1
330
71
100
AcDbEntity
  8
1
  6
Continuous
 62
     6
100
AcDbLine
 10
-33.32644776918727
 20
323.320750129836
 30
0.0
 11
-31.02644776918703
 21
323.3207501298361
 31
0.0
  0
LINE
  5
1C2
330
71
100
AcDbEntity
  8
1
  6
Continuous
 62
     6
100
AcDbLine
 10
68.97355223081297
 20
323.3207501298361
 30
0.0
 11
18.97355223081274
 21
323.3207501298361
 31
0.0
  0
LINE
  5
1C3
330
71
100
AcDbEntity
  8
1
  6
Continuous
 62
     7
100
AcDbLine
 10
82.92874770406294
 20
340.3207501298361
 30
0.0
 11
82.92874770406294
 21
327.570750129836
 31
0.0
  0
LINE
  5
1C4
330
71
100
AcDbEntity
  8
1
  6
Continuous
 62
     7
100
AcDbLine
 10
119.3287477040629
 20
340.3207501298361
 30
0.0
 11
119.3287477040629
 21
327.5707501298361
 31
0.0
  0
LINE
  5
1C5
330
71
100
AcDbEntity
  8
1
  6
Continuous
 62
     6
100
AcDbLine
 10
-33.32644776918727
 20
323.320750129836
 30
0.0
 11
-39.52644776918527
 21
323.3207501298361
 31
0.0
  0
LINE
  5
1C6
330
71
100
AcDbEntity
  8
1
  6
Continuous
 62
     6
100
AcDbLine
 10
119.3287477040629
 20
323.320750129836
 30
0.0
 11
118.9735522308129
 21
323.3207501298361
 31
0.0
  0
LINE
  5
1C7
330
71
100
AcDbEntity
  8
1
  6
Continuous
 62
     6
100
AcDbLine
 10
212.4735522308147
 20
340.3207501298361
 30
0.0
 11
212.4735522308143
 21
331.8207501298361
 31
0.0
  0
LINE
  5
1C8
330
71
100
AcDbEntity
  8
1
  6
Continuous
 62
     6
100
AcDbLine
 10
-39.52644776918527
 20
323.3207501298361
 30
0.0
 11
-74.52644776918515
 21
323.3207501298361
 31
0.0
  0
LINE
  5
1C9
330
71
100
AcDbEntity
  8
1
  6
Continuous
 62
     2
100
AcDbLine
 10
87.16540259062555
 20
345.695750129836
 30
0.0
 11
92.16540259062555
 21
346.945750129836
 31
0.0
  0
LINE
  5
1CA
330
71
100
AcDbEntity
  8
1
  6
Continuous
 62
     2
100
AcDbLine
 10
87.16540259062555
 20
343.195750129836
 30
0.0
 11
87.16540259062555
 21
345.695750129836
 31
0.0
  0
LINE
  5
1CB
330
71
100
AcDbEntity
  8
1
  6
Continuous
 62
     2
100
AcDbLine
 10
92.16540259062555
 20
341.945750129836
 30
0.0
 11
87.16540259062555
 21
343.195750129836
 31
0.0
  0
LINE
  5
1CC
330
71
100
AcDbEntity
  8
1
  6
Continuous
 62
     2
100
AcDbLine
 10
92.16540259062555
 20
346.945750129836
 30
0.0
 11
92.16540259062555
 21
341.945750129836
 31
0.0
  0
LINE
  5
1CD
330
71
100
AcDbEntity
  8
1
  6
Continuous
 62
     7
100
AcDbLine
 10
82.92874770406294
 20
327.570750129836
 30
0.0
 11
101.128747704063
 21
327.5707501298361
 31
0.0
  0
LINE
  5
1CE
330
71
100
AcDbEntity
  8
1
  6
Continuous
 62
     7
100
AcDbLine
 10
82.92874770406294
 20
327.570750129836
 30
0.0
 11
82.92874770406294
 21
323.320750129836
 31
0.0
  0
LINE
  5
1CF
330
71
100
AcDbEntity
  8
1
  6
Continuous
 62
     7
100
AcDbLine
 10
119.3287477040629
 20
327.5707501298361
 30
0.0
 11
119.3287477040629
 21
323.320750129836
 31
0.0
  0
LINE
  5
1D0
330
71
100
AcDbEntity
  8
1
  6
Continuous
 62
     7
100
AcDbLine
 10
101.128747704063
 20
327.5707501298361
 30
0.0
 11
101.128747704063
 21
323.3207501298361
 31
0.0
  0
LINE
  5
1D1
330
71
100
AcDbEntity
  8
1
  6
Continuous
 62
     6
100
AcDbLine
 10
101.128747704063
 20
323.3207501298361
 30
0.0
 11
82.92874770406294
 21
323.320750129836
 31
0.0
  0
LINE
  5
1D2
330
71
100
AcDbEntity
  8
1
  6
Continuous
 62
     7
100
AcDbLine
 10
101.128747704063
 20
327.5707501298361
 30
0.0
 11
119.3287477040629
 21
327.5707501298361
 31
0.0
  0
LINE
  5
1D3
330
71
100
AcDbEntity
  8
1
  6
Continuous
 62
     6
100
AcDbLine
 10
82.92874770406294
 20
348.8207501298361
 30
0.0
 11
212.4735522308147
 21
348.8207501298361
 31
0.0
  0
ARC
  5
1D4
102
{ACAD_REACTORS
330
23C
330
23D
102
}
330
71
100
AcDbEntity
  8
0
  6
Continuous
 62
     2
100
AcDbCircle
 10
98.32039570302294
 20
332.1411548917578
 30
0.0
 40
0.7717997786798
100
AcDbArc
 50
321.8795802028318
 51
38.12041979714499
  0
ARC
  5
1D5
102
{ACAD_REACTORS
330
23C
330
23D
102
}
330
71
100
AcDbEntity
  8
0
  6
Continuous
 62
     2
100
AcDbCircle
 10
98.52013573936935
 20
331.9844237136377
 30
0.0
 40
0.5179085730137529
100
AcDbArc
 50
218.1204197971956
 51
321.8795802027985
  0
ARC
  5
1D6
102
{ACAD_REACTORS
330
23C
330
23D
102
}
330
71
100
AcDbEntity
  8
0
  6
Continuous
 62
     2
100
AcDbCircle
 10
98.71987577571545
 20
332.1411548917578
 30
0.0
 40
0.7717997786793755
100
AcDbArc
 50
141.8795802028446
 51
218.1204197971787
  0
ARC
  5
1D7
102
{ACAD_REACTORS
330
23C
330
23D
102
}
330
71
100
AcDbEntity
  8
0
  6
Continuous
 62
     2
100
AcDbCircle
 10
98.52013573936935
 20
332.2978860698783
 30
0.0
 40
0.5179085730132297
100
AcDbArc
 50
38.12041979713714
 51
141.8795802028687
  0
ARC
  5
1D8
102
{ACAD_REACTORS
330
234
330
235
102
}
330
71
100
AcDbEntity
  8
0
  6
Continuous
 62
     2
100
AcDbCircle
 10
95.45812160380547
 20
330.7306885263496
 30
0.0
 40
2.227384008973501
100
AcDbArc
 50
58.06909105004111
 51
71.55192388186653
  0
ARC
  5
1D9
102
{ACAD_REACTORS
330
234
330
235
102
}
330
71
100
AcDbEntity
  8
0
  6
Continuous
 62
     2
100
AcDbCircle
 10
95.71984930476424
 20
332.3462263210968
 30
0.0
 40
0.5115800601948517
100
AcDbArc
 50
113.3722778882004
 51
151.4785267423044
  0
ARC
  5
1DA
102
{ACAD_REACTORS
330
234
330
235
102
}
330
71
100
AcDbEntity
  8
0
  6
Continuous
 62
     2
100
AcDbCircle
 10
96.09720656284455
 20
332.1411548917578
 30
0.0
 40
0.9410597353332545
100
AcDbArc
 50
151.4785267422669
 51
208.5214732577118
  0
ARC
  5
1DB
102
{ACAD_REACTORS
330
234
330
235
102
}
330
71
100
AcDbEntity
  8
0
  6
Continuous
 62
     2
100
AcDbCircle
 10
95.30024872871255
 20
335.4538358370141
 30
0.0
 40
4.85259686349811
100
AcDbArc
 50
275.158144769625
 51
285.9799912583529
  0
ARC
  5
1DC
102
{ACAD_REACTORS
330
234
330
235
102
}
330
71
100
AcDbEntity
  8
0
  6
Continuous
 62
     2
100
AcDbCircle
 10
95.58910482344845
 20
332.2539452537926
 30
0.0
 40
1.63969512393938
100
AcDbArc
 50
195.0618917770886
 51
275.1581447696393
  0
ARC
  5
1DD
102
{ACAD_REACTORS
330
234
330
235
102
}
330
71
100
AcDbEntity
  8
0
  6
Continuous
 62
     2
100
AcDbCircle
 10
95.16997697998565
 20
332.1411548917578
 30
0.0
 40
1.2056561683909
100
AcDbArc
 50
164.9381082228843
 51
195.0618917770948
  0
ARC
  5
1DE
102
{ACAD_REACTORS
330
234
330
235
102
}
330
71
100
AcDbEntity
  8
0
  6
Continuous
 62
     2
100
AcDbCircle
 10
95.58910482344845
 20
332.0283645297228
 30
0.0
 40
1.63969512394062
100
AcDbArc
 50
84.84185523036271
 51
164.9381082228884
  0
ARC
  5
1DF
102
{ACAD_REACTORS
330
238
330
239
102
}
330
71
100
AcDbEntity
  8
0
  6
Continuous
 62
     2
100
AcDbCircle
 10
90.75909056928654
 20
333.174981686112
 30
0.0
 40
0.3157169230765842
100
AcDbArc
 50
115.3740086783474
 51
180.0
  0
ARC
  5
1E0
102
{ACAD_REACTORS
330
238
330
239
102
}
330
71
100
AcDbEntity
  8
0
  6
Continuous
 62
     2
100
AcDbCircle
 10
90.75909056928654
 20
335.3932648860483
 30
0.0
 40
0.315716923076792
100
AcDbArc
 50
180.0
 51
244.625991321657
  0
ARC
  5
1E1
102
{ACAD_REACTORS
330
238
330
239
102
}
330
71
100
AcDbEntity
  8
0
  6
Continuous
 62
     2
100
AcDbCircle
 10
90.76470670459656
 20
334.2959652269859
 30
0.0
 40
2.018561131933266
100
AcDbArc
 50
269.8110329575858
 51
90.18896704241416
  0
ARC
  5
1E2
102
{ACAD_REACTORS
330
238
330
239
102
}
330
71
100
AcDbEntity
  8
0
  6
Continuous
 62
     2
100
AcDbCircle
 10
90.75909056928654
 20
332.593130279417
 30
0.0
 40
0.315716923076792
100
AcDbArc
 50
180.0
 51
269.8110329574542
  0
ARC
  5
1E3
102
{ACAD_REACTORS
330
236
330
237
102
}
330
71
100
AcDbEntity
  8
0
  6
Continuous
 62
     2
100
AcDbCircle
 10
111.8225507840172
 20
332.3462263210968
 30
0.0
 40
0.5115800601944096
100
AcDbArc
 50
109.3371432194838
 51
151.4785267424357
  0
ARC
  5
1E4
102
{ACAD_REACTORS
330
236
330
237
102
}
330
71
100
AcDbEntity
  8
0
  6
Continuous
 62
     2
100
AcDbCircle
 10
111.8225507840172
 20
331.9360834624192
 30
0.0
 40
0.5115800601959548
100
AcDbArc
 50
208.5214732576762
 51
246.6277221118413
  0
ARC
  5
1E5
102
{ACAD_REACTORS
330
236
330
237
102
}
330
71
100
AcDbEntity
  8
0
  6
Continuous
 62
     2
100
AcDbCircle
 10
111.2726784592398
 20
332.1411548917578
 30
0.0
 40
1.20565616839304
100
AcDbArc
 50
164.9381082229117
 51
195.0618917771014
  0
ARC
  5
1E6
102
{ACAD_REACTORS
330
236
330
237
102
}
330
71
100
AcDbEntity
  8
0
  6
Continuous
 62
     2
100
AcDbCircle
 10
111.6918063027014
 20
332.0283645297228
 30
0.0
 40
1.639695123940214
100
AcDbArc
 50
90.0
 51
164.9381082228975
  0
ARC
  5
1E7
102
{ACAD_REACTORS
330
23A
330
23B
102
}
330
71
100
AcDbEntity
  8
0
  6
Continuous
 62
     2
100
AcDbCircle
 10
102.2648112099977
 20
335.500345367932
 30
0.0
 40
1.526904761905996
100
AcDbArc
 50
90.0
 51
270.0
  0
ARC
  5
1E8
102
{ACAD_REACTORS
330
23E
330
23F
102
}
330
71
100
AcDbEntity
  8
0
  6
Continuous
 62
     2
100
AcDbCircle
 10
95.52212046477186
 20
336.0112804597268
 30
0.0
 40
0.3528638246712035
100
AcDbArc
 50
270.0
 51
90.0
  0
ARC
  5
1E9
102
{ACAD_REACTORS
330
238
330
239
102
}
330
71
100
AcDbEntity
  8
0
  6
Continuous
 62
     2
100
AcDbCircle
 10
88.18354188275484
 20
335.9989776512032
 30
0.0
 40
0.3157169230761383
100
AcDbArc
 50
90.0
 51
180.0
  0
ARC
  5
1EA
102
{ACAD_REACTORS
330
238
330
239
102
}
330
71
100
AcDbEntity
  8
0
  6
Continuous
 62
     2
100
AcDbCircle
 10
90.18195959133945
 20
334.2841232860804
 30
0.0
 40
0.9118975235575889
100
AcDbArc
 50
115.194410648529
 51
244.8055893514878
  0
ARC
  5
1EB
102
{ACAD_REACTORS
330
238
330
239
102
}
330
71
100
AcDbEntity
  8
0
  6
Continuous
 62
     2
100
AcDbCircle
 10
89.65937514376446
 20
333.1732935400177
 30
0.0
 40
0.315716923076593
100
AcDbArc
 50
0.0
 51
64.8055893514515
  0
ARC
  5
1EC
102
{ACAD_REACTORS
330
238
330
239
102
}
330
71
100
AcDbEntity
  8
0
  6
Continuous
 62
     2
100
AcDbCircle
 10
87.58964720600835
 20
331.0384947452358
 30
0.0
 40
0.4242446153828041
100
AcDbArc
 50
180.0
 51
270.0
  0
ARC
  5
1ED
102
{ACAD_REACTORS
330
23A
330
23B
102
}
330
71
100
AcDbEntity
  8
0
  6
Continuous
 62
     2
100
AcDbCircle
 10
102.4810832201628
 20
335.6570765460525
 30
0.0
 40
0.517908573013675
100
AcDbArc
 50
38.12041979714645
 51
141.8795802028332
  0
ARC
  5
1EE
102
{ACAD_REACTORS
330
23A
330
23B
102
}
330
71
100
AcDbEntity
  8
0
  6
Continuous
 62
     2
100
AcDbCircle
 10
102.6808232565091
 20
335.500345367932
 30
0.0
 40
0.7717997786796754
100
AcDbArc
 50
141.8795802028299
 51
218.1204197971602
  0
ARC
  5
1EF
102
{ACAD_REACTORS
330
23C
330
23D
102
}
330
71
100
AcDbEntity
  8
0
  6
Continuous
 62
     2
100
AcDbCircle
 10
98.52013573936935
 20
332.679729902061
 30
0.0
 40
2.065479772208534
100
AcDbArc
 50
242.4518518243405
 51
297.5481481756867
  0
ARC
  5
1F0
102
{ACAD_REACTORS
330
23C
330
23D
102
}
330
71
100
AcDbEntity
  8
0
  6
Continuous
 62
     2
100
AcDbCircle
 10
98.52013573936935
 20
331.602579881455
 30
0.0
 40
2.065479772208492
100
AcDbArc
 50
62.45185182430527
 51
117.5481481756675
  0
ARC
  5
1F1
102
{ACAD_REACTORS
330
23C
330
23D
102
}
330
71
100
AcDbEntity
  8
0
  6
Continuous
 62
     2
100
AcDbCircle
 10
98.23919584753605
 20
332.1411548917578
 30
0.0
 40
1.458034083651364
100
AcDbArc
 50
117.548148175665
 51
242.4518518243402
  0
ARC
  5
1F2
102
{ACAD_REACTORS
330
23C
330
23D
102
}
330
71
100
AcDbEntity
  8
0
  6
Continuous
 62
     2
100
AcDbCircle
 10
98.80107563120265
 20
332.1411548917578
 30
0.0
 40
1.458034083652129
100
AcDbArc
 50
297.5481481756985
 51
62.45185182429637
  0
ARC
  5
1F3
102
{ACAD_REACTORS
330
23A
330
23B
102
}
330
71
100
AcDbEntity
  8
0
  6
Continuous
 62
     2
100
AcDbCircle
 10
102.4810832201628
 20
335.3436141898117
 30
0.0
 40
0.5179085730134402
100
AcDbArc
 50
218.1204197971668
 51
321.8795802028536
  0
ARC
  5
1F4
102
{ACAD_REACTORS
330
23A
330
23B
102
}
330
71
100
AcDbEntity
  8
0
  6
Continuous
 62
     2
100
AcDbCircle
 10
102.2813431838167
 20
335.500345367932
 30
0.0
 40
0.7717997786796486
100
AcDbArc
 50
321.8795802028444
 51
38.12041979716556
  0
ARC
  5
1F5
102
{ACAD_REACTORS
330
238
330
239
102
}
330
71
100
AcDbEntity
  8
0
  6
Continuous
 62
     2
100
AcDbCircle
 10
93.06295929672515
 20
331.0384947452358
 30
0.0
 40
0.4242446153833157
100
AcDbArc
 50
270.0
 51
0.0
  0
ARC
  5
1F6
102
{ACAD_REACTORS
330
238
330
239
102
}
330
71
100
AcDbEntity
  8
0
  6
Continuous
 62
     2
100
AcDbCircle
 10
93.06295929672515
 20
336.603005514436
 30
0.0
 40
0.4242446153838841
100
AcDbArc
 50
0.0
 51
90.0
  0
ARC
  5
1F7
102
{ACAD_REACTORS
330
238
330
239
102
}
330
71
100
AcDbEntity
  8
0
  6
Continuous
 62
     2
100
AcDbCircle
 10
87.58964720600835
 20
336.603005514436
 30
0.0
 40
0.4242446153837705
100
AcDbArc
 50
90.0
 51
180.0
  0
ARC
  5
1F8
102
{ACAD_REACTORS
330
238
330
239
102
}
330
71
100
AcDbEntity
  8
0
  6
Continuous
 62
     2
100
AcDbCircle
 10
89.65937514376446
 20
331.6425226084861
 30
0.0
 40
0.3157169230768204
100
AcDbArc
 50
270.0
 51
0.0
  0
ARC
  5
1F9
102
{ACAD_REACTORS
330
238
330
239
102
}
330
71
100
AcDbEntity
  8
0
  6
Continuous
 62
     2
100
AcDbCircle
 10
89.65937514376446
 20
335.3949530321427
 30
0.0
 40
0.3157169230762746
100
AcDbArc
 50
295.1944106485265
 51
0.0
  0
ARC
  5
1FA
102
{ACAD_REACTORS
330
238
330
239
102
}
330
71
100
AcDbEntity
  8
0
  6
Continuous
 62
     2
100
AcDbCircle
 10
89.65937514376446
 20
335.9989776512032
 30
0.0
 40
0.315716923076593
100
AcDbArc
 50
0.0
 51
90.0
  0
ARC
  5
1FB
102
{ACAD_REACTORS
330
238
330
239
102
}
330
71
100
AcDbEntity
  8
0
  6
Continuous
 62
     2
100
AcDbCircle
 10
88.18354188275484
 20
331.6425226084861
 30
0.0
 40
0.3157169230756836
100
AcDbArc
 50
180.0
 51
270.0
  0
ARC
  5
1FC
102
{ACAD_REACTORS
330
23E
330
23F
102
}
330
71
100
AcDbEntity
  8
0
  6
Continuous
 62
     2
100
AcDbCircle
 10
95.96359299101024
 20
335.9718844885043
 30
0.0
 40
1.055365641333708
100
AcDbArc
 50
270.0
 51
90.0
  0
ARC
  5
1FD
102
{ACAD_REACTORS
330
236
330
237
102
}
330
71
100
AcDbEntity
  8
0
  6
Continuous
 62
     2
100
AcDbCircle
 10
111.6918063027014
 20
332.2539452537926
 30
0.0
 40
1.639695123940546
100
AcDbArc
 50
195.0618917771044
 51
275.1581447696767
  0
ARC
  5
1FE
102
{ACAD_REACTORS
330
236
330
237
102
}
330
71
100
AcDbEntity
  8
0
  6
Continuous
 62
     2
100
AcDbCircle
 10
111.4029502079656
 20
335.4538358370141
 30
0.0
 40
4.85259686349871
100
AcDbArc
 50
275.1581447696363
 51
285.9799912583384
  0
ARC
  5
1FF
102
{ACAD_REACTORS
330
236
330
237
102
}
330
71
100
AcDbEntity
  8
0
  6
Continuous
 62
     2
100
AcDbCircle
 10
111.5608230830584
 20
333.5516212571658
 30
0.0
 40
2.227384008972665
100
AcDbArc
 50
288.4480761181342
 51
301.9309089499406
  0
ARC
  5
200
102
{ACAD_REACTORS
330
236
330
237
102
}
330
71
100
AcDbEntity
  8
0
  6
Continuous
 62
     2
100
AcDbCircle
 10
111.9789908167203
 20
332.2980754811292
 30
0.0
 40
0.9059297849851701
100
AcDbArc
 50
246.6277221118162
 51
288.4480761180828
  0
ARC
  5
201
102
{ACAD_REACTORS
330
236
330
237
102
}
330
71
100
AcDbEntity
  8
0
  6
Continuous
 62
     2
100
AcDbCircle
 10
112.1999080420985
 20
332.1411548917578
 30
0.0
 40
0.9410597353347371
100
AcDbArc
 50
151.4785267423671
 51
208.5214732576724
  0
ARC
  5
202
102
{ACAD_REACTORS
330
236
330
237
102
}
330
71
100
AcDbEntity
  8
0
  6
Continuous
 62
     2
100
AcDbCircle
 10
111.9692207821209
 20
331.9282713407139
 30
0.0
 40
0.9545230068261503
100
AcDbArc
 50
90.0
 51
109.3371432194301
  0
ARC
  5
203
102
{ACAD_REACTORS
330
238
330
239
102
}
330
71
100
AcDbEntity
  8
0
  6
Continuous
 62
     2
100
AcDbCircle
 10
90.75909056928654
 20
335.9988001745551
 30
0.0
 40
0.3157169230760142
100
AcDbArc
 50
90.18896704254595
 51
180.0
  0
ARC
  5
204
102
{ACAD_REACTORS
330
238
330
239
102
}
330
71
100
AcDbEntity
  8
0
  6
Continuous
 62
     2
100
AcDbCircle
 10
90.23304787119866
 20
334.2841232860804
 30
0.0
 40
0.9118481501443819
100
AcDbArc
 50
295.3740086781787
 51
64.62599132180748
  0
ARC
  5
205
102
{ACAD_REACTORS
330
234
330
235
102
}
330
71
100
AcDbEntity
  8
0
  6
Continuous
 62
     2
100
AcDbCircle
 10
95.45812160380547
 20
333.5516212571664
 30
0.0
 40
2.227384008972656
100
AcDbArc
 50
288.4480761181335
 51
301.9309089499589
  0
ARC
  5
206
102
{ACAD_REACTORS
330
234
330
235
102
}
330
71
100
AcDbEntity
  8
0
  6
Continuous
 62
     2
100
AcDbCircle
 10
95.87628933746626
 20
332.2980754811292
 30
0.0
 40
0.9059297849848149
100
AcDbArc
 50
246.6277221118682
 51
288.4480761181601
  0
ARC
  5
207
102
{ACAD_REACTORS
330
234
330
235
102
}
330
71
100
AcDbEntity
  8
0
  6
Continuous
 62
     2
100
AcDbCircle
 10
95.71984930476424
 20
331.9360834624192
 30
0.0
 40
0.5115800601948034
100
AcDbArc
 50
208.5214732576956
 51
246.6277221118223
  0
ARC
  5
208
102
{ACAD_REACTORS
330
234
330
235
102
}
330
71
100
AcDbEntity
  8
0
  6
Continuous
 62
     2
100
AcDbCircle
 10
95.87628933746626
 20
331.9842343023861
 30
0.0
 40
0.9059297849853228
100
AcDbArc
 50
71.55192388185348
 51
113.3722778881261
  0
ARC
  5
209
102
{ACAD_REACTORS
330
234
330
235
102
}
330
71
100
AcDbEntity
  8
0
  6
Continuous
 62
     2
100
AcDbCircle
 10
95.30024872871255
 20
328.8284739465018
 30
0.0
 40
4.852596863498095
100
AcDbArc
 50
74.02000874164747
 51
84.8418552303752
  0
CIRCLE
  5
20A
102
{ACAD_REACTORS
330
238
330
239
102
}
330
71
100
AcDbEntity
  8
0
  6
Continuous
 62
     2
100
AcDbCircle
 10
90.20923285652586
 20
334.2841232860804
 30
0.0
 40
0.4709789327785074
  0
CIRCLE
  5
20B
330
71
100
AcDbEntity
  8
1
  6
Continuous
 62
     2
100
AcDbCircle
 10
95.66540259062555
 20
344.445750129836
 30
0.0
 40
1.249999999999915
  0
CIRCLE
  5
20C
330
71
100
AcDbEntity
  8
1
  6
Continuous
 62
     2
100
AcDbCircle
 10
95.66540259062555
 20
344.445750129836
 30
0.0
 40
2.5
  0
TEXT
  5
20D
330
71
100
AcDbEntity
  8
1
 62
     7
100
AcDbText
 10
138.3022954260767
 20
341.620750129836
 30
0.0
 40
2.5
  1
/
 41
0.9
  7
CONVERTER_11
100
AcDbText
  0
TEXT
  5
20F
330
71
100
AcDbEntity
  8
1
 62
     7
100
AcDbText
 10
140.4586599231187
 20
341.620750129836
 30
0.0
 40
2.5
  1
02
 41
0.81
  7
CONVERTER_12
100
AcDbText
  0
TEXT
  5
210
330
71
100
AcDbEntity
  8
1
 62
     3
100
AcDbText
 10
178.0551439491358
 20
341.620750129836
 30
0.0
 40
2.5
  1
17.12.2017
 41
0.81
  7
CONVERTER_12
100
AcDbText
  0
MTEXT
  5
211
330
71
100
AcDbEntity
  8
1
 62
     2
100
AcDbMText
 10
178.0551439491358
 20
347.820750129836
 30
0.0
 40
1.8
 41
0.0
 71
     1
 72
     1
  1
date
  7
CONVERTER_11
 73
     1
 44
1.32052821128451
  0
MTEXT
  5
212
330
71
100
AcDbEntity
  8
1
 62
     2
100
AcDbMText
 10
148.228747704063
 20
339.320750129836
 30
0.0
 40
1.8
 41
0.0
 71
     1
 72
     1
  1
document-type
  7
CONVERTER_11
 73
     1
 44
1.20048019207683
  0
TEXT
  5
213
330
71
100
AcDbEntity
  8
1
 62
     3
100
AcDbText
 10
148.228747704063
 20
333.120750129836
 30
0.0
 40
2.5
  1
TECDOC 2D_Productdrawing
 41
0.81
  7
CONVERTER_12
100
AcDbText
  0
MTEXT
  5
215
330
71
100
AcDbEntity
  8
1
 62
     2
100
AcDbMText
 10
120.4287477040629
 20
347.8207501298361
 30
0.0
 40
1.8
 41
0.0
 71
     1
 72
     1
  1
document-No. / RI
  7
CONVERTER_13
 73
     1
 44
1.32052821128451
  0
TEXT
  5
216
330
71
100
AcDbEntity
  8
1
 62
     7
100
AcDbText
 10
120.4287477040629
 20
341.620750129836
 30
0.0
 40
2.5
  1
00345790
 41
0.81
  7
CONVERTER_12
100
AcDbText
  0
MTEXT
  5
218
330
71
100
AcDbEntity
  8
1
 62
     3
100
AcDbMText
 10
208.0143480899753
 20
341.6207501298362
 30
0.0
 40
2.5
 41
0.0
 71
     8
 72
     1
  1
1:1
  7
CONVERTER_14
 73
     1
 44
1.32052821128451
  0
MTEXT
  5
219
330
71
100
AcDbEntity
  8
1
 62
     2
100
AcDbMText
 10
204.6551439491357
 20
347.8207501298361
 30
0.0
 40
1.8
 41
0.0
 71
     1
 72
     1
  1
scale
  7
CONVERTER_11
 73
     1
 44
1.20048019207683
  0
MTEXT
  5
21A
330
71
100
AcDbEntity
  8
1
 62
     2
100
AcDbMText
 10
120.4287477040629
 20
339.3207501298361
 30
0.0
 40
1.8
 41
0.0
 71
     1
 72
     1
  1
ident.-No.
  7
CONVERTER_11
 73
     1
 44
1.20048019207683
  0
TEXT
  5
21B
330
71
100
AcDbEntity
  8
1
 62
     7
100
AcDbText
 10
120.8287477040627
 20
333.120750129836
 30
0.0
 40
2.5
  1
0304227
 41
0.81
  7
CONVERTER_12
100
AcDbText
  0
MTEXT
  5
21C
330
71
100
AcDbEntity
  8
1
 62
     2
100
AcDbMText
 10
48.49073297901543
 20
336.070750129836
 30
0.0
 40
2.0
 41
0.0
 71
     5
 72
     1
  1
General Information\P- Simplified representation\P- Document excluded from change process\P- Linear dimensions [mm]
  7
CONVERTER_11
 73
     1
 44
1.20048019207683
  0
MTEXT
  5
21D
330
71
100
AcDbEntity
  8
1
 62
     7
100
AcDbMText
 10
214.973552230812
 20
398.3207501298381
 30
0.0
 40
3.5
 41
0.0
 71
     5
 72
     1
  1
C
  7
CONVERTER_11
 73
     1
 44
1.20048019207683
  0
MTEXT
  5
21E
330
71
100
AcDbEntity
  8
1
 62
     7
100
AcDbMText
 10
214.973552230812
 20
500.8207501298361
 30
0.0
 40
3.5
 41
0.0
 71
     5
 72
     1
  1
A
  7
CONVERTER_11
 73
     1
 44
1.20048019207683
  0
MTEXT
  5
21F
330
71
100
AcDbEntity
  8
1
 62
     7
100
AcDbMText
 10
214.973552230812
 20
448.3207501298381
 30
0.0
 40
3.5
 41
0.0
 71
     5
 72
     1
  1
B
  7
CONVERTER_11
 73
     1
 44
1.20048019207683
  0
MTEXT
  5
220
330
71
100
AcDbEntity
  8
1
 62
     7
100
AcDbMText
 10
214.973552230812
 20
345.8207501298361
 30
0.0
 40
3.5
 41
0.0
 71
     5
 72
     1
  1
D
  7
CONVERTER_11
 73
     1
 44
1.20048019207683
  0
MTEXT
  5
221
330
71
100
AcDbEntity
  8
1
 62
     7
100
AcDbMText
 10
-55.27644776918663
 20
320.820750129836
 30
0.0
 40
3.5
 41
0.0
 71
     5
 72
     1
  1
1
  7
CONVERTER_11
 73
     1
 44
1.20048019207683
  0
MTEXT
  5
222
330
71
100
AcDbEntity
  8
1
 62
     7
100
AcDbMText
 10
-6.02644776918703
 20
320.820750129836
 30
0.0
 40
3.5
 41
0.0
 71
     5
 72
     1
  1
2
  7
CONVERTER_11
 73
     1
 44
1.20048019207683
  0
MTEXT
  5
223
330
71
100
AcDbEntity
  8
1
 62
     7
100
AcDbMText
 10
43.97355223081297
 20
320.820750129836
 30
0.0
 40
3.5
 41
0.0
 71
     5
 72
     1
  1
3
  7
CONVERTER_11
 73
     1
 44
1.20048019207683
  0
MTEXT
  5
224
330
71
100
AcDbEntity
  8
1
 62
     7
100
AcDbMText
 10
93.97355223081286
 20
320.820750129836
 30
0.0
 40
3.5
 41
0.0
 71
     5
 72
     1
  1
4
  7
CONVERTER_11
 73
     1
 44
1.20048019207683
  0
MTEXT
  5
225
330
71
100
AcDbEntity
  8
1
 62
     7
100
AcDbMText
 10
143.9735522308129
 20
320.820750129836
 30
0.0
 40
3.5
 41
0.0
 71
     5
 72
     1
  1
5
  7
CONVERTER_11
 73
     1
 44
1.20048019207683
  0
MTEXT
  5
226
330
71
100
AcDbEntity
  8
1
 62
     7
100
AcDbMText
 10
193.2235522308122
 20
320.820750129836
 30
0.0
 40
3.5
 41
0.0
 71
     5
 72
     1
  1
6
  7
CONVERTER_11
 73
     1
 44
1.20048019207683
  0
MTEXT
  5
227
330
71
100
AcDbEntity
  8
1
 62
     7
100
AcDbMText
 10
-77.02644776918612
 20
500.8207501298361
 30
0.0
 40
3.5
 41
0.0
 71
     5
 72
     1
  1
A
  7
CONVERTER_11
 73
     1
 44
1.20048019207683
  0
MTEXT
  5
228
330
71
100
AcDbEntity
  8
1
 62
     7
100
AcDbMText
 10
-77.02644776918612
 20
448.3207501298361
 30
0.0
 40
3.5
 41
0.0
 71
     5
 72
     1
  1
B
  7
CONVERTER_11
 73
     1
 44
1.20048019207683
  0
MTEXT
  5
229
330
71
100
AcDbEntity
  8
1
 62
     7
100
AcDbMText
 10
-77.02644776918612
 20
398.3207501298361
 30
0.0
 40
3.5
 41
0.0
 71
     5
 72
     1
  1
C
  7
CONVERTER_11
 73
     1
 44
1.20048019207683
  0
MTEXT
  5
22A
330
71
100
AcDbEntity
  8
1
 62
     7
100
AcDbMText
 10
-77.02644776918612
 20
345.8207501298361
 30
0.0
 40
3.5
 41
0.0
 71
     5
 72
     1
  1
D
  7
CONVERTER_11
 73
     1
 44
1.20048019207683
  0
MTEXT
  5
22B
330
71
100
AcDbEntity
  8
1
 62
     3
100
AcDbMText
 10
109.1287477040629
 20
344.4457501298361
 30
0.0
 40
2.5
 41
0.0
 71
     5
 72
     1
  1
DIN A4
  7
CONVERTER_11
 73
     1
 44
1.20048019207683
  0
MTEXT
  5
22C
330
71
100
AcDbEntity
  8
1
 62
     2
100
AcDbMText
 10
120.3287477040629
 20
330.8207501298361
 30
0.0
 40
1.8
 41
0.0
 71
     1
 72
     1
  1
description
  7
CONVERTER_11
 73
     1
 44
1.20048019207683
  0
MTEXT
  5
22D
330
71
100
AcDbEntity
  8
1
 62
     7
100
AcDbMText
 10
165.9011499674384
 20
326.5707501298364
 30
0.0
 40
3.0
 41
0.0
 71
     5
 72
     1
  1
ATS-GSK
  7
CONVERTER_12
 73
     1
 44
1.20048019207683
  0
TEXT
  5
22E
330
71
100
AcDbEntity
  8
1
 62
     2
100
AcDbText
 10
107.3640565138765
 20
324.570750129836
 30
0.0
 40
1.8
  1
1
 41
0.9
  7
CONVERTER_11
100
AcDbText
  0
TEXT
  5
22F
330
71
100
AcDbEntity
  8
1
 62
     2
100
AcDbText
 10
92.57501267440495
 20
324.5215014760341
 30
0.0
 40
1.8
  1
1
 41
0.9
  7
CONVERTER_11
100
AcDbText
  0
TEXT
  5
230
330
71
100
AcDbEntity
  8
1
 62
     2
100
AcDbText
 10
83.92874770406294
 20
324.5617329148445
 30
0.0
 40
1.8
  1
page
 41
0.9
  7
CONVERTER_11
100
AcDbText
  0
TEXT
  5
231
330
71
100
AcDbEntity
  8
1
 62
     2
100
AcDbText
 10
102.1287477040628
 20
324.5617329148445
 30
0.0
 40
1.8
  1
of
 41
0.9
  7
CONVERTER_11
100
AcDbText
  0
MTEXT
  5
232
330
71
100
AcDbEntity
  8
1
 62
     3
100
AcDbMText
 10
108.3317298556729
 20
510.1120582851349
 30
0.0
 40
1.8
 41
0.0
 71
     7
 72
     1
  3
Transfer or duplication of this document as well as the utilisation or\Pcommunication of its content are not permitted unless express consent\Pis granted. Violations give rise to claims for damages. All rights reserved\Pin case of patent, utility mo
  1
del or design patent registrations.
  7
CONVERTER_11
 73
     1
 44
0.99639855942377
  0
MTEXT
  5
233
330
71
100
AcDbEntity
  8
1
 62
     3
100
AcDbMText
 10
-74.52137998311525
 20
510.1120582851349
 30
0.0
 40
1.8
 41
0.0
 71
     7
 72
     1
  3
Weitergabe sowie Vervielf\U+00e4ltigung dieses Dokuments, Verwertung und \PMitteilung seines Inhalts sind verboten, soweit nicht ausdr\U+00fccklich gestattet. \PZuwiderhandlungen verpflichten zu Schadenersatz. Alle Rechte f\U+00fcr den Fall\Pder Pat
  1
ent-, Gebrauchsmuster- oder Designeintragung vorbehalten.
  7
CONVERTER_11
 73
     1
 44
0.99639855942377
  0
HATCH
  5
234
330
71
100
AcDbEntity
  8
1
  6
Continuous
 62
     2
100
AcDbHatch
 10
0.0
 20
0.0
 30
0.0
210
0.0
220
0.0
230
1.0
  2
_USER
 70
     0
 71
     1
 91
        1
 92
        1
 93
       14
 72
     2
 10
95.16997697998565
 20
332.1411548917578
 40
1.2056561683909
 50
164.9381082228843
 51
195.0618917770948
 73
     1
 72
     2
 10
95.58910482344845
 20
332.2539452537926
 40
1.63969512393938
 50
195.0618917770886
 51
275.1581447696393
 73
     1
 72
     2
 10
95.30024872871255
 20
335.4538358370141
 40
4.85259686349811
 50
275.158144769625
 51
285.9799912583529
 73
     1
 72
     1
 10
96.63617664583035
 20
330.7887535312133
 11
96.63617664583035
 21
331.6612705380165
 72
     2
 10
95.45812160380547
 20
333.5516212571664
 40
2.227384008972656
 50
58.06909105004111
 51
71.55192388186651
 73
     0
 72
     2
 10
95.87628933746626
 20
332.2980754811292
 40
0.9059297849848149
 50
71.55192388183985
 51
113.3722778881318
 73
     0
 72
     2
 10
95.71984930476424
 20
331.9360834624192
 40
0.5115800601948034
 50
113.3722778881777
 51
151.4785267423044
 73
     0
 72
     2
 10
96.09720656284455
 20
332.1411548917578
 40
0.9410597353332545
 50
151.4785267422882
 51
208.5214732577331
 73
     0
 72
     2
 10
95.71984930476424
 20
332.3462263210968
 40
0.5115800601948517
 50
208.5214732576956
 51
246.6277221117996
 73
     0
 72
     2
 10
95.87628933746626
 20
331.9842343023861
 40
0.9059297849853228
 50
246.6277221118739
 51
288.4480761181465
 73
     0
 72
     2
 10
95.45812160380547
 20
330.7306885263496
 40
2.227384008973501
 50
288.4480761181335
 51
301.9309089499589
 73
     0
 72
     1
 10
96.63617664583035
 20
332.6210392454995
 11
96.63617664583035
 21
333.4935562523027
 72
     2
 10
95.30024872871255
 20
328.8284739465018
 40
4.852596863498095
 50
74.02000874164747
 51
84.8418552303752
 73
     1
 72
     2
 10
95.58910482344845
 20
332.0283645297228
 40
1.63969512394062
 50
84.84185523036271
 51
164.9381082228884
 73
     1
 97
       14
330
209
330
122
330
1D8
330
208
330
1D9
330
1DA
330
207
330
206
330
205
330
123
330
1DB
330
1DC
330
1DD
330
1DE
 75
     1
 76
     0
 52
45.0
 41
0.1
 77
     0
 78
     1
 53
45.0
 43
0.0
 44
0.0
 45
-0.0707106781186548
 46
0.0707106781186548
 79
     0
 98
        1
 10
0.0
 20
0.0
  0
HATCH
  5
235
330
71
100
AcDbEntity
  8
1
  6
Continuous
 62
     2
100
AcDbHatch
 10
0.0
 20
0.0
 30
0.0
210
0.0
220
0.0
230
1.0
  2
_USER
 70
     0
 71
     1
 91
        1
 92
        1
 93
       14
 72
     2
 10
95.16997697998565
 20
332.1411548917578
 40
1.2056561683909
 50
164.9381082228843
 51
195.0618917770948
 73
     1
 72
     2
 10
95.58910482344845
 20
332.2539452537926
 40
1.63969512393938
 50
195.0618917770886
 51
275.1581447696393
 73
     1
 72
     2
 10
95.30024872871255
 20
335.4538358370141
 40
4.85259686349811
 50
275.158144769625
 51
285.9799912583529
 73
     1
 72
     1
 10
96.63617664583035
 20
330.7887535312133
 11
96.63617664583035
 21
331.6612705380165
 72
     2
 10
95.45812160380547
 20
333.5516212571664
 40
2.227384008972656
 50
58.06909105004111
 51
71.55192388186651
 73
     0
 72
     2
 10
95.87628933746626
 20
332.2980754811292
 40
0.9059297849848149
 50
71.55192388183985
 51
113.3722778881318
 73
     0
 72
     2
 10
95.71984930476424
 20
331.9360834624192
 40
0.5115800601948034
 50
113.3722778881777
 51
151.4785267423044
 73
     0
 72
     2
 10
96.09720656284455
 20
332.1411548917578
 40
0.9410597353332545
 50
151.4785267422882
 51
208.5214732577331
 73
     0
 72
     2
 10
95.71984930476424
 20
332.3462263210968
 40
0.5115800601948517
 50
208.5214732576956
 51
246.6277221117996
 73
     0
 72
     2
 10
95.87628933746626
 20
331.9842343023861
 40
0.9059297849853228
 50
246.6277221118739
 51
288.4480761181465
 73
     0
 72
     2
 10
95.45812160380547
 20
330.7306885263496
 40
2.227384008973501
 50
288.4480761181335
 51
301.9309089499589
 73
     0
 72
     1
 10
96.63617664583035
 20
332.6210392454995
 11
96.63617664583035
 21
333.4935562523027
 72
     2
 10
95.30024872871255
 20
328.8284739465018
 40
4.852596863498095
 50
74.02000874164747
 51
84.8418552303752
 73
     1
 72
     2
 10
95.58910482344845
 20
332.0283645297228
 40
1.63969512394062
 50
84.84185523036271
 51
164.9381082228884
 73
     1
 97
       14
330
209
330
122
330
1D8
330
208
330
1D9
330
1DA
330
207
330
206
330
205
330
123
330
1DB
330
1DC
330
1DD
330
1DE
 75
     1
 76
     0
 52
45.0
 41
0.1
 77
     0
 78
     1
 53
45.0
 43
0.0
 44
0.0
 45
-0.0707106781186548
 46
0.0707106781186548
 79
     0
 98
        1
 10
0.0
 20
0.0
  0
HATCH
  5
236
330
71
100
AcDbEntity
  8
1
  6
Continuous
 62
     2
100
AcDbHatch
 10
0.0
 20
0.0
 30
0.0
210
0.0
220
0.0
230
1.0
  2
_USER
 70
     0
 71
     1
 91
        1
 92
        1
 93
       18
 72
     2
 10
111.6918063027014
 20
332.0283645297228
 40
1.639695123940214
 50
90.0
 51
164.9381082228975
 73
     1
 72
     2
 10
111.2726784592398
 20
332.1411548917578
 40
1.20565616839304
 50
164.9381082229117
 51
195.0618917771014
 73
     1
 72
     2
 10
111.6918063027014
 20
332.2539452537926
 40
1.639695123940546
 50
195.0618917771044
 51
275.1581447696767
 73
     1
 72
     2
 10
111.4029502079656
 20
335.4538358370141
 40
4.85259686349871
 50
275.1581447696363
 51
285.9799912583384
 73
     1
 72
     1
 10
112.7388781250823
 20
330.7887535312127
 11
112.7388781250823
 21
331.6612705380161
 72
     2
 10
111.5608230830584
 20
333.5516212571658
 40
2.227384008972665
 50
58.06909105005943
 51
71.5519238818658
 73
     0
 72
     2
 10
111.9789908167203
 20
332.2980754811292
 40
0.9059297849851701
 50
71.55192388191715
 51
113.3722778881838
 73
     0
 72
     2
 10
111.8225507840172
 20
331.9360834624192
 40
0.5115800601959548
 50
113.3722778881587
 51
151.4785267423238
 73
     0
 72
     2
 10
112.1999080420985
 20
332.1411548917578
 40
0.9410597353347371
 50
151.4785267423276
 51
208.5214732576329
 73
     0
 72
     2
 10
111.8225507840172
 20
332.3462263210968
 40
0.5115800601944096
 50
208.5214732575643
 51
250.6628567805162
 73
     0
 72
     2
 10
111.9692207821209
 20
331.9282713407139
 40
0.9545230068261503
 50
250.6628567805699
 51
270.0
 73
     0
 72
     1
 10
111.9692207821209
 20
332.88279434754
 11
113.072860081689
 21
332.88279434754
 72
     1
 10
113.072860081689
 20
332.88279434754
 11
113.072860081689
 21
330.6142501298525
 72
     1
 10
113.072860081689
 20
330.6142501298525
 11
114.2656527838567
 21
330.6142501298525
 72
     1
 10
114.2656527838567
 20
330.6142501298525
 11
114.2656527838567
 21
332.88279434754
 72
     1
 10
114.2656527838567
 20
332.88279434754
 11
115.0767518213301
 21
332.88279434754
 72
     1
 10
115.0767518213301
 20
332.88279434754
 11
115.0767518213301
 21
333.6680596536635
 72
     1
 10
115.0767518213301
 20
333.6680596536635
 11
111.6918063027014
 21
333.668059653663
 97
       18
330
188
330
187
330
186
330
185
330
18A
330
124
330
202
330
1E3
330
201
330
1E4
330
200
330
1FF
330
125
330
1FE
330
1FD
330
1E5
330
1E6
330
189
 75
     1
 76
     0
 52
45.0
 41
0.1
 77
     0
 78
     1
 53
45.0
 43
0.0
 44
0.0
 45
-0.0707106781186548
 46
0.0707106781186548
 79
     0
 98
        1
 10
0.0
 20
0.0
  0
HATCH
  5
237
330
71
100
AcDbEntity
  8
1
  6
Continuous
 62
     2
100
AcDbHatch
 10
0.0
 20
0.0
 30
0.0
210
0.0
220
0.0
230
1.0
  2
_USER
 70
     0
 71
     1
 91
        1
 92
        1
 93
       18
 72
     2
 10
111.6918063027014
 20
332.0283645297228
 40
1.639695123940214
 50
90.0
 51
164.9381082228975
 73
     1
 72
     2
 10
111.2726784592398
 20
332.1411548917578
 40
1.20565616839304
 50
164.9381082229117
 51
195.0618917771014
 73
     1
 72
     2
 10
111.6918063027014
 20
332.2539452537926
 40
1.639695123940546
 50
195.0618917771044
 51
275.1581447696767
 73
     1
 72
     2
 10
111.4029502079656
 20
335.4538358370141
 40
4.85259686349871
 50
275.1581447696363
 51
285.9799912583384
 73
     1
 72
     1
 10
112.7388781250823
 20
330.7887535312127
 11
112.7388781250823
 21
331.6612705380161
 72
     2
 10
111.5608230830584
 20
333.5516212571658
 40
2.227384008972665
 50
58.06909105005943
 51
71.5519238818658
 73
     0
 72
     2
 10
111.9789908167203
 20
332.2980754811292
 40
0.9059297849851701
 50
71.55192388191715
 51
113.3722778881838
 73
     0
 72
     2
 10
111.8225507840172
 20
331.9360834624192
 40
0.5115800601959548
 50
113.3722778881587
 51
151.4785267423238
 73
     0
 72
     2
 10
112.1999080420985
 20
332.1411548917578
 40
0.9410597353347371
 50
151.4785267423276
 51
208.5214732576329
 73
     0
 72
     2
 10
111.8225507840172
 20
332.3462263210968
 40
0.5115800601944096
 50
208.5214732575643
 51
250.6628567805162
 73
     0
 72
     2
 10
111.9692207821209
 20
331.9282713407139
 40
0.9545230068261503
 50
250.6628567805699
 51
270.0
 73
     0
 72
     1
 10
111.9692207821209
 20
332.88279434754
 11
113.072860081689
 21
332.88279434754
 72
     1
 10
113.072860081689
 20
332.88279434754
 11
113.072860081689
 21
330.6142501298525
 72
     1
 10
113.072860081689
 20
330.6142501298525
 11
114.2656527838567
 21
330.6142501298525
 72
     1
 10
114.2656527838567
 20
330.6142501298525
 11
114.2656527838567
 21
332.88279434754
 72
     1
 10
114.2656527838567
 20
332.88279434754
 11
115.0767518213301
 21
332.88279434754
 72
     1
 10
115.0767518213301
 20
332.88279434754
 11
115.0767518213301
 21
333.6680596536635
 72
     1
 10
115.0767518213301
 20
333.6680596536635
 11
111.6918063027014
 21
333.668059653663
 97
       18
330
188
330
187
330
186
330
185
330
18A
330
124
330
202
330
1E3
330
201
330
1E4
330
200
330
1FF
330
125
330
1FE
330
1FD
330
1E5
330
1E6
330
189
 75
     1
 76
     0
 52
45.0
 41
0.1
 77
     0
 78
     1
 53
45.0
 43
0.0
 44
0.0
 45
-0.0707106781186548
 46
0.0707106781186548
 79
     0
 98
        1
 10
0.0
 20
0.0
  0
HATCH
  5
238
330
71
100
AcDbEntity
  8
1
  6
Continuous
 62
     2
100
AcDbHatch
 10
0.0
 20
0.0
 30
0.0
210
0.0
220
0.0
230
1.0
  2
_USER
 70
     0
 71
     1
 91
        4
 92
        1
 93
        8
 72
     2
 10
87.58964720600835
 20
336.603005514436
 40
0.4242446153837705
 50
90.0
 51
180.0
 73
     1
 72
     1
 10
87.16540259062555
 20
336.603005514436
 11
87.16540259062555
 21
331.0384947452358
 72
     2
 10
87.58964720600835
 20
331.0384947452358
 40
0.4242446153828041
 50
180.0
 51
270.0
 73
     1
 72
     1
 10
87.58964720600835
 20
330.6142501298525
 11
93.06295929672515
 21
330.6142501298525
 72
     2
 10
93.06295929672515
 20
331.0384947452358
 40
0.4242446153833157
 50
270.0
 51
360.0
 73
     1
 72
     1
 10
93.48720391210904
 20
331.0384947452358
 11
93.48720391210904
 21
336.603005514436
 72
     2
 10
93.06295929672515
 20
336.603005514436
 40
0.4242446153838841
 50
0.0
 51
90.0
 73
     1
 72
     1
 10
93.06295929672515
 20
337.0272501298198
 11
87.58964720600835
 21
337.0272501298198
 97
        8
330
1F6
330
153
330
1F5
330
154
330
1EC
330
151
330
1F7
330
152
 92
       16
 93
        1
 72
     2
 10
90.20923285652586
 20
334.2841232860804
 40
0.4709789327785074
 50
0.0
 51
360.0
 73
     1
 97
        1
330
20A
 92
       16
 93
        8
 72
     2
 10
90.23304787119866
 20
334.2841232860804
 40
0.9118481501443819
 50
295.3740086781787
 51
424.6259913218075
 73
     1
 72
     2
 10
90.75909056928654
 20
335.3932648860483
 40
0.315716923076792
 50
115.374008678343
 51
180.0
 73
     0
 72
     1
 10
90.44337364620975
 20
335.3932648860483
 11
90.44337364620975
 21
335.9988001745551
 72
     2
 10
90.75909056928654
 20
335.9988001745551
 40
0.3157169230760142
 50
180.0
 51
269.8110329574541
 73
     0
 72
     2
 10
90.76470670459656
 20
334.2959652269859
 40
2.018561131933266
 50
269.8110329575858
 51
450.1889670424142
 73
     0
 72
     2
 10
90.75909056928654
 20
332.593130279417
 40
0.315716923076792
 50
90.1889670425458
 51
180.0
 73
     0
 72
     1
 10
90.44337364620975
 20
332.593130279417
 11
90.44337364620975
 21
333.174981686112
 72
     2
 10
90.75909056928654
 20
333.174981686112
 40
0.3157169230765842
 50
180.0
 51
244.6259913216525
 73
     0
 97
        8
330
204
330
1E0
330
18C
330
203
330
1E1
330
1E2
330
18B
330
1DF
 92
       16
 93
       12
 72
     1
 10
88.18354188275484
 20
331.3268056854093
 11
89.65937514376446
 21
331.3268056854093
 72
     2
 10
89.65937514376446
 20
331.6425226084861
 40
0.3157169230768204
 50
270.0
 51
360.0
 73
     1
 72
     1
 10
89.97509206684106
 20
331.6425226084861
 11
89.97509206684106
 21
333.1732935400177
 72
     2
 10
89.65937514376446
 20
333.1732935400177
 40
0.315716923076593
 50
0.0
 51
64.8055893514515
 73
     1
 72
     2
 10
90.18195959133945
 20
334.2841232860804
 40
0.9118975235575889
 50
115.1944106485122
 51
244.805589351471
 73
     0
 72
     2
 10
89.65937514376446
 20
335.3949530321427
 40
0.3157169230762746
 50
295.1944106485265
 51
360.0
 73
     1
 72
     1
 10
89.97509206684106
 20
335.3949530321427
 11
89.97509206684106
 21
335.9989776512032
 72
     2
 10
89.65937514376446
 20
335.9989776512032
 40
0.315716923076593
 50
0.0
 51
90.0
 73
     1
 72
     1
 10
89.65937514376446
 20
336.3146945742793
 11
88.18354188275484
 21
336.3146945742793
 72
     2
 10
88.18354188275484
 20
335.9989776512032
 40
0.3157169230761383
 50
90.0
 51
180.0
 73
     1
 72
     1
 10
87.86782495967915
 20
335.9989776512032
 11
87.86782495967915
 21
331.6425226084861
 72
     2
 10
88.18354188275484
 20
331.6425226084861
 40
0.3157169230756836
 50
180.0
 51
270.0
 73
     1
 97
       12
330
158
330
1E9
330
157
330
1FA
330
156
330
1F9
330
1EA
330
1EB
330
155
330
1F8
330
150
330
1FB
 75
     1
 76
     0
 52
45.0
 41
0.1
 77
     0
 78
     1
 53
45.0
 43
0.0
 44
0.0
 45
-0.0707106781186548
 46
0.0707106781186548
 79
     0
 98
        1
 10
0.0
 20
0.0
  0
HATCH
  5
239
330
71
100
AcDbEntity
  8
1
  6
Continuous
 62
     2
100
AcDbHatch
 10
0.0
 20
0.0
 30
0.0
210
0.0
220
0.0
230
1.0
  2
_USER
 70
     0
 71
     1
 91
        4
 92
        1
 93
        8
 72
     2
 10
87.58964720600835
 20
336.603005514436
 40
0.4242446153837705
 50
90.0
 51
180.0
 73
     1
 72
     1
 10
87.16540259062555
 20
336.603005514436
 11
87.16540259062555
 21
331.0384947452358
 72
     2
 10
87.58964720600835
 20
331.0384947452358
 40
0.4242446153828041
 50
180.0
 51
270.0
 73
     1
 72
     1
 10
87.58964720600835
 20
330.6142501298525
 11
93.06295929672515
 21
330.6142501298525
 72
     2
 10
93.06295929672515
 20
331.0384947452358
 40
0.4242446153833157
 50
270.0
 51
360.0
 73
     1
 72
     1
 10
93.48720391210904
 20
331.0384947452358
 11
93.48720391210904
 21
336.603005514436
 72
     2
 10
93.06295929672515
 20
336.603005514436
 40
0.4242446153838841
 50
0.0
 51
90.0
 73
     1
 72
     1
 10
93.06295929672515
 20
337.0272501298198
 11
87.58964720600835
 21
337.0272501298198
 97
        8
330
1F6
330
153
330
1F5
330
154
330
1EC
330
151
330
1F7
330
152
 92
       16
 93
        1
 72
     2
 10
90.20923285652586
 20
334.2841232860804
 40
0.4709789327785074
 50
0.0
 51
360.0
 73
     1
 97
        1
330
20A
 92
       16
 93
        8
 72
     2
 10
90.23304787119866
 20
334.2841232860804
 40
0.9118481501443819
 50
295.3740086781787
 51
424.6259913218075
 73
     1
 72
     2
 10
90.75909056928654
 20
335.3932648860483
 40
0.315716923076792
 50
115.374008678343
 51
180.0
 73
     0
 72
     1
 10
90.44337364620975
 20
335.3932648860483
 11
90.44337364620975
 21
335.9988001745551
 72
     2
 10
90.75909056928654
 20
335.9988001745551
 40
0.3157169230760142
 50
180.0
 51
269.8110329574541
 73
     0
 72
     2
 10
90.76470670459656
 20
334.2959652269859
 40
2.018561131933266
 50
269.8110329575858
 51
450.1889670424142
 73
     0
 72
     2
 10
90.75909056928654
 20
332.593130279417
 40
0.315716923076792
 50
90.1889670425458
 51
180.0
 73
     0
 72
     1
 10
90.44337364620975
 20
332.593130279417
 11
90.44337364620975
 21
333.174981686112
 72
     2
 10
90.75909056928654
 20
333.174981686112
 40
0.3157169230765842
 50
180.0
 51
244.6259913216525
 73
     0
 97
        8
330
204
330
1E0
330
18C
330
203
330
1E1
330
1E2
330
18B
330
1DF
 92
       16
 93
       12
 72
     1
 10
88.18354188275484
 20
331.3268056854093
 11
89.65937514376446
 21
331.3268056854093
 72
     2
 10
89.65937514376446
 20
331.6425226084861
 40
0.3157169230768204
 50
270.0
 51
360.0
 73
     1
 72
     1
 10
89.97509206684106
 20
331.6425226084861
 11
89.97509206684106
 21
333.1732935400177
 72
     2
 10
89.65937514376446
 20
333.1732935400177
 40
0.315716923076593
 50
0.0
 51
64.8055893514515
 73
     1
 72
     2
 10
90.18195959133945
 20
334.2841232860804
 40
0.9118975235575889
 50
115.1944106485122
 51
244.805589351471
 73
     0
 72
     2
 10
89.65937514376446
 20
335.3949530321427
 40
0.3157169230762746
 50
295.1944106485265
 51
360.0
 73
     1
 72
     1
 10
89.97509206684106
 20
335.3949530321427
 11
89.97509206684106
 21
335.9989776512032
 72
     2
 10
89.65937514376446
 20
335.9989776512032
 40
0.315716923076593
 50
0.0
 51
90.0
 73
     1
 72
     1
 10
89.65937514376446
 20
336.3146945742793
 11
88.18354188275484
 21
336.3146945742793
 72
     2
 10
88.18354188275484
 20
335.9989776512032
 40
0.3157169230761383
 50
90.0
 51
180.0
 73
     1
 72
     1
 10
87.86782495967915
 20
335.9989776512032
 11
87.86782495967915
 21
331.6425226084861
 72
     2
 10
88.18354188275484
 20
331.6425226084861
 40
0.3157169230756836
 50
180.0
 51
270.0
 73
     1
 97
       12
330
158
330
1E9
330
157
330
1FA
330
156
330
1F9
330
1EA
330
1EB
330
155
330
1F8
330
150
330
1FB
 75
     1
 76
     0
 52
45.0
 41
0.1
 77
     0
 78
     1
 53
45.0
 43
0.0
 44
0.0
 45
-0.0707106781186548
 46
0.0707106781186548
 79
     0
 98
        1
 10
0.0
 20
0.0
  0
HATCH
  5
23A
330
71
100
AcDbEntity
  8
1
  6
Continuous
 62
     2
100
AcDbHatch
 10
0.0
 20
0.0
 30
0.0
210
0.0
220
0.0
230
1.0
  2
_USER
 70
     0
 71
     1
 91
        2
 92
        1
 93
       12
 72
     2
 10
102.2648112099977
 20
335.500345367932
 40
1.526904761905996
 50
90.0
 51
270.0
 73
     1
 72
     1
 10
102.2648112099977
 20
333.9734406060268
 11
105.4151309337786
 21
333.9734406060268
 72
     1
 10
105.4151309337786
 20
333.9734406060268
 11
105.4151309337786
 21
334.6714542114693
 72
     1
 10
105.4151309337786
 20
334.6714542114693
 11
104.079203107351
 21
334.6714542114693
 72
     1
 10
104.079203107351
 20
334.6714542114693
 11
104.079203107351
 21
335.151338565211
 72
     1
 10
104.079203107351
 20
335.151338565211
 11
105.4151309337786
 21
335.151338565211
 72
     1
 10
105.4151309337786
 20
335.151338565211
 11
105.4151309337786
 21
335.8493521706532
 72
     1
 10
105.4151309337786
 20
335.8493521706532
 11
104.079203107351
 21
335.8493521706532
 72
     1
 10
104.079203107351
 20
335.8493521706532
 11
104.079203107351
 21
336.329236524395
 72
     1
 10
104.079203107351
 20
336.329236524395
 11
105.4151309337786
 21
336.329236524395
 72
     1
 10
105.4151309337786
 20
336.329236524395
 11
105.4151309337786
 21
337.027250129838
 72
     1
 10
105.4151309337786
 20
337.027250129838
 11
102.2648112099977
 21
337.027250129838
 97
       12
330
147
330
141
330
168
330
167
330
166
330
165
330
142
330
143
330
144
330
145
330
1E7
330
146
 92
       16
 93
        4
 72
     2
 10
102.6808232565091
 20
335.500345367932
 40
0.7717997786796754
 50
141.8795802028299
 51
218.1204197971602
 73
     1
 72
     2
 10
102.4810832201628
 20
335.3436141898117
 40
0.5179085730134402
 50
218.1204197971668
 51
321.8795802028536
 73
     1
 72
     2
 10
102.2813431838167
 20
335.500345367932
 40
0.7717997786796486
 50
321.8795802028444
 51
398.1204197971655
 73
     1
 72
     2
 10
102.4810832201628
 20
335.6570765460525
 40
0.517908573013675
 50
38.12041979714645
 51
141.8795802028332
 73
     1
 97
        4
330
1F4
330
1F3
330
1EE
330
1ED
 75
     1
 76
     0
 52
45.0
 41
0.1
 77
     0
 78
     1
 53
45.0
 43
0.0
 44
0.0
 45
-0.0707106781186548
 46
0.0707106781186548
 79
     0
 98
        1
 10
0.0
 20
0.0
  0
HATCH
  5
23B
330
71
100
AcDbEntity
  8
1
  6
Continuous
 62
     2
100
AcDbHatch
 10
0.0
 20
0.0
 30
0.0
210
0.0
220
0.0
230
1.0
  2
_USER
 70
     0
 71
     1
 91
        2
 92
        1
 93
       12
 72
     2
 10
102.2648112099977
 20
335.500345367932
 40
1.526904761905996
 50
90.0
 51
270.0
 73
     1
 72
     1
 10
102.2648112099977
 20
333.9734406060268
 11
105.4151309337786
 21
333.9734406060268
 72
     1
 10
105.4151309337786
 20
333.9734406060268
 11
105.4151309337786
 21
334.6714542114693
 72
     1
 10
105.4151309337786
 20
334.6714542114693
 11
104.079203107351
 21
334.6714542114693
 72
     1
 10
104.079203107351
 20
334.6714542114693
 11
104.079203107351
 21
335.151338565211
 72
     1
 10
104.079203107351
 20
335.151338565211
 11
105.4151309337786
 21
335.151338565211
 72
     1
 10
105.4151309337786
 20
335.151338565211
 11
105.4151309337786
 21
335.8493521706532
 72
     1
 10
105.4151309337786
 20
335.8493521706532
 11
104.079203107351
 21
335.8493521706532
 72
     1
 10
104.079203107351
 20
335.8493521706532
 11
104.079203107351
 21
336.329236524395
 72
     1
 10
104.079203107351
 20
336.329236524395
 11
105.4151309337786
 21
336.329236524395
 72
     1
 10
105.4151309337786
 20
336.329236524395
 11
105.4151309337786
 21
337.027250129838
 72
     1
 10
105.4151309337786
 20
337.027250129838
 11
102.2648112099977
 21
337.027250129838
 97
       12
330
147
330
141
330
168
330
167
330
166
330
165
330
142
330
143
330
144
330
145
330
1E7
330
146
 92
       16
 93
        4
 72
     2
 10
102.6808232565091
 20
335.500345367932
 40
0.7717997786796754
 50
141.8795802028299
 51
218.1204197971602
 73
     1
 72
     2
 10
102.4810832201628
 20
335.3436141898117
 40
0.5179085730134402
 50
218.1204197971668
 51
321.8795802028536
 73
     1
 72
     2
 10
102.2813431838167
 20
335.500345367932
 40
0.7717997786796486
 50
321.8795802028444
 51
398.1204197971655
 73
     1
 72
     2
 10
102.4810832201628
 20
335.6570765460525
 40
0.517908573013675
 50
38.12041979714645
 51
141.8795802028332
 73
     1
 97
        4
330
1F4
330
1F3
330
1EE
330
1ED
 75
     1
 76
     0
 52
45.0
 41
0.1
 77
     0
 78
     1
 53
45.0
 43
0.0
 44
0.0
 45
-0.0707106781186548
 46
0.0707106781186548
 79
     0
 98
        1
 10
0.0
 20
0.0
  0
HATCH
  5
23C
330
71
100
AcDbEntity
  8
1
  6
Continuous
 62
     2
100
AcDbHatch
 10
0.0
 20
0.0
 30
0.0
210
0.0
220
0.0
230
1.0
  2
_USER
 70
     0
 71
     1
 91
        2
 92
        1
 93
        4
 72
     2
 10
98.23919584753605
 20
332.1411548917578
 40
1.458034083651364
 50
117.548148175665
 51
242.4518518243402
 73
     1
 72
     2
 10
98.52013573936935
 20
332.679729902061
 40
2.065479772208534
 50
242.4518518243405
 51
297.5481481756867
 73
     1
 72
     2
 10
98.80107563120265
 20
332.1411548917578
 40
1.458034083652129
 50
297.5481481756985
 51
422.4518518242964
 73
     1
 72
     2
 10
98.52013573936935
 20
331.602579881455
 40
2.065479772208492
 50
62.45185182430527
 51
117.5481481756675
 73
     1
 97
        4
330
1F2
330
1EF
330
1F1
330
1F0
 92
       16
 93
        4
 72
     2
 10
98.52013573936935
 20
332.2978860698783
 40
0.5179085730132297
 50
38.12041979713714
 51
141.8795802028687
 73
     1
 72
     2
 10
98.71987577571545
 20
332.1411548917578
 40
0.7717997786793755
 50
141.8795802028446
 51
218.1204197971787
 73
     1
 72
     2
 10
98.52013573936935
 20
331.9844237136377
 40
0.5179085730137529
 50
218.1204197971956
 51
321.8795802027985
 73
     1
 72
     2
 10
98.32039570302294
 20
332.1411548917578
 40
0.7717997786798
 50
321.8795802028318
 51
398.120419797145
 73
     1
 97
        4
330
1D5
330
1D6
330
1D7
330
1D4
 75
     1
 76
     0
 52
45.0
 41
0.1
 77
     0
 78
     1
 53
45.0
 43
0.0
 44
0.0
 45
-0.0707106781186548
 46
0.0707106781186548
 79
     0
 98
        1
 10
0.0
 20
0.0
  0
HATCH
  5
23D
330
71
100
AcDbEntity
  8
1
  6
Continuous
 62
     2
100
AcDbHatch
 10
0.0
 20
0.0
 30
0.0
210
0.0
220
0.0
230
1.0
  2
_USER
 70
     0
 71
     1
 91
        2
 92
        1
 93
        4
 72
     2
 10
98.23919584753605
 20
332.1411548917578
 40
1.458034083651364
 50
117.548148175665
 51
242.4518518243402
 73
     1
 72
     2
 10
98.52013573936935
 20
332.679729902061
 40
2.065479772208534
 50
242.4518518243405
 51
297.5481481756867
 73
     1
 72
     2
 10
98.80107563120265
 20
332.1411548917578
 40
1.458034083652129
 50
297.5481481756985
 51
422.4518518242964
 73
     1
 72
     2
 10
98.52013573936935
 20
331.602579881455
 40
2.065479772208492
 50
62.45185182430527
 51
117.5481481756675
 73
     1
 97
        4
330
1F2
330
1EF
330
1F1
330
1F0
 92
       16
 93
        4
 72
     2
 10
98.52013573936935
 20
332.2978860698783
 40
0.5179085730132297
 50
38.12041979713714
 51
141.8795802028687
 73
     1
 72
     2
 10
98.71987577571545
 20
332.1411548917578
 40
0.7717997786793755
 50
141.8795802028446
 51
218.1204197971787
 73
     1
 72
     2
 10
98.52013573936935
 20
331.9844237136377
 40
0.5179085730137529
 50
218.1204197971956
 51
321.8795802027985
 73
     1
 72
     2
 10
98.32039570302294
 20
332.1411548917578
 40
0.7717997786798
 50
321.8795802028318
 51
398.120419797145
 73
     1
 97
        4
330
1D5
330
1D6
330
1D7
330
1D4
 75
     1
 76
     0
 52
45.0
 41
0.1
 77
     0
 78
     1
 53
45.0
 43
0.0
 44
0.0
 45
-0.0707106781186548
 46
0.0707106781186548
 79
     0
 98
        1
 10
0.0
 20
0.0
  0
HATCH
  5
23E
330
71
100
AcDbEntity
  8
1
  6
Continuous
 62
     2
100
AcDbHatch
 10
0.0
 20
0.0
 30
0.0
210
0.0
220
0.0
230
1.0
  2
_USER
 70
     0
 71
     1
 91
        2
 92
        1
 93
        6
 72
     1
 10
93.96432099297584
 20
337.027250129838
 11
93.96432099297584
 21
333.9734406060268
 72
     1
 10
93.96432099297584
 20
333.9734406060268
 11
95.20482540322996
 21
333.9734406060268
 72
     1
 10
95.20482540322996
 20
333.9734406060268
 11
95.20482540322996
 21
334.9165188471706
 72
     1
 10
95.20482540322996
 20
334.9165188471706
 11
95.96359299101024
 21
334.9165188471706
 72
     2
 10
95.96359299101024
 20
335.9718844885043
 40
1.055365641333708
 50
270.0
 51
450.0
 73
     1
 72
     1
 10
95.96359299101024
 20
337.027250129838
 11
93.96432099297584
 21
337.027250129838
 97
        6
330
1FC
330
159
330
14F
330
14E
330
15B
330
15A
 92
       16
 93
        4
 72
     1
 10
95.52212046477186
 20
336.3641442843979
 11
95.20482540322996
 21
336.3641442843979
 72
     1
 10
95.20482540322996
 20
336.3641442843979
 11
95.20482540322996
 21
335.6584166350556
 72
     1
 10
95.20482540322996
 20
335.6584166350556
 11
95.52212046477186
 21
335.6584166350556
 72
     2
 10
95.52212046477186
 20
336.0112804597268
 40
0.3528638246712035
 50
270.0
 51
450.0
 73
     1
 97
        4
330
15C
330
14D
330
15D
330
1E8
 75
     1
 76
     0
 52
45.0
 41
0.1
 77
     0
 78
     1
 53
45.0
 43
0.0
 44
0.0
 45
-0.0707106781186548
 46
0.0707106781186548
 79
     0
 98
        1
 10
0.0
 20
0.0
  0
HATCH
  5
23F
330
71
100
AcDbEntity
  8
1
  6
Continuous
 62
     2
100
AcDbHatch
 10
0.0
 20
0.0
 30
0.0
210
0.0
220
0.0
230
1.0
  2
_USER
 70
     0
 71
     1
 91
        2
 92
        1
 93
        6
 72
     1
 10
93.96432099297584
 20
337.027250129838
 11
93.96432099297584
 21
333.9734406060268
 72
     1
 10
93.96432099297584
 20
333.9734406060268
 11
95.20482540322996
 21
333.9734406060268
 72
     1
 10
95.20482540322996
 20
333.9734406060268
 11
95.20482540322996
 21
334.9165188471706
 72
     1
 10
95.20482540322996
 20
334.9165188471706
 11
95.96359299101024
 21
334.9165188471706
 72
     2
 10
95.96359299101024
 20
335.9718844885043
 40
1.055365641333708
 50
270.0
 51
450.0
 73
     1
 72
     1
 10
95.96359299101024
 20
337.027250129838
 11
93.96432099297584
 21
337.027250129838
 97
        6
330
1FC
330
159
330
14F
330
14E
330
15B
330
15A
 92
       16
 93
        4
 72
     1
 10
95.52212046477186
 20
336.3641442843979
 11
95.20482540322996
 21
336.3641442843979
 72
     1
 10
95.20482540322996
 20
336.3641442843979
 11
95.20482540322996
 21
335.6584166350556
 72
     1
 10
95.20482540322996
 20
335.6584166350556
 11
95.52212046477186
 21
335.6584166350556
 72
     2
 10
95.52212046477186
 20
336.0112804597268
 40
0.3528638246712035
 50
270.0
 51
450.0
 73
     1
 97
        4
330
15C
330
14D
330
15D
330
1E8
 75
     1
 76
     0
 52
45.0
 41
0.1
 77
     0
 78
     1
 53
45.0
 43
0.0
 44
0.0
 45
-0.0707106781186548
 46
0.0707106781186548
 79
     0
 98
        1
 10
0.0
 20
0.0
  0
HATCH
  5
240
330
71
100
AcDbEntity
  8
1
  6
Continuous
 62
     2
100
AcDbHatch
 10
0.0
 20
0.0
 30
0.0
210
0.0
220
0.0
230
1.0
  2
_USER
 70
     0
 71
     1
 91
        1
 92
        1
 93
       12
 72
     1
 10
113.578604187409
 20
337.027250129838
 11
114.9813284051563
 21
337.027250129838
 72
     1
 10
114.9813284051563
 20
337.027250129838
 11
113.6787987743898
 21
335.5542995998018
 72
     1
 10
113.6787987743898
 20
335.5542995998018
 11
115.0767518213301
 21
333.9734406060268
 72
     1
 10
115.0767518213301
 20
333.9734406060268
 11
113.6740276035818
 21
333.9734406060268
 72
     1
 10
113.6740276035818
 20
333.9734406060268
 11
112.9774366655163
 21
334.7611723913204
 72
     1
 10
112.9774366655163
 20
334.7611723913204
 11
112.2808457274506
 21
333.9734406060268
 72
     1
 10
112.2808457274506
 20
333.9734406060268
 11
110.8781215097023
 21
333.9734406060268
 72
     1
 10
110.8781215097023
 20
333.9734406060268
 11
112.2760745566426
 21
335.5542995998018
 72
     1
 10
112.2760745566426
 20
335.5542995998018
 11
110.9735449258752
 21
337.027250129838
 72
     1
 10
110.9735449258752
 20
337.027250129838
 11
112.3762691436245
 21
337.027250129838
 72
     1
 10
112.3762691436245
 20
337.027250129838
 11
112.9774366655163
 21
336.3474268082824
 72
     1
 10
112.9774366655163
 20
336.3474268082824
 11
113.578604187409
 21
337.027250129838
 97
       12
330
128
330
181
330
180
330
17F
330
17E
330
129
330
12A
330
126
330
127
330
184
330
183
330
182
 75
     1
 76
     0
 52
45.0
 41
0.1
 77
     0
 78
     1
 53
45.0
 43
0.0
 44
0.0
 45
-0.0707106781186548
 46
0.0707106781186548
 79
     0
 98
        1
 10
0.0
 20
0.0
  0
HATCH
  5
241
330
71
100
AcDbEntity
  8
1
  6
Continuous
 62
     2
100
AcDbHatch
 10
0.0
 20
0.0
 30
0.0
210
0.0
220
0.0
230
1.0
  2
_USER
 70
     0
 71
     1
 91
        1
 92
        1
 93
       12
 72
     1
 10
113.578604187409
 20
337.027250129838
 11
114.9813284051563
 21
337.027250129838
 72
     1
 10
114.9813284051563
 20
337.027250129838
 11
113.6787987743898
 21
335.5542995998018
 72
     1
 10
113.6787987743898
 20
335.5542995998018
 11
115.0767518213301
 21
333.9734406060268
 72
     1
 10
115.0767518213301
 20
333.9734406060268
 11
113.6740276035818
 21
333.9734406060268
 72
     1
 10
113.6740276035818
 20
333.9734406060268
 11
112.9774366655163
 21
334.7611723913204
 72
     1
 10
112.9774366655163
 20
334.7611723913204
 11
112.2808457274506
 21
333.9734406060268
 72
     1
 10
112.2808457274506
 20
333.9734406060268
 11
110.8781215097023
 21
333.9734406060268
 72
     1
 10
110.8781215097023
 20
333.9734406060268
 11
112.2760745566426
 21
335.5542995998018
 72
     1
 10
112.2760745566426
 20
335.5542995998018
 11
110.9735449258752
 21
337.027250129838
 72
     1
 10
110.9735449258752
 20
337.027250129838
 11
112.3762691436245
 21
337.027250129838
 72
     1
 10
112.3762691436245
 20
337.027250129838
 11
112.9774366655163
 21
336.3474268082824
 72
     1
 10
112.9774366655163
 20
336.3474268082824
 11
113.578604187409
 21
337.027250129838
 97
       12
330
128
330
181
330
180
330
17F
330
17E
330
129
330
12A
330
126
330
127
330
184
330
183
330
182
 75
     1
 76
     0
 52
45.0
 41
0.1
 77
     0
 78
     1
 53
45.0
 43
0.0
 44
0.0
 45
-0.0707106781186548
 46
0.0707106781186548
 79
     0
 98
        1
 10
0.0
 20
0.0
  0
HATCH
  5
242
330
71
100
AcDbEntity
  8
1
  6
Continuous
 62
     2
100
AcDbHatch
 10
0.0
 20
0.0
 30
0.0
210
0.0
220
0.0
230
1.0
  2
_USER
 70
     0
 71
     1
 91
        1
 92
        1
 93
        4
 72
     1
 10
110.7588422394855
 20
337.027250129838
 11
110.7588422394855
 21
333.9734406060268
 72
     1
 10
110.7588422394855
 20
333.9734406060268
 11
109.5183378292326
 21
333.9734406060268
 72
     1
 10
109.5183378292326
 20
333.9734406060268
 11
109.5183378292326
 21
337.027250129838
 72
     1
 10
109.5183378292326
 20
337.027250129838
 11
110.7588422394855
 21
337.027250129838
 97
        4
330
17C
330
12B
330
17B
330
17D
 75
     1
 76
     0
 52
45.0
 41
0.1
 77
     0
 78
     1
 53
45.0
 43
0.0
 44
0.0
 45
-0.0707106781186548
 46
0.0707106781186548
 79
     0
 98
        1
 10
0.0
 20
0.0
  0
HATCH
  5
243
330
71
100
AcDbEntity
  8
1
  6
Continuous
 62
     2
100
AcDbHatch
 10
0.0
 20
0.0
 30
0.0
210
0.0
220
0.0
230
1.0
  2
_USER
 70
     0
 71
     1
 91
        1
 92
        1
 93
        4
 72
     1
 10
110.7588422394855
 20
337.027250129838
 11
110.7588422394855
 21
333.9734406060268
 72
     1
 10
110.7588422394855
 20
333.9734406060268
 11
109.5183378292326
 21
333.9734406060268
 72
     1
 10
109.5183378292326
 20
333.9734406060268
 11
109.5183378292326
 21
337.027250129838
 72
     1
 10
109.5183378292326
 20
337.027250129838
 11
110.7588422394855
 21
337.027250129838
 97
        4
330
17C
330
12B
330
17B
330
17D
 75
     1
 76
     0
 52
45.0
 41
0.1
 77
     0
 78
     1
 53
45.0
 43
0.0
 44
0.0
 45
-0.0707106781186548
 46
0.0707106781186548
 79
     0
 98
        1
 10
0.0
 20
0.0
  0
HATCH
  5
244
330
71
100
AcDbEntity
  8
1
  6
Continuous
 62
     2
100
AcDbHatch
 10
0.0
 20
0.0
 30
0.0
210
0.0
220
0.0
230
1.0
  2
_USER
 70
     0
 71
     1
 91
        2
 92
        1
 93
        8
 72
     1
 10
110.3683982359535
 20
330.6142501298525
 11
109.1278938256995
 21
330.6142501298525
 72
     1
 10
109.1278938256995
 20
330.6142501298525
 11
108.9164137722238
 21
331.1552106740703
 72
     1
 10
108.9164137722238
 20
331.1552106740703
 11
107.78397219555
 21
331.1552106740703
 72
     1
 10
107.78397219555
 20
331.1552106740703
 11
107.5724921420741
 21
330.6142501298525
 72
     1
 10
107.5724921420741
 20
330.6142501298525
 11
106.3319877318212
 21
330.6142501298525
 72
     1
 10
106.3319877318212
 20
330.6142501298525
 11
107.7299407787605
 21
333.6680596536635
 72
     1
 10
107.7299407787605
 20
333.6680596536635
 11
108.9704451890132
 21
333.6680596536635
 72
     1
 10
108.9704451890132
 20
333.6680596536635
 11
110.3683982359535
 21
330.6142501298525
 97
        8
330
177
330
131
330
176
330
179
330
12E
330
178
330
12F
330
130
 92
       16
 93
        3
 72
     1
 10
108.050027746695
 20
331.835773939377
 11
108.6503582210775
 21
331.835773939377
 72
     1
 10
108.6503582210775
 20
331.835773939377
 11
108.3501929838874
 21
332.6035889053636
 72
     1
 10
108.3501929838874
 20
332.6035889053636
 11
108.050027746695
 21
331.835773939377
 97
        3
330
12D
330
12C
330
17A
 75
     1
 76
     0
 52
45.0
 41
0.1
 77
     0
 78
     1
 53
45.0
 43
0.0
 44
0.0
 45
-0.0707106781186548
 46
0.0707106781186548
 79
     0
 98
        1
 10
0.0
 20
0.0
  0
HATCH
  5
245
330
71
100
AcDbEntity
  8
1
  6
Continuous
 62
     2
100
AcDbHatch
 10
0.0
 20
0.0
 30
0.0
210
0.0
220
0.0
230
1.0
  2
_USER
 70
     0
 71
     1
 91
        2
 92
        1
 93
        8
 72
     1
 10
110.3683982359535
 20
330.6142501298525
 11
109.1278938256995
 21
330.6142501298525
 72
     1
 10
109.1278938256995
 20
330.6142501298525
 11
108.9164137722238
 21
331.1552106740703
 72
     1
 10
108.9164137722238
 20
331.1552106740703
 11
107.78397219555
 21
331.1552106740703
 72
     1
 10
107.78397219555
 20
331.1552106740703
 11
107.5724921420741
 21
330.6142501298525
 72
     1
 10
107.5724921420741
 20
330.6142501298525
 11
106.3319877318212
 21
330.6142501298525
 72
     1
 10
106.3319877318212
 20
330.6142501298525
 11
107.7299407787605
 21
333.6680596536635
 72
     1
 10
107.7299407787605
 20
333.6680596536635
 11
108.9704451890132
 21
333.6680596536635
 72
     1
 10
108.9704451890132
 20
333.6680596536635
 11
110.3683982359535
 21
330.6142501298525
 97
        8
330
177
330
131
330
176
330
179
330
12E
330
178
330
12F
330
130
 92
       16
 93
        3
 72
     1
 10
108.050027746695
 20
331.835773939377
 11
108.6503582210775
 21
331.835773939377
 72
     1
 10
108.6503582210775
 20
331.835773939377
 11
108.3501929838874
 21
332.6035889053636
 72
     1
 10
108.3501929838874
 20
332.6035889053636
 11
108.050027746695
 21
331.835773939377
 97
        3
330
12D
330
12C
330
17A
 75
     1
 76
     0
 52
45.0
 41
0.1
 77
     0
 78
     1
 53
45.0
 43
0.0
 44
0.0
 45
-0.0707106781186548
 46
0.0707106781186548
 79
     0
 98
        1
 10
0.0
 20
0.0
  0
HATCH
  5
246
330
71
100
AcDbEntity
  8
1
  6
Continuous
 62
     2
100
AcDbHatch
 10
0.0
 20
0.0
 30
0.0
210
0.0
220
0.0
230
1.0
  2
_USER
 70
     0
 71
     1
 91
        1
 92
        1
 93
        8
 72
     1
 10
104.1744755926389
 20
333.6680596536635
 11
104.1744755926389
 21
332.88279434754
 72
     1
 10
104.1744755926389
 20
332.88279434754
 11
104.9855746301136
 21
332.88279434754
 72
     1
 10
104.9855746301136
 20
332.88279434754
 11
104.9855746301136
 21
330.6142501298525
 72
     1
 10
104.9855746301136
 20
330.6142501298525
 11
106.1783673322801
 21
330.6142501298525
 72
     1
 10
106.1783673322801
 20
330.6142501298525
 11
106.1783673322801
 21
332.88279434754
 72
     1
 10
106.1783673322801
 20
332.88279434754
 11
106.9894663697526
 21
332.88279434754
 72
     1
 10
106.9894663697526
 20
332.88279434754
 11
106.9894663697526
 21
333.6680596536635
 72
     1
 10
106.9894663697526
 20
333.6680596536635
 11
104.1744755926389
 21
333.6680596536635
 97
        8
330
173
330
172
330
171
330
132
330
133
330
175
330
134
330
174
 75
     1
 76
     0
 52
45.0
 41
0.1
 77
     0
 78
     1
 53
45.0
 43
0.0
 44
0.0
 45
-0.0707106781186548
 46
0.0707106781186548
 79
     0
 98
        1
 10
0.0
 20
0.0
  0
HATCH
  5
247
330
71
100
AcDbEntity
  8
1
  6
Continuous
 62
     2
100
AcDbHatch
 10
0.0
 20
0.0
 30
0.0
210
0.0
220
0.0
230
1.0
  2
_USER
 70
     0
 71
     1
 91
        1
 92
        1
 93
        8
 72
     1
 10
104.1744755926389
 20
333.6680596536635
 11
104.1744755926389
 21
332.88279434754
 72
     1
 10
104.1744755926389
 20
332.88279434754
 11
104.9855746301136
 21
332.88279434754
 72
     1
 10
104.9855746301136
 20
332.88279434754
 11
104.9855746301136
 21
330.6142501298525
 72
     1
 10
104.9855746301136
 20
330.6142501298525
 11
106.1783673322801
 21
330.6142501298525
 72
     1
 10
106.1783673322801
 20
330.6142501298525
 11
106.1783673322801
 21
332.88279434754
 72
     1
 10
106.1783673322801
 20
332.88279434754
 11
106.9894663697526
 21
332.88279434754
 72
     1
 10
106.9894663697526
 20
332.88279434754
 11
106.9894663697526
 21
333.6680596536635
 72
     1
 10
106.9894663697526
 20
333.6680596536635
 11
104.1744755926389
 21
333.6680596536635
 97
        8
330
173
330
172
330
171
330
132
330
133
330
175
330
134
330
174
 75
     1
 76
     0
 52
45.0
 41
0.1
 77
     0
 78
     1
 53
45.0
 43
0.0
 44
0.0
 45
-0.0707106781186548
 46
0.0707106781186548
 79
     0
 98
        1
 10
0.0
 20
0.0
  0
HATCH
  5
248
330
71
100
AcDbEntity
  8
1
  6
Continuous
 62
     2
100
AcDbHatch
 10
0.0
 20
0.0
 30
0.0
210
0.0
220
0.0
230
1.0
  2
_USER
 70
     0
 71
     1
 91
        1
 92
        1
 93
       10
 72
     1
 10
106.8464821763781
 20
337.027250129838
 11
105.6536894742116
 21
337.027250129838
 72
     1
 10
105.6536894742116
 20
337.027250129838
 11
105.6536894742116
 21
333.9734406060268
 72
     1
 10
105.6536894742116
 20
333.9734406060268
 11
106.8464821763781
 21
333.9734406060268
 72
     1
 10
106.8464821763781
 20
333.9734406060268
 11
106.8464821763781
 21
335.2822161162314
 72
     1
 10
106.8464821763781
 20
335.2822161162314
 11
108.0869865866321
 21
333.9734406060268
 72
     1
 10
108.0869865866321
 20
333.9734406060268
 11
109.2797792887987
 21
333.9734406060268
 72
     1
 10
109.2797792887987
 20
333.9734406060268
 11
109.2797792887987
 21
337.027250129838
 72
     1
 10
109.2797792887987
 20
337.027250129838
 11
108.0869865866321
 21
337.027250129838
 72
     1
 10
108.0869865866321
 20
337.027250129838
 11
108.0869865866321
 21
335.7184746196327
 72
     1
 10
108.0869865866321
 20
335.7184746196327
 11
106.8464821763781
 21
337.027250129838
 97
       10
330
16D
330
137
330
138
330
139
330
13A
330
170
330
135
330
16F
330
16E
330
136
 75
     1
 76
     0
 52
45.0
 41
0.1
 77
     0
 78
     1
 53
45.0
 43
0.0
 44
0.0
 45
-0.0707106781186548
 46
0.0707106781186548
 79
     0
 98
        1
 10
0.0
 20
0.0
  0
HATCH
  5
249
330
71
100
AcDbEntity
  8
1
  6
Continuous
 62
     2
100
AcDbHatch
 10
0.0
 20
0.0
 30
0.0
210
0.0
220
0.0
230
1.0
  2
_USER
 70
     0
 71
     1
 91
        1
 92
        1
 93
       10
 72
     1
 10
106.8464821763781
 20
337.027250129838
 11
105.6536894742116
 21
337.027250129838
 72
     1
 10
105.6536894742116
 20
337.027250129838
 11
105.6536894742116
 21
333.9734406060268
 72
     1
 10
105.6536894742116
 20
333.9734406060268
 11
106.8464821763781
 21
333.9734406060268
 72
     1
 10
106.8464821763781
 20
333.9734406060268
 11
106.8464821763781
 21
335.2822161162314
 72
     1
 10
106.8464821763781
 20
335.2822161162314
 11
108.0869865866321
 21
333.9734406060268
 72
     1
 10
108.0869865866321
 20
333.9734406060268
 11
109.2797792887987
 21
333.9734406060268
 72
     1
 10
109.2797792887987
 20
333.9734406060268
 11
109.2797792887987
 21
337.027250129838
 72
     1
 10
109.2797792887987
 20
337.027250129838
 11
108.0869865866321
 21
337.027250129838
 72
     1
 10
108.0869865866321
 20
337.027250129838
 11
108.0869865866321
 21
335.7184746196327
 72
     1
 10
108.0869865866321
 20
335.7184746196327
 11
106.8464821763781
 21
337.027250129838
 97
       10
330
16D
330
137
330
138
330
139
330
13A
330
170
330
135
330
16F
330
16E
330
136
 75
     1
 76
     0
 52
45.0
 41
0.1
 77
     0
 78
     1
 53
45.0
 43
0.0
 44
0.0
 45
-0.0707106781186548
 46
0.0707106781186548
 79
     0
 98
        1
 10
0.0
 20
0.0
  0
HATCH
  5
24A
330
71
100
AcDbEntity
  8
1
  6
Continuous
 62
     2
100
AcDbHatch
 10
0.0
 20
0.0
 30
0.0
210
0.0
220
0.0
230
1.0
  2
_USER
 70
     0
 71
     1
 91
        1
 92
        1
 93
       10
 72
     1
 10
101.5980433559595
 20
333.6680596536635
 11
100.4052506537919
 21
333.6680596536635
 72
     1
 10
100.4052506537919
 20
333.6680596536635
 11
100.4052506537919
 21
330.6142501298525
 72
     1
 10
100.4052506537919
 20
330.6142501298525
 11
101.5980433559595
 21
330.6142501298525
 72
     1
 10
101.5980433559595
 20
330.6142501298525
 11
101.5980433559595
 21
331.9230256400571
 72
     1
 10
101.5980433559595
 20
331.9230256400571
 11
102.8385477662123
 21
330.6142501298525
 72
     1
 10
102.8385477662123
 20
330.6142501298525
 11
104.0313404683787
 21
330.6142501298525
 72
     1
 10
104.0313404683787
 20
330.6142501298525
 11
104.0313404683787
 21
333.6680596536635
 72
     1
 10
104.0313404683787
 20
333.6680596536635
 11
102.8385477662123
 21
333.6680596536635
 72
     1
 10
102.8385477662123
 20
333.6680596536635
 11
102.8385477662123
 21
332.3592841434585
 72
     1
 10
102.8385477662123
 20
332.3592841434585
 11
101.5980433559595
 21
333.6680596536635
 97
       10
330
13C
330
13D
330
13E
330
16A
330
13F
330
140
330
169
330
16C
330
16B
330
13B
 75
     1
 76
     0
 52
45.0
 41
0.1
 77
     0
 78
     1
 53
45.0
 43
0.0
 44
0.0
 45
-0.0707106781186548
 46
0.0707106781186548
 79
     0
 98
        1
 10
0.0
 20
0.0
  0
HATCH
  5
24B
330
71
100
AcDbEntity
  8
1
  6
Continuous
 62
     2
100
AcDbHatch
 10
0.0
 20
0.0
 30
0.0
210
0.0
220
0.0
230
1.0
  2
_USER
 70
     0
 71
     1
 91
        1
 92
        1
 93
       10
 72
     1
 10
101.5980433559595
 20
333.6680596536635
 11
100.4052506537919
 21
333.6680596536635
 72
     1
 10
100.4052506537919
 20
333.6680596536635
 11
100.4052506537919
 21
330.6142501298525
 72
     1
 10
100.4052506537919
 20
330.6142501298525
 11
101.5980433559595
 21
330.6142501298525
 72
     1
 10
101.5980433559595
 20
330.6142501298525
 11
101.5980433559595
 21
331.9230256400571
 72
     1
 10
101.5980433559595
 20
331.9230256400571
 11
102.8385477662123
 21
330.6142501298525
 72
     1
 10
102.8385477662123
 20
330.6142501298525
 11
104.0313404683787
 21
330.6142501298525
 72
     1
 10
104.0313404683787
 20
330.6142501298525
 11
104.0313404683787
 21
333.6680596536635
 72
     1
 10
104.0313404683787
 20
333.6680596536635
 11
102.8385477662123
 21
333.6680596536635
 72
     1
 10
102.8385477662123
 20
333.6680596536635
 11
102.8385477662123
 21
332.3592841434585
 72
     1
 10
102.8385477662123
 20
332.3592841434585
 11
101.5980433559595
 21
333.6680596536635
 97
       10
330
13C
330
13D
330
13E
330
16A
330
13F
330
140
330
169
330
16C
330
16B
330
13B
 75
     1
 76
     0
 52
45.0
 41
0.1
 77
     0
 78
     1
 53
45.0
 43
0.0
 44
0.0
 45
-0.0707106781186548
 46
0.0707106781186548
 79
     0
 98
        1
 10
0.0
 20
0.0
  0
HATCH
  5
24C
330
71
100
AcDbEntity
  8
1
  6
Continuous
 62
     2
100
AcDbHatch
 10
0.0
 20
0.0
 30
0.0
210
0.0
220
0.0
230
1.0
  2
_USER
 70
     0
 71
     1
 91
        1
 92
        1
 93
       12
 72
     1
 10
100.596248417024
 20
337.027250129838
 11
100.596248417024
 21
333.9734406060268
 72
     1
 10
100.596248417024
 20
333.9734406060268
 11
99.40345571485764
 21
333.9734406060268
 72
     1
 10
99.40345571485764
 20
333.9734406060268
 11
99.40345571485764
 21
335.1077127148706
 72
     1
 10
99.40345571485764
 20
335.1077127148706
 11
98.35379813695016
 21
335.1077127148706
 72
     1
 10
98.35379813695016
 20
335.1077127148706
 11
98.35379813695016
 21
333.9734406060268
 72
     1
 10
98.35379813695016
 20
333.9734406060268
 11
97.16100543478356
 21
333.9734406060268
 72
     1
 10
97.16100543478356
 20
333.9734406060268
 11
97.16100543478356
 21
337.027250129838
 72
     1
 10
97.16100543478356
 20
337.027250129838
 11
98.35379813695016
 21
337.027250129838
 72
     1
 10
98.35379813695016
 20
337.027250129838
 11
98.35379813695016
 21
335.9584167965033
 72
     1
 10
98.35379813695016
 20
335.9584167965033
 11
99.40345571485764
 21
335.9584167965033
 72
     1
 10
99.40345571485764
 20
335.9584167965033
 11
99.40345571485764
 21
337.027250129838
 72
     1
 10
99.40345571485764
 20
337.027250129838
 11
100.596248417024
 21
337.027250129838
 97
       12
330
164
330
163
330
162
330
14A
330
14B
330
161
330
14C
330
160
330
15F
330
15E
330
148
330
149
 75
     1
 76
     0
 52
45.0
 41
0.1
 77
     0
 78
     1
 53
45.0
 43
0.0
 44
0.0
 45
-0.0707106781186548
 46
0.0707106781186548
 79
     0
 98
        1
 10
0.0
 20
0.0
  0
HATCH
  5
24D
330
71
100
AcDbEntity
  8
1
  6
Continuous
 62
     2
100
AcDbHatch
 10
0.0
 20
0.0
 30
0.0
210
0.0
220
0.0
230
1.0
  2
_USER
 70
     0
 71
     1
 91
        1
 92
        1
 93
       12
 72
     1
 10
100.596248417024
 20
337.027250129838
 11
100.596248417024
 21
333.9734406060268
 72
     1
 10
100.596248417024
 20
333.9734406060268
 11
99.40345571485764
 21
333.9734406060268
 72
     1
 10
99.40345571485764
 20
333.9734406060268
 11
99.40345571485764
 21
335.1077127148706
 72
     1
 10
99.40345571485764
 20
335.1077127148706
 11
98.35379813695016
 21
335.1077127148706
 72
     1
 10
98.35379813695016
 20
335.1077127148706
 11
98.35379813695016
 21
333.9734406060268
 72
     1
 10
98.35379813695016
 20
333.9734406060268
 11
97.16100543478356
 21
333.9734406060268
 72
     1
 10
97.16100543478356
 20
333.9734406060268
 11
97.16100543478356
 21
337.027250129838
 72
     1
 10
97.16100543478356
 20
337.027250129838
 11
98.35379813695016
 21
337.027250129838
 72
     1
 10
98.35379813695016
 20
337.027250129838
 11
98.35379813695016
 21
335.9584167965033
 72
     1
 10
98.35379813695016
 20
335.9584167965033
 11
99.40345571485764
 21
335.9584167965033
 72
     1
 10
99.40345571485764
 20
335.9584167965033
 11
99.40345571485764
 21
337.027250129838
 72
     1
 10
99.40345571485764
 20
337.027250129838
 11
100.596248417024
 21
337.027250129838
 97
       12
330
164
330
163
330
162
330
14A
330
14B
330
161
330
14C
330
160
330
15F
330
15E
330
148
330
149
 75
     1
 76
     0
 52
45.0
 41
0.1
 77
     0
 78
     1
 53
45.0
 43
0.0
 44
0.0
 45
-0.0707106781186548
 46
0.0707106781186548
 79
     0
 98
        1
 10
0.0
 20
0.0
  0
ENDBLK
  5
73
330
71
100
AcDbEntity
  8
0
100
AcDbBlockEnd
  0
BLOCK
  5
75
330
74
100
AcDbEntity
  8
0
100
AcDbBlockBegin
  2
_punkt
 70
     0
 10
212.473552230813
 20
323.3207501298361
 30
0.0
  3
_punkt
  1

  0
LINE
  5
24E
330
74
100
AcDbEntity
  8
1
  6
Continuous
 62
     2
100
AcDbLine
 10
212.473552230813
 20
323.3207501298361
 30
0.0
 11
212.473552230813
 21
318.320750129836
 31
0.0
  0
LINE
  5
24F
330
74
100
AcDbEntity
  8
1
  6
Continuous
 62
     2
100
AcDbLine
 10
212.473552230813
 20
323.3207501298361
 30
0.0
 11
217.473552230812
 21
323.3207501298361
 31
0.0
  0
ENDBLK
  5
76
330
74
100
AcDbEntity
  8
0
100
AcDbBlockEnd
  0
BLOCK
  5
7A
330
77
100
AcDbEntity
  8
0
100
AcDbBlockBegin
  2
A4I_CS
 70
     0
 10
212.473552230813
 20
318.320750129836
 30
0.0
  3
A4I_CS
  1

  0
INSERT
  5
78
330
77
100
AcDbEntity
  8
1
100
AcDbBlockReference
  2
_rahmen
 10
212.473552230813
 20
318.320750129836
 30
0.0
  0
INSERT
  5
79
330
77
100
AcDbEntity
  8
1
100
AcDbBlockReference
  2
_punkt
 10
212.473552230813
 20
323.3207501298361
 30
0.0
  0
ENDBLK
  5
7B
330
77
100
AcDbEntity
  8
0
100
AcDbBlockEnd
  0
BLOCK
  5
84
330
7C
100
AcDbEntity
  8
0
100
AcDbBlockBegin
  2
1
 70
     0
 10
0.0
 20
0.0
 30
0.0
  3
1
  1

  0
INSERT
  5
7D
330
7C
100
AcDbEntity
  8
0
100
AcDbBlockReference
  2
AllgSicht1
 10
148.3000020000294
 20
389.999999907479
 30
0.0
  0
INSERT
  5
7E
330
7C
100
AcDbEntity
  8
0
100
AcDbBlockReference
  2
Drfsicht1
 10
30.0
 20
398.00000000006
 30
0.0
  0
INSERT
  5
7F
330
7C
100
AcDbEntity
  8
0
100
AcDbBlockReference
  2
Rckans1
 10
148.3000019192693
 20
460.4000000059605
 30
0.0
  0
INSERT
  5
80
330
7C
100
AcDbEntity
  8
0
100
AcDbBlockReference
  2
SA_Links1
 10
90.1500009595741
 20
460.4000000059609
 30
0.0
  0
INSERT
  5
81
330
7C
100
AcDbEntity
  8
0
100
AcDbBlockReference
  2
SA_Rechts1
 10
-50.15000095957237
 20
460.4000000059605
 30
0.0
  0
INSERT
  5
82
330
7C
100
AcDbEntity
  8
0
100
AcDbBlockReference
  2
Vordans1
 10
30.00000000000239
 20
460.400000005961
 30
0.0
  0
INSERT
  5
83
330
7C
100
AcDbEntity
  8
0
100
AcDbBlockReference
  2
A4I_CS
 10
212.473552230813
 20
318.320750129836
 30
0.0
  0
ENDBLK
  5
85
330
7C
100
AcDbEntity
  8
0
100
AcDbBlockEnd
  0
BLOCK
  5
BC
330
B2
100
AcDbEntity
  8
0
100
AcDbBlockBegin
  2
*D17
 70
     1
 10
0.0
 20
0.0
 30
0.0
  3
*D17
  1

  0
LINE
  5
B3
330
B2
100
AcDbEntity
  8
1
  6
Continuous
 62
     2
100
AcDbLine
 10
-23.49999959872371
 20
406.6958460206509
 30
0.0
 11
-23.49999959872371
 21
396.1500000060803
 31
0.0
  0
LINE
  5
B4
330
B2
100
AcDbEntity
  8
1
  6
Continuous
 62
     2
100
AcDbLine
 10
-23.49999959872371
 20
396.1500000060803
 30
0.0
 11
-23.49999959872371
 21
395.3500000060803
 31
0.0
  0
LINE
  5
B5
330
B2
100
AcDbEntity
  8
1
  6
Continuous
 62
     2
100
AcDbLine
 10
-23.49999959872371
 20
395.3500000060803
 30
0.0
 11
-23.49999959872371
 21
388.3500000060803
 31
0.0
  0
LINE
  5
B6
330
B2
100
AcDbEntity
  8
1
  6
Continuous
 62
     2
100
AcDbLine
 10
-13.49999959872371
 20
396.1500000060803
 30
0.0
 11
-24.99999959872371
 21
396.1500000060803
 31
0.0
  0
LINE
  5
B7
330
B2
100
AcDbEntity
  8
1
  6
Continuous
 62
     2
100
AcDbLine
 10
-13.4999995987237
 20
395.3500000060803
 30
0.0
 11
-24.99999959872371
 21
395.3500000060803
 31
0.0
  0
SOLID
  5
B8
330
B2
100
AcDbEntity
  8
1
 62
     2
100
AcDbTrace
 10
-23.96078334027959
 20
399.6500000060803
 30
0.0
 11
-23.03921585716782
 21
399.6500000060803
 31
0.0
 12
-23.49999959872371
 22
396.1500000060803
 32
0.0
 13
-23.49999959872371
 23
396.1500000060803
 33
0.0
  0
SOLID
  5
B9
330
B2
100
AcDbEntity
  8
1
 62
     2
100
AcDbTrace
 10
-23.03921585716783
 20
391.8500000060803
 30
0.0
 11
-23.96078334027959
 21
391.8500000060803
 31
0.0
 12
-23.49999959872371
 22
395.3500000060803
 32
0.0
 13
-23.49999959872371
 23
395.3500000060803
 33
0.0
  0
MTEXT
  5
BB
330
B2
100
AcDbEntity
  8
1
 62
     3
100
AcDbMText
 10
-25.34999959872371
 20
400.2208460206509
 30
0.0
 40
3.5
 41
0.0
 71
     7
 72
     1
  1
0,8
  7
CONVERTER_11
 11
0.0
 21
1.0
 31
0.0
 73
     1
 44
0.60024009603842
  0
ENDBLK
  5
BD
330
B2
100
AcDbEntity
  8
0
100
AcDbBlockEnd
  0
BLOCK
  5
FD
330
F6
100
AcDbEntity
  8
0
100
AcDbBlockBegin
  2
*D18
 70
     1
 10
0.0
 20
0.0
 30
0.0
  3
*D18
  1

  0
LINE
  5
F7
330
F6
100
AcDbEntity
  8
1
  6
Continuous
 62
     2
100
AcDbLine
 10
-23.49999959872329
 20
447.350000189303
 30
0.0
 11
-23.49999959872329
 21
483.150000189303
 31
0.0
  0
LINE
  5
F8
330
F6
100
AcDbEntity
  8
1
  6
Continuous
 62
     2
100
AcDbLine
 10
22.15000040127865
 20
447.350000189303
 30
0.0
 11
-24.99999959872329
 21
447.350000189303
 31
0.0
  0
LINE
  5
F9
330
F6
100
AcDbEntity
  8
1
  6
Continuous
 62
     2
100
AcDbLine
 10
9.47520901534666
 20
483.150000189303
 30
0.0
 11
-24.99999959872329
 21
483.150000189303
 31
0.0
  0
SOLID
  5
FA
330
F6
100
AcDbEntity
  8
1
 62
     2
100
AcDbTrace
 10
-23.96078334027917
 20
450.850000189303
 30
0.0
 11
-23.0392158571674
 21
450.850000189303
 31
0.0
 12
-23.49999959872329
 22
447.350000189303
 32
0.0
 13
-23.49999959872329
 23
447.350000189303
 33
0.0
  0
SOLID
  5
FB
330
F6
100
AcDbEntity
  8
1
 62
     2
100
AcDbTrace
 10
-23.03921585716741
 20
479.650000189303
 30
0.0
 11
-23.96078334027917
 21
479.650000189303
 31
0.0
 12
-23.49999959872329
 22
483.150000189303
 32
0.0
 13
-23.49999959872329
 23
483.150000189303
 33
0.0
  0
MTEXT
  5
FC
330
F6
100
AcDbEntity
  8
1
 62
     3
100
AcDbMText
 10
-25.34999959872329
 20
460.6964929405391
 30
0.0
 40
3.5
 41
0.0
 71
     7
 72
     1
  1
35,8
  7
CONVERTER_11
 11
0.0
 21
1.0
 31
0.0
 73
     1
 44
0.60024009603842
  0
ENDBLK
  5
FE
330
F6
100
AcDbEntity
  8
0
100
AcDbBlockEnd
  0
BLOCK
  5
108
330
101
100
AcDbEntity
  8
0
100
AcDbBlockBegin
  2
*D19
 70
     1
 10
0.0
 20
0.0
 30
0.0
  3
*D19
  1

  0
LINE
  5
102
330
101
100
AcDbEntity
  8
1
  6
Continuous
 62
     2
100
AcDbLine
 10
-31.49999959872329
 20
437.6500001893029
 30
0.0
 11
-31.49999959872329
 21
483.1500001893029
 31
0.0
  0
LINE
  5
103
330
101
100
AcDbEntity
  8
1
  6
Continuous
 62
     2
100
AcDbLine
 10
0.6239301376774
 20
437.6500001893029
 30
0.0
 11
-32.99999959872329
 21
437.6500001893029
 31
0.0
  0
LINE
  5
104
330
101
100
AcDbEntity
  8
1
  6
Continuous
 62
     2
100
AcDbLine
 10
9.47520901534666
 20
483.1500001893029
 30
0.0
 11
-32.99999959872329
 21
483.1500001893029
 31
0.0
  0
SOLID
  5
105
330
101
100
AcDbEntity
  8
1
 62
     2
100
AcDbTrace
 10
-31.96078334027917
 20
441.1500001893029
 30
0.0
 11
-31.0392158571674
 21
441.1500001893029
 31
0.0
 12
-31.49999959872329
 22
437.6500001893029
 32
0.0
 13
-31.49999959872329
 23
437.6500001893029
 33
0.0
  0
SOLID
  5
106
330
101
100
AcDbEntity
  8
1
 62
     2
100
AcDbTrace
 10
-31.03921585716741
 20
479.6500001893029
 30
0.0
 11
-31.96078334027917
 21
479.6500001893029
 31
0.0
 12
-31.49999959872329
 22
483.1500001893029
 32
0.0
 13
-31.49999959872329
 23
483.1500001893029
 33
0.0
  0
MTEXT
  5
107
330
101
100
AcDbEntity
  8
1
 62
     3
100
AcDbMText
 10
-33.34999959872329
 20
455.4987367914031
 30
0.0
 40
3.5
 41
0.0
 71
     7
 72
     1
  1
45,5
  7
CONVERTER_11
 11
0.0
 21
1.0
 31
0.0
 73
     1
 44
0.60024009603842
  0
ENDBLK
  5
109
330
101
100
AcDbEntity
  8
0
100
AcDbBlockEnd
  0
BLOCK
  5
113
330
10C
100
AcDbEntity
  8
0
100
AcDbBlockBegin
  2
*D20
 70
     1
 10
0.0
 20
0.0
 30
0.0
  3
*D20
  1

  0
LINE
  5
10D
330
10C
100
AcDbEntity
  8
1
  6
Continuous
 62
     2
100
AcDbLine
 10
-13.4999995987213
 20
427.650000189303
 30
0.0
 11
73.50000040127858
 21
427.650000189303
 31
0.0
  0
LINE
  5
10E
330
10C
100
AcDbEntity
  8
1
  6
Continuous
 62
     2
100
AcDbLine
 10
-13.49999959872131
 20
437.650000189303
 30
0.0
 11
-13.49999959872131
 21
426.150000189303
 31
0.0
  0
LINE
  5
10F
330
10C
100
AcDbEntity
  8
1
  6
Continuous
 62
     2
100
AcDbLine
 10
73.50000040127858
 20
437.650000189303
 30
0.0
 11
73.50000040127858
 21
426.150000189303
 31
0.0
  0
SOLID
  5
110
330
10C
100
AcDbEntity
  8
1
 62
     2
100
AcDbTrace
 10
-9.9999995987213
 20
428.1107839308589
 30
0.0
 11
-9.9999995987213
 21
427.1892164477471
 31
0.0
 12
-13.4999995987213
 22
427.650000189303
 32
0.0
 13
-13.4999995987213
 23
427.650000189303
 33
0.0
  0
SOLID
  5
111
330
10C
100
AcDbEntity
  8
1
 62
     2
100
AcDbTrace
 10
70.00000040127858
 20
427.1892164477471
 30
0.0
 11
70.00000040127858
 21
428.1107839308589
 31
0.0
 12
73.50000040127858
 22
427.650000189303
 32
0.0
 13
73.50000040127858
 23
427.650000189303
 33
0.0
  0
MTEXT
  5
112
330
10C
100
AcDbEntity
  8
1
 62
     3
100
AcDbMText
 10
26.98368341873359
 20
429.150000189303
 30
0.0
 40
3.5
 41
0.0
 71
     7
 72
     1
  1
87
  7
CONVERTER_11
 11
0.9999999999970619
 21
2.424068405545306E-6
 31
0.0
 73
     1
 44
0.60024009603842
  0
ENDBLK
  5
114
330
10C
100
AcDbEntity
  8
0
100
AcDbBlockEnd
  0
ENDSEC
  0
SECTION
  2
ENTITIES
  0
INSERT
  5
86
330
1F
100
AcDbEntity
  8
1
100
AcDbBlockReference
  2
1
 10
0.0
 20
0.0
 30
0.0
  0
ENDSEC
  0
SECTION
  2
OBJECTS
  0
DICTIONARY
  5
C
330
0
100
AcDbDictionary
281
     1
  3
ACAD_GROUP
350
D
  3
ACAD_LAYOUT
350
1A
  3
ACAD_MATERIAL
350
3B
  3
ACAD_MLEADERSTYLE
350
277
  3
ACAD_MLINESTYLE
350
17
  3
ACAD_PLOTSETTINGS
350
19
  3
ACAD_PLOTSTYLENAME
350
E
  3
ACAD_TABLESTYLE
350
276
  3
ACAD_VISUALSTYLE
350
2A
  0
DICTIONARY
  5
D
102
{ACAD_REACTORS
330
C
102
}
330
C
100
AcDbDictionary
281
     1
  0
DICTIONARY
  5
1A
102
{ACAD_REACTORS
330
C
102
}
330
C
100
AcDbDictionary
281
     1
  3
Layout1
350
1E
  3
Layout2
350
26
  3
Model
350
22
  0
DICTIONARY
  5
3B
102
{ACAD_REACTORS
330
C
102
}
330
C
100
AcDbDictionary
281
     1
  3
ByBlock
350
3D
  3
ByLayer
350
3C
  3
Global
350
3E
  0
DICTIONARY
  5
277
102
{ACAD_REACTORS
330
C
102
}
330
C
100
AcDbDictionary
281
     1
  0
DICTIONARY
  5
17
102
{ACAD_REACTORS
330
C
102
}
330
C
100
AcDbDictionary
281
     1
  3
Standard
350
18
  0
DICTIONARY
  5
19
102
{ACAD_REACTORS
330
C
102
}
330
C
100
AcDbDictionary
281
     1
  0
ACDBDICTIONARYWDFLT
  5
E
102
{ACAD_REACTORS
330
C
102
}
330
C
100
AcDbDictionary
281
     1
  3
Normal
350
F
100
AcDbDictionaryWithDefault
340
F
  0
DICTIONARY
  5
276
102
{ACAD_REACTORS
330
C
102
}
330
C
100
AcDbDictionary
281
     1
  0
DICTIONARY
  5
2A
102
{ACAD_REACTORS
330
C
102
}
330
C
100
AcDbDictionary
281
     1
  3
2dWireframe
350
2F
  3
3D Hidden
350
31
  3
3dWireframe
350
30
  3
Basic
350
32
  3
Brighten
350
36
  3
ColorChange
350
3A
  3
Conceptual
350
34
  3
Dim
350
35
  3
Facepattern
350
39
  3
Flat
350
2B
  3
FlatWithEdges
350
2C
  3
Gouraud
350
2D
  3
GouraudWithEdges
350
2E
  3
Linepattern
350
38
  3
Realistic
350
33
  3
Thicken
350
37
  0
LAYOUT
  5
1E
102
{ACAD_REACTORS
330
1A
102
}
330
1A
100
AcDbPlotSettings
  1

  2
none_device
  4

  6

 40
0.0
 41
0.0
 42
0.0
 43
0.0
 44
0.0
 45
0.0
 46
0.0
 47
0.0
 48
0.0
 49
0.0
140
0.0
141
0.0
142
1.0
143
1.0
 70
   688
 72
     0
 73
     0
 74
     5
  7

 75
    16
 76
     0
 77
     2
 78
   300
147
1.0
148
0.0
149
0.0
100
AcDbLayout
  1
Layout1
 70
     1
 71
     1
 10
0.0
 20
0.0
 11
12.0
 21
9.0
 12
0.0
 22
0.0
 32
0.0
 14
1.00000000000000E+20
 24
1.00000000000000E+20
 34
1.00000000000000E+20
 15
-1.00000000000000E+20
 25
-1.00000000000000E+20
 35
-1.00000000000000E+20
146
0.0
 13
0.0
 23
0.0
 33
0.0
 16
1.0
 26
0.0
 36
0.0
 17
0.0
 27
1.0
 37
0.0
 76
     0
330
1B
  0
LAYOUT
  5
26
102
{ACAD_REACTORS
330
1A
102
}
330
1A
100
AcDbPlotSettings
  1

  2
none_device
  4

  6

 40
0.0
 41
0.0
 42
0.0
 43
0.0
 44
0.0
 45
0.0
 46
0.0
 47
0.0
 48
0.0
 49
0.0
140
0.0
141
0.0
142
1.0
143
1.0
 70
   688
 72
     0
 73
     0
 74
     5
  7

 75
    16
 76
     0
 77
     2
 78
   300
147
1.0
148
0.0
149
0.0
100
AcDbLayout
  1
Layout2
 70
     1
 71
     2
 10
0.0
 20
0.0
 11
0.0
 21
0.0
 12
0.0
 22
0.0
 32
0.0
 14
0.0
 24
0.0
 34
0.0
 15
0.0
 25
0.0
 35
0.0
146
0.0
 13
0.0
 23
0.0
 33
0.0
 16
1.0
 26
0.0
 36
0.0
 17
0.0
 27
1.0
 37
0.0
 76
     0
330
23
  0
LAYOUT
  5
22
102
{ACAD_REACTORS
330
1A
102
}
330
1A
100
AcDbPlotSettings
  1

  2
none_device
  4

  6

 40
0.0
 41
0.0
 42
0.0
 43
0.0
 44
0.0
 45
0.0
 46
0.0
 47
0.0
 48
0.0
 49
0.0
140
0.0
141
0.0
142
1.0
143
1.0
 70
  1712
 72
     0
 73
     0
 74
     0
  7

 75
     0
 76
     0
 77
     2
 78
   300
147
1.0
148
0.0
149
0.0
100
AcDbLayout
  1
Model
 70
     1
 71
     0
 10
0.0
 20
0.0
 11
12.0
 21
9.0
 12
0.0
 22
0.0
 32
0.0
 14
-79.52644776918612
 24
318.320750129836
 34
0.0
 15
217.473552230812
 25
528.3207501298361
 35
0.0
146
0.0
 13
0.0
 23
0.0
 33
0.0
 16
1.0
 26
0.0
 36
0.0
 17
0.0
 27
1.0
 37
0.0
 76
     0
330
1F
331
29
  0
MATERIAL
  5
3D
102
{ACAD_REACTORS
330
3B
102
}
102
{ACAD_XDICTIONARY
360
272
102
}
330
3B
100
AcDbMaterial
  1
ByBlock
  0
MATERIAL
  5
3C
102
{ACAD_REACTORS
330
3B
102
}
102
{ACAD_XDICTIONARY
360
270
102
}
330
3B
100
AcDbMaterial
  1
ByLayer
  0
MATERIAL
  5
3E
102
{ACAD_REACTORS
330
3B
102
}
102
{ACAD_XDICTIONARY
360
274
102
}
330
3B
100
AcDbMaterial
  1
Global
  0
MLINESTYLE
  5
18
102
{ACAD_REACTORS
330
17
102
}
330
17
100
AcDbMlineStyle
  2
Standard
 70
     0
  3

 62
   256
 51
90.0
 52
90.0
 71
     2
 49
0.5
 62
   256
  6
BYLAYER
 49
-0.5
 62
   256
  6
BYLAYER
  0
ACDBPLACEHOLDER
  5
F
102
{ACAD_REACTORS
330
E
102
}
330
E
  0
VISUALSTYLE
  5
2F
102
{ACAD_REACTORS
330
2A
102
}
102
{ACAD_XDICTIONARY
360
258
102
}
330
2A
100
AcDbVisualStyle
  2
2dWireframe
 70
     4
 71
     0
 72
     2
 73
     0
 90
        0
 40
-0.6
 41
-30.0
 62
     5
 63
     7
421
 16777215
 74
     1
 91
        4
 64
     7
 65
   257
 75
     1
175
     1
 42
1.0
 92
        0
 66
   257
 43
1.0
 76
     1
 77
     6
 78
     2
 67
     7
 79
     5
170
     0
171
     0
290
     0
174
     0
 93
        1
 44
0.0
173
     0
291
     0
 45
0.0
1001
ACAD
1000
AcDbSavedByObjectVersion
1070
     0
  0
VISUALSTYLE
  5
31
102
{ACAD_REACTORS
330
2A
102
}
102
{ACAD_XDICTIONARY
360
25C
102
}
330
2A
100
AcDbVisualStyle
  2
3D Hidden
 70
     6
 71
     1
 72
     2
 73
     2
 90
        0
 40
-0.6
 41
-30.0
 62
     5
 63
     7
421
 16777215
 74
     2
 91
        2
 64
     7
 65
   257
 75
     2
175
     1
 42
40.0
 92
        0
 66
   257
 43
1.0
 76
     1
 77
     6
 78
     2
 67
     7
 79
     3
170
     0
171
     0
290
     0
174
     0
 93
        1
 44
0.0
173
     0
291
     0
 45
0.0
1001
ACAD
1000
AcDbSavedByObjectVersion
1070
     0
  0
VISUALSTYLE
  5
30
102
{ACAD_REACTORS
330
2A
102
}
102
{ACAD_XDICTIONARY
360
25A
102
}
330
2A
100
AcDbVisualStyle
  2
3dWireframe
 70
     5
 71
     0
 72
     2
 73
     0
 90
        0
 40
-0.6
 41
-30.0
 62
     5
 63
     7
421
 16777215
 74
     1
 91
        4
 64
     7
 65
   257
 75
     1
175
     1
 42
1.0
 92
        0
 66
   257
 43
1.0
 76
     1
 77
     6
 78
     2
 67
     7
 79
     5
170
     0
171
     0
290
     0
174
     0
 93
        1
 44
0.0
173
     0
291
     0
 45
0.0
1001
ACAD
1000
AcDbSavedByObjectVersion
1070
     0
  0
VISUALSTYLE
  5
32
102
{ACAD_REACTORS
330
2A
102
}
102
{ACAD_XDICTIONARY
360
25E
102
}
330
2A
100
AcDbVisualStyle
  2
Basic
 70
     7
 71
     1
 72
     0
 73
     1
 90
        0
 40
-0.6
 41
-30.0
 62
     5
 63
     7
421
 16777215
 74
     0
 91
        4
 64
     7
 65
   257
 75
     1
175
     1
 42
1.0
 92
        8
 66
     7
 43
1.0
 76
     1
 77
     6
 78
     2
 67
     7
 79
     5
170
     0
171
     0
290
     0
174
     0
 93
        1
 44
0.0
173
     0
291
     1
 45
0.0
1001
ACAD
1000
AcDbSavedByObjectVersion
1070
     0
  0
VISUALSTYLE
  5
36
102
{ACAD_REACTORS
330
2A
102
}
102
{ACAD_XDICTIONARY
360
266
102
}
330
2A
100
AcDbVisualStyle
  2
Brighten
 70
    12
 71
     2
 72
     2
 73
     0
 90
        0
 40
-0.6
 41
-30.0
 62
     5
 63
     7
421
 16777215
 74
     1
 91
        4
 64
     7
 65
   257
 75
     1
175
     1
 42
1.0
 92
        8
 66
     7
 43
1.0
 76
     1
 77
     6
 78
     2
 67
     7
 79
     5
170
     0
171
     0
290
     0
174
     0
 93
        1
 44
50.0
173
     0
291
     1
 45
0.0
1001
ACAD
1000
AcDbSavedByObjectVersion
1070
     0
  0
VISUALSTYLE
  5
3A
102
{ACAD_REACTORS
330
2A
102
}
102
{ACAD_XDICTIONARY
360
26E
102
}
330
2A
100
AcDbVisualStyle
  2
ColorChange
 70
    16
 71
     2
 72
     2
 73
     3
 90
        0
 40
-0.6
 41
-30.0
 62
     5
 63
     8
421
  8421504
 74
     1
 91
        4
 64
     7
 65
   257
 75
     1
175
     1
 42
1.0
 92
        8
 66
     8
424
  8421504
 43
1.0
 76
     1
 77
     6
 78
     2
 67
     7
 79
     5
170
     0
171
     0
290
     0
174
     0
 93
        1
 44
0.0
173
     0
291
     1
 45
0.0
1001
ACAD
1000
AcDbSavedByObjectVersion
1070
     0
  0
VISUALSTYLE
  5
34
102
{ACAD_REACTORS
330
2A
102
}
102
{ACAD_XDICTIONARY
360
262
102
}
330
2A
100
AcDbVisualStyle
  2
Conceptual
 70
     9
 71
     3
 72
     2
 73
     0
 90
        0
 40
-0.6
 41
-30.0
 62
     5
 63
     7
421
 16777215
 74
     2
 91
        2
 64
     7
 65
   257
 75
     1
175
     1
 42
40.0
 92
        8
 66
     7
 43
1.0
 76
     1
 77
     6
 78
     2
 67
     7
 79
     3
170
     0
171
     0
290
     0
174
     0
 93
        1
 44
0.0
173
     0
291
     0
 45
0.0
1001
ACAD
1000
AcDbSavedByObjectVersion
1070
     0
  0
VISUALSTYLE
  5
35
102
{ACAD_REACTORS
330
2A
102
}
102
{ACAD_XDICTIONARY
360
264
102
}
330
2A
100
AcDbVisualStyle
  2
Dim
 70
    11
 71
     2
 72
     2
 73
     0
 90
        0
 40
-0.6
 41
-30.0
 62
     5
 63
     7
421
 16777215
 74
     1
 91
        4
 64
     7
 65
   257
 75
     1
175
     1
 42
1.0
 92
        8
 66
     7
 43
1.0
 76
     1
 77
     6
 78
     2
 67
     7
 79
     5
170
     0
171
     0
290
     0
174
     0
 93
        1
 44
-50.0
173
     0
291
     1
 45
0.0
1001
ACAD
1000
AcDbSavedByObjectVersion
1070
     0
  0
VISUALSTYLE
  5
39
102
{ACAD_REACTORS
330
2A
102
}
102
{ACAD_XDICTIONARY
360
26C
102
}
330
2A
100
AcDbVisualStyle
  2
Facepattern
 70
    15
 71
     2
 72
     2
 73
     0
 90
        0
 40
-0.6
 41
-30.0
 62
     5
 63
     7
421
 16777215
 74
     1
 91
        4
 64
     7
 65
   257
 75
     1
175
     1
 42
1.0
 92
        8
 66
     7
 43
1.0
 76
     1
 77
     6
 78
     2
 67
     7
 79
     5
170
     0
171
     0
290
     0
174
     0
 93
        1
 44
0.0
173
     0
291
     1
 45
0.0
1001
ACAD
1000
AcDbSavedByObjectVersion
1070
     0
  0
VISUALSTYLE
  5
2B
102
{ACAD_REACTORS
330
2A
102
}
102
{ACAD_XDICTIONARY
360
250
102
}
330
2A
100
AcDbVisualStyle
  2
Flat
 70
     0
 71
     2
 72
     1
 73
     1
 90
        2
 40
-0.6
 41
30.0
 62
     5
 63
     7
421
 16777215
 74
     0
 91
        4
 64
     7
 65
   257
 75
     1
175
     1
 42
1.0
 92
        8
 66
     7
 43
1.0
 76
     1
 77
     6
 78
     2
 67
     7
 79
     5
170
     0
171
     0
290
     0
174
     0
 93
       13
 44
0.0
173
     0
291
     1
 45
0.0
1001
ACAD
1000
AcDbSavedByObjectVersion
1070
     0
  0
VISUALSTYLE
  5
2C
102
{ACAD_REACTORS
330
2A
102
}
102
{ACAD_XDICTIONARY
360
252
102
}
330
2A
100
AcDbVisualStyle
  2
FlatWithEdges
 70
     1
 71
     2
 72
     1
 73
     1
 90
        2
 40
-0.6
 41
30.0
 62
     5
 63
     7
421
 16777215
 74
     1
 91
        4
 64
     7
 65
   257
 75
     1
175
     1
 42
1.0
 92
        0
 66
   257
 43
1.0
 76
     1
 77
     6
 78
     2
 67
     7
 79
     5
170
     0
171
     0
290
     0
174
     0
 93
       13
 44
0.0
173
     0
291
     1
 45
0.0
1001
ACAD
1000
AcDbSavedByObjectVersion
1070
     0
  0
VISUALSTYLE
  5
2D
102
{ACAD_REACTORS
330
2A
102
}
102
{ACAD_XDICTIONARY
360
254
102
}
330
2A
100
AcDbVisualStyle
  2
Gouraud
 70
     2
 71
     2
 72
     2
 73
     1
 90
        2
 40
-0.6
 41
30.0
 62
     5
 63
     7
421
 16777215
 74
     0
 91
        4
 64
     7
 65
   257
 75
     1
175
     1
 42
1.0
 92
        0
 66
     7
 43
1.0
 76
     1
 77
     6
 78
     2
 67
     7
 79
     5
170
     0
171
     0
290
     0
174
     0
 93
       13
 44
0.0
173
     0
291
     1
 45
0.0
1001
ACAD
1000
AcDbSavedByObjectVersion
1070
     0
  0
VISUALSTYLE
  5
2E
102
{ACAD_REACTORS
330
2A
102
}
102
{ACAD_XDICTIONARY
360
256
102
}
330
2A
100
AcDbVisualStyle
  2
GouraudWithEdges
 70
     3
 71
     2
 72
     2
 73
     1
 90
        2
 40
-0.6
 41
30.0
 62
     5
 63
     7
421
 16777215
 74
     1
 91
        4
 64
     7
 65
   257
 75
     1
175
     1
 42
1.0
 92
        0
 66
   257
 43
1.0
 76
     1
 77
     6
 78
     2
 67
     7
 79
     5
170
     0
171
     0
290
     0
174
     0
 93
       13
 44
0.0
173
     0
291
     1
 45
0.0
1001
ACAD
1000
AcDbSavedByObjectVersion
1070
     0
  0
VISUALSTYLE
  5
38
102
{ACAD_REACTORS
330
2A
102
}
102
{ACAD_XDICTIONARY
360
26A
102
}
330
2A
100
AcDbVisualStyle
  2
Linepattern
 70
    14
 71
     2
 72
     2
 73
     0
 90
        0
 40
-0.6
 41
-30.0
 62
     5
 63
     7
421
 16777215
 74
     1
 91
        4
 64
     7
 65
   257
 75
     7
175
     7
 42
1.0
 92
        8
 66
     7
 43
1.0
 76
     1
 77
     6
 78
     2
 67
     7
 79
     5
170
     0
171
     0
290
     0
174
     0
 93
        1
 44
0.0
173
     0
291
     1
 45
0.0
1001
ACAD
1000
AcDbSavedByObjectVersion
1070
     0
  0
VISUALSTYLE
  5
33
102
{ACAD_REACTORS
330
2A
102
}
102
{ACAD_XDICTIONARY
360
260
102
}
330
2A
100
AcDbVisualStyle
  2
Realistic
 70
     8
 71
     2
 72
     2
 73
     0
 90
        0
 40
-0.6
 41
-30.0
 62
     5
 63
     7
421
 16777215
 74
     1
 91
        0
 64
     7
 65
   257
 75
     1
175
     1
 42
1.0
 92
        8
 66
     8
424
  7895160
 43
1.0
 76
     1
 77
     6
 78
     2
 67
     7
 79
     5
170
     0
171
     0
290
     0
174
     0
 93
       13
 44
0.0
173
     0
291
     0
 45
0.0
1001
ACAD
1000
AcDbSavedByObjectVersion
1070
     0
  0
VISUALSTYLE
  5
37
102
{ACAD_REACTORS
330
2A
102
}
102
{ACAD_XDICTIONARY
360
268
102
}
330
2A
100
AcDbVisualStyle
  2
Thicken
 70
    13
 71
     2
 72
     2
 73
     0
 90
        0
 40
-0.6
 41
-30.0
 62
     5
 63
     7
421
 16777215
 74
     1
 91
        4
 64
     7
 65
   257
 75
     1
175
     1
 42
1.0
 92
       12
 66
     7
 43
1.0
 76
     1
 77
     6
 78
     2
 67
     7
 79
     5
170
     0
171
     0
290
     0
174
     0
 93
        1
 44
0.0
173
     0
291
     1
 45
0.0
1001
ACAD
1000
AcDbSavedByObjectVersion
1070
     0
  0
DICTIONARY
  5
272
330
3D
100
AcDbDictionary
280
     1
281
     1
  3
ACAD_XREC_ROUNDTRIP
360
273
  0
DICTIONARY
  5
270
330
3C
100
AcDbDictionary
280
     1
281
     1
  3
ACAD_XREC_ROUNDTRIP
360
271
  0
DICTIONARY
  5
274
330
3E
100
AcDbDictionary
280
     1
281
     1
  3
ACAD_XREC_ROUNDTRIP
360
275
  0
DICTIONARY
  5
258
330
2F
100
AcDbDictionary
280
     1
281
     1
  3
ACAD_XREC_ROUNDTRIP
360
259
  0
DICTIONARY
  5
25C
330
31
100
AcDbDictionary
280
     1
281
     1
  3
ACAD_XREC_ROUNDTRIP
360
25D
  0
DICTIONARY
  5
25A
330
30
100
AcDbDictionary
280
     1
281
     1
  3
ACAD_XREC_ROUNDTRIP
360
25B
  0
DICTIONARY
  5
25E
330
32
100
AcDbDictionary
280
     1
281
     1
  3
ACAD_XREC_ROUNDTRIP
360
25F
  0
DICTIONARY
  5
266
330
36
100
AcDbDictionary
280
     1
281
     1
  3
ACAD_XREC_ROUNDTRIP
360
267
  0
DICTIONARY
  5
26E
330
3A
100
AcDbDictionary
280
     1
281
     1
  3
ACAD_XREC_ROUNDTRIP
360
26F
  0
DICTIONARY
  5
262
330
34
100
AcDbDictionary
280
     1
281
     1
  3
ACAD_XREC_ROUNDTRIP
360
263
  0
DICTIONARY
  5
264
330
35
100
AcDbDictionary
280
     1
281
     1
  3
ACAD_XREC_ROUNDTRIP
360
265
  0
DICTIONARY
  5
26C
330
39
100
AcDbDictionary
280
     1
281
     1
  3
ACAD_XREC_ROUNDTRIP
360
26D
  0
DICTIONARY
  5
250
330
2B
100
AcDbDictionary
280
     1
281
     1
  3
ACAD_XREC_ROUNDTRIP
360
251
  0
DICTIONARY
  5
252
330
2C
100
AcDbDictionary
280
     1
281
     1
  3
ACAD_XREC_ROUNDTRIP
360
253
  0
DICTIONARY
  5
254
330
2D
100
AcDbDictionary
280
     1
281
     1
  3
ACAD_XREC_ROUNDTRIP
360
255
  0
DICTIONARY
  5
256
330
2E
100
AcDbDictionary
280
     1
281
     1
  3
ACAD_XREC_ROUNDTRIP
360
257
  0
DICTIONARY
  5
26A
330
38
100
AcDbDictionary
280
     1
281
     1
  3
ACAD_XREC_ROUNDTRIP
360
26B
  0
DICTIONARY
  5
260
330
33
100
AcDbDictionary
280
     1
281
     1
  3
ACAD_XREC_ROUNDTRIP
360
261
  0
DICTIONARY
  5
268
330
37
100
AcDbDictionary
280
     1
281
     1
  3
ACAD_XREC_ROUNDTRIP
360
269
  0
XRECORD
  5
273
102
{ACAD_REACTORS
330
272
102
}
330
272
100
AcDbXrecord
280
     1
102
MATERIAL
148
0.0
149
0.0
149
0.0
 93
        0
 94
      127
282
     0
 72
     1
 77
     1
171
     1
175
     1
179
     1
273
     0
  0
XRECORD
  5
271
102
{ACAD_REACTORS
330
270
102
}
330
270
100
AcDbXrecord
280
     1
102
MATERIAL
148
0.0
149
0.0
149
0.0
 93
        0
 94
      127
282
     0
 72
     1
 77
     1
171
     1
175
     1
179
     1
273
     0
  0
XRECORD
  5
275
102
{ACAD_REACTORS
330
274
102
}
330
274
100
AcDbXrecord
280
     1
102
MATERIAL
148
0.0
149
0.0
149
0.0
 93
        0
 94
      127
282
     0
 72
     1
 77
     1
171
     1
175
     1
179
     1
273
     0
  0
XRECORD
  5
259
102
{ACAD_REACTORS
330
258
102
}
330
258
100
AcDbXrecord
280
     1
102
RTVSPropertyOp0
 70
     1
102
RTVSPropertyOp1
 70
     1
102
RTVSPropertyOp2
 70
     1
102
RTVSPropertyOp3
 70
     1
102
RTVSPropertyOp4
 70
     1
102
RTVSPropertyOp5
 70
     1
102
RTVSPropertyOp6
 70
     1
102
RTVSPropertyOp7
 70
     1
102
RTVSPropertyOp8
 70
     1
102
RTVSPropertyOp9
 70
     1
102
RTVSPropertyOp10
 70
     1
102
RTVSPropertyOp11
 70
     1
102
RTVSPropertyOp12
 70
     1
102
RTVSPropertyOp13
 70
     1
102
RTVSPropertyOp14
 70
     1
102
RTVSPropertyOp15
 70
     1
102
RTVSPropertyOp16
 70
     1
102
RTVSPropertyOp17
 70
     1
102
RTVSPropertyOp18
 70
     1
102
RTVSPropertyOp19
 70
     1
102
RTVSPropertyOp20
 70
     1
102
RTVSPropertyOp21
 70
     1
102
RTVSPropertyOp22
 70
     1
102
RTVSPropertyOp23
 70
     1
102
RTVSPropertyOp24
 70
     1
102
RTVSPropertyOp25
 70
     1
102
RTVSPropertyOp26
 70
     1
102
RTVSPropertyOp27
 70
     1
102
RTVSPropertyOp28
 70
     1
102
RTVSPropertyOp29
 70
     1
102
RTVSPropertyOp30
 70
     1
102
RTVSPropertyOp31
 70
     1
102
RTVSPropertyOp32
 70
     1
  0
XRECORD
  5
25D
102
{ACAD_REACTORS
330
25C
102
}
330
25C
100
AcDbXrecord
280
     1
102
RTVSPropertyOp0
 70
     1
102
RTVSPropertyOp1
 70
     1
102
RTVSPropertyOp2
 70
     1
102
RTVSPropertyOp3
 70
     1
102
RTVSPropertyOp4
 70
     1
102
RTVSPropertyOp5
 70
     1
102
RTVSPropertyOp6
 70
     1
102
RTVSPropertyOp7
 70
     1
102
RTVSPropertyOp8
 70
     1
102
RTVSPropertyOp9
 70
     1
102
RTVSPropertyOp10
 70
     1
102
RTVSPropertyOp11
 70
     1
102
RTVSPropertyOp12
 70
     1
102
RTVSPropertyOp13
 70
     1
102
RTVSPropertyOp14
 70
     1
102
RTVSPropertyOp15
 70
     1
102
RTVSPropertyOp16
 70
     1
102
RTVSPropertyOp17
 70
     1
102
RTVSPropertyOp18
 70
     1
102
RTVSPropertyOp19
 70
     1
102
RTVSPropertyOp20
 70
     1
102
RTVSPropertyOp21
 70
     1
102
RTVSPropertyOp22
 70
     1
102
RTVSPropertyOp23
 70
     1
102
RTVSPropertyOp24
 70
     1
102
RTVSPropertyOp25
 70
     1
102
RTVSPropertyOp26
 70
     1
102
RTVSPropertyOp27
 70
     1
102
RTVSPropertyOp28
 70
     1
102
RTVSPropertyOp29
 70
     1
102
RTVSPropertyOp30
 70
     1
102
RTVSPropertyOp31
 70
     1
102
RTVSPropertyOp32
 70
     1
  0
XRECORD
  5
25B
102
{ACAD_REACTORS
330
25A
102
}
330
25A
100
AcDbXrecord
280
     1
102
RTVSPropertyOp0
 70
     1
102
RTVSPropertyOp1
 70
     1
102
RTVSPropertyOp2
 70
     1
102
RTVSPropertyOp3
 70
     1
102
RTVSPropertyOp4
 70
     1
102
RTVSPropertyOp5
 70
     1
102
RTVSPropertyOp6
 70
     1
102
RTVSPropertyOp7
 70
     1
102
RTVSPropertyOp8
 70
     1
102
RTVSPropertyOp9
 70
     1
102
RTVSPropertyOp10
 70
     1
102
RTVSPropertyOp11
 70
     1
102
RTVSPropertyOp12
 70
     1
102
RTVSPropertyOp13
 70
     1
102
RTVSPropertyOp14
 70
     1
102
RTVSPropertyOp15
 70
     1
102
RTVSPropertyOp16
 70
     1
102
RTVSPropertyOp17
 70
     1
102
RTVSPropertyOp18
 70
     1
102
RTVSPropertyOp19
 70
     1
102
RTVSPropertyOp20
 70
     1
102
RTVSPropertyOp21
 70
     1
102
RTVSPropertyOp22
 70
     1
102
RTVSPropertyOp23
 70
     1
102
RTVSPropertyOp24
 70
     1
102
RTVSPropertyOp25
 70
     1
102
RTVSPropertyOp26
 70
     1
102
RTVSPropertyOp27
 70
     1
102
RTVSPropertyOp28
 70
     1
102
RTVSPropertyOp29
 70
     1
102
RTVSPropertyOp30
 70
     1
102
RTVSPropertyOp31
 70
     1
102
RTVSPropertyOp32
 70
     1
  0
XRECORD
  5
25F
102
{ACAD_REACTORS
330
25E
102
}
330
25E
100
AcDbXrecord
280
     1
102
RTVSPropertyOp0
 70
     1
102
RTVSPropertyOp1
 70
     1
102
RTVSPropertyOp2
 70
     1
102
RTVSPropertyOp3
 70
     1
102
RTVSPropertyOp4
 70
     1
102
RTVSPropertyOp5
 70
     1
102
RTVSPropertyOp6
 70
     1
102
RTVSPropertyOp7
 70
     1
102
RTVSPropertyOp8
 70
     1
102
RTVSPropertyOp9
 70
     1
102
RTVSPropertyOp10
 70
     1
102
RTVSPropertyOp11
 70
     1
102
RTVSPropertyOp12
 70
     1
102
RTVSPropertyOp13
 70
     1
102
RTVSPropertyOp14
 70
     1
102
RTVSPropertyOp15
 70
     1
102
RTVSPropertyOp16
 70
     1
102
RTVSPropertyOp17
 70
     1
102
RTVSPropertyOp18
 70
     1
102
RTVSPropertyOp19
 70
     1
102
RTVSPropertyOp20
 70
     1
102
RTVSPropertyOp21
 70
     1
102
RTVSPropertyOp22
 70
     1
102
RTVSPropertyOp23
 70
     1
102
RTVSPropertyOp24
 70
     1
102
RTVSPropertyOp25
 70
     1
102
RTVSPropertyOp26
 70
     1
102
RTVSPropertyOp27
 70
     1
102
RTVSPropertyOp28
 70
     1
102
RTVSPropertyOp29
 70
     1
102
RTVSPropertyOp30
 70
     1
102
RTVSPropertyOp31
 70
     1
102
RTVSPropertyOp32
 70
     1
  0
XRECORD
  5
267
102
{ACAD_REACTORS
330
266
102
}
330
266
100
AcDbXrecord
280
     1
102
RTVSPropertyOp0
 70
     1
102
RTVSPropertyOp1
 70
     1
102
RTVSPropertyOp2
 70
     1
102
RTVSPropertyOp3
 70
     1
102
RTVSPropertyOp4
 70
     1
102
RTVSPropertyOp5
 70
     1
102
RTVSPropertyOp6
 70
     1
102
RTVSPropertyOp7
 70
     1
102
RTVSPropertyOp8
 70
     1
102
RTVSPropertyOp9
 70
     1
102
RTVSPropertyOp10
 70
     1
102
RTVSPropertyOp11
 70
     1
102
RTVSPropertyOp12
 70
     1
102
RTVSPropertyOp13
 70
     1
102
RTVSPropertyOp14
 70
     1
102
RTVSPropertyOp15
 70
     1
102
RTVSPropertyOp16
 70
     1
102
RTVSPropertyOp17
 70
     1
102
RTVSPropertyOp18
 70
     1
102
RTVSPropertyOp19
 70
     1
102
RTVSPropertyOp20
 70
     1
102
RTVSPropertyOp21
 70
     1
102
RTVSPropertyOp22
 70
     1
102
RTVSPropertyOp23
 70
     1
102
RTVSPropertyOp24
 70
     1
102
RTVSPropertyOp25
 70
     1
102
RTVSPropertyOp26
 70
     1
102
RTVSPropertyOp27
 70
     1
102
RTVSPropertyOp28
 70
     1
102
RTVSPropertyOp29
 70
     1
102
RTVSPropertyOp30
 70
     1
102
RTVSPropertyOp31
 70
     1
102
RTVSPropertyOp32
 70
     1
  0
XRECORD
  5
26F
102
{ACAD_REACTORS
330
26E
102
}
330
26E
100
AcDbXrecord
280
     1
102
RTVSPropertyOp0
 70
     1
102
RTVSPropertyOp1
 70
     1
102
RTVSPropertyOp2
 70
     1
102
RTVSPropertyOp3
 70
     1
102
RTVSPropertyOp4
 70
     1
102
RTVSPropertyOp5
 70
     1
102
RTVSPropertyOp6
 70
     1
102
RTVSPropertyOp7
 70
     1
102
RTVSPropertyOp8
 70
     1
102
RTVSPropertyOp9
 70
     1
102
RTVSPropertyOp10
 70
     1
102
RTVSPropertyOp11
 70
     1
102
RTVSPropertyOp12
 70
     1
102
RTVSPropertyOp13
 70
     1
102
RTVSPropertyOp14
 70
     1
102
RTVSPropertyOp15
 70
     1
102
RTVSPropertyOp16
 70
     1
102
RTVSPropertyOp17
 70
     1
102
RTVSPropertyOp18
 70
     1
102
RTVSPropertyOp19
 70
     1
102
RTVSPropertyOp20
 70
     1
102
RTVSPropertyOp21
 70
     1
102
RTVSPropertyOp22
 70
     1
102
RTVSPropertyOp23
 70
     1
102
RTVSPropertyOp24
 70
     1
102
RTVSPropertyOp25
 70
     1
102
RTVSPropertyOp26
 70
     1
102
RTVSPropertyOp27
 70
     1
102
RTVSPropertyOp28
 70
     1
102
RTVSPropertyOp29
 70
     1
102
RTVSPropertyOp30
 70
     1
102
RTVSPropertyOp31
 70
     1
102
RTVSPropertyOp32
 70
     1
  0
XRECORD
  5
263
102
{ACAD_REACTORS
330
262
102
}
330
262
100
AcDbXrecord
280
     1
102
RTVSPropertyOp0
 70
     1
102
RTVSPropertyOp1
 70
     1
102
RTVSPropertyOp2
 70
     1
102
RTVSPropertyOp3
 70
     1
102
RTVSPropertyOp4
 70
     1
102
RTVSPropertyOp5
 70
     1
102
RTVSPropertyOp6
 70
     1
102
RTVSPropertyOp7
 70
     1
102
RTVSPropertyOp8
 70
     1
102
RTVSPropertyOp9
 70
     1
102
RTVSPropertyOp10
 70
     1
102
RTVSPropertyOp11
 70
     1
102
RTVSPropertyOp12
 70
     1
102
RTVSPropertyOp13
 70
     1
102
RTVSPropertyOp14
 70
     1
102
RTVSPropertyOp15
 70
     1
102
RTVSPropertyOp16
 70
     1
102
RTVSPropertyOp17
 70
     1
102
RTVSPropertyOp18
 70
     1
102
RTVSPropertyOp19
 70
     1
102
RTVSPropertyOp20
 70
     1
102
RTVSPropertyOp21
 70
     1
102
RTVSPropertyOp22
 70
     1
102
RTVSPropertyOp23
 70
     1
102
RTVSPropertyOp24
 70
     1
102
RTVSPropertyOp25
 70
     1
102
RTVSPropertyOp26
 70
     1
102
RTVSPropertyOp27
 70
     1
102
RTVSPropertyOp28
 70
     1
102
RTVSPropertyOp29
 70
     1
102
RTVSPropertyOp30
 70
     1
102
RTVSPropertyOp31
 70
     1
102
RTVSPropertyOp32
 70
     1
  0
XRECORD
  5
265
102
{ACAD_REACTORS
330
264
102
}
330
264
100
AcDbXrecord
280
     1
102
RTVSPropertyOp0
 70
     1
102
RTVSPropertyOp1
 70
     1
102
RTVSPropertyOp2
 70
     1
102
RTVSPropertyOp3
 70
     1
102
RTVSPropertyOp4
 70
     1
102
RTVSPropertyOp5
 70
     1
102
RTVSPropertyOp6
 70
     1
102
RTVSPropertyOp7
 70
     1
102
RTVSPropertyOp8
 70
     1
102
RTVSPropertyOp9
 70
     1
102
RTVSPropertyOp10
 70
     1
102
RTVSPropertyOp11
 70
     1
102
RTVSPropertyOp12
 70
     1
102
RTVSPropertyOp13
 70
     1
102
RTVSPropertyOp14
 70
     1
102
RTVSPropertyOp15
 70
     1
102
RTVSPropertyOp16
 70
     1
102
RTVSPropertyOp17
 70
     1
102
RTVSPropertyOp18
 70
     1
102
RTVSPropertyOp19
 70
     1
102
RTVSPropertyOp20
 70
     1
102
RTVSPropertyOp21
 70
     1
102
RTVSPropertyOp22
 70
     1
102
RTVSPropertyOp23
 70
     1
102
RTVSPropertyOp24
 70
     1
102
RTVSPropertyOp25
 70
     1
102
RTVSPropertyOp26
 70
     1
102
RTVSPropertyOp27
 70
     1
102
RTVSPropertyOp28
 70
     1
102
RTVSPropertyOp29
 70
     1
102
RTVSPropertyOp30
 70
     1
102
RTVSPropertyOp31
 70
     1
102
RTVSPropertyOp32
 70
     1
  0
XRECORD
  5
26D
102
{ACAD_REACTORS
330
26C
102
}
330
26C
100
AcDbXrecord
280
     1
102
RTVSPropertyOp0
 70
     1
102
RTVSPropertyOp1
 70
     1
102
RTVSPropertyOp2
 70
     1
102
RTVSPropertyOp3
 70
     1
102
RTVSPropertyOp4
 70
     1
102
RTVSPropertyOp5
 70
     1
102
RTVSPropertyOp6
 70
     1
102
RTVSPropertyOp7
 70
     1
102
RTVSPropertyOp8
 70
     1
102
RTVSPropertyOp9
 70
     1
102
RTVSPropertyOp10
 70
     1
102
RTVSPropertyOp11
 70
     1
102
RTVSPropertyOp12
 70
     1
102
RTVSPropertyOp13
 70
     1
102
RTVSPropertyOp14
 70
     1
102
RTVSPropertyOp15
 70
     1
102
RTVSPropertyOp16
 70
     1
102
RTVSPropertyOp17
 70
     1
102
RTVSPropertyOp18
 70
     1
102
RTVSPropertyOp19
 70
     1
102
RTVSPropertyOp20
 70
     1
102
RTVSPropertyOp21
 70
     1
102
RTVSPropertyOp22
 70
     1
102
RTVSPropertyOp23
 70
     1
102
RTVSPropertyOp24
 70
     1
102
RTVSPropertyOp25
 70
     1
102
RTVSPropertyOp26
 70
     1
102
RTVSPropertyOp27
 70
     1
102
RTVSPropertyOp28
 70
     1
102
RTVSPropertyOp29
 70
     1
102
RTVSPropertyOp30
 70
     1
102
RTVSPropertyOp31
 70
     1
102
RTVSPropertyOp32
 70
     1
  0
XRECORD
  5
251
102
{ACAD_REACTORS
330
250
102
}
330
250
100
AcDbXrecord
280
     1
102
RTVSPropertyOp0
 70
     1
102
RTVSPropertyOp1
 70
     1
102
RTVSPropertyOp2
 70
     1
102
RTVSPropertyOp3
 70
     1
102
RTVSPropertyOp4
 70
     1
102
RTVSPropertyOp5
 70
     1
102
RTVSPropertyOp6
 70
     1
102
RTVSPropertyOp7
 70
     1
102
RTVSPropertyOp8
 70
     1
102
RTVSPropertyOp9
 70
     1
102
RTVSPropertyOp10
 70
     1
102
RTVSPropertyOp11
 70
     1
102
RTVSPropertyOp12
 70
     1
102
RTVSPropertyOp13
 70
     1
102
RTVSPropertyOp14
 70
     1
102
RTVSPropertyOp15
 70
     1
102
RTVSPropertyOp16
 70
     1
102
RTVSPropertyOp17
 70
     1
102
RTVSPropertyOp18
 70
     1
102
RTVSPropertyOp19
 70
     1
102
RTVSPropertyOp20
 70
     1
102
RTVSPropertyOp21
 70
     1
102
RTVSPropertyOp22
 70
     1
102
RTVSPropertyOp23
 70
     1
102
RTVSPropertyOp24
 70
     1
102
RTVSPropertyOp25
 70
     1
102
RTVSPropertyOp26
 70
     1
102
RTVSPropertyOp27
 70
     1
102
RTVSPropertyOp28
 70
     1
102
RTVSPropertyOp29
 70
     1
102
RTVSPropertyOp30
 70
     1
102
RTVSPropertyOp31
 70
     1
102
RTVSPropertyOp32
 70
     1
  0
XRECORD
  5
253
102
{ACAD_REACTORS
330
252
102
}
330
252
100
AcDbXrecord
280
     1
102
RTVSPropertyOp0
 70
     1
102
RTVSPropertyOp1
 70
     1
102
RTVSPropertyOp2
 70
     1
102
RTVSPropertyOp3
 70
     1
102
RTVSPropertyOp4
 70
     1
102
RTVSPropertyOp5
 70
     1
102
RTVSPropertyOp6
 70
     1
102
RTVSPropertyOp7
 70
     1
102
RTVSPropertyOp8
 70
     1
102
RTVSPropertyOp9
 70
     1
102
RTVSPropertyOp10
 70
     1
102
RTVSPropertyOp11
 70
     1
102
RTVSPropertyOp12
 70
     1
102
RTVSPropertyOp13
 70
     1
102
RTVSPropertyOp14
 70
     1
102
RTVSPropertyOp15
 70
     1
102
RTVSPropertyOp16
 70
     1
102
RTVSPropertyOp17
 70
     1
102
RTVSPropertyOp18
 70
     1
102
RTVSPropertyOp19
 70
     1
102
RTVSPropertyOp20
 70
     1
102
RTVSPropertyOp21
 70
     1
102
RTVSPropertyOp22
 70
     1
102
RTVSPropertyOp23
 70
     1
102
RTVSPropertyOp24
 70
     1
102
RTVSPropertyOp25
 70
     1
102
RTVSPropertyOp26
 70
     1
102
RTVSPropertyOp27
 70
     1
102
RTVSPropertyOp28
 70
     1
102
RTVSPropertyOp29
 70
     1
102
RTVSPropertyOp30
 70
     1
102
RTVSPropertyOp31
 70
     1
102
RTVSPropertyOp32
 70
     1
  0
XRECORD
  5
255
102
{ACAD_REACTORS
330
254
102
}
330
254
100
AcDbXrecord
280
     1
102
RTVSPropertyOp0
 70
     1
102
RTVSPropertyOp1
 70
     1
102
RTVSPropertyOp2
 70
     1
102
RTVSPropertyOp3
 70
     1
102
RTVSPropertyOp4
 70
     1
102
RTVSPropertyOp5
 70
     1
102
RTVSPropertyOp6
 70
     1
102
RTVSPropertyOp7
 70
     1
102
RTVSPropertyOp8
 70
     1
102
RTVSPropertyOp9
 70
     1
102
RTVSPropertyOp10
 70
     1
102
RTVSPropertyOp11
 70
     1
102
RTVSPropertyOp12
 70
     1
102
RTVSPropertyOp13
 70
     1
102
RTVSPropertyOp14
 70
     1
102
RTVSPropertyOp15
 70
     1
102
RTVSPropertyOp16
 70
     1
102
RTVSPropertyOp17
 70
     1
102
RTVSPropertyOp18
 70
     1
102
RTVSPropertyOp19
 70
     1
102
RTVSPropertyOp20
 70
     1
102
RTVSPropertyOp21
 70
     1
102
RTVSPropertyOp22
 70
     1
102
RTVSPropertyOp23
 70
     1
102
RTVSPropertyOp24
 70
     1
102
RTVSPropertyOp25
 70
     1
102
RTVSPropertyOp26
 70
     1
102
RTVSPropertyOp27
 70
     1
102
RTVSPropertyOp28
 70
     1
102
RTVSPropertyOp29
 70
     1
102
RTVSPropertyOp30
 70
     1
102
RTVSPropertyOp31
 70
     1
102
RTVSPropertyOp32
 70
     1
  0
XRECORD
  5
257
102
{ACAD_REACTORS
330
256
102
}
330
256
100
AcDbXrecord
280
     1
102
RTVSPropertyOp0
 70
     1
102
RTVSPropertyOp1
 70
     1
102
RTVSPropertyOp2
 70
     1
102
RTVSPropertyOp3
 70
     1
102
RTVSPropertyOp4
 70
     1
102
RTVSPropertyOp5
 70
     1
102
RTVSPropertyOp6
 70
     1
102
RTVSPropertyOp7
 70
     1
102
RTVSPropertyOp8
 70
     1
102
RTVSPropertyOp9
 70
     1
102
RTVSPropertyOp10
 70
     1
102
RTVSPropertyOp11
 70
     1
102
RTVSPropertyOp12
 70
     1
102
RTVSPropertyOp13
 70
     1
102
RTVSPropertyOp14
 70
     1
102
RTVSPropertyOp15
 70
     1
102
RTVSPropertyOp16
 70
     1
102
RTVSPropertyOp17
 70
     1
102
RTVSPropertyOp18
 70
     1
102
RTVSPropertyOp19
 70
     1
102
RTVSPropertyOp20
 70
     1
102
RTVSPropertyOp21
 70
     1
102
RTVSPropertyOp22
 70
     1
102
RTVSPropertyOp23
 70
     1
102
RTVSPropertyOp24
 70
     1
102
RTVSPropertyOp25
 70
     1
102
RTVSPropertyOp26
 70
     1
102
RTVSPropertyOp27
 70
     1
102
RTVSPropertyOp28
 70
     1
102
RTVSPropertyOp29
 70
     1
102
RTVSPropertyOp30
 70
     1
102
RTVSPropertyOp31
 70
     1
102
RTVSPropertyOp32
 70
     1
  0
XRECORD
  5
26B
102
{ACAD_REACTORS
330
26A
102
}
330
26A
100
AcDbXrecord
280
     1
102
RTVSPropertyOp0
 70
     1
102
RTVSPropertyOp1
 70
     1
102
RTVSPropertyOp2
 70
     1
102
RTVSPropertyOp3
 70
     1
102
RTVSPropertyOp4
 70
     1
102
RTVSPropertyOp5
 70
     1
102
RTVSPropertyOp6
 70
     1
102
RTVSPropertyOp7
 70
     1
102
RTVSPropertyOp8
 70
     1
102
RTVSPropertyOp9
 70
     1
102
RTVSPropertyOp10
 70
     1
102
RTVSPropertyOp11
 70
     1
102
RTVSPropertyOp12
 70
     1
102
RTVSPropertyOp13
 70
     1
102
RTVSPropertyOp14
 70
     1
102
RTVSPropertyOp15
 70
     1
102
RTVSPropertyOp16
 70
     1
102
RTVSPropertyOp17
 70
     1
102
RTVSPropertyOp18
 70
     1
102
RTVSPropertyOp19
 70
     1
102
RTVSPropertyOp20
 70
     1
102
RTVSPropertyOp21
 70
     1
102
RTVSPropertyOp22
 70
     1
102
RTVSPropertyOp23
 70
     1
102
RTVSPropertyOp24
 70
     1
102
RTVSPropertyOp25
 70
     1
102
RTVSPropertyOp26
 70
     1
102
RTVSPropertyOp27
 70
     1
102
RTVSPropertyOp28
 70
     1
102
RTVSPropertyOp29
 70
     1
102
RTVSPropertyOp30
 70
     1
102
RTVSPropertyOp31
 70
     1
102
RTVSPropertyOp32
 70
     1
  0
XRECORD
  5
261
102
{ACAD_REACTORS
330
260
102
}
330
260
100
AcDbXrecord
280
     1
102
RTVSPropertyOp0
 70
     1
102
RTVSPropertyOp1
 70
     1
102
RTVSPropertyOp2
 70
     1
102
RTVSPropertyOp3
 70
     1
102
RTVSPropertyOp4
 70
     1
102
RTVSPropertyOp5
 70
     1
102
RTVSPropertyOp6
 70
     1
102
RTVSPropertyOp7
 70
     1
102
RTVSPropertyOp8
 70
     1
102
RTVSPropertyOp9
 70
     1
102
RTVSPropertyOp10
 70
     1
102
RTVSPropertyOp11
 70
     1
102
RTVSPropertyOp12
 70
     1
102
RTVSPropertyOp13
 70
     1
102
RTVSPropertyOp14
 70
     1
102
RTVSPropertyOp15
 70
     1
102
RTVSPropertyOp16
 70
     1
102
RTVSPropertyOp17
 70
     1
102
RTVSPropertyOp18
 70
     1
102
RTVSPropertyOp19
 70
     1
102
RTVSPropertyOp20
 70
     1
102
RTVSPropertyOp21
 70
     1
102
RTVSPropertyOp22
 70
     1
102
RTVSPropertyOp23
 70
     1
102
RTVSPropertyOp24
 70
     1
102
RTVSPropertyOp25
 70
     1
102
RTVSPropertyOp26
 70
     1
102
RTVSPropertyOp27
 70
     1
102
RTVSPropertyOp28
 70
     1
102
RTVSPropertyOp29
 70
     1
102
RTVSPropertyOp30
 70
     1
102
RTVSPropertyOp31
 70
     1
102
RTVSPropertyOp32
 70
     1
  0
XRECORD
  5
269
102
{ACAD_REACTORS
330
268
102
}
330
268
100
AcDbXrecord
280
     1
102
RTVSPropertyOp0
 70
     1
102
RTVSPropertyOp1
 70
     1
102
RTVSPropertyOp2
 70
     1
102
RTVSPropertyOp3
 70
     1
102
RTVSPropertyOp4
 70
     1
102
RTVSPropertyOp5
 70
     1
102
RTVSPropertyOp6
 70
     1
102
RTVSPropertyOp7
 70
     1
102
RTVSPropertyOp8
 70
     1
102
RTVSPropertyOp9
 70
     1
102
RTVSPropertyOp10
 70
     1
102
RTVSPropertyOp11
 70
     1
102
RTVSPropertyOp12
 70
     1
102
RTVSPropertyOp13
 70
     1
102
RTVSPropertyOp14
 70
     1
102
RTVSPropertyOp15
 70
     1
102
RTVSPropertyOp16
 70
     1
102
RTVSPropertyOp17
 70
     1
102
RTVSPropertyOp18
 70
     1
102
RTVSPropertyOp19
 70
     1
102
RTVSPropertyOp20
 70
     1
102
RTVSPropertyOp21
 70
     1
102
RTVSPropertyOp22
 70
     1
102
RTVSPropertyOp23
 70
     1
102
RTVSPropertyOp24
 70
     1
102
RTVSPropertyOp25
 70
     1
102
RTVSPropertyOp26
 70
     1
102
RTVSPropertyOp27
 70
     1
102
RTVSPropertyOp28
 70
     1
102
RTVSPropertyOp29
 70
     1
102
RTVSPropertyOp30
 70
     1
102
RTVSPropertyOp31
 70
     1
102
RTVSPropertyOp32
 70
     1
  0
ENDSEC
  0
EOF
