  0
SECTION
  2
HEADER
  9
$ACADVER
  1
AC1018
  9
$ACADMAINTVER
 70
     0
  9
$DWGCODEPAGE
  3
ANSI_1252
  9
$INSBASE
 10
0.0
 20
0.0
 30
0.0
  9
$EXTMIN
 10
-93.99999996010797
 20
321.7643294431124
 30
0.0
  9
$EXTMAX
 10
203.0000000398901
 20
531.7643294431125
 30
0.0
  9
$LIMMIN
 10
0.0
 20
0.0
  9
$LIMMAX
 10
12.0
 20
9.0
  9
$ORTHOMODE
 70
     0
  9
$REGENMODE
 70
     1
  9
$FILLMODE
 70
     1
  9
$QTEXTMODE
 70
     0
  9
$MIRRTEXT
 70
     1
  9
$LTSCALE
 40
1.0
  9
$ATTMODE
 70
     1
  9
$TEXTSIZE
 40
0.2
  9
$TRACEWID
 40
0.05
  9
$TEXTSTYLE
  7
Standard
  9
$CLAYER
  8
0
  9
$CELTYPE
  6
ByLayer
  9
$CECOLOR
 62
   256
  9
$CELTSCALE
 40
1.0
  9
$DISPSILH
 70
     0
  9
$DIMSCALE
 40
1.0
  9
$DIMASZ
 40
0.18
  9
$DIMEXO
 40
0.0625
  9
$DIMDLI
 40
0.38
  9
$DIMRND
 40
0.0
  9
$DIMDLE
 40
0.0
  9
$DIMEXE
 40
0.18
  9
$DIMTP
 40
0.0
  9
$DIMTM
 40
0.0
  9
$DIMTXT
 40
0.18
  9
$DIMCEN
 40
0.09
  9
$DIMTSZ
 40
0.0
  9
$DIMTOL
 70
     0
  9
$DIMLIM
 70
     0
  9
$DIMTIH
 70
     1
  9
$DIMTOH
 70
     1
  9
$DIMSE1
 70
     0
  9
$DIMSE2
 70
     0
  9
$DIMTAD
 70
     0
  9
$DIMZIN
 70
     0
  9
$DIMBLK
  1

  9
$DIMASO
 70
     1
  9
$DIMSHO
 70
     1
  9
$DIMPOST
  1

  9
$DIMAPOST
  1

  9
$DIMALT
 70
     0
  9
$DIMALTD
 70
     2
  9
$DIMALTF
 40
25.4
  9
$DIMLFAC
 40
1.0
  9
$DIMTOFL
 70
     0
  9
$DIMTVP
 40
0.0
  9
$DIMTIX
 70
     0
  9
$DIMSOXD
 70
     0
  9
$DIMSAH
 70
     0
  9
$DIMBLK1
  1

  9
$DIMBLK2
  1

  9
$DIMSTYLE
  2
Standard
  9
$DIMCLRD
 70
     0
  9
$DIMCLRE
 70
     0
  9
$DIMCLRT
 70
     0
  9
$DIMTFAC
 40
1.0
  9
$DIMGAP
 40
0.09
  9
$DIMJUST
 70
     0
  9
$DIMSD1
 70
     0
  9
$DIMSD2
 70
     0
  9
$DIMTOLJ
 70
     1
  9
$DIMTZIN
 70
     0
  9
$DIMALTZ
 70
     0
  9
$DIMALTTZ
 70
     0
  9
$DIMUPT
 70
     0
  9
$DIMDEC
 70
     4
  9
$DIMTDEC
 70
     4
  9
$DIMALTU
 70
     2
  9
$DIMALTTD
 70
     2
  9
$DIMTXSTY
  7
Standard
  9
$DIMAUNIT
 70
     0
  9
$DIMADEC
 70
     0
  9
$DIMALTRND
 40
0.0
  9
$DIMAZIN
 70
     0
  9
$DIMDSEP
 70
    46
  9
$DIMATFIT
 70
     3
  9
$DIMFRAC
 70
     0
  9
$DIMLDRBLK
  1

  9
$DIMLUNIT
 70
     2
  9
$DIMLWD
 70
    -2
  9
$DIMLWE
 70
    -2
  9
$DIMTMOVE
 70
     0
  9
$LUNITS
 70
     2
  9
$LUPREC
 70
     4
  9
$SKETCHINC
 40
0.1
  9
$FILLETRAD
 40
0.5
  9
$AUNITS
 70
     0
  9
$AUPREC
 70
     0
  9
$MENU
  1
.
  9
$ELEVATION
 40
0.0
  9
$PELEVATION
 40
0.0
  9
$THICKNESS
 40
0.0
  9
$LIMCHECK
 70
     0
  9
$CHAMFERA
 40
0.5
  9
$CHAMFERB
 40
0.5
  9
$CHAMFERC
 40
1.0
  9
$CHAMFERD
 40
0.0
  9
$SKPOLY
 70
     0
  9
$TDCREATE
 40
2458022.460784537
  9
$TDUCREATE
 40
2458022.377451204
  9
$TDUPDATE
 40
2458022.460784896
  9
$TDUUPDATE
 40
2458022.377451562
  9
$TDINDWG
 40
0.0000000116
  9
$TDUSRTIMER
 40
0.0000000116
  9
$USRTIMER
 70
     1
  9
$ANGBASE
 50
0.0
  9
$ANGDIR
 70
     0
  9
$PDMODE
 70
     0
  9
$PDSIZE
 40
0.0
  9
$PLINEWID
 40
0.0
  9
$SPLFRAME
 70
     0
  9
$SPLINETYPE
 70
     6
  9
$SPLINESEGS
 70
     8
  9
$HANDSEED
  5
243
  9
$SURFTAB1
 70
     6
  9
$SURFTAB2
 70
     6
  9
$SURFTYPE
 70
     6
  9
$SURFU
 70
     6
  9
$SURFV
 70
     6
  9
$UCSBASE
  2

  9
$UCSNAME
  2

  9
$UCSORG
 10
0.0
 20
0.0
 30
0.0
  9
$UCSXDIR
 10
1.0
 20
0.0
 30
0.0
  9
$UCSYDIR
 10
0.0
 20
1.0
 30
0.0
  9
$UCSORTHOREF
  2

  9
$UCSORTHOVIEW
 70
     0
  9
$UCSORGTOP
 10
0.0
 20
0.0
 30
0.0
  9
$UCSORGBOTTOM
 10
0.0
 20
0.0
 30
0.0
  9
$UCSORGLEFT
 10
0.0
 20
0.0
 30
0.0
  9
$UCSORGRIGHT
 10
0.0
 20
0.0
 30
0.0
  9
$UCSORGFRONT
 10
0.0
 20
0.0
 30
0.0
  9
$UCSORGBACK
 10
0.0
 20
0.0
 30
0.0
  9
$PUCSBASE
  2

  9
$PUCSNAME
  2

  9
$PUCSORG
 10
0.0
 20
0.0
 30
0.0
  9
$PUCSXDIR
 10
1.0
 20
0.0
 30
0.0
  9
$PUCSYDIR
 10
0.0
 20
1.0
 30
0.0
  9
$PUCSORTHOREF
  2

  9
$PUCSORTHOVIEW
 70
     0
  9
$PUCSORGTOP
 10
0.0
 20
0.0
 30
0.0
  9
$PUCSORGBOTTOM
 10
0.0
 20
0.0
 30
0.0
  9
$PUCSORGLEFT
 10
0.0
 20
0.0
 30
0.0
  9
$PUCSORGRIGHT
 10
0.0
 20
0.0
 30
0.0
  9
$PUCSORGFRONT
 10
0.0
 20
0.0
 30
0.0
  9
$PUCSORGBACK
 10
0.0
 20
0.0
 30
0.0
  9
$USERI1
 70
     0
  9
$USERI2
 70
     0
  9
$USERI3
 70
     0
  9
$USERI4
 70
     0
  9
$USERI5
 70
     0
  9
$USERR1
 40
18.1
  9
$USERR2
 40
0.0
  9
$USERR3
 40
0.0
  9
$USERR4
 40
0.0
  9
$USERR5
 40
0.0
  9
$WORLDVIEW
 70
     1
  9
$SHADEDGE
 70
     3
  9
$SHADEDIF
 70
    70
  9
$TILEMODE
 70
     1
  9
$MAXACTVP
 70
    64
  9
$PINSBASE
 10
0.0
 20
0.0
 30
0.0
  9
$PLIMCHECK
 70
     0
  9
$PEXTMIN
 10
1.00000000000000E+20
 20
1.00000000000000E+20
 30
1.00000000000000E+20
  9
$PEXTMAX
 10
-1.00000000000000E+20
 20
-1.00000000000000E+20
 30
-1.00000000000000E+20
  9
$PLIMMIN
 10
0.0
 20
0.0
  9
$PLIMMAX
 10
12.0
 20
9.0
  9
$UNITMODE
 70
     0
  9
$VISRETAIN
 70
     1
  9
$PLINEGEN
 70
     0
  9
$PSLTSCALE
 70
     1
  9
$TREEDEPTH
 70
  3020
  9
$CMLSTYLE
  2
Standard
  9
$CMLJUST
 70
     0
  9
$CMLSCALE
 40
1.0
  9
$PROXYGRAPHICS
 70
     1
  9
$MEASUREMENT
 70
     1
  9
$CELWEIGHT
370
    -1
  9
$ENDCAPS
280
     0
  9
$JOINSTYLE
280
     0
  9
$LWDISPLAY
290
     0
  9
$INSUNITS
 70
     4
  9
$HYPERLINKBASE
  1

  9
$STYLESHEET
  1

  9
$XEDIT
290
     1
  9
$CEPSNTYPE
380
     0
  9
$PSTYLEMODE
290
     1
  9
$FINGERPRINTGUID
  2
{04E2137E-F62D-4387-ACBC-BCF435508ADF}
  9
$VERSIONGUID
  2
{FAEB1C32-E019-11D5-929B-00C0DF256EC4}
  9
$EXTNAMES
290
     1
  9
$PSVPSCALE
 40
0.0
  9
$OLESTARTUP
290
     0
  9
$SORTENTS
280
   127
  9
$INDEXCTL
280
     0
  9
$HIDETEXT
280
     1
  9
$XCLIPFRAME
290
     0
  9
$HALOGAP
280
     0
  9
$OBSCOLOR
 70
   257
  9
$OBSLTYPE
280
     0
  9
$INTERSECTIONDISPLAY
280
     0
  9
$INTERSECTIONCOLOR
 70
   257
  9
$DIMASSOC
280
     2
  9
$PROJECTNAME
  1

  0
ENDSEC
  0
SECTION
  2
CLASSES
  0
CLASS
  1
ACDBDICTIONARYWDFLT
  2
AcDbDictionaryWithDefault
  3
ObjectDBX Classes
 90
        0
 91
        4
280
     0
281
     0
  0
CLASS
  1
VISUALSTYLE
  2
AcDbVisualStyle
  3
ObjectDBX Classes
 90
     4095
 91
        4
280
     0
281
     0
  0
CLASS
  1
MATERIAL
  2
AcDbMaterial
  3
ObjectDBX Classes
 90
     1153
 91
        4
280
     0
281
     0
  0
ENDSEC
  0
SECTION
  2
TABLES
  0
TABLE
  2
VPORT
  5
8
330
0
100
AcDbSymbolTable
 70
     1
  0
VPORT
  5
29
330
8
100
AcDbSymbolTableRecord
100
AcDbViewportTableRecord
  2
*Active
 70
     0
 10
0.0
 20
0.0
 11
1.0
 21
1.0
 12
54.50000003989106
 22
426.7643294431124
 13
0.0
 23
0.0
 14
0.5
 24
0.5
 15
0.5
 25
0.5
 16
0.0
 26
0.0
 36
1.0
 17
0.0
 27
0.0
 37
0.0
 40
231.0000000000001
 41
1.60267857142857
 42
50.0
 43
0.0
 44
0.0
 50
0.0
 51
0.0
 71
     0
 72
   100
 73
     1
 74
     3
 75
     0
 76
     0
 77
     0
 78
     0
281
     0
 65
     1
110
0.0
120
0.0
130
0.0
111
1.0
121
0.0
131
0.0
112
0.0
122
1.0
132
0.0
 79
     0
146
0.0
  0
ENDTAB
  0
TABLE
  2
LTYPE
  5
5
330
0
100
AcDbSymbolTable
 70
     8
  0
LTYPE
  5
14
330
5
100
AcDbSymbolTableRecord
100
AcDbLinetypeTableRecord
  2
ByBlock
 70
     0
  3

 72
    65
 73
     0
 40
0.0
  0
LTYPE
  5
15
330
5
100
AcDbSymbolTableRecord
100
AcDbLinetypeTableRecord
  2
ByLayer
 70
     0
  3

 72
    65
 73
     0
 40
0.0
  0
LTYPE
  5
16
330
5
100
AcDbSymbolTableRecord
100
AcDbLinetypeTableRecord
  2
Continuous
 70
     0
  3
Solid line
 72
    65
 73
     0
 40
0.0
  0
LTYPE
  5
3F
330
5
100
AcDbSymbolTableRecord
100
AcDbLinetypeTableRecord
  2
DASHED
 70
     0
  3
Dashed
 72
    65
 73
     2
 40
15.0
 49
7.0
 74
     0
 49
-8.0
 74
     0
  0
LTYPE
  5
40
330
5
100
AcDbSymbolTableRecord
100
AcDbLinetypeTableRecord
  2
DOTTED
 70
     0
  3
Dotted
 72
    65
 73
     2
 40
1.0
 49
0.0
 74
     0
 49
-1.0
 74
     0
  0
LTYPE
  5
41
330
5
100
AcDbSymbolTableRecord
100
AcDbLinetypeTableRecord
  2
DOT_CENTER
 70
     0
  3
Dot_Center
 72
    65
 73
     4
 40
14.0
 49
12.0
 74
     0
 49
-1.0
 74
     0
 49
0.0
 74
     0
 49
-1.0
 74
     0
  0
LTYPE
  5
42
330
5
100
AcDbSymbolTableRecord
100
AcDbLinetypeTableRecord
  2
LONG_DASHED
 70
     0
  3
Long_Dashed
 72
    65
 73
     2
 40
15.0
 49
10.0
 74
     0
 49
-5.0
 74
     0
  0
LTYPE
  5
43
330
5
100
AcDbSymbolTableRecord
100
AcDbLinetypeTableRecord
  2
DASH_CENTER
 70
     0
  3
Dash_Center
 72
    65
 73
     4
 40
14.0
 49
11.0
 74
     0
 49
-1.0
 74
     0
 49
1.0
 74
     0
 49
-1.0
 74
     0
  0
LTYPE
  5
44
330
5
100
AcDbSymbolTableRecord
100
AcDbLinetypeTableRecord
  2
PHANTOM
 70
     0
  3
Phantom
 72
    65
 73
     6
 40
13.0
 49
10.0
 74
     0
 49
-1.0
 74
     0
 49
0.0
 74
     0
 49
-1.0
 74
     0
 49
0.0
 74
     0
 49
-1.0
 74
     0
  0
LTYPE
  5
45
330
5
100
AcDbSymbolTableRecord
100
AcDbLinetypeTableRecord
  2
CENTER_DASH_DASH
 70
     0
  3
Center_Dash_Dash
 72
    65
 73
     6
 40
14.0
 49
9.0
 74
     0
 49
-1.0
 74
     0
 49
1.0
 74
     0
 49
-1.0
 74
     0
 49
1.0
 74
     0
 49
-1.0
 74
     0
  0
ENDTAB
  0
TABLE
  2
LAYER
  5
2
330
0
100
AcDbSymbolTable
 70
     2
  0
LAYER
  5
10
330
2
100
AcDbSymbolTableRecord
100
AcDbLayerTableRecord
  2
0
 70
     0
 62
     7
  6
Continuous
370
    -3
390
F
  0
LAYER
  5
46
330
2
100
AcDbSymbolTableRecord
100
AcDbLayerTableRecord
  2
1
 70
     0
 62
     7
  6
Continuous
370
    -3
390
F
  0
ENDTAB
  0
TABLE
  2
STYLE
  5
3
330
0
100
AcDbSymbolTable
 70
     5
  0
STYLE
  5
11
330
3
100
AcDbSymbolTableRecord
100
AcDbTextStyleTableRecord
  2
Standard
 70
     0
 40
0.0
 41
1.0
 50
0.0
 71
     0
 42
0.2
  3
txt
  4

  0
STYLE
  5
94
330
3
100
AcDbSymbolTableRecord
100
AcDbTextStyleTableRecord
  2
CONVERTER_11
 70
     0
 40
0.0
 41
0.9
 50
0.0
 71
     0
 42
0.2
  3
txt.shx
  4

  0
STYLE
  5
1D9
330
3
100
AcDbSymbolTableRecord
100
AcDbTextStyleTableRecord
  2
CONVERTER_12
 70
     0
 40
0.0
 41
0.81
 50
0.0
 71
     0
 42
0.2
  3
txt.shx
  4

  0
STYLE
  5
1DF
330
3
100
AcDbSymbolTableRecord
100
AcDbTextStyleTableRecord
  2
CONVERTER_13
 70
     0
 40
0.0
 41
0.855
 50
0.0
 71
     0
 42
0.2
  3
txt.shx
  4

  0
STYLE
  5
1E2
330
3
100
AcDbSymbolTableRecord
100
AcDbTextStyleTableRecord
  2
CONVERTER_14
 70
     0
 40
0.0
 41
0.72
 50
0.0
 71
     0
 42
0.2
  3
txt.shx
  4

  0
ENDTAB
  0
TABLE
  2
VIEW
  5
6
330
0
100
AcDbSymbolTable
 70
     0
  0
ENDTAB
  0
TABLE
  2
UCS
  5
7
330
0
100
AcDbSymbolTable
 70
     0
  0
ENDTAB
  0
TABLE
  2
APPID
  5
9
330
0
100
AcDbSymbolTable
 70
     1
  0
APPID
  5
12
330
9
100
AcDbSymbolTableRecord
100
AcDbRegAppTableRecord
  2
ACAD
 70
     0
  0
ENDTAB
  0
TABLE
  2
DIMSTYLE
  5
A
330
0
100
AcDbSymbolTable
 70
     4
100
AcDbDimStyleTable
  0
DIMSTYLE
105
27
330
A
100
AcDbSymbolTableRecord
100
AcDbDimStyleTableRecord
  2
Standard
 70
     0
178
     0
340
11
  0
DIMSTYLE
105
AC
102
{ACAD_REACTORS
330
AD
102
}
330
A
100
AcDbSymbolTableRecord
100
AcDbDimStyleTableRecord
  2
ME10_DIM_10
 70
     0
 41
3.5
 42
0.0
 44
2.0
 73
     0
 74
     0
 77
     1
 78
     8
140
3.5
147
2.0
172
     1
173
     1
174
     1
175
     1
176
     2
177
     2
178
     3
340
94
  0
DIMSTYLE
105
D5
102
{ACAD_REACTORS
330
D6
102
}
330
A
100
AcDbSymbolTableRecord
100
AcDbDimStyleTableRecord
  2
ME10_DIM_11
 70
     0
 41
3.5
 42
0.0
 44
2.0
 73
     0
 74
     0
 77
     1
 78
     8
140
3.5
147
2.0
172
     1
173
     1
174
     1
175
     1
176
     2
177
     2
178
     3
340
94
  0
DIMSTYLE
105
E0
102
{ACAD_REACTORS
330
E1
102
}
330
A
100
AcDbSymbolTableRecord
100
AcDbDimStyleTableRecord
  2
ME10_DIM_12
 70
     0
 41
3.5
 42
0.0
 44
2.0
 73
     0
 74
     0
 77
     1
 78
     8
140
3.5
147
2.0
172
     1
173
     1
174
     1
175
     1
176
     2
177
     2
178
     3
340
94
  0
ENDTAB
  0
TABLE
  2
BLOCK_RECORD
  5
1
330
0
100
AcDbSymbolTable
 70
    20
  0
BLOCK_RECORD
  5
1F
330
1
100
AcDbSymbolTableRecord
100
AcDbBlockTableRecord
  2
*Model_Space
340
22
  0
BLOCK_RECORD
  5
1B
330
1
100
AcDbSymbolTableRecord
100
AcDbBlockTableRecord
  2
*Paper_Space
340
1E
  0
BLOCK_RECORD
  5
23
330
1
100
AcDbSymbolTableRecord
100
AcDbBlockTableRecord
  2
*Paper_Space0
340
26
  0
BLOCK_RECORD
  5
47
330
1
100
AcDbSymbolTableRecord
100
AcDbBlockTableRecord
  2
D_UGSK-select__1
340
0
102
{BLKREFS
331
4B
102
}
  0
BLOCK_RECORD
  5
4A
330
1
100
AcDbSymbolTableRecord
100
AcDbBlockTableRecord
  2
AllgSicht1
340
0
102
{BLKREFS
331
7D
102
}
  0
BLOCK_RECORD
  5
4E
330
1
100
AcDbSymbolTableRecord
100
AcDbBlockTableRecord
  2
D_UGSK-select__2
340
0
102
{BLKREFS
331
52
102
}
  0
BLOCK_RECORD
  5
51
330
1
100
AcDbSymbolTableRecord
100
AcDbBlockTableRecord
  2
Drfsicht1
340
0
102
{BLKREFS
331
7E
102
}
  0
BLOCK_RECORD
  5
55
330
1
100
AcDbSymbolTableRecord
100
AcDbBlockTableRecord
  2
D_UGSK-select__3
340
0
102
{BLKREFS
331
59
102
}
  0
BLOCK_RECORD
  5
58
330
1
100
AcDbSymbolTableRecord
100
AcDbBlockTableRecord
  2
Rckans1
340
0
102
{BLKREFS
331
7F
102
}
  0
BLOCK_RECORD
  5
5C
330
1
100
AcDbSymbolTableRecord
100
AcDbBlockTableRecord
  2
D_UGSK-select__4
340
0
102
{BLKREFS
331
60
102
}
  0
BLOCK_RECORD
  5
5F
330
1
100
AcDbSymbolTableRecord
100
AcDbBlockTableRecord
  2
SA_Links1
340
0
102
{BLKREFS
331
80
102
}
  0
BLOCK_RECORD
  5
63
330
1
100
AcDbSymbolTableRecord
100
AcDbBlockTableRecord
  2
D_UGSK-select__5
340
0
102
{BLKREFS
331
67
102
}
  0
BLOCK_RECORD
  5
66
330
1
100
AcDbSymbolTableRecord
100
AcDbBlockTableRecord
  2
SA_Rechts1
340
0
102
{BLKREFS
331
81
102
}
  0
BLOCK_RECORD
  5
6A
330
1
100
AcDbSymbolTableRecord
100
AcDbBlockTableRecord
  2
D_UGSK-select__6
340
0
102
{BLKREFS
331
6E
102
}
  0
BLOCK_RECORD
  5
6D
330
1
100
AcDbSymbolTableRecord
100
AcDbBlockTableRecord
  2
Vordans1
340
0
102
{BLKREFS
331
82
102
}
  0
BLOCK_RECORD
  5
71
330
1
100
AcDbSymbolTableRecord
100
AcDbBlockTableRecord
  2
_rahmen
340
0
102
{BLKREFS
331
78
102
}
  0
BLOCK_RECORD
  5
74
330
1
100
AcDbSymbolTableRecord
100
AcDbBlockTableRecord
  2
_punkt
340
0
102
{BLKREFS
331
79
102
}
  0
BLOCK_RECORD
  5
77
330
1
100
AcDbSymbolTableRecord
100
AcDbBlockTableRecord
  2
A4I_CS
340
0
102
{BLKREFS
331
83
102
}
  0
BLOCK_RECORD
  5
7C
330
1
100
AcDbSymbolTableRecord
100
AcDbBlockTableRecord
  2
1
340
0
102
{BLKREFS
331
86
102
}
  0
BLOCK_RECORD
  5
A1
330
1
100
AcDbSymbolTableRecord
100
AcDbBlockTableRecord
  2
*D17
340
0
  0
BLOCK_RECORD
  5
CC
330
1
100
AcDbSymbolTableRecord
100
AcDbBlockTableRecord
  2
*D18
340
0
  0
BLOCK_RECORD
  5
D7
330
1
100
AcDbSymbolTableRecord
100
AcDbBlockTableRecord
  2
*D19
340
0
  0
ENDTAB
  0
ENDSEC
  0
SECTION
  2
BLOCKS
  0
BLOCK
  5
20
330
1F
100
AcDbEntity
  8
0
100
AcDbBlockBegin
  2
*Model_Space
 70
     0
 10
0.0
 20
0.0
 30
0.0
  3
*Model_Space
  1

  0
ENDBLK
  5
21
330
1F
100
AcDbEntity
  8
0
100
AcDbBlockEnd
  0
BLOCK
  5
1C
330
1B
100
AcDbEntity
 67
     1
  8
0
100
AcDbBlockBegin
  2
*Paper_Space
 70
     0
 10
0.0
 20
0.0
 30
0.0
  3
*Paper_Space
  1

  0
ENDBLK
  5
1D
330
1B
100
AcDbEntity
 67
     1
  8
0
100
AcDbBlockEnd
  0
BLOCK
  5
24
330
23
100
AcDbEntity
  8
0
100
AcDbBlockBegin
  2
*Paper_Space0
 70
     0
 10
0.0
 20
0.0
 30
0.0
  3
*Paper_Space0
  1

  0
ENDBLK
  5
25
330
23
100
AcDbEntity
  8
0
100
AcDbBlockEnd
  0
BLOCK
  5
48
330
47
100
AcDbEntity
  8
0
100
AcDbBlockBegin
  2
D_UGSK-select__1
 70
     0
 10
111.0362245079835
 20
367.928658875182
 30
0.0
  3
D_UGSK-select__1
  1

  0
LINE
  5
87
330
47
100
AcDbEntity
  8
0
  6
Continuous
 62
     7
100
AcDbLine
 10
163.8637741388343
 20
367.928658875182
 30
0.0
 11
164.9637741388343
 21
368.8812868193448
 31
0.0
  0
LINE
  5
88
330
47
100
AcDbEntity
  8
0
  6
Continuous
 62
     7
100
AcDbLine
 10
164.9637741388343
 20
384.4594209887151
 30
0.0
 11
164.9637741388343
 21
368.8812868193448
 31
0.0
  0
LINE
  5
89
330
47
100
AcDbEntity
  8
0
  6
Continuous
 62
     7
100
AcDbLine
 10
163.8637741388343
 20
383.5067930445522
 30
0.0
 11
164.9637741388343
 21
384.4594209887151
 31
0.0
  0
LINE
  5
8A
330
47
100
AcDbEntity
  8
0
  6
Continuous
 62
     7
100
AcDbLine
 10
158.4078140949924
 20
405.4437131322362
 30
0.0
 11
163.8637741388343
 21
383.5067930445522
 31
0.0
  0
LINE
  5
8B
330
47
100
AcDbEntity
  8
0
  6
Continuous
 62
     7
100
AcDbLine
 10
159.5078140949924
 20
406.396341076399
 30
0.0
 11
164.9637741388343
 21
384.4594209887151
 31
0.0
  0
LINE
  5
8C
330
47
100
AcDbEntity
  8
0
  6
Continuous
 62
     7
100
AcDbLine
 10
163.8637741388343
 20
383.5067930445522
 30
0.0
 11
163.8637741388343
 21
367.928658875182
 31
0.0
  0
LINE
  5
8D
330
47
100
AcDbEntity
  8
0
  6
Continuous
 62
     7
100
AcDbLine
 10
158.4078140949924
 20
405.4437131322362
 30
0.0
 11
159.5078140949924
 21
406.396341076399
 31
0.0
  0
LINE
  5
8E
330
47
100
AcDbEntity
  8
0
  6
Continuous
 62
     7
100
AcDbLine
 10
116.4921845518255
 20
417.5437131322362
 30
0.0
 11
117.5921845518255
 21
418.4963410763991
 31
0.0
  0
LINE
  5
8F
330
47
100
AcDbEntity
  8
0
  6
Continuous
 62
     7
100
AcDbLine
 10
116.4921845518255
 20
417.5437131322362
 30
0.0
 11
158.4078140949924
 21
405.4437131322362
 31
0.0
  0
LINE
  5
90
330
47
100
AcDbEntity
  8
0
  6
Continuous
 62
     7
100
AcDbLine
 10
117.5921845518255
 20
418.4963410763991
 30
0.0
 11
159.5078140949924
 21
406.396341076399
 31
0.0
  0
LINE
  5
91
330
47
100
AcDbEntity
  8
0
  6
Continuous
 62
     7
100
AcDbLine
 10
111.0362245079835
 20
383.178658875182
 30
0.0
 11
111.0362245079835
 21
398.7567930445522
 31
0.0
  0
LINE
  5
92
330
47
100
AcDbEntity
  8
0
  6
Continuous
 62
     7
100
AcDbLine
 10
111.0362245079835
 20
398.7567930445522
 30
0.0
 11
116.4921845518255
 21
417.5437131322362
 31
0.0
  0
LINE
  5
93
330
47
100
AcDbEntity
  8
0
  6
Continuous
 62
     7
100
AcDbLine
 10
163.8637741388343
 20
367.928658875182
 30
0.0
 11
111.0362245079835
 21
383.178658875182
 31
0.0
  0
ENDBLK
  5
49
330
47
100
AcDbEntity
  8
0
100
AcDbBlockEnd
  0
BLOCK
  5
4C
330
4A
100
AcDbEntity
  8
0
100
AcDbBlockBegin
  2
AllgSicht1
 70
     0
 10
137.9999999999996
 20
394.0
 30
0.0
  3
AllgSicht1
  1

  0
INSERT
  5
4B
330
4A
100
AcDbEntity
  8
0
100
AcDbBlockReference
  2
D_UGSK-select__1
 10
111.0362245079835
 20
367.928658875182
 30
0.0
  0
MTEXT
  5
95
330
4A
100
AcDbEntity
  8
1
 62
     6
100
AcDbMText
 10
138.0
 20
362.9286586549285
 30
0.0
 40
5.0
 41
0.0
 71
     2
 72
     1
  1
 
  7
CONVERTER_11
 73
     1
 44
1.32052821128451
  0
ENDBLK
  5
4D
330
4A
100
AcDbEntity
  8
0
100
AcDbBlockEnd
  0
BLOCK
  5
4F
330
4E
100
AcDbEntity
  8
0
100
AcDbBlockBegin
  2
D_UGSK-select__2
 70
     0
 10
-19.50000079502758
 20
405.9000000238569
 30
0.0
  3
D_UGSK-select__2
  1

  0
LINE
  5
96
330
4E
100
AcDbEntity
  8
0
  6
Continuous
 62
     7
100
AcDbLine
 10
41.49999920497244
 20
405.9000000238569
 30
0.0
 11
41.49999920497244
 21
408.1000000238569
 31
0.0
  0
LINE
  5
97
330
4E
100
AcDbEntity
  8
0
  6
Continuous
 62
     7
100
AcDbLine
 10
35.19999920497245
 20
405.9000000238569
 30
0.0
 11
41.49999920497244
 21
405.9000000238569
 31
0.0
  0
LINE
  5
98
330
4E
100
AcDbEntity
  8
0
  6
Continuous
 62
     7
100
AcDbLine
 10
35.19999920497245
 20
408.1000000238569
 30
0.0
 11
41.49999920497244
 21
408.1000000238569
 31
0.0
  0
LINE
  5
99
330
4E
100
AcDbEntity
  8
0
  6
Continuous
 62
     7
100
AcDbLine
 10
-19.50000079502758
 20
405.9000000238569
 30
0.0
 11
-13.20000079502755
 21
405.9000000238569
 31
0.0
  0
LINE
  5
9A
330
4E
100
AcDbEntity
  8
0
  6
Continuous
 62
     7
100
AcDbLine
 10
-19.50000079502758
 20
405.9000000238569
 30
0.0
 11
-19.50000079502758
 21
408.1000000238569
 31
0.0
  0
LINE
  5
9B
330
4E
100
AcDbEntity
  8
0
  6
Continuous
 62
     7
100
AcDbLine
 10
-19.50000079502758
 20
408.1000000238569
 30
0.0
 11
-13.20000079502755
 21
408.1000000238569
 31
0.0
  0
LINE
  5
9C
330
4E
100
AcDbEntity
  8
0
  6
Continuous
 62
     7
100
AcDbLine
 10
35.19999920497245
 20
405.9000000238569
 30
0.0
 11
35.19999920497245
 21
408.1000000238569
 31
0.0
  0
LINE
  5
9D
330
4E
100
AcDbEntity
  8
0
  6
Continuous
 62
     7
100
AcDbLine
 10
-13.20000079502755
 20
405.9000000238569
 30
0.0
 11
35.19999920497245
 21
405.9000000238569
 31
0.0
  0
LINE
  5
9E
330
4E
100
AcDbEntity
  8
0
  6
Continuous
 62
     7
100
AcDbLine
 10
-13.20000079502755
 20
405.9000000238569
 30
0.0
 11
-13.20000079502755
 21
408.1000000238569
 31
0.0
  0
LINE
  5
9F
330
4E
100
AcDbEntity
  8
0
  6
Continuous
 62
     7
100
AcDbLine
 10
-13.20000079502755
 20
408.1000000238569
 30
0.0
 11
35.19999920497245
 21
408.1000000238569
 31
0.0
  0
ENDBLK
  5
50
330
4E
100
AcDbEntity
  8
0
100
AcDbBlockEnd
  0
BLOCK
  5
53
330
51
100
AcDbEntity
  8
0
100
AcDbBlockBegin
  2
Drfsicht1
 70
     0
 10
11.0
 20
407.00000000001
 30
0.0
  3
Drfsicht1
  1

  0
INSERT
  5
52
330
51
100
AcDbEntity
  8
0
100
AcDbBlockReference
  2
D_UGSK-select__2
 10
-19.50000079502758
 20
405.9000000238569
 30
0.0
  0
MTEXT
  5
A0
330
51
100
AcDbEntity
  8
1
 62
     6
100
AcDbMText
 10
11.0
 20
400.8999999761682
 30
0.0
 40
5.0
 41
0.0
 71
     2
 72
     1
  1
 
  7
CONVERTER_11
 73
     1
 44
1.32052821128451
  0
DIMENSION
  5
AD
330
51
100
AcDbEntity
  8
1
100
AcDbDimension
  2
*D17
 10
52.74743312477609
 20
405.900000023857
 30
0.0
 11
48.8224331247761
 21
417.948756172513
 31
0.0
 70
    33
  1
<>
 71
     5
 42
-1.0
 53
90.0
  3
ME10_DIM_10
100
AcDbAlignedDimension
 13
41.49999920497244
 23
408.1000000238569
 33
0.0
 14
41.49999920497244
 24
405.9000000238569
 34
0.0
  0
ENDBLK
  5
54
330
51
100
AcDbEntity
  8
0
100
AcDbBlockEnd
  0
BLOCK
  5
56
330
55
100
AcDbEntity
  8
0
100
AcDbBlockBegin
  2
D_UGSK-select__3
 70
     0
 10
95.49999936451616
 20
446.1000002312962
 30
0.0
  3
D_UGSK-select__3
  1

  0
LINE
  5
AE
330
55
100
AcDbEntity
  8
0
  6
Continuous
 62
     7
100
AcDbLine
 10
101.7999993645162
 20
487.6000002312962
 30
0.0
 11
95.49999936451616
 21
464.0880801436123
 31
0.0
  0
LINE
  5
AF
330
55
100
AcDbEntity
  8
0
  6
Continuous
 62
     7
100
AcDbLine
 10
156.4999993645162
 20
446.1000002312962
 30
0.0
 11
156.4999993645162
 21
464.0880801436123
 31
0.0
  0
LINE
  5
B0
330
55
100
AcDbEntity
  8
0
  6
Continuous
 62
     7
100
AcDbLine
 10
95.49999936451619
 20
446.1000002312962
 30
0.0
 11
156.4999993645162
 21
446.1000002312962
 31
0.0
  0
LINE
  5
B1
330
55
100
AcDbEntity
  8
0
  6
Continuous
 62
     7
100
AcDbLine
 10
95.49999936451616
 20
464.0880801436123
 30
0.0
 11
95.49999936451619
 21
446.1000002312962
 31
0.0
  0
LINE
  5
B2
330
55
100
AcDbEntity
  8
0
  6
Continuous
 62
     7
100
AcDbLine
 10
150.1999993645162
 20
487.6000002312962
 30
0.0
 11
101.7999993645162
 21
487.6000002312962
 31
0.0
  0
LINE
  5
B3
330
55
100
AcDbEntity
  8
0
  6
Continuous
 62
     7
100
AcDbLine
 10
156.4999993645162
 20
464.0880801436123
 30
0.0
 11
150.1999993645162
 21
487.6000002312962
 31
0.0
  0
ENDBLK
  5
57
330
55
100
AcDbEntity
  8
0
100
AcDbBlockEnd
  0
BLOCK
  5
5A
330
58
100
AcDbEntity
  8
0
100
AcDbBlockBegin
  2
Rckans1
 70
     0
 10
125.9999985694886
 20
466.8500005006791
 30
0.0
  3
Rckans1
  1

  0
INSERT
  5
59
330
58
100
AcDbEntity
  8
0
100
AcDbBlockReference
  2
D_UGSK-select__3
 10
95.49999936451616
 20
446.1000002312962
 30
0.0
  0
MTEXT
  5
B4
330
58
100
AcDbEntity
  8
1
 62
     6
100
AcDbMText
 10
125.9999985694886
 20
441.100000023842
 30
0.0
 40
5.0
 41
0.0
 71
     2
 72
     1
  1
 
  7
CONVERTER_11
 73
     1
 44
1.32052821128451
  0
ENDBLK
  5
5B
330
58
100
AcDbEntity
  8
0
100
AcDbBlockEnd
  0
BLOCK
  5
5D
330
5C
100
AcDbEntity
  8
0
100
AcDbBlockBegin
  2
D_UGSK-select__4
 70
     0
 10
72.39999926089213
 20
446.1000002312962
 30
0.0
  3
D_UGSK-select__4
  1

  0
LINE
  5
B5
330
5C
100
AcDbEntity
  8
0
  6
Continuous
 62
     7
100
AcDbLine
 10
74.59999926089212
 20
446.1000002312962
 30
0.0
 11
74.59999926089212
 21
464.0880801436122
 31
0.0
  0
LINE
  5
B6
330
5C
100
AcDbEntity
  8
0
  6
Continuous
 62
     7
100
AcDbLine
 10
74.59999926089212
 20
446.1000002312962
 30
0.0
 11
72.39999926089213
 21
446.1000002312962
 31
0.0
  0
LINE
  5
B7
330
5C
100
AcDbEntity
  8
0
  6
Continuous
 62
     7
100
AcDbLine
 10
72.39999926089213
 20
446.1000002312962
 30
0.0
 11
72.39999926089213
 21
464.0880801436122
 31
0.0
  0
LINE
  5
B8
330
5C
100
AcDbEntity
  8
0
  6
Continuous
 62
     7
100
AcDbLine
 10
74.59999926089212
 20
487.6000002312962
 30
0.0
 11
72.39999926089213
 21
487.6000002312962
 31
0.0
  0
LINE
  5
B9
330
5C
100
AcDbEntity
  8
0
  6
Continuous
 62
     7
100
AcDbLine
 10
72.39999926089213
 20
464.0880801436122
 30
0.0
 11
72.39999926089213
 21
487.6000002312962
 31
0.0
  0
LINE
  5
BA
330
5C
100
AcDbEntity
  8
0
  6
Continuous
 62
     7
100
AcDbLine
 10
74.59999926089212
 20
464.0880801436122
 30
0.0
 11
72.39999926089213
 21
464.0880801436122
 31
0.0
  0
LINE
  5
BB
330
5C
100
AcDbEntity
  8
0
  6
Continuous
 62
     7
100
AcDbLine
 10
74.59999926089212
 20
464.0880801436122
 30
0.0
 11
74.59999926089212
 21
487.6000002312962
 31
0.0
  0
ENDBLK
  5
5E
330
5C
100
AcDbEntity
  8
0
100
AcDbBlockEnd
  0
BLOCK
  5
61
330
5F
100
AcDbEntity
  8
0
100
AcDbBlockBegin
  2
SA_Links1
 70
     0
 10
73.49999928473902
 20
466.850000500679
 30
0.0
  3
SA_Links1
  1

  0
INSERT
  5
60
330
5F
100
AcDbEntity
  8
0
100
AcDbBlockReference
  2
D_UGSK-select__4
 10
72.39999926089213
 20
446.1000002312962
 30
0.0
  0
MTEXT
  5
BC
330
5F
100
AcDbEntity
  8
1
 62
     6
100
AcDbMText
 10
73.49999928473926
 20
441.100000023842
 30
0.0
 40
5.0
 41
0.0
 71
     2
 72
     1
  1
 
  7
CONVERTER_11
 73
     1
 44
1.32052821128451
  0
ENDBLK
  5
62
330
5F
100
AcDbEntity
  8
0
100
AcDbBlockEnd
  0
BLOCK
  5
64
330
63
100
AcDbEntity
  8
0
100
AcDbBlockBegin
  2
D_UGSK-select__5
 70
     0
 10
-44.59999926088717
 20
446.1000002312962
 30
0.0
  3
D_UGSK-select__5
  1

  0
LINE
  5
BD
330
63
100
AcDbEntity
  8
0
  6
Continuous
 62
     7
100
AcDbLine
 10
-44.59999926088717
 20
446.1000002312962
 30
0.0
 11
-42.39999926088717
 21
446.1000002312962
 31
0.0
  0
LINE
  5
BE
330
63
100
AcDbEntity
  8
0
  6
Continuous
 62
     7
100
AcDbLine
 10
-44.59999926088717
 20
464.0880801436123
 30
0.0
 11
-44.59999926088717
 21
446.1000002312962
 31
0.0
  0
LINE
  5
BF
330
63
100
AcDbEntity
  8
0
  6
Continuous
 62
     7
100
AcDbLine
 10
-42.39999926088717
 20
464.0880801436123
 30
0.0
 11
-42.39999926088717
 21
446.1000002312962
 31
0.0
  0
LINE
  5
C0
330
63
100
AcDbEntity
  8
0
  6
Continuous
 62
     7
100
AcDbLine
 10
-44.59999926088717
 20
464.0880801436123
 30
0.0
 11
-42.39999926088717
 21
464.0880801436123
 31
0.0
  0
LINE
  5
C1
330
63
100
AcDbEntity
  8
0
  6
Continuous
 62
     7
100
AcDbLine
 10
-44.59999926088717
 20
487.6000002312962
 30
0.0
 11
-44.59999926088717
 21
464.0880801436123
 31
0.0
  0
LINE
  5
C2
330
63
100
AcDbEntity
  8
0
  6
Continuous
 62
     7
100
AcDbLine
 10
-44.59999926088717
 20
487.6000002312962
 30
0.0
 11
-42.39999926088717
 21
487.6000002312962
 31
0.0
  0
LINE
  5
C3
330
63
100
AcDbEntity
  8
0
  6
Continuous
 62
     7
100
AcDbLine
 10
-42.39999926088717
 20
487.6000002312962
 30
0.0
 11
-42.39999926088717
 21
464.0880801436123
 31
0.0
  0
ENDBLK
  5
65
330
63
100
AcDbEntity
  8
0
100
AcDbBlockEnd
  0
BLOCK
  5
68
330
66
100
AcDbEntity
  8
0
100
AcDbBlockBegin
  2
SA_Rechts1
 70
     0
 10
-43.49999928473403
 20
466.8500005006791
 30
0.0
  3
SA_Rechts1
  1

  0
INSERT
  5
67
330
66
100
AcDbEntity
  8
0
100
AcDbBlockReference
  2
D_UGSK-select__5
 10
-44.59999926088717
 20
446.1000002312962
 30
0.0
  0
MTEXT
  5
C4
330
66
100
AcDbEntity
  8
1
 62
     6
100
AcDbMText
 10
-43.49999928473415
 20
441.100000023842
 30
0.0
 40
5.0
 41
0.0
 71
     2
 72
     1
  1
 
  7
CONVERTER_11
 73
     1
 44
1.32052821128451
  0
ENDBLK
  5
69
330
66
100
AcDbEntity
  8
0
100
AcDbBlockEnd
  0
BLOCK
  5
6B
330
6A
100
AcDbEntity
  8
0
100
AcDbBlockBegin
  2
D_UGSK-select__6
 70
     0
 10
-19.50000079502775
 20
446.1000002312962
 30
0.0
  3
D_UGSK-select__6
  1

  0
LINE
  5
C5
330
6A
100
AcDbEntity
  8
0
  6
Continuous
 62
     7
100
AcDbLine
 10
35.19999920497229
 20
487.6000002312962
 30
0.0
 11
41.49999920497229
 21
464.0880801436122
 31
0.0
  0
LINE
  5
C6
330
6A
100
AcDbEntity
  8
0
  6
Continuous
 62
     7
100
AcDbLine
 10
41.49999920497229
 20
464.0880801436122
 30
0.0
 11
41.49999920497229
 21
446.1000002312962
 31
0.0
  0
LINE
  5
C7
330
6A
100
AcDbEntity
  8
0
  6
Continuous
 62
     7
100
AcDbLine
 10
41.49999920497229
 20
446.1000002312962
 30
0.0
 11
-19.50000079502775
 21
446.1000002312962
 31
0.0
  0
LINE
  5
C8
330
6A
100
AcDbEntity
  8
0
  6
Continuous
 62
     7
100
AcDbLine
 10
-19.50000079502775
 20
446.1000002312962
 30
0.0
 11
-19.50000079502775
 21
464.0880801436122
 31
0.0
  0
LINE
  5
C9
330
6A
100
AcDbEntity
  8
0
  6
Continuous
 62
     7
100
AcDbLine
 10
-13.20000079502771
 20
487.6000002312962
 30
0.0
 11
35.19999920497229
 21
487.6000002312962
 31
0.0
  0
LINE
  5
CA
330
6A
100
AcDbEntity
  8
0
  6
Continuous
 62
     7
100
AcDbLine
 10
-19.50000079502775
 20
464.0880801436122
 30
0.0
 11
-13.20000079502771
 21
487.6000002312962
 31
0.0
  0
ENDBLK
  5
6C
330
6A
100
AcDbEntity
  8
0
100
AcDbBlockEnd
  0
BLOCK
  5
6F
330
6D
100
AcDbEntity
  8
0
100
AcDbBlockBegin
  2
Vordans1
 70
     0
 10
10.99999999999984
 20
466.850000500679
 30
0.0
  3
Vordans1
  1

  0
INSERT
  5
6E
330
6D
100
AcDbEntity
  8
0
100
AcDbBlockReference
  2
D_UGSK-select__6
 10
-19.50000079502775
 20
446.1000002312962
 30
0.0
  0
MTEXT
  5
CB
330
6D
100
AcDbEntity
  8
1
 62
     6
100
AcDbMText
 10
10.99999999999989
 20
441.100000023842
 30
0.0
 40
5.0
 41
0.0
 71
     2
 72
     1
  1
 
  7
CONVERTER_11
 73
     1
 44
1.32052821128451
  0
DIMENSION
  5
D6
330
6D
100
AcDbEntity
  8
1
100
AcDbDimension
  2
*D18
 10
55.73780314449986
 20
446.1000002312961
 30
0.0
 11
51.81280314449987
 21
468.1205778687649
 31
0.0
 70
    32
  1
<>
 71
     5
 42
-1.0
 53
90.0
  3
ME10_DIM_11
100
AcDbAlignedDimension
 13
35.19999920497229
 23
487.6000002312962
 33
0.0
 14
41.49999920497229
 24
446.1000002312962
 34
0.0
 50
90.0
100
AcDbRotatedDimension
  0
DIMENSION
  5
E1
330
6D
100
AcDbEntity
  8
1
100
AcDbDimension
  2
*D19
 10
-19.50000079502776
 20
430.3139364486469
 30
0.0
 11
9.34968637921387
 21
434.0639364486469
 31
0.0
 70
    32
  1
<>
 71
     5
 42
-1.0
 53
0.00013888888889
  3
ME10_DIM_12
100
AcDbAlignedDimension
 13
41.49999920497229
 23
446.1000002312962
 33
0.0
 14
-19.50000079502775
 24
446.1000002312962
 34
0.0
100
AcDbRotatedDimension
  0
ENDBLK
  5
70
330
6D
100
AcDbEntity
  8
0
100
AcDbBlockEnd
  0
BLOCK
  5
72
330
71
100
AcDbEntity
  8
0
100
AcDbBlockBegin
  2
_rahmen
 70
     0
 10
198.0000000398911
 20
321.7643294431124
 30
0.0
  3
_rahmen
  1

  0
LINE
  5
E2
330
71
100
AcDbEntity
  8
1
  6
DOT_CENTER
 62
     2
100
AcDbLine
 10
72.4418503997037
 20
347.8893294431124
 30
0.0
 11
77.9418503997037
 21
347.8893294431124
 31
0.0
  0
LINE
  5
E3
330
71
100
AcDbEntity
  8
1
  6
PHANTOM
 62
     2
100
AcDbLine
 10
81.1918503997037
 20
350.6393294431124
 30
0.0
 11
81.1918503997037
 21
345.1393294431124
 31
0.0
  0
LINE
  5
E4
330
71
100
AcDbEntity
  8
1
  6
PHANTOM
 62
     2
100
AcDbLine
 10
83.9418503997037
 20
347.8893294431124
 30
0.0
 11
78.4418503997037
 21
347.8893294431124
 31
0.0
  0
LINE
  5
E5
330
71
100
AcDbEntity
  8
1
  6
Continuous
 62
     7
100
AcDbLine
 10
132.7551955131411
 20
335.2643294431124
 30
0.0
 11
132.7551955131411
 21
343.7643294431125
 31
0.0
  0
LINE
  5
E6
330
71
100
AcDbEntity
  8
1
  6
Continuous
 62
     6
100
AcDbLine
 10
104.855195513141
 20
343.7643294431125
 30
0.0
 11
198.0000000398928
 21
343.7643294431125
 31
0.0
  0
LINE
  5
E7
330
71
100
AcDbEntity
  8
1
  6
Continuous
 62
     7
100
AcDbLine
 10
68.45519551314109
 20
343.7643294431125
 30
0.0
 11
68.45519551314109
 21
352.2643294431125
 31
0.0
  0
LINE
  5
E8
330
71
100
AcDbEntity
  8
1
  6
Continuous
 62
     7
100
AcDbLine
 10
104.855195513141
 20
343.7643294431125
 30
0.0
 11
104.855195513141
 21
352.2643294431125
 31
0.0
  0
LINE
  5
E9
330
71
100
AcDbEntity
  8
1
  6
Continuous
 62
     7
100
AcDbLine
 10
162.581591758214
 20
352.2643294431125
 30
0.0
 11
162.581591758214
 21
343.7643294431125
 31
0.0
  0
LINE
  5
EA
330
71
100
AcDbEntity
  8
1
  6
Continuous
 62
     7
100
AcDbLine
 10
189.0815917582136
 20
352.2643294431125
 30
0.0
 11
189.0815917582136
 21
343.7643294431125
 31
0.0
  0
LINE
  5
EB
330
71
100
AcDbEntity
  8
1
  6
Continuous
 62
     6
100
AcDbLine
 10
-0.54480448685888
 20
326.7643294431125
 30
0.0
 11
-45.49999996010888
 21
326.7643294431125
 31
0.0
  0
LINE
  5
EC
330
71
100
AcDbEntity
  8
1
  6
Continuous
 62
     7
100
AcDbLine
 10
198.0000000398924
 20
335.2643294431125
 30
0.0
 11
104.855195513141
 21
335.2643294431125
 31
0.0
  0
LINE
  5
ED
102
{ACAD_REACTORS
330
1FF
330
200
102
}
330
71
100
AcDbEntity
  8
0
  6
Continuous
 62
     2
100
AcDbLine
 10
82.1626244549085
 20
336.0646185587758
 30
0.0
 11
82.1626244549085
 21
336.9371355655791
 31
0.0
  0
LINE
  5
EE
102
{ACAD_REACTORS
330
1FF
330
200
102
}
330
71
100
AcDbEntity
  8
0
  6
Continuous
 62
     2
100
AcDbLine
 10
82.1626244549085
 20
335.1048498512929
 30
0.0
 11
82.1626244549085
 21
334.2323328444897
 31
0.0
  0
LINE
  5
EF
102
{ACAD_REACTORS
330
201
330
202
102
}
330
71
100
AcDbEntity
  8
0
  6
Continuous
 62
     2
100
AcDbLine
 10
97.495668591199
 20
336.3263736608163
 30
0.0
 11
98.59930789076711
 21
336.3263736608163
 31
0.0
  0
LINE
  5
F0
102
{ACAD_REACTORS
330
201
330
202
102
}
330
71
100
AcDbEntity
  8
0
  6
Continuous
 62
     2
100
AcDbLine
 10
98.26532593416042
 20
335.1048498512924
 30
0.0
 11
98.26532593416042
 21
334.2323328444891
 31
0.0
  0
LINE
  5
F1
102
{ACAD_REACTORS
330
20B
330
20C
102
}
330
71
100
AcDbEntity
  8
0
  6
Continuous
 62
     2
100
AcDbLine
 10
96.40456931878049
 20
337.4170199193031
 30
0.0
 11
97.80252236572079
 21
338.9978789130781
 31
0.0
  0
LINE
  5
F2
102
{ACAD_REACTORS
330
20B
330
20C
102
}
330
71
100
AcDbEntity
  8
0
  6
Continuous
 62
     2
100
AcDbLine
 10
96.49999273495331
 20
340.4708294431143
 30
0.0
 11
97.80252236572079
 21
338.9978789130781
 31
0.0
  0
LINE
  5
F3
102
{ACAD_REACTORS
330
20B
330
20C
102
}
330
71
100
AcDbEntity
  8
0
  6
Continuous
 62
     2
100
AcDbLine
 10
99.10505199648719
 20
340.4708294431143
 30
0.0
 11
100.5077762142344
 21
340.4708294431143
 31
0.0
  0
LINE
  5
F4
102
{ACAD_REACTORS
330
20B
330
20C
102
}
330
71
100
AcDbEntity
  8
0
  6
Continuous
 62
     2
100
AcDbLine
 10
97.8072935365287
 20
337.4170199193031
 30
0.0
 11
98.5038844745944
 21
338.2047517045968
 31
0.0
  0
LINE
  5
F5
102
{ACAD_REACTORS
330
20B
330
20C
102
}
330
71
100
AcDbEntity
  8
0
  6
Continuous
 62
     2
100
AcDbLine
 10
97.8072935365287
 20
337.4170199193031
 30
0.0
 11
96.40456931878049
 21
337.4170199193031
 31
0.0
  0
LINE
  5
F6
102
{ACAD_REACTORS
330
20D
330
20E
102
}
330
71
100
AcDbEntity
  8
0
  6
Continuous
 62
     2
100
AcDbLine
 10
96.28529004856361
 20
337.4170199193031
 30
0.0
 11
95.04478563831071
 21
337.4170199193031
 31
0.0
  0
LINE
  5
F7
102
{ACAD_REACTORS
330
20F
330
210
102
}
330
71
100
AcDbEntity
  8
0
  6
Continuous
 62
     2
100
AcDbLine
 10
94.1768060301556
 20
335.2793532526533
 30
0.0
 11
93.8766407929655
 21
336.04716821864
 31
0.0
  0
LINE
  5
F8
102
{ACAD_REACTORS
330
20F
330
210
102
}
330
71
100
AcDbEntity
  8
0
  6
Continuous
 62
     2
100
AcDbLine
 10
93.5764755557731
 20
335.2793532526533
 30
0.0
 11
94.1768060301556
 21
335.2793532526533
 31
0.0
  0
LINE
  5
F9
102
{ACAD_REACTORS
330
20F
330
210
102
}
330
71
100
AcDbEntity
  8
0
  6
Continuous
 62
     2
100
AcDbLine
 10
91.85843554089931
 20
334.0578294431288
 30
0.0
 11
93.09893995115229
 21
334.0578294431288
 31
0.0
  0
LINE
  5
FA
102
{ACAD_REACTORS
330
20F
330
210
102
}
330
71
100
AcDbEntity
  8
0
  6
Continuous
 62
     2
100
AcDbLine
 10
93.25638858783861
 20
337.1116389669399
 30
0.0
 11
94.49689299809131
 21
337.1116389669399
 31
0.0
  0
LINE
  5
FB
102
{ACAD_REACTORS
330
20F
330
210
102
}
330
71
100
AcDbEntity
  8
0
  6
Continuous
 62
     2
100
AcDbLine
 10
94.49689299809131
 20
337.1116389669399
 30
0.0
 11
95.89484604503161
 21
334.0578294431288
 31
0.0
  0
LINE
  5
FC
102
{ACAD_REACTORS
330
20F
330
210
102
}
330
71
100
AcDbEntity
  8
0
  6
Continuous
 62
     2
100
AcDbLine
 10
94.6543416347777
 20
334.0578294431288
 30
0.0
 11
94.44286158130191
 21
334.5987899873467
 31
0.0
  0
LINE
  5
FD
102
{ACAD_REACTORS
330
211
330
212
102
}
330
71
100
AcDbEntity
  8
0
  6
Continuous
 62
     2
100
AcDbLine
 10
90.5120224391917
 20
334.0578294431288
 30
0.0
 11
91.70481514135821
 21
334.0578294431288
 31
0.0
  0
LINE
  5
FE
102
{ACAD_REACTORS
330
211
330
212
102
}
330
71
100
AcDbEntity
  8
0
  6
Continuous
 62
     2
100
AcDbLine
 10
90.5120224391917
 20
336.3263736608163
 30
0.0
 11
90.5120224391917
 21
334.0578294431288
 31
0.0
  0
LINE
  5
FF
102
{ACAD_REACTORS
330
211
330
212
102
}
330
71
100
AcDbEntity
  8
0
  6
Continuous
 62
     2
100
AcDbLine
 10
89.70092340171709
 20
337.1116389669399
 30
0.0
 11
89.70092340171709
 21
336.3263736608163
 31
0.0
  0
LINE
  5
100
102
{ACAD_REACTORS
330
213
330
214
102
}
330
71
100
AcDbEntity
  8
0
  6
Continuous
 62
     2
100
AcDbLine
 10
91.1801372832897
 20
337.4170199193031
 30
0.0
 11
92.37292998545621
 21
337.4170199193031
 31
0.0
  0
LINE
  5
101
102
{ACAD_REACTORS
330
213
330
214
102
}
330
71
100
AcDbEntity
  8
0
  6
Continuous
 62
     2
100
AcDbLine
 10
93.61343439571021
 20
339.1620539329091
 30
0.0
 11
92.37292998545621
 21
340.4708294431143
 31
0.0
  0
LINE
  5
102
102
{ACAD_REACTORS
330
213
330
214
102
}
330
71
100
AcDbEntity
  8
0
  6
Continuous
 62
     2
100
AcDbLine
 10
94.80622709787681
 20
340.4708294431143
 30
0.0
 11
93.61343439571021
 21
340.4708294431143
 31
0.0
  0
LINE
  5
103
102
{ACAD_REACTORS
330
213
330
214
102
}
330
71
100
AcDbEntity
  8
0
  6
Continuous
 62
     2
100
AcDbLine
 10
94.80622709787681
 20
337.4170199193031
 30
0.0
 11
94.80622709787681
 21
340.4708294431143
 31
0.0
  0
LINE
  5
104
102
{ACAD_REACTORS
330
213
330
214
102
}
330
71
100
AcDbEntity
  8
0
  6
Continuous
 62
     2
100
AcDbLine
 10
93.61343439571021
 20
337.4170199193031
 30
0.0
 11
94.80622709787681
 21
337.4170199193031
 31
0.0
  0
LINE
  5
105
102
{ACAD_REACTORS
330
213
330
214
102
}
330
71
100
AcDbEntity
  8
0
  6
Continuous
 62
     2
100
AcDbLine
 10
92.37292998545621
 20
338.7257954295078
 30
0.0
 11
93.61343439571021
 21
337.4170199193031
 31
0.0
  0
LINE
  5
106
102
{ACAD_REACTORS
330
215
330
216
102
}
330
71
100
AcDbEntity
  8
0
  6
Continuous
 62
     2
100
AcDbLine
 10
88.3649955752905
 20
335.8028634567348
 30
0.0
 11
87.1244911650376
 21
337.1116389669399
 31
0.0
  0
LINE
  5
107
102
{ACAD_REACTORS
330
215
330
216
102
}
330
71
100
AcDbEntity
  8
0
  6
Continuous
 62
     2
100
AcDbLine
 10
88.3649955752905
 20
337.1116389669399
 30
0.0
 11
88.3649955752905
 21
335.8028634567348
 31
0.0
  0
LINE
  5
108
102
{ACAD_REACTORS
330
215
330
216
102
}
330
71
100
AcDbEntity
  8
0
  6
Continuous
 62
     2
100
AcDbLine
 10
89.5577882774569
 20
337.1116389669399
 30
0.0
 11
88.3649955752905
 21
337.1116389669399
 31
0.0
  0
LINE
  5
109
102
{ACAD_REACTORS
330
215
330
216
102
}
330
71
100
AcDbEntity
  8
0
  6
Continuous
 62
     2
100
AcDbLine
 10
89.5577882774569
 20
334.0578294431288
 30
0.0
 11
89.5577882774569
 21
337.1116389669399
 31
0.0
  0
LINE
  5
10A
102
{ACAD_REACTORS
330
215
330
216
102
}
330
71
100
AcDbEntity
  8
0
  6
Continuous
 62
     2
100
AcDbLine
 10
87.1244911650376
 20
335.3666049533334
 30
0.0
 11
88.3649955752905
 21
334.0578294431288
 31
0.0
  0
LINE
  5
10B
102
{ACAD_REACTORS
330
215
330
216
102
}
330
71
100
AcDbEntity
  8
0
  6
Continuous
 62
     2
100
AcDbLine
 10
87.1244911650376
 20
334.0578294431288
 30
0.0
 11
87.1244911650376
 21
335.3666049533334
 31
0.0
  0
LINE
  5
10C
102
{ACAD_REACTORS
330
205
330
206
102
}
330
71
100
AcDbEntity
  8
0
  6
Continuous
 62
     2
100
AcDbLine
 10
89.60565091642911
 20
339.7728158376713
 30
0.0
 11
90.94157874285679
 21
339.7728158376713
 31
0.0
  0
LINE
  5
10D
102
{ACAD_REACTORS
330
205
330
206
102
}
330
71
100
AcDbEntity
  8
0
  6
Continuous
 62
     2
100
AcDbLine
 10
89.60565091642911
 20
338.1150335247456
 30
0.0
 11
89.60565091642911
 21
338.5949178784873
 31
0.0
  0
LINE
  5
10E
102
{ACAD_REACTORS
330
205
330
206
102
}
330
71
100
AcDbEntity
  8
0
  6
Continuous
 62
     2
100
AcDbLine
 10
90.94157874285679
 20
338.1150335247456
 30
0.0
 11
89.60565091642911
 21
338.1150335247456
 31
0.0
  0
LINE
  5
10F
102
{ACAD_REACTORS
330
205
330
206
102
}
330
71
100
AcDbEntity
  8
0
  6
Continuous
 62
     2
100
AcDbLine
 10
90.94157874285679
 20
337.4170199193031
 30
0.0
 11
90.94157874285679
 21
338.1150335247456
 31
0.0
  0
LINE
  5
110
102
{ACAD_REACTORS
330
205
330
206
102
}
330
71
100
AcDbEntity
  8
0
  6
Continuous
 62
     2
100
AcDbLine
 10
87.7912590190758
 20
337.4170199193031
 30
0.0
 11
90.94157874285679
 21
337.4170199193031
 31
0.0
  0
LINE
  5
111
102
{ACAD_REACTORS
330
205
330
206
102
}
330
71
100
AcDbEntity
  8
0
  6
Continuous
 62
     2
100
AcDbLine
 10
87.7912590190758
 20
340.4708294431143
 30
0.0
 11
90.94157874285679
 21
340.4708294431143
 31
0.0
  0
LINE
  5
112
102
{ACAD_REACTORS
330
205
330
206
102
}
330
71
100
AcDbEntity
  8
0
  6
Continuous
 62
     2
100
AcDbLine
 10
90.94157874285679
 20
339.7728158376713
 30
0.0
 11
90.94157874285679
 21
340.4708294431143
 31
0.0
  0
LINE
  5
113
102
{ACAD_REACTORS
330
217
330
218
102
}
330
71
100
AcDbEntity
  8
0
  6
Continuous
 62
     2
100
AcDbLine
 10
84.92990352393579
 20
339.4019961097797
 30
0.0
 11
84.92990352393579
 21
340.4708294431143
 31
0.0
  0
LINE
  5
114
102
{ACAD_REACTORS
330
217
330
218
102
}
330
71
100
AcDbEntity
  8
0
  6
Continuous
 62
     2
100
AcDbLine
 10
84.92990352393579
 20
340.4708294431143
 30
0.0
 11
86.12269622610219
 21
340.4708294431143
 31
0.0
  0
LINE
  5
115
102
{ACAD_REACTORS
330
217
330
218
102
}
330
71
100
AcDbEntity
  8
0
  6
Continuous
 62
     2
100
AcDbLine
 10
84.92990352393579
 20
338.5512920281469
 30
0.0
 11
83.88024594602831
 21
338.5512920281469
 31
0.0
  0
LINE
  5
116
102
{ACAD_REACTORS
330
217
330
218
102
}
330
71
100
AcDbEntity
  8
0
  6
Continuous
 62
     2
100
AcDbLine
 10
83.88024594602831
 20
338.5512920281469
 30
0.0
 11
83.88024594602831
 21
337.4170199193031
 31
0.0
  0
LINE
  5
117
102
{ACAD_REACTORS
330
217
330
218
102
}
330
71
100
AcDbEntity
  8
0
  6
Continuous
 62
     2
100
AcDbLine
 10
82.68745324386171
 20
340.4708294431143
 30
0.0
 11
82.68745324386171
 21
337.4170199193031
 31
0.0
  0
LINE
  5
118
102
{ACAD_REACTORS
330
209
330
20A
102
}
330
71
100
AcDbEntity
  8
0
  6
Continuous
 62
     2
100
AcDbLine
 10
80.73127321230811
 20
339.101995948332
 30
0.0
 11
80.73127321230811
 21
339.8077235976742
 31
0.0
  0
LINE
  5
119
102
{ACAD_REACTORS
330
209
330
20A
102
}
330
71
100
AcDbEntity
  8
0
  6
Continuous
 62
     2
100
AcDbLine
 10
79.49076880205399
 20
337.4170199193031
 30
0.0
 11
80.73127321230811
 21
337.4170199193031
 31
0.0
  0
LINE
  5
11A
102
{ACAD_REACTORS
330
209
330
20A
102
}
330
71
100
AcDbEntity
  8
0
  6
Continuous
 62
     2
100
AcDbLine
 10
80.73127321230811
 20
337.4170199193031
 30
0.0
 11
80.73127321230811
 21
338.3600981604469
 31
0.0
  0
LINE
  5
11B
102
{ACAD_REACTORS
330
203
330
204
102
}
330
71
100
AcDbEntity
  8
0
  6
Continuous
 62
     2
100
AcDbLine
 10
75.18582295284261
 20
334.7703849986857
 30
0.0
 11
73.70998969183299
 21
334.7703849986857
 31
0.0
  0
LINE
  5
11C
102
{ACAD_REACTORS
330
203
330
204
102
}
330
71
100
AcDbEntity
  8
0
  6
Continuous
 62
     2
100
AcDbLine
 10
72.6918503997037
 20
340.0465848277123
 30
0.0
 11
72.6918503997037
 21
334.4820740585121
 31
0.0
  0
LINE
  5
11D
102
{ACAD_REACTORS
330
203
330
204
102
}
330
71
100
AcDbEntity
  8
0
  6
Continuous
 62
     2
100
AcDbLine
 10
73.1160950150865
 20
340.4708294430961
 30
0.0
 11
78.5894071058033
 21
340.4708294430961
 31
0.0
  0
LINE
  5
11E
102
{ACAD_REACTORS
330
203
330
204
102
}
330
71
100
AcDbEntity
  8
0
  6
Continuous
 62
     2
100
AcDbLine
 10
79.01365172118719
 20
340.0465848277123
 30
0.0
 11
79.01365172118719
 21
334.4820740585121
 31
0.0
  0
LINE
  5
11F
102
{ACAD_REACTORS
330
203
330
204
102
}
330
71
100
AcDbEntity
  8
0
  6
Continuous
 62
     2
100
AcDbLine
 10
78.5894071058033
 20
334.0578294431288
 30
0.0
 11
73.1160950150865
 21
334.0578294431288
 31
0.0
  0
LINE
  5
120
102
{ACAD_REACTORS
330
203
330
204
102
}
330
71
100
AcDbEntity
  8
0
  6
Continuous
 62
     2
100
AcDbLine
 10
75.5015398759192
 20
335.0861019217624
 30
0.0
 11
75.5015398759192
 21
336.616872853294
 31
0.0
  0
LINE
  5
121
102
{ACAD_REACTORS
330
203
330
204
102
}
330
71
100
AcDbEntity
  8
0
  6
Continuous
 62
     2
100
AcDbLine
 10
75.5015398759192
 20
338.838532345419
 30
0.0
 11
75.5015398759192
 21
339.4425569644795
 31
0.0
  0
LINE
  5
122
102
{ACAD_REACTORS
330
203
330
204
102
}
330
71
100
AcDbEntity
  8
0
  6
Continuous
 62
     2
100
AcDbLine
 10
73.70998969183299
 20
339.7582738875557
 30
0.0
 11
75.18582295284261
 21
339.7582738875557
 31
0.0
  0
LINE
  5
123
102
{ACAD_REACTORS
330
203
330
204
102
}
330
71
100
AcDbEntity
  8
0
  6
Continuous
 62
     2
100
AcDbLine
 10
73.3942727687573
 20
339.4425569644795
 30
0.0
 11
73.3942727687573
 21
335.0861019217624
 31
0.0
  0
LINE
  5
124
102
{ACAD_REACTORS
330
209
330
20A
102
}
330
71
100
AcDbEntity
  8
0
  6
Continuous
 62
     2
100
AcDbLine
 10
80.73127321230811
 20
338.3600981604469
 30
0.0
 11
81.4900408000884
 21
338.3600981604469
 31
0.0
  0
LINE
  5
125
102
{ACAD_REACTORS
330
209
330
20A
102
}
330
71
100
AcDbEntity
  8
0
  6
Continuous
 62
     2
100
AcDbLine
 10
79.49076880205399
 20
340.4708294431143
 30
0.0
 11
81.4900408000884
 21
340.4708294431143
 31
0.0
  0
LINE
  5
126
102
{ACAD_REACTORS
330
209
330
20A
102
}
330
71
100
AcDbEntity
  8
0
  6
Continuous
 62
     2
100
AcDbLine
 10
79.49076880205399
 20
340.4708294431143
 30
0.0
 11
79.49076880205399
 21
337.4170199193031
 31
0.0
  0
LINE
  5
127
102
{ACAD_REACTORS
330
209
330
20A
102
}
330
71
100
AcDbEntity
  8
0
  6
Continuous
 62
     2
100
AcDbLine
 10
80.73127321230811
 20
339.101995948332
 30
0.0
 11
81.04856827385001
 21
339.101995948332
 31
0.0
  0
LINE
  5
128
102
{ACAD_REACTORS
330
209
330
20A
102
}
330
71
100
AcDbEntity
  8
0
  6
Continuous
 62
     2
100
AcDbLine
 10
80.73127321230811
 20
339.8077235976742
 30
0.0
 11
81.04856827385001
 21
339.8077235976742
 31
0.0
  0
LINE
  5
129
102
{ACAD_REACTORS
330
217
330
218
102
}
330
71
100
AcDbEntity
  8
0
  6
Continuous
 62
     2
100
AcDbLine
 10
83.88024594602831
 20
339.4019961097797
 30
0.0
 11
84.92990352393579
 21
339.4019961097797
 31
0.0
  0
LINE
  5
12A
102
{ACAD_REACTORS
330
217
330
218
102
}
330
71
100
AcDbEntity
  8
0
  6
Continuous
 62
     2
100
AcDbLine
 10
83.88024594602831
 20
340.4708294431143
 30
0.0
 11
83.88024594602831
 21
339.4019961097797
 31
0.0
  0
LINE
  5
12B
102
{ACAD_REACTORS
330
217
330
218
102
}
330
71
100
AcDbEntity
  8
0
  6
Continuous
 62
     2
100
AcDbLine
 10
82.68745324386171
 20
340.4708294431143
 30
0.0
 11
83.88024594602831
 21
340.4708294431143
 31
0.0
  0
LINE
  5
12C
102
{ACAD_REACTORS
330
217
330
218
102
}
330
71
100
AcDbEntity
  8
0
  6
Continuous
 62
     2
100
AcDbLine
 10
83.88024594602831
 20
337.4170199193031
 30
0.0
 11
82.68745324386171
 21
337.4170199193031
 31
0.0
  0
LINE
  5
12D
102
{ACAD_REACTORS
330
217
330
218
102
}
330
71
100
AcDbEntity
  8
0
  6
Continuous
 62
     2
100
AcDbLine
 10
84.92990352393579
 20
337.4170199193031
 30
0.0
 11
84.92990352393579
 21
338.5512920281469
 31
0.0
  0
LINE
  5
12E
102
{ACAD_REACTORS
330
217
330
218
102
}
330
71
100
AcDbEntity
  8
0
  6
Continuous
 62
     2
100
AcDbLine
 10
86.12269622610219
 20
337.4170199193031
 30
0.0
 11
84.92990352393579
 21
337.4170199193031
 31
0.0
  0
LINE
  5
12F
102
{ACAD_REACTORS
330
217
330
218
102
}
330
71
100
AcDbEntity
  8
0
  6
Continuous
 62
     2
100
AcDbLine
 10
86.12269622610219
 20
340.4708294431143
 30
0.0
 11
86.12269622610219
 21
337.4170199193031
 31
0.0
  0
LINE
  5
130
102
{ACAD_REACTORS
330
205
330
206
102
}
330
71
100
AcDbEntity
  8
0
  6
Continuous
 62
     2
100
AcDbLine
 10
89.60565091642911
 20
338.5949178784873
 30
0.0
 11
90.94157874285679
 21
338.5949178784873
 31
0.0
  0
LINE
  5
131
102
{ACAD_REACTORS
330
205
330
206
102
}
330
71
100
AcDbEntity
  8
0
  6
Continuous
 62
     2
100
AcDbLine
 10
90.94157874285679
 20
338.5949178784873
 30
0.0
 11
90.94157874285679
 21
339.2929314839296
 31
0.0
  0
LINE
  5
132
102
{ACAD_REACTORS
330
205
330
206
102
}
330
71
100
AcDbEntity
  8
0
  6
Continuous
 62
     2
100
AcDbLine
 10
90.94157874285679
 20
339.2929314839296
 30
0.0
 11
89.60565091642911
 21
339.2929314839296
 31
0.0
  0
LINE
  5
133
102
{ACAD_REACTORS
330
205
330
206
102
}
330
71
100
AcDbEntity
  8
0
  6
Continuous
 62
     2
100
AcDbLine
 10
89.60565091642911
 20
339.2929314839296
 30
0.0
 11
89.60565091642911
 21
339.7728158376713
 31
0.0
  0
LINE
  5
134
102
{ACAD_REACTORS
330
215
330
216
102
}
330
71
100
AcDbEntity
  8
0
  6
Continuous
 62
     2
100
AcDbLine
 10
85.93169846287
 20
334.0578294431288
 30
0.0
 11
87.1244911650376
 21
334.0578294431288
 31
0.0
  0
LINE
  5
135
102
{ACAD_REACTORS
330
215
330
216
102
}
330
71
100
AcDbEntity
  8
0
  6
Continuous
 62
     2
100
AcDbLine
 10
88.3649955752905
 20
334.0578294431288
 30
0.0
 11
89.5577882774569
 21
334.0578294431288
 31
0.0
  0
LINE
  5
136
102
{ACAD_REACTORS
330
215
330
216
102
}
330
71
100
AcDbEntity
  8
0
  6
Continuous
 62
     2
100
AcDbLine
 10
87.1244911650376
 20
337.1116389669399
 30
0.0
 11
85.93169846287
 21
337.1116389669399
 31
0.0
  0
LINE
  5
137
102
{ACAD_REACTORS
330
215
330
216
102
}
330
71
100
AcDbEntity
  8
0
  6
Continuous
 62
     2
100
AcDbLine
 10
85.93169846287
 20
337.1116389669399
 30
0.0
 11
85.93169846287
 21
334.0578294431288
 31
0.0
  0
LINE
  5
138
102
{ACAD_REACTORS
330
213
330
214
102
}
330
71
100
AcDbEntity
  8
0
  6
Continuous
 62
     2
100
AcDbLine
 10
93.61343439571021
 20
340.4708294431143
 30
0.0
 11
93.61343439571021
 21
339.1620539329091
 31
0.0
  0
LINE
  5
139
102
{ACAD_REACTORS
330
213
330
214
102
}
330
71
100
AcDbEntity
  8
0
  6
Continuous
 62
     2
100
AcDbLine
 10
92.37292998545621
 20
340.4708294431143
 30
0.0
 11
91.1801372832897
 21
340.4708294431143
 31
0.0
  0
LINE
  5
13A
102
{ACAD_REACTORS
330
213
330
214
102
}
330
71
100
AcDbEntity
  8
0
  6
Continuous
 62
     2
100
AcDbLine
 10
91.1801372832897
 20
340.4708294431143
 30
0.0
 11
91.1801372832897
 21
337.4170199193031
 31
0.0
  0
LINE
  5
13B
102
{ACAD_REACTORS
330
213
330
214
102
}
330
71
100
AcDbEntity
  8
0
  6
Continuous
 62
     2
100
AcDbLine
 10
92.37292998545621
 20
337.4170199193031
 30
0.0
 11
92.37292998545621
 21
338.7257954295078
 31
0.0
  0
LINE
  5
13C
102
{ACAD_REACTORS
330
211
330
212
102
}
330
71
100
AcDbEntity
  8
0
  6
Continuous
 62
     2
100
AcDbLine
 10
91.70481514135821
 20
334.0578294431288
 30
0.0
 11
91.70481514135821
 21
336.3263736608163
 31
0.0
  0
LINE
  5
13D
102
{ACAD_REACTORS
330
211
330
212
102
}
330
71
100
AcDbEntity
  8
0
  6
Continuous
 62
     2
100
AcDbLine
 10
91.70481514135821
 20
336.3263736608163
 30
0.0
 11
92.51591417883071
 21
336.3263736608163
 31
0.0
  0
LINE
  5
13E
102
{ACAD_REACTORS
330
211
330
212
102
}
330
71
100
AcDbEntity
  8
0
  6
Continuous
 62
     2
100
AcDbLine
 10
92.51591417883071
 20
336.3263736608163
 30
0.0
 11
92.51591417883071
 21
337.1116389669399
 31
0.0
  0
LINE
  5
13F
102
{ACAD_REACTORS
330
211
330
212
102
}
330
71
100
AcDbEntity
  8
0
  6
Continuous
 62
     2
100
AcDbLine
 10
92.51591417883071
 20
337.1116389669399
 30
0.0
 11
89.70092340171709
 21
337.1116389669399
 31
0.0
  0
LINE
  5
140
102
{ACAD_REACTORS
330
211
330
212
102
}
330
71
100
AcDbEntity
  8
0
  6
Continuous
 62
     2
100
AcDbLine
 10
89.70092340171709
 20
336.3263736608163
 30
0.0
 11
90.5120224391917
 21
336.3263736608163
 31
0.0
  0
LINE
  5
141
102
{ACAD_REACTORS
330
20F
330
210
102
}
330
71
100
AcDbEntity
  8
0
  6
Continuous
 62
     2
100
AcDbLine
 10
93.3104200046281
 20
334.5987899873467
 30
0.0
 11
94.44286158130191
 21
334.5987899873467
 31
0.0
  0
LINE
  5
142
102
{ACAD_REACTORS
330
20F
330
210
102
}
330
71
100
AcDbEntity
  8
0
  6
Continuous
 62
     2
100
AcDbLine
 10
95.89484604503161
 20
334.0578294431288
 30
0.0
 11
94.6543416347777
 21
334.0578294431288
 31
0.0
  0
LINE
  5
143
102
{ACAD_REACTORS
330
20F
330
210
102
}
330
71
100
AcDbEntity
  8
0
  6
Continuous
 62
     2
100
AcDbLine
 10
93.25638858783861
 20
337.1116389669399
 30
0.0
 11
91.85843554089931
 21
334.0578294431288
 31
0.0
  0
LINE
  5
144
102
{ACAD_REACTORS
330
20F
330
210
102
}
330
71
100
AcDbEntity
  8
0
  6
Continuous
 62
     2
100
AcDbLine
 10
93.09893995115229
 20
334.0578294431288
 30
0.0
 11
93.3104200046281
 21
334.5987899873467
 31
0.0
  0
LINE
  5
145
102
{ACAD_REACTORS
330
20F
330
210
102
}
330
71
100
AcDbEntity
  8
0
  6
Continuous
 62
     2
100
AcDbLine
 10
93.5764755557731
 20
335.2793532526533
 30
0.0
 11
93.8766407929655
 21
336.04716821864
 31
0.0
  0
LINE
  5
146
102
{ACAD_REACTORS
330
20D
330
20E
102
}
330
71
100
AcDbEntity
  8
0
  6
Continuous
 62
     2
100
AcDbLine
 10
95.04478563831071
 20
337.4170199193031
 30
0.0
 11
95.04478563831071
 21
340.4708294431143
 31
0.0
  0
LINE
  5
147
102
{ACAD_REACTORS
330
20D
330
20E
102
}
330
71
100
AcDbEntity
  8
0
  6
Continuous
 62
     2
100
AcDbLine
 10
96.28529004856361
 20
340.4708294431143
 30
0.0
 11
96.28529004856361
 21
337.4170199193031
 31
0.0
  0
LINE
  5
148
102
{ACAD_REACTORS
330
20D
330
20E
102
}
330
71
100
AcDbEntity
  8
0
  6
Continuous
 62
     2
100
AcDbLine
 10
95.04478563831071
 20
340.4708294431143
 30
0.0
 11
96.28529004856361
 21
340.4708294431143
 31
0.0
  0
LINE
  5
149
102
{ACAD_REACTORS
330
20B
330
20C
102
}
330
71
100
AcDbEntity
  8
0
  6
Continuous
 62
     2
100
AcDbLine
 10
98.5038844745944
 20
338.2047517045968
 30
0.0
 11
99.2004754126599
 21
337.4170199193031
 31
0.0
  0
LINE
  5
14A
102
{ACAD_REACTORS
330
20B
330
20C
102
}
330
71
100
AcDbEntity
  8
0
  6
Continuous
 62
     2
100
AcDbLine
 10
99.2004754126599
 20
337.4170199193031
 30
0.0
 11
100.6031996304082
 21
337.4170199193031
 31
0.0
  0
LINE
  5
14B
102
{ACAD_REACTORS
330
20B
330
20C
102
}
330
71
100
AcDbEntity
  8
0
  6
Continuous
 62
     2
100
AcDbLine
 10
99.2052465834679
 20
338.9978789130781
 30
0.0
 11
100.6031996304082
 21
337.4170199193031
 31
0.0
  0
LINE
  5
14C
102
{ACAD_REACTORS
330
20B
330
20C
102
}
330
71
100
AcDbEntity
  8
0
  6
Continuous
 62
     2
100
AcDbLine
 10
99.2052465834679
 20
338.9978789130781
 30
0.0
 11
100.5077762142344
 21
340.4708294431143
 31
0.0
  0
LINE
  5
14D
102
{ACAD_REACTORS
330
20B
330
20C
102
}
330
71
100
AcDbEntity
  8
0
  6
Continuous
 62
     2
100
AcDbLine
 10
98.5038844745944
 20
339.7910061215588
 30
0.0
 11
99.10505199648719
 21
340.4708294431143
 31
0.0
  0
LINE
  5
14E
102
{ACAD_REACTORS
330
20B
330
20C
102
}
330
71
100
AcDbEntity
  8
0
  6
Continuous
 62
     2
100
AcDbLine
 10
97.9027169527026
 20
340.4708294431143
 30
0.0
 11
98.5038844745944
 21
339.7910061215588
 31
0.0
  0
LINE
  5
14F
102
{ACAD_REACTORS
330
20B
330
20C
102
}
330
71
100
AcDbEntity
  8
0
  6
Continuous
 62
     2
100
AcDbLine
 10
97.9027169527026
 20
340.4708294431143
 30
0.0
 11
96.49999273495331
 21
340.4708294431143
 31
0.0
  0
LINE
  5
150
102
{ACAD_REACTORS
330
201
330
202
102
}
330
71
100
AcDbEntity
  8
0
  6
Continuous
 62
     2
100
AcDbLine
 10
98.59930789076711
 20
334.0578294431288
 30
0.0
 11
99.79210059293482
 21
334.0578294431288
 31
0.0
  0
LINE
  5
151
102
{ACAD_REACTORS
330
201
330
202
102
}
330
71
100
AcDbEntity
  8
0
  6
Continuous
 62
     2
100
AcDbLine
 10
99.79210059293482
 20
334.0578294431288
 30
0.0
 11
99.79210059293482
 21
336.3263736608163
 31
0.0
  0
LINE
  5
152
102
{ACAD_REACTORS
330
201
330
202
102
}
330
71
100
AcDbEntity
  8
0
  6
Continuous
 62
     2
100
AcDbLine
 10
99.79210059293482
 20
336.3263736608163
 30
0.0
 11
100.6031996304082
 21
336.3263736608163
 31
0.0
  0
LINE
  5
153
102
{ACAD_REACTORS
330
201
330
202
102
}
330
71
100
AcDbEntity
  8
0
  6
Continuous
 62
     2
100
AcDbLine
 10
100.6031996304082
 20
336.3263736608163
 30
0.0
 11
100.6031996304082
 21
337.1116389669399
 31
0.0
  0
LINE
  5
154
102
{ACAD_REACTORS
330
201
330
202
102
}
330
71
100
AcDbEntity
  8
0
  6
Continuous
 62
     2
100
AcDbLine
 10
97.21825411177952
 20
337.1116389669394
 30
0.0
 11
100.6031996304082
 21
337.1116389669399
 31
0.0
  0
LINE
  5
155
102
{ACAD_REACTORS
330
201
330
202
102
}
330
71
100
AcDbEntity
  8
0
  6
Continuous
 62
     2
100
AcDbLine
 10
98.59930789076711
 20
336.3263736608163
 30
0.0
 11
98.59930789076711
 21
334.0578294431288
 31
0.0
  0
LINE
  5
156
102
{ACAD_REACTORS
330
203
330
204
102
}
330
71
100
AcDbEntity
  8
0
  6
Continuous
 62
     2
100
AcDbLine
 10
75.9698214552879
 20
336.0367095926933
 30
0.0
 11
75.9698214552879
 21
336.6185609993884
 31
0.0
  0
LINE
  5
157
102
{ACAD_REACTORS
330
203
330
204
102
}
330
71
100
AcDbEntity
  8
0
  6
Continuous
 62
     2
100
AcDbLine
 10
75.9698214552879
 20
338.8368441993246
 30
0.0
 11
75.9698214552879
 21
339.4423794878314
 31
0.0
  0
LINE
  5
158
330
71
100
AcDbEntity
  8
1
  6
Continuous
 62
     6
100
AcDbLine
 10
54.50000003989112
 20
326.7643294431125
 30
0.0
 11
68.45519551314109
 21
326.7643294431124
 31
0.0
  0
LINE
  5
159
330
71
100
AcDbEntity
  8
1
  6
Continuous
 62
     6
100
AcDbLine
 10
4.50000003989089
 20
326.7643294431125
 30
0.0
 11
-0.54480448685888
 21
326.7643294431125
 31
0.0
  0
LINE
  5
15A
330
71
100
AcDbEntity
  8
1
  6
Continuous
 62
     6
100
AcDbLine
 10
154.5000000398911
 20
326.7643294431125
 30
0.0
 11
198.0000000398911
 21
326.7643294431125
 31
0.0
  0
LINE
  5
15B
330
71
100
AcDbEntity
  8
1
  6
Continuous
 62
     6
100
AcDbLine
 10
104.5000000398911
 20
326.7643294431125
 30
0.0
 11
86.65519551314111
 21
326.7643294431125
 31
0.0
  0
LINE
  5
15C
330
71
100
AcDbEntity
  8
1
  6
Continuous
 62
     2
100
AcDbLine
 10
198.0000000398911
 20
326.7643294431125
 30
0.0
 11
203.0000000398901
 21
326.7643294431125
 31
0.0
  0
LINE
  5
15D
330
71
100
AcDbEntity
  8
1
  6
Continuous
 62
     2
100
AcDbLine
 10
198.0000000398911
 20
326.7643294431125
 30
0.0
 11
198.0000000398911
 21
321.7643294431124
 31
0.0
  0
LINE
  5
15E
330
71
100
AcDbEntity
  8
1
  6
Continuous
 62
     6
100
AcDbLine
 10
68.45519551314109
 20
343.7643294431125
 30
0.0
 11
104.855195513141
 21
343.7643294431125
 31
0.0
  0
LINE
  5
15F
330
71
100
AcDbEntity
  8
1
  6
Continuous
 62
     2
100
AcDbLine
 10
203.0000000398901
 20
321.7643294431124
 30
0.0
 11
203.0000000398901
 21
326.7643294431125
 31
0.0
  0
LINE
  5
160
330
71
100
AcDbEntity
  8
1
  6
Continuous
 62
     2
100
AcDbLine
 10
203.0000000398901
 20
321.7643294431124
 30
0.0
 11
198.0000000398911
 21
321.7643294431124
 31
0.0
  0
LINE
  5
161
330
71
100
AcDbEntity
  8
1
  6
Continuous
 62
     2
100
AcDbLine
 10
198.0000000398911
 20
321.7643294431124
 30
0.0
 11
154.5000000398911
 21
321.7643294431124
 31
0.0
  0
LINE
  5
162
330
71
100
AcDbEntity
  8
1
  6
Continuous
 62
     6
100
AcDbLine
 10
198.0000000398928
 20
343.7643294431125
 30
0.0
 11
198.000000039892
 21
376.7643294431126
 31
0.0
  0
LINE
  5
163
330
71
100
AcDbEntity
  8
1
  6
Continuous
 62
     2
100
AcDbLine
 10
203.0000000398901
 20
531.7643294431125
 30
0.0
 11
54.50000003989112
 21
531.7643294431125
 31
0.0
  0
LINE
  5
164
330
71
100
AcDbEntity
  8
1
  6
Continuous
 62
     6
100
AcDbLine
 10
198.0000000398901
 20
511.7643294431125
 30
0.0
 11
-88.99999996010797
 21
511.7643294431125
 31
0.0
  0
LINE
  5
165
330
71
100
AcDbEntity
  8
1
  6
Continuous
 62
     2
100
AcDbLine
 10
198.000000039892
 20
376.7643294431126
 30
0.0
 11
203.0000000398901
 21
376.7643294431126
 31
0.0
  0
LINE
  5
166
330
71
100
AcDbEntity
  8
1
  6
Continuous
 62
     6
100
AcDbLine
 10
198.000000039892
 20
376.7643294431126
 30
0.0
 11
198.0000000398915
 21
426.7643294431124
 31
0.0
  0
LINE
  5
167
330
71
100
AcDbEntity
  8
1
  6
Continuous
 62
     2
100
AcDbLine
 10
203.0000000398901
 20
376.7643294431126
 30
0.0
 11
203.0000000398901
 21
426.7643294431124
 31
0.0
  0
LINE
  5
168
330
71
100
AcDbEntity
  8
1
  6
Continuous
 62
     2
100
AcDbLine
 10
198.0000000398915
 20
426.7643294431124
 30
0.0
 11
203.0000000398901
 21
426.7643294431124
 31
0.0
  0
LINE
  5
169
330
71
100
AcDbEntity
  8
1
  6
Continuous
 62
     6
100
AcDbLine
 10
198.0000000398915
 20
426.7643294431124
 30
0.0
 11
198.0000000398903
 21
476.7643294431125
 31
0.0
  0
LINE
  5
16A
330
71
100
AcDbEntity
  8
1
  6
Continuous
 62
     2
100
AcDbLine
 10
203.0000000398901
 20
426.7643294431124
 30
0.0
 11
203.0000000398901
 21
476.7643294431125
 31
0.0
  0
LINE
  5
16B
330
71
100
AcDbEntity
  8
1
  6
Continuous
 62
     2
100
AcDbLine
 10
198.0000000398903
 20
476.7643294431125
 30
0.0
 11
203.0000000398901
 21
476.7643294431125
 31
0.0
  0
LINE
  5
16C
330
71
100
AcDbEntity
  8
1
  6
Continuous
 62
     6
100
AcDbLine
 10
198.0000000398903
 20
476.7643294431125
 30
0.0
 11
198.0000000398901
 21
511.7643294431125
 31
0.0
  0
LINE
  5
16D
330
71
100
AcDbEntity
  8
1
  6
Continuous
 62
     2
100
AcDbLine
 10
203.0000000398901
 20
476.7643294431125
 30
0.0
 11
203.0000000398901
 21
531.7643294431125
 31
0.0
  0
LINE
  5
16E
330
71
100
AcDbEntity
  8
1
  6
Continuous
 62
     2
100
AcDbLine
 10
203.0000000398901
 20
326.7643294431125
 30
0.0
 11
203.0000000398901
 21
376.7643294431126
 31
0.0
  0
LINE
  5
16F
330
71
100
AcDbEntity
  8
1
  6
Continuous
 62
     2
100
AcDbLine
 10
54.50000003989112
 20
531.7643294431125
 30
0.0
 11
-93.99999996010797
 21
531.7643294431125
 31
0.0
  0
LINE
  5
170
330
71
100
AcDbEntity
  8
1
  6
Continuous
 62
     2
100
AcDbLine
 10
54.50000003989112
 20
531.7643294431125
 30
0.0
 11
54.50000003989112
 21
522.5556375984112
 31
0.0
  0
LINE
  5
171
330
71
100
AcDbEntity
  8
1
  6
Continuous
 62
     2
100
AcDbLine
 10
-93.99999996010797
 20
321.7643294431124
 30
0.0
 11
-88.999999960107
 21
321.7643294431124
 31
0.0
  0
LINE
  5
172
330
71
100
AcDbEntity
  8
1
  6
Continuous
 62
     2
100
AcDbLine
 10
-93.99999996010797
 20
531.7643294431125
 30
0.0
 11
-93.99999996010797
 21
476.7643294431125
 31
0.0
  0
LINE
  5
173
330
71
100
AcDbEntity
  8
1
  6
Continuous
 62
     6
100
AcDbLine
 10
-88.99999996010797
 20
511.7643294431125
 30
0.0
 11
-88.99999996010791
 21
476.7643294431125
 31
0.0
  0
LINE
  5
174
330
71
100
AcDbEntity
  8
1
  6
Continuous
 62
     2
100
AcDbLine
 10
-93.99999996010797
 20
476.7643294431125
 30
0.0
 11
-88.99999996010791
 21
476.7643294431125
 31
0.0
  0
LINE
  5
175
330
71
100
AcDbEntity
  8
1
  6
Continuous
 62
     2
100
AcDbLine
 10
-93.99999996010797
 20
476.7643294431125
 30
0.0
 11
-93.99999996010797
 21
426.7643294431124
 31
0.0
  0
LINE
  5
176
330
71
100
AcDbEntity
  8
1
  6
Continuous
 62
     6
100
AcDbLine
 10
-88.99999996010791
 20
476.7643294431125
 30
0.0
 11
-88.9999999601074
 21
426.7643294431124
 31
0.0
  0
LINE
  5
177
330
71
100
AcDbEntity
  8
1
  6
Continuous
 62
     2
100
AcDbLine
 10
-93.99999996010797
 20
426.7643294431124
 30
0.0
 11
-88.9999999601074
 21
426.7643294431124
 31
0.0
  0
LINE
  5
178
330
71
100
AcDbEntity
  8
1
  6
Continuous
 62
     2
100
AcDbLine
 10
-93.99999996010797
 20
426.7643294431124
 30
0.0
 11
-93.99999996010797
 21
376.7643294431126
 31
0.0
  0
LINE
  5
179
330
71
100
AcDbEntity
  8
1
  6
Continuous
 62
     6
100
AcDbLine
 10
-88.9999999601074
 20
426.7643294431124
 30
0.0
 11
-88.99999996010717
 21
376.7643294431126
 31
0.0
  0
LINE
  5
17A
330
71
100
AcDbEntity
  8
1
  6
Continuous
 62
     2
100
AcDbLine
 10
-93.99999996010797
 20
376.7643294431126
 30
0.0
 11
-88.99999996010717
 21
376.7643294431126
 31
0.0
  0
LINE
  5
17B
330
71
100
AcDbEntity
  8
1
  6
Continuous
 62
     2
100
AcDbLine
 10
-93.99999996010797
 20
376.7643294431126
 30
0.0
 11
-93.99999996010797
 21
326.7643294431125
 31
0.0
  0
LINE
  5
17C
330
71
100
AcDbEntity
  8
1
  6
Continuous
 62
     6
100
AcDbLine
 10
-88.99999996010717
 20
376.7643294431126
 30
0.0
 11
-88.999999960107
 21
326.7643294431125
 31
0.0
  0
LINE
  5
17D
330
71
100
AcDbEntity
  8
1
  6
Continuous
 62
     2
100
AcDbLine
 10
-45.49999996010888
 20
321.7643294431124
 30
0.0
 11
-45.49999996010888
 21
326.7643294431125
 31
0.0
  0
LINE
  5
17E
330
71
100
AcDbEntity
  8
1
  6
Continuous
 62
     2
100
AcDbLine
 10
-45.49999996010888
 20
321.7643294431124
 30
0.0
 11
4.50000003989089
 21
321.7643294431124
 31
0.0
  0
LINE
  5
17F
330
71
100
AcDbEntity
  8
1
  6
Continuous
 62
     2
100
AcDbLine
 10
4.50000003989089
 20
321.7643294431124
 30
0.0
 11
4.50000003989089
 21
326.7643294431125
 31
0.0
  0
LINE
  5
180
330
71
100
AcDbEntity
  8
1
  6
Continuous
 62
     2
100
AcDbLine
 10
4.50000003989089
 20
321.7643294431124
 30
0.0
 11
54.50000003989112
 21
321.7643294431124
 31
0.0
  0
LINE
  5
181
330
71
100
AcDbEntity
  8
1
  6
Continuous
 62
     2
100
AcDbLine
 10
54.50000003989112
 20
321.7643294431124
 30
0.0
 11
54.50000003989112
 21
326.7643294431125
 31
0.0
  0
LINE
  5
182
330
71
100
AcDbEntity
  8
1
  6
Continuous
 62
     2
100
AcDbLine
 10
54.50000003989112
 20
321.7643294431124
 30
0.0
 11
104.5000000398911
 21
321.7643294431124
 31
0.0
  0
LINE
  5
183
330
71
100
AcDbEntity
  8
1
  6
Continuous
 62
     2
100
AcDbLine
 10
104.5000000398911
 20
321.7643294431124
 30
0.0
 11
104.5000000398911
 21
326.7643294431125
 31
0.0
  0
LINE
  5
184
330
71
100
AcDbEntity
  8
1
  6
Continuous
 62
     2
100
AcDbLine
 10
154.5000000398911
 20
321.7643294431124
 30
0.0
 11
154.5000000398911
 21
326.7643294431125
 31
0.0
  0
LINE
  5
185
330
71
100
AcDbEntity
  8
1
  6
Continuous
 62
     2
100
AcDbLine
 10
154.5000000398911
 20
321.7643294431124
 30
0.0
 11
104.5000000398911
 21
321.7643294431124
 31
0.0
  0
LINE
  5
186
330
71
100
AcDbEntity
  8
1
  6
Continuous
 62
     2
100
AcDbLine
 10
-88.999999960107
 20
326.7643294431125
 30
0.0
 11
-88.999999960107
 21
321.7643294431124
 31
0.0
  0
LINE
  5
187
330
71
100
AcDbEntity
  8
1
  6
Continuous
 62
     2
100
AcDbLine
 10
-88.999999960107
 20
321.7643294431124
 30
0.0
 11
-45.49999996010888
 21
321.7643294431124
 31
0.0
  0
LINE
  5
188
330
71
100
AcDbEntity
  8
1
  6
Continuous
 62
     2
100
AcDbLine
 10
-88.999999960107
 20
326.7643294431125
 30
0.0
 11
-93.99999996010797
 21
326.7643294431125
 31
0.0
  0
LINE
  5
189
330
71
100
AcDbEntity
  8
1
  6
Continuous
 62
     2
100
AcDbLine
 10
-93.99999996010797
 20
326.7643294431125
 30
0.0
 11
-93.99999996010797
 21
321.7643294431124
 31
0.0
  0
LINE
  5
18A
330
71
100
AcDbEntity
  8
1
  6
Continuous
 62
     6
100
AcDbLine
 10
198.0000000398911
 20
326.7643294431125
 30
0.0
 11
198.0000000398924
 21
335.2643294431125
 31
0.0
  0
LINE
  5
18B
330
71
100
AcDbEntity
  8
1
  6
Continuous
 62
     6
100
AcDbLine
 10
104.855195513141
 20
326.7643294431124
 30
0.0
 11
154.5000000398911
 21
326.7643294431125
 31
0.0
  0
LINE
  5
18C
330
71
100
AcDbEntity
  8
1
  6
Continuous
 62
     6
100
AcDbLine
 10
-47.79999996010912
 20
326.7643294431124
 30
0.0
 11
-45.49999996010888
 21
326.7643294431125
 31
0.0
  0
LINE
  5
18D
330
71
100
AcDbEntity
  8
1
  6
Continuous
 62
     6
100
AcDbLine
 10
54.50000003989112
 20
326.7643294431125
 30
0.0
 11
4.50000003989089
 21
326.7643294431125
 31
0.0
  0
LINE
  5
18E
330
71
100
AcDbEntity
  8
1
  6
Continuous
 62
     7
100
AcDbLine
 10
68.45519551314109
 20
343.7643294431125
 30
0.0
 11
68.45519551314109
 21
331.0143294431124
 31
0.0
  0
LINE
  5
18F
330
71
100
AcDbEntity
  8
1
  6
Continuous
 62
     7
100
AcDbLine
 10
104.855195513141
 20
343.7643294431125
 30
0.0
 11
104.855195513141
 21
331.0143294431125
 31
0.0
  0
LINE
  5
190
330
71
100
AcDbEntity
  8
1
  6
Continuous
 62
     6
100
AcDbLine
 10
-47.79999996010912
 20
326.7643294431124
 30
0.0
 11
-53.99999996010712
 21
326.7643294431125
 31
0.0
  0
LINE
  5
191
330
71
100
AcDbEntity
  8
1
  6
Continuous
 62
     6
100
AcDbLine
 10
104.855195513141
 20
326.7643294431124
 30
0.0
 11
104.5000000398911
 21
326.7643294431125
 31
0.0
  0
LINE
  5
192
330
71
100
AcDbEntity
  8
1
  6
Continuous
 62
     6
100
AcDbLine
 10
198.0000000398928
 20
343.7643294431125
 30
0.0
 11
198.0000000398924
 21
335.2643294431125
 31
0.0
  0
LINE
  5
193
330
71
100
AcDbEntity
  8
1
  6
Continuous
 62
     6
100
AcDbLine
 10
-53.99999996010712
 20
326.7643294431125
 30
0.0
 11
-88.999999960107
 21
326.7643294431125
 31
0.0
  0
LINE
  5
194
330
71
100
AcDbEntity
  8
1
  6
Continuous
 62
     2
100
AcDbLine
 10
72.6918503997037
 20
349.1393294431124
 30
0.0
 11
77.6918503997037
 21
350.3893294431124
 31
0.0
  0
LINE
  5
195
330
71
100
AcDbEntity
  8
1
  6
Continuous
 62
     2
100
AcDbLine
 10
72.6918503997037
 20
346.6393294431124
 30
0.0
 11
72.6918503997037
 21
349.1393294431124
 31
0.0
  0
LINE
  5
196
330
71
100
AcDbEntity
  8
1
  6
Continuous
 62
     2
100
AcDbLine
 10
77.6918503997037
 20
345.3893294431124
 30
0.0
 11
72.6918503997037
 21
346.6393294431124
 31
0.0
  0
LINE
  5
197
330
71
100
AcDbEntity
  8
1
  6
Continuous
 62
     2
100
AcDbLine
 10
77.6918503997037
 20
350.3893294431124
 30
0.0
 11
77.6918503997037
 21
345.3893294431124
 31
0.0
  0
LINE
  5
198
330
71
100
AcDbEntity
  8
1
  6
Continuous
 62
     7
100
AcDbLine
 10
68.45519551314109
 20
331.0143294431124
 30
0.0
 11
86.65519551314111
 21
331.0143294431125
 31
0.0
  0
LINE
  5
199
330
71
100
AcDbEntity
  8
1
  6
Continuous
 62
     7
100
AcDbLine
 10
68.45519551314109
 20
331.0143294431124
 30
0.0
 11
68.45519551314109
 21
326.7643294431124
 31
0.0
  0
LINE
  5
19A
330
71
100
AcDbEntity
  8
1
  6
Continuous
 62
     7
100
AcDbLine
 10
104.855195513141
 20
331.0143294431125
 30
0.0
 11
104.855195513141
 21
326.7643294431124
 31
0.0
  0
LINE
  5
19B
330
71
100
AcDbEntity
  8
1
  6
Continuous
 62
     7
100
AcDbLine
 10
86.65519551314111
 20
331.0143294431125
 30
0.0
 11
86.65519551314111
 21
326.7643294431125
 31
0.0
  0
LINE
  5
19C
330
71
100
AcDbEntity
  8
1
  6
Continuous
 62
     6
100
AcDbLine
 10
86.65519551314111
 20
326.7643294431125
 30
0.0
 11
68.45519551314109
 21
326.7643294431124
 31
0.0
  0
LINE
  5
19D
330
71
100
AcDbEntity
  8
1
  6
Continuous
 62
     7
100
AcDbLine
 10
86.65519551314111
 20
331.0143294431125
 30
0.0
 11
104.855195513141
 21
331.0143294431125
 31
0.0
  0
LINE
  5
19E
330
71
100
AcDbEntity
  8
1
  6
Continuous
 62
     6
100
AcDbLine
 10
68.45519551314109
 20
352.2643294431125
 30
0.0
 11
198.0000000398928
 21
352.2643294431125
 31
0.0
  0
ARC
  5
19F
102
{ACAD_REACTORS
330
207
330
208
102
}
330
71
100
AcDbEntity
  8
0
  6
Continuous
 62
     2
100
AcDbCircle
 10
83.84684351210109
 20
335.5847342050341
 30
0.0
 40
0.7717997786797298
100
AcDbArc
 50
321.8795802028384
 51
38.12041979715163
  0
ARC
  5
1A0
102
{ACAD_REACTORS
330
207
330
208
102
}
330
71
100
AcDbEntity
  8
0
  6
Continuous
 62
     2
100
AcDbCircle
 10
84.0465835484475
 20
335.4280030269141
 30
0.0
 40
0.5179085730137529
100
AcDbArc
 50
218.1204197971956
 51
321.8795802027985
  0
ARC
  5
1A1
102
{ACAD_REACTORS
330
207
330
208
102
}
330
71
100
AcDbEntity
  8
0
  6
Continuous
 62
     2
100
AcDbCircle
 10
84.2463235847936
 20
335.5847342050341
 30
0.0
 40
0.7717997786794457
100
AcDbArc
 50
141.879580202838
 51
218.120419797172
  0
ARC
  5
1A2
102
{ACAD_REACTORS
330
207
330
208
102
}
330
71
100
AcDbEntity
  8
0
  6
Continuous
 62
     2
100
AcDbCircle
 10
84.0465835484475
 20
335.7414653831546
 30
0.0
 40
0.5179085730132998
100
AcDbArc
 50
38.12041979714704
 51
141.8795802028588
  0
ARC
  5
1A3
102
{ACAD_REACTORS
330
1FF
330
200
102
}
330
71
100
AcDbEntity
  8
0
  6
Continuous
 62
     2
100
AcDbCircle
 10
80.98456941288362
 20
334.1742678396259
 30
0.0
 40
2.227384008973501
100
AcDbArc
 50
58.06909105004111
 51
71.55192388186745
  0
ARC
  5
1A4
102
{ACAD_REACTORS
330
1FF
330
200
102
}
330
71
100
AcDbEntity
  8
0
  6
Continuous
 62
     2
100
AcDbCircle
 10
81.24629711384239
 20
335.7898056343731
 30
0.0
 40
0.5115800601948517
100
AcDbArc
 50
113.3722778882004
 51
151.4785267423044
  0
ARC
  5
1A5
102
{ACAD_REACTORS
330
1FF
330
200
102
}
330
71
100
AcDbEntity
  8
0
  6
Continuous
 62
     2
100
AcDbCircle
 10
81.6236543719227
 20
335.5847342050341
 30
0.0
 40
0.9410597353332545
100
AcDbArc
 50
151.4785267422669
 51
208.5214732577088
  0
ARC
  5
1A6
102
{ACAD_REACTORS
330
1FF
330
200
102
}
330
71
100
AcDbEntity
  8
0
  6
Continuous
 62
     2
100
AcDbCircle
 10
80.8266965377907
 20
338.8974151502905
 30
0.0
 40
4.852596863498166
100
AcDbArc
 50
275.1581447696249
 51
285.9799912583529
  0
ARC
  5
1A7
102
{ACAD_REACTORS
330
1FF
330
200
102
}
330
71
100
AcDbEntity
  8
0
  6
Continuous
 62
     2
100
AcDbCircle
 10
81.1155526325266
 20
335.6975245670689
 30
0.0
 40
1.63969512393938
100
AcDbArc
 50
195.0618917770886
 51
275.1581447696395
  0
ARC
  5
1A8
102
{ACAD_REACTORS
330
1FF
330
200
102
}
330
71
100
AcDbEntity
  8
0
  6
Continuous
 62
     2
100
AcDbCircle
 10
80.6964247890638
 20
335.5847342050341
 30
0.0
 40
1.205656168390929
100
AcDbArc
 50
164.9381082228791
 51
195.0618917770948
  0
ARC
  5
1A9
102
{ACAD_REACTORS
330
1FF
330
200
102
}
330
71
100
AcDbEntity
  8
0
  6
Continuous
 62
     2
100
AcDbCircle
 10
81.1155526325266
 20
335.4719438429992
 30
0.0
 40
1.639695123940507
100
AcDbArc
 50
84.84185523036236
 51
164.9381082228884
  0
ARC
  5
1AA
102
{ACAD_REACTORS
330
203
330
204
102
}
330
71
100
AcDbEntity
  8
0
  6
Continuous
 62
     2
100
AcDbCircle
 10
76.28553837836469
 20
336.6185609993884
 30
0.0
 40
0.3157169230764815
100
AcDbArc
 50
115.3740086783563
 51
180.0
  0
ARC
  5
1AB
102
{ACAD_REACTORS
330
203
330
204
102
}
330
71
100
AcDbEntity
  8
0
  6
Continuous
 62
     2
100
AcDbCircle
 10
76.28553837836469
 20
338.8368441993246
 30
0.0
 40
0.315716923076792
100
AcDbArc
 50
180.0
 51
244.6259913216482
  0
ARC
  5
1AC
102
{ACAD_REACTORS
330
203
330
204
102
}
330
71
100
AcDbEntity
  8
0
  6
Continuous
 62
     2
100
AcDbCircle
 10
76.29115451367471
 20
337.7395445402623
 30
0.0
 40
2.018561131933209
100
AcDbArc
 50
269.8110329575858
 51
90.18896704241416
  0
ARC
  5
1AD
102
{ACAD_REACTORS
330
203
330
204
102
}
330
71
100
AcDbEntity
  8
0
  6
Continuous
 62
     2
100
AcDbCircle
 10
76.28553837836469
 20
336.0367095926933
 30
0.0
 40
0.315716923076792
100
AcDbArc
 50
180.0
 51
269.8110329574541
  0
ARC
  5
1AE
102
{ACAD_REACTORS
330
201
330
202
102
}
330
71
100
AcDbEntity
  8
0
  6
Continuous
 62
     2
100
AcDbCircle
 10
97.3489985930953
 20
335.7898056343731
 30
0.0
 40
0.5115800601944143
100
AcDbArc
 50
109.3371432194853
 51
151.4785267424253
  0
ARC
  5
1AF
102
{ACAD_REACTORS
330
201
330
202
102
}
330
71
100
AcDbEntity
  8
0
  6
Continuous
 62
     2
100
AcDbCircle
 10
97.3489985930953
 20
335.3796627756956
 30
0.0
 40
0.5115800601959944
100
AcDbArc
 50
208.521473257681
 51
246.6277221118449
  0
ARC
  5
1B0
102
{ACAD_REACTORS
330
201
330
202
102
}
330
71
100
AcDbEntity
  8
0
  6
Continuous
 62
     2
100
AcDbCircle
 10
96.7991262683179
 20
335.5847342050341
 30
0.0
 40
1.205656168392988
100
AcDbArc
 50
164.9381082229054
 51
195.0618917770972
  0
ARC
  5
1B1
102
{ACAD_REACTORS
330
201
330
202
102
}
330
71
100
AcDbEntity
  8
0
  6
Continuous
 62
     2
100
AcDbCircle
 10
97.21825411177952
 20
335.4719438429992
 30
0.0
 40
1.639695123940157
100
AcDbArc
 50
90.0
 51
164.9381082228969
  0
ARC
  5
1B2
102
{ACAD_REACTORS
330
205
330
206
102
}
330
71
100
AcDbEntity
  8
0
  6
Continuous
 62
     2
100
AcDbCircle
 10
87.7912590190758
 20
338.9439246812084
 30
0.0
 40
1.526904761905939
100
AcDbArc
 50
90.0
 51
270.0
  0
ARC
  5
1B3
102
{ACAD_REACTORS
330
209
330
20A
102
}
330
71
100
AcDbEntity
  8
0
  6
Continuous
 62
     2
100
AcDbCircle
 10
81.04856827385001
 20
339.4548597730031
 30
0.0
 40
0.3528638246710898
100
AcDbArc
 50
270.0
 51
90.0
  0
ARC
  5
1B4
102
{ACAD_REACTORS
330
203
330
204
102
}
330
71
100
AcDbEntity
  8
0
  6
Continuous
 62
     2
100
AcDbCircle
 10
73.70998969183299
 20
339.4425569644795
 30
0.0
 40
0.3157169230761951
100
AcDbArc
 50
90.0
 51
180.0
  0
ARC
  5
1B5
102
{ACAD_REACTORS
330
203
330
204
102
}
330
71
100
AcDbEntity
  8
0
  6
Continuous
 62
     2
100
AcDbCircle
 10
75.7084074004176
 20
337.7277025993568
 30
0.0
 40
0.9118975235575889
100
AcDbArc
 50
115.194410648529
 51
244.8055893514878
  0
ARC
  5
1B6
102
{ACAD_REACTORS
330
203
330
204
102
}
330
71
100
AcDbEntity
  8
0
  6
Continuous
 62
     2
100
AcDbCircle
 10
75.18582295284261
 20
336.616872853294
 30
0.0
 40
0.315716923076593
100
AcDbArc
 50
0.0
 51
64.80558935146027
  0
ARC
  5
1B7
102
{ACAD_REACTORS
330
203
330
204
102
}
330
71
100
AcDbEntity
  8
0
  6
Continuous
 62
     2
100
AcDbCircle
 10
73.1160950150865
 20
334.4820740585121
 30
0.0
 40
0.4242446153828041
100
AcDbArc
 50
180.0
 51
270.0
  0
ARC
  5
1B8
102
{ACAD_REACTORS
330
205
330
206
102
}
330
71
100
AcDbEntity
  8
0
  6
Continuous
 62
     2
100
AcDbCircle
 10
88.007531029241
 20
339.1006558593289
 30
0.0
 40
0.5179085730135266
100
AcDbArc
 50
38.12041979714334
 51
141.8795802028489
  0
ARC
  5
1B9
102
{ACAD_REACTORS
330
205
330
206
102
}
330
71
100
AcDbEntity
  8
0
  6
Continuous
 62
     2
100
AcDbCircle
 10
88.20727106558729
 20
338.9439246812084
 30
0.0
 40
0.7717997786797075
100
AcDbArc
 50
141.8795802028371
 51
218.1204197971529
  0
ARC
  5
1BA
102
{ACAD_REACTORS
330
207
330
208
102
}
330
71
100
AcDbEntity
  8
0
  6
Continuous
 62
     2
100
AcDbCircle
 10
84.0465835484475
 20
336.1233092153374
 30
0.0
 40
2.065479772208483
100
AcDbArc
 50
242.4518518243399
 51
297.5481481756875
  0
ARC
  5
1BB
102
{ACAD_REACTORS
330
207
330
208
102
}
330
71
100
AcDbEntity
  8
0
  6
Continuous
 62
     2
100
AcDbCircle
 10
84.0465835484475
 20
335.0461591947313
 30
0.0
 40
2.065479772208593
100
AcDbArc
 50
62.45185182430674
 51
117.548148175666
  0
ARC
  5
1BC
102
{ACAD_REACTORS
330
207
330
208
102
}
330
71
100
AcDbEntity
  8
0
  6
Continuous
 62
     2
100
AcDbCircle
 10
83.7656436566142
 20
335.5847342050341
 30
0.0
 40
1.458034083651465
100
AcDbArc
 50
117.548148175663
 51
242.451851824338
  0
ARC
  5
1BD
102
{ACAD_REACTORS
330
207
330
208
102
}
330
71
100
AcDbEntity
  8
0
  6
Continuous
 62
     2
100
AcDbCircle
 10
84.3275234402808
 20
335.5847342050341
 30
0.0
 40
1.458034083652028
100
AcDbArc
 50
297.5481481757005
 51
62.45185182429842
  0
ARC
  5
1BE
102
{ACAD_REACTORS
330
205
330
206
102
}
330
71
100
AcDbEntity
  8
0
  6
Continuous
 62
     2
100
AcDbCircle
 10
88.007531029241
 20
338.787193503088
 30
0.0
 40
0.5179085730134372
100
AcDbArc
 50
218.1204197971511
 51
321.8795802028566
  0
ARC
  5
1BF
102
{ACAD_REACTORS
330
205
330
206
102
}
330
71
100
AcDbEntity
  8
0
  6
Continuous
 62
     2
100
AcDbCircle
 10
87.80779099289481
 20
338.9439246812084
 30
0.0
 40
0.7717997786796023
100
AcDbArc
 50
321.8795802028471
 51
38.12041979716289
  0
ARC
  5
1C0
102
{ACAD_REACTORS
330
203
330
204
102
}
330
71
100
AcDbEntity
  8
0
  6
Continuous
 62
     2
100
AcDbCircle
 10
78.5894071058033
 20
334.4820740585121
 30
0.0
 40
0.4242446153833157
100
AcDbArc
 50
270.0
 51
0.0
  0
ARC
  5
1C1
102
{ACAD_REACTORS
330
203
330
204
102
}
330
71
100
AcDbEntity
  8
0
  6
Continuous
 62
     2
100
AcDbCircle
 10
78.5894071058033
 20
340.0465848277123
 30
0.0
 40
0.4242446153838841
100
AcDbArc
 50
0.0
 51
90.0
  0
ARC
  5
1C2
102
{ACAD_REACTORS
330
203
330
204
102
}
330
71
100
AcDbEntity
  8
0
  6
Continuous
 62
     2
100
AcDbCircle
 10
73.1160950150865
 20
340.0465848277123
 30
0.0
 40
0.4242446153837705
100
AcDbArc
 50
90.0
 51
180.0
  0
ARC
  5
1C3
102
{ACAD_REACTORS
330
203
330
204
102
}
330
71
100
AcDbEntity
  8
0
  6
Continuous
 62
     2
100
AcDbCircle
 10
75.18582295284261
 20
335.0861019217624
 30
0.0
 40
0.3157169230767067
100
AcDbArc
 50
270.0
 51
0.0
  0
ARC
  5
1C4
102
{ACAD_REACTORS
330
203
330
204
102
}
330
71
100
AcDbEntity
  8
0
  6
Continuous
 62
     2
100
AcDbCircle
 10
75.18582295284261
 20
338.838532345419
 30
0.0
 40
0.3157169230761717
100
AcDbArc
 50
295.1944106485354
 51
0.0
  0
ARC
  5
1C5
102
{ACAD_REACTORS
330
203
330
204
102
}
330
71
100
AcDbEntity
  8
0
  6
Continuous
 62
     2
100
AcDbCircle
 10
75.18582295284261
 20
339.4425569644795
 30
0.0
 40
0.315716923076593
100
AcDbArc
 50
0.0
 51
90.0
  0
ARC
  5
1C6
102
{ACAD_REACTORS
330
203
330
204
102
}
330
71
100
AcDbEntity
  8
0
  6
Continuous
 62
     2
100
AcDbCircle
 10
73.70998969183299
 20
335.0861019217624
 30
0.0
 40
0.3157169230756836
100
AcDbArc
 50
180.0
 51
270.0
  0
ARC
  5
1C7
102
{ACAD_REACTORS
330
209
330
20A
102
}
330
71
100
AcDbEntity
  8
0
  6
Continuous
 62
     2
100
AcDbCircle
 10
81.4900408000884
 20
339.4154638017806
 30
0.0
 40
1.055365641333708
100
AcDbArc
 50
270.0
 51
90.0
  0
ARC
  5
1C8
102
{ACAD_REACTORS
330
201
330
202
102
}
330
71
100
AcDbEntity
  8
0
  6
Continuous
 62
     2
100
AcDbCircle
 10
97.21825411177952
 20
335.6975245670689
 30
0.0
 40
1.639695123940448
100
AcDbArc
 50
195.0618917771012
 51
275.1581447696762
  0
ARC
  5
1C9
102
{ACAD_REACTORS
330
201
330
202
102
}
330
71
100
AcDbEntity
  8
0
  6
Continuous
 62
     2
100
AcDbCircle
 10
96.9293980170437
 20
338.8974151502905
 30
0.0
 40
4.852596863498825
100
AcDbArc
 50
275.1581447696364
 51
285.9799912583388
  0
ARC
  5
1CA
102
{ACAD_REACTORS
330
201
330
202
102
}
330
71
100
AcDbEntity
  8
0
  6
Continuous
 62
     2
100
AcDbCircle
 10
97.0872708921365
 20
336.9952005704422
 30
0.0
 40
2.227384008972773
100
AcDbArc
 50
288.4480761181333
 51
301.9309089499394
  0
ARC
  5
1CB
102
{ACAD_REACTORS
330
201
330
202
102
}
330
71
100
AcDbEntity
  8
0
  6
Continuous
 62
     2
100
AcDbCircle
 10
97.5054386257984
 20
335.7416547944056
 30
0.0
 40
0.9059297849852801
100
AcDbArc
 50
246.6277221118183
 51
288.4480761180817
  0
ARC
  5
1CC
102
{ACAD_REACTORS
330
201
330
202
102
}
330
71
100
AcDbEntity
  8
0
  6
Continuous
 62
     2
100
AcDbCircle
 10
97.72635585117669
 20
335.5847342050341
 30
0.0
 40
0.9410597353348789
100
AcDbArc
 50
151.478526742364
 51
208.5214732576695
  0
ARC
  5
1CD
102
{ACAD_REACTORS
330
201
330
202
102
}
330
71
100
AcDbEntity
  8
0
  6
Continuous
 62
     2
100
AcDbCircle
 10
97.495668591199
 20
335.3718506539902
 30
0.0
 40
0.9545230068260935
100
AcDbArc
 50
90.0
 51
109.3371432194309
  0
ARC
  5
1CE
102
{ACAD_REACTORS
330
203
330
204
102
}
330
71
100
AcDbEntity
  8
0
  6
Continuous
 62
     2
100
AcDbCircle
 10
76.28553837836469
 20
339.4423794878314
 30
0.0
 40
0.3157169230760711
100
AcDbArc
 50
90.18896704254594
 51
180.0
  0
ARC
  5
1CF
102
{ACAD_REACTORS
330
203
330
204
102
}
330
71
100
AcDbEntity
  8
0
  6
Continuous
 62
     2
100
AcDbCircle
 10
75.75949568027681
 20
337.7277025993568
 30
0.0
 40
0.9118481501444847
100
AcDbArc
 50
295.3740086781757
 51
64.62599132180748
  0
ARC
  5
1D0
102
{ACAD_REACTORS
330
1FF
330
200
102
}
330
71
100
AcDbEntity
  8
0
  6
Continuous
 62
     2
100
AcDbCircle
 10
80.98456941288362
 20
336.9952005704428
 30
0.0
 40
2.227384008972764
100
AcDbArc
 50
288.4480761181326
 51
301.9309089499589
  0
ARC
  5
1D1
102
{ACAD_REACTORS
330
1FF
330
200
102
}
330
71
100
AcDbEntity
  8
0
  6
Continuous
 62
     2
100
AcDbCircle
 10
81.40273714654441
 20
335.7416547944056
 30
0.0
 40
0.9059297849849192
100
AcDbArc
 50
246.627722111871
 51
288.448076118159
  0
ARC
  5
1D2
102
{ACAD_REACTORS
330
1FF
330
200
102
}
330
71
100
AcDbEntity
  8
0
  6
Continuous
 62
     2
100
AcDbCircle
 10
81.24629711384239
 20
335.3796627756956
 30
0.0
 40
0.5115800601948034
100
AcDbArc
 50
208.5214732576956
 51
246.6277221118274
  0
ARC
  5
1D3
102
{ACAD_REACTORS
330
1FF
330
200
102
}
330
71
100
AcDbEntity
  8
0
  6
Continuous
 62
     2
100
AcDbCircle
 10
81.40273714654441
 20
335.4278136156625
 30
0.0
 40
0.9059297849853228
100
AcDbArc
 50
71.55192388185348
 51
113.372277888129
  0
ARC
  5
1D4
102
{ACAD_REACTORS
330
1FF
330
200
102
}
330
71
100
AcDbEntity
  8
0
  6
Continuous
 62
     2
100
AcDbCircle
 10
80.8266965377907
 20
332.2720532597782
 30
0.0
 40
4.852596863498095
100
AcDbArc
 50
74.02000874164747
 51
84.84185523037509
  0
CIRCLE
  5
1D5
102
{ACAD_REACTORS
330
203
330
204
102
}
330
71
100
AcDbEntity
  8
0
  6
Continuous
 62
     2
100
AcDbCircle
 10
75.73568066560401
 20
337.7277025993568
 30
0.0
 40
0.4709789327785074
  0
CIRCLE
  5
1D6
330
71
100
AcDbEntity
  8
1
  6
Continuous
 62
     2
100
AcDbCircle
 10
81.1918503997037
 20
347.8893294431124
 30
0.0
 40
1.249999999999915
  0
CIRCLE
  5
1D7
330
71
100
AcDbEntity
  8
1
  6
Continuous
 62
     2
100
AcDbCircle
 10
81.1918503997037
 20
347.8893294431124
 30
0.0
 40
2.5
  0
TEXT
  5
1D8
330
71
100
AcDbEntity
  8
1
 62
     7
100
AcDbText
 10
123.8287432351549
 20
345.0643294431124
 30
0.0
 40
2.5
  1
/
 41
0.9
  7
CONVERTER_11
100
AcDbText
  0
TEXT
  5
1DA
330
71
100
AcDbEntity
  8
1
 62
     7
100
AcDbText
 10
125.9851077321969
 20
345.0643294431124
 30
0.0
 40
2.5
  1
01
 41
0.81
  7
CONVERTER_12
100
AcDbText
  0
TEXT
  5
1DB
330
71
100
AcDbEntity
  8
1
 62
     3
100
AcDbText
 10
163.581591758214
 20
345.0643294431124
 30
0.0
 40
2.5
  1
25.09.2017
 41
0.81
  7
CONVERTER_12
100
AcDbText
  0
MTEXT
  5
1DC
330
71
100
AcDbEntity
  8
1
 62
     2
100
AcDbMText
 10
163.581591758214
 20
351.2643294431124
 30
0.0
 40
1.8
 41
0.0
 71
     1
 72
     1
  1
date
  7
CONVERTER_11
 73
     1
 44
1.32052821128451
  0
MTEXT
  5
1DD
330
71
100
AcDbEntity
  8
1
 62
     2
100
AcDbMText
 10
133.7551955131411
 20
342.7643294431124
 30
0.0
 40
1.8
 41
0.0
 71
     1
 72
     1
  1
document-type
  7
CONVERTER_11
 73
     1
 44
1.20048019207683
  0
TEXT
  5
1DE
330
71
100
AcDbEntity
  8
1
 62
     3
100
AcDbText
 10
133.7551955131411
 20
336.5643294431124
 30
0.0
 40
2.5
  1
TECDOC 2D_Productdrawing
 41
0.81
  7
CONVERTER_12
100
AcDbText
  0
MTEXT
  5
1E0
330
71
100
AcDbEntity
  8
1
 62
     2
100
AcDbMText
 10
105.9551955131411
 20
351.2643294431125
 30
0.0
 40
1.8
 41
0.0
 71
     1
 72
     1
  1
document-No. / RI
  7
CONVERTER_13
 73
     1
 44
1.32052821128451
  0
TEXT
  5
1E1
330
71
100
AcDbEntity
  8
1
 62
     7
100
AcDbText
 10
105.9551955131411
 20
345.0643294431124
 30
0.0
 40
2.5
  1
00326995
 41
0.81
  7
CONVERTER_12
100
AcDbText
  0
MTEXT
  5
1E3
330
71
100
AcDbEntity
  8
1
 62
     3
100
AcDbMText
 10
193.5407958990534
 20
345.0643294431126
 30
0.0
 40
2.5
 41
0.0
 71
     8
 72
     1
  1
1:1
  7
CONVERTER_14
 73
     1
 44
1.32052821128451
  0
MTEXT
  5
1E4
330
71
100
AcDbEntity
  8
1
 62
     2
100
AcDbMText
 10
190.1815917582138
 20
351.2643294431125
 30
0.0
 40
1.8
 41
0.0
 71
     1
 72
     1
  1
scale
  7
CONVERTER_11
 73
     1
 44
1.20048019207683
  0
MTEXT
  5
1E5
330
71
100
AcDbEntity
  8
1
 62
     2
100
AcDbMText
 10
105.9551955131411
 20
342.7643294431125
 30
0.0
 40
1.8
 41
0.0
 71
     1
 72
     1
  1
ident.-No.
  7
CONVERTER_11
 73
     1
 44
1.20048019207683
  0
TEXT
  5
1E6
330
71
100
AcDbEntity
  8
1
 62
     7
100
AcDbText
 10
106.3551955131408
 20
336.5643294431124
 30
0.0
 40
2.5
  1
0304023
 41
0.81
  7
CONVERTER_12
100
AcDbText
  0
MTEXT
  5
1E7
330
71
100
AcDbEntity
  8
1
 62
     2
100
AcDbMText
 10
34.01718078809358
 20
339.5143294431124
 30
0.0
 40
2.0
 41
0.0
 71
     5
 72
     1
  1
General Information\P- Simplified representation\P- Document excluded from change process\P- Linear dimensions [mm]
  7
CONVERTER_11
 73
     1
 44
1.20048019207683
  0
MTEXT
  5
1E8
330
71
100
AcDbEntity
  8
1
 62
     7
100
AcDbMText
 10
200.5000000398901
 20
401.7643294431144
 30
0.0
 40
3.5
 41
0.0
 71
     5
 72
     1
  1
C
  7
CONVERTER_11
 73
     1
 44
1.20048019207683
  0
MTEXT
  5
1E9
330
71
100
AcDbEntity
  8
1
 62
     7
100
AcDbMText
 10
200.5000000398901
 20
504.2643294431125
 30
0.0
 40
3.5
 41
0.0
 71
     5
 72
     1
  1
A
  7
CONVERTER_11
 73
     1
 44
1.20048019207683
  0
MTEXT
  5
1EA
330
71
100
AcDbEntity
  8
1
 62
     7
100
AcDbMText
 10
200.5000000398901
 20
451.7643294431144
 30
0.0
 40
3.5
 41
0.0
 71
     5
 72
     1
  1
B
  7
CONVERTER_11
 73
     1
 44
1.20048019207683
  0
MTEXT
  5
1EB
330
71
100
AcDbEntity
  8
1
 62
     7
100
AcDbMText
 10
200.5000000398901
 20
349.2643294431125
 30
0.0
 40
3.5
 41
0.0
 71
     5
 72
     1
  1
D
  7
CONVERTER_11
 73
     1
 44
1.20048019207683
  0
MTEXT
  5
1EC
330
71
100
AcDbEntity
  8
1
 62
     7
100
AcDbMText
 10
-69.74999996010848
 20
324.2643294431124
 30
0.0
 40
3.5
 41
0.0
 71
     5
 72
     1
  1
1
  7
CONVERTER_11
 73
     1
 44
1.20048019207683
  0
MTEXT
  5
1ED
330
71
100
AcDbEntity
  8
1
 62
     7
100
AcDbMText
 10
-20.49999996010888
 20
324.2643294431124
 30
0.0
 40
3.5
 41
0.0
 71
     5
 72
     1
  1
2
  7
CONVERTER_11
 73
     1
 44
1.20048019207683
  0
MTEXT
  5
1EE
330
71
100
AcDbEntity
  8
1
 62
     7
100
AcDbMText
 10
29.50000003989112
 20
324.2643294431124
 30
0.0
 40
3.5
 41
0.0
 71
     5
 72
     1
  1
3
  7
CONVERTER_11
 73
     1
 44
1.20048019207683
  0
MTEXT
  5
1EF
330
71
100
AcDbEntity
  8
1
 62
     7
100
AcDbMText
 10
79.500000039891
 20
324.2643294431124
 30
0.0
 40
3.5
 41
0.0
 71
     5
 72
     1
  1
4
  7
CONVERTER_11
 73
     1
 44
1.20048019207683
  0
MTEXT
  5
1F0
330
71
100
AcDbEntity
  8
1
 62
     7
100
AcDbMText
 10
129.5000000398911
 20
324.2643294431124
 30
0.0
 40
3.5
 41
0.0
 71
     5
 72
     1
  1
5
  7
CONVERTER_11
 73
     1
 44
1.20048019207683
  0
MTEXT
  5
1F1
330
71
100
AcDbEntity
  8
1
 62
     7
100
AcDbMText
 10
178.7500000398903
 20
324.2643294431124
 30
0.0
 40
3.5
 41
0.0
 71
     5
 72
     1
  1
6
  7
CONVERTER_11
 73
     1
 44
1.20048019207683
  0
MTEXT
  5
1F2
330
71
100
AcDbEntity
  8
1
 62
     7
100
AcDbMText
 10
-91.49999996010797
 20
504.2643294431125
 30
0.0
 40
3.5
 41
0.0
 71
     5
 72
     1
  1
A
  7
CONVERTER_11
 73
     1
 44
1.20048019207683
  0
MTEXT
  5
1F3
330
71
100
AcDbEntity
  8
1
 62
     7
100
AcDbMText
 10
-91.49999996010797
 20
451.7643294431125
 30
0.0
 40
3.5
 41
0.0
 71
     5
 72
     1
  1
B
  7
CONVERTER_11
 73
     1
 44
1.20048019207683
  0
MTEXT
  5
1F4
330
71
100
AcDbEntity
  8
1
 62
     7
100
AcDbMText
 10
-91.49999996010797
 20
401.7643294431125
 30
0.0
 40
3.5
 41
0.0
 71
     5
 72
     1
  1
C
  7
CONVERTER_11
 73
     1
 44
1.20048019207683
  0
MTEXT
  5
1F5
330
71
100
AcDbEntity
  8
1
 62
     7
100
AcDbMText
 10
-91.49999996010797
 20
349.2643294431125
 30
0.0
 40
3.5
 41
0.0
 71
     5
 72
     1
  1
D
  7
CONVERTER_11
 73
     1
 44
1.20048019207683
  0
MTEXT
  5
1F6
330
71
100
AcDbEntity
  8
1
 62
     3
100
AcDbMText
 10
94.655195513141
 20
347.8893294431125
 30
0.0
 40
2.5
 41
0.0
 71
     5
 72
     1
  1
DIN A4
  7
CONVERTER_11
 73
     1
 44
1.20048019207683
  0
MTEXT
  5
1F7
330
71
100
AcDbEntity
  8
1
 62
     2
100
AcDbMText
 10
105.855195513141
 20
334.2643294431125
 30
0.0
 40
1.8
 41
0.0
 71
     1
 72
     1
  1
description
  7
CONVERTER_11
 73
     1
 44
1.20048019207683
  0
MTEXT
  5
1F8
330
71
100
AcDbEntity
  8
1
 62
     7
100
AcDbMText
 10
151.4275977765166
 20
330.0143294431127
 30
0.0
 40
3.0
 41
0.0
 71
     5
 72
     1
  1
D-UGSK
  7
CONVERTER_12
 73
     1
 44
1.20048019207683
  0
TEXT
  5
1F9
330
71
100
AcDbEntity
  8
1
 62
     2
100
AcDbText
 10
92.8905043229546
 20
328.0143294431124
 30
0.0
 40
1.8
  1
1
 41
0.9
  7
CONVERTER_11
100
AcDbText
  0
TEXT
  5
1FA
330
71
100
AcDbEntity
  8
1
 62
     2
100
AcDbText
 10
78.1014604834831
 20
327.9650807893105
 30
0.0
 40
1.8
  1
1
 41
0.9
  7
CONVERTER_11
100
AcDbText
  0
TEXT
  5
1FB
330
71
100
AcDbEntity
  8
1
 62
     2
100
AcDbText
 10
69.45519551314109
 20
328.0053122281208
 30
0.0
 40
1.8
  1
page
 41
0.9
  7
CONVERTER_11
100
AcDbText
  0
TEXT
  5
1FC
330
71
100
AcDbEntity
  8
1
 62
     2
100
AcDbText
 10
87.65519551314091
 20
328.0053122281209
 30
0.0
 40
1.8
  1
of
 41
0.9
  7
CONVERTER_11
100
AcDbText
  0
MTEXT
  5
1FD
330
71
100
AcDbEntity
  8
1
 62
     3
100
AcDbMText
 10
93.858177664751
 20
513.5556375984113
 30
0.0
 40
1.8
 41
0.0
 71
     7
 72
     1
  3
Transfer or duplication of this document as well as the utilisation or\Pcommunication of its content are not permitted unless express consent\Pis granted. Violations give rise to claims for damages. All rights reserved\Pin case of patent, utility mo
  1
del or design patent registrations.
  7
CONVERTER_11
 73
     1
 44
0.99639855942377
  0
MTEXT
  5
1FE
330
71
100
AcDbEntity
  8
1
 62
     3
100
AcDbMText
 10
-88.9949321740371
 20
513.5556375984113
 30
0.0
 40
1.8
 41
0.0
 71
     7
 72
     1
  3
Weitergabe sowie Vervielf\U+00e4ltigung dieses Dokuments, Verwertung und \PMitteilung seines Inhalts sind verboten, soweit nicht ausdr\U+00fccklich gestattet. \PZuwiderhandlungen verpflichten zu Schadenersatz. Alle Rechte f\U+00fcr den Fall\Pder Pat
  1
ent-, Gebrauchsmuster- oder Designeintragung vorbehalten.
  7
CONVERTER_11
 73
     1
 44
0.99639855942377
  0
HATCH
  5
1FF
330
71
100
AcDbEntity
  8
1
  6
Continuous
 62
     2
100
AcDbHatch
 10
0.0
 20
0.0
 30
0.0
210
0.0
220
0.0
230
1.0
  2
_USER
 70
     0
 71
     1
 91
        1
 92
        1
 93
       14
 72
     2
 10
80.6964247890638
 20
335.5847342050341
 40
1.205656168390929
 50
164.9381082228791
 51
195.0618917770948
 73
     1
 72
     2
 10
81.1155526325266
 20
335.6975245670689
 40
1.63969512393938
 50
195.0618917770886
 51
275.1581447696395
 73
     1
 72
     2
 10
80.8266965377907
 20
338.8974151502905
 40
4.852596863498166
 50
275.1581447696249
 51
285.9799912583529
 73
     1
 72
     1
 10
82.1626244549085
 20
334.2323328444897
 11
82.1626244549085
 21
335.1048498512929
 72
     2
 10
80.98456941288362
 20
336.9952005704428
 40
2.227384008972764
 50
58.06909105004111
 51
71.55192388186742
 73
     0
 72
     2
 10
81.40273714654441
 20
335.7416547944056
 40
0.9059297849849192
 50
71.55192388184098
 51
113.372277888129
 73
     0
 72
     2
 10
81.24629711384239
 20
335.3796627756956
 40
0.5115800601948034
 50
113.3722778881726
 51
151.4785267423044
 73
     0
 72
     2
 10
81.6236543719227
 20
335.5847342050341
 40
0.9410597353332545
 50
151.4785267422912
 51
208.5214732577331
 73
     0
 72
     2
 10
81.24629711384239
 20
335.7898056343731
 40
0.5115800601948517
 50
208.5214732576956
 51
246.6277221117996
 73
     0
 72
     2
 10
81.40273714654441
 20
335.4278136156625
 40
0.9059297849853228
 50
246.627722111871
 51
288.4480761181465
 73
     0
 72
     2
 10
80.98456941288362
 20
334.1742678396259
 40
2.227384008973501
 50
288.4480761181326
 51
301.9309089499589
 73
     0
 72
     1
 10
82.1626244549085
 20
336.0646185587758
 11
82.1626244549085
 21
336.9371355655791
 72
     2
 10
80.8266965377907
 20
332.2720532597782
 40
4.852596863498095
 50
74.02000874164747
 51
84.84185523037509
 73
     1
 72
     2
 10
81.1155526325266
 20
335.4719438429992
 40
1.639695123940507
 50
84.84185523036236
 51
164.9381082228884
 73
     1
 97
       14
330
1D4
330
ED
330
1A3
330
1D3
330
1A4
330
1A5
330
1D2
330
1D1
330
1D0
330
EE
330
1A6
330
1A7
330
1A8
330
1A9
 75
     1
 76
     0
 52
45.0
 41
0.1
 77
     0
 78
     1
 53
45.0
 43
0.0
 44
0.0
 45
-0.0707106781186548
 46
0.0707106781186548
 79
     0
 98
        1
 10
0.0
 20
0.0
  0
HATCH
  5
200
330
71
100
AcDbEntity
  8
1
  6
Continuous
 62
     2
100
AcDbHatch
 10
0.0
 20
0.0
 30
0.0
210
0.0
220
0.0
230
1.0
  2
_USER
 70
     0
 71
     1
 91
        1
 92
        1
 93
       14
 72
     2
 10
80.6964247890638
 20
335.5847342050341
 40
1.205656168390929
 50
164.9381082228791
 51
195.0618917770948
 73
     1
 72
     2
 10
81.1155526325266
 20
335.6975245670689
 40
1.63969512393938
 50
195.0618917770886
 51
275.1581447696395
 73
     1
 72
     2
 10
80.8266965377907
 20
338.8974151502905
 40
4.852596863498166
 50
275.1581447696249
 51
285.9799912583529
 73
     1
 72
     1
 10
82.1626244549085
 20
334.2323328444897
 11
82.1626244549085
 21
335.1048498512929
 72
     2
 10
80.98456941288362
 20
336.9952005704428
 40
2.227384008972764
 50
58.06909105004111
 51
71.55192388186742
 73
     0
 72
     2
 10
81.40273714654441
 20
335.7416547944056
 40
0.9059297849849192
 50
71.55192388184098
 51
113.372277888129
 73
     0
 72
     2
 10
81.24629711384239
 20
335.3796627756956
 40
0.5115800601948034
 50
113.3722778881726
 51
151.4785267423044
 73
     0
 72
     2
 10
81.6236543719227
 20
335.5847342050341
 40
0.9410597353332545
 50
151.4785267422912
 51
208.5214732577331
 73
     0
 72
     2
 10
81.24629711384239
 20
335.7898056343731
 40
0.5115800601948517
 50
208.5214732576956
 51
246.6277221117996
 73
     0
 72
     2
 10
81.40273714654441
 20
335.4278136156625
 40
0.9059297849853228
 50
246.627722111871
 51
288.4480761181465
 73
     0
 72
     2
 10
80.98456941288362
 20
334.1742678396259
 40
2.227384008973501
 50
288.4480761181326
 51
301.9309089499589
 73
     0
 72
     1
 10
82.1626244549085
 20
336.0646185587758
 11
82.1626244549085
 21
336.9371355655791
 72
     2
 10
80.8266965377907
 20
332.2720532597782
 40
4.852596863498095
 50
74.02000874164747
 51
84.84185523037509
 73
     1
 72
     2
 10
81.1155526325266
 20
335.4719438429992
 40
1.639695123940507
 50
84.84185523036236
 51
164.9381082228884
 73
     1
 97
       14
330
1D4
330
ED
330
1A3
330
1D3
330
1A4
330
1A5
330
1D2
330
1D1
330
1D0
330
EE
330
1A6
330
1A7
330
1A8
330
1A9
 75
     1
 76
     0
 52
45.0
 41
0.1
 77
     0
 78
     1
 53
45.0
 43
0.0
 44
0.0
 45
-0.0707106781186548
 46
0.0707106781186548
 79
     0
 98
        1
 10
0.0
 20
0.0
  0
HATCH
  5
201
330
71
100
AcDbEntity
  8
1
  6
Continuous
 62
     2
100
AcDbHatch
 10
0.0
 20
0.0
 30
0.0
210
0.0
220
0.0
230
1.0
  2
_USER
 70
     0
 71
     1
 91
        1
 92
        1
 93
       18
 72
     2
 10
97.21825411177952
 20
335.4719438429992
 40
1.639695123940157
 50
90.0
 51
164.9381082228969
 73
     1
 72
     2
 10
96.7991262683179
 20
335.5847342050341
 40
1.205656168392988
 50
164.9381082229054
 51
195.0618917770972
 73
     1
 72
     2
 10
97.21825411177952
 20
335.6975245670689
 40
1.639695123940448
 50
195.0618917771012
 51
275.1581447696762
 73
     1
 72
     2
 10
96.9293980170437
 20
338.8974151502905
 40
4.852596863498825
 50
275.1581447696364
 51
285.9799912583388
 73
     1
 72
     1
 10
98.26532593416042
 20
334.2323328444891
 11
98.26532593416042
 21
335.1048498512924
 72
     2
 10
97.0872708921365
 20
336.9952005704422
 40
2.227384008972773
 50
58.06909105006066
 51
71.55192388186677
 73
     0
 72
     2
 10
97.5054386257984
 20
335.7416547944056
 40
0.9059297849852801
 50
71.55192388191827
 51
113.3722778881817
 73
     0
 72
     2
 10
97.3489985930953
 20
335.3796627756956
 40
0.5115800601959944
 50
113.3722778881551
 51
151.478526742319
 73
     0
 72
     2
 10
97.72635585117669
 20
335.5847342050341
 40
0.9410597353348789
 50
151.4785267423305
 51
208.521473257636
 73
     0
 72
     2
 10
97.3489985930953
 20
335.7898056343731
 40
0.5115800601944143
 50
208.5214732575747
 51
250.6628567805147
 73
     0
 72
     2
 10
97.495668591199
 20
335.3718506539902
 40
0.9545230068260935
 50
250.6628567805691
 51
270.0
 73
     0
 72
     1
 10
97.495668591199
 20
336.3263736608163
 11
98.59930789076711
 21
336.3263736608163
 72
     1
 10
98.59930789076711
 20
336.3263736608163
 11
98.59930789076711
 21
334.0578294431288
 72
     1
 10
98.59930789076711
 20
334.0578294431288
 11
99.79210059293482
 21
334.0578294431288
 72
     1
 10
99.79210059293482
 20
334.0578294431288
 11
99.79210059293482
 21
336.3263736608163
 72
     1
 10
99.79210059293482
 20
336.3263736608163
 11
100.6031996304082
 21
336.3263736608163
 72
     1
 10
100.6031996304082
 20
336.3263736608163
 11
100.6031996304082
 21
337.1116389669399
 72
     1
 10
100.6031996304082
 20
337.1116389669399
 11
97.21825411177952
 21
337.1116389669394
 97
       18
330
153
330
152
330
151
330
150
330
155
330
EF
330
1CD
330
1AE
330
1CC
330
1AF
330
1CB
330
1CA
330
F0
330
1C9
330
1C8
330
1B0
330
1B1
330
154
 75
     1
 76
     0
 52
45.0
 41
0.1
 77
     0
 78
     1
 53
45.0
 43
0.0
 44
0.0
 45
-0.0707106781186548
 46
0.0707106781186548
 79
     0
 98
        1
 10
0.0
 20
0.0
  0
HATCH
  5
202
330
71
100
AcDbEntity
  8
1
  6
Continuous
 62
     2
100
AcDbHatch
 10
0.0
 20
0.0
 30
0.0
210
0.0
220
0.0
230
1.0
  2
_USER
 70
     0
 71
     1
 91
        1
 92
        1
 93
       18
 72
     2
 10
97.21825411177952
 20
335.4719438429992
 40
1.639695123940157
 50
90.0
 51
164.9381082228969
 73
     1
 72
     2
 10
96.7991262683179
 20
335.5847342050341
 40
1.205656168392988
 50
164.9381082229054
 51
195.0618917770972
 73
     1
 72
     2
 10
97.21825411177952
 20
335.6975245670689
 40
1.639695123940448
 50
195.0618917771012
 51
275.1581447696762
 73
     1
 72
     2
 10
96.9293980170437
 20
338.8974151502905
 40
4.852596863498825
 50
275.1581447696364
 51
285.9799912583388
 73
     1
 72
     1
 10
98.26532593416042
 20
334.2323328444891
 11
98.26532593416042
 21
335.1048498512924
 72
     2
 10
97.0872708921365
 20
336.9952005704422
 40
2.227384008972773
 50
58.06909105006066
 51
71.55192388186677
 73
     0
 72
     2
 10
97.5054386257984
 20
335.7416547944056
 40
0.9059297849852801
 50
71.55192388191827
 51
113.3722778881817
 73
     0
 72
     2
 10
97.3489985930953
 20
335.3796627756956
 40
0.5115800601959944
 50
113.3722778881551
 51
151.478526742319
 73
     0
 72
     2
 10
97.72635585117669
 20
335.5847342050341
 40
0.9410597353348789
 50
151.4785267423305
 51
208.521473257636
 73
     0
 72
     2
 10
97.3489985930953
 20
335.7898056343731
 40
0.5115800601944143
 50
208.5214732575747
 51
250.6628567805147
 73
     0
 72
     2
 10
97.495668591199
 20
335.3718506539902
 40
0.9545230068260935
 50
250.6628567805691
 51
270.0
 73
     0
 72
     1
 10
97.495668591199
 20
336.3263736608163
 11
98.59930789076711
 21
336.3263736608163
 72
     1
 10
98.59930789076711
 20
336.3263736608163
 11
98.59930789076711
 21
334.0578294431288
 72
     1
 10
98.59930789076711
 20
334.0578294431288
 11
99.79210059293482
 21
334.0578294431288
 72
     1
 10
99.79210059293482
 20
334.0578294431288
 11
99.79210059293482
 21
336.3263736608163
 72
     1
 10
99.79210059293482
 20
336.3263736608163
 11
100.6031996304082
 21
336.3263736608163
 72
     1
 10
100.6031996304082
 20
336.3263736608163
 11
100.6031996304082
 21
337.1116389669399
 72
     1
 10
100.6031996304082
 20
337.1116389669399
 11
97.21825411177952
 21
337.1116389669394
 97
       18
330
153
330
152
330
151
330
150
330
155
330
EF
330
1CD
330
1AE
330
1CC
330
1AF
330
1CB
330
1CA
330
F0
330
1C9
330
1C8
330
1B0
330
1B1
330
154
 75
     1
 76
     0
 52
45.0
 41
0.1
 77
     0
 78
     1
 53
45.0
 43
0.0
 44
0.0
 45
-0.0707106781186548
 46
0.0707106781186548
 79
     0
 98
        1
 10
0.0
 20
0.0
  0
HATCH
  5
203
330
71
100
AcDbEntity
  8
1
  6
Continuous
 62
     2
100
AcDbHatch
 10
0.0
 20
0.0
 30
0.0
210
0.0
220
0.0
230
1.0
  2
_USER
 70
     0
 71
     1
 91
        4
 92
        1
 93
        8
 72
     2
 10
73.1160950150865
 20
340.0465848277123
 40
0.4242446153837705
 50
90.0
 51
180.0
 73
     1
 72
     1
 10
72.6918503997037
 20
340.0465848277123
 11
72.6918503997037
 21
334.4820740585121
 72
     2
 10
73.1160950150865
 20
334.4820740585121
 40
0.4242446153828041
 50
180.0
 51
270.0
 73
     1
 72
     1
 10
73.1160950150865
 20
334.0578294431288
 11
78.5894071058033
 21
334.0578294431288
 72
     2
 10
78.5894071058033
 20
334.4820740585121
 40
0.4242446153833157
 50
270.0
 51
360.0
 73
     1
 72
     1
 10
79.01365172118719
 20
334.4820740585121
 11
79.01365172118719
 21
340.0465848277123
 72
     2
 10
78.5894071058033
 20
340.0465848277123
 40
0.4242446153838841
 50
0.0
 51
90.0
 73
     1
 72
     1
 10
78.5894071058033
 20
340.4708294430961
 11
73.1160950150865
 21
340.4708294430961
 97
        8
330
1C1
330
11E
330
1C0
330
11F
330
1B7
330
11C
330
1C2
330
11D
 92
       16
 93
        1
 72
     2
 10
75.73568066560401
 20
337.7277025993568
 40
0.4709789327785074
 50
0.0
 51
360.0
 73
     1
 97
        1
330
1D5
 92
       16
 93
        8
 72
     2
 10
75.75949568027681
 20
337.7277025993568
 40
0.9118481501444847
 50
295.3740086781757
 51
424.6259913218075
 73
     1
 72
     2
 10
76.28553837836469
 20
338.8368441993246
 40
0.315716923076792
 50
115.3740086783518
 51
180.0
 73
     0
 72
     1
 10
75.9698214552879
 20
338.8368441993246
 11
75.9698214552879
 21
339.4423794878314
 72
     2
 10
76.28553837836469
 20
339.4423794878314
 40
0.3157169230760711
 50
180.0
 51
269.8110329574541
 73
     0
 72
     2
 10
76.29115451367471
 20
337.7395445402623
 40
2.018561131933209
 50
269.8110329575858
 51
450.1889670424142
 73
     0
 72
     2
 10
76.28553837836469
 20
336.0367095926933
 40
0.315716923076792
 50
90.1889670425459
 51
180.0
 73
     0
 72
     1
 10
75.9698214552879
 20
336.0367095926933
 11
75.9698214552879
 21
336.6185609993884
 72
     2
 10
76.28553837836469
 20
336.6185609993884
 40
0.3157169230764815
 50
180.0
 51
244.6259913216437
 73
     0
 97
        8
330
1CF
330
1AB
330
157
330
1CE
330
1AC
330
1AD
330
156
330
1AA
 92
       16
 93
       12
 72
     1
 10
73.70998969183299
 20
334.7703849986857
 11
75.18582295284261
 21
334.7703849986857
 72
     2
 10
75.18582295284261
 20
335.0861019217624
 40
0.3157169230767067
 50
270.0
 51
360.0
 73
     1
 72
     1
 10
75.5015398759192
 20
335.0861019217624
 11
75.5015398759192
 21
336.616872853294
 72
     2
 10
75.18582295284261
 20
336.616872853294
 40
0.315716923076593
 50
0.0
 51
64.80558935146027
 73
     1
 72
     2
 10
75.7084074004176
 20
337.7277025993568
 40
0.9118975235575889
 50
115.1944106485122
 51
244.805589351471
 73
     0
 72
     2
 10
75.18582295284261
 20
338.838532345419
 40
0.3157169230761717
 50
295.1944106485354
 51
360.0
 73
     1
 72
     1
 10
75.5015398759192
 20
338.838532345419
 11
75.5015398759192
 21
339.4425569644795
 72
     2
 10
75.18582295284261
 20
339.4425569644795
 40
0.315716923076593
 50
0.0
 51
90.0
 73
     1
 72
     1
 10
75.18582295284261
 20
339.7582738875557
 11
73.70998969183299
 21
339.7582738875557
 72
     2
 10
73.70998969183299
 20
339.4425569644795
 40
0.3157169230761951
 50
90.0
 51
180.0
 73
     1
 72
     1
 10
73.3942727687573
 20
339.4425569644795
 11
73.3942727687573
 21
335.0861019217624
 72
     2
 10
73.70998969183299
 20
335.0861019217624
 40
0.3157169230756836
 50
180.0
 51
270.0
 73
     1
 97
       12
330
123
330
1B4
330
122
330
1C5
330
121
330
1C4
330
1B5
330
1B6
330
120
330
1C3
330
11B
330
1C6
 75
     1
 76
     0
 52
45.0
 41
0.1
 77
     0
 78
     1
 53
45.0
 43
0.0
 44
0.0
 45
-0.0707106781186548
 46
0.0707106781186548
 79
     0
 98
        1
 10
0.0
 20
0.0
  0
HATCH
  5
204
330
71
100
AcDbEntity
  8
1
  6
Continuous
 62
     2
100
AcDbHatch
 10
0.0
 20
0.0
 30
0.0
210
0.0
220
0.0
230
1.0
  2
_USER
 70
     0
 71
     1
 91
        4
 92
        1
 93
        8
 72
     2
 10
73.1160950150865
 20
340.0465848277123
 40
0.4242446153837705
 50
90.0
 51
180.0
 73
     1
 72
     1
 10
72.6918503997037
 20
340.0465848277123
 11
72.6918503997037
 21
334.4820740585121
 72
     2
 10
73.1160950150865
 20
334.4820740585121
 40
0.4242446153828041
 50
180.0
 51
270.0
 73
     1
 72
     1
 10
73.1160950150865
 20
334.0578294431288
 11
78.5894071058033
 21
334.0578294431288
 72
     2
 10
78.5894071058033
 20
334.4820740585121
 40
0.4242446153833157
 50
270.0
 51
360.0
 73
     1
 72
     1
 10
79.01365172118719
 20
334.4820740585121
 11
79.01365172118719
 21
340.0465848277123
 72
     2
 10
78.5894071058033
 20
340.0465848277123
 40
0.4242446153838841
 50
0.0
 51
90.0
 73
     1
 72
     1
 10
78.5894071058033
 20
340.4708294430961
 11
73.1160950150865
 21
340.4708294430961
 97
        8
330
1C1
330
11E
330
1C0
330
11F
330
1B7
330
11C
330
1C2
330
11D
 92
       16
 93
        1
 72
     2
 10
75.73568066560401
 20
337.7277025993568
 40
0.4709789327785074
 50
0.0
 51
360.0
 73
     1
 97
        1
330
1D5
 92
       16
 93
        8
 72
     2
 10
75.75949568027681
 20
337.7277025993568
 40
0.9118481501444847
 50
295.3740086781757
 51
424.6259913218075
 73
     1
 72
     2
 10
76.28553837836469
 20
338.8368441993246
 40
0.315716923076792
 50
115.3740086783518
 51
180.0
 73
     0
 72
     1
 10
75.9698214552879
 20
338.8368441993246
 11
75.9698214552879
 21
339.4423794878314
 72
     2
 10
76.28553837836469
 20
339.4423794878314
 40
0.3157169230760711
 50
180.0
 51
269.8110329574541
 73
     0
 72
     2
 10
76.29115451367471
 20
337.7395445402623
 40
2.018561131933209
 50
269.8110329575858
 51
450.1889670424142
 73
     0
 72
     2
 10
76.28553837836469
 20
336.0367095926933
 40
0.315716923076792
 50
90.1889670425459
 51
180.0
 73
     0
 72
     1
 10
75.9698214552879
 20
336.0367095926933
 11
75.9698214552879
 21
336.6185609993884
 72
     2
 10
76.28553837836469
 20
336.6185609993884
 40
0.3157169230764815
 50
180.0
 51
244.6259913216437
 73
     0
 97
        8
330
1CF
330
1AB
330
157
330
1CE
330
1AC
330
1AD
330
156
330
1AA
 92
       16
 93
       12
 72
     1
 10
73.70998969183299
 20
334.7703849986857
 11
75.18582295284261
 21
334.7703849986857
 72
     2
 10
75.18582295284261
 20
335.0861019217624
 40
0.3157169230767067
 50
270.0
 51
360.0
 73
     1
 72
     1
 10
75.5015398759192
 20
335.0861019217624
 11
75.5015398759192
 21
336.616872853294
 72
     2
 10
75.18582295284261
 20
336.616872853294
 40
0.315716923076593
 50
0.0
 51
64.80558935146027
 73
     1
 72
     2
 10
75.7084074004176
 20
337.7277025993568
 40
0.9118975235575889
 50
115.1944106485122
 51
244.805589351471
 73
     0
 72
     2
 10
75.18582295284261
 20
338.838532345419
 40
0.3157169230761717
 50
295.1944106485354
 51
360.0
 73
     1
 72
     1
 10
75.5015398759192
 20
338.838532345419
 11
75.5015398759192
 21
339.4425569644795
 72
     2
 10
75.18582295284261
 20
339.4425569644795
 40
0.315716923076593
 50
0.0
 51
90.0
 73
     1
 72
     1
 10
75.18582295284261
 20
339.7582738875557
 11
73.70998969183299
 21
339.7582738875557
 72
     2
 10
73.70998969183299
 20
339.4425569644795
 40
0.3157169230761951
 50
90.0
 51
180.0
 73
     1
 72
     1
 10
73.3942727687573
 20
339.4425569644795
 11
73.3942727687573
 21
335.0861019217624
 72
     2
 10
73.70998969183299
 20
335.0861019217624
 40
0.3157169230756836
 50
180.0
 51
270.0
 73
     1
 97
       12
330
123
330
1B4
330
122
330
1C5
330
121
330
1C4
330
1B5
330
1B6
330
120
330
1C3
330
11B
330
1C6
 75
     1
 76
     0
 52
45.0
 41
0.1
 77
     0
 78
     1
 53
45.0
 43
0.0
 44
0.0
 45
-0.0707106781186548
 46
0.0707106781186548
 79
     0
 98
        1
 10
0.0
 20
0.0
  0
HATCH
  5
205
330
71
100
AcDbEntity
  8
1
  6
Continuous
 62
     2
100
AcDbHatch
 10
0.0
 20
0.0
 30
0.0
210
0.0
220
0.0
230
1.0
  2
_USER
 70
     0
 71
     1
 91
        2
 92
        1
 93
       12
 72
     2
 10
87.7912590190758
 20
338.9439246812084
 40
1.526904761905939
 50
90.0
 51
270.0
 73
     1
 72
     1
 10
87.7912590190758
 20
337.4170199193031
 11
90.94157874285679
 21
337.4170199193031
 72
     1
 10
90.94157874285679
 20
337.4170199193031
 11
90.94157874285679
 21
338.1150335247456
 72
     1
 10
90.94157874285679
 20
338.1150335247456
 11
89.60565091642911
 21
338.1150335247456
 72
     1
 10
89.60565091642911
 20
338.1150335247456
 11
89.60565091642911
 21
338.5949178784873
 72
     1
 10
89.60565091642911
 20
338.5949178784873
 11
90.94157874285679
 21
338.5949178784873
 72
     1
 10
90.94157874285679
 20
338.5949178784873
 11
90.94157874285679
 21
339.2929314839296
 72
     1
 10
90.94157874285679
 20
339.2929314839296
 11
89.60565091642911
 21
339.2929314839296
 72
     1
 10
89.60565091642911
 20
339.2929314839296
 11
89.60565091642911
 21
339.7728158376713
 72
     1
 10
89.60565091642911
 20
339.7728158376713
 11
90.94157874285679
 21
339.7728158376713
 72
     1
 10
90.94157874285679
 20
339.7728158376713
 11
90.94157874285679
 21
340.4708294431143
 72
     1
 10
90.94157874285679
 20
340.4708294431143
 11
87.7912590190758
 21
340.4708294431143
 97
       12
330
112
330
10C
330
133
330
132
330
131
330
130
330
10D
330
10E
330
10F
330
110
330
1B2
330
111
 92
       16
 93
        4
 72
     2
 10
88.20727106558729
 20
338.9439246812084
 40
0.7717997786797075
 50
141.8795802028371
 51
218.1204197971529
 73
     1
 72
     2
 10
88.007531029241
 20
338.787193503088
 40
0.5179085730134372
 50
218.1204197971511
 51
321.8795802028566
 73
     1
 72
     2
 10
87.80779099289481
 20
338.9439246812084
 40
0.7717997786796023
 50
321.8795802028471
 51
398.1204197971629
 73
     1
 72
     2
 10
88.007531029241
 20
339.1006558593289
 40
0.5179085730135266
 50
38.12041979714334
 51
141.8795802028489
 73
     1
 97
        4
330
1BF
330
1BE
330
1B9
330
1B8
 75
     1
 76
     0
 52
45.0
 41
0.1
 77
     0
 78
     1
 53
45.0
 43
0.0
 44
0.0
 45
-0.0707106781186548
 46
0.0707106781186548
 79
     0
 98
        1
 10
0.0
 20
0.0
  0
HATCH
  5
206
330
71
100
AcDbEntity
  8
1
  6
Continuous
 62
     2
100
AcDbHatch
 10
0.0
 20
0.0
 30
0.0
210
0.0
220
0.0
230
1.0
  2
_USER
 70
     0
 71
     1
 91
        2
 92
        1
 93
       12
 72
     2
 10
87.7912590190758
 20
338.9439246812084
 40
1.526904761905939
 50
90.0
 51
270.0
 73
     1
 72
     1
 10
87.7912590190758
 20
337.4170199193031
 11
90.94157874285679
 21
337.4170199193031
 72
     1
 10
90.94157874285679
 20
337.4170199193031
 11
90.94157874285679
 21
338.1150335247456
 72
     1
 10
90.94157874285679
 20
338.1150335247456
 11
89.60565091642911
 21
338.1150335247456
 72
     1
 10
89.60565091642911
 20
338.1150335247456
 11
89.60565091642911
 21
338.5949178784873
 72
     1
 10
89.60565091642911
 20
338.5949178784873
 11
90.94157874285679
 21
338.5949178784873
 72
     1
 10
90.94157874285679
 20
338.5949178784873
 11
90.94157874285679
 21
339.2929314839296
 72
     1
 10
90.94157874285679
 20
339.2929314839296
 11
89.60565091642911
 21
339.2929314839296
 72
     1
 10
89.60565091642911
 20
339.2929314839296
 11
89.60565091642911
 21
339.7728158376713
 72
     1
 10
89.60565091642911
 20
339.7728158376713
 11
90.94157874285679
 21
339.7728158376713
 72
     1
 10
90.94157874285679
 20
339.7728158376713
 11
90.94157874285679
 21
340.4708294431143
 72
     1
 10
90.94157874285679
 20
340.4708294431143
 11
87.7912590190758
 21
340.4708294431143
 97
       12
330
112
330
10C
330
133
330
132
330
131
330
130
330
10D
330
10E
330
10F
330
110
330
1B2
330
111
 92
       16
 93
        4
 72
     2
 10
88.20727106558729
 20
338.9439246812084
 40
0.7717997786797075
 50
141.8795802028371
 51
218.1204197971529
 73
     1
 72
     2
 10
88.007531029241
 20
338.787193503088
 40
0.5179085730134372
 50
218.1204197971511
 51
321.8795802028566
 73
     1
 72
     2
 10
87.80779099289481
 20
338.9439246812084
 40
0.7717997786796023
 50
321.8795802028471
 51
398.1204197971629
 73
     1
 72
     2
 10
88.007531029241
 20
339.1006558593289
 40
0.5179085730135266
 50
38.12041979714334
 51
141.8795802028489
 73
     1
 97
        4
330
1BF
330
1BE
330
1B9
330
1B8
 75
     1
 76
     0
 52
45.0
 41
0.1
 77
     0
 78
     1
 53
45.0
 43
0.0
 44
0.0
 45
-0.0707106781186548
 46
0.0707106781186548
 79
     0
 98
        1
 10
0.0
 20
0.0
  0
HATCH
  5
207
330
71
100
AcDbEntity
  8
1
  6
Continuous
 62
     2
100
AcDbHatch
 10
0.0
 20
0.0
 30
0.0
210
0.0
220
0.0
230
1.0
  2
_USER
 70
     0
 71
     1
 91
        2
 92
        1
 93
        4
 72
     2
 10
83.7656436566142
 20
335.5847342050341
 40
1.458034083651465
 50
117.548148175663
 51
242.451851824338
 73
     1
 72
     2
 10
84.0465835484475
 20
336.1233092153374
 40
2.065479772208483
 50
242.4518518243399
 51
297.5481481756875
 73
     1
 72
     2
 10
84.3275234402808
 20
335.5847342050341
 40
1.458034083652028
 50
297.5481481757005
 51
422.4518518242985
 73
     1
 72
     2
 10
84.0465835484475
 20
335.0461591947313
 40
2.065479772208593
 50
62.45185182430674
 51
117.548148175666
 73
     1
 97
        4
330
1BD
330
1BA
330
1BC
330
1BB
 92
       16
 93
        4
 72
     2
 10
84.0465835484475
 20
335.7414653831546
 40
0.5179085730132998
 50
38.12041979714704
 51
141.8795802028588
 73
     1
 72
     2
 10
84.2463235847936
 20
335.5847342050341
 40
0.7717997786794457
 50
141.879580202838
 51
218.120419797172
 73
     1
 72
     2
 10
84.0465835484475
 20
335.4280030269141
 40
0.5179085730137529
 50
218.1204197971956
 51
321.8795802027985
 73
     1
 72
     2
 10
83.84684351210109
 20
335.5847342050341
 40
0.7717997786797298
 50
321.8795802028384
 51
398.1204197971516
 73
     1
 97
        4
330
1A0
330
1A1
330
1A2
330
19F
 75
     1
 76
     0
 52
45.0
 41
0.1
 77
     0
 78
     1
 53
45.0
 43
0.0
 44
0.0
 45
-0.0707106781186548
 46
0.0707106781186548
 79
     0
 98
        1
 10
0.0
 20
0.0
  0
HATCH
  5
208
330
71
100
AcDbEntity
  8
1
  6
Continuous
 62
     2
100
AcDbHatch
 10
0.0
 20
0.0
 30
0.0
210
0.0
220
0.0
230
1.0
  2
_USER
 70
     0
 71
     1
 91
        2
 92
        1
 93
        4
 72
     2
 10
83.7656436566142
 20
335.5847342050341
 40
1.458034083651465
 50
117.548148175663
 51
242.451851824338
 73
     1
 72
     2
 10
84.0465835484475
 20
336.1233092153374
 40
2.065479772208483
 50
242.4518518243399
 51
297.5481481756875
 73
     1
 72
     2
 10
84.3275234402808
 20
335.5847342050341
 40
1.458034083652028
 50
297.5481481757005
 51
422.4518518242985
 73
     1
 72
     2
 10
84.0465835484475
 20
335.0461591947313
 40
2.065479772208593
 50
62.45185182430674
 51
117.548148175666
 73
     1
 97
        4
330
1BD
330
1BA
330
1BC
330
1BB
 92
       16
 93
        4
 72
     2
 10
84.0465835484475
 20
335.7414653831546
 40
0.5179085730132998
 50
38.12041979714704
 51
141.8795802028588
 73
     1
 72
     2
 10
84.2463235847936
 20
335.5847342050341
 40
0.7717997786794457
 50
141.879580202838
 51
218.120419797172
 73
     1
 72
     2
 10
84.0465835484475
 20
335.4280030269141
 40
0.5179085730137529
 50
218.1204197971956
 51
321.8795802027985
 73
     1
 72
     2
 10
83.84684351210109
 20
335.5847342050341
 40
0.7717997786797298
 50
321.8795802028384
 51
398.1204197971516
 73
     1
 97
        4
330
1A0
330
1A1
330
1A2
330
19F
 75
     1
 76
     0
 52
45.0
 41
0.1
 77
     0
 78
     1
 53
45.0
 43
0.0
 44
0.0
 45
-0.0707106781186548
 46
0.0707106781186548
 79
     0
 98
        1
 10
0.0
 20
0.0
  0
HATCH
  5
209
330
71
100
AcDbEntity
  8
1
  6
Continuous
 62
     2
100
AcDbHatch
 10
0.0
 20
0.0
 30
0.0
210
0.0
220
0.0
230
1.0
  2
_USER
 70
     0
 71
     1
 91
        2
 92
        1
 93
        6
 72
     1
 10
79.49076880205399
 20
340.4708294431143
 11
79.49076880205399
 21
337.4170199193031
 72
     1
 10
79.49076880205399
 20
337.4170199193031
 11
80.73127321230811
 21
337.4170199193031
 72
     1
 10
80.73127321230811
 20
337.4170199193031
 11
80.73127321230811
 21
338.3600981604469
 72
     1
 10
80.73127321230811
 20
338.3600981604469
 11
81.4900408000884
 21
338.3600981604469
 72
     2
 10
81.4900408000884
 20
339.4154638017806
 40
1.055365641333708
 50
270.0
 51
450.0
 73
     1
 72
     1
 10
81.4900408000884
 20
340.4708294431143
 11
79.49076880205399
 21
340.4708294431143
 97
        6
330
1C7
330
124
330
11A
330
119
330
126
330
125
 92
       16
 93
        4
 72
     1
 10
81.04856827385001
 20
339.8077235976742
 11
80.73127321230811
 21
339.8077235976742
 72
     1
 10
80.73127321230811
 20
339.8077235976742
 11
80.73127321230811
 21
339.101995948332
 72
     1
 10
80.73127321230811
 20
339.101995948332
 11
81.04856827385001
 21
339.101995948332
 72
     2
 10
81.04856827385001
 20
339.4548597730031
 40
0.3528638246710898
 50
270.0
 51
450.0
 73
     1
 97
        4
330
127
330
118
330
128
330
1B3
 75
     1
 76
     0
 52
45.0
 41
0.1
 77
     0
 78
     1
 53
45.0
 43
0.0
 44
0.0
 45
-0.0707106781186548
 46
0.0707106781186548
 79
     0
 98
        1
 10
0.0
 20
0.0
  0
HATCH
  5
20A
330
71
100
AcDbEntity
  8
1
  6
Continuous
 62
     2
100
AcDbHatch
 10
0.0
 20
0.0
 30
0.0
210
0.0
220
0.0
230
1.0
  2
_USER
 70
     0
 71
     1
 91
        2
 92
        1
 93
        6
 72
     1
 10
79.49076880205399
 20
340.4708294431143
 11
79.49076880205399
 21
337.4170199193031
 72
     1
 10
79.49076880205399
 20
337.4170199193031
 11
80.73127321230811
 21
337.4170199193031
 72
     1
 10
80.73127321230811
 20
337.4170199193031
 11
80.73127321230811
 21
338.3600981604469
 72
     1
 10
80.73127321230811
 20
338.3600981604469
 11
81.4900408000884
 21
338.3600981604469
 72
     2
 10
81.4900408000884
 20
339.4154638017806
 40
1.055365641333708
 50
270.0
 51
450.0
 73
     1
 72
     1
 10
81.4900408000884
 20
340.4708294431143
 11
79.49076880205399
 21
340.4708294431143
 97
        6
330
1C7
330
124
330
11A
330
119
330
126
330
125
 92
       16
 93
        4
 72
     1
 10
81.04856827385001
 20
339.8077235976742
 11
80.73127321230811
 21
339.8077235976742
 72
     1
 10
80.73127321230811
 20
339.8077235976742
 11
80.73127321230811
 21
339.101995948332
 72
     1
 10
80.73127321230811
 20
339.101995948332
 11
81.04856827385001
 21
339.101995948332
 72
     2
 10
81.04856827385001
 20
339.4548597730031
 40
0.3528638246710898
 50
270.0
 51
450.0
 73
     1
 97
        4
330
127
330
118
330
128
330
1B3
 75
     1
 76
     0
 52
45.0
 41
0.1
 77
     0
 78
     1
 53
45.0
 43
0.0
 44
0.0
 45
-0.0707106781186548
 46
0.0707106781186548
 79
     0
 98
        1
 10
0.0
 20
0.0
  0
HATCH
  5
20B
330
71
100
AcDbEntity
  8
1
  6
Continuous
 62
     2
100
AcDbHatch
 10
0.0
 20
0.0
 30
0.0
210
0.0
220
0.0
230
1.0
  2
_USER
 70
     0
 71
     1
 91
        1
 92
        1
 93
       12
 72
     1
 10
99.10505199648719
 20
340.4708294431143
 11
100.5077762142344
 21
340.4708294431143
 72
     1
 10
100.5077762142344
 20
340.4708294431143
 11
99.2052465834679
 21
338.9978789130781
 72
     1
 10
99.2052465834679
 20
338.9978789130781
 11
100.6031996304082
 21
337.4170199193031
 72
     1
 10
100.6031996304082
 20
337.4170199193031
 11
99.2004754126599
 21
337.4170199193031
 72
     1
 10
99.2004754126599
 20
337.4170199193031
 11
98.5038844745944
 21
338.2047517045968
 72
     1
 10
98.5038844745944
 20
338.2047517045968
 11
97.8072935365287
 21
337.4170199193031
 72
     1
 10
97.8072935365287
 20
337.4170199193031
 11
96.40456931878049
 21
337.4170199193031
 72
     1
 10
96.40456931878049
 20
337.4170199193031
 11
97.80252236572079
 21
338.9978789130781
 72
     1
 10
97.80252236572079
 20
338.9978789130781
 11
96.49999273495331
 21
340.4708294431143
 72
     1
 10
96.49999273495331
 20
340.4708294431143
 11
97.9027169527026
 21
340.4708294431143
 72
     1
 10
97.9027169527026
 20
340.4708294431143
 11
98.5038844745944
 21
339.7910061215588
 72
     1
 10
98.5038844745944
 20
339.7910061215588
 11
99.10505199648719
 21
340.4708294431143
 97
       12
330
F3
330
14C
330
14B
330
14A
330
149
330
F4
330
F5
330
F1
330
F2
330
14F
330
14E
330
14D
 75
     1
 76
     0
 52
45.0
 41
0.1
 77
     0
 78
     1
 53
45.0
 43
0.0
 44
0.0
 45
-0.0707106781186548
 46
0.0707106781186548
 79
     0
 98
        1
 10
0.0
 20
0.0
  0
HATCH
  5
20C
330
71
100
AcDbEntity
  8
1
  6
Continuous
 62
     2
100
AcDbHatch
 10
0.0
 20
0.0
 30
0.0
210
0.0
220
0.0
230
1.0
  2
_USER
 70
     0
 71
     1
 91
        1
 92
        1
 93
       12
 72
     1
 10
99.10505199648719
 20
340.4708294431143
 11
100.5077762142344
 21
340.4708294431143
 72
     1
 10
100.5077762142344
 20
340.4708294431143
 11
99.2052465834679
 21
338.9978789130781
 72
     1
 10
99.2052465834679
 20
338.9978789130781
 11
100.6031996304082
 21
337.4170199193031
 72
     1
 10
100.6031996304082
 20
337.4170199193031
 11
99.2004754126599
 21
337.4170199193031
 72
     1
 10
99.2004754126599
 20
337.4170199193031
 11
98.5038844745944
 21
338.2047517045968
 72
     1
 10
98.5038844745944
 20
338.2047517045968
 11
97.8072935365287
 21
337.4170199193031
 72
     1
 10
97.8072935365287
 20
337.4170199193031
 11
96.40456931878049
 21
337.4170199193031
 72
     1
 10
96.40456931878049
 20
337.4170199193031
 11
97.80252236572079
 21
338.9978789130781
 72
     1
 10
97.80252236572079
 20
338.9978789130781
 11
96.49999273495331
 21
340.4708294431143
 72
     1
 10
96.49999273495331
 20
340.4708294431143
 11
97.9027169527026
 21
340.4708294431143
 72
     1
 10
97.9027169527026
 20
340.4708294431143
 11
98.5038844745944
 21
339.7910061215588
 72
     1
 10
98.5038844745944
 20
339.7910061215588
 11
99.10505199648719
 21
340.4708294431143
 97
       12
330
F3
330
14C
330
14B
330
14A
330
149
330
F4
330
F5
330
F1
330
F2
330
14F
330
14E
330
14D
 75
     1
 76
     0
 52
45.0
 41
0.1
 77
     0
 78
     1
 53
45.0
 43
0.0
 44
0.0
 45
-0.0707106781186548
 46
0.0707106781186548
 79
     0
 98
        1
 10
0.0
 20
0.0
  0
HATCH
  5
20D
330
71
100
AcDbEntity
  8
1
  6
Continuous
 62
     2
100
AcDbHatch
 10
0.0
 20
0.0
 30
0.0
210
0.0
220
0.0
230
1.0
  2
_USER
 70
     0
 71
     1
 91
        1
 92
        1
 93
        4
 72
     1
 10
96.28529004856361
 20
340.4708294431143
 11
96.28529004856361
 21
337.4170199193031
 72
     1
 10
96.28529004856361
 20
337.4170199193031
 11
95.04478563831071
 21
337.4170199193031
 72
     1
 10
95.04478563831071
 20
337.4170199193031
 11
95.04478563831071
 21
340.4708294431143
 72
     1
 10
95.04478563831071
 20
340.4708294431143
 11
96.28529004856361
 21
340.4708294431143
 97
        4
330
147
330
F6
330
146
330
148
 75
     1
 76
     0
 52
45.0
 41
0.1
 77
     0
 78
     1
 53
45.0
 43
0.0
 44
0.0
 45
-0.0707106781186548
 46
0.0707106781186548
 79
     0
 98
        1
 10
0.0
 20
0.0
  0
HATCH
  5
20E
330
71
100
AcDbEntity
  8
1
  6
Continuous
 62
     2
100
AcDbHatch
 10
0.0
 20
0.0
 30
0.0
210
0.0
220
0.0
230
1.0
  2
_USER
 70
     0
 71
     1
 91
        1
 92
        1
 93
        4
 72
     1
 10
96.28529004856361
 20
340.4708294431143
 11
96.28529004856361
 21
337.4170199193031
 72
     1
 10
96.28529004856361
 20
337.4170199193031
 11
95.04478563831071
 21
337.4170199193031
 72
     1
 10
95.04478563831071
 20
337.4170199193031
 11
95.04478563831071
 21
340.4708294431143
 72
     1
 10
95.04478563831071
 20
340.4708294431143
 11
96.28529004856361
 21
340.4708294431143
 97
        4
330
147
330
F6
330
146
330
148
 75
     1
 76
     0
 52
45.0
 41
0.1
 77
     0
 78
     1
 53
45.0
 43
0.0
 44
0.0
 45
-0.0707106781186548
 46
0.0707106781186548
 79
     0
 98
        1
 10
0.0
 20
0.0
  0
HATCH
  5
20F
330
71
100
AcDbEntity
  8
1
  6
Continuous
 62
     2
100
AcDbHatch
 10
0.0
 20
0.0
 30
0.0
210
0.0
220
0.0
230
1.0
  2
_USER
 70
     0
 71
     1
 91
        2
 92
        1
 93
        8
 72
     1
 10
95.89484604503161
 20
334.0578294431288
 11
94.6543416347777
 21
334.0578294431288
 72
     1
 10
94.6543416347777
 20
334.0578294431288
 11
94.44286158130191
 21
334.5987899873467
 72
     1
 10
94.44286158130191
 20
334.5987899873467
 11
93.3104200046281
 21
334.5987899873467
 72
     1
 10
93.3104200046281
 20
334.5987899873467
 11
93.09893995115229
 21
334.0578294431288
 72
     1
 10
93.09893995115229
 20
334.0578294431288
 11
91.85843554089931
 21
334.0578294431288
 72
     1
 10
91.85843554089931
 20
334.0578294431288
 11
93.25638858783861
 21
337.1116389669399
 72
     1
 10
93.25638858783861
 20
337.1116389669399
 11
94.49689299809131
 21
337.1116389669399
 72
     1
 10
94.49689299809131
 20
337.1116389669399
 11
95.89484604503161
 21
334.0578294431288
 97
        8
330
142
330
FC
330
141
330
144
330
F9
330
143
330
FA
330
FB
 92
       16
 93
        3
 72
     1
 10
93.5764755557731
 20
335.2793532526533
 11
94.1768060301556
 21
335.2793532526533
 72
     1
 10
94.1768060301556
 20
335.2793532526533
 11
93.8766407929655
 21
336.04716821864
 72
     1
 10
93.8766407929655
 20
336.04716821864
 11
93.5764755557731
 21
335.2793532526533
 97
        3
330
F8
330
F7
330
145
 75
     1
 76
     0
 52
45.0
 41
0.1
 77
     0
 78
     1
 53
45.0
 43
0.0
 44
0.0
 45
-0.0707106781186548
 46
0.0707106781186548
 79
     0
 98
        1
 10
0.0
 20
0.0
  0
HATCH
  5
210
330
71
100
AcDbEntity
  8
1
  6
Continuous
 62
     2
100
AcDbHatch
 10
0.0
 20
0.0
 30
0.0
210
0.0
220
0.0
230
1.0
  2
_USER
 70
     0
 71
     1
 91
        2
 92
        1
 93
        8
 72
     1
 10
95.89484604503161
 20
334.0578294431288
 11
94.6543416347777
 21
334.0578294431288
 72
     1
 10
94.6543416347777
 20
334.0578294431288
 11
94.44286158130191
 21
334.5987899873467
 72
     1
 10
94.44286158130191
 20
334.5987899873467
 11
93.3104200046281
 21
334.5987899873467
 72
     1
 10
93.3104200046281
 20
334.5987899873467
 11
93.09893995115229
 21
334.0578294431288
 72
     1
 10
93.09893995115229
 20
334.0578294431288
 11
91.85843554089931
 21
334.0578294431288
 72
     1
 10
91.85843554089931
 20
334.0578294431288
 11
93.25638858783861
 21
337.1116389669399
 72
     1
 10
93.25638858783861
 20
337.1116389669399
 11
94.49689299809131
 21
337.1116389669399
 72
     1
 10
94.49689299809131
 20
337.1116389669399
 11
95.89484604503161
 21
334.0578294431288
 97
        8
330
142
330
FC
330
141
330
144
330
F9
330
143
330
FA
330
FB
 92
       16
 93
        3
 72
     1
 10
93.5764755557731
 20
335.2793532526533
 11
94.1768060301556
 21
335.2793532526533
 72
     1
 10
94.1768060301556
 20
335.2793532526533
 11
93.8766407929655
 21
336.04716821864
 72
     1
 10
93.8766407929655
 20
336.04716821864
 11
93.5764755557731
 21
335.2793532526533
 97
        3
330
F8
330
F7
330
145
 75
     1
 76
     0
 52
45.0
 41
0.1
 77
     0
 78
     1
 53
45.0
 43
0.0
 44
0.0
 45
-0.0707106781186548
 46
0.0707106781186548
 79
     0
 98
        1
 10
0.0
 20
0.0
  0
HATCH
  5
211
330
71
100
AcDbEntity
  8
1
  6
Continuous
 62
     2
100
AcDbHatch
 10
0.0
 20
0.0
 30
0.0
210
0.0
220
0.0
230
1.0
  2
_USER
 70
     0
 71
     1
 91
        1
 92
        1
 93
        8
 72
     1
 10
89.70092340171709
 20
337.1116389669399
 11
89.70092340171709
 21
336.3263736608163
 72
     1
 10
89.70092340171709
 20
336.3263736608163
 11
90.5120224391917
 21
336.3263736608163
 72
     1
 10
90.5120224391917
 20
336.3263736608163
 11
90.5120224391917
 21
334.0578294431288
 72
     1
 10
90.5120224391917
 20
334.0578294431288
 11
91.70481514135821
 21
334.0578294431288
 72
     1
 10
91.70481514135821
 20
334.0578294431288
 11
91.70481514135821
 21
336.3263736608163
 72
     1
 10
91.70481514135821
 20
336.3263736608163
 11
92.51591417883071
 21
336.3263736608163
 72
     1
 10
92.51591417883071
 20
336.3263736608163
 11
92.51591417883071
 21
337.1116389669399
 72
     1
 10
92.51591417883071
 20
337.1116389669399
 11
89.70092340171709
 21
337.1116389669399
 97
        8
330
13E
330
13D
330
13C
330
FD
330
FE
330
140
330
FF
330
13F
 75
     1
 76
     0
 52
45.0
 41
0.1
 77
     0
 78
     1
 53
45.0
 43
0.0
 44
0.0
 45
-0.0707106781186548
 46
0.0707106781186548
 79
     0
 98
        1
 10
0.0
 20
0.0
  0
HATCH
  5
212
330
71
100
AcDbEntity
  8
1
  6
Continuous
 62
     2
100
AcDbHatch
 10
0.0
 20
0.0
 30
0.0
210
0.0
220
0.0
230
1.0
  2
_USER
 70
     0
 71
     1
 91
        1
 92
        1
 93
        8
 72
     1
 10
89.70092340171709
 20
337.1116389669399
 11
89.70092340171709
 21
336.3263736608163
 72
     1
 10
89.70092340171709
 20
336.3263736608163
 11
90.5120224391917
 21
336.3263736608163
 72
     1
 10
90.5120224391917
 20
336.3263736608163
 11
90.5120224391917
 21
334.0578294431288
 72
     1
 10
90.5120224391917
 20
334.0578294431288
 11
91.70481514135821
 21
334.0578294431288
 72
     1
 10
91.70481514135821
 20
334.0578294431288
 11
91.70481514135821
 21
336.3263736608163
 72
     1
 10
91.70481514135821
 20
336.3263736608163
 11
92.51591417883071
 21
336.3263736608163
 72
     1
 10
92.51591417883071
 20
336.3263736608163
 11
92.51591417883071
 21
337.1116389669399
 72
     1
 10
92.51591417883071
 20
337.1116389669399
 11
89.70092340171709
 21
337.1116389669399
 97
        8
330
13E
330
13D
330
13C
330
FD
330
FE
330
140
330
FF
330
13F
 75
     1
 76
     0
 52
45.0
 41
0.1
 77
     0
 78
     1
 53
45.0
 43
0.0
 44
0.0
 45
-0.0707106781186548
 46
0.0707106781186548
 79
     0
 98
        1
 10
0.0
 20
0.0
  0
HATCH
  5
213
330
71
100
AcDbEntity
  8
1
  6
Continuous
 62
     2
100
AcDbHatch
 10
0.0
 20
0.0
 30
0.0
210
0.0
220
0.0
230
1.0
  2
_USER
 70
     0
 71
     1
 91
        1
 92
        1
 93
       10
 72
     1
 10
92.37292998545621
 20
340.4708294431143
 11
91.1801372832897
 21
340.4708294431143
 72
     1
 10
91.1801372832897
 20
340.4708294431143
 11
91.1801372832897
 21
337.4170199193031
 72
     1
 10
91.1801372832897
 20
337.4170199193031
 11
92.37292998545621
 21
337.4170199193031
 72
     1
 10
92.37292998545621
 20
337.4170199193031
 11
92.37292998545621
 21
338.7257954295078
 72
     1
 10
92.37292998545621
 20
338.7257954295078
 11
93.61343439571021
 21
337.4170199193031
 72
     1
 10
93.61343439571021
 20
337.4170199193031
 11
94.80622709787681
 21
337.4170199193031
 72
     1
 10
94.80622709787681
 20
337.4170199193031
 11
94.80622709787681
 21
340.4708294431143
 72
     1
 10
94.80622709787681
 20
340.4708294431143
 11
93.61343439571021
 21
340.4708294431143
 72
     1
 10
93.61343439571021
 20
340.4708294431143
 11
93.61343439571021
 21
339.1620539329091
 72
     1
 10
93.61343439571021
 20
339.1620539329091
 11
92.37292998545621
 21
340.4708294431143
 97
       10
330
138
330
102
330
103
330
104
330
105
330
13B
330
100
330
13A
330
139
330
101
 75
     1
 76
     0
 52
45.0
 41
0.1
 77
     0
 78
     1
 53
45.0
 43
0.0
 44
0.0
 45
-0.0707106781186548
 46
0.0707106781186548
 79
     0
 98
        1
 10
0.0
 20
0.0
  0
HATCH
  5
214
330
71
100
AcDbEntity
  8
1
  6
Continuous
 62
     2
100
AcDbHatch
 10
0.0
 20
0.0
 30
0.0
210
0.0
220
0.0
230
1.0
  2
_USER
 70
     0
 71
     1
 91
        1
 92
        1
 93
       10
 72
     1
 10
92.37292998545621
 20
340.4708294431143
 11
91.1801372832897
 21
340.4708294431143
 72
     1
 10
91.1801372832897
 20
340.4708294431143
 11
91.1801372832897
 21
337.4170199193031
 72
     1
 10
91.1801372832897
 20
337.4170199193031
 11
92.37292998545621
 21
337.4170199193031
 72
     1
 10
92.37292998545621
 20
337.4170199193031
 11
92.37292998545621
 21
338.7257954295078
 72
     1
 10
92.37292998545621
 20
338.7257954295078
 11
93.61343439571021
 21
337.4170199193031
 72
     1
 10
93.61343439571021
 20
337.4170199193031
 11
94.80622709787681
 21
337.4170199193031
 72
     1
 10
94.80622709787681
 20
337.4170199193031
 11
94.80622709787681
 21
340.4708294431143
 72
     1
 10
94.80622709787681
 20
340.4708294431143
 11
93.61343439571021
 21
340.4708294431143
 72
     1
 10
93.61343439571021
 20
340.4708294431143
 11
93.61343439571021
 21
339.1620539329091
 72
     1
 10
93.61343439571021
 20
339.1620539329091
 11
92.37292998545621
 21
340.4708294431143
 97
       10
330
138
330
102
330
103
330
104
330
105
330
13B
330
100
330
13A
330
139
330
101
 75
     1
 76
     0
 52
45.0
 41
0.1
 77
     0
 78
     1
 53
45.0
 43
0.0
 44
0.0
 45
-0.0707106781186548
 46
0.0707106781186548
 79
     0
 98
        1
 10
0.0
 20
0.0
  0
HATCH
  5
215
330
71
100
AcDbEntity
  8
1
  6
Continuous
 62
     2
100
AcDbHatch
 10
0.0
 20
0.0
 30
0.0
210
0.0
220
0.0
230
1.0
  2
_USER
 70
     0
 71
     1
 91
        1
 92
        1
 93
       10
 72
     1
 10
87.1244911650376
 20
337.1116389669399
 11
85.93169846287
 21
337.1116389669399
 72
     1
 10
85.93169846287
 20
337.1116389669399
 11
85.93169846287
 21
334.0578294431288
 72
     1
 10
85.93169846287
 20
334.0578294431288
 11
87.1244911650376
 21
334.0578294431288
 72
     1
 10
87.1244911650376
 20
334.0578294431288
 11
87.1244911650376
 21
335.3666049533334
 72
     1
 10
87.1244911650376
 20
335.3666049533334
 11
88.3649955752905
 21
334.0578294431288
 72
     1
 10
88.3649955752905
 20
334.0578294431288
 11
89.5577882774569
 21
334.0578294431288
 72
     1
 10
89.5577882774569
 20
334.0578294431288
 11
89.5577882774569
 21
337.1116389669399
 72
     1
 10
89.5577882774569
 20
337.1116389669399
 11
88.3649955752905
 21
337.1116389669399
 72
     1
 10
88.3649955752905
 20
337.1116389669399
 11
88.3649955752905
 21
335.8028634567348
 72
     1
 10
88.3649955752905
 20
335.8028634567348
 11
87.1244911650376
 21
337.1116389669399
 97
       10
330
107
330
108
330
109
330
135
330
10A
330
10B
330
134
330
137
330
136
330
106
 75
     1
 76
     0
 52
45.0
 41
0.1
 77
     0
 78
     1
 53
45.0
 43
0.0
 44
0.0
 45
-0.0707106781186548
 46
0.0707106781186548
 79
     0
 98
        1
 10
0.0
 20
0.0
  0
HATCH
  5
216
330
71
100
AcDbEntity
  8
1
  6
Continuous
 62
     2
100
AcDbHatch
 10
0.0
 20
0.0
 30
0.0
210
0.0
220
0.0
230
1.0
  2
_USER
 70
     0
 71
     1
 91
        1
 92
        1
 93
       10
 72
     1
 10
87.1244911650376
 20
337.1116389669399
 11
85.93169846287
 21
337.1116389669399
 72
     1
 10
85.93169846287
 20
337.1116389669399
 11
85.93169846287
 21
334.0578294431288
 72
     1
 10
85.93169846287
 20
334.0578294431288
 11
87.1244911650376
 21
334.0578294431288
 72
     1
 10
87.1244911650376
 20
334.0578294431288
 11
87.1244911650376
 21
335.3666049533334
 72
     1
 10
87.1244911650376
 20
335.3666049533334
 11
88.3649955752905
 21
334.0578294431288
 72
     1
 10
88.3649955752905
 20
334.0578294431288
 11
89.5577882774569
 21
334.0578294431288
 72
     1
 10
89.5577882774569
 20
334.0578294431288
 11
89.5577882774569
 21
337.1116389669399
 72
     1
 10
89.5577882774569
 20
337.1116389669399
 11
88.3649955752905
 21
337.1116389669399
 72
     1
 10
88.3649955752905
 20
337.1116389669399
 11
88.3649955752905
 21
335.8028634567348
 72
     1
 10
88.3649955752905
 20
335.8028634567348
 11
87.1244911650376
 21
337.1116389669399
 97
       10
330
107
330
108
330
109
330
135
330
10A
330
10B
330
134
330
137
330
136
330
106
 75
     1
 76
     0
 52
45.0
 41
0.1
 77
     0
 78
     1
 53
45.0
 43
0.0
 44
0.0
 45
-0.0707106781186548
 46
0.0707106781186548
 79
     0
 98
        1
 10
0.0
 20
0.0
  0
HATCH
  5
217
330
71
100
AcDbEntity
  8
1
  6
Continuous
 62
     2
100
AcDbHatch
 10
0.0
 20
0.0
 30
0.0
210
0.0
220
0.0
230
1.0
  2
_USER
 70
     0
 71
     1
 91
        1
 92
        1
 93
       12
 72
     1
 10
86.12269622610219
 20
340.4708294431143
 11
86.12269622610219
 21
337.4170199193031
 72
     1
 10
86.12269622610219
 20
337.4170199193031
 11
84.92990352393579
 21
337.4170199193031
 72
     1
 10
84.92990352393579
 20
337.4170199193031
 11
84.92990352393579
 21
338.5512920281469
 72
     1
 10
84.92990352393579
 20
338.5512920281469
 11
83.88024594602831
 21
338.5512920281469
 72
     1
 10
83.88024594602831
 20
338.5512920281469
 11
83.88024594602831
 21
337.4170199193031
 72
     1
 10
83.88024594602831
 20
337.4170199193031
 11
82.68745324386171
 21
337.4170199193031
 72
     1
 10
82.68745324386171
 20
337.4170199193031
 11
82.68745324386171
 21
340.4708294431143
 72
     1
 10
82.68745324386171
 20
340.4708294431143
 11
83.88024594602831
 21
340.4708294431143
 72
     1
 10
83.88024594602831
 20
340.4708294431143
 11
83.88024594602831
 21
339.4019961097797
 72
     1
 10
83.88024594602831
 20
339.4019961097797
 11
84.92990352393579
 21
339.4019961097797
 72
     1
 10
84.92990352393579
 20
339.4019961097797
 11
84.92990352393579
 21
340.4708294431143
 72
     1
 10
84.92990352393579
 20
340.4708294431143
 11
86.12269622610219
 21
340.4708294431143
 97
       12
330
12F
330
12E
330
12D
330
115
330
116
330
12C
330
117
330
12B
330
12A
330
129
330
113
330
114
 75
     1
 76
     0
 52
45.0
 41
0.1
 77
     0
 78
     1
 53
45.0
 43
0.0
 44
0.0
 45
-0.0707106781186548
 46
0.0707106781186548
 79
     0
 98
        1
 10
0.0
 20
0.0
  0
HATCH
  5
218
330
71
100
AcDbEntity
  8
1
  6
Continuous
 62
     2
100
AcDbHatch
 10
0.0
 20
0.0
 30
0.0
210
0.0
220
0.0
230
1.0
  2
_USER
 70
     0
 71
     1
 91
        1
 92
        1
 93
       12
 72
     1
 10
86.12269622610219
 20
340.4708294431143
 11
86.12269622610219
 21
337.4170199193031
 72
     1
 10
86.12269622610219
 20
337.4170199193031
 11
84.92990352393579
 21
337.4170199193031
 72
     1
 10
84.92990352393579
 20
337.4170199193031
 11
84.92990352393579
 21
338.5512920281469
 72
     1
 10
84.92990352393579
 20
338.5512920281469
 11
83.88024594602831
 21
338.5512920281469
 72
     1
 10
83.88024594602831
 20
338.5512920281469
 11
83.88024594602831
 21
337.4170199193031
 72
     1
 10
83.88024594602831
 20
337.4170199193031
 11
82.68745324386171
 21
337.4170199193031
 72
     1
 10
82.68745324386171
 20
337.4170199193031
 11
82.68745324386171
 21
340.4708294431143
 72
     1
 10
82.68745324386171
 20
340.4708294431143
 11
83.88024594602831
 21
340.4708294431143
 72
     1
 10
83.88024594602831
 20
340.4708294431143
 11
83.88024594602831
 21
339.4019961097797
 72
     1
 10
83.88024594602831
 20
339.4019961097797
 11
84.92990352393579
 21
339.4019961097797
 72
     1
 10
84.92990352393579
 20
339.4019961097797
 11
84.92990352393579
 21
340.4708294431143
 72
     1
 10
84.92990352393579
 20
340.4708294431143
 11
86.12269622610219
 21
340.4708294431143
 97
       12
330
12F
330
12E
330
12D
330
115
330
116
330
12C
330
117
330
12B
330
12A
330
129
330
113
330
114
 75
     1
 76
     0
 52
45.0
 41
0.1
 77
     0
 78
     1
 53
45.0
 43
0.0
 44
0.0
 45
-0.0707106781186548
 46
0.0707106781186548
 79
     0
 98
        1
 10
0.0
 20
0.0
  0
ENDBLK
  5
73
330
71
100
AcDbEntity
  8
0
100
AcDbBlockEnd
  0
BLOCK
  5
75
330
74
100
AcDbEntity
  8
0
100
AcDbBlockBegin
  2
_punkt
 70
     0
 10
198.0000000398911
 20
326.7643294431125
 30
0.0
  3
_punkt
  1

  0
LINE
  5
219
330
74
100
AcDbEntity
  8
1
  6
Continuous
 62
     2
100
AcDbLine
 10
198.0000000398911
 20
326.7643294431125
 30
0.0
 11
198.0000000398911
 21
321.7643294431124
 31
0.0
  0
LINE
  5
21A
330
74
100
AcDbEntity
  8
1
  6
Continuous
 62
     2
100
AcDbLine
 10
198.0000000398911
 20
326.7643294431125
 30
0.0
 11
203.0000000398901
 21
326.7643294431125
 31
0.0
  0
ENDBLK
  5
76
330
74
100
AcDbEntity
  8
0
100
AcDbBlockEnd
  0
BLOCK
  5
7A
330
77
100
AcDbEntity
  8
0
100
AcDbBlockBegin
  2
A4I_CS
 70
     0
 10
198.0000000398911
 20
321.7643294431124
 30
0.0
  3
A4I_CS
  1

  0
INSERT
  5
78
330
77
100
AcDbEntity
  8
1
100
AcDbBlockReference
  2
_rahmen
 10
198.0000000398911
 20
321.7643294431124
 30
0.0
  0
INSERT
  5
79
330
77
100
AcDbEntity
  8
1
100
AcDbBlockReference
  2
_punkt
 10
198.0000000398911
 20
326.7643294431125
 30
0.0
  0
ENDBLK
  5
7B
330
77
100
AcDbEntity
  8
0
100
AcDbBlockEnd
  0
BLOCK
  5
84
330
7C
100
AcDbEntity
  8
0
100
AcDbBlockBegin
  2
1
 70
     0
 10
0.0
 20
0.0
 30
0.0
  3
1
  1

  0
INSERT
  5
7D
330
7C
100
AcDbEntity
  8
0
100
AcDbBlockReference
  2
AllgSicht1
 10
137.9999999999996
 20
394.0
 30
0.0
  0
INSERT
  5
7E
330
7C
100
AcDbEntity
  8
0
100
AcDbBlockReference
  2
Drfsicht1
 10
11.0
 20
407.00000000001
 30
0.0
  0
INSERT
  5
7F
330
7C
100
AcDbEntity
  8
0
100
AcDbBlockReference
  2
Rckans1
 10
125.9999985694886
 20
466.8500005006791
 30
0.0
  0
INSERT
  5
80
330
7C
100
AcDbEntity
  8
0
100
AcDbBlockReference
  2
SA_Links1
 10
73.49999928473902
 20
466.850000500679
 30
0.0
  0
INSERT
  5
81
330
7C
100
AcDbEntity
  8
0
100
AcDbBlockReference
  2
SA_Rechts1
 10
-43.49999928473403
 20
466.8500005006791
 30
0.0
  0
INSERT
  5
82
330
7C
100
AcDbEntity
  8
0
100
AcDbBlockReference
  2
Vordans1
 10
10.99999999999984
 20
466.850000500679
 30
0.0
  0
INSERT
  5
83
330
7C
100
AcDbEntity
  8
0
100
AcDbBlockReference
  2
A4I_CS
 10
198.0000000398911
 20
321.7643294431124
 30
0.0
  0
ENDBLK
  5
85
330
7C
100
AcDbEntity
  8
0
100
AcDbBlockEnd
  0
BLOCK
  5
AA
330
A1
100
AcDbEntity
  8
0
100
AcDbBlockBegin
  2
*D17
 70
     1
 10
0.0
 20
0.0
 30
0.0
  3
*D17
  1

  0
LINE
  5
A2
330
A1
100
AcDbEntity
  8
1
  6
Continuous
 62
     2
100
AcDbLine
 10
52.74743312477609
 20
398.900000023857
 30
0.0
 11
52.74743312477609
 21
405.900000023857
 31
0.0
  0
LINE
  5
A3
330
A1
100
AcDbEntity
  8
1
  6
Continuous
 62
     2
100
AcDbLine
 10
52.74743312477609
 20
405.900000023857
 30
0.0
 11
52.74743312477609
 21
408.1000000238569
 31
0.0
  0
LINE
  5
A4
330
A1
100
AcDbEntity
  8
1
  6
Continuous
 62
     2
100
AcDbLine
 10
52.74743312477609
 20
408.1000000238569
 30
0.0
 11
52.74743312477609
 21
421.186256172513
 31
0.0
  0
LINE
  5
A5
330
A1
100
AcDbEntity
  8
1
  6
Continuous
 62
     2
100
AcDbLine
 10
41.49999920497243
 20
405.900000023857
 30
0.0
 11
54.74743312477609
 21
405.900000023857
 31
0.0
  0
LINE
  5
A6
330
A1
100
AcDbEntity
  8
1
  6
Continuous
 62
     2
100
AcDbLine
 10
41.49999920497243
 20
408.1000000238569
 30
0.0
 11
54.74743312477609
 21
408.1000000238569
 31
0.0
  0
SOLID
  5
A7
330
A1
100
AcDbEntity
  8
1
 62
     2
100
AcDbTrace
 10
53.20821686633198
 20
402.400000023857
 30
0.0
 11
52.28664938322021
 21
402.400000023857
 31
0.0
 12
52.74743312477609
 22
405.900000023857
 32
0.0
 13
52.74743312477609
 23
405.900000023857
 33
0.0
  0
SOLID
  5
A8
330
A1
100
AcDbEntity
  8
1
 62
     2
100
AcDbTrace
 10
52.28664938322021
 20
411.6000000238569
 30
0.0
 11
53.20821686633198
 21
411.6000000238569
 31
0.0
 12
52.74743312477609
 22
408.1000000238569
 32
0.0
 13
52.74743312477609
 23
408.1000000238569
 33
0.0
  0
MTEXT
  5
A9
330
A1
100
AcDbEntity
  8
1
 62
     3
100
AcDbMText
 10
50.3974331247761
 20
414.711256172513
 30
0.0
 40
3.5
 41
0.0
 71
     7
 72
     1
  1
2,2
  7
CONVERTER_11
 11
0.0
 21
1.0
 31
0.0
 73
     1
 44
0.60024009603842
  0
ENDBLK
  5
AB
330
A1
100
AcDbEntity
  8
0
100
AcDbBlockEnd
  0
BLOCK
  5
D3
330
CC
100
AcDbEntity
  8
0
100
AcDbBlockBegin
  2
*D18
 70
     1
 10
0.0
 20
0.0
 30
0.0
  3
*D18
  1

  0
LINE
  5
CD
330
CC
100
AcDbEntity
  8
1
  6
Continuous
 62
     2
100
AcDbLine
 10
55.73780314449986
 20
446.1000002312961
 30
0.0
 11
55.73780314449986
 21
487.6000002312962
 31
0.0
  0
LINE
  5
CE
330
CC
100
AcDbEntity
  8
1
  6
Continuous
 62
     2
100
AcDbLine
 10
41.49999920497228
 20
446.1000002312961
 30
0.0
 11
57.73780314449986
 21
446.1000002312961
 31
0.0
  0
LINE
  5
CF
330
CC
100
AcDbEntity
  8
1
  6
Continuous
 62
     2
100
AcDbLine
 10
35.19999920497229
 20
487.6000002312962
 30
0.0
 11
57.73780314449986
 21
487.6000002312962
 31
0.0
  0
SOLID
  5
D0
330
CC
100
AcDbEntity
  8
1
 62
     2
100
AcDbTrace
 10
55.27701940294398
 20
449.6000002312961
 30
0.0
 11
56.19858688605575
 21
449.6000002312961
 31
0.0
 12
55.73780314449986
 22
446.1000002312961
 32
0.0
 13
55.73780314449986
 23
446.1000002312961
 33
0.0
  0
SOLID
  5
D1
330
CC
100
AcDbEntity
  8
1
 62
     2
100
AcDbTrace
 10
56.19858688605575
 20
484.1000002312962
 30
0.0
 11
55.27701940294398
 21
484.1000002312962
 31
0.0
 12
55.73780314449986
 22
487.6000002312962
 32
0.0
 13
55.73780314449986
 23
487.6000002312962
 33
0.0
  0
MTEXT
  5
D2
330
CC
100
AcDbEntity
  8
1
 62
     3
100
AcDbMText
 10
53.38780314449987
 20
463.8330778687649
 30
0.0
 40
3.5
 41
0.0
 71
     7
 72
     1
  1
41,5
  7
CONVERTER_11
 11
0.0
 21
1.0
 31
0.0
 73
     1
 44
0.60024009603842
  0
ENDBLK
  5
D4
330
CC
100
AcDbEntity
  8
0
100
AcDbBlockEnd
  0
BLOCK
  5
DE
330
D7
100
AcDbEntity
  8
0
100
AcDbBlockBegin
  2
*D19
 70
     1
 10
0.0
 20
0.0
 30
0.0
  3
*D19
  1

  0
LINE
  5
D8
330
D7
100
AcDbEntity
  8
1
  6
Continuous
 62
     2
100
AcDbLine
 10
-19.50000079502776
 20
430.3139364486469
 30
0.0
 11
41.4999992049723
 21
430.3139364486469
 31
0.0
  0
LINE
  5
D9
330
D7
100
AcDbEntity
  8
1
  6
Continuous
 62
     2
100
AcDbLine
 10
-19.50000079502776
 20
446.1000002312962
 30
0.0
 11
-19.50000079502776
 21
428.3139364486469
 31
0.0
  0
LINE
  5
DA
330
D7
100
AcDbEntity
  8
1
  6
Continuous
 62
     2
100
AcDbLine
 10
41.4999992049723
 20
446.1000002312962
 30
0.0
 11
41.4999992049723
 21
428.3139364486469
 31
0.0
  0
SOLID
  5
DB
330
D7
100
AcDbEntity
  8
1
 62
     2
100
AcDbTrace
 10
-16.00000079502776
 20
430.7747201902028
 30
0.0
 11
-16.00000079502776
 21
429.8531527070911
 31
0.0
 12
-19.50000079502776
 22
430.3139364486469
 32
0.0
 13
-19.50000079502776
 23
430.3139364486469
 33
0.0
  0
SOLID
  5
DC
330
D7
100
AcDbEntity
  8
1
 62
     2
100
AcDbTrace
 10
37.9999992049723
 20
429.8531527070911
 30
0.0
 11
37.9999992049723
 21
430.7747201902028
 31
0.0
 12
41.4999992049723
 22
430.3139364486469
 32
0.0
 13
41.4999992049723
 23
430.3139364486469
 33
0.0
  0
MTEXT
  5
DD
330
D7
100
AcDbEntity
  8
1
 62
     3
100
AcDbMText
 10
7.24968637921388
 20
432.3139364486469
 30
0.0
 40
3.5
 41
0.0
 71
     7
 72
     1
  1
61
  7
CONVERTER_11
 11
0.9999999999970619
 21
2.424068405545306E-6
 31
0.0
 73
     1
 44
0.60024009603842
  0
ENDBLK
  5
DF
330
D7
100
AcDbEntity
  8
0
100
AcDbBlockEnd
  0
ENDSEC
  0
SECTION
  2
ENTITIES
  0
INSERT
  5
86
330
1F
100
AcDbEntity
  8
1
100
AcDbBlockReference
  2
1
 10
0.0
 20
0.0
 30
0.0
  0
ENDSEC
  0
SECTION
  2
OBJECTS
  0
DICTIONARY
  5
C
330
0
100
AcDbDictionary
281
     1
  3
ACAD_GROUP
350
D
  3
ACAD_LAYOUT
350
1A
  3
ACAD_MATERIAL
350
3B
  3
ACAD_MLEADERSTYLE
350
242
  3
ACAD_MLINESTYLE
350
17
  3
ACAD_PLOTSETTINGS
350
19
  3
ACAD_PLOTSTYLENAME
350
E
  3
ACAD_TABLESTYLE
350
241
  3
ACAD_VISUALSTYLE
350
2A
  0
DICTIONARY
  5
D
102
{ACAD_REACTORS
330
C
102
}
330
C
100
AcDbDictionary
281
     1
  0
DICTIONARY
  5
1A
102
{ACAD_REACTORS
330
C
102
}
330
C
100
AcDbDictionary
281
     1
  3
Layout1
350
1E
  3
Layout2
350
26
  3
Model
350
22
  0
DICTIONARY
  5
3B
102
{ACAD_REACTORS
330
C
102
}
330
C
100
AcDbDictionary
281
     1
  3
ByBlock
350
3D
  3
ByLayer
350
3C
  3
Global
350
3E
  0
DICTIONARY
  5
242
102
{ACAD_REACTORS
330
C
102
}
330
C
100
AcDbDictionary
281
     1
  0
DICTIONARY
  5
17
102
{ACAD_REACTORS
330
C
102
}
330
C
100
AcDbDictionary
281
     1
  3
Standard
350
18
  0
DICTIONARY
  5
19
102
{ACAD_REACTORS
330
C
102
}
330
C
100
AcDbDictionary
281
     1
  0
ACDBDICTIONARYWDFLT
  5
E
102
{ACAD_REACTORS
330
C
102
}
330
C
100
AcDbDictionary
281
     1
  3
Normal
350
F
100
AcDbDictionaryWithDefault
340
F
  0
DICTIONARY
  5
241
102
{ACAD_REACTORS
330
C
102
}
330
C
100
AcDbDictionary
281
     1
  0
DICTIONARY
  5
2A
102
{ACAD_REACTORS
330
C
102
}
330
C
100
AcDbDictionary
281
     1
  3
2dWireframe
350
2F
  3
3D Hidden
350
31
  3
3dWireframe
350
30
  3
Basic
350
32
  3
Brighten
350
36
  3
ColorChange
350
3A
  3
Conceptual
350
34
  3
Dim
350
35
  3
Facepattern
350
39
  3
Flat
350
2B
  3
FlatWithEdges
350
2C
  3
Gouraud
350
2D
  3
GouraudWithEdges
350
2E
  3
Linepattern
350
38
  3
Realistic
350
33
  3
Thicken
350
37
  0
LAYOUT
  5
1E
102
{ACAD_REACTORS
330
1A
102
}
330
1A
100
AcDbPlotSettings
  1

  2
none_device
  4

  6

 40
0.0
 41
0.0
 42
0.0
 43
0.0
 44
0.0
 45
0.0
 46
0.0
 47
0.0
 48
0.0
 49
0.0
140
0.0
141
0.0
142
1.0
143
1.0
 70
   688
 72
     0
 73
     0
 74
     5
  7

 75
    16
 76
     0
 77
     2
 78
   300
147
1.0
148
0.0
149
0.0
100
AcDbLayout
  1
Layout1
 70
     1
 71
     1
 10
0.0
 20
0.0
 11
12.0
 21
9.0
 12
0.0
 22
0.0
 32
0.0
 14
1.00000000000000E+20
 24
1.00000000000000E+20
 34
1.00000000000000E+20
 15
-1.00000000000000E+20
 25
-1.00000000000000E+20
 35
-1.00000000000000E+20
146
0.0
 13
0.0
 23
0.0
 33
0.0
 16
1.0
 26
0.0
 36
0.0
 17
0.0
 27
1.0
 37
0.0
 76
     0
330
1B
  0
LAYOUT
  5
26
102
{ACAD_REACTORS
330
1A
102
}
330
1A
100
AcDbPlotSettings
  1

  2
none_device
  4

  6

 40
0.0
 41
0.0
 42
0.0
 43
0.0
 44
0.0
 45
0.0
 46
0.0
 47
0.0
 48
0.0
 49
0.0
140
0.0
141
0.0
142
1.0
143
1.0
 70
   688
 72
     0
 73
     0
 74
     5
  7

 75
    16
 76
     0
 77
     2
 78
   300
147
1.0
148
0.0
149
0.0
100
AcDbLayout
  1
Layout2
 70
     1
 71
     2
 10
0.0
 20
0.0
 11
0.0
 21
0.0
 12
0.0
 22
0.0
 32
0.0
 14
0.0
 24
0.0
 34
0.0
 15
0.0
 25
0.0
 35
0.0
146
0.0
 13
0.0
 23
0.0
 33
0.0
 16
1.0
 26
0.0
 36
0.0
 17
0.0
 27
1.0
 37
0.0
 76
     0
330
23
  0
LAYOUT
  5
22
102
{ACAD_REACTORS
330
1A
102
}
330
1A
100
AcDbPlotSettings
  1

  2
none_device
  4

  6

 40
0.0
 41
0.0
 42
0.0
 43
0.0
 44
0.0
 45
0.0
 46
0.0
 47
0.0
 48
0.0
 49
0.0
140
0.0
141
0.0
142
1.0
143
1.0
 70
  1712
 72
     0
 73
     0
 74
     0
  7

 75
     0
 76
     0
 77
     2
 78
   300
147
1.0
148
0.0
149
0.0
100
AcDbLayout
  1
Model
 70
     1
 71
     0
 10
0.0
 20
0.0
 11
12.0
 21
9.0
 12
0.0
 22
0.0
 32
0.0
 14
-93.99999996010797
 24
321.7643294431124
 34
0.0
 15
203.0000000398901
 25
531.7643294431125
 35
0.0
146
0.0
 13
0.0
 23
0.0
 33
0.0
 16
1.0
 26
0.0
 36
0.0
 17
0.0
 27
1.0
 37
0.0
 76
     0
330
1F
331
29
  0
MATERIAL
  5
3D
102
{ACAD_REACTORS
330
3B
102
}
102
{ACAD_XDICTIONARY
360
23D
102
}
330
3B
100
AcDbMaterial
  1
ByBlock
  0
MATERIAL
  5
3C
102
{ACAD_REACTORS
330
3B
102
}
102
{ACAD_XDICTIONARY
360
23B
102
}
330
3B
100
AcDbMaterial
  1
ByLayer
  0
MATERIAL
  5
3E
102
{ACAD_REACTORS
330
3B
102
}
102
{ACAD_XDICTIONARY
360
23F
102
}
330
3B
100
AcDbMaterial
  1
Global
  0
MLINESTYLE
  5
18
102
{ACAD_REACTORS
330
17
102
}
330
17
100
AcDbMlineStyle
  2
Standard
 70
     0
  3

 62
   256
 51
90.0
 52
90.0
 71
     2
 49
0.5
 62
   256
  6
BYLAYER
 49
-0.5
 62
   256
  6
BYLAYER
  0
ACDBPLACEHOLDER
  5
F
102
{ACAD_REACTORS
330
E
102
}
330
E
  0
VISUALSTYLE
  5
2F
102
{ACAD_REACTORS
330
2A
102
}
102
{ACAD_XDICTIONARY
360
223
102
}
330
2A
100
AcDbVisualStyle
  2
2dWireframe
 70
     4
 71
     0
 72
     2
 73
     0
 90
        0
 40
-0.6
 41
-30.0
 62
     5
 63
     7
421
 16777215
 74
     1
 91
        4
 64
     7
 65
   257
 75
     1
175
     1
 42
1.0
 92
        0
 66
   257
 43
1.0
 76
     1
 77
     6
 78
     2
 67
     7
 79
     5
170
     0
171
     0
290
     0
174
     0
 93
        1
 44
0.0
173
     0
291
     0
 45
0.0
1001
ACAD
1000
AcDbSavedByObjectVersion
1070
     0
  0
VISUALSTYLE
  5
31
102
{ACAD_REACTORS
330
2A
102
}
102
{ACAD_XDICTIONARY
360
227
102
}
330
2A
100
AcDbVisualStyle
  2
3D Hidden
 70
     6
 71
     1
 72
     2
 73
     2
 90
        0
 40
-0.6
 41
-30.0
 62
     5
 63
     7
421
 16777215
 74
     2
 91
        2
 64
     7
 65
   257
 75
     2
175
     1
 42
40.0
 92
        0
 66
   257
 43
1.0
 76
     1
 77
     6
 78
     2
 67
     7
 79
     3
170
     0
171
     0
290
     0
174
     0
 93
        1
 44
0.0
173
     0
291
     0
 45
0.0
1001
ACAD
1000
AcDbSavedByObjectVersion
1070
     0
  0
VISUALSTYLE
  5
30
102
{ACAD_REACTORS
330
2A
102
}
102
{ACAD_XDICTIONARY
360
225
102
}
330
2A
100
AcDbVisualStyle
  2
3dWireframe
 70
     5
 71
     0
 72
     2
 73
     0
 90
        0
 40
-0.6
 41
-30.0
 62
     5
 63
     7
421
 16777215
 74
     1
 91
        4
 64
     7
 65
   257
 75
     1
175
     1
 42
1.0
 92
        0
 66
   257
 43
1.0
 76
     1
 77
     6
 78
     2
 67
     7
 79
     5
170
     0
171
     0
290
     0
174
     0
 93
        1
 44
0.0
173
     0
291
     0
 45
0.0
1001
ACAD
1000
AcDbSavedByObjectVersion
1070
     0
  0
VISUALSTYLE
  5
32
102
{ACAD_REACTORS
330
2A
102
}
102
{ACAD_XDICTIONARY
360
229
102
}
330
2A
100
AcDbVisualStyle
  2
Basic
 70
     7
 71
     1
 72
     0
 73
     1
 90
        0
 40
-0.6
 41
-30.0
 62
     5
 63
     7
421
 16777215
 74
     0
 91
        4
 64
     7
 65
   257
 75
     1
175
     1
 42
1.0
 92
        8
 66
     7
 43
1.0
 76
     1
 77
     6
 78
     2
 67
     7
 79
     5
170
     0
171
     0
290
     0
174
     0
 93
        1
 44
0.0
173
     0
291
     1
 45
0.0
1001
ACAD
1000
AcDbSavedByObjectVersion
1070
     0
  0
VISUALSTYLE
  5
36
102
{ACAD_REACTORS
330
2A
102
}
102
{ACAD_XDICTIONARY
360
231
102
}
330
2A
100
AcDbVisualStyle
  2
Brighten
 70
    12
 71
     2
 72
     2
 73
     0
 90
        0
 40
-0.6
 41
-30.0
 62
     5
 63
     7
421
 16777215
 74
     1
 91
        4
 64
     7
 65
   257
 75
     1
175
     1
 42
1.0
 92
        8
 66
     7
 43
1.0
 76
     1
 77
     6
 78
     2
 67
     7
 79
     5
170
     0
171
     0
290
     0
174
     0
 93
        1
 44
50.0
173
     0
291
     1
 45
0.0
1001
ACAD
1000
AcDbSavedByObjectVersion
1070
     0
  0
VISUALSTYLE
  5
3A
102
{ACAD_REACTORS
330
2A
102
}
102
{ACAD_XDICTIONARY
360
239
102
}
330
2A
100
AcDbVisualStyle
  2
ColorChange
 70
    16
 71
     2
 72
     2
 73
     3
 90
        0
 40
-0.6
 41
-30.0
 62
     5
 63
     8
421
  8421504
 74
     1
 91
        4
 64
     7
 65
   257
 75
     1
175
     1
 42
1.0
 92
        8
 66
     8
424
  8421504
 43
1.0
 76
     1
 77
     6
 78
     2
 67
     7
 79
     5
170
     0
171
     0
290
     0
174
     0
 93
        1
 44
0.0
173
     0
291
     1
 45
0.0
1001
ACAD
1000
AcDbSavedByObjectVersion
1070
     0
  0
VISUALSTYLE
  5
34
102
{ACAD_REACTORS
330
2A
102
}
102
{ACAD_XDICTIONARY
360
22D
102
}
330
2A
100
AcDbVisualStyle
  2
Conceptual
 70
     9
 71
     3
 72
     2
 73
     0
 90
        0
 40
-0.6
 41
-30.0
 62
     5
 63
     7
421
 16777215
 74
     2
 91
        2
 64
     7
 65
   257
 75
     1
175
     1
 42
40.0
 92
        8
 66
     7
 43
1.0
 76
     1
 77
     6
 78
     2
 67
     7
 79
     3
170
     0
171
     0
290
     0
174
     0
 93
        1
 44
0.0
173
     0
291
     0
 45
0.0
1001
ACAD
1000
AcDbSavedByObjectVersion
1070
     0
  0
VISUALSTYLE
  5
35
102
{ACAD_REACTORS
330
2A
102
}
102
{ACAD_XDICTIONARY
360
22F
102
}
330
2A
100
AcDbVisualStyle
  2
Dim
 70
    11
 71
     2
 72
     2
 73
     0
 90
        0
 40
-0.6
 41
-30.0
 62
     5
 63
     7
421
 16777215
 74
     1
 91
        4
 64
     7
 65
   257
 75
     1
175
     1
 42
1.0
 92
        8
 66
     7
 43
1.0
 76
     1
 77
     6
 78
     2
 67
     7
 79
     5
170
     0
171
     0
290
     0
174
     0
 93
        1
 44
-50.0
173
     0
291
     1
 45
0.0
1001
ACAD
1000
AcDbSavedByObjectVersion
1070
     0
  0
VISUALSTYLE
  5
39
102
{ACAD_REACTORS
330
2A
102
}
102
{ACAD_XDICTIONARY
360
237
102
}
330
2A
100
AcDbVisualStyle
  2
Facepattern
 70
    15
 71
     2
 72
     2
 73
     0
 90
        0
 40
-0.6
 41
-30.0
 62
     5
 63
     7
421
 16777215
 74
     1
 91
        4
 64
     7
 65
   257
 75
     1
175
     1
 42
1.0
 92
        8
 66
     7
 43
1.0
 76
     1
 77
     6
 78
     2
 67
     7
 79
     5
170
     0
171
     0
290
     0
174
     0
 93
        1
 44
0.0
173
     0
291
     1
 45
0.0
1001
ACAD
1000
AcDbSavedByObjectVersion
1070
     0
  0
VISUALSTYLE
  5
2B
102
{ACAD_REACTORS
330
2A
102
}
102
{ACAD_XDICTIONARY
360
21B
102
}
330
2A
100
AcDbVisualStyle
  2
Flat
 70
     0
 71
     2
 72
     1
 73
     1
 90
        2
 40
-0.6
 41
30.0
 62
     5
 63
     7
421
 16777215
 74
     0
 91
        4
 64
     7
 65
   257
 75
     1
175
     1
 42
1.0
 92
        8
 66
     7
 43
1.0
 76
     1
 77
     6
 78
     2
 67
     7
 79
     5
170
     0
171
     0
290
     0
174
     0
 93
       13
 44
0.0
173
     0
291
     1
 45
0.0
1001
ACAD
1000
AcDbSavedByObjectVersion
1070
     0
  0
VISUALSTYLE
  5
2C
102
{ACAD_REACTORS
330
2A
102
}
102
{ACAD_XDICTIONARY
360
21D
102
}
330
2A
100
AcDbVisualStyle
  2
FlatWithEdges
 70
     1
 71
     2
 72
     1
 73
     1
 90
        2
 40
-0.6
 41
30.0
 62
     5
 63
     7
421
 16777215
 74
     1
 91
        4
 64
     7
 65
   257
 75
     1
175
     1
 42
1.0
 92
        0
 66
   257
 43
1.0
 76
     1
 77
     6
 78
     2
 67
     7
 79
     5
170
     0
171
     0
290
     0
174
     0
 93
       13
 44
0.0
173
     0
291
     1
 45
0.0
1001
ACAD
1000
AcDbSavedByObjectVersion
1070
     0
  0
VISUALSTYLE
  5
2D
102
{ACAD_REACTORS
330
2A
102
}
102
{ACAD_XDICTIONARY
360
21F
102
}
330
2A
100
AcDbVisualStyle
  2
Gouraud
 70
     2
 71
     2
 72
     2
 73
     1
 90
        2
 40
-0.6
 41
30.0
 62
     5
 63
     7
421
 16777215
 74
     0
 91
        4
 64
     7
 65
   257
 75
     1
175
     1
 42
1.0
 92
        0
 66
     7
 43
1.0
 76
     1
 77
     6
 78
     2
 67
     7
 79
     5
170
     0
171
     0
290
     0
174
     0
 93
       13
 44
0.0
173
     0
291
     1
 45
0.0
1001
ACAD
1000
AcDbSavedByObjectVersion
1070
     0
  0
VISUALSTYLE
  5
2E
102
{ACAD_REACTORS
330
2A
102
}
102
{ACAD_XDICTIONARY
360
221
102
}
330
2A
100
AcDbVisualStyle
  2
GouraudWithEdges
 70
     3
 71
     2
 72
     2
 73
     1
 90
        2
 40
-0.6
 41
30.0
 62
     5
 63
     7
421
 16777215
 74
     1
 91
        4
 64
     7
 65
   257
 75
     1
175
     1
 42
1.0
 92
        0
 66
   257
 43
1.0
 76
     1
 77
     6
 78
     2
 67
     7
 79
     5
170
     0
171
     0
290
     0
174
     0
 93
       13
 44
0.0
173
     0
291
     1
 45
0.0
1001
ACAD
1000
AcDbSavedByObjectVersion
1070
     0
  0
VISUALSTYLE
  5
38
102
{ACAD_REACTORS
330
2A
102
}
102
{ACAD_XDICTIONARY
360
235
102
}
330
2A
100
AcDbVisualStyle
  2
Linepattern
 70
    14
 71
     2
 72
     2
 73
     0
 90
        0
 40
-0.6
 41
-30.0
 62
     5
 63
     7
421
 16777215
 74
     1
 91
        4
 64
     7
 65
   257
 75
     7
175
     7
 42
1.0
 92
        8
 66
     7
 43
1.0
 76
     1
 77
     6
 78
     2
 67
     7
 79
     5
170
     0
171
     0
290
     0
174
     0
 93
        1
 44
0.0
173
     0
291
     1
 45
0.0
1001
ACAD
1000
AcDbSavedByObjectVersion
1070
     0
  0
VISUALSTYLE
  5
33
102
{ACAD_REACTORS
330
2A
102
}
102
{ACAD_XDICTIONARY
360
22B
102
}
330
2A
100
AcDbVisualStyle
  2
Realistic
 70
     8
 71
     2
 72
     2
 73
     0
 90
        0
 40
-0.6
 41
-30.0
 62
     5
 63
     7
421
 16777215
 74
     1
 91
        0
 64
     7
 65
   257
 75
     1
175
     1
 42
1.0
 92
        8
 66
     8
424
  7895160
 43
1.0
 76
     1
 77
     6
 78
     2
 67
     7
 79
     5
170
     0
171
     0
290
     0
174
     0
 93
       13
 44
0.0
173
     0
291
     0
 45
0.0
1001
ACAD
1000
AcDbSavedByObjectVersion
1070
     0
  0
VISUALSTYLE
  5
37
102
{ACAD_REACTORS
330
2A
102
}
102
{ACAD_XDICTIONARY
360
233
102
}
330
2A
100
AcDbVisualStyle
  2
Thicken
 70
    13
 71
     2
 72
     2
 73
     0
 90
        0
 40
-0.6
 41
-30.0
 62
     5
 63
     7
421
 16777215
 74
     1
 91
        4
 64
     7
 65
   257
 75
     1
175
     1
 42
1.0
 92
       12
 66
     7
 43
1.0
 76
     1
 77
     6
 78
     2
 67
     7
 79
     5
170
     0
171
     0
290
     0
174
     0
 93
        1
 44
0.0
173
     0
291
     1
 45
0.0
1001
ACAD
1000
AcDbSavedByObjectVersion
1070
     0
  0
DICTIONARY
  5
23D
330
3D
100
AcDbDictionary
280
     1
281
     1
  3
ACAD_XREC_ROUNDTRIP
360
23E
  0
DICTIONARY
  5
23B
330
3C
100
AcDbDictionary
280
     1
281
     1
  3
ACAD_XREC_ROUNDTRIP
360
23C
  0
DICTIONARY
  5
23F
330
3E
100
AcDbDictionary
280
     1
281
     1
  3
ACAD_XREC_ROUNDTRIP
360
240
  0
DICTIONARY
  5
223
330
2F
100
AcDbDictionary
280
     1
281
     1
  3
ACAD_XREC_ROUNDTRIP
360
224
  0
DICTIONARY
  5
227
330
31
100
AcDbDictionary
280
     1
281
     1
  3
ACAD_XREC_ROUNDTRIP
360
228
  0
DICTIONARY
  5
225
330
30
100
AcDbDictionary
280
     1
281
     1
  3
ACAD_XREC_ROUNDTRIP
360
226
  0
DICTIONARY
  5
229
330
32
100
AcDbDictionary
280
     1
281
     1
  3
ACAD_XREC_ROUNDTRIP
360
22A
  0
DICTIONARY
  5
231
330
36
100
AcDbDictionary
280
     1
281
     1
  3
ACAD_XREC_ROUNDTRIP
360
232
  0
DICTIONARY
  5
239
330
3A
100
AcDbDictionary
280
     1
281
     1
  3
ACAD_XREC_ROUNDTRIP
360
23A
  0
DICTIONARY
  5
22D
330
34
100
AcDbDictionary
280
     1
281
     1
  3
ACAD_XREC_ROUNDTRIP
360
22E
  0
DICTIONARY
  5
22F
330
35
100
AcDbDictionary
280
     1
281
     1
  3
ACAD_XREC_ROUNDTRIP
360
230
  0
DICTIONARY
  5
237
330
39
100
AcDbDictionary
280
     1
281
     1
  3
ACAD_XREC_ROUNDTRIP
360
238
  0
DICTIONARY
  5
21B
330
2B
100
AcDbDictionary
280
     1
281
     1
  3
ACAD_XREC_ROUNDTRIP
360
21C
  0
DICTIONARY
  5
21D
330
2C
100
AcDbDictionary
280
     1
281
     1
  3
ACAD_XREC_ROUNDTRIP
360
21E
  0
DICTIONARY
  5
21F
330
2D
100
AcDbDictionary
280
     1
281
     1
  3
ACAD_XREC_ROUNDTRIP
360
220
  0
DICTIONARY
  5
221
330
2E
100
AcDbDictionary
280
     1
281
     1
  3
ACAD_XREC_ROUNDTRIP
360
222
  0
DICTIONARY
  5
235
330
38
100
AcDbDictionary
280
     1
281
     1
  3
ACAD_XREC_ROUNDTRIP
360
236
  0
DICTIONARY
  5
22B
330
33
100
AcDbDictionary
280
     1
281
     1
  3
ACAD_XREC_ROUNDTRIP
360
22C
  0
DICTIONARY
  5
233
330
37
100
AcDbDictionary
280
     1
281
     1
  3
ACAD_XREC_ROUNDTRIP
360
234
  0
XRECORD
  5
23E
102
{ACAD_REACTORS
330
23D
102
}
330
23D
100
AcDbXrecord
280
     1
102
MATERIAL
148
0.0
149
0.0
149
0.0
 93
        0
 94
      127
282
     0
 72
     1
 77
     1
171
     1
175
     1
179
     1
273
     0
  0
XRECORD
  5
23C
102
{ACAD_REACTORS
330
23B
102
}
330
23B
100
AcDbXrecord
280
     1
102
MATERIAL
148
0.0
149
0.0
149
0.0
 93
        0
 94
      127
282
     0
 72
     1
 77
     1
171
     1
175
     1
179
     1
273
     0
  0
XRECORD
  5
240
102
{ACAD_REACTORS
330
23F
102
}
330
23F
100
AcDbXrecord
280
     1
102
MATERIAL
148
0.0
149
0.0
149
0.0
 93
        0
 94
      127
282
     0
 72
     1
 77
     1
171
     1
175
     1
179
     1
273
     0
  0
XRECORD
  5
224
102
{ACAD_REACTORS
330
223
102
}
330
223
100
AcDbXrecord
280
     1
102
RTVSPropertyOp0
 70
     1
102
RTVSPropertyOp1
 70
     1
102
RTVSPropertyOp2
 70
     1
102
RTVSPropertyOp3
 70
     1
102
RTVSPropertyOp4
 70
     1
102
RTVSPropertyOp5
 70
     1
102
RTVSPropertyOp6
 70
     1
102
RTVSPropertyOp7
 70
     1
102
RTVSPropertyOp8
 70
     1
102
RTVSPropertyOp9
 70
     1
102
RTVSPropertyOp10
 70
     1
102
RTVSPropertyOp11
 70
     1
102
RTVSPropertyOp12
 70
     1
102
RTVSPropertyOp13
 70
     1
102
RTVSPropertyOp14
 70
     1
102
RTVSPropertyOp15
 70
     1
102
RTVSPropertyOp16
 70
     1
102
RTVSPropertyOp17
 70
     1
102
RTVSPropertyOp18
 70
     1
102
RTVSPropertyOp19
 70
     1
102
RTVSPropertyOp20
 70
     1
102
RTVSPropertyOp21
 70
     1
102
RTVSPropertyOp22
 70
     1
102
RTVSPropertyOp23
 70
     1
102
RTVSPropertyOp24
 70
     1
102
RTVSPropertyOp25
 70
     1
102
RTVSPropertyOp26
 70
     1
102
RTVSPropertyOp27
 70
     1
102
RTVSPropertyOp28
 70
     1
102
RTVSPropertyOp29
 70
     1
102
RTVSPropertyOp30
 70
     1
102
RTVSPropertyOp31
 70
     1
102
RTVSPropertyOp32
 70
     1
  0
XRECORD
  5
228
102
{ACAD_REACTORS
330
227
102
}
330
227
100
AcDbXrecord
280
     1
102
RTVSPropertyOp0
 70
     1
102
RTVSPropertyOp1
 70
     1
102
RTVSPropertyOp2
 70
     1
102
RTVSPropertyOp3
 70
     1
102
RTVSPropertyOp4
 70
     1
102
RTVSPropertyOp5
 70
     1
102
RTVSPropertyOp6
 70
     1
102
RTVSPropertyOp7
 70
     1
102
RTVSPropertyOp8
 70
     1
102
RTVSPropertyOp9
 70
     1
102
RTVSPropertyOp10
 70
     1
102
RTVSPropertyOp11
 70
     1
102
RTVSPropertyOp12
 70
     1
102
RTVSPropertyOp13
 70
     1
102
RTVSPropertyOp14
 70
     1
102
RTVSPropertyOp15
 70
     1
102
RTVSPropertyOp16
 70
     1
102
RTVSPropertyOp17
 70
     1
102
RTVSPropertyOp18
 70
     1
102
RTVSPropertyOp19
 70
     1
102
RTVSPropertyOp20
 70
     1
102
RTVSPropertyOp21
 70
     1
102
RTVSPropertyOp22
 70
     1
102
RTVSPropertyOp23
 70
     1
102
RTVSPropertyOp24
 70
     1
102
RTVSPropertyOp25
 70
     1
102
RTVSPropertyOp26
 70
     1
102
RTVSPropertyOp27
 70
     1
102
RTVSPropertyOp28
 70
     1
102
RTVSPropertyOp29
 70
     1
102
RTVSPropertyOp30
 70
     1
102
RTVSPropertyOp31
 70
     1
102
RTVSPropertyOp32
 70
     1
  0
XRECORD
  5
226
102
{ACAD_REACTORS
330
225
102
}
330
225
100
AcDbXrecord
280
     1
102
RTVSPropertyOp0
 70
     1
102
RTVSPropertyOp1
 70
     1
102
RTVSPropertyOp2
 70
     1
102
RTVSPropertyOp3
 70
     1
102
RTVSPropertyOp4
 70
     1
102
RTVSPropertyOp5
 70
     1
102
RTVSPropertyOp6
 70
     1
102
RTVSPropertyOp7
 70
     1
102
RTVSPropertyOp8
 70
     1
102
RTVSPropertyOp9
 70
     1
102
RTVSPropertyOp10
 70
     1
102
RTVSPropertyOp11
 70
     1
102
RTVSPropertyOp12
 70
     1
102
RTVSPropertyOp13
 70
     1
102
RTVSPropertyOp14
 70
     1
102
RTVSPropertyOp15
 70
     1
102
RTVSPropertyOp16
 70
     1
102
RTVSPropertyOp17
 70
     1
102
RTVSPropertyOp18
 70
     1
102
RTVSPropertyOp19
 70
     1
102
RTVSPropertyOp20
 70
     1
102
RTVSPropertyOp21
 70
     1
102
RTVSPropertyOp22
 70
     1
102
RTVSPropertyOp23
 70
     1
102
RTVSPropertyOp24
 70
     1
102
RTVSPropertyOp25
 70
     1
102
RTVSPropertyOp26
 70
     1
102
RTVSPropertyOp27
 70
     1
102
RTVSPropertyOp28
 70
     1
102
RTVSPropertyOp29
 70
     1
102
RTVSPropertyOp30
 70
     1
102
RTVSPropertyOp31
 70
     1
102
RTVSPropertyOp32
 70
     1
  0
XRECORD
  5
22A
102
{ACAD_REACTORS
330
229
102
}
330
229
100
AcDbXrecord
280
     1
102
RTVSPropertyOp0
 70
     1
102
RTVSPropertyOp1
 70
     1
102
RTVSPropertyOp2
 70
     1
102
RTVSPropertyOp3
 70
     1
102
RTVSPropertyOp4
 70
     1
102
RTVSPropertyOp5
 70
     1
102
RTVSPropertyOp6
 70
     1
102
RTVSPropertyOp7
 70
     1
102
RTVSPropertyOp8
 70
     1
102
RTVSPropertyOp9
 70
     1
102
RTVSPropertyOp10
 70
     1
102
RTVSPropertyOp11
 70
     1
102
RTVSPropertyOp12
 70
     1
102
RTVSPropertyOp13
 70
     1
102
RTVSPropertyOp14
 70
     1
102
RTVSPropertyOp15
 70
     1
102
RTVSPropertyOp16
 70
     1
102
RTVSPropertyOp17
 70
     1
102
RTVSPropertyOp18
 70
     1
102
RTVSPropertyOp19
 70
     1
102
RTVSPropertyOp20
 70
     1
102
RTVSPropertyOp21
 70
     1
102
RTVSPropertyOp22
 70
     1
102
RTVSPropertyOp23
 70
     1
102
RTVSPropertyOp24
 70
     1
102
RTVSPropertyOp25
 70
     1
102
RTVSPropertyOp26
 70
     1
102
RTVSPropertyOp27
 70
     1
102
RTVSPropertyOp28
 70
     1
102
RTVSPropertyOp29
 70
     1
102
RTVSPropertyOp30
 70
     1
102
RTVSPropertyOp31
 70
     1
102
RTVSPropertyOp32
 70
     1
  0
XRECORD
  5
232
102
{ACAD_REACTORS
330
231
102
}
330
231
100
AcDbXrecord
280
     1
102
RTVSPropertyOp0
 70
     1
102
RTVSPropertyOp1
 70
     1
102
RTVSPropertyOp2
 70
     1
102
RTVSPropertyOp3
 70
     1
102
RTVSPropertyOp4
 70
     1
102
RTVSPropertyOp5
 70
     1
102
RTVSPropertyOp6
 70
     1
102
RTVSPropertyOp7
 70
     1
102
RTVSPropertyOp8
 70
     1
102
RTVSPropertyOp9
 70
     1
102
RTVSPropertyOp10
 70
     1
102
RTVSPropertyOp11
 70
     1
102
RTVSPropertyOp12
 70
     1
102
RTVSPropertyOp13
 70
     1
102
RTVSPropertyOp14
 70
     1
102
RTVSPropertyOp15
 70
     1
102
RTVSPropertyOp16
 70
     1
102
RTVSPropertyOp17
 70
     1
102
RTVSPropertyOp18
 70
     1
102
RTVSPropertyOp19
 70
     1
102
RTVSPropertyOp20
 70
     1
102
RTVSPropertyOp21
 70
     1
102
RTVSPropertyOp22
 70
     1
102
RTVSPropertyOp23
 70
     1
102
RTVSPropertyOp24
 70
     1
102
RTVSPropertyOp25
 70
     1
102
RTVSPropertyOp26
 70
     1
102
RTVSPropertyOp27
 70
     1
102
RTVSPropertyOp28
 70
     1
102
RTVSPropertyOp29
 70
     1
102
RTVSPropertyOp30
 70
     1
102
RTVSPropertyOp31
 70
     1
102
RTVSPropertyOp32
 70
     1
  0
XRECORD
  5
23A
102
{ACAD_REACTORS
330
239
102
}
330
239
100
AcDbXrecord
280
     1
102
RTVSPropertyOp0
 70
     1
102
RTVSPropertyOp1
 70
     1
102
RTVSPropertyOp2
 70
     1
102
RTVSPropertyOp3
 70
     1
102
RTVSPropertyOp4
 70
     1
102
RTVSPropertyOp5
 70
     1
102
RTVSPropertyOp6
 70
     1
102
RTVSPropertyOp7
 70
     1
102
RTVSPropertyOp8
 70
     1
102
RTVSPropertyOp9
 70
     1
102
RTVSPropertyOp10
 70
     1
102
RTVSPropertyOp11
 70
     1
102
RTVSPropertyOp12
 70
     1
102
RTVSPropertyOp13
 70
     1
102
RTVSPropertyOp14
 70
     1
102
RTVSPropertyOp15
 70
     1
102
RTVSPropertyOp16
 70
     1
102
RTVSPropertyOp17
 70
     1
102
RTVSPropertyOp18
 70
     1
102
RTVSPropertyOp19
 70
     1
102
RTVSPropertyOp20
 70
     1
102
RTVSPropertyOp21
 70
     1
102
RTVSPropertyOp22
 70
     1
102
RTVSPropertyOp23
 70
     1
102
RTVSPropertyOp24
 70
     1
102
RTVSPropertyOp25
 70
     1
102
RTVSPropertyOp26
 70
     1
102
RTVSPropertyOp27
 70
     1
102
RTVSPropertyOp28
 70
     1
102
RTVSPropertyOp29
 70
     1
102
RTVSPropertyOp30
 70
     1
102
RTVSPropertyOp31
 70
     1
102
RTVSPropertyOp32
 70
     1
  0
XRECORD
  5
22E
102
{ACAD_REACTORS
330
22D
102
}
330
22D
100
AcDbXrecord
280
     1
102
RTVSPropertyOp0
 70
     1
102
RTVSPropertyOp1
 70
     1
102
RTVSPropertyOp2
 70
     1
102
RTVSPropertyOp3
 70
     1
102
RTVSPropertyOp4
 70
     1
102
RTVSPropertyOp5
 70
     1
102
RTVSPropertyOp6
 70
     1
102
RTVSPropertyOp7
 70
     1
102
RTVSPropertyOp8
 70
     1
102
RTVSPropertyOp9
 70
     1
102
RTVSPropertyOp10
 70
     1
102
RTVSPropertyOp11
 70
     1
102
RTVSPropertyOp12
 70
     1
102
RTVSPropertyOp13
 70
     1
102
RTVSPropertyOp14
 70
     1
102
RTVSPropertyOp15
 70
     1
102
RTVSPropertyOp16
 70
     1
102
RTVSPropertyOp17
 70
     1
102
RTVSPropertyOp18
 70
     1
102
RTVSPropertyOp19
 70
     1
102
RTVSPropertyOp20
 70
     1
102
RTVSPropertyOp21
 70
     1
102
RTVSPropertyOp22
 70
     1
102
RTVSPropertyOp23
 70
     1
102
RTVSPropertyOp24
 70
     1
102
RTVSPropertyOp25
 70
     1
102
RTVSPropertyOp26
 70
     1
102
RTVSPropertyOp27
 70
     1
102
RTVSPropertyOp28
 70
     1
102
RTVSPropertyOp29
 70
     1
102
RTVSPropertyOp30
 70
     1
102
RTVSPropertyOp31
 70
     1
102
RTVSPropertyOp32
 70
     1
  0
XRECORD
  5
230
102
{ACAD_REACTORS
330
22F
102
}
330
22F
100
AcDbXrecord
280
     1
102
RTVSPropertyOp0
 70
     1
102
RTVSPropertyOp1
 70
     1
102
RTVSPropertyOp2
 70
     1
102
RTVSPropertyOp3
 70
     1
102
RTVSPropertyOp4
 70
     1
102
RTVSPropertyOp5
 70
     1
102
RTVSPropertyOp6
 70
     1
102
RTVSPropertyOp7
 70
     1
102
RTVSPropertyOp8
 70
     1
102
RTVSPropertyOp9
 70
     1
102
RTVSPropertyOp10
 70
     1
102
RTVSPropertyOp11
 70
     1
102
RTVSPropertyOp12
 70
     1
102
RTVSPropertyOp13
 70
     1
102
RTVSPropertyOp14
 70
     1
102
RTVSPropertyOp15
 70
     1
102
RTVSPropertyOp16
 70
     1
102
RTVSPropertyOp17
 70
     1
102
RTVSPropertyOp18
 70
     1
102
RTVSPropertyOp19
 70
     1
102
RTVSPropertyOp20
 70
     1
102
RTVSPropertyOp21
 70
     1
102
RTVSPropertyOp22
 70
     1
102
RTVSPropertyOp23
 70
     1
102
RTVSPropertyOp24
 70
     1
102
RTVSPropertyOp25
 70
     1
102
RTVSPropertyOp26
 70
     1
102
RTVSPropertyOp27
 70
     1
102
RTVSPropertyOp28
 70
     1
102
RTVSPropertyOp29
 70
     1
102
RTVSPropertyOp30
 70
     1
102
RTVSPropertyOp31
 70
     1
102
RTVSPropertyOp32
 70
     1
  0
XRECORD
  5
238
102
{ACAD_REACTORS
330
237
102
}
330
237
100
AcDbXrecord
280
     1
102
RTVSPropertyOp0
 70
     1
102
RTVSPropertyOp1
 70
     1
102
RTVSPropertyOp2
 70
     1
102
RTVSPropertyOp3
 70
     1
102
RTVSPropertyOp4
 70
     1
102
RTVSPropertyOp5
 70
     1
102
RTVSPropertyOp6
 70
     1
102
RTVSPropertyOp7
 70
     1
102
RTVSPropertyOp8
 70
     1
102
RTVSPropertyOp9
 70
     1
102
RTVSPropertyOp10
 70
     1
102
RTVSPropertyOp11
 70
     1
102
RTVSPropertyOp12
 70
     1
102
RTVSPropertyOp13
 70
     1
102
RTVSPropertyOp14
 70
     1
102
RTVSPropertyOp15
 70
     1
102
RTVSPropertyOp16
 70
     1
102
RTVSPropertyOp17
 70
     1
102
RTVSPropertyOp18
 70
     1
102
RTVSPropertyOp19
 70
     1
102
RTVSPropertyOp20
 70
     1
102
RTVSPropertyOp21
 70
     1
102
RTVSPropertyOp22
 70
     1
102
RTVSPropertyOp23
 70
     1
102
RTVSPropertyOp24
 70
     1
102
RTVSPropertyOp25
 70
     1
102
RTVSPropertyOp26
 70
     1
102
RTVSPropertyOp27
 70
     1
102
RTVSPropertyOp28
 70
     1
102
RTVSPropertyOp29
 70
     1
102
RTVSPropertyOp30
 70
     1
102
RTVSPropertyOp31
 70
     1
102
RTVSPropertyOp32
 70
     1
  0
XRECORD
  5
21C
102
{ACAD_REACTORS
330
21B
102
}
330
21B
100
AcDbXrecord
280
     1
102
RTVSPropertyOp0
 70
     1
102
RTVSPropertyOp1
 70
     1
102
RTVSPropertyOp2
 70
     1
102
RTVSPropertyOp3
 70
     1
102
RTVSPropertyOp4
 70
     1
102
RTVSPropertyOp5
 70
     1
102
RTVSPropertyOp6
 70
     1
102
RTVSPropertyOp7
 70
     1
102
RTVSPropertyOp8
 70
     1
102
RTVSPropertyOp9
 70
     1
102
RTVSPropertyOp10
 70
     1
102
RTVSPropertyOp11
 70
     1
102
RTVSPropertyOp12
 70
     1
102
RTVSPropertyOp13
 70
     1
102
RTVSPropertyOp14
 70
     1
102
RTVSPropertyOp15
 70
     1
102
RTVSPropertyOp16
 70
     1
102
RTVSPropertyOp17
 70
     1
102
RTVSPropertyOp18
 70
     1
102
RTVSPropertyOp19
 70
     1
102
RTVSPropertyOp20
 70
     1
102
RTVSPropertyOp21
 70
     1
102
RTVSPropertyOp22
 70
     1
102
RTVSPropertyOp23
 70
     1
102
RTVSPropertyOp24
 70
     1
102
RTVSPropertyOp25
 70
     1
102
RTVSPropertyOp26
 70
     1
102
RTVSPropertyOp27
 70
     1
102
RTVSPropertyOp28
 70
     1
102
RTVSPropertyOp29
 70
     1
102
RTVSPropertyOp30
 70
     1
102
RTVSPropertyOp31
 70
     1
102
RTVSPropertyOp32
 70
     1
  0
XRECORD
  5
21E
102
{ACAD_REACTORS
330
21D
102
}
330
21D
100
AcDbXrecord
280
     1
102
RTVSPropertyOp0
 70
     1
102
RTVSPropertyOp1
 70
     1
102
RTVSPropertyOp2
 70
     1
102
RTVSPropertyOp3
 70
     1
102
RTVSPropertyOp4
 70
     1
102
RTVSPropertyOp5
 70
     1
102
RTVSPropertyOp6
 70
     1
102
RTVSPropertyOp7
 70
     1
102
RTVSPropertyOp8
 70
     1
102
RTVSPropertyOp9
 70
     1
102
RTVSPropertyOp10
 70
     1
102
RTVSPropertyOp11
 70
     1
102
RTVSPropertyOp12
 70
     1
102
RTVSPropertyOp13
 70
     1
102
RTVSPropertyOp14
 70
     1
102
RTVSPropertyOp15
 70
     1
102
RTVSPropertyOp16
 70
     1
102
RTVSPropertyOp17
 70
     1
102
RTVSPropertyOp18
 70
     1
102
RTVSPropertyOp19
 70
     1
102
RTVSPropertyOp20
 70
     1
102
RTVSPropertyOp21
 70
     1
102
RTVSPropertyOp22
 70
     1
102
RTVSPropertyOp23
 70
     1
102
RTVSPropertyOp24
 70
     1
102
RTVSPropertyOp25
 70
     1
102
RTVSPropertyOp26
 70
     1
102
RTVSPropertyOp27
 70
     1
102
RTVSPropertyOp28
 70
     1
102
RTVSPropertyOp29
 70
     1
102
RTVSPropertyOp30
 70
     1
102
RTVSPropertyOp31
 70
     1
102
RTVSPropertyOp32
 70
     1
  0
XRECORD
  5
220
102
{ACAD_REACTORS
330
21F
102
}
330
21F
100
AcDbXrecord
280
     1
102
RTVSPropertyOp0
 70
     1
102
RTVSPropertyOp1
 70
     1
102
RTVSPropertyOp2
 70
     1
102
RTVSPropertyOp3
 70
     1
102
RTVSPropertyOp4
 70
     1
102
RTVSPropertyOp5
 70
     1
102
RTVSPropertyOp6
 70
     1
102
RTVSPropertyOp7
 70
     1
102
RTVSPropertyOp8
 70
     1
102
RTVSPropertyOp9
 70
     1
102
RTVSPropertyOp10
 70
     1
102
RTVSPropertyOp11
 70
     1
102
RTVSPropertyOp12
 70
     1
102
RTVSPropertyOp13
 70
     1
102
RTVSPropertyOp14
 70
     1
102
RTVSPropertyOp15
 70
     1
102
RTVSPropertyOp16
 70
     1
102
RTVSPropertyOp17
 70
     1
102
RTVSPropertyOp18
 70
     1
102
RTVSPropertyOp19
 70
     1
102
RTVSPropertyOp20
 70
     1
102
RTVSPropertyOp21
 70
     1
102
RTVSPropertyOp22
 70
     1
102
RTVSPropertyOp23
 70
     1
102
RTVSPropertyOp24
 70
     1
102
RTVSPropertyOp25
 70
     1
102
RTVSPropertyOp26
 70
     1
102
RTVSPropertyOp27
 70
     1
102
RTVSPropertyOp28
 70
     1
102
RTVSPropertyOp29
 70
     1
102
RTVSPropertyOp30
 70
     1
102
RTVSPropertyOp31
 70
     1
102
RTVSPropertyOp32
 70
     1
  0
XRECORD
  5
222
102
{ACAD_REACTORS
330
221
102
}
330
221
100
AcDbXrecord
280
     1
102
RTVSPropertyOp0
 70
     1
102
RTVSPropertyOp1
 70
     1
102
RTVSPropertyOp2
 70
     1
102
RTVSPropertyOp3
 70
     1
102
RTVSPropertyOp4
 70
     1
102
RTVSPropertyOp5
 70
     1
102
RTVSPropertyOp6
 70
     1
102
RTVSPropertyOp7
 70
     1
102
RTVSPropertyOp8
 70
     1
102
RTVSPropertyOp9
 70
     1
102
RTVSPropertyOp10
 70
     1
102
RTVSPropertyOp11
 70
     1
102
RTVSPropertyOp12
 70
     1
102
RTVSPropertyOp13
 70
     1
102
RTVSPropertyOp14
 70
     1
102
RTVSPropertyOp15
 70
     1
102
RTVSPropertyOp16
 70
     1
102
RTVSPropertyOp17
 70
     1
102
RTVSPropertyOp18
 70
     1
102
RTVSPropertyOp19
 70
     1
102
RTVSPropertyOp20
 70
     1
102
RTVSPropertyOp21
 70
     1
102
RTVSPropertyOp22
 70
     1
102
RTVSPropertyOp23
 70
     1
102
RTVSPropertyOp24
 70
     1
102
RTVSPropertyOp25
 70
     1
102
RTVSPropertyOp26
 70
     1
102
RTVSPropertyOp27
 70
     1
102
RTVSPropertyOp28
 70
     1
102
RTVSPropertyOp29
 70
     1
102
RTVSPropertyOp30
 70
     1
102
RTVSPropertyOp31
 70
     1
102
RTVSPropertyOp32
 70
     1
  0
XRECORD
  5
236
102
{ACAD_REACTORS
330
235
102
}
330
235
100
AcDbXrecord
280
     1
102
RTVSPropertyOp0
 70
     1
102
RTVSPropertyOp1
 70
     1
102
RTVSPropertyOp2
 70
     1
102
RTVSPropertyOp3
 70
     1
102
RTVSPropertyOp4
 70
     1
102
RTVSPropertyOp5
 70
     1
102
RTVSPropertyOp6
 70
     1
102
RTVSPropertyOp7
 70
     1
102
RTVSPropertyOp8
 70
     1
102
RTVSPropertyOp9
 70
     1
102
RTVSPropertyOp10
 70
     1
102
RTVSPropertyOp11
 70
     1
102
RTVSPropertyOp12
 70
     1
102
RTVSPropertyOp13
 70
     1
102
RTVSPropertyOp14
 70
     1
102
RTVSPropertyOp15
 70
     1
102
RTVSPropertyOp16
 70
     1
102
RTVSPropertyOp17
 70
     1
102
RTVSPropertyOp18
 70
     1
102
RTVSPropertyOp19
 70
     1
102
RTVSPropertyOp20
 70
     1
102
RTVSPropertyOp21
 70
     1
102
RTVSPropertyOp22
 70
     1
102
RTVSPropertyOp23
 70
     1
102
RTVSPropertyOp24
 70
     1
102
RTVSPropertyOp25
 70
     1
102
RTVSPropertyOp26
 70
     1
102
RTVSPropertyOp27
 70
     1
102
RTVSPropertyOp28
 70
     1
102
RTVSPropertyOp29
 70
     1
102
RTVSPropertyOp30
 70
     1
102
RTVSPropertyOp31
 70
     1
102
RTVSPropertyOp32
 70
     1
  0
XRECORD
  5
22C
102
{ACAD_REACTORS
330
22B
102
}
330
22B
100
AcDbXrecord
280
     1
102
RTVSPropertyOp0
 70
     1
102
RTVSPropertyOp1
 70
     1
102
RTVSPropertyOp2
 70
     1
102
RTVSPropertyOp3
 70
     1
102
RTVSPropertyOp4
 70
     1
102
RTVSPropertyOp5
 70
     1
102
RTVSPropertyOp6
 70
     1
102
RTVSPropertyOp7
 70
     1
102
RTVSPropertyOp8
 70
     1
102
RTVSPropertyOp9
 70
     1
102
RTVSPropertyOp10
 70
     1
102
RTVSPropertyOp11
 70
     1
102
RTVSPropertyOp12
 70
     1
102
RTVSPropertyOp13
 70
     1
102
RTVSPropertyOp14
 70
     1
102
RTVSPropertyOp15
 70
     1
102
RTVSPropertyOp16
 70
     1
102
RTVSPropertyOp17
 70
     1
102
RTVSPropertyOp18
 70
     1
102
RTVSPropertyOp19
 70
     1
102
RTVSPropertyOp20
 70
     1
102
RTVSPropertyOp21
 70
     1
102
RTVSPropertyOp22
 70
     1
102
RTVSPropertyOp23
 70
     1
102
RTVSPropertyOp24
 70
     1
102
RTVSPropertyOp25
 70
     1
102
RTVSPropertyOp26
 70
     1
102
RTVSPropertyOp27
 70
     1
102
RTVSPropertyOp28
 70
     1
102
RTVSPropertyOp29
 70
     1
102
RTVSPropertyOp30
 70
     1
102
RTVSPropertyOp31
 70
     1
102
RTVSPropertyOp32
 70
     1
  0
XRECORD
  5
234
102
{ACAD_REACTORS
330
233
102
}
330
233
100
AcDbXrecord
280
     1
102
RTVSPropertyOp0
 70
     1
102
RTVSPropertyOp1
 70
     1
102
RTVSPropertyOp2
 70
     1
102
RTVSPropertyOp3
 70
     1
102
RTVSPropertyOp4
 70
     1
102
RTVSPropertyOp5
 70
     1
102
RTVSPropertyOp6
 70
     1
102
RTVSPropertyOp7
 70
     1
102
RTVSPropertyOp8
 70
     1
102
RTVSPropertyOp9
 70
     1
102
RTVSPropertyOp10
 70
     1
102
RTVSPropertyOp11
 70
     1
102
RTVSPropertyOp12
 70
     1
102
RTVSPropertyOp13
 70
     1
102
RTVSPropertyOp14
 70
     1
102
RTVSPropertyOp15
 70
     1
102
RTVSPropertyOp16
 70
     1
102
RTVSPropertyOp17
 70
     1
102
RTVSPropertyOp18
 70
     1
102
RTVSPropertyOp19
 70
     1
102
RTVSPropertyOp20
 70
     1
102
RTVSPropertyOp21
 70
     1
102
RTVSPropertyOp22
 70
     1
102
RTVSPropertyOp23
 70
     1
102
RTVSPropertyOp24
 70
     1
102
RTVSPropertyOp25
 70
     1
102
RTVSPropertyOp26
 70
     1
102
RTVSPropertyOp27
 70
     1
102
RTVSPropertyOp28
 70
     1
102
RTVSPropertyOp29
 70
     1
102
RTVSPropertyOp30
 70
     1
102
RTVSPropertyOp31
 70
     1
102
RTVSPropertyOp32
 70
     1
  0
ENDSEC
  0
EOF
