  0
SECTION
  2
HEADER
  9
$ACADVER
  1
AC1018
  9
$ACADMAINTVER
 70
     0
  9
$DWGCODEPAGE
  3
ANSI_1252
  9
$INSBASE
 10
0.0
 20
0.0
 30
0.0
  9
$EXTMIN
 10
-415.499999999989
 20
-267.0000000000051
 30
0.0
  9
$EXTMAX
 10
-118.4999999999909
 20
-57.000000000005
 30
0.0
  9
$LIMMIN
 10
0.0
 20
0.0
  9
$LIMMAX
 10
12.0
 20
9.0
  9
$ORTHOMODE
 70
     0
  9
$REGENMODE
 70
     1
  9
$FILLMODE
 70
     1
  9
$QTEXTMODE
 70
     0
  9
$MIRRTEXT
 70
     1
  9
$LTSCALE
 40
1.0
  9
$ATTMODE
 70
     1
  9
$TEXTSIZE
 40
0.2
  9
$TRACEWID
 40
0.05
  9
$TEXTSTYLE
  7
Standard
  9
$CLAYER
  8
0
  9
$CELTYPE
  6
ByLayer
  9
$CECOLOR
 62
   256
  9
$CELTSCALE
 40
1.0
  9
$DISPSILH
 70
     0
  9
$DIMSCALE
 40
1.0
  9
$DIMASZ
 40
0.18
  9
$DIMEXO
 40
0.0625
  9
$DIMDLI
 40
0.38
  9
$DIMRND
 40
0.0
  9
$DIMDLE
 40
0.0
  9
$DIMEXE
 40
0.18
  9
$DIMTP
 40
0.0
  9
$DIMTM
 40
0.0
  9
$DIMTXT
 40
0.18
  9
$DIMCEN
 40
0.09
  9
$DIMTSZ
 40
0.0
  9
$DIMTOL
 70
     0
  9
$DIMLIM
 70
     0
  9
$DIMTIH
 70
     1
  9
$DIMTOH
 70
     1
  9
$DIMSE1
 70
     0
  9
$DIMSE2
 70
     0
  9
$DIMTAD
 70
     0
  9
$DIMZIN
 70
     0
  9
$DIMBLK
  1

  9
$DIMASO
 70
     1
  9
$DIMSHO
 70
     1
  9
$DIMPOST
  1

  9
$DIMAPOST
  1

  9
$DIMALT
 70
     0
  9
$DIMALTD
 70
     2
  9
$DIMALTF
 40
25.4
  9
$DIMLFAC
 40
1.0
  9
$DIMTOFL
 70
     0
  9
$DIMTVP
 40
0.0
  9
$DIMTIX
 70
     0
  9
$DIMSOXD
 70
     0
  9
$DIMSAH
 70
     0
  9
$DIMBLK1
  1

  9
$DIMBLK2
  1

  9
$DIMSTYLE
  2
Standard
  9
$DIMCLRD
 70
     0
  9
$DIMCLRE
 70
     0
  9
$DIMCLRT
 70
     0
  9
$DIMTFAC
 40
1.0
  9
$DIMGAP
 40
0.09
  9
$DIMJUST
 70
     0
  9
$DIMSD1
 70
     0
  9
$DIMSD2
 70
     0
  9
$DIMTOLJ
 70
     1
  9
$DIMTZIN
 70
     0
  9
$DIMALTZ
 70
     0
  9
$DIMALTTZ
 70
     0
  9
$DIMUPT
 70
     0
  9
$DIMDEC
 70
     4
  9
$DIMTDEC
 70
     4
  9
$DIMALTU
 70
     2
  9
$DIMALTTD
 70
     2
  9
$DIMTXSTY
  7
Standard
  9
$DIMAUNIT
 70
     0
  9
$DIMADEC
 70
     0
  9
$DIMALTRND
 40
0.0
  9
$DIMAZIN
 70
     0
  9
$DIMDSEP
 70
    46
  9
$DIMATFIT
 70
     3
  9
$DIMFRAC
 70
     0
  9
$DIMLDRBLK
  1

  9
$DIMLUNIT
 70
     2
  9
$DIMLWD
 70
    -2
  9
$DIMLWE
 70
    -2
  9
$DIMTMOVE
 70
     0
  9
$LUNITS
 70
     2
  9
$LUPREC
 70
     4
  9
$SKETCHINC
 40
0.1
  9
$FILLETRAD
 40
0.5
  9
$AUNITS
 70
     0
  9
$AUPREC
 70
     0
  9
$MENU
  1
.
  9
$ELEVATION
 40
0.0
  9
$PELEVATION
 40
0.0
  9
$THICKNESS
 40
0.0
  9
$LIMCHECK
 70
     0
  9
$CHAMFERA
 40
0.0
  9
$CHAMFERB
 40
0.0
  9
$CHAMFERC
 40
0.0
  9
$CHAMFERD
 40
0.0
  9
$SKPOLY
 70
     0
  9
$TDCREATE
 40
2458913.021058032
  9
$TDUCREATE
 40
2458912.979391366
  9
$TDUPDATE
 40
2458913.021058032
  9
$TDUUPDATE
 40
2458912.979391366
  9
$TDINDWG
 40
0.0000000116
  9
$TDUSRTIMER
 40
0.0000000116
  9
$USRTIMER
 70
     1
  9
$ANGBASE
 50
0.0
  9
$ANGDIR
 70
     0
  9
$PDMODE
 70
     0
  9
$PDSIZE
 40
0.0
  9
$PLINEWID
 40
0.0
  9
$SPLFRAME
 70
     0
  9
$SPLINETYPE
 70
     6
  9
$SPLINESEGS
 70
     8
  9
$HANDSEED
  5
2BB
  9
$SURFTAB1
 70
     6
  9
$SURFTAB2
 70
     6
  9
$SURFTYPE
 70
     6
  9
$SURFU
 70
     6
  9
$SURFV
 70
     6
  9
$UCSBASE
  2

  9
$UCSNAME
  2

  9
$UCSORG
 10
0.0
 20
0.0
 30
0.0
  9
$UCSXDIR
 10
1.0
 20
0.0
 30
0.0
  9
$UCSYDIR
 10
0.0
 20
1.0
 30
0.0
  9
$UCSORTHOREF
  2

  9
$UCSORTHOVIEW
 70
     0
  9
$UCSORGTOP
 10
0.0
 20
0.0
 30
0.0
  9
$UCSORGBOTTOM
 10
0.0
 20
0.0
 30
0.0
  9
$UCSORGLEFT
 10
0.0
 20
0.0
 30
0.0
  9
$UCSORGRIGHT
 10
0.0
 20
0.0
 30
0.0
  9
$UCSORGFRONT
 10
0.0
 20
0.0
 30
0.0
  9
$UCSORGBACK
 10
0.0
 20
0.0
 30
0.0
  9
$PUCSBASE
  2

  9
$PUCSNAME
  2

  9
$PUCSORG
 10
0.0
 20
0.0
 30
0.0
  9
$PUCSXDIR
 10
1.0
 20
0.0
 30
0.0
  9
$PUCSYDIR
 10
0.0
 20
1.0
 30
0.0
  9
$PUCSORTHOREF
  2

  9
$PUCSORTHOVIEW
 70
     0
  9
$PUCSORGTOP
 10
0.0
 20
0.0
 30
0.0
  9
$PUCSORGBOTTOM
 10
0.0
 20
0.0
 30
0.0
  9
$PUCSORGLEFT
 10
0.0
 20
0.0
 30
0.0
  9
$PUCSORGRIGHT
 10
0.0
 20
0.0
 30
0.0
  9
$PUCSORGFRONT
 10
0.0
 20
0.0
 30
0.0
  9
$PUCSORGBACK
 10
0.0
 20
0.0
 30
0.0
  9
$USERI1
 70
     0
  9
$USERI2
 70
     0
  9
$USERI3
 70
     0
  9
$USERI4
 70
     0
  9
$USERI5
 70
     0
  9
$USERR1
 40
20.1
  9
$USERR2
 40
0.0
  9
$USERR3
 40
0.0
  9
$USERR4
 40
0.0
  9
$USERR5
 40
0.0
  9
$WORLDVIEW
 70
     1
  9
$SHADEDGE
 70
     3
  9
$SHADEDIF
 70
    70
  9
$TILEMODE
 70
     1
  9
$MAXACTVP
 70
    64
  9
$PINSBASE
 10
0.0
 20
0.0
 30
0.0
  9
$PLIMCHECK
 70
     0
  9
$PEXTMIN
 10
1.00000000000000E+20
 20
1.00000000000000E+20
 30
1.00000000000000E+20
  9
$PEXTMAX
 10
-1.00000000000000E+20
 20
-1.00000000000000E+20
 30
-1.00000000000000E+20
  9
$PLIMMIN
 10
0.0
 20
0.0
  9
$PLIMMAX
 10
12.0
 20
9.0
  9
$UNITMODE
 70
     0
  9
$VISRETAIN
 70
     1
  9
$PLINEGEN
 70
     0
  9
$PSLTSCALE
 70
     1
  9
$TREEDEPTH
 70
  3020
  9
$CMLSTYLE
  2
Standard
  9
$CMLJUST
 70
     0
  9
$CMLSCALE
 40
1.0
  9
$PROXYGRAPHICS
 70
     1
  9
$MEASUREMENT
 70
     1
  9
$CELWEIGHT
370
    -1
  9
$ENDCAPS
280
     0
  9
$JOINSTYLE
280
     0
  9
$LWDISPLAY
290
     0
  9
$INSUNITS
 70
     4
  9
$HYPERLINKBASE
  1

  9
$STYLESHEET
  1

  9
$XEDIT
290
     1
  9
$CEPSNTYPE
380
     0
  9
$PSTYLEMODE
290
     1
  9
$FINGERPRINTGUID
  2
{3efe0dd4-995a-4270-8ea2-b40e0c4d1731}
  9
$VERSIONGUID
  2
{FAEB1C32-E019-11D5-929B-00C0DF256EC4}
  9
$EXTNAMES
290
     1
  9
$PSVPSCALE
 40
0.0
  9
$OLESTARTUP
290
     0
  9
$SORTENTS
280
   127
  9
$INDEXCTL
280
     0
  9
$HIDETEXT
280
     1
  9
$XCLIPFRAME
290
     0
  9
$HALOGAP
280
     0
  9
$OBSCOLOR
 70
   257
  9
$OBSLTYPE
280
     0
  9
$INTERSECTIONDISPLAY
280
     0
  9
$INTERSECTIONCOLOR
 70
   257
  9
$DIMASSOC
280
     2
  9
$PROJECTNAME
  1

  0
ENDSEC
  0
SECTION
  2
CLASSES
  0
CLASS
  1
ACDBDICTIONARYWDFLT
  2
AcDbDictionaryWithDefault
  3
ObjectDBX Classes
 90
        0
 91
        3
280
     0
281
     0
  0
CLASS
  1
VISUALSTYLE
  2
AcDbVisualStyle
  3
ObjectDBX Classes
 90
     4095
 91
        3
280
     0
281
     0
  0
CLASS
  1
MATERIAL
  2
AcDbMaterial
  3
ObjectDBX Classes
 90
     1153
 91
        3
280
     0
281
     0
  0
CLASS
  1
SCALE
  2
AcDbScale
  3
ObjectDBX Classes
 90
     1153
 91
        3
280
     0
281
     0
  0
CLASS
  1
TABLESTYLE
  2
AcDbTableStyle
  3
ObjectDBX Classes
 90
     4095
 91
        3
280
     0
281
     0
  0
CLASS
  1
MLEADERSTYLE
  2
AcDbMLeaderStyle
  3
ACDB_MLEADERSTYLE_CLASS
 90
     4095
 91
        3
280
     0
281
     0
  0
CLASS
  1
SUN
  2
AcDbSun
  3
SCENEOE
 90
     1153
 91
        3
280
     0
281
     0
  0
CLASS
  1
DICTIONARYVAR
  2
AcDbDictionaryVar
  3
ObjectDBX Classes
 90
        0
 91
        3
280
     0
281
     0
  0
CLASS
  1
CELLSTYLEMAP
  2
AcDbCellStyleMap
  3
ObjectDBX Classes
 90
     1152
 91
        3
280
     0
281
     0
  0
ENDSEC
  0
SECTION
  2
TABLES
  0
TABLE
  2
VPORT
  5
8
102
{ACAD_XDICTIONARY
360
274
102
}
330
0
100
AcDbSymbolTable
 70
     1
  0
VPORT
  5
29
330
8
100
AcDbSymbolTableRecord
100
AcDbViewportTableRecord
  2
*Active
 70
     0
 10
0.0
 20
0.0
 11
1.0
 21
1.0
 12
-266.9999999999899
 22
-162.0000000000051
 13
0.0
 23
0.0
 14
0.5
 24
0.5
 15
0.5
 25
0.5
 16
0.0
 26
0.0
 36
1.0
 17
0.0
 27
0.0
 37
0.0
 40
231.0000000000001
 41
1.60267857142857
 42
50.0
 43
0.0
 44
0.0
 50
0.0
 51
0.0
 71
     0
 72
   100
 73
     1
 74
     3
 75
     0
 76
     0
 77
     0
 78
     0
281
     0
 65
     1
110
0.0
120
0.0
130
0.0
111
1.0
121
0.0
131
0.0
112
0.0
122
1.0
132
0.0
 79
     0
146
0.0
  0
ENDTAB
  0
TABLE
  2
LTYPE
  5
5
330
0
100
AcDbSymbolTable
 70
     8
  0
LTYPE
  5
14
330
5
100
AcDbSymbolTableRecord
100
AcDbLinetypeTableRecord
  2
ByBlock
 70
     0
  3

 72
    65
 73
     0
 40
0.0
  0
LTYPE
  5
15
330
5
100
AcDbSymbolTableRecord
100
AcDbLinetypeTableRecord
  2
ByLayer
 70
     0
  3

 72
    65
 73
     0
 40
0.0
  0
LTYPE
  5
16
330
5
100
AcDbSymbolTableRecord
100
AcDbLinetypeTableRecord
  2
Continuous
 70
     0
  3
Solid line
 72
    65
 73
     0
 40
0.0
  0
LTYPE
  5
6E
330
5
100
AcDbSymbolTableRecord
100
AcDbLinetypeTableRecord
  2
DASHED
 70
     0
  3
Dashed
 72
    65
 73
     2
 40
15.0
 49
7.0
 74
     0
 49
-8.0
 74
     0
  0
LTYPE
  5
6F
330
5
100
AcDbSymbolTableRecord
100
AcDbLinetypeTableRecord
  2
DOTTED
 70
     0
  3
Dotted
 72
    65
 73
     2
 40
1.0
 49
0.0
 74
     0
 49
-1.0
 74
     0
  0
LTYPE
  5
70
330
5
100
AcDbSymbolTableRecord
100
AcDbLinetypeTableRecord
  2
DOT_CENTER
 70
     0
  3
Dot_Center
 72
    65
 73
     4
 40
14.0
 49
12.0
 74
     0
 49
-1.0
 74
     0
 49
0.0
 74
     0
 49
-1.0
 74
     0
  0
LTYPE
  5
71
330
5
100
AcDbSymbolTableRecord
100
AcDbLinetypeTableRecord
  2
LONG_DASHED
 70
     0
  3
Long_Dashed
 72
    65
 73
     2
 40
15.0
 49
10.0
 74
     0
 49
-5.0
 74
     0
  0
LTYPE
  5
72
330
5
100
AcDbSymbolTableRecord
100
AcDbLinetypeTableRecord
  2
DASH_CENTER
 70
     0
  3
Dash_Center
 72
    65
 73
     4
 40
14.0
 49
11.0
 74
     0
 49
-1.0
 74
     0
 49
1.0
 74
     0
 49
-1.0
 74
     0
  0
LTYPE
  5
73
330
5
100
AcDbSymbolTableRecord
100
AcDbLinetypeTableRecord
  2
PHANTOM
 70
     0
  3
Phantom
 72
    65
 73
     6
 40
13.0
 49
10.0
 74
     0
 49
-1.0
 74
     0
 49
0.0
 74
     0
 49
-1.0
 74
     0
 49
0.0
 74
     0
 49
-1.0
 74
     0
  0
LTYPE
  5
74
330
5
100
AcDbSymbolTableRecord
100
AcDbLinetypeTableRecord
  2
CENTER_DASH_DASH
 70
     0
  3
Center_Dash_Dash
 72
    65
 73
     6
 40
14.0
 49
9.0
 74
     0
 49
-1.0
 74
     0
 49
1.0
 74
     0
 49
-1.0
 74
     0
 49
1.0
 74
     0
 49
-1.0
 74
     0
  0
ENDTAB
  0
TABLE
  2
LAYER
  5
2
330
0
100
AcDbSymbolTable
 70
     2
  0
LAYER
  5
10
330
2
100
AcDbSymbolTableRecord
100
AcDbLayerTableRecord
  2
0
 70
     0
 62
     7
  6
Continuous
370
    -3
390
F
  0
LAYER
  5
75
330
2
100
AcDbSymbolTableRecord
100
AcDbLayerTableRecord
  2
1
 70
     0
 62
     7
  6
Continuous
370
    -3
390
F
  0
ENDTAB
  0
TABLE
  2
STYLE
  5
3
330
0
100
AcDbSymbolTable
 70
     5
  0
STYLE
  5
11
330
3
100
AcDbSymbolTableRecord
100
AcDbTextStyleTableRecord
  2
Standard
 70
     0
 40
0.0
 41
1.0
 50
0.0
 71
     0
 42
0.2
  3
txt
  4

  0
STYLE
  5
C6
330
3
100
AcDbSymbolTableRecord
100
AcDbTextStyleTableRecord
  2
CONVERTER_11
 70
     0
 40
0.0
 41
0.9
 50
0.0
 71
     0
 42
0.2
  3
txt.shx
  4

  0
STYLE
  5
232
330
3
100
AcDbSymbolTableRecord
100
AcDbTextStyleTableRecord
  2
CONVERTER_12
 70
     0
 40
0.0
 41
0.81
 50
0.0
 71
     0
 42
0.2
  3
txt.shx
  4

  0
STYLE
  5
238
330
3
100
AcDbSymbolTableRecord
100
AcDbTextStyleTableRecord
  2
CONVERTER_13
 70
     0
 40
0.0
 41
0.855
 50
0.0
 71
     0
 42
0.2
  3
txt.shx
  4

  0
STYLE
  5
23B
330
3
100
AcDbSymbolTableRecord
100
AcDbTextStyleTableRecord
  2
CONVERTER_14
 70
     0
 40
0.0
 41
0.72
 50
0.0
 71
     0
 42
0.2
  3
txt.shx
  4

  0
ENDTAB
  0
TABLE
  2
VIEW
  5
6
330
0
100
AcDbSymbolTable
 70
     0
  0
ENDTAB
  0
TABLE
  2
UCS
  5
7
330
0
100
AcDbSymbolTable
 70
     0
  0
ENDTAB
  0
TABLE
  2
APPID
  5
9
330
0
100
AcDbSymbolTable
 70
     2
  0
APPID
  5
12
330
9
100
AcDbSymbolTableRecord
100
AcDbRegAppTableRecord
  2
ACAD
 70
     0
  0
APPID
  5
2B3
330
9
100
AcDbSymbolTableRecord
100
AcDbRegAppTableRecord
  2
ACAD_MLEADERVER
 70
     0
  0
ENDTAB
  0
TABLE
  2
DIMSTYLE
  5
A
330
0
100
AcDbSymbolTable
 70
     3
100
AcDbDimStyleTable
  0
DIMSTYLE
105
27
330
A
100
AcDbSymbolTableRecord
100
AcDbDimStyleTableRecord
  2
Standard
 70
     0
178
     0
340
11
  0
DIMSTYLE
105
E4
102
{ACAD_REACTORS
330
E5
102
}
330
A
100
AcDbSymbolTableRecord
100
AcDbDimStyleTableRecord
  2
ME10_DIM_10
 70
     0
 41
3.5
 42
0.0
 44
1.5
 73
     0
 74
     0
 77
     1
 78
     8
140
3.5
147
1.5
172
     1
173
     1
174
     1
175
     1
176
     2
177
     2
178
     3
340
C6
  0
DIMSTYLE
105
F1
102
{ACAD_REACTORS
330
F2
102
}
330
A
100
AcDbSymbolTableRecord
100
AcDbDimStyleTableRecord
  2
ME10_DIM_11
 70
     0
  3
 {\Fgdt;n}<>
 41
3.5
 42
0.0
 44
1.5
 73
     0
 74
     0
 77
     1
 78
     8
140
3.5
147
1.5
172
     1
173
     1
174
     1
175
     1
176
     2
177
     2
178
     3
340
C6
  0
ENDTAB
  0
TABLE
  2
BLOCK_RECORD
  5
1
330
0
100
AcDbSymbolTable
 70
    19
  0
BLOCK_RECORD
  5
1F
330
1
100
AcDbSymbolTableRecord
100
AcDbBlockTableRecord
  2
*Model_Space
340
22
  0
BLOCK_RECORD
  5
1B
330
1
100
AcDbSymbolTableRecord
100
AcDbBlockTableRecord
  2
*Paper_Space
340
1E
  0
BLOCK_RECORD
  5
23
330
1
100
AcDbSymbolTableRecord
100
AcDbBlockTableRecord
  2
*Paper_Space0
340
26
  0
BLOCK_RECORD
  5
76
330
1
100
AcDbSymbolTableRecord
100
AcDbBlockTableRecord
  2
PSBJ-4-15-6-BU-SELECT__1
340
0
102
{BLKREFS
331
7A
102
}
  0
BLOCK_RECORD
  5
79
330
1
100
AcDbSymbolTableRecord
100
AcDbBlockTableRecord
  2
Back1
340
0
102
{BLKREFS
331
AC
102
}
  0
BLOCK_RECORD
  5
7D
330
1
100
AcDbSymbolTableRecord
100
AcDbBlockTableRecord
  2
PSBJ-4-15-6-BU-SELECT__2
340
0
102
{BLKREFS
331
81
102
}
  0
BLOCK_RECORD
  5
80
330
1
100
AcDbSymbolTableRecord
100
AcDbBlockTableRecord
  2
Front1
340
0
102
{BLKREFS
331
AD
102
}
  0
BLOCK_RECORD
  5
84
330
1
100
AcDbSymbolTableRecord
100
AcDbBlockTableRecord
  2
PSBJ-4-15-6-BU-SELECT__3
340
0
102
{BLKREFS
331
88
102
}
  0
BLOCK_RECORD
  5
87
330
1
100
AcDbSymbolTableRecord
100
AcDbBlockTableRecord
  2
Gen1
340
0
102
{BLKREFS
331
AE
102
}
  0
BLOCK_RECORD
  5
8B
330
1
100
AcDbSymbolTableRecord
100
AcDbBlockTableRecord
  2
PSBJ-4-15-6-BU-SELECT__4
340
0
102
{BLKREFS
331
8F
102
}
  0
BLOCK_RECORD
  5
8E
330
1
100
AcDbSymbolTableRecord
100
AcDbBlockTableRecord
  2
Left1
340
0
102
{BLKREFS
331
AF
102
}
  0
BLOCK_RECORD
  5
92
330
1
100
AcDbSymbolTableRecord
100
AcDbBlockTableRecord
  2
PSBJ-4-15-6-BU-SELECT__5
340
0
102
{BLKREFS
331
96
102
}
  0
BLOCK_RECORD
  5
95
330
1
100
AcDbSymbolTableRecord
100
AcDbBlockTableRecord
  2
Right1
340
0
102
{BLKREFS
331
B0
102
}
  0
BLOCK_RECORD
  5
99
330
1
100
AcDbSymbolTableRecord
100
AcDbBlockTableRecord
  2
PSBJ-4-15-6-BU-SELECT__6
340
0
102
{BLKREFS
331
9D
102
}
  0
BLOCK_RECORD
  5
9C
330
1
100
AcDbSymbolTableRecord
100
AcDbBlockTableRecord
  2
Top1
340
0
102
{BLKREFS
331
B1
102
}
  0
BLOCK_RECORD
  5
A0
330
1
100
AcDbSymbolTableRecord
100
AcDbBlockTableRecord
  2
_rahmen
340
0
102
{BLKREFS
331
A7
102
}
  0
BLOCK_RECORD
  5
A3
330
1
100
AcDbSymbolTableRecord
100
AcDbBlockTableRecord
  2
_punkt
340
0
102
{BLKREFS
331
A8
102
}
  0
BLOCK_RECORD
  5
A6
330
1
100
AcDbSymbolTableRecord
100
AcDbBlockTableRecord
  2
A4I_CS
340
0
102
{BLKREFS
331
B2
102
}
  0
BLOCK_RECORD
  5
AB
330
1
100
AcDbSymbolTableRecord
100
AcDbBlockTableRecord
  2
1
340
0
102
{BLKREFS
331
B5
102
}
  0
BLOCK_RECORD
  5
DB
330
1
100
AcDbSymbolTableRecord
100
AcDbBlockTableRecord
  2
*D17
340
0
  0
BLOCK_RECORD
  5
E6
330
1
100
AcDbSymbolTableRecord
100
AcDbBlockTableRecord
  2
*D18
340
0
  0
ENDTAB
  0
ENDSEC
  0
SECTION
  2
BLOCKS
  0
BLOCK
  5
20
330
1F
100
AcDbEntity
  8
0
100
AcDbBlockBegin
  2
*Model_Space
 70
     0
 10
0.0
 20
0.0
 30
0.0
  3
*Model_Space
  1

  0
ENDBLK
  5
21
330
1F
100
AcDbEntity
  8
0
100
AcDbBlockEnd
  0
BLOCK
  5
1C
330
1B
100
AcDbEntity
 67
     1
  8
0
100
AcDbBlockBegin
  2
*Paper_Space
 70
     0
 10
0.0
 20
0.0
 30
0.0
  3
*Paper_Space
  1

  0
ENDBLK
  5
1D
330
1B
100
AcDbEntity
 67
     1
  8
0
100
AcDbBlockEnd
  0
BLOCK
  5
24
330
23
100
AcDbEntity
  8
0
100
AcDbBlockBegin
  2
*Paper_Space0
 70
     0
 10
0.0
 20
0.0
 30
0.0
  3
*Paper_Space0
  1

  0
ENDBLK
  5
25
330
23
100
AcDbEntity
  8
0
100
AcDbBlockEnd
  0
BLOCK
  5
77
330
76
100
AcDbEntity
  8
0
100
AcDbBlockBegin
  2
PSBJ-4-15-6-BU-SELECT__1
 70
     0
 10
-256.2509717941285
 20
-141.8000054686271
 30
0.0
  3
PSBJ-4-15-6-BU-SELECT__1
  1

  0
LINE
  5
B6
330
76
100
AcDbEntity
  8
0
  6
Continuous
 62
     7
100
AcDbLine
 10
-256.2509717941285
 20
-112.200005468586
 30
0.0
 11
-256.2509717941285
 21
-120.200005468586
 31
0.0
  0
LINE
  5
B7
330
76
100
AcDbEntity
  8
0
  6
Continuous
 62
     7
100
AcDbLine
 10
-255.5009717941285
 20
-126.799986267786
 30
0.0
 11
-255.5009717941285
 21
-120.200005468586
 31
0.0
  0
LINE
  5
B8
330
76
100
AcDbEntity
  8
0
  6
Continuous
 62
     7
100
AcDbLine
 10
-256.2509717941285
 20
-120.200005468586
 30
0.0
 11
-255.5009717941285
 21
-120.200005468586
 31
0.0
  0
LINE
  5
B9
330
76
100
AcDbEntity
  8
0
  6
Continuous
 62
     7
100
AcDbLine
 10
-254.5009717941285
 20
-126.799986267786
 30
0.0
 11
-254.5009717941285
 21
-141.8000054686271
 31
0.0
  0
LINE
  5
BA
330
76
100
AcDbEntity
  8
0
  6
Continuous
 62
     7
100
AcDbLine
 10
-248.7509717941285
 20
-112.200005468586
 30
0.0
 11
-248.7509717941285
 21
-120.200005468586
 31
0.0
  0
LINE
  5
BB
330
76
100
AcDbEntity
  8
0
  6
Continuous
 62
     7
100
AcDbLine
 10
-248.7509717941285
 20
-112.200005468586
 30
0.0
 11
-256.2509717941285
 21
-112.200005468586
 31
0.0
  0
LINE
  5
BC
330
76
100
AcDbEntity
  8
0
  6
Continuous
 62
     7
100
AcDbLine
 10
-252.5009717941285
 20
-120.200005468586
 30
0.0
 11
-249.5009717941285
 21
-120.200005468586
 31
0.0
  0
LINE
  5
BD
330
76
100
AcDbEntity
  8
0
  6
Continuous
 62
     7
100
AcDbLine
 10
-249.5009717941285
 20
-126.799986267786
 30
0.0
 11
-249.5009717941285
 21
-120.200005468586
 31
0.0
  0
LINE
  5
BE
330
76
100
AcDbEntity
  8
0
  6
Continuous
 62
     7
100
AcDbLine
 10
-249.5009717941285
 20
-120.200005468586
 30
0.0
 11
-248.7509717941285
 21
-120.200005468586
 31
0.0
  0
LINE
  5
BF
330
76
100
AcDbEntity
  8
0
  6
Continuous
 62
     7
100
AcDbLine
 10
-254.5009717941285
 20
-126.799986267786
 30
0.0
 11
-255.5009717941285
 21
-126.799986267786
 31
0.0
  0
LINE
  5
C0
330
76
100
AcDbEntity
  8
0
  6
Continuous
 62
     7
100
AcDbLine
 10
-249.5009717941285
 20
-126.799986267786
 30
0.0
 11
-250.5009717941285
 21
-126.799986267786
 31
0.0
  0
LINE
  5
C1
330
76
100
AcDbEntity
  8
0
  6
Continuous
 62
     7
100
AcDbLine
 10
-250.5009717941285
 20
-126.799986267786
 30
0.0
 11
-254.5009717941285
 21
-126.799986267786
 31
0.0
  0
LINE
  5
C2
330
76
100
AcDbEntity
  8
0
  6
Continuous
 62
     7
100
AcDbLine
 10
-250.5009717941285
 20
-141.8000054686271
 30
0.0
 11
-254.5009717941285
 21
-141.8000054686271
 31
0.0
  0
LINE
  5
C3
330
76
100
AcDbEntity
  8
0
  6
Continuous
 62
     7
100
AcDbLine
 10
-255.5009717941285
 20
-120.200005468586
 30
0.0
 11
-252.5009717941285
 21
-120.200005468586
 31
0.0
  0
LINE
  5
C4
330
76
100
AcDbEntity
  8
0
  6
Continuous
 62
     7
100
AcDbLine
 10
-250.5009717941285
 20
-126.799986267786
 30
0.0
 11
-250.5009717941285
 21
-141.8000054686271
 31
0.0
  0
LINE
  5
C5
330
76
100
AcDbEntity
  8
1
  6
DOT_CENTER
 62
     2
100
AcDbLine
 10
-252.5009717941283
 20
-141.8000054686271
 30
0.0
 11
-252.5009717941283
 21
-112.200005468586
 31
0.0
  0
ENDBLK
  5
78
330
76
100
AcDbEntity
  8
0
100
AcDbBlockEnd
  0
BLOCK
  5
7B
330
79
100
AcDbEntity
  8
0
100
AcDbBlockBegin
  2
Back1
 70
     0
 10
-252.5009717941285
 20
-127.000002173451
 30
0.0
  3
Back1
  1

  0
INSERT
  5
7A
330
79
100
AcDbEntity
  8
0
100
AcDbBlockReference
  2
PSBJ-4-15-6-BU-SELECT__1
 10
-256.2509717941285
 20
-141.8000054686271
 30
0.0
  0
MTEXT
  5
C7
330
79
100
AcDbEntity
  8
1
 62
     6
100
AcDbMText
 10
-252.5009717941284
 20
-146.8000030517675
 30
0.0
 40
5.0
 41
0.0
 71
     2
 72
     1
  1
 
  7
CONVERTER_11
 73
     1
 44
1.32052821128451
  0
ENDBLK
  5
7C
330
79
100
AcDbEntity
  8
0
100
AcDbBlockEnd
  0
BLOCK
  5
7E
330
7D
100
AcDbEntity
  8
0
100
AcDbBlockBegin
  2
PSBJ-4-15-6-BU-SELECT__2
 70
     0
 10
-311.2490282058716
 20
-141.8000054686271
 30
0.0
  3
PSBJ-4-15-6-BU-SELECT__2
  1

  0
LINE
  5
C8
330
7D
100
AcDbEntity
  8
0
  6
Continuous
 62
     7
100
AcDbLine
 10
-303.7490282058716
 20
-112.200005468586
 30
0.0
 11
-307.4990282058716
 21
-112.200005468586
 31
0.0
  0
LINE
  5
C9
330
7D
100
AcDbEntity
  8
0
  6
Continuous
 62
     7
100
AcDbLine
 10
-310.4990282058716
 20
-126.799986267786
 30
0.0
 11
-310.4990282058716
 21
-120.200005468586
 31
0.0
  0
LINE
  5
CA
330
7D
100
AcDbEntity
  8
0
  6
Continuous
 62
     7
100
AcDbLine
 10
-309.4990282058716
 20
-126.799986267786
 30
0.0
 11
-309.4990282058716
 21
-141.8000054686271
 31
0.0
  0
LINE
  5
CB
330
7D
100
AcDbEntity
  8
0
  6
Continuous
 62
     7
100
AcDbLine
 10
-309.4990282058716
 20
-126.799986267786
 30
0.0
 11
-310.4990282058716
 21
-126.799986267786
 31
0.0
  0
LINE
  5
CC
330
7D
100
AcDbEntity
  8
0
  6
Continuous
 62
     7
100
AcDbLine
 10
-307.4990282058716
 20
-126.799986267786
 30
0.0
 11
-309.4990282058716
 21
-126.799986267786
 31
0.0
  0
LINE
  5
CD
330
7D
100
AcDbEntity
  8
0
  6
Continuous
 62
     7
100
AcDbLine
 10
-304.4990282058716
 20
-126.799986267786
 30
0.0
 11
-304.4990282058716
 21
-120.200005468586
 31
0.0
  0
LINE
  5
CE
330
7D
100
AcDbEntity
  8
0
  6
Continuous
 62
     7
100
AcDbLine
 10
-305.4990282058716
 20
-141.8000054686271
 30
0.0
 11
-307.4990282058716
 21
-141.8000054686271
 31
0.0
  0
LINE
  5
CF
330
7D
100
AcDbEntity
  8
0
  6
Continuous
 62
     7
100
AcDbLine
 10
-307.4990282058716
 20
-141.8000054686271
 30
0.0
 11
-309.4990282058716
 21
-141.8000054686271
 31
0.0
  0
LINE
  5
D0
330
7D
100
AcDbEntity
  8
0
  6
Continuous
 62
     7
100
AcDbLine
 10
-304.4990282058716
 20
-126.799986267786
 30
0.0
 11
-305.4990282058716
 21
-126.799986267786
 31
0.0
  0
LINE
  5
D1
330
7D
100
AcDbEntity
  8
0
  6
Continuous
 62
     7
100
AcDbLine
 10
-305.4990282058716
 20
-126.799986267786
 30
0.0
 11
-307.4990282058716
 21
-126.799986267786
 31
0.0
  0
LINE
  5
D2
330
7D
100
AcDbEntity
  8
0
  6
Continuous
 62
     7
100
AcDbLine
 10
-303.7490282058716
 20
-112.200005468586
 30
0.0
 11
-303.7490282058716
 21
-120.200005468586
 31
0.0
  0
LINE
  5
D3
330
7D
100
AcDbEntity
  8
0
  6
Continuous
 62
     7
100
AcDbLine
 10
-311.2490282058716
 20
-120.200005468586
 30
0.0
 11
-310.4990282058716
 21
-120.200005468586
 31
0.0
  0
LINE
  5
D4
330
7D
100
AcDbEntity
  8
0
  6
Continuous
 62
     7
100
AcDbLine
 10
-304.4990282058716
 20
-120.200005468586
 30
0.0
 11
-303.7490282058716
 21
-120.200005468586
 31
0.0
  0
LINE
  5
D5
330
7D
100
AcDbEntity
  8
0
  6
Continuous
 62
     7
100
AcDbLine
 10
-310.4990282058716
 20
-120.200005468586
 30
0.0
 11
-304.4990282058716
 21
-120.200005468586
 31
0.0
  0
LINE
  5
D6
330
7D
100
AcDbEntity
  8
0
  6
Continuous
 62
     7
100
AcDbLine
 10
-311.2490282058716
 20
-112.200005468586
 30
0.0
 11
-311.2490282058716
 21
-120.200005468586
 31
0.0
  0
LINE
  5
D7
330
7D
100
AcDbEntity
  8
0
  6
Continuous
 62
     7
100
AcDbLine
 10
-307.4990282058716
 20
-112.200005468586
 30
0.0
 11
-311.2490282058716
 21
-112.200005468586
 31
0.0
  0
LINE
  5
D8
330
7D
100
AcDbEntity
  8
0
  6
Continuous
 62
     7
100
AcDbLine
 10
-305.4990282058716
 20
-126.799986267786
 30
0.0
 11
-305.4990282058716
 21
-141.8000054686271
 31
0.0
  0
LINE
  5
D9
330
7D
100
AcDbEntity
  8
1
  6
DOT_CENTER
 62
     2
100
AcDbLine
 10
-307.4990282058716
 20
-141.8000054686271
 30
0.0
 11
-307.4990282058716
 21
-112.200005468586
 31
0.0
  0
ENDBLK
  5
7F
330
7D
100
AcDbEntity
  8
0
100
AcDbBlockEnd
  0
BLOCK
  5
82
330
80
100
AcDbEntity
  8
0
100
AcDbBlockBegin
  2
Front1
 70
     0
 10
-307.4990282058716
 20
-127.000002173451
 30
0.0
  3
Front1
  1

  0
INSERT
  5
81
330
80
100
AcDbEntity
  8
0
100
AcDbBlockReference
  2
PSBJ-4-15-6-BU-SELECT__2
 10
-311.2490282058716
 20
-141.8000054686271
 30
0.0
  0
MTEXT
  5
DA
330
80
100
AcDbEntity
  8
1
 62
     6
100
AcDbMText
 10
-307.4990282058716
 20
-146.8000030517675
 30
0.0
 40
5.0
 41
0.0
 71
     2
 72
     1
  1
 
  7
CONVERTER_11
 73
     1
 44
1.32052821128451
  0
DIMENSION
  5
E5
330
80
100
AcDbEntity
  8
1
100
AcDbDimension
  2
*D17
 10
-319.4990282058717
 20
-112.2000054685859
 30
0.0
 11
-322.9240282058717
 21
-126.801537271139
 31
0.0
 70
    32
  1
<>
 71
     5
 42
-1.0
 53
90.0
  3
ME10_DIM_10
100
AcDbAlignedDimension
 13
-309.4990282058716
 23
-141.8000054686271
 33
0.0
 14
-307.4990282058716
 24
-112.200005468586
 34
0.0
 50
90.0
100
AcDbRotatedDimension
  0
DIMENSION
  5
F2
330
80
100
AcDbEntity
  8
1
100
AcDbDimension
  2
*D18
 10
-311.2490282058716
 20
-102.200005468586
 30
0.0
 11
-308.882150949004
 21
-98.77500546858597
 31
0.0
 70
    32
  1
<>
 71
     5
 42
-1.0
 53
0.00013888888889
  3
ME10_DIM_11
100
AcDbAlignedDimension
 13
-303.7490282058716
 23
-112.200005468586
 33
0.0
 14
-311.2490282058716
 24
-112.200005468586
 34
0.0
100
AcDbRotatedDimension
  0
ENDBLK
  5
83
330
80
100
AcDbEntity
  8
0
100
AcDbBlockEnd
  0
BLOCK
  5
85
330
84
100
AcDbEntity
  8
0
100
AcDbBlockBegin
  2
PSBJ-4-15-6-BU-SELECT__3
 70
     0
 10
-150.7500001045657
 20
-216.8171808025362
 30
0.0
  3
PSBJ-4-15-6-BU-SELECT__3
  1

  0
LINE
  5
F3
330
84
100
AcDbEntity
  8
0
  6
Continuous
 62
     7
100
AcDbLine
 10
-150.7500001045657
 20
-190.1828288504812
 30
0.0
 11
-150.7500001045657
 21
-197.1110320807567
 31
0.0
  0
LINE
  5
F4
330
84
100
AcDbEntity
  8
0
  6
Continuous
 62
     7
100
AcDbLine
 10
-150.0000001045657
 20
-202.8267831173534
 30
0.0
 11
-150.0000001045657
 21
-198.2360320807567
 31
0.0
  0
LINE
  5
F5
330
84
100
AcDbEntity
  8
0
  6
Continuous
 62
     7
100
AcDbLine
 10
-143.2500001045657
 20
-190.1828288504812
 30
0.0
 11
-143.2500001045657
 21
-197.1110320807567
 31
0.0
  0
LINE
  5
F6
330
84
100
AcDbEntity
  8
0
  6
Continuous
 62
     7
100
AcDbLine
 10
-144.0000001045657
 20
-202.8267831173534
 30
0.0
 11
-144.0000001045657
 21
-198.2360320807567
 31
0.0
  0
LINE
  5
F7
330
84
100
AcDbEntity
  8
0
  6
Continuous
 62
     7
100
AcDbLine
 10
-148.471736147053
 20
-191.4755602631539
 30
0.0
 11
-148.471736147053
 21
-190.8982420320132
 31
0.0
  0
LINE
  5
F8
330
84
100
AcDbEntity
  8
0
  6
Continuous
 62
     7
100
AcDbLine
 10
-149.2897774077952
 20
-190.6620938609644
 30
0.0
 11
-148.471736147053
 21
-190.8982420320132
 31
0.0
  0
LINE
  5
F9
330
84
100
AcDbEntity
  8
0
  6
Continuous
 62
     7
100
AcDbLine
 10
-149.2897774077952
 20
-191.1325057562779
 30
0.0
 11
-149.2897774077952
 21
-190.6620938609644
 31
0.0
  0
LINE
  5
FA
330
84
100
AcDbEntity
  8
0
  6
Continuous
 62
     7
100
AcDbLine
 10
-149.0000001045657
 20
-203.9448171061033
 30
0.0
 11
-149.0000001045657
 21
-215.8171808025362
 31
0.0
  0
LINE
  5
FB
330
84
100
AcDbEntity
  8
0
  6
Continuous
 62
     7
100
AcDbLine
 10
-145.0000001045657
 20
-203.9448171061033
 30
0.0
 11
-145.0000001045657
 21
-215.8171808025362
 31
0.0
  0
SPLINE
  5
FC
330
84
100
AcDbEntity
  8
0
  6
Continuous
 62
     7
100
AcDbSpline
210
0.0
220
0.0
230
1.0
 70
  1064
 71
     3
 72
    13
 73
     9
 74
     7
 42
0.000000001
 43
0.0000000001
 44
0.00000001
 40
0.0
 40
0.0
 40
0.0
 40
0.0
 40
0.5673211744222187
 40
1.08409119438632
 40
1.544796125186447
 40
1.949835524718316
 40
2.308007696885146
 40
2.638544764803824
 40
2.638544764803824
 40
2.638544764803824
 40
2.638544764803824
 10
-148.8750001045657
 20
-191.806626482577
 30
0.0
 10
-149.0552990200718
 20
-191.7488158559523
 30
0.0
 10
-149.3998313127185
 20
-191.6383458101316
 30
0.0
 10
-149.862456166495
 20
-191.4079143489729
 30
0.0
 10
-150.2431880275267
 20
-191.1435174789837
 30
0.0
 10
-150.5257156549923
 20
-190.8468337641318
 30
0.0
 10
-150.7136408823626
 20
-190.5239198119678
 30
0.0
 10
-150.7382089742423
 20
-190.2934431409865
 30
0.0
 10
-150.7500001045657
 20
-190.1828288504812
 30
0.0
 11
-148.8750001045657
 21
-191.806626482577
 31
0.0
 11
-149.4104535845011
 21
-191.6191621477283
 31
0.0
 11
-149.8726667662619
 21
-191.3880556186435
 31
0.0
 11
-150.2475952927845
 21
-191.1203288285498
 31
0.0
 11
-150.5238474325128
 21
-190.8241166192169
 31
0.0
 11
-150.6930290919683
 21
-190.50841917599
 31
0.0
 11
-150.7500001045657
 21
-190.1828288504812
 31
0.0
  0
SPLINE
  5
FD
330
84
100
AcDbEntity
  8
0
  6
Continuous
 62
     7
100
AcDbSpline
210
0.0
220
0.0
230
1.0
 70
  1064
 71
     3
 72
    15
 73
    11
 74
     9
 42
0.000000001
 43
0.0000000001
 44
0.00000001
 40
0.0
 40
0.0
 40
0.0
 40
0.0
 40
0.4014610012974049
 40
0.8712471526340981
 40
1.440286926973137
 40
2.105766033604329
 40
2.844663640509567
 40
3.622801007438644
 40
4.400938374644252
 40
5.139835990806136
 40
5.139835990806136
 40
5.139835990806136
 40
5.139835990806136
 10
-144.0000001045657
 20
-202.8267831173534
 30
0.0
 10
-144.0228594828941
 20
-202.9612047499873
 30
0.0
 10
-144.0724687181109
 20
-203.2529253958266
 30
0.0
 10
-144.416434022108
 20
-203.6181074428239
 30
0.0
 10
-144.8972015169558
 20
-203.9206031299296
 30
0.0
 10
-145.5192137568208
 20
-204.1501591298816
 30
0.0
 10
-146.2343152487688
 20
-204.2947025637703
 30
0.0
 10
-146.9996250689686
 20
-204.3419119387025
 30
0.0
 10
-147.7671472235426
 20
-204.299874220212
 30
0.0
 10
-148.2599648986768
 20
-204.1828297298617
 30
0.0
 10
-148.5000001045657
 20
-204.1258212230301
 30
0.0
 11
-144.0000001045657
 21
-202.8267831173534
 31
0.0
 11
-144.1022233982627
 21
-203.2150115815032
 31
0.0
 11
-144.4019238932124
 21
-203.5767831173534
 31
0.0
 11
-144.8786803265623
 21
-203.8874430063551
 31
0.0
 11
-145.5000001045657
 21
-204.1258212230301
 31
0.0
 11
-146.223543176266
 21
-204.2756714705049
 31
0.0
 11
-147.0000001045657
 21
-204.3267831173534
 31
0.0
 11
-147.7764570328653
 21
-204.2756714705049
 31
0.0
 11
-148.5000001045657
 21
-204.1258212230301
 31
0.0
  0
SPLINE
  5
FE
330
84
100
AcDbEntity
  8
0
  6
Continuous
 62
     7
100
AcDbSpline
210
0.0
220
0.0
230
1.0
 70
  1064
 71
     3
 72
    11
 73
     7
 74
     5
 42
0.000000001
 43
0.0000000001
 44
0.00000001
 40
0.0
 40
0.0
 40
0.0
 40
0.0
 40
0.6654791118106667
 40
1.234518881643214
 40
1.704305029046002
 40
2.105766034724963
 40
2.105766034724963
 40
2.105766034724963
 40
2.105766034724963
 10
-148.5000001045657
 20
-204.1258212230301
 30
0.0
 10
-148.7114436753126
 20
-204.0551973695726
 30
0.0
 10
-149.1036890109127
 20
-203.9241842606904
 30
0.0
 10
-149.583386468742
 20
-203.617384616397
 30
0.0
 10
-149.9275658086336
 20
-203.2530634418443
 30
0.0
 10
-149.9771515517592
 20
-202.9612482955884
 30
0.0
 10
-150.0000001045657
 20
-202.8267831173534
 30
0.0
 11
-148.5000001045657
 21
-204.1258212230301
 31
0.0
 11
-149.1213198825691
 21
-203.8874430063551
 31
0.0
 11
-149.598076315919
 21
-203.5767831173534
 31
0.0
 11
-149.8977768108687
 21
-203.2150115815033
 31
0.0
 11
-150.0000001045657
 21
-202.8267831173534
 31
0.0
  0
SPLINE
  5
FF
330
84
100
AcDbEntity
  8
0
  6
Continuous
 62
     7
100
AcDbSpline
210
0.0
220
0.0
230
1.0
 70
  1064
 71
     3
 72
    21
 73
    17
 74
    15
 42
0.000000001
 43
0.0000000001
 44
0.00000001
 40
0.0
 40
0.0
 40
0.0
 40
0.0
 40
0.427689157208328
 40
0.9114026176142009
 40
1.482355911729922
 40
2.146223369605888
 40
2.89151075255044
 40
3.696160661203368
 40
4.531937300152201
 40
5.367713939101062
 40
6.172363847753906
 40
6.917651230698414
 40
7.58151868857438
 40
8.15247198269018
 40
8.63618544309603
 40
9.06387460030438
 40
9.06387460030438
 40
9.06387460030438
 40
9.06387460030438
 10
-150.7500001045657
 20
-197.1110320807567
 30
0.0
 10
-150.7296865497196
 20
-197.2542849670546
 30
0.0
 10
-150.686398488239
 20
-197.559555864482
 30
0.0
 10
-150.3716648905143
 20
-197.9635050693743
 30
0.0
 10
-149.9172825299347
 20
-198.314319730067
 30
0.0
 10
-149.3188749273838
 20
-198.6039435199257
 30
0.0
 10
-148.6116615122143
 20
-198.8210892448398
 30
0.0
 10
-147.8258229219195
 20
-198.9557864007712
 30
0.0
 10
-147.0000001045656
 20
-199.0014415892175
 30
0.0
 10
-146.1741772872118
 20
-198.9557864007712
 30
0.0
 10
-145.3883386969171
 20
-198.8210892448398
 30
0.0
 10
-144.6811252817476
 20
-198.6039435199258
 30
0.0
 10
-144.0827176791967
 20
-198.314319730067
 30
0.0
 10
-143.6283353186171
 20
-197.9635050693742
 30
0.0
 10
-143.3136017208923
 20
-197.5595558644822
 30
0.0
 10
-143.2703136594118
 20
-197.2542849670546
 30
0.0
 10
-143.2500001045657
 20
-197.1110320807567
 30
0.0
 11
-150.7500001045657
 21
-197.1110320807567
 31
0.0
 11
-150.6559793888056
 21
-197.5282587878234
 31
0.0
 11
-150.3786333591997
 21
-197.9245640916022
 31
0.0
 11
-149.9318678539185
 21
-198.2800753356724
 31
0.0
 11
-149.3380868615359
 21
-198.5769661103843
 31
0.0
 11
-148.6270639542737
 21
-198.8003485295108
 31
0.0
 11
-147.8344536069018
 21
-198.9390219160977
 31
0.0
 11
-147.0000001045657
 21
-198.9860318825668
 31
0.0
 11
-146.1655466022295
 21
-198.9390219160977
 31
0.0
 11
-145.3729362548576
 21
-198.8003485295108
 31
0.0
 11
-144.6619133475955
 21
-198.5769661103843
 31
0.0
 11
-144.0681323552129
 21
-198.2800753356724
 31
0.0
 11
-143.6213668499316
 21
-197.9245640916022
 31
0.0
 11
-143.3440208203257
 21
-197.5282587878234
 31
0.0
 11
-143.2500001045657
 21
-197.1110320807567
 31
0.0
  0
SPLINE
  5
100
330
84
100
AcDbEntity
  8
0
  6
Continuous
 62
     7
100
AcDbSpline
210
0.0
220
0.0
230
1.0
 70
  1064
 71
     3
 72
    15
 73
    11
 74
     9
 42
0.000000001
 43
0.0000000001
 44
0.00000001
 40
0.0
 40
0.0
 40
0.0
 40
0.0
 40
0.3267045145684655
 40
0.720383267474255
 40
1.17675055140715
 40
1.679432603828949
 40
2.205402343428887
 40
2.72874006673025
 40
3.22384076587439
 40
3.668676026258349
 40
3.668676026258349
 40
3.668676026258349
 40
3.668676026258349
 10
-145.04465476196
 20
-191.3039052964863
 30
0.0
 10
-145.1145362848571
 20
-191.2192906913365
 30
0.0
 10
-145.2686250160602
 20
-191.0327155496643
 30
0.0
 10
-145.6197893211794
 20
-190.8415799432692
 30
0.0
 10
-146.0451097215341
 20
-190.6915693517379
 30
0.0
 10
-146.5343420233844
 20
-190.6024489567311
 30
0.0
 10
-147.0523802563305
 20
-190.575609561042
 30
0.0
 10
-147.5663826677186
 20
-190.6165579468538
 30
0.0
 10
-148.0477722659842
 20
-190.7128877861805
 30
0.0
 10
-148.3355446386586
 20
-190.8386999870029
 30
0.0
 10
-148.471736147053
 20
-190.8982420320132
 30
0.0
 11
-145.04465476196
 21
-191.3039052964863
 31
0.0
 11
-145.2668223303054
 21
-191.0643694662929
 31
0.0
 11
-145.6039987313612
 21
-190.8611576563621
 31
0.0
 11
-146.0338112097859
 21
-190.7077551485593
 31
0.0
 11
-146.5277372826824
 21
-190.6143405903745
 31
0.0
 11
-147.0530018457451
 21
-190.5871136597688
 31
0.0
 11
-147.5747493614079
 21
-190.6278801107734
 31
0.0
 11
-148.058357576031
 21
-190.733935731746
 31
0.0
 11
-148.471736147053
 21
-190.8982420320132
 31
0.0
  0
SPLINE
  5
101
330
84
100
AcDbEntity
  8
0
  6
Continuous
 62
     7
100
AcDbSpline
210
0.0
220
0.0
230
1.0
 70
  1064
 71
     3
 72
    19
 73
    15
 74
    13
 42
0.000000001
 43
0.0000000001
 44
0.00000001
 40
0.0
 40
0.0
 40
0.0
 40
0.0
 40
0.3981154967652669
 40
0.8639867628658888
 40
1.428284540405692
 40
2.088217989782065
 40
2.820958119513303
 40
3.592611012142804
 40
4.364263904772306
 40
5.097004034503511
 40
5.756937483879858
 40
6.321235261419732
 40
6.787106527520354
 40
7.185222024285607
 40
7.185222024285607
 40
7.185222024285607
 40
7.185222024285607
 10
-149.9750001045657
 20
-190.1828288504812
 30
0.0
 10
-149.9523312791532
 20
-190.3161300669912
 30
0.0
 10
-149.9031355746049
 20
-190.6054191916454
 30
0.0
 10
-149.5620355036626
 20
-190.9675627505169
 30
0.0
 10
-149.0852801634938
 20
-191.2675141990776
 30
0.0
 10
-148.4684244041151
 20
-191.4952668428302
 30
0.0
 10
-147.759398697951
 20
-191.6381315622373
 30
0.0
 10
-147.0000001045657
 20
-191.6868439186844
 30
0.0
 10
-146.2406015111804
 20
-191.6381315622373
 30
0.0
 10
-145.5315758050163
 20
-191.4952668428302
 30
0.0
 10
-144.9147200456376
 20
-191.2675141990776
 30
0.0
 10
-144.4379647054687
 20
-190.9675627505169
 30
0.0
 10
-144.0968646345265
 20
-190.6054191916455
 30
0.0
 10
-144.0476689299782
 20
-190.3161300669911
 30
0.0
 10
-144.0250001045657
 20
-190.1828288504812
 30
0.0
 11
-149.9750001045657
 21
-190.1828288504812
 31
0.0
 11
-149.8736286716495
 21
-190.5678220774298
 31
0.0
 11
-149.5764256808243
 21
-190.9265788504812
 31
0.0
 11
-149.1036422177524
 21
-191.2346499070745
 31
0.0
 11
-148.4875001045657
 21
-191.4710416386105
 31
0.0
 11
-147.7699865584628
 21
-191.6196431340231
 31
0.0
 11
-147.0000001045657
 21
-191.6703288504812
 31
0.0
 11
-146.2300136506686
 21
-191.6196431340231
 31
0.0
 11
-145.5125001045657
 21
-191.4710416386105
 31
0.0
 11
-144.896357991379
 21
-191.2346499070745
 31
0.0
 11
-144.423574528307
 21
-190.9265788504812
 31
0.0
 11
-144.1263715374819
 21
-190.5678220774298
 31
0.0
 11
-144.0250001045657
 21
-190.1828288504812
 31
0.0
  0
SPLINE
  5
102
330
84
100
AcDbEntity
  8
0
  6
Continuous
 62
     7
100
AcDbSpline
210
0.0
220
0.0
230
1.0
 70
  1064
 71
     3
 72
    17
 73
    13
 74
    11
 42
0.000000001
 43
0.0000000001
 44
0.00000001
 40
0.0
 40
0.0
 40
0.0
 40
0.0
 40
0.3983542610548592
 40
0.8429510386635173
 40
1.361494247467771
 40
1.961521647950419
 40
2.636314108437975
 40
3.370031773682749
 40
4.141182330131883
 40
4.925145777158999
 40
5.696296253055448
 40
6.430014082693645
 40
6.430014082693645
 40
6.430014082693645
 40
6.430014082693645
 10
-143.2500001045657
 20
-190.1828288504812
 30
0.0
 10
-143.2674690995241
 20
-190.3162374882062
 30
0.0
 10
-143.3044349693372
 20
-190.5985413548004
 30
0.0
 10
-143.5777822642126
 20
-190.9793499560989
 30
0.0
 10
-143.9774480922944
 20
-191.3159724267645
 30
0.0
 10
-144.5073813704612
 20
-191.6014590210101
 30
0.0
 10
-145.1398129907639
 20
-191.8263852658285
 30
0.0
 10
-145.8513501838401
 20
-191.9817449933521
 30
0.0
 10
-146.6116797106088
 20
-192.0616009597774
 30
0.0
 10
-147.3880636946342
 20
-192.0600497242087
 30
0.0
 10
-148.1498803953588
 20
-191.9862247713131
 30
0.0
 10
-148.6373352454721
 20
-191.865491526389
 30
0.0
 10
-148.8750001045657
 20
-191.806626482577
 30
0.0
 11
-143.2500001045657
 21
-190.1828288504812
 31
0.0
 11
-143.3319468580842
 21
-190.5726632435285
 31
0.0
 11
-143.5742046384059
 21
-190.9454600562484
 31
0.0
 11
-143.9661865876185
 21
-191.2849261215311
 31
0.0
 11
-144.49076033072
 21
-191.5762253982513
 31
0.0
 11
-145.1250002355634
 21
-191.8066263691296
 31
0.0
 11
-145.8411863756596
 21
-191.9660598185346
 31
0.0
 11
-146.608018394698
 21
-192.0475572740165
 31
0.0
 11
-147.3919818418194
 21
-192.0475574042967
 31
0.0
 11
-148.1588137525106
 21
-191.9660596939483
 31
0.0
 11
-148.8750001045657
 21
-191.806626482577
 31
0.0
  0
SPLINE
  5
103
330
84
100
AcDbEntity
  8
0
  6
Continuous
 62
     7
100
AcDbSpline
210
0.0
220
0.0
230
1.0
 70
  1064
 71
     3
 72
    15
 73
    11
 74
     9
 42
0.000000001
 43
0.0000000001
 44
0.00000001
 40
0.0
 40
0.0
 40
0.0
 40
0.0
 40
0.51363627176072
 40
1.1119227296083
 40
1.778808570838338
 40
2.488743811539622
 40
3.211224719126743
 40
3.91440979119741
 40
4.568532421891145
 40
5.149641059391839
 40
5.149641059391839
 40
5.149641059391839
 40
5.149641059391839
 10
-144.3906419459569
 20
-190.8972998086211
 30
0.0
 10
-144.5274004171551
 20
-190.7931382816072
 30
0.0
 10
-144.8234559461194
 20
-190.5676488313681
 30
0.0
 10
-145.3813973887654
 20
-190.3492700458096
 30
0.0
 10
-146.0211766768522
 20
-190.1911930230883
 30
0.0
 10
-146.7192336999858
 20
-190.1168154395779
 30
0.0
 10
-147.4329312689817
 20
-190.125037793994
 30
0.0
 10
-148.1205366198729
 20
-190.2203756524813
 30
0.0
 10
-148.7501409637642
 20
-190.3841570036325
 30
0.0
 10
-149.1171294394749
 20
-190.5731724439765
 30
0.0
 10
-149.2897774077952
 20
-190.6620938609644
 30
0.0
 11
-144.3906419459569
 21
-190.8972998086211
 31
0.0
 11
-144.8121649225751
 21
-190.6038026174019
 31
0.0
 11
-145.3627835912712
 21
-190.3697817281022
 31
0.0
 11
-146.0100091713078
 21
-190.2090466406307
 31
0.0
 11
-146.715650287273
 21
-190.1310808784484
 31
0.0
 11
-147.4380699767292
 21
-190.1404858919706
 31
0.0
 11
-148.1346408573761
 21
-190.2367057353842
 31
0.0
 11
-148.7642602152893
 21
-190.4140637694371
 31
0.0
 11
-149.2897774077952
 21
-190.6620938609644
 31
0.0
  0
SPLINE
  5
104
330
84
100
AcDbEntity
  8
0
  6
Continuous
 62
     7
100
AcDbSpline
210
0.0
220
0.0
230
1.0
 70
  1064
 71
     3
 72
    11
 73
     7
 74
     5
 42
0.000000001
 43
0.0000000001
 44
0.00000001
 40
0.0
 40
0.0
 40
0.0
 40
0.0
 40
0.4436527430936859
 40
0.8230125885580205
 40
1.136203351175498
 40
1.403844020353707
 40
1.403844020353707
 40
1.403844020353707
 40
1.403844020353707
 10
-148.0000001045657
 20
-216.6832062063206
 30
0.0
 10
-148.1409624856631
 20
-216.6361236371487
 30
0.0
 10
-148.4024593748424
 20
-216.5487815610969
 30
0.0
 10
-148.722257680606
 20
-216.3442484659054
 30
0.0
 10
-148.9517105694738
 20
-216.1013676825405
 30
0.0
 10
-148.9847677361005
 20
-215.906824254266
 30
0.0
 10
-149.0000001045657
 20
-215.8171808025362
 30
0.0
 11
-148.0000001045657
 21
-216.6832062063206
 31
0.0
 11
-148.4142132899013
 21
-216.524287395204
 31
0.0
 11
-148.7320509121346
 21
-216.3171808025361
 31
0.0
 11
-148.931851242101
 21
-216.0759997786361
 31
0.0
 11
-149.0000001045657
 21
-215.8171808025362
 31
0.0
  0
SPLINE
  5
105
330
84
100
AcDbEntity
  8
0
  6
Continuous
 62
     7
100
AcDbSpline
210
0.0
220
0.0
230
1.0
 70
  1064
 71
     3
 72
    15
 73
    11
 74
     9
 42
0.000000001
 43
0.0000000001
 44
0.00000001
 40
0.0
 40
0.0
 40
0.0
 40
0.0
 40
0.2676406647967002
 40
0.5808314313480647
 40
0.9601912813189
 40
1.403844019233164
 40
1.89644242388552
 40
2.415200668475577
 40
2.933958913342193
 40
3.426557327251145
 40
3.426557327251145
 40
3.426557327251145
 40
3.426557327251145
 10
-145.0000001045657
 20
-215.8171808025362
 30
0.0
 10
-145.0152396899622
 20
-215.9067952233763
 30
0.0
 10
-145.0483125173488
 20
-216.1012756509339
 30
0.0
 10
-145.2776227114653
 20
-216.3447303536752
 30
0.0
 10
-145.5981343766296
 20
-216.5463941440017
 30
0.0
 10
-146.012809202529
 20
-216.6994314781929
 30
0.0
 10
-146.4895435307656
 20
-216.7957937673119
 30
0.0
 10
-146.9997500776094
 20
-216.8272666843765
 30
0.0
 10
-147.5114315148055
 20
-216.7992415363201
 30
0.0
 10
-147.8399766329549
 20
-216.7212118777835
 30
0.0
 10
-148.0000001045657
 20
-216.6832062063206
 30
0.0
 11
-145.0000001045657
 21
-215.8171808025362
 31
0.0
 11
-145.0681489670303
 21
-216.0759997786361
 31
0.0
 11
-145.2679492969968
 21
-216.3171808025362
 31
0.0
 11
-145.5857869192301
 21
-216.524287395204
 31
0.0
 11
-146.0000001045657
 21
-216.6832062063206
 31
0.0
 11
-146.482362152366
 21
-216.7831063713039
 31
0.0
 11
-147.0000001045657
 21
-216.8171808025362
 31
0.0
 11
-147.5176380567654
 21
-216.7831063713039
 31
0.0
 11
-148.0000001045657
 21
-216.6832062063206
 31
0.0
  0
SPLINE
  5
106
330
84
100
AcDbEntity
  8
0
  6
Continuous
 62
     7
100
AcDbSpline
210
0.0
220
0.0
230
1.0
 70
  1064
 71
     3
 72
    15
 73
    11
 74
     9
 42
0.000000001
 43
0.0000000001
 44
0.00000001
 40
0.0
 40
0.0
 40
0.0
 40
0.0
 40
0.7327401361055437
 40
1.50439302525267
 40
2.276045914123269
 40
3.00878604097221
 40
3.668719488385517
 40
4.233017264615318
 40
4.698888531332361
 40
5.097004024217231
 40
5.097004024217231
 40
5.097004024217231
 40
5.097004024217231
 10
-145.5125001045657
 20
-188.8946160623519
 30
0.0
 10
-145.7505350170976
 20
-188.8380826264045
 30
0.0
 10
-146.2392458783071
 20
-188.7220135068495
 30
0.0
 10
-147.0003720149468
 20
-188.6803261026198
 30
0.0
 10
-147.7593042533126
 20
-188.7271420661054
 30
0.0
 10
-148.4684465661679
 20
-188.8704809713749
 30
0.0
 10
-149.0852753706837
 20
-189.0981240046827
 30
0.0
 10
-149.5620364697893
 20
-189.3980988943691
 30
0.0
 10
-149.9031353960396
 20
-189.7602377577599
 30
0.0
 10
-149.9523312210606
 20
-190.0495273981422
 30
0.0
 10
-149.9750001045657
 20
-190.1828288504812
 30
0.0
 11
-145.5125001045657
 21
-188.8946160623519
 31
0.0
 11
-146.2300136506686
 21
-188.7460145669393
 31
0.0
 11
-147.0000001045657
 21
-188.6953288504812
 31
0.0
 11
-147.7699865584628
 21
-188.7460145669393
 31
0.0
 11
-148.4875001045657
 21
-188.8946160623519
 31
0.0
 11
-149.1036422177524
 21
-189.1310077938878
 31
0.0
 11
-149.5764256808243
 21
-189.4390788504812
 31
0.0
 11
-149.8736286716495
 21
-189.7978356235326
 31
0.0
 11
-149.9750001045657
 21
-190.1828288504812
 31
0.0
  0
SPLINE
  5
107
330
84
100
AcDbEntity
  8
0
  6
Continuous
 62
     7
100
AcDbSpline
210
0.0
220
0.0
230
1.0
 70
  1064
 71
     3
 72
    11
 73
     7
 74
     5
 42
0.000000001
 43
0.0000000001
 44
0.00000001
 40
0.0
 40
0.0
 40
0.0
 40
0.0
 40
0.3981154972663706
 40
0.8639867600495346
 40
1.428284531772907
 40
2.088217984365615
 40
2.088217984365615
 40
2.088217984365615
 40
2.088217984365615
 10
-144.0250001045657
 20
-190.1828288504812
 30
0.0
 10
-144.0476582527636
 20
-190.0494842154088
 30
0.0
 10
-144.0968307814768
 20
-189.7601008621024
 30
0.0
 10
-144.4381419600928
 20
-189.3988156973297
 30
0.0
 10
-144.9138419391203
 20
-189.0945727167635
 30
0.0
 10
-145.3028185635601
 20
-188.9646513837023
 30
0.0
 10
-145.5125001045657
 20
-188.8946160623519
 30
0.0
 11
-144.0250001045657
 21
-190.1828288504812
 31
0.0
 11
-144.1263715374819
 21
-189.7978356235326
 31
0.0
 11
-144.423574528307
 21
-189.4390788504812
 31
0.0
 11
-144.896357991379
 21
-189.1310077938878
 31
0.0
 11
-145.5125001045657
 21
-188.8946160623519
 31
0.0
  0
SPLINE
  5
108
330
84
100
AcDbEntity
  8
0
  6
Continuous
 62
     7
100
AcDbSpline
210
0.0
220
0.0
230
1.0
 70
  1064
 71
     3
 72
    21
 73
    17
 74
    15
 42
0.000000001
 43
0.0000000001
 44
0.00000001
 40
0.0
 40
0.0
 40
0.0
 40
0.0
 40
0.4276891572083002
 40
0.9114026176141499
 40
1.482355911729889
 40
2.146223369605854
 40
2.891510752550424
 40
3.696160661203342
 40
4.531937300152117
 40
5.36771393910095
 40
6.172363847753845
 40
6.917651230698405
 40
7.581518688574358
 40
8.152471982690123
 40
8.63618544309602
 40
9.063874600304313
 40
9.063874600304313
 40
9.063874600304313
 40
9.063874600304313
 10
-150.7500001045657
 20
-190.1828288504812
 30
0.0
 10
-150.7296865497196
 20
-190.0395759641833
 30
0.0
 10
-150.6863984882391
 20
-189.7343050667558
 30
0.0
 10
-150.3716648905142
 20
-189.3303558618637
 30
0.0
 10
-149.9172825299347
 20
-188.979541201171
 30
0.0
 10
-149.3188749273838
 20
-188.6899174113123
 30
0.0
 10
-148.6116615122143
 20
-188.4727716863979
 30
0.0
 10
-147.8258229219195
 20
-188.3380745304668
 30
0.0
 10
-147.0000001045657
 20
-188.2924193420204
 30
0.0
 10
-146.1741772872119
 20
-188.3380745304667
 30
0.0
 10
-145.3883386969171
 20
-188.4727716863981
 30
0.0
 10
-144.6811252817476
 20
-188.6899174113123
 30
0.0
 10
-144.0827176791967
 20
-188.9795412011709
 30
0.0
 10
-143.6283353186171
 20
-189.3303558618637
 30
0.0
 10
-143.3136017208923
 20
-189.7343050667558
 30
0.0
 10
-143.2703136594118
 20
-190.0395759641833
 30
0.0
 10
-143.2500001045657
 20
-190.1828288504812
 30
0.0
 11
-150.7500001045657
 21
-190.1828288504812
 31
0.0
 11
-150.6559793888056
 21
-189.7656021434145
 31
0.0
 11
-150.3786333591997
 21
-189.3692968396358
 31
0.0
 11
-149.9318678539185
 21
-189.0137855955655
 31
0.0
 11
-149.3380868615359
 21
-188.7168948208537
 31
0.0
 11
-148.6270639542737
 21
-188.4935124017271
 31
0.0
 11
-147.8344536069018
 21
-188.3548390151403
 31
0.0
 11
-147.0000001045657
 21
-188.3078290486712
 31
0.0
 11
-146.1655466022295
 21
-188.3548390151403
 31
0.0
 11
-145.3729362548577
 21
-188.4935124017271
 31
0.0
 11
-144.6619133475955
 21
-188.7168948208537
 31
0.0
 11
-144.0681323552129
 21
-189.0137855955655
 31
0.0
 11
-143.6213668499316
 21
-189.3692968396358
 31
0.0
 11
-143.3440208203257
 21
-189.7656021434145
 31
0.0
 11
-143.2500001045657
 21
-190.1828288504812
 31
0.0
  0
ENDBLK
  5
86
330
84
100
AcDbEntity
  8
0
100
AcDbBlockEnd
  0
BLOCK
  5
89
330
87
100
AcDbEntity
  8
0
100
AcDbBlockBegin
  2
Gen1
 70
     0
 10
-147.0000000000003
 20
-203.000001882264
 30
0.0
  3
Gen1
  1

  0
INSERT
  5
88
330
87
100
AcDbEntity
  8
0
100
AcDbBlockReference
  2
PSBJ-4-15-6-BU-SELECT__3
 10
-150.7500001045657
 20
-216.8171808025362
 30
0.0
  0
MTEXT
  5
109
330
87
100
AcDbEntity
  8
1
 62
     6
100
AcDbMText
 10
-147.0
 20
-223.3782333024817
 30
0.0
 40
5.0
 41
0.0
 71
     2
 72
     1
  1
 
  7
CONVERTER_11
 73
     1
 44
1.32052821128451
  0
ENDBLK
  5
8A
330
87
100
AcDbEntity
  8
0
100
AcDbBlockEnd
  0
BLOCK
  5
8C
330
8B
100
AcDbEntity
  8
0
100
AcDbBlockBegin
  2
PSBJ-4-15-6-BU-SELECT__4
 70
     0
 10
-283.7499997908691
 20
-141.8000054686271
 30
0.0
  3
PSBJ-4-15-6-BU-SELECT__4
  1

  0
LINE
  5
10A
330
8B
100
AcDbEntity
  8
0
  6
Continuous
 62
     7
100
AcDbLine
 10
-276.9999997908691
 20
-126.799986267786
 30
0.0
 11
-277.9999997908691
 21
-126.799986267786
 31
0.0
  0
LINE
  5
10B
330
8B
100
AcDbEntity
  8
0
  6
Continuous
 62
     7
100
AcDbLine
 10
-276.9999997908691
 20
-126.799986267786
 30
0.0
 11
-276.9999997908691
 21
-120.200005468586
 31
0.0
  0
LINE
  5
10C
330
8B
100
AcDbEntity
  8
0
  6
Continuous
 62
     7
100
AcDbLine
 10
-277.9999997908691
 20
-126.799986267786
 30
0.0
 11
-281.9999997908691
 21
-126.799986267786
 31
0.0
  0
LINE
  5
10D
330
8B
100
AcDbEntity
  8
0
  6
Continuous
 62
     7
100
AcDbLine
 10
-276.2499997908691
 20
-112.200005468586
 30
0.0
 11
-276.2499997908691
 21
-120.200005468586
 31
0.0
  0
LINE
  5
10E
330
8B
100
AcDbEntity
  8
0
  6
Continuous
 62
     7
100
AcDbLine
 10
-277.9999997908691
 20
-141.8000054686271
 30
0.0
 11
-281.9999997908691
 21
-141.8000054686271
 31
0.0
  0
LINE
  5
10F
330
8B
100
AcDbEntity
  8
0
  6
Continuous
 62
     7
100
AcDbLine
 10
-277.9999997908691
 20
-126.799986267786
 30
0.0
 11
-277.9999997908691
 21
-141.8000054686271
 31
0.0
  0
LINE
  5
110
330
8B
100
AcDbEntity
  8
0
  6
Continuous
 62
     7
100
AcDbLine
 10
-276.2499997908691
 20
-112.200005468586
 30
0.0
 11
-283.7499997908691
 21
-112.200005468586
 31
0.0
  0
LINE
  5
111
330
8B
100
AcDbEntity
  8
0
  6
Continuous
 62
     7
100
AcDbLine
 10
-276.9999997908691
 20
-120.200005468586
 30
0.0
 11
-276.2499997908691
 21
-120.200005468586
 31
0.0
  0
LINE
  5
112
330
8B
100
AcDbEntity
  8
0
  6
Continuous
 62
     7
100
AcDbLine
 10
-283.7499997908691
 20
-120.200005468586
 30
0.0
 11
-282.9999997908691
 21
-120.200005468586
 31
0.0
  0
LINE
  5
113
330
8B
100
AcDbEntity
  8
0
  6
Continuous
 62
     7
100
AcDbLine
 10
-282.9999997908691
 20
-120.200005468586
 30
0.0
 11
-276.9999997908691
 21
-120.200005468586
 31
0.0
  0
LINE
  5
114
330
8B
100
AcDbEntity
  8
0
  6
Continuous
 62
     7
100
AcDbLine
 10
-283.7499997908691
 20
-112.200005468586
 30
0.0
 11
-283.7499997908691
 21
-120.200005468586
 31
0.0
  0
LINE
  5
115
330
8B
100
AcDbEntity
  8
0
  6
Continuous
 62
     7
100
AcDbLine
 10
-282.9999997908691
 20
-126.799986267786
 30
0.0
 11
-282.9999997908691
 21
-120.200005468586
 31
0.0
  0
LINE
  5
116
330
8B
100
AcDbEntity
  8
0
  6
Continuous
 62
     7
100
AcDbLine
 10
-281.9999997908691
 20
-126.799986267786
 30
0.0
 11
-282.9999997908691
 21
-126.799986267786
 31
0.0
  0
LINE
  5
117
330
8B
100
AcDbEntity
  8
0
  6
Continuous
 62
     7
100
AcDbLine
 10
-281.9999997908691
 20
-126.799986267786
 30
0.0
 11
-281.9999997908691
 21
-141.8000054686271
 31
0.0
  0
LINE
  5
118
330
8B
100
AcDbEntity
  8
1
  6
DOT_CENTER
 62
     2
100
AcDbLine
 10
-279.9999997908691
 20
-141.8000054686271
 30
0.0
 11
-279.9999997908692
 21
-112.200005468586
 31
0.0
  0
ENDBLK
  5
8D
330
8B
100
AcDbEntity
  8
0
100
AcDbBlockEnd
  0
BLOCK
  5
90
330
8E
100
AcDbEntity
  8
0
100
AcDbBlockBegin
  2
Left1
 70
     0
 10
-280.0
 20
-127.000002173451
 30
0.0
  3
Left1
  1

  0
INSERT
  5
8F
330
8E
100
AcDbEntity
  8
0
100
AcDbBlockReference
  2
PSBJ-4-15-6-BU-SELECT__4
 10
-283.7499997908691
 20
-141.8000054686271
 30
0.0
  0
MTEXT
  5
119
330
8E
100
AcDbEntity
  8
1
 62
     6
100
AcDbMText
 10
-280.0
 20
-146.8000030517674
 30
0.0
 40
5.0
 41
0.0
 71
     2
 72
     1
  1
 
  7
CONVERTER_11
 73
     1
 44
1.32052821128451
  0
ENDBLK
  5
91
330
8E
100
AcDbEntity
  8
0
100
AcDbBlockEnd
  0
BLOCK
  5
93
330
92
100
AcDbEntity
  8
0
100
AcDbBlockBegin
  2
PSBJ-4-15-6-BU-SELECT__5
 70
     0
 10
-351.7480566208741
 20
-141.8000054686271
 30
0.0
  3
PSBJ-4-15-6-BU-SELECT__5
  1

  0
LINE
  5
11A
330
92
100
AcDbEntity
  8
0
  6
Continuous
 62
     7
100
AcDbLine
 10
-349.9980566208741
 20
-126.799986267786
 30
0.0
 11
-349.9980566208741
 21
-141.8000054686271
 31
0.0
  0
LINE
  5
11B
330
92
100
AcDbEntity
  8
0
  6
Continuous
 62
     7
100
AcDbLine
 10
-351.7480566208741
 20
-112.200005468586
 30
0.0
 11
-351.7480566208741
 21
-120.200005468586
 31
0.0
  0
LINE
  5
11C
330
92
100
AcDbEntity
  8
0
  6
Continuous
 62
     7
100
AcDbLine
 10
-345.9980566208741
 20
-141.8000054686271
 30
0.0
 11
-349.9980566208741
 21
-141.8000054686271
 31
0.0
  0
LINE
  5
11D
330
92
100
AcDbEntity
  8
0
  6
Continuous
 62
     7
100
AcDbLine
 10
-350.9980566208741
 20
-126.799986267786
 30
0.0
 11
-350.9980566208741
 21
-120.200005468586
 31
0.0
  0
LINE
  5
11E
330
92
100
AcDbEntity
  8
0
  6
Continuous
 62
     7
100
AcDbLine
 10
-344.9980566208741
 20
-126.799986267786
 30
0.0
 11
-344.9980566208741
 21
-120.200005468586
 31
0.0
  0
LINE
  5
11F
330
92
100
AcDbEntity
  8
0
  6
Continuous
 62
     7
100
AcDbLine
 10
-349.9980566208741
 20
-126.799986267786
 30
0.0
 11
-350.9980566208741
 21
-126.799986267786
 31
0.0
  0
LINE
  5
120
330
92
100
AcDbEntity
  8
0
  6
Continuous
 62
     7
100
AcDbLine
 10
-344.9980566208741
 20
-126.799986267786
 30
0.0
 11
-345.9980566208741
 21
-126.799986267786
 31
0.0
  0
LINE
  5
121
330
92
100
AcDbEntity
  8
0
  6
Continuous
 62
     7
100
AcDbLine
 10
-345.9980566208741
 20
-126.799986267786
 30
0.0
 11
-349.9980566208741
 21
-126.799986267786
 31
0.0
  0
LINE
  5
122
330
92
100
AcDbEntity
  8
0
  6
Continuous
 62
     7
100
AcDbLine
 10
-344.2480566208741
 20
-112.200005468586
 30
0.0
 11
-344.2480566208741
 21
-120.200005468586
 31
0.0
  0
LINE
  5
123
330
92
100
AcDbEntity
  8
0
  6
Continuous
 62
     7
100
AcDbLine
 10
-351.7480566208741
 20
-120.200005468586
 30
0.0
 11
-350.9980566208741
 21
-120.200005468586
 31
0.0
  0
LINE
  5
124
330
92
100
AcDbEntity
  8
0
  6
Continuous
 62
     7
100
AcDbLine
 10
-344.9980566208741
 20
-120.200005468586
 30
0.0
 11
-344.2480566208741
 21
-120.200005468586
 31
0.0
  0
LINE
  5
125
330
92
100
AcDbEntity
  8
0
  6
Continuous
 62
     7
100
AcDbLine
 10
-350.9980566208741
 20
-120.200005468586
 30
0.0
 11
-344.9980566208741
 21
-120.200005468586
 31
0.0
  0
LINE
  5
126
330
92
100
AcDbEntity
  8
0
  6
Continuous
 62
     7
100
AcDbLine
 10
-344.2480566208741
 20
-112.200005468586
 30
0.0
 11
-351.7480566208741
 21
-112.200005468586
 31
0.0
  0
LINE
  5
127
330
92
100
AcDbEntity
  8
0
  6
Continuous
 62
     7
100
AcDbLine
 10
-345.9980566208741
 20
-126.799986267786
 30
0.0
 11
-345.9980566208741
 21
-141.8000054686271
 31
0.0
  0
LINE
  5
128
330
92
100
AcDbEntity
  8
1
  6
DOT_CENTER
 62
     2
100
AcDbLine
 10
-347.998056620874
 20
-141.800005468627
 30
0.0
 11
-347.998056620874
 21
-112.2000054685859
 31
0.0
  0
ENDBLK
  5
94
330
92
100
AcDbEntity
  8
0
100
AcDbBlockEnd
  0
BLOCK
  5
97
330
95
100
AcDbEntity
  8
0
100
AcDbBlockBegin
  2
Right1
 70
     0
 10
-347.9980564117432
 20
-127.000002173451
 30
0.0
  3
Right1
  1

  0
INSERT
  5
96
330
95
100
AcDbEntity
  8
0
100
AcDbBlockReference
  2
PSBJ-4-15-6-BU-SELECT__5
 10
-351.7480566208741
 20
-141.8000054686271
 30
0.0
  0
MTEXT
  5
129
330
95
100
AcDbEntity
  8
1
 62
     6
100
AcDbMText
 10
-347.9980564117432
 20
-146.8000030517674
 30
0.0
 40
5.0
 41
0.0
 71
     2
 72
     1
  1
 
  7
CONVERTER_11
 73
     1
 44
1.32052821128451
  0
ENDBLK
  5
98
330
95
100
AcDbEntity
  8
0
100
AcDbBlockEnd
  0
BLOCK
  5
9A
330
99
100
AcDbEntity
  8
0
100
AcDbBlockBegin
  2
PSBJ-4-15-6-BU-SELECT__6
 70
     0
 10
-311.2490282058716
 20
-179.3000030874473
 30
0.0
  3
PSBJ-4-15-6-BU-SELECT__6
  1

  0
LINE
  5
12A
330
99
100
AcDbEntity
  8
0
  6
Continuous
 62
     7
100
AcDbLine
 10
-309.4871177410787
 20
-176.0500030874473
 30
0.0
 11
-310.4317104252741
 21
-176.0500030874473
 31
0.0
  0
LINE
  5
12B
330
99
100
AcDbEntity
  8
0
  6
Continuous
 62
     7
100
AcDbLine
 10
-304.5663459864691
 20
-176.0500030874473
 30
0.0
 11
-305.5109386706645
 21
-176.0500030874473
 31
0.0
  0
LINE
  5
12C
330
99
100
AcDbEntity
  8
0
  6
Continuous
 62
     7
100
AcDbLine
 10
-305.5109386706645
 20
-175.0500030874473
 30
0.0
 11
-304.5663459864691
 21
-175.0500030874473
 31
0.0
  0
LINE
  5
12D
330
99
100
AcDbEntity
  8
0
  6
Continuous
 62
     7
100
AcDbLine
 10
-310.4317104252741
 20
-175.0500030874473
 30
0.0
 11
-309.4871177410787
 21
-175.0500030874473
 31
0.0
  0
LINE
  5
12E
330
99
100
AcDbEntity
  8
1
  6
DOT_CENTER
 62
     2
100
AcDbLine
 10
-303.3740282058716
 20
-175.5500030874473
 30
0.0
 11
-311.6240282058716
 21
-175.5500030874473
 31
0.0
  0
LINE
  5
12F
330
99
100
AcDbEntity
  8
1
  6
DOT_CENTER
 62
     2
100
AcDbLine
 10
-307.4990282058716
 20
-171.4250030874473
 30
0.0
 11
-307.4990282058716
 21
-179.6750030874473
 31
0.0
  0
ARC
  5
130
330
99
100
AcDbEntity
  8
0
  6
Continuous
 62
     7
100
AcDbCircle
 10
-307.4990282058716
 20
-175.5500030874473
 30
0.0
 40
2.050000000000005
100
AcDbArc
 50
165.883019428697
 51
194.116980571303
  0
ARC
  5
131
330
99
100
AcDbEntity
  8
0
  6
Continuous
 62
     7
100
AcDbCircle
 10
-307.4990282058716
 20
-175.5500030874473
 30
0.0
 40
2.974999999999951
100
AcDbArc
 50
170.3245374828877
 51
189.6754625171123
  0
ARC
  5
132
330
99
100
AcDbEntity
  8
0
  6
Continuous
 62
     7
100
AcDbCircle
 10
-307.4990282058716
 20
-175.5500030874473
 30
0.0
 40
2.050000000000005
100
AcDbArc
 50
194.116980571303
 51
345.883019428697
  0
ARC
  5
133
330
99
100
AcDbEntity
  8
0
  6
Continuous
 62
     7
100
AcDbCircle
 10
-307.4990282058716
 20
-175.5500030874473
 30
0.0
 40
2.974999999999894
100
AcDbArc
 50
350.3245374828875
 51
9.67546251711245
  0
ARC
  5
134
330
99
100
AcDbEntity
  8
0
  6
Continuous
 62
     7
100
AcDbCircle
 10
-307.4990282058716
 20
-175.5500030874473
 30
0.0
 40
2.050000000000005
100
AcDbArc
 50
345.883019428697
 51
14.116980571303
  0
ARC
  5
135
330
99
100
AcDbEntity
  8
0
  6
Continuous
 62
     7
100
AcDbCircle
 10
-307.4990282058716
 20
-175.5500030874473
 30
0.0
 40
2.050000000000005
100
AcDbArc
 50
14.116980571303
 51
165.883019428697
  0
ARC
  5
136
330
99
100
AcDbEntity
  8
0
  6
Continuous
 62
     7
100
AcDbCircle
 10
-307.4990282058716
 20
-175.5500030874473
 30
0.0
 40
2.974999999999894
100
AcDbArc
 50
9.67546251711245
 51
90.0
  0
ARC
  5
137
330
99
100
AcDbEntity
  8
0
  6
Continuous
 62
     7
100
AcDbCircle
 10
-307.4990282058716
 20
-175.5500030874473
 30
0.0
 40
2.974999999999881
100
AcDbArc
 50
90.0
 51
170.3245374828877
  0
ARC
  5
138
330
99
100
AcDbEntity
  8
0
  6
Continuous
 62
     7
100
AcDbCircle
 10
-307.4990282058716
 20
-175.5500030874473
 30
0.0
 40
2.974999999999951
100
AcDbArc
 50
189.6754625171123
 51
350.3245374828875
  0
CIRCLE
  5
139
330
99
100
AcDbEntity
  8
0
  6
Continuous
 62
     7
100
AcDbCircle
 10
-307.4990282058716
 20
-175.5500030874473
 30
0.0
 40
3.75
  0
ENDBLK
  5
9B
330
99
100
AcDbEntity
  8
0
100
AcDbBlockEnd
  0
BLOCK
  5
9E
330
9C
100
AcDbEntity
  8
0
100
AcDbBlockBegin
  2
Top1
 70
     0
 10
-307.4990282058716
 20
-175.5500028783165
 30
0.0
  3
Top1
  1

  0
INSERT
  5
9D
330
9C
100
AcDbEntity
  8
0
100
AcDbBlockReference
  2
PSBJ-4-15-6-BU-SELECT__6
 10
-311.2490282058716
 20
-179.3000030874473
 30
0.0
  0
MTEXT
  5
13A
330
9C
100
AcDbEntity
  8
1
 62
     6
100
AcDbMText
 10
-307.4990282058716
 20
-184.3000028783165
 30
0.0
 40
5.0
 41
0.0
 71
     2
 72
     1
  1
 
  7
CONVERTER_11
 73
     1
 44
1.32052821128451
  0
ENDBLK
  5
9F
330
9C
100
AcDbEntity
  8
0
100
AcDbBlockEnd
  0
BLOCK
  5
A1
330
A0
100
AcDbEntity
  8
0
100
AcDbBlockBegin
  2
_rahmen
 70
     0
 10
-123.4999999999899
 20
-267.0000000000051
 30
0.0
  3
_rahmen
  1

  0
LINE
  5
13B
330
A0
100
AcDbEntity
  8
1
  6
DOT_CENTER
 62
     2
100
AcDbLine
 10
-249.0581496401773
 20
-240.8750000000051
 30
0.0
 11
-243.5581496401773
 21
-240.8750000000051
 31
0.0
  0
LINE
  5
13C
330
A0
100
AcDbEntity
  8
1
  6
PHANTOM
 62
     2
100
AcDbLine
 10
-240.3081496401773
 20
-238.1250000000051
 30
0.0
 11
-240.3081496401773
 21
-243.6250000000051
 31
0.0
  0
LINE
  5
13D
330
A0
100
AcDbEntity
  8
1
  6
PHANTOM
 62
     2
100
AcDbLine
 10
-237.5581496401773
 20
-240.8750000000051
 30
0.0
 11
-243.0581496401773
 21
-240.8750000000051
 31
0.0
  0
LINE
  5
13E
330
A0
100
AcDbEntity
  8
1
  6
Continuous
 62
     7
100
AcDbLine
 10
-188.7448045267399
 20
-253.5000000000051
 30
0.0
 11
-188.7448045267399
 21
-245.000000000005
 31
0.0
  0
LINE
  5
13F
330
A0
100
AcDbEntity
  8
1
  6
Continuous
 62
     6
100
AcDbLine
 10
-216.64480452674
 20
-245.000000000005
 30
0.0
 11
-123.4999999999882
 21
-245.000000000005
 31
0.0
  0
LINE
  5
140
330
A0
100
AcDbEntity
  8
1
  6
Continuous
 62
     7
100
AcDbLine
 10
-253.0448045267399
 20
-245.000000000005
 30
0.0
 11
-253.0448045267399
 21
-236.500000000005
 31
0.0
  0
LINE
  5
141
330
A0
100
AcDbEntity
  8
1
  6
Continuous
 62
     7
100
AcDbLine
 10
-216.64480452674
 20
-245.000000000005
 30
0.0
 11
-216.64480452674
 21
-236.500000000005
 31
0.0
  0
LINE
  5
142
330
A0
100
AcDbEntity
  8
1
  6
Continuous
 62
     7
100
AcDbLine
 10
-158.918408281667
 20
-236.500000000005
 30
0.0
 11
-158.918408281667
 21
-245.000000000005
 31
0.0
  0
LINE
  5
143
330
A0
100
AcDbEntity
  8
1
  6
Continuous
 62
     7
100
AcDbLine
 10
-132.4184082816674
 20
-236.500000000005
 30
0.0
 11
-132.4184082816674
 21
-245.000000000005
 31
0.0
  0
LINE
  5
144
330
A0
100
AcDbEntity
  8
1
  6
Continuous
 62
     6
100
AcDbLine
 10
-322.0448045267399
 20
-262.000000000005
 30
0.0
 11
-366.9999999999899
 21
-262.000000000005
 31
0.0
  0
LINE
  5
145
330
A0
100
AcDbEntity
  8
1
  6
Continuous
 62
     7
100
AcDbLine
 10
-123.4999999999886
 20
-253.500000000005
 30
0.0
 11
-216.64480452674
 21
-253.500000000005
 31
0.0
  0
LINE
  5
146
102
{ACAD_REACTORS
330
258
330
259
102
}
330
A0
100
AcDbEntity
  8
0
  6
Continuous
 62
     2
100
AcDbLine
 10
-239.3373755849725
 20
-252.6997108843417
 30
0.0
 11
-239.3373755849725
 21
-251.8271938775384
 31
0.0
  0
LINE
  5
147
102
{ACAD_REACTORS
330
258
330
259
102
}
330
A0
100
AcDbEntity
  8
0
  6
Continuous
 62
     2
100
AcDbLine
 10
-239.3373755849725
 20
-253.6594795918246
 30
0.0
 11
-239.3373755849725
 21
-254.5319965986278
 31
0.0
  0
LINE
  5
148
102
{ACAD_REACTORS
330
25A
330
25B
102
}
330
A0
100
AcDbEntity
  8
0
  6
Continuous
 62
     2
100
AcDbLine
 10
-224.004331448682
 20
-252.4379557823012
 30
0.0
 11
-222.9006921491139
 21
-252.4379557823012
 31
0.0
  0
LINE
  5
149
102
{ACAD_REACTORS
330
25A
330
25B
102
}
330
A0
100
AcDbEntity
  8
0
  6
Continuous
 62
     2
100
AcDbLine
 10
-223.2346741057206
 20
-253.6594795918251
 30
0.0
 11
-223.2346741057206
 21
-254.5319965986284
 31
0.0
  0
LINE
  5
14A
102
{ACAD_REACTORS
330
264
330
265
102
}
330
A0
100
AcDbEntity
  8
0
  6
Continuous
 62
     2
100
AcDbLine
 10
-225.0954307211005
 20
-251.3473095238144
 30
0.0
 11
-223.6974776741602
 21
-249.7664505300394
 31
0.0
  0
LINE
  5
14B
102
{ACAD_REACTORS
330
264
330
265
102
}
330
A0
100
AcDbEntity
  8
0
  6
Continuous
 62
     2
100
AcDbLine
 10
-225.0000073049277
 20
-248.2935000000032
 30
0.0
 11
-223.6974776741602
 21
-249.7664505300394
 31
0.0
  0
LINE
  5
14C
102
{ACAD_REACTORS
330
264
330
265
102
}
330
A0
100
AcDbEntity
  8
0
  6
Continuous
 62
     2
100
AcDbLine
 10
-222.3949480433938
 20
-248.2935000000032
 30
0.0
 11
-220.9922238256466
 21
-248.2935000000032
 31
0.0
  0
LINE
  5
14D
102
{ACAD_REACTORS
330
264
330
265
102
}
330
A0
100
AcDbEntity
  8
0
  6
Continuous
 62
     2
100
AcDbLine
 10
-223.6927065033523
 20
-251.3473095238144
 30
0.0
 11
-222.9961155652866
 21
-250.5595777385207
 31
0.0
  0
LINE
  5
14E
102
{ACAD_REACTORS
330
264
330
265
102
}
330
A0
100
AcDbEntity
  8
0
  6
Continuous
 62
     2
100
AcDbLine
 10
-223.6927065033523
 20
-251.3473095238144
 30
0.0
 11
-225.0954307211005
 21
-251.3473095238144
 31
0.0
  0
LINE
  5
14F
102
{ACAD_REACTORS
330
266
330
267
102
}
330
A0
100
AcDbEntity
  8
0
  6
Continuous
 62
     2
100
AcDbLine
 10
-225.2147099913174
 20
-251.3473095238144
 30
0.0
 11
-226.4552144015703
 21
-251.3473095238144
 31
0.0
  0
LINE
  5
150
102
{ACAD_REACTORS
330
268
330
269
102
}
330
A0
100
AcDbEntity
  8
0
  6
Continuous
 62
     2
100
AcDbLine
 10
-227.3231940097254
 20
-253.4849761904642
 30
0.0
 11
-227.6233592469155
 21
-252.7171612244775
 31
0.0
  0
LINE
  5
151
102
{ACAD_REACTORS
330
268
330
269
102
}
330
A0
100
AcDbEntity
  8
0
  6
Continuous
 62
     2
100
AcDbLine
 10
-227.9235244841079
 20
-253.4849761904642
 30
0.0
 11
-227.3231940097254
 21
-253.4849761904642
 31
0.0
  0
LINE
  5
152
102
{ACAD_REACTORS
330
268
330
269
102
}
330
A0
100
AcDbEntity
  8
0
  6
Continuous
 62
     2
100
AcDbLine
 10
-229.6415644989817
 20
-254.7064999999887
 30
0.0
 11
-228.4010600887287
 21
-254.7064999999887
 31
0.0
  0
LINE
  5
153
102
{ACAD_REACTORS
330
268
330
269
102
}
330
A0
100
AcDbEntity
  8
0
  6
Continuous
 62
     2
100
AcDbLine
 10
-228.2436114520424
 20
-251.6526904761776
 30
0.0
 11
-227.0031070417897
 21
-251.6526904761776
 31
0.0
  0
LINE
  5
154
102
{ACAD_REACTORS
330
268
330
269
102
}
330
A0
100
AcDbEntity
  8
0
  6
Continuous
 62
     2
100
AcDbLine
 10
-227.0031070417897
 20
-251.6526904761776
 30
0.0
 11
-225.6051539948494
 21
-254.7064999999887
 31
0.0
  0
LINE
  5
155
102
{ACAD_REACTORS
330
268
330
269
102
}
330
A0
100
AcDbEntity
  8
0
  6
Continuous
 62
     2
100
AcDbLine
 10
-226.8456584051033
 20
-254.7064999999887
 30
0.0
 11
-227.0571384585791
 21
-254.1655394557708
 31
0.0
  0
LINE
  5
156
102
{ACAD_REACTORS
330
26A
330
26B
102
}
330
A0
100
AcDbEntity
  8
0
  6
Continuous
 62
     2
100
AcDbLine
 10
-230.9879776006893
 20
-254.7064999999887
 30
0.0
 11
-229.7951848985228
 21
-254.7064999999887
 31
0.0
  0
LINE
  5
157
102
{ACAD_REACTORS
330
26A
330
26B
102
}
330
A0
100
AcDbEntity
  8
0
  6
Continuous
 62
     2
100
AcDbLine
 10
-230.9879776006893
 20
-252.4379557823012
 30
0.0
 11
-230.9879776006893
 21
-254.7064999999887
 31
0.0
  0
LINE
  5
158
102
{ACAD_REACTORS
330
26A
330
26B
102
}
330
A0
100
AcDbEntity
  8
0
  6
Continuous
 62
     2
100
AcDbLine
 10
-231.7990766381639
 20
-251.6526904761776
 30
0.0
 11
-231.7990766381639
 21
-252.4379557823012
 31
0.0
  0
LINE
  5
159
102
{ACAD_REACTORS
330
26C
330
26D
102
}
330
A0
100
AcDbEntity
  8
0
  6
Continuous
 62
     2
100
AcDbLine
 10
-230.3198627565913
 20
-251.3473095238144
 30
0.0
 11
-229.1270700544248
 21
-251.3473095238144
 31
0.0
  0
LINE
  5
15A
102
{ACAD_REACTORS
330
26C
330
26D
102
}
330
A0
100
AcDbEntity
  8
0
  6
Continuous
 62
     2
100
AcDbLine
 10
-227.8865656441708
 20
-249.6022755102084
 30
0.0
 11
-229.1270700544248
 21
-248.2935000000032
 31
0.0
  0
LINE
  5
15B
102
{ACAD_REACTORS
330
26C
330
26D
102
}
330
A0
100
AcDbEntity
  8
0
  6
Continuous
 62
     2
100
AcDbLine
 10
-226.6937729420042
 20
-248.2935000000032
 30
0.0
 11
-227.8865656441708
 21
-248.2935000000032
 31
0.0
  0
LINE
  5
15C
102
{ACAD_REACTORS
330
26C
330
26D
102
}
330
A0
100
AcDbEntity
  8
0
  6
Continuous
 62
     2
100
AcDbLine
 10
-226.6937729420042
 20
-251.3473095238144
 30
0.0
 11
-226.6937729420042
 21
-248.2935000000032
 31
0.0
  0
LINE
  5
15D
102
{ACAD_REACTORS
330
26C
330
26D
102
}
330
A0
100
AcDbEntity
  8
0
  6
Continuous
 62
     2
100
AcDbLine
 10
-227.8865656441708
 20
-251.3473095238144
 30
0.0
 11
-226.6937729420042
 21
-251.3473095238144
 31
0.0
  0
LINE
  5
15E
102
{ACAD_REACTORS
330
26C
330
26D
102
}
330
A0
100
AcDbEntity
  8
0
  6
Continuous
 62
     2
100
AcDbLine
 10
-229.1270700544248
 20
-250.0385340136097
 30
0.0
 11
-227.8865656441708
 21
-251.3473095238144
 31
0.0
  0
LINE
  5
15F
102
{ACAD_REACTORS
330
26E
330
26F
102
}
330
A0
100
AcDbEntity
  8
0
  6
Continuous
 62
     2
100
AcDbLine
 10
-233.1350044645905
 20
-252.9614659863827
 30
0.0
 11
-234.3755088748434
 21
-251.6526904761776
 31
0.0
  0
LINE
  5
160
102
{ACAD_REACTORS
330
26E
330
26F
102
}
330
A0
100
AcDbEntity
  8
0
  6
Continuous
 62
     2
100
AcDbLine
 10
-233.1350044645905
 20
-251.6526904761776
 30
0.0
 11
-233.1350044645905
 21
-252.9614659863827
 31
0.0
  0
LINE
  5
161
102
{ACAD_REACTORS
330
26E
330
26F
102
}
330
A0
100
AcDbEntity
  8
0
  6
Continuous
 62
     2
100
AcDbLine
 10
-231.9422117624241
 20
-251.6526904761776
 30
0.0
 11
-233.1350044645905
 21
-251.6526904761776
 31
0.0
  0
LINE
  5
162
102
{ACAD_REACTORS
330
26E
330
26F
102
}
330
A0
100
AcDbEntity
  8
0
  6
Continuous
 62
     2
100
AcDbLine
 10
-231.9422117624241
 20
-254.7064999999887
 30
0.0
 11
-231.9422117624241
 21
-251.6526904761776
 31
0.0
  0
LINE
  5
163
102
{ACAD_REACTORS
330
26E
330
26F
102
}
330
A0
100
AcDbEntity
  8
0
  6
Continuous
 62
     2
100
AcDbLine
 10
-234.3755088748434
 20
-253.3977244897841
 30
0.0
 11
-233.1350044645905
 21
-254.7064999999887
 31
0.0
  0
LINE
  5
164
102
{ACAD_REACTORS
330
26E
330
26F
102
}
330
A0
100
AcDbEntity
  8
0
  6
Continuous
 62
     2
100
AcDbLine
 10
-234.3755088748434
 20
-254.7064999999887
 30
0.0
 11
-234.3755088748434
 21
-253.3977244897841
 31
0.0
  0
LINE
  5
165
102
{ACAD_REACTORS
330
25E
330
25F
102
}
330
A0
100
AcDbEntity
  8
0
  6
Continuous
 62
     2
100
AcDbLine
 10
-231.8943491234519
 20
-248.9915136054462
 30
0.0
 11
-230.5584212970242
 21
-248.9915136054462
 31
0.0
  0
LINE
  5
166
102
{ACAD_REACTORS
330
25E
330
25F
102
}
330
A0
100
AcDbEntity
  8
0
  6
Continuous
 62
     2
100
AcDbLine
 10
-231.8943491234519
 20
-250.6492959183719
 30
0.0
 11
-231.8943491234519
 21
-250.1694115646302
 31
0.0
  0
LINE
  5
167
102
{ACAD_REACTORS
330
25E
330
25F
102
}
330
A0
100
AcDbEntity
  8
0
  6
Continuous
 62
     2
100
AcDbLine
 10
-230.5584212970242
 20
-250.6492959183719
 30
0.0
 11
-231.8943491234519
 21
-250.6492959183719
 31
0.0
  0
LINE
  5
168
102
{ACAD_REACTORS
330
25E
330
25F
102
}
330
A0
100
AcDbEntity
  8
0
  6
Continuous
 62
     2
100
AcDbLine
 10
-230.5584212970242
 20
-251.3473095238144
 30
0.0
 11
-230.5584212970242
 21
-250.6492959183719
 31
0.0
  0
LINE
  5
169
102
{ACAD_REACTORS
330
25E
330
25F
102
}
330
A0
100
AcDbEntity
  8
0
  6
Continuous
 62
     2
100
AcDbLine
 10
-233.7087410208052
 20
-251.3473095238144
 30
0.0
 11
-230.5584212970242
 21
-251.3473095238144
 31
0.0
  0
LINE
  5
16A
102
{ACAD_REACTORS
330
25E
330
25F
102
}
330
A0
100
AcDbEntity
  8
0
  6
Continuous
 62
     2
100
AcDbLine
 10
-233.7087410208052
 20
-248.2935000000032
 30
0.0
 11
-230.5584212970242
 21
-248.2935000000032
 31
0.0
  0
LINE
  5
16B
102
{ACAD_REACTORS
330
25E
330
25F
102
}
330
A0
100
AcDbEntity
  8
0
  6
Continuous
 62
     2
100
AcDbLine
 10
-230.5584212970242
 20
-248.9915136054462
 30
0.0
 11
-230.5584212970242
 21
-248.2935000000032
 31
0.0
  0
LINE
  5
16C
102
{ACAD_REACTORS
330
270
330
271
102
}
330
A0
100
AcDbEntity
  8
0
  6
Continuous
 62
     2
100
AcDbLine
 10
-236.5700965159452
 20
-249.3623333333378
 30
0.0
 11
-236.5700965159452
 21
-248.2935000000032
 31
0.0
  0
LINE
  5
16D
102
{ACAD_REACTORS
330
270
330
271
102
}
330
A0
100
AcDbEntity
  8
0
  6
Continuous
 62
     2
100
AcDbLine
 10
-236.5700965159452
 20
-248.2935000000032
 30
0.0
 11
-235.3773038137788
 21
-248.2935000000032
 31
0.0
  0
LINE
  5
16E
102
{ACAD_REACTORS
330
270
330
271
102
}
330
A0
100
AcDbEntity
  8
0
  6
Continuous
 62
     2
100
AcDbLine
 10
-236.5700965159452
 20
-250.2130374149706
 30
0.0
 11
-237.6197540938527
 21
-250.2130374149706
 31
0.0
  0
LINE
  5
16F
102
{ACAD_REACTORS
330
270
330
271
102
}
330
A0
100
AcDbEntity
  8
0
  6
Continuous
 62
     2
100
AcDbLine
 10
-237.6197540938527
 20
-250.2130374149706
 30
0.0
 11
-237.6197540938527
 21
-251.3473095238144
 31
0.0
  0
LINE
  5
170
102
{ACAD_REACTORS
330
270
330
271
102
}
330
A0
100
AcDbEntity
  8
0
  6
Continuous
 62
     2
100
AcDbLine
 10
-238.8125467960193
 20
-248.2935000000032
 30
0.0
 11
-238.8125467960193
 21
-251.3473095238144
 31
0.0
  0
LINE
  5
171
102
{ACAD_REACTORS
330
262
330
263
102
}
330
A0
100
AcDbEntity
  8
0
  6
Continuous
 62
     2
100
AcDbLine
 10
-240.7687268275729
 20
-249.6623334947855
 30
0.0
 11
-240.7687268275729
 21
-248.9566058454433
 31
0.0
  0
LINE
  5
172
102
{ACAD_REACTORS
330
262
330
263
102
}
330
A0
100
AcDbEntity
  8
0
  6
Continuous
 62
     2
100
AcDbLine
 10
-242.009231237827
 20
-251.3473095238144
 30
0.0
 11
-240.7687268275729
 21
-251.3473095238144
 31
0.0
  0
LINE
  5
173
102
{ACAD_REACTORS
330
262
330
263
102
}
330
A0
100
AcDbEntity
  8
0
  6
Continuous
 62
     2
100
AcDbLine
 10
-240.7687268275729
 20
-251.3473095238144
 30
0.0
 11
-240.7687268275729
 21
-250.4042312826706
 31
0.0
  0
LINE
  5
174
102
{ACAD_REACTORS
330
25C
330
25D
102
}
330
A0
100
AcDbEntity
  8
0
  6
Continuous
 62
     2
100
AcDbLine
 10
-246.3141770870384
 20
-253.9939444444318
 30
0.0
 11
-247.790010348048
 21
-253.9939444444318
 31
0.0
  0
LINE
  5
175
102
{ACAD_REACTORS
330
25C
330
25D
102
}
330
A0
100
AcDbEntity
  8
0
  6
Continuous
 62
     2
100
AcDbLine
 10
-248.8081496401773
 20
-248.7177446154052
 30
0.0
 11
-248.8081496401773
 21
-254.2822553846054
 31
0.0
  0
LINE
  5
176
102
{ACAD_REACTORS
330
25C
330
25D
102
}
330
A0
100
AcDbEntity
  8
0
  6
Continuous
 62
     2
100
AcDbLine
 10
-248.3839050247945
 20
-248.2935000000214
 30
0.0
 11
-242.9105929340777
 21
-248.2935000000214
 31
0.0
  0
LINE
  5
177
102
{ACAD_REACTORS
330
25C
330
25D
102
}
330
A0
100
AcDbEntity
  8
0
  6
Continuous
 62
     2
100
AcDbLine
 10
-242.4863483186938
 20
-248.7177446154052
 30
0.0
 11
-242.4863483186938
 21
-254.2822553846054
 31
0.0
  0
LINE
  5
178
102
{ACAD_REACTORS
330
25C
330
25D
102
}
330
A0
100
AcDbEntity
  8
0
  6
Continuous
 62
     2
100
AcDbLine
 10
-242.9105929340777
 20
-254.7064999999887
 30
0.0
 11
-248.3839050247945
 21
-254.7064999999887
 31
0.0
  0
LINE
  5
179
102
{ACAD_REACTORS
330
25C
330
25D
102
}
330
A0
100
AcDbEntity
  8
0
  6
Continuous
 62
     2
100
AcDbLine
 10
-245.9984601639618
 20
-253.6782275213551
 30
0.0
 11
-245.9984601639618
 21
-252.1474565898235
 31
0.0
  0
LINE
  5
17A
102
{ACAD_REACTORS
330
25C
330
25D
102
}
330
A0
100
AcDbEntity
  8
0
  6
Continuous
 62
     2
100
AcDbLine
 10
-245.9984601639618
 20
-249.9257970976985
 30
0.0
 11
-245.9984601639618
 21
-249.321772478638
 31
0.0
  0
LINE
  5
17B
102
{ACAD_REACTORS
330
25C
330
25D
102
}
330
A0
100
AcDbEntity
  8
0
  6
Continuous
 62
     2
100
AcDbLine
 10
-247.790010348048
 20
-249.0060555555618
 30
0.0
 11
-246.3141770870384
 21
-249.0060555555618
 31
0.0
  0
LINE
  5
17C
102
{ACAD_REACTORS
330
25C
330
25D
102
}
330
A0
100
AcDbEntity
  8
0
  6
Continuous
 62
     2
100
AcDbLine
 10
-248.1057272711237
 20
-249.321772478638
 30
0.0
 11
-248.1057272711237
 21
-253.6782275213551
 31
0.0
  0
LINE
  5
17D
102
{ACAD_REACTORS
330
262
330
263
102
}
330
A0
100
AcDbEntity
  8
0
  6
Continuous
 62
     2
100
AcDbLine
 10
-240.7687268275729
 20
-250.4042312826706
 30
0.0
 11
-240.0099592397926
 21
-250.4042312826706
 31
0.0
  0
LINE
  5
17E
102
{ACAD_REACTORS
330
262
330
263
102
}
330
A0
100
AcDbEntity
  8
0
  6
Continuous
 62
     2
100
AcDbLine
 10
-242.009231237827
 20
-248.2935000000032
 30
0.0
 11
-240.0099592397926
 21
-248.2935000000032
 31
0.0
  0
LINE
  5
17F
102
{ACAD_REACTORS
330
262
330
263
102
}
330
A0
100
AcDbEntity
  8
0
  6
Continuous
 62
     2
100
AcDbLine
 10
-242.009231237827
 20
-248.2935000000032
 30
0.0
 11
-242.009231237827
 21
-251.3473095238144
 31
0.0
  0
LINE
  5
180
102
{ACAD_REACTORS
330
262
330
263
102
}
330
A0
100
AcDbEntity
  8
0
  6
Continuous
 62
     2
100
AcDbLine
 10
-240.7687268275729
 20
-249.6623334947855
 30
0.0
 11
-240.451431766031
 21
-249.6623334947855
 31
0.0
  0
LINE
  5
181
102
{ACAD_REACTORS
330
262
330
263
102
}
330
A0
100
AcDbEntity
  8
0
  6
Continuous
 62
     2
100
AcDbLine
 10
-240.7687268275729
 20
-248.9566058454433
 30
0.0
 11
-240.451431766031
 21
-248.9566058454433
 31
0.0
  0
LINE
  5
182
102
{ACAD_REACTORS
330
270
330
271
102
}
330
A0
100
AcDbEntity
  8
0
  6
Continuous
 62
     2
100
AcDbLine
 10
-237.6197540938527
 20
-249.3623333333378
 30
0.0
 11
-236.5700965159452
 21
-249.3623333333378
 31
0.0
  0
LINE
  5
183
102
{ACAD_REACTORS
330
270
330
271
102
}
330
A0
100
AcDbEntity
  8
0
  6
Continuous
 62
     2
100
AcDbLine
 10
-237.6197540938527
 20
-248.2935000000032
 30
0.0
 11
-237.6197540938527
 21
-249.3623333333378
 31
0.0
  0
LINE
  5
184
102
{ACAD_REACTORS
330
270
330
271
102
}
330
A0
100
AcDbEntity
  8
0
  6
Continuous
 62
     2
100
AcDbLine
 10
-238.8125467960193
 20
-248.2935000000032
 30
0.0
 11
-237.6197540938527
 21
-248.2935000000032
 31
0.0
  0
LINE
  5
185
102
{ACAD_REACTORS
330
270
330
271
102
}
330
A0
100
AcDbEntity
  8
0
  6
Continuous
 62
     2
100
AcDbLine
 10
-237.6197540938527
 20
-251.3473095238144
 30
0.0
 11
-238.8125467960193
 21
-251.3473095238144
 31
0.0
  0
LINE
  5
186
102
{ACAD_REACTORS
330
270
330
271
102
}
330
A0
100
AcDbEntity
  8
0
  6
Continuous
 62
     2
100
AcDbLine
 10
-236.5700965159452
 20
-251.3473095238144
 30
0.0
 11
-236.5700965159452
 21
-250.2130374149706
 31
0.0
  0
LINE
  5
187
102
{ACAD_REACTORS
330
270
330
271
102
}
330
A0
100
AcDbEntity
  8
0
  6
Continuous
 62
     2
100
AcDbLine
 10
-235.3773038137788
 20
-251.3473095238144
 30
0.0
 11
-236.5700965159452
 21
-251.3473095238144
 31
0.0
  0
LINE
  5
188
102
{ACAD_REACTORS
330
270
330
271
102
}
330
A0
100
AcDbEntity
  8
0
  6
Continuous
 62
     2
100
AcDbLine
 10
-235.3773038137788
 20
-248.2935000000032
 30
0.0
 11
-235.3773038137788
 21
-251.3473095238144
 31
0.0
  0
LINE
  5
189
102
{ACAD_REACTORS
330
25E
330
25F
102
}
330
A0
100
AcDbEntity
  8
0
  6
Continuous
 62
     2
100
AcDbLine
 10
-231.8943491234519
 20
-250.1694115646302
 30
0.0
 11
-230.5584212970242
 21
-250.1694115646302
 31
0.0
  0
LINE
  5
18A
102
{ACAD_REACTORS
330
25E
330
25F
102
}
330
A0
100
AcDbEntity
  8
0
  6
Continuous
 62
     2
100
AcDbLine
 10
-230.5584212970242
 20
-250.1694115646302
 30
0.0
 11
-230.5584212970242
 21
-249.4713979591879
 31
0.0
  0
LINE
  5
18B
102
{ACAD_REACTORS
330
25E
330
25F
102
}
330
A0
100
AcDbEntity
  8
0
  6
Continuous
 62
     2
100
AcDbLine
 10
-230.5584212970242
 20
-249.4713979591879
 30
0.0
 11
-231.8943491234519
 21
-249.4713979591879
 31
0.0
  0
LINE
  5
18C
102
{ACAD_REACTORS
330
25E
330
25F
102
}
330
A0
100
AcDbEntity
  8
0
  6
Continuous
 62
     2
100
AcDbLine
 10
-231.8943491234519
 20
-249.4713979591879
 30
0.0
 11
-231.8943491234519
 21
-248.9915136054462
 31
0.0
  0
LINE
  5
18D
102
{ACAD_REACTORS
330
26E
330
26F
102
}
330
A0
100
AcDbEntity
  8
0
  6
Continuous
 62
     2
100
AcDbLine
 10
-235.568301577011
 20
-254.7064999999887
 30
0.0
 11
-234.3755088748434
 21
-254.7064999999887
 31
0.0
  0
LINE
  5
18E
102
{ACAD_REACTORS
330
26E
330
26F
102
}
330
A0
100
AcDbEntity
  8
0
  6
Continuous
 62
     2
100
AcDbLine
 10
-233.1350044645905
 20
-254.7064999999887
 30
0.0
 11
-231.9422117624241
 21
-254.7064999999887
 31
0.0
  0
LINE
  5
18F
102
{ACAD_REACTORS
330
26E
330
26F
102
}
330
A0
100
AcDbEntity
  8
0
  6
Continuous
 62
     2
100
AcDbLine
 10
-234.3755088748434
 20
-251.6526904761776
 30
0.0
 11
-235.568301577011
 21
-251.6526904761776
 31
0.0
  0
LINE
  5
190
102
{ACAD_REACTORS
330
26E
330
26F
102
}
330
A0
100
AcDbEntity
  8
0
  6
Continuous
 62
     2
100
AcDbLine
 10
-235.568301577011
 20
-251.6526904761776
 30
0.0
 11
-235.568301577011
 21
-254.7064999999887
 31
0.0
  0
LINE
  5
191
102
{ACAD_REACTORS
330
26C
330
26D
102
}
330
A0
100
AcDbEntity
  8
0
  6
Continuous
 62
     2
100
AcDbLine
 10
-227.8865656441708
 20
-248.2935000000032
 30
0.0
 11
-227.8865656441708
 21
-249.6022755102084
 31
0.0
  0
LINE
  5
192
102
{ACAD_REACTORS
330
26C
330
26D
102
}
330
A0
100
AcDbEntity
  8
0
  6
Continuous
 62
     2
100
AcDbLine
 10
-229.1270700544248
 20
-248.2935000000032
 30
0.0
 11
-230.3198627565913
 21
-248.2935000000032
 31
0.0
  0
LINE
  5
193
102
{ACAD_REACTORS
330
26C
330
26D
102
}
330
A0
100
AcDbEntity
  8
0
  6
Continuous
 62
     2
100
AcDbLine
 10
-230.3198627565913
 20
-248.2935000000032
 30
0.0
 11
-230.3198627565913
 21
-251.3473095238144
 31
0.0
  0
LINE
  5
194
102
{ACAD_REACTORS
330
26C
330
26D
102
}
330
A0
100
AcDbEntity
  8
0
  6
Continuous
 62
     2
100
AcDbLine
 10
-229.1270700544248
 20
-251.3473095238144
 30
0.0
 11
-229.1270700544248
 21
-250.0385340136097
 31
0.0
  0
LINE
  5
195
102
{ACAD_REACTORS
330
26A
330
26B
102
}
330
A0
100
AcDbEntity
  8
0
  6
Continuous
 62
     2
100
AcDbLine
 10
-229.7951848985228
 20
-254.7064999999887
 30
0.0
 11
-229.7951848985228
 21
-252.4379557823012
 31
0.0
  0
LINE
  5
196
102
{ACAD_REACTORS
330
26A
330
26B
102
}
330
A0
100
AcDbEntity
  8
0
  6
Continuous
 62
     2
100
AcDbLine
 10
-229.7951848985228
 20
-252.4379557823012
 30
0.0
 11
-228.9840858610503
 21
-252.4379557823012
 31
0.0
  0
LINE
  5
197
102
{ACAD_REACTORS
330
26A
330
26B
102
}
330
A0
100
AcDbEntity
  8
0
  6
Continuous
 62
     2
100
AcDbLine
 10
-228.9840858610503
 20
-252.4379557823012
 30
0.0
 11
-228.9840858610503
 21
-251.6526904761776
 31
0.0
  0
LINE
  5
198
102
{ACAD_REACTORS
330
26A
330
26B
102
}
330
A0
100
AcDbEntity
  8
0
  6
Continuous
 62
     2
100
AcDbLine
 10
-228.9840858610503
 20
-251.6526904761776
 30
0.0
 11
-231.7990766381639
 21
-251.6526904761776
 31
0.0
  0
LINE
  5
199
102
{ACAD_REACTORS
330
26A
330
26B
102
}
330
A0
100
AcDbEntity
  8
0
  6
Continuous
 62
     2
100
AcDbLine
 10
-231.7990766381639
 20
-252.4379557823012
 30
0.0
 11
-230.9879776006893
 21
-252.4379557823012
 31
0.0
  0
LINE
  5
19A
102
{ACAD_REACTORS
330
268
330
269
102
}
330
A0
100
AcDbEntity
  8
0
  6
Continuous
 62
     2
100
AcDbLine
 10
-228.1895800352529
 20
-254.1655394557708
 30
0.0
 11
-227.0571384585791
 21
-254.1655394557708
 31
0.0
  0
LINE
  5
19B
102
{ACAD_REACTORS
330
268
330
269
102
}
330
A0
100
AcDbEntity
  8
0
  6
Continuous
 62
     2
100
AcDbLine
 10
-225.6051539948494
 20
-254.7064999999887
 30
0.0
 11
-226.8456584051033
 21
-254.7064999999887
 31
0.0
  0
LINE
  5
19C
102
{ACAD_REACTORS
330
268
330
269
102
}
330
A0
100
AcDbEntity
  8
0
  6
Continuous
 62
     2
100
AcDbLine
 10
-228.2436114520424
 20
-251.6526904761776
 30
0.0
 11
-229.6415644989817
 21
-254.7064999999887
 31
0.0
  0
LINE
  5
19D
102
{ACAD_REACTORS
330
268
330
269
102
}
330
A0
100
AcDbEntity
  8
0
  6
Continuous
 62
     2
100
AcDbLine
 10
-228.4010600887287
 20
-254.7064999999887
 30
0.0
 11
-228.1895800352529
 21
-254.1655394557708
 31
0.0
  0
LINE
  5
19E
102
{ACAD_REACTORS
330
268
330
269
102
}
330
A0
100
AcDbEntity
  8
0
  6
Continuous
 62
     2
100
AcDbLine
 10
-227.9235244841079
 20
-253.4849761904642
 30
0.0
 11
-227.6233592469155
 21
-252.7171612244775
 31
0.0
  0
LINE
  5
19F
102
{ACAD_REACTORS
330
266
330
267
102
}
330
A0
100
AcDbEntity
  8
0
  6
Continuous
 62
     2
100
AcDbLine
 10
-226.4552144015703
 20
-251.3473095238144
 30
0.0
 11
-226.4552144015703
 21
-248.2935000000032
 31
0.0
  0
LINE
  5
1A0
102
{ACAD_REACTORS
330
266
330
267
102
}
330
A0
100
AcDbEntity
  8
0
  6
Continuous
 62
     2
100
AcDbLine
 10
-225.2147099913174
 20
-248.2935000000032
 30
0.0
 11
-225.2147099913174
 21
-251.3473095238144
 31
0.0
  0
LINE
  5
1A1
102
{ACAD_REACTORS
330
266
330
267
102
}
330
A0
100
AcDbEntity
  8
0
  6
Continuous
 62
     2
100
AcDbLine
 10
-226.4552144015703
 20
-248.2935000000032
 30
0.0
 11
-225.2147099913174
 21
-248.2935000000032
 31
0.0
  0
LINE
  5
1A2
102
{ACAD_REACTORS
330
264
330
265
102
}
330
A0
100
AcDbEntity
  8
0
  6
Continuous
 62
     2
100
AcDbLine
 10
-222.9961155652866
 20
-250.5595777385207
 30
0.0
 11
-222.2995246272211
 21
-251.3473095238144
 31
0.0
  0
LINE
  5
1A3
102
{ACAD_REACTORS
330
264
330
265
102
}
330
A0
100
AcDbEntity
  8
0
  6
Continuous
 62
     2
100
AcDbLine
 10
-222.2995246272211
 20
-251.3473095238144
 30
0.0
 11
-220.8968004094728
 21
-251.3473095238144
 31
0.0
  0
LINE
  5
1A4
102
{ACAD_REACTORS
330
264
330
265
102
}
330
A0
100
AcDbEntity
  8
0
  6
Continuous
 62
     2
100
AcDbLine
 10
-222.2947534564131
 20
-249.7664505300394
 30
0.0
 11
-220.8968004094728
 21
-251.3473095238144
 31
0.0
  0
LINE
  5
1A5
102
{ACAD_REACTORS
330
264
330
265
102
}
330
A0
100
AcDbEntity
  8
0
  6
Continuous
 62
     2
100
AcDbLine
 10
-222.2947534564131
 20
-249.7664505300394
 30
0.0
 11
-220.9922238256466
 21
-248.2935000000032
 31
0.0
  0
LINE
  5
1A6
102
{ACAD_REACTORS
330
264
330
265
102
}
330
A0
100
AcDbEntity
  8
0
  6
Continuous
 62
     2
100
AcDbLine
 10
-222.9961155652866
 20
-248.9733233215587
 30
0.0
 11
-222.3949480433938
 21
-248.2935000000032
 31
0.0
  0
LINE
  5
1A7
102
{ACAD_REACTORS
330
264
330
265
102
}
330
A0
100
AcDbEntity
  8
0
  6
Continuous
 62
     2
100
AcDbLine
 10
-223.5972830871784
 20
-248.2935000000032
 30
0.0
 11
-222.9961155652866
 21
-248.9733233215587
 31
0.0
  0
LINE
  5
1A8
102
{ACAD_REACTORS
330
264
330
265
102
}
330
A0
100
AcDbEntity
  8
0
  6
Continuous
 62
     2
100
AcDbLine
 10
-223.5972830871784
 20
-248.2935000000032
 30
0.0
 11
-225.0000073049277
 21
-248.2935000000032
 31
0.0
  0
LINE
  5
1A9
102
{ACAD_REACTORS
330
25A
330
25B
102
}
330
A0
100
AcDbEntity
  8
0
  6
Continuous
 62
     2
100
AcDbLine
 10
-222.9006921491139
 20
-254.7064999999887
 30
0.0
 11
-221.7078994469462
 21
-254.7064999999887
 31
0.0
  0
LINE
  5
1AA
102
{ACAD_REACTORS
330
25A
330
25B
102
}
330
A0
100
AcDbEntity
  8
0
  6
Continuous
 62
     2
100
AcDbLine
 10
-221.7078994469462
 20
-254.7064999999887
 30
0.0
 11
-221.7078994469462
 21
-252.4379557823012
 31
0.0
  0
LINE
  5
1AB
102
{ACAD_REACTORS
330
25A
330
25B
102
}
330
A0
100
AcDbEntity
  8
0
  6
Continuous
 62
     2
100
AcDbLine
 10
-221.7078994469462
 20
-252.4379557823012
 30
0.0
 11
-220.8968004094728
 21
-252.4379557823012
 31
0.0
  0
LINE
  5
1AC
102
{ACAD_REACTORS
330
25A
330
25B
102
}
330
A0
100
AcDbEntity
  8
0
  6
Continuous
 62
     2
100
AcDbLine
 10
-220.8968004094728
 20
-252.4379557823012
 30
0.0
 11
-220.8968004094728
 21
-251.6526904761776
 31
0.0
  0
LINE
  5
1AD
102
{ACAD_REACTORS
330
25A
330
25B
102
}
330
A0
100
AcDbEntity
  8
0
  6
Continuous
 62
     2
100
AcDbLine
 10
-224.2817459281015
 20
-251.6526904761781
 30
0.0
 11
-220.8968004094728
 21
-251.6526904761776
 31
0.0
  0
LINE
  5
1AE
102
{ACAD_REACTORS
330
25A
330
25B
102
}
330
A0
100
AcDbEntity
  8
0
  6
Continuous
 62
     2
100
AcDbLine
 10
-222.9006921491139
 20
-252.4379557823012
 30
0.0
 11
-222.9006921491139
 21
-254.7064999999887
 31
0.0
  0
LINE
  5
1AF
102
{ACAD_REACTORS
330
25C
330
25D
102
}
330
A0
100
AcDbEntity
  8
0
  6
Continuous
 62
     2
100
AcDbLine
 10
-245.5301785845931
 20
-252.7276198504242
 30
0.0
 11
-245.5301785845931
 21
-252.1457684437291
 31
0.0
  0
LINE
  5
1B0
102
{ACAD_REACTORS
330
25C
330
25D
102
}
330
A0
100
AcDbEntity
  8
0
  6
Continuous
 62
     2
100
AcDbLine
 10
-245.5301785845931
 20
-249.9274852437929
 30
0.0
 11
-245.5301785845931
 21
-249.3219499552861
 31
0.0
  0
LINE
  5
1B1
330
A0
100
AcDbEntity
  8
1
  6
Continuous
 62
     6
100
AcDbLine
 10
-266.9999999999899
 20
-262.000000000005
 30
0.0
 11
-253.0448045267399
 21
-262.0000000000051
 31
0.0
  0
LINE
  5
1B2
330
A0
100
AcDbEntity
  8
1
  6
Continuous
 62
     6
100
AcDbLine
 10
-316.9999999999901
 20
-262.000000000005
 30
0.0
 11
-322.0448045267399
 21
-262.000000000005
 31
0.0
  0
LINE
  5
1B3
330
A0
100
AcDbEntity
  8
1
  6
Continuous
 62
     6
100
AcDbLine
 10
-166.9999999999899
 20
-262.000000000005
 30
0.0
 11
-123.4999999999899
 21
-262.000000000005
 31
0.0
  0
LINE
  5
1B4
330
A0
100
AcDbEntity
  8
1
  6
Continuous
 62
     6
100
AcDbLine
 10
-216.9999999999899
 20
-262.000000000005
 30
0.0
 11
-234.8448045267399
 21
-262.000000000005
 31
0.0
  0
LINE
  5
1B5
330
A0
100
AcDbEntity
  8
1
  6
Continuous
 62
     2
100
AcDbLine
 10
-123.4999999999899
 20
-262.000000000005
 30
0.0
 11
-118.4999999999909
 21
-262.000000000005
 31
0.0
  0
LINE
  5
1B6
330
A0
100
AcDbEntity
  8
1
  6
Continuous
 62
     2
100
AcDbLine
 10
-123.4999999999899
 20
-262.000000000005
 30
0.0
 11
-123.4999999999899
 21
-267.0000000000051
 31
0.0
  0
LINE
  5
1B7
330
A0
100
AcDbEntity
  8
1
  6
Continuous
 62
     6
100
AcDbLine
 10
-253.0448045267399
 20
-245.000000000005
 30
0.0
 11
-216.64480452674
 21
-245.000000000005
 31
0.0
  0
LINE
  5
1B8
330
A0
100
AcDbEntity
  8
1
  6
Continuous
 62
     2
100
AcDbLine
 10
-118.4999999999909
 20
-267.0000000000051
 30
0.0
 11
-118.4999999999909
 21
-262.000000000005
 31
0.0
  0
LINE
  5
1B9
330
A0
100
AcDbEntity
  8
1
  6
Continuous
 62
     2
100
AcDbLine
 10
-118.4999999999909
 20
-267.0000000000051
 30
0.0
 11
-123.4999999999899
 21
-267.0000000000051
 31
0.0
  0
LINE
  5
1BA
330
A0
100
AcDbEntity
  8
1
  6
Continuous
 62
     2
100
AcDbLine
 10
-123.4999999999899
 20
-267.0000000000051
 30
0.0
 11
-166.9999999999899
 21
-267.0000000000051
 31
0.0
  0
LINE
  5
1BB
330
A0
100
AcDbEntity
  8
1
  6
Continuous
 62
     6
100
AcDbLine
 10
-123.4999999999882
 20
-245.000000000005
 30
0.0
 11
-123.499999999989
 21
-212.0000000000049
 31
0.0
  0
LINE
  5
1BC
330
A0
100
AcDbEntity
  8
1
  6
Continuous
 62
     2
100
AcDbLine
 10
-118.4999999999909
 20
-57.000000000005
 30
0.0
 11
-266.9999999999899
 21
-57.000000000005
 31
0.0
  0
LINE
  5
1BD
330
A0
100
AcDbEntity
  8
1
  6
Continuous
 62
     6
100
AcDbLine
 10
-123.4999999999909
 20
-77.000000000005
 30
0.0
 11
-410.499999999989
 21
-77.000000000005
 31
0.0
  0
LINE
  5
1BE
330
A0
100
AcDbEntity
  8
1
  6
Continuous
 62
     2
100
AcDbLine
 10
-123.499999999989
 20
-212.0000000000049
 30
0.0
 11
-118.4999999999909
 21
-212.0000000000049
 31
0.0
  0
LINE
  5
1BF
330
A0
100
AcDbEntity
  8
1
  6
Continuous
 62
     6
100
AcDbLine
 10
-123.499999999989
 20
-212.0000000000049
 30
0.0
 11
-123.4999999999895
 21
-162.0000000000051
 31
0.0
  0
LINE
  5
1C0
330
A0
100
AcDbEntity
  8
1
  6
Continuous
 62
     2
100
AcDbLine
 10
-118.4999999999909
 20
-212.0000000000049
 30
0.0
 11
-118.4999999999909
 21
-162.0000000000051
 31
0.0
  0
LINE
  5
1C1
330
A0
100
AcDbEntity
  8
1
  6
Continuous
 62
     2
100
AcDbLine
 10
-123.4999999999895
 20
-162.0000000000051
 30
0.0
 11
-118.4999999999909
 21
-162.0000000000051
 31
0.0
  0
LINE
  5
1C2
330
A0
100
AcDbEntity
  8
1
  6
Continuous
 62
     6
100
AcDbLine
 10
-123.4999999999895
 20
-162.0000000000051
 30
0.0
 11
-123.4999999999907
 21
-112.000000000005
 31
0.0
  0
LINE
  5
1C3
330
A0
100
AcDbEntity
  8
1
  6
Continuous
 62
     2
100
AcDbLine
 10
-118.4999999999909
 20
-162.0000000000051
 30
0.0
 11
-118.4999999999909
 21
-112.000000000005
 31
0.0
  0
LINE
  5
1C4
330
A0
100
AcDbEntity
  8
1
  6
Continuous
 62
     2
100
AcDbLine
 10
-123.4999999999907
 20
-112.000000000005
 30
0.0
 11
-118.4999999999909
 21
-112.000000000005
 31
0.0
  0
LINE
  5
1C5
330
A0
100
AcDbEntity
  8
1
  6
Continuous
 62
     6
100
AcDbLine
 10
-123.4999999999907
 20
-112.000000000005
 30
0.0
 11
-123.4999999999909
 21
-77.000000000005
 31
0.0
  0
LINE
  5
1C6
330
A0
100
AcDbEntity
  8
1
  6
Continuous
 62
     2
100
AcDbLine
 10
-118.4999999999909
 20
-112.000000000005
 30
0.0
 11
-118.4999999999909
 21
-57.000000000005
 31
0.0
  0
LINE
  5
1C7
330
A0
100
AcDbEntity
  8
1
  6
Continuous
 62
     2
100
AcDbLine
 10
-118.4999999999909
 20
-262.000000000005
 30
0.0
 11
-118.4999999999909
 21
-212.0000000000049
 31
0.0
  0
LINE
  5
1C8
330
A0
100
AcDbEntity
  8
1
  6
Continuous
 62
     2
100
AcDbLine
 10
-266.9999999999899
 20
-57.000000000005
 30
0.0
 11
-415.499999999989
 21
-57.000000000005
 31
0.0
  0
LINE
  5
1C9
330
A0
100
AcDbEntity
  8
1
  6
Continuous
 62
     2
100
AcDbLine
 10
-266.9999999999899
 20
-57.000000000005
 30
0.0
 11
-266.9999999999899
 21
-66.20869184470632
 31
0.0
  0
LINE
  5
1CA
330
A0
100
AcDbEntity
  8
1
  6
Continuous
 62
     2
100
AcDbLine
 10
-415.499999999989
 20
-267.0000000000051
 30
0.0
 11
-410.499999999988
 21
-267.0000000000051
 31
0.0
  0
LINE
  5
1CB
330
A0
100
AcDbEntity
  8
1
  6
Continuous
 62
     2
100
AcDbLine
 10
-415.499999999989
 20
-57.000000000005
 30
0.0
 11
-415.499999999989
 21
-112.000000000005
 31
0.0
  0
LINE
  5
1CC
330
A0
100
AcDbEntity
  8
1
  6
Continuous
 62
     6
100
AcDbLine
 10
-410.499999999989
 20
-77.000000000005
 30
0.0
 11
-410.4999999999889
 21
-112.000000000005
 31
0.0
  0
LINE
  5
1CD
330
A0
100
AcDbEntity
  8
1
  6
Continuous
 62
     2
100
AcDbLine
 10
-415.499999999989
 20
-112.000000000005
 30
0.0
 11
-410.4999999999889
 21
-112.000000000005
 31
0.0
  0
LINE
  5
1CE
330
A0
100
AcDbEntity
  8
1
  6
Continuous
 62
     2
100
AcDbLine
 10
-415.499999999989
 20
-112.000000000005
 30
0.0
 11
-415.499999999989
 21
-162.0000000000051
 31
0.0
  0
LINE
  5
1CF
330
A0
100
AcDbEntity
  8
1
  6
Continuous
 62
     6
100
AcDbLine
 10
-410.4999999999889
 20
-112.000000000005
 30
0.0
 11
-410.4999999999884
 21
-162.0000000000051
 31
0.0
  0
LINE
  5
1D0
330
A0
100
AcDbEntity
  8
1
  6
Continuous
 62
     2
100
AcDbLine
 10
-415.499999999989
 20
-162.0000000000051
 30
0.0
 11
-410.4999999999884
 21
-162.0000000000051
 31
0.0
  0
LINE
  5
1D1
330
A0
100
AcDbEntity
  8
1
  6
Continuous
 62
     2
100
AcDbLine
 10
-415.499999999989
 20
-162.0000000000051
 30
0.0
 11
-415.499999999989
 21
-212.0000000000049
 31
0.0
  0
LINE
  5
1D2
330
A0
100
AcDbEntity
  8
1
  6
Continuous
 62
     6
100
AcDbLine
 10
-410.4999999999884
 20
-162.0000000000051
 30
0.0
 11
-410.4999999999882
 21
-212.0000000000049
 31
0.0
  0
LINE
  5
1D3
330
A0
100
AcDbEntity
  8
1
  6
Continuous
 62
     2
100
AcDbLine
 10
-415.499999999989
 20
-212.0000000000049
 30
0.0
 11
-410.4999999999882
 21
-212.0000000000049
 31
0.0
  0
LINE
  5
1D4
330
A0
100
AcDbEntity
  8
1
  6
Continuous
 62
     2
100
AcDbLine
 10
-415.499999999989
 20
-212.0000000000049
 30
0.0
 11
-415.499999999989
 21
-262.000000000005
 31
0.0
  0
LINE
  5
1D5
330
A0
100
AcDbEntity
  8
1
  6
Continuous
 62
     6
100
AcDbLine
 10
-410.4999999999882
 20
-212.0000000000049
 30
0.0
 11
-410.499999999988
 21
-262.000000000005
 31
0.0
  0
LINE
  5
1D6
330
A0
100
AcDbEntity
  8
1
  6
Continuous
 62
     2
100
AcDbLine
 10
-366.9999999999899
 20
-267.0000000000051
 30
0.0
 11
-366.9999999999899
 21
-262.000000000005
 31
0.0
  0
LINE
  5
1D7
330
A0
100
AcDbEntity
  8
1
  6
Continuous
 62
     2
100
AcDbLine
 10
-366.9999999999899
 20
-267.0000000000051
 30
0.0
 11
-316.9999999999901
 21
-267.0000000000051
 31
0.0
  0
LINE
  5
1D8
330
A0
100
AcDbEntity
  8
1
  6
Continuous
 62
     2
100
AcDbLine
 10
-316.9999999999901
 20
-267.0000000000051
 30
0.0
 11
-316.9999999999901
 21
-262.000000000005
 31
0.0
  0
LINE
  5
1D9
330
A0
100
AcDbEntity
  8
1
  6
Continuous
 62
     2
100
AcDbLine
 10
-316.9999999999901
 20
-267.0000000000051
 30
0.0
 11
-266.9999999999899
 21
-267.0000000000051
 31
0.0
  0
LINE
  5
1DA
330
A0
100
AcDbEntity
  8
1
  6
Continuous
 62
     2
100
AcDbLine
 10
-266.9999999999899
 20
-267.0000000000051
 30
0.0
 11
-266.9999999999899
 21
-262.000000000005
 31
0.0
  0
LINE
  5
1DB
330
A0
100
AcDbEntity
  8
1
  6
Continuous
 62
     2
100
AcDbLine
 10
-266.9999999999899
 20
-267.0000000000051
 30
0.0
 11
-216.9999999999899
 21
-267.0000000000051
 31
0.0
  0
LINE
  5
1DC
330
A0
100
AcDbEntity
  8
1
  6
Continuous
 62
     2
100
AcDbLine
 10
-216.9999999999899
 20
-267.0000000000051
 30
0.0
 11
-216.9999999999899
 21
-262.000000000005
 31
0.0
  0
LINE
  5
1DD
330
A0
100
AcDbEntity
  8
1
  6
Continuous
 62
     2
100
AcDbLine
 10
-166.9999999999899
 20
-267.0000000000051
 30
0.0
 11
-166.9999999999899
 21
-262.000000000005
 31
0.0
  0
LINE
  5
1DE
330
A0
100
AcDbEntity
  8
1
  6
Continuous
 62
     2
100
AcDbLine
 10
-166.9999999999899
 20
-267.0000000000051
 30
0.0
 11
-216.9999999999899
 21
-267.0000000000051
 31
0.0
  0
LINE
  5
1DF
330
A0
100
AcDbEntity
  8
1
  6
Continuous
 62
     2
100
AcDbLine
 10
-410.499999999988
 20
-262.000000000005
 30
0.0
 11
-410.499999999988
 21
-267.0000000000051
 31
0.0
  0
LINE
  5
1E0
330
A0
100
AcDbEntity
  8
1
  6
Continuous
 62
     2
100
AcDbLine
 10
-410.499999999988
 20
-267.0000000000051
 30
0.0
 11
-366.9999999999899
 21
-267.0000000000051
 31
0.0
  0
LINE
  5
1E1
330
A0
100
AcDbEntity
  8
1
  6
Continuous
 62
     2
100
AcDbLine
 10
-410.499999999988
 20
-262.000000000005
 30
0.0
 11
-415.499999999989
 21
-262.000000000005
 31
0.0
  0
LINE
  5
1E2
330
A0
100
AcDbEntity
  8
1
  6
Continuous
 62
     2
100
AcDbLine
 10
-415.499999999989
 20
-262.000000000005
 30
0.0
 11
-415.499999999989
 21
-267.0000000000051
 31
0.0
  0
LINE
  5
1E3
330
A0
100
AcDbEntity
  8
1
  6
Continuous
 62
     6
100
AcDbLine
 10
-123.4999999999899
 20
-262.000000000005
 30
0.0
 11
-123.4999999999886
 21
-253.500000000005
 31
0.0
  0
LINE
  5
1E4
330
A0
100
AcDbEntity
  8
1
  6
Continuous
 62
     6
100
AcDbLine
 10
-216.64480452674
 20
-262.0000000000051
 30
0.0
 11
-166.9999999999899
 21
-262.000000000005
 31
0.0
  0
LINE
  5
1E5
330
A0
100
AcDbEntity
  8
1
  6
Continuous
 62
     6
100
AcDbLine
 10
-369.2999999999901
 20
-262.0000000000051
 30
0.0
 11
-366.9999999999899
 21
-262.000000000005
 31
0.0
  0
LINE
  5
1E6
330
A0
100
AcDbEntity
  8
1
  6
Continuous
 62
     6
100
AcDbLine
 10
-266.9999999999899
 20
-262.000000000005
 30
0.0
 11
-316.9999999999901
 21
-262.000000000005
 31
0.0
  0
LINE
  5
1E7
330
A0
100
AcDbEntity
  8
1
  6
Continuous
 62
     7
100
AcDbLine
 10
-253.0448045267399
 20
-245.000000000005
 30
0.0
 11
-253.0448045267399
 21
-257.7500000000051
 31
0.0
  0
LINE
  5
1E8
330
A0
100
AcDbEntity
  8
1
  6
Continuous
 62
     7
100
AcDbLine
 10
-216.64480452674
 20
-245.000000000005
 30
0.0
 11
-216.64480452674
 21
-257.750000000005
 31
0.0
  0
LINE
  5
1E9
330
A0
100
AcDbEntity
  8
1
  6
Continuous
 62
     6
100
AcDbLine
 10
-369.2999999999901
 20
-262.0000000000051
 30
0.0
 11
-375.4999999999881
 21
-262.000000000005
 31
0.0
  0
LINE
  5
1EA
330
A0
100
AcDbEntity
  8
1
  6
Continuous
 62
     6
100
AcDbLine
 10
-216.64480452674
 20
-262.0000000000051
 30
0.0
 11
-216.9999999999899
 21
-262.000000000005
 31
0.0
  0
LINE
  5
1EB
330
A0
100
AcDbEntity
  8
1
  6
Continuous
 62
     6
100
AcDbLine
 10
-123.4999999999882
 20
-245.000000000005
 30
0.0
 11
-123.4999999999886
 21
-253.500000000005
 31
0.0
  0
LINE
  5
1EC
330
A0
100
AcDbEntity
  8
1
  6
Continuous
 62
     6
100
AcDbLine
 10
-375.4999999999881
 20
-262.000000000005
 30
0.0
 11
-410.499999999988
 21
-262.000000000005
 31
0.0
  0
LINE
  5
1ED
330
A0
100
AcDbEntity
  8
1
  6
Continuous
 62
     2
100
AcDbLine
 10
-248.8081496401773
 20
-239.6250000000051
 30
0.0
 11
-243.8081496401773
 21
-238.3750000000051
 31
0.0
  0
LINE
  5
1EE
330
A0
100
AcDbEntity
  8
1
  6
Continuous
 62
     2
100
AcDbLine
 10
-248.8081496401773
 20
-242.1250000000051
 30
0.0
 11
-248.8081496401773
 21
-239.6250000000051
 31
0.0
  0
LINE
  5
1EF
330
A0
100
AcDbEntity
  8
1
  6
Continuous
 62
     2
100
AcDbLine
 10
-243.8081496401773
 20
-243.3750000000051
 30
0.0
 11
-248.8081496401773
 21
-242.1250000000051
 31
0.0
  0
LINE
  5
1F0
330
A0
100
AcDbEntity
  8
1
  6
Continuous
 62
     2
100
AcDbLine
 10
-243.8081496401773
 20
-238.3750000000051
 30
0.0
 11
-243.8081496401773
 21
-243.3750000000051
 31
0.0
  0
LINE
  5
1F1
330
A0
100
AcDbEntity
  8
1
  6
Continuous
 62
     7
100
AcDbLine
 10
-253.0448045267399
 20
-257.7500000000051
 30
0.0
 11
-234.8448045267399
 21
-257.750000000005
 31
0.0
  0
LINE
  5
1F2
330
A0
100
AcDbEntity
  8
1
  6
Continuous
 62
     7
100
AcDbLine
 10
-253.0448045267399
 20
-257.7500000000051
 30
0.0
 11
-253.0448045267399
 21
-262.0000000000051
 31
0.0
  0
LINE
  5
1F3
330
A0
100
AcDbEntity
  8
1
  6
Continuous
 62
     7
100
AcDbLine
 10
-216.64480452674
 20
-257.750000000005
 30
0.0
 11
-216.64480452674
 21
-262.0000000000051
 31
0.0
  0
LINE
  5
1F4
330
A0
100
AcDbEntity
  8
1
  6
Continuous
 62
     7
100
AcDbLine
 10
-234.8448045267399
 20
-257.750000000005
 30
0.0
 11
-234.8448045267399
 21
-262.000000000005
 31
0.0
  0
LINE
  5
1F5
330
A0
100
AcDbEntity
  8
1
  6
Continuous
 62
     6
100
AcDbLine
 10
-234.8448045267399
 20
-262.000000000005
 30
0.0
 11
-253.0448045267399
 21
-262.0000000000051
 31
0.0
  0
LINE
  5
1F6
330
A0
100
AcDbEntity
  8
1
  6
Continuous
 62
     7
100
AcDbLine
 10
-234.8448045267399
 20
-257.750000000005
 30
0.0
 11
-216.64480452674
 21
-257.750000000005
 31
0.0
  0
LINE
  5
1F7
330
A0
100
AcDbEntity
  8
1
  6
Continuous
 62
     6
100
AcDbLine
 10
-253.0448045267399
 20
-236.500000000005
 30
0.0
 11
-123.4999999999882
 21
-236.500000000005
 31
0.0
  0
ARC
  5
1F8
102
{ACAD_REACTORS
330
260
330
261
102
}
330
A0
100
AcDbEntity
  8
0
  6
Continuous
 62
     2
100
AcDbCircle
 10
-237.6531565277799
 20
-253.1795952380834
 30
0.0
 40
0.7717997786796947
100
AcDbArc
 50
321.8795802028417
 51
38.12041979715329
  0
ARC
  5
1F9
102
{ACAD_REACTORS
330
260
330
261
102
}
330
A0
100
AcDbEntity
  8
0
  6
Continuous
 62
     2
100
AcDbCircle
 10
-237.4534164914335
 20
-253.3363264162034
 30
0.0
 40
0.5179085730137354
100
AcDbArc
 50
218.1204197971931
 51
321.879580202801
  0
ARC
  5
1FA
102
{ACAD_REACTORS
330
260
330
261
102
}
330
A0
100
AcDbEntity
  8
0
  6
Continuous
 62
     2
100
AcDbCircle
 10
-237.2536764550874
 20
-253.1795952380834
 30
0.0
 40
0.7717997786794633
100
AcDbArc
 50
141.8795802028363
 51
218.1204197971687
  0
ARC
  5
1FB
102
{ACAD_REACTORS
330
260
330
261
102
}
330
A0
100
AcDbEntity
  8
0
  6
Continuous
 62
     2
100
AcDbCircle
 10
-237.4534164914335
 20
-253.0228640599629
 30
0.0
 40
0.5179085730132998
100
AcDbArc
 50
38.12041979714704
 51
141.8795802028588
  0
ARC
  5
1FC
102
{ACAD_REACTORS
330
258
330
259
102
}
330
A0
100
AcDbEntity
  8
0
  6
Continuous
 62
     2
100
AcDbCircle
 10
-240.5154306269974
 20
-254.5900616034916
 30
0.0
 40
2.227384008973478
100
AcDbArc
 50
58.06909105004071
 51
71.55192388186722
  0
ARC
  5
1FD
102
{ACAD_REACTORS
330
258
330
259
102
}
330
A0
100
AcDbEntity
  8
0
  6
Continuous
 62
     2
100
AcDbCircle
 10
-240.2537029260386
 20
-252.9745238087444
 30
0.0
 40
0.5115800601948779
100
AcDbArc
 50
113.3722778881992
 51
151.4785267423044
  0
ARC
  5
1FE
102
{ACAD_REACTORS
330
258
330
259
102
}
330
A0
100
AcDbEntity
  8
0
  6
Continuous
 62
     2
100
AcDbCircle
 10
-239.8763456679583
 20
-253.1795952380834
 30
0.0
 40
0.9410597353332545
100
AcDbArc
 50
151.4785267422669
 51
208.5214732577057
  0
ARC
  5
1FF
102
{ACAD_REACTORS
330
258
330
259
102
}
330
A0
100
AcDbEntity
  8
0
  6
Continuous
 62
     2
100
AcDbCircle
 10
-240.6733035020903
 20
-249.866914292827
 30
0.0
 40
4.852596863498138
100
AcDbArc
 50
275.1581447696249
 51
285.9799912583529
  0
ARC
  5
200
102
{ACAD_REACTORS
330
258
330
259
102
}
330
A0
100
AcDbEntity
  8
0
  6
Continuous
 62
     2
100
AcDbCircle
 10
-240.3844474073544
 20
-253.0668048760486
 30
0.0
 40
1.639695123939387
100
AcDbArc
 50
195.0618917770896
 51
275.1581447696395
  0
ARC
  5
201
102
{ACAD_REACTORS
330
258
330
259
102
}
330
A0
100
AcDbEntity
  8
0
  6
Continuous
 62
     2
100
AcDbCircle
 10
-240.8035752508172
 20
-253.1795952380834
 30
0.0
 40
1.205656168390944
100
AcDbArc
 50
164.9381082228765
 51
195.0618917770948
  0
ARC
  5
202
102
{ACAD_REACTORS
330
258
330
259
102
}
330
A0
100
AcDbEntity
  8
0
  6
Continuous
 62
     2
100
AcDbCircle
 10
-240.3844474073544
 20
-253.2923856001183
 30
0.0
 40
1.639695123940507
100
AcDbArc
 50
84.84185523036236
 51
164.9381082228864
  0
ARC
  5
203
102
{ACAD_REACTORS
330
25C
330
25D
102
}
330
A0
100
AcDbEntity
  8
0
  6
Continuous
 62
     2
100
AcDbCircle
 10
-245.2144616615163
 20
-252.1457684437291
 30
0.0
 40
0.3157169230765328
100
AcDbArc
 50
115.3740086783519
 51
180.0
  0
ARC
  5
204
102
{ACAD_REACTORS
330
25C
330
25D
102
}
330
A0
100
AcDbEntity
  8
0
  6
Continuous
 62
     2
100
AcDbCircle
 10
-245.2144616615163
 20
-249.9274852437929
 30
0.0
 40
0.315716923076792
100
AcDbArc
 50
180.0
 51
244.6259913216482
  0
ARC
  5
205
102
{ACAD_REACTORS
330
25C
330
25D
102
}
330
A0
100
AcDbEntity
  8
0
  6
Continuous
 62
     2
100
AcDbCircle
 10
-245.2088455262063
 20
-251.0247849028552
 30
0.0
 40
2.018561131933266
100
AcDbArc
 50
269.8110329575858
 51
90.18896704241416
  0
ARC
  5
206
102
{ACAD_REACTORS
330
25C
330
25D
102
}
330
A0
100
AcDbEntity
  8
0
  6
Continuous
 62
     2
100
AcDbCircle
 10
-245.2144616615163
 20
-252.7276198504242
 30
0.0
 40
0.315716923076792
100
AcDbArc
 50
180.0
 51
269.8110329574542
  0
ARC
  5
207
102
{ACAD_REACTORS
330
25A
330
25B
102
}
330
A0
100
AcDbEntity
  8
0
  6
Continuous
 62
     2
100
AcDbCircle
 10
-224.1510014467857
 20
-252.9745238087444
 30
0.0
 40
0.5115800601944143
100
AcDbArc
 50
109.3371432194853
 51
151.4785267424225
  0
ARC
  5
208
102
{ACAD_REACTORS
330
25A
330
25B
102
}
330
A0
100
AcDbEntity
  8
0
  6
Continuous
 62
     2
100
AcDbCircle
 10
-224.1510014467857
 20
-253.3846666674219
 30
0.0
 40
0.5115800601960215
100
AcDbArc
 50
208.5214732576866
 51
246.6277221118449
  0
ARC
  5
209
102
{ACAD_REACTORS
330
25A
330
25B
102
}
330
A0
100
AcDbEntity
  8
0
  6
Continuous
 62
     2
100
AcDbCircle
 10
-224.7008737715631
 20
-253.1795952380834
 30
0.0
 40
1.205656168393002
100
AcDbArc
 50
164.9381082229028
 51
195.0618917770959
  0
ARC
  5
20A
102
{ACAD_REACTORS
330
25A
330
25B
102
}
330
A0
100
AcDbEntity
  8
0
  6
Continuous
 62
     2
100
AcDbCircle
 10
-224.2817459281015
 20
-253.2923856001183
 30
0.0
 40
1.639695123940214
100
AcDbArc
 50
90.0
 51
164.938108222895
  0
ARC
  5
20B
102
{ACAD_REACTORS
330
25E
330
25F
102
}
330
A0
100
AcDbEntity
  8
0
  6
Continuous
 62
     2
100
AcDbCircle
 10
-233.7087410208052
 20
-249.8204047619091
 30
0.0
 40
1.526904761905882
100
AcDbArc
 50
90.0
 51
270.0
  0
ARC
  5
20C
102
{ACAD_REACTORS
330
262
330
263
102
}
330
A0
100
AcDbEntity
  8
0
  6
Continuous
 62
     2
100
AcDbCircle
 10
-240.451431766031
 20
-249.3094696701144
 30
0.0
 40
0.3528638246711182
100
AcDbArc
 50
270.0
 51
90.0
  0
ARC
  5
20D
102
{ACAD_REACTORS
330
25C
330
25D
102
}
330
A0
100
AcDbEntity
  8
0
  6
Continuous
 62
     2
100
AcDbCircle
 10
-247.790010348048
 20
-249.321772478638
 30
0.0
 40
0.3157169230761951
100
AcDbArc
 50
90.0
 51
180.0
  0
ARC
  5
20E
102
{ACAD_REACTORS
330
25C
330
25D
102
}
330
A0
100
AcDbEntity
  8
0
  6
Continuous
 62
     2
100
AcDbCircle
 10
-245.7915926394634
 20
-251.0366268437607
 30
0.0
 40
0.9118975235576147
100
AcDbArc
 50
115.1944106485282
 51
244.8055893514878
  0
ARC
  5
20F
102
{ACAD_REACTORS
330
25C
330
25D
102
}
330
A0
100
AcDbEntity
  8
0
  6
Continuous
 62
     2
100
AcDbCircle
 10
-246.3141770870384
 20
-252.1474565898235
 30
0.0
 40
0.315716923076593
100
AcDbArc
 50
0.0
 51
64.80558935146027
  0
ARC
  5
210
102
{ACAD_REACTORS
330
25C
330
25D
102
}
330
A0
100
AcDbEntity
  8
0
  6
Continuous
 62
     2
100
AcDbCircle
 10
-248.3839050247945
 20
-254.2822553846054
 30
0.0
 40
0.4242446153828041
100
AcDbArc
 50
180.0
 51
270.0
  0
ARC
  5
211
102
{ACAD_REACTORS
330
25E
330
25F
102
}
330
A0
100
AcDbEntity
  8
0
  6
Continuous
 62
     2
100
AcDbCircle
 10
-233.49246901064
 20
-249.6636735837886
 30
0.0
 40
0.5179085730135266
100
AcDbArc
 50
38.12041979714334
 51
141.8795802028489
  0
ARC
  5
212
102
{ACAD_REACTORS
330
25E
330
25F
102
}
330
A0
100
AcDbEntity
  8
0
  6
Continuous
 62
     2
100
AcDbCircle
 10
-233.2927289742937
 20
-249.8204047619091
 30
0.0
 40
0.7717997786796724
100
AcDbArc
 50
141.8795802028404
 51
218.1204197971562
  0
ARC
  5
213
102
{ACAD_REACTORS
330
260
330
261
102
}
330
A0
100
AcDbEntity
  8
0
  6
Continuous
 62
     2
100
AcDbCircle
 10
-237.4534164914335
 20
-252.6410202277801
 30
0.0
 40
2.065479772208509
100
AcDbArc
 50
242.4518518243402
 51
297.5481481756871
  0
ARC
  5
214
102
{ACAD_REACTORS
330
260
330
261
102
}
330
A0
100
AcDbEntity
  8
0
  6
Continuous
 62
     2
100
AcDbCircle
 10
-237.4534164914335
 20
-253.7181702483862
 30
0.0
 40
2.065479772208568
100
AcDbArc
 50
62.45185182430637
 51
117.5481481756664
  0
ARC
  5
215
102
{ACAD_REACTORS
330
260
330
261
102
}
330
A0
100
AcDbEntity
  8
0
  6
Continuous
 62
     2
100
AcDbCircle
 10
-237.7343563832668
 20
-253.1795952380834
 30
0.0
 40
1.45803408365149
100
AcDbArc
 50
117.5481481756624
 51
242.4518518243375
  0
ARC
  5
216
102
{ACAD_REACTORS
330
260
330
261
102
}
330
A0
100
AcDbEntity
  8
0
  6
Continuous
 62
     2
100
AcDbCircle
 10
-237.1724765996002
 20
-253.1795952380834
 30
0.0
 40
1.458034083652003
100
AcDbArc
 50
297.548148175701
 51
62.45185182429896
  0
ARC
  5
217
102
{ACAD_REACTORS
330
25E
330
25F
102
}
330
A0
100
AcDbEntity
  8
0
  6
Continuous
 62
     2
100
AcDbCircle
 10
-233.49246901064
 20
-249.9771359400295
 30
0.0
 40
0.5179085730134372
100
AcDbArc
 50
218.1204197971511
 51
321.8795802028566
  0
ARC
  5
218
102
{ACAD_REACTORS
330
25E
330
25F
102
}
330
A0
100
AcDbEntity
  8
0
  6
Continuous
 62
     2
100
AcDbCircle
 10
-233.6922090469862
 20
-249.8204047619091
 30
0.0
 40
0.7717997786796373
100
AcDbArc
 50
321.8795802028437
 51
38.12041979715956
  0
ARC
  5
219
102
{ACAD_REACTORS
330
25C
330
25D
102
}
330
A0
100
AcDbEntity
  8
0
  6
Continuous
 62
     2
100
AcDbCircle
 10
-242.9105929340777
 20
-254.2822553846054
 30
0.0
 40
0.4242446153832873
100
AcDbArc
 50
270.0
 51
0.0
  0
ARC
  5
21A
102
{ACAD_REACTORS
330
25C
330
25D
102
}
330
A0
100
AcDbEntity
  8
0
  6
Continuous
 62
     2
100
AcDbCircle
 10
-242.9105929340777
 20
-248.7177446154052
 30
0.0
 40
0.4242446153838841
100
AcDbArc
 50
0.0
 51
90.0
  0
ARC
  5
21B
102
{ACAD_REACTORS
330
25C
330
25D
102
}
330
A0
100
AcDbEntity
  8
0
  6
Continuous
 62
     2
100
AcDbCircle
 10
-248.3839050247945
 20
-248.7177446154052
 30
0.0
 40
0.4242446153837989
100
AcDbArc
 50
90.0
 51
180.0
  0
ARC
  5
21C
102
{ACAD_REACTORS
330
25C
330
25D
102
}
330
A0
100
AcDbEntity
  8
0
  6
Continuous
 62
     2
100
AcDbCircle
 10
-246.3141770870384
 20
-253.6782275213551
 30
0.0
 40
0.3157169230767067
100
AcDbArc
 50
270.0
 51
0.0
  0
ARC
  5
21D
102
{ACAD_REACTORS
330
25C
330
25D
102
}
330
A0
100
AcDbEntity
  8
0
  6
Continuous
 62
     2
100
AcDbCircle
 10
-246.3141770870384
 20
-249.9257970976985
 30
0.0
 40
0.3157169230761203
100
AcDbArc
 50
295.1944106485397
 51
0.0
  0
ARC
  5
21E
102
{ACAD_REACTORS
330
25C
330
25D
102
}
330
A0
100
AcDbEntity
  8
0
  6
Continuous
 62
     2
100
AcDbCircle
 10
-246.3141770870384
 20
-249.321772478638
 30
0.0
 40
0.315716923076593
100
AcDbArc
 50
0.0
 51
90.0
  0
ARC
  5
21F
102
{ACAD_REACTORS
330
25C
330
25D
102
}
330
A0
100
AcDbEntity
  8
0
  6
Continuous
 62
     2
100
AcDbCircle
 10
-247.790010348048
 20
-253.6782275213551
 30
0.0
 40
0.3157169230756836
100
AcDbArc
 50
180.0
 51
270.0
  0
ARC
  5
220
102
{ACAD_REACTORS
330
262
330
263
102
}
330
A0
100
AcDbEntity
  8
0
  6
Continuous
 62
     2
100
AcDbCircle
 10
-240.0099592397926
 20
-249.3488656413369
 30
0.0
 40
1.055365641333708
100
AcDbArc
 50
270.0
 51
90.0
  0
ARC
  5
221
102
{ACAD_REACTORS
330
25A
330
25B
102
}
330
A0
100
AcDbEntity
  8
0
  6
Continuous
 62
     2
100
AcDbCircle
 10
-224.2817459281015
 20
-253.0668048760486
 30
0.0
 40
1.639695123940448
100
AcDbArc
 50
195.0618917771012
 51
275.1581447696762
  0
ARC
  5
222
102
{ACAD_REACTORS
330
25A
330
25B
102
}
330
A0
100
AcDbEntity
  8
0
  6
Continuous
 62
     2
100
AcDbCircle
 10
-224.5706020228373
 20
-249.866914292827
 30
0.0
 40
4.852596863498825
100
AcDbArc
 50
275.1581447696364
 51
285.9799912583387
  0
ARC
  5
223
102
{ACAD_REACTORS
330
25A
330
25B
102
}
330
A0
100
AcDbEntity
  8
0
  6
Continuous
 62
     2
100
AcDbCircle
 10
-224.4127291477445
 20
-251.7691288726753
 30
0.0
 40
2.227384008972746
100
AcDbArc
 50
288.4480761181335
 51
301.9309089499397
  0
ARC
  5
224
102
{ACAD_REACTORS
330
25A
330
25B
102
}
330
A0
100
AcDbEntity
  8
0
  6
Continuous
 62
     2
100
AcDbCircle
 10
-223.9945614140826
 20
-253.0226746487119
 30
0.0
 40
0.9059297849852801
100
AcDbArc
 50
246.6277221118183
 51
288.4480761180817
  0
ARC
  5
225
102
{ACAD_REACTORS
330
25A
330
25B
102
}
330
A0
100
AcDbEntity
  8
0
  6
Continuous
 62
     2
100
AcDbCircle
 10
-223.7736441887043
 20
-253.1795952380834
 30
0.0
 40
0.9410597353348924
100
AcDbArc
 50
151.4785267423624
 51
208.5214732576695
  0
ARC
  5
226
102
{ACAD_REACTORS
330
25A
330
25B
102
}
330
A0
100
AcDbEntity
  8
0
  6
Continuous
 62
     2
100
AcDbCircle
 10
-224.004331448682
 20
-253.3924787891273
 30
0.0
 40
0.9545230068260935
100
AcDbArc
 50
90.0
 51
109.337143219432
  0
ARC
  5
227
102
{ACAD_REACTORS
330
25C
330
25D
102
}
330
A0
100
AcDbEntity
  8
0
  6
Continuous
 62
     2
100
AcDbCircle
 10
-245.2144616615163
 20
-249.3219499552861
 30
0.0
 40
0.3157169230760711
100
AcDbArc
 50
90.18896704254594
 51
180.0
  0
ARC
  5
228
102
{ACAD_REACTORS
330
25C
330
25D
102
}
330
A0
100
AcDbEntity
  8
0
  6
Continuous
 62
     2
100
AcDbCircle
 10
-245.7405043596042
 20
-251.0366268437607
 30
0.0
 40
0.911848150144459
100
AcDbArc
 50
295.3740086781764
 51
64.62599132180748
  0
ARC
  5
229
102
{ACAD_REACTORS
330
258
330
259
102
}
330
A0
100
AcDbEntity
  8
0
  6
Continuous
 62
     2
100
AcDbCircle
 10
-240.5154306269974
 20
-251.7691288726747
 30
0.0
 40
2.227384008972737
100
AcDbArc
 50
288.4480761181328
 51
301.9309089499593
  0
ARC
  5
22A
102
{ACAD_REACTORS
330
258
330
259
102
}
330
A0
100
AcDbEntity
  8
0
  6
Continuous
 62
     2
100
AcDbCircle
 10
-240.0972628933366
 20
-253.0226746487119
 30
0.0
 40
0.9059297849849192
100
AcDbArc
 50
246.627722111871
 51
288.4480761181584
  0
ARC
  5
22B
102
{ACAD_REACTORS
330
258
330
259
102
}
330
A0
100
AcDbEntity
  8
0
  6
Continuous
 62
     2
100
AcDbCircle
 10
-240.2537029260386
 20
-253.3846666674219
 30
0.0
 40
0.5115800601948034
100
AcDbArc
 50
208.5214732576956
 51
246.6277221118274
  0
ARC
  5
22C
102
{ACAD_REACTORS
330
258
330
259
102
}
330
A0
100
AcDbEntity
  8
0
  6
Continuous
 62
     2
100
AcDbCircle
 10
-240.0972628933366
 20
-253.336515827455
 30
0.0
 40
0.9059297849853228
100
AcDbArc
 50
71.55192388185348
 51
113.372277888129
  0
ARC
  5
22D
102
{ACAD_REACTORS
330
258
330
259
102
}
330
A0
100
AcDbEntity
  8
0
  6
Continuous
 62
     2
100
AcDbCircle
 10
-240.6733035020903
 20
-256.4922761833393
 30
0.0
 40
4.852596863498068
100
AcDbArc
 50
74.02000874164739
 51
84.84185523037506
  0
CIRCLE
  5
22E
102
{ACAD_REACTORS
330
25C
330
25D
102
}
330
A0
100
AcDbEntity
  8
0
  6
Continuous
 62
     2
100
AcDbCircle
 10
-245.764319374277
 20
-251.0366268437607
 30
0.0
 40
0.4709789327785074
  0
CIRCLE
  5
22F
330
A0
100
AcDbEntity
  8
1
  6
Continuous
 62
     2
100
AcDbCircle
 10
-240.3081496401773
 20
-240.8750000000051
 30
0.0
 40
1.249999999999915
  0
CIRCLE
  5
230
330
A0
100
AcDbEntity
  8
1
  6
Continuous
 62
     2
100
AcDbCircle
 10
-240.3081496401773
 20
-240.8750000000051
 30
0.0
 40
2.5
  0
TEXT
  5
231
330
A0
100
AcDbEntity
  8
1
 62
     7
100
AcDbText
 10
-197.6712568047261
 20
-243.7000000000051
 30
0.0
 40
2.5
  1
/
 41
0.9
  7
CONVERTER_11
100
AcDbText
  0
TEXT
  5
233
330
A0
100
AcDbEntity
  8
1
 62
     7
100
AcDbText
 10
-195.5148923076841
 20
-243.7000000000051
 30
0.0
 40
2.5
  1
00
 41
0.81
  7
CONVERTER_12
100
AcDbText
  0
TEXT
  5
234
330
A0
100
AcDbEntity
  8
1
 62
     3
100
AcDbText
 10
-157.918408281667
 20
-243.7000000000051
 30
0.0
 40
2.5
  1
11.03.2018
 41
0.81
  7
CONVERTER_12
100
AcDbText
  0
MTEXT
  5
235
330
A0
100
AcDbEntity
  8
1
 62
     2
100
AcDbMText
 10
-157.918408281667
 20
-237.5000000000051
 30
0.0
 40
1.8
 41
0.0
 71
     1
 72
     1
  1
date
  7
CONVERTER_11
 73
     1
 44
1.32052821128451
  0
MTEXT
  5
236
330
A0
100
AcDbEntity
  8
1
 62
     2
100
AcDbMText
 10
-187.7448045267399
 20
-246.0000000000051
 30
0.0
 40
1.8
 41
0.0
 71
     1
 72
     1
  1
document-type
  7
CONVERTER_11
 73
     1
 44
1.20048019207683
  0
TEXT
  5
237
330
A0
100
AcDbEntity
  8
1
 62
     3
100
AcDbText
 10
-187.7448045267399
 20
-252.2000000000051
 30
0.0
 40
2.5
  1
TECDOC 2D_Productdrawing
 41
0.81
  7
CONVERTER_12
100
AcDbText
  0
MTEXT
  5
239
330
A0
100
AcDbEntity
  8
1
 62
     2
100
AcDbMText
 10
-215.5448045267399
 20
-237.500000000005
 30
0.0
 40
1.8
 41
0.0
 71
     1
 72
     1
  1
document-No. / RI
  7
CONVERTER_13
 73
     1
 44
1.32052821128451
  0
TEXT
  5
23A
330
A0
100
AcDbEntity
  8
1
 62
     7
100
AcDbText
 10
-215.5448045267399
 20
-243.7000000000051
 30
0.0
 40
2.5
  1
40545318
 41
0.81
  7
CONVERTER_12
100
AcDbText
  0
MTEXT
  5
23C
330
A0
100
AcDbEntity
  8
1
 62
     3
100
AcDbMText
 10
-127.9592041408276
 20
-243.7000000000049
 30
0.0
 40
2.5
 41
0.0
 71
     8
 72
     1
  1
1:1
  7
CONVERTER_14
 73
     1
 44
1.32052821128451
  0
MTEXT
  5
23D
330
A0
100
AcDbEntity
  8
1
 62
     2
100
AcDbMText
 10
-131.3184082816672
 20
-237.500000000005
 30
0.0
 40
1.8
 41
0.0
 71
     1
 72
     1
  1
scale
  7
CONVERTER_11
 73
     1
 44
1.20048019207683
  0
MTEXT
  5
23E
330
A0
100
AcDbEntity
  8
1
 62
     2
100
AcDbMText
 10
-215.5448045267399
 20
-246.000000000005
 30
0.0
 40
1.8
 41
0.0
 71
     1
 72
     1
  1
ident.-No.
  7
CONVERTER_11
 73
     1
 44
1.20048019207683
  0
TEXT
  5
23F
330
A0
100
AcDbEntity
  8
1
 62
     7
100
AcDbText
 10
-215.1448045267402
 20
-252.2000000000051
 30
0.0
 40
2.5
  1
0303354
 41
0.81
  7
CONVERTER_12
100
AcDbText
  0
MTEXT
  5
240
330
A0
100
AcDbEntity
  8
1
 62
     2
100
AcDbMText
 10
-287.4828192517874
 20
-249.2500000000051
 30
0.0
 40
2.0
 41
0.0
 71
     5
 72
     1
  1
General Information\P- Simplified representation\P- Document excluded from change process\P- Linear dimensions [mm]
  7
CONVERTER_11
 73
     1
 44
1.20048019207683
  0
MTEXT
  5
241
330
A0
100
AcDbEntity
  8
1
 62
     7
100
AcDbMText
 10
-120.9999999999909
 20
-187.0000000000031
 30
0.0
 40
3.5
 41
0.0
 71
     5
 72
     1
  1
C
  7
CONVERTER_11
 73
     1
 44
1.20048019207683
  0
MTEXT
  5
242
330
A0
100
AcDbEntity
  8
1
 62
     7
100
AcDbMText
 10
-120.9999999999909
 20
-84.500000000005
 30
0.0
 40
3.5
 41
0.0
 71
     5
 72
     1
  1
A
  7
CONVERTER_11
 73
     1
 44
1.20048019207683
  0
MTEXT
  5
243
330
A0
100
AcDbEntity
  8
1
 62
     7
100
AcDbMText
 10
-120.9999999999909
 20
-137.0000000000031
 30
0.0
 40
3.5
 41
0.0
 71
     5
 72
     1
  1
B
  7
CONVERTER_11
 73
     1
 44
1.20048019207683
  0
MTEXT
  5
244
330
A0
100
AcDbEntity
  8
1
 62
     7
100
AcDbMText
 10
-120.9999999999909
 20
-239.500000000005
 30
0.0
 40
3.5
 41
0.0
 71
     5
 72
     1
  1
D
  7
CONVERTER_11
 73
     1
 44
1.20048019207683
  0
MTEXT
  5
245
330
A0
100
AcDbEntity
  8
1
 62
     7
100
AcDbMText
 10
-391.2499999999895
 20
-264.5000000000051
 30
0.0
 40
3.5
 41
0.0
 71
     5
 72
     1
  1
1
  7
CONVERTER_11
 73
     1
 44
1.20048019207683
  0
MTEXT
  5
246
330
A0
100
AcDbEntity
  8
1
 62
     7
100
AcDbMText
 10
-341.9999999999899
 20
-264.5000000000051
 30
0.0
 40
3.5
 41
0.0
 71
     5
 72
     1
  1
2
  7
CONVERTER_11
 73
     1
 44
1.20048019207683
  0
MTEXT
  5
247
330
A0
100
AcDbEntity
  8
1
 62
     7
100
AcDbMText
 10
-291.9999999999899
 20
-264.5000000000051
 30
0.0
 40
3.5
 41
0.0
 71
     5
 72
     1
  1
3
  7
CONVERTER_11
 73
     1
 44
1.20048019207683
  0
MTEXT
  5
248
330
A0
100
AcDbEntity
  8
1
 62
     7
100
AcDbMText
 10
-241.99999999999
 20
-264.5000000000051
 30
0.0
 40
3.5
 41
0.0
 71
     5
 72
     1
  1
4
  7
CONVERTER_11
 73
     1
 44
1.20048019207683
  0
MTEXT
  5
249
330
A0
100
AcDbEntity
  8
1
 62
     7
100
AcDbMText
 10
-191.9999999999899
 20
-264.5000000000051
 30
0.0
 40
3.5
 41
0.0
 71
     5
 72
     1
  1
5
  7
CONVERTER_11
 73
     1
 44
1.20048019207683
  0
MTEXT
  5
24A
330
A0
100
AcDbEntity
  8
1
 62
     7
100
AcDbMText
 10
-142.7499999999907
 20
-264.5000000000051
 30
0.0
 40
3.5
 41
0.0
 71
     5
 72
     1
  1
6
  7
CONVERTER_11
 73
     1
 44
1.20048019207683
  0
MTEXT
  5
24B
330
A0
100
AcDbEntity
  8
1
 62
     7
100
AcDbMText
 10
-412.999999999989
 20
-84.500000000005
 30
0.0
 40
3.5
 41
0.0
 71
     5
 72
     1
  1
A
  7
CONVERTER_11
 73
     1
 44
1.20048019207683
  0
MTEXT
  5
24C
330
A0
100
AcDbEntity
  8
1
 62
     7
100
AcDbMText
 10
-412.999999999989
 20
-137.000000000005
 30
0.0
 40
3.5
 41
0.0
 71
     5
 72
     1
  1
B
  7
CONVERTER_11
 73
     1
 44
1.20048019207683
  0
MTEXT
  5
24D
330
A0
100
AcDbEntity
  8
1
 62
     7
100
AcDbMText
 10
-412.999999999989
 20
-187.000000000005
 30
0.0
 40
3.5
 41
0.0
 71
     5
 72
     1
  1
C
  7
CONVERTER_11
 73
     1
 44
1.20048019207683
  0
MTEXT
  5
24E
330
A0
100
AcDbEntity
  8
1
 62
     7
100
AcDbMText
 10
-412.999999999989
 20
-239.500000000005
 30
0.0
 40
3.5
 41
0.0
 71
     5
 72
     1
  1
D
  7
CONVERTER_11
 73
     1
 44
1.20048019207683
  0
MTEXT
  5
24F
330
A0
100
AcDbEntity
  8
1
 62
     3
100
AcDbMText
 10
-226.84480452674
 20
-240.875000000005
 30
0.0
 40
2.5
 41
0.0
 71
     5
 72
     1
  1
DIN A4
  7
CONVERTER_11
 73
     1
 44
1.20048019207683
  0
MTEXT
  5
250
330
A0
100
AcDbEntity
  8
1
 62
     2
100
AcDbMText
 10
-215.64480452674
 20
-254.500000000005
 30
0.0
 40
1.8
 41
0.0
 71
     1
 72
     1
  1
description
  7
CONVERTER_11
 73
     1
 44
1.20048019207683
  0
MTEXT
  5
251
330
A0
100
AcDbEntity
  8
1
 62
     7
100
AcDbMText
 10
-170.0724022633644
 20
-258.7500000000048
 30
0.0
 40
3.0
 41
0.0
 71
     5
 72
     1
  1
PSBJ 4/15/6 BU
  7
CONVERTER_12
 73
     1
 44
1.20048019207683
  0
TEXT
  5
252
330
A0
100
AcDbEntity
  8
1
 62
     2
100
AcDbText
 10
-228.6094957169264
 20
-260.7500000000051
 30
0.0
 40
1.8
  1
1
 41
0.9
  7
CONVERTER_11
100
AcDbText
  0
TEXT
  5
253
330
A0
100
AcDbEntity
  8
1
 62
     2
100
AcDbText
 10
-243.3985395563979
 20
-260.799248653807
 30
0.0
 40
1.8
  1
1
 41
0.9
  7
CONVERTER_11
100
AcDbText
  0
TEXT
  5
254
330
A0
100
AcDbEntity
  8
1
 62
     2
100
AcDbText
 10
-252.0448045267399
 20
-260.7590172149967
 30
0.0
 40
1.8
  1
page
 41
0.9
  7
CONVERTER_11
100
AcDbText
  0
TEXT
  5
255
330
A0
100
AcDbEntity
  8
1
 62
     2
100
AcDbText
 10
-233.8448045267401
 20
-260.7590172149966
 30
0.0
 40
1.8
  1
of
 41
0.9
  7
CONVERTER_11
100
AcDbText
  0
MTEXT
  5
256
330
A0
100
AcDbEntity
  8
1
 62
     3
100
AcDbMText
 10
-227.64182237513
 20
-75.20869184470621
 30
0.0
 40
1.8
 41
0.0
 71
     7
 72
     1
  3
Transfer or duplication of this document as well as the utilisation or\Pcommunication of its content are not permitted unless express consent\Pis granted. Violations give rise to claims for damages. All rights reserved\Pin case of patent, utility mo
  1
del or design patent registrations.
  7
CONVERTER_11
 73
     1
 44
0.99639855942377
  0
MTEXT
  5
257
330
A0
100
AcDbEntity
  8
1
 62
     3
100
AcDbMText
 10
-410.4949322139181
 20
-75.20869184470621
 30
0.0
 40
1.8
 41
0.0
 71
     7
 72
     1
  3
Weitergabe sowie Vervielfältigung dieses Dokuments, Verwertung und \PMitteilung seines Inhalts sind verboten, soweit nicht ausdrücklich gestattet. \PZuwiderhandlungen verpflichten zu Schadenersatz. Alle Rechte für den Fall\Pder Patent-, Gebrauchsmus
  1
ter- oder Designeintragung vorbehalten.
  7
CONVERTER_11
 73
     1
 44
0.99639855942377
  0
HATCH
  5
258
330
A0
100
AcDbEntity
  8
1
  6
Continuous
 62
     2
100
AcDbHatch
 10
0.0
 20
0.0
 30
0.0
210
0.0
220
0.0
230
1.0
  2
_USER
 70
     0
 71
     1
 91
        1
 92
        1
 93
       14
 72
     2
 10
-240.8035752508172
 20
-253.1795952380834
 40
1.205656168390944
 50
164.9381082228765
 51
195.0618917770948
 73
     1
 72
     2
 10
-240.3844474073544
 20
-253.0668048760486
 40
1.639695123939387
 50
195.0618917770896
 51
275.1581447696395
 73
     1
 72
     2
 10
-240.6733035020903
 20
-249.866914292827
 40
4.852596863498138
 50
275.1581447696249
 51
285.9799912583529
 73
     1
 72
     1
 10
-239.3373755849725
 20
-254.5319965986278
 11
-239.3373755849725
 21
-253.6594795918246
 72
     2
 10
-240.5154306269974
 20
-251.7691288726747
 40
2.227384008972737
 50
58.0690910500407
 51
71.55192388186722
 73
     0
 72
     2
 10
-240.0972628933366
 20
-253.0226746487119
 40
0.9059297849849192
 50
71.55192388184153
 51
113.372277888129
 73
     0
 72
     2
 10
-240.2537029260386
 20
-253.3846666674219
 40
0.5115800601948034
 50
113.3722778881726
 51
151.4785267423044
 73
     0
 72
     2
 10
-239.8763456679583
 20
-253.1795952380834
 40
0.9410597353332545
 50
151.4785267422943
 51
208.5214732577331
 73
     0
 72
     2
 10
-240.2537029260386
 20
-252.9745238087444
 40
0.5115800601948779
 50
208.5214732576956
 51
246.6277221118009
 73
     0
 72
     2
 10
-240.0972628933366
 20
-253.336515827455
 40
0.9059297849853228
 50
246.627722111871
 51
288.4480761181465
 73
     0
 72
     2
 10
-240.5154306269974
 20
-254.5900616034916
 40
2.227384008973478
 50
288.4480761181328
 51
301.9309089499592
 73
     0
 72
     1
 10
-239.3373755849725
 20
-252.6997108843417
 11
-239.3373755849725
 21
-251.8271938775384
 72
     2
 10
-240.6733035020903
 20
-256.4922761833393
 40
4.852596863498068
 50
74.02000874164739
 51
84.84185523037506
 73
     1
 72
     2
 10
-240.3844474073544
 20
-253.2923856001183
 40
1.639695123940507
 50
84.84185523036236
 51
164.9381082228864
 73
     1
 97
       14
330
22D
330
146
330
1FC
330
22C
330
1FD
330
1FE
330
22B
330
22A
330
229
330
147
330
1FF
330
200
330
201
330
202
 75
     1
 76
     0
 52
45.0
 41
0.1
 77
     0
 78
     1
 53
45.0
 43
0.0
 44
0.0
 45
-0.0707106781186548
 46
0.0707106781186548
 79
     0
 98
        1
 10
0.0
 20
0.0
  0
HATCH
  5
259
330
A0
100
AcDbEntity
  8
1
  6
Continuous
 62
     2
100
AcDbHatch
 10
0.0
 20
0.0
 30
0.0
210
0.0
220
0.0
230
1.0
  2
_USER
 70
     0
 71
     1
 91
        1
 92
        1
 93
       14
 72
     2
 10
-240.8035752508172
 20
-253.1795952380834
 40
1.205656168390944
 50
164.9381082228765
 51
195.0618917770948
 73
     1
 72
     2
 10
-240.3844474073544
 20
-253.0668048760486
 40
1.639695123939387
 50
195.0618917770896
 51
275.1581447696395
 73
     1
 72
     2
 10
-240.6733035020903
 20
-249.866914292827
 40
4.852596863498138
 50
275.1581447696249
 51
285.9799912583529
 73
     1
 72
     1
 10
-239.3373755849725
 20
-254.5319965986278
 11
-239.3373755849725
 21
-253.6594795918246
 72
     2
 10
-240.5154306269974
 20
-251.7691288726747
 40
2.227384008972737
 50
58.0690910500407
 51
71.55192388186722
 73
     0
 72
     2
 10
-240.0972628933366
 20
-253.0226746487119
 40
0.9059297849849192
 50
71.55192388184153
 51
113.372277888129
 73
     0
 72
     2
 10
-240.2537029260386
 20
-253.3846666674219
 40
0.5115800601948034
 50
113.3722778881726
 51
151.4785267423044
 73
     0
 72
     2
 10
-239.8763456679583
 20
-253.1795952380834
 40
0.9410597353332545
 50
151.4785267422943
 51
208.5214732577331
 73
     0
 72
     2
 10
-240.2537029260386
 20
-252.9745238087444
 40
0.5115800601948779
 50
208.5214732576956
 51
246.6277221118009
 73
     0
 72
     2
 10
-240.0972628933366
 20
-253.336515827455
 40
0.9059297849853228
 50
246.627722111871
 51
288.4480761181465
 73
     0
 72
     2
 10
-240.5154306269974
 20
-254.5900616034916
 40
2.227384008973478
 50
288.4480761181328
 51
301.9309089499592
 73
     0
 72
     1
 10
-239.3373755849725
 20
-252.6997108843417
 11
-239.3373755849725
 21
-251.8271938775384
 72
     2
 10
-240.6733035020903
 20
-256.4922761833393
 40
4.852596863498068
 50
74.02000874164739
 51
84.84185523037506
 73
     1
 72
     2
 10
-240.3844474073544
 20
-253.2923856001183
 40
1.639695123940507
 50
84.84185523036236
 51
164.9381082228864
 73
     1
 97
       14
330
22D
330
146
330
1FC
330
22C
330
1FD
330
1FE
330
22B
330
22A
330
229
330
147
330
1FF
330
200
330
201
330
202
 75
     1
 76
     0
 52
45.0
 41
0.1
 77
     0
 78
     1
 53
45.0
 43
0.0
 44
0.0
 45
-0.0707106781186548
 46
0.0707106781186548
 79
     0
 98
        1
 10
0.0
 20
0.0
  0
HATCH
  5
25A
330
A0
100
AcDbEntity
  8
1
  6
Continuous
 62
     2
100
AcDbHatch
 10
0.0
 20
0.0
 30
0.0
210
0.0
220
0.0
230
1.0
  2
_USER
 70
     0
 71
     1
 91
        1
 92
        1
 93
       18
 72
     2
 10
-224.2817459281015
 20
-253.2923856001183
 40
1.639695123940214
 50
90.0
 51
164.938108222895
 73
     1
 72
     2
 10
-224.7008737715631
 20
-253.1795952380834
 40
1.205656168393002
 50
164.9381082229028
 51
195.0618917770959
 73
     1
 72
     2
 10
-224.2817459281015
 20
-253.0668048760486
 40
1.639695123940448
 50
195.0618917771012
 51
275.1581447696762
 73
     1
 72
     2
 10
-224.5706020228373
 20
-249.866914292827
 40
4.852596863498825
 50
275.1581447696364
 51
285.9799912583387
 73
     1
 72
     1
 10
-223.2346741057206
 20
-254.5319965986284
 11
-223.2346741057206
 21
-253.6594795918251
 72
     2
 10
-224.4127291477445
 20
-251.7691288726753
 40
2.227384008972746
 50
58.06909105006029
 51
71.55192388186651
 73
     0
 72
     2
 10
-223.9945614140826
 20
-253.0226746487119
 40
0.9059297849852801
 50
71.55192388191827
 51
113.3722778881817
 73
     0
 72
     2
 10
-224.1510014467857
 20
-253.3846666674219
 40
0.5115800601960215
 50
113.3722778881551
 51
151.4785267423134
 73
     0
 72
     2
 10
-223.7736441887043
 20
-253.1795952380834
 40
0.9410597353348924
 50
151.4785267423305
 51
208.5214732576376
 73
     0
 72
     2
 10
-224.1510014467857
 20
-252.9745238087444
 40
0.5115800601944143
 50
208.5214732575775
 51
250.6628567805147
 73
     0
 72
     2
 10
-224.004331448682
 20
-253.3924787891273
 40
0.9545230068260935
 50
250.662856780568
 51
270.0
 73
     0
 72
     1
 10
-224.004331448682
 20
-252.4379557823012
 11
-222.9006921491139
 21
-252.4379557823012
 72
     1
 10
-222.9006921491139
 20
-252.4379557823012
 11
-222.9006921491139
 21
-254.7064999999887
 72
     1
 10
-222.9006921491139
 20
-254.7064999999887
 11
-221.7078994469462
 21
-254.7064999999887
 72
     1
 10
-221.7078994469462
 20
-254.7064999999887
 11
-221.7078994469462
 21
-252.4379557823012
 72
     1
 10
-221.7078994469462
 20
-252.4379557823012
 11
-220.8968004094728
 21
-252.4379557823012
 72
     1
 10
-220.8968004094728
 20
-252.4379557823012
 11
-220.8968004094728
 21
-251.6526904761776
 72
     1
 10
-220.8968004094728
 20
-251.6526904761776
 11
-224.2817459281015
 21
-251.6526904761781
 97
       18
330
1AC
330
1AB
330
1AA
330
1A9
330
1AE
330
148
330
226
330
207
330
225
330
208
330
224
330
223
330
149
330
222
330
221
330
209
330
20A
330
1AD
 75
     1
 76
     0
 52
45.0
 41
0.1
 77
     0
 78
     1
 53
45.0
 43
0.0
 44
0.0
 45
-0.0707106781186548
 46
0.0707106781186548
 79
     0
 98
        1
 10
0.0
 20
0.0
  0
HATCH
  5
25B
330
A0
100
AcDbEntity
  8
1
  6
Continuous
 62
     2
100
AcDbHatch
 10
0.0
 20
0.0
 30
0.0
210
0.0
220
0.0
230
1.0
  2
_USER
 70
     0
 71
     1
 91
        1
 92
        1
 93
       18
 72
     2
 10
-224.2817459281015
 20
-253.2923856001183
 40
1.639695123940214
 50
90.0
 51
164.938108222895
 73
     1
 72
     2
 10
-224.7008737715631
 20
-253.1795952380834
 40
1.205656168393002
 50
164.9381082229028
 51
195.0618917770959
 73
     1
 72
     2
 10
-224.2817459281015
 20
-253.0668048760486
 40
1.639695123940448
 50
195.0618917771012
 51
275.1581447696762
 73
     1
 72
     2
 10
-224.5706020228373
 20
-249.866914292827
 40
4.852596863498825
 50
275.1581447696364
 51
285.9799912583387
 73
     1
 72
     1
 10
-223.2346741057206
 20
-254.5319965986284
 11
-223.2346741057206
 21
-253.6594795918251
 72
     2
 10
-224.4127291477445
 20
-251.7691288726753
 40
2.227384008972746
 50
58.06909105006029
 51
71.55192388186651
 73
     0
 72
     2
 10
-223.9945614140826
 20
-253.0226746487119
 40
0.9059297849852801
 50
71.55192388191827
 51
113.3722778881817
 73
     0
 72
     2
 10
-224.1510014467857
 20
-253.3846666674219
 40
0.5115800601960215
 50
113.3722778881551
 51
151.4785267423134
 73
     0
 72
     2
 10
-223.7736441887043
 20
-253.1795952380834
 40
0.9410597353348924
 50
151.4785267423305
 51
208.5214732576376
 73
     0
 72
     2
 10
-224.1510014467857
 20
-252.9745238087444
 40
0.5115800601944143
 50
208.5214732575775
 51
250.6628567805147
 73
     0
 72
     2
 10
-224.004331448682
 20
-253.3924787891273
 40
0.9545230068260935
 50
250.662856780568
 51
270.0
 73
     0
 72
     1
 10
-224.004331448682
 20
-252.4379557823012
 11
-222.9006921491139
 21
-252.4379557823012
 72
     1
 10
-222.9006921491139
 20
-252.4379557823012
 11
-222.9006921491139
 21
-254.7064999999887
 72
     1
 10
-222.9006921491139
 20
-254.7064999999887
 11
-221.7078994469462
 21
-254.7064999999887
 72
     1
 10
-221.7078994469462
 20
-254.7064999999887
 11
-221.7078994469462
 21
-252.4379557823012
 72
     1
 10
-221.7078994469462
 20
-252.4379557823012
 11
-220.8968004094728
 21
-252.4379557823012
 72
     1
 10
-220.8968004094728
 20
-252.4379557823012
 11
-220.8968004094728
 21
-251.6526904761776
 72
     1
 10
-220.8968004094728
 20
-251.6526904761776
 11
-224.2817459281015
 21
-251.6526904761781
 97
       18
330
1AC
330
1AB
330
1AA
330
1A9
330
1AE
330
148
330
226
330
207
330
225
330
208
330
224
330
223
330
149
330
222
330
221
330
209
330
20A
330
1AD
 75
     1
 76
     0
 52
45.0
 41
0.1
 77
     0
 78
     1
 53
45.0
 43
0.0
 44
0.0
 45
-0.0707106781186548
 46
0.0707106781186548
 79
     0
 98
        1
 10
0.0
 20
0.0
  0
HATCH
  5
25C
330
A0
100
AcDbEntity
  8
1
  6
Continuous
 62
     2
100
AcDbHatch
 10
0.0
 20
0.0
 30
0.0
210
0.0
220
0.0
230
1.0
  2
_USER
 70
     0
 71
     1
 91
        4
 92
        1
 93
        8
 72
     2
 10
-248.3839050247945
 20
-248.7177446154052
 40
0.4242446153837989
 50
90.0
 51
180.0
 73
     1
 72
     1
 10
-248.8081496401773
 20
-248.7177446154052
 11
-248.8081496401773
 21
-254.2822553846054
 72
     2
 10
-248.3839050247945
 20
-254.2822553846054
 40
0.4242446153828041
 50
180.0
 51
270.0
 73
     1
 72
     1
 10
-248.3839050247945
 20
-254.7064999999887
 11
-242.9105929340777
 21
-254.7064999999887
 72
     2
 10
-242.9105929340777
 20
-254.2822553846054
 40
0.4242446153832873
 50
270.0
 51
360.0
 73
     1
 72
     1
 10
-242.4863483186938
 20
-254.2822553846054
 11
-242.4863483186938
 21
-248.7177446154052
 72
     2
 10
-242.9105929340777
 20
-248.7177446154052
 40
0.4242446153838841
 50
0.0
 51
90.0
 73
     1
 72
     1
 10
-242.9105929340777
 20
-248.2935000000214
 11
-248.3839050247945
 21
-248.2935000000214
 97
        8
330
21A
330
177
330
219
330
178
330
210
330
175
330
21B
330
176
 92
       16
 93
        1
 72
     2
 10
-245.764319374277
 20
-251.0366268437607
 40
0.4709789327785074
 50
0.0
 51
360.0
 73
     1
 97
        1
330
22E
 92
       16
 93
        8
 72
     2
 10
-245.7405043596042
 20
-251.0366268437607
 40
0.911848150144459
 50
295.3740086781764
 51
424.6259913218075
 73
     1
 72
     2
 10
-245.2144616615163
 20
-249.9274852437929
 40
0.315716923076792
 50
115.3740086783518
 51
180.0
 73
     0
 72
     1
 10
-245.5301785845931
 20
-249.9274852437929
 11
-245.5301785845931
 21
-249.3219499552861
 72
     2
 10
-245.2144616615163
 20
-249.3219499552861
 40
0.3157169230760711
 50
180.0
 51
269.8110329574541
 73
     0
 72
     2
 10
-245.2088455262063
 20
-251.0247849028552
 40
2.018561131933266
 50
269.8110329575858
 51
450.1889670424142
 73
     0
 72
     2
 10
-245.2144616615163
 20
-252.7276198504242
 40
0.315716923076792
 50
90.18896704254585
 51
180.0
 73
     0
 72
     1
 10
-245.5301785845931
 20
-252.7276198504242
 11
-245.5301785845931
 21
-252.1457684437291
 72
     2
 10
-245.2144616615163
 20
-252.1457684437291
 40
0.3157169230765328
 50
180.0
 51
244.6259913216482
 73
     0
 97
        8
330
228
330
204
330
1B0
330
227
330
205
330
206
330
1AF
330
203
 92
       16
 93
       12
 72
     1
 10
-247.790010348048
 20
-253.9939444444318
 11
-246.3141770870384
 21
-253.9939444444318
 72
     2
 10
-246.3141770870384
 20
-253.6782275213551
 40
0.3157169230767067
 50
270.0
 51
360.0
 73
     1
 72
     1
 10
-245.9984601639618
 20
-253.6782275213551
 11
-245.9984601639618
 21
-252.1474565898235
 72
     2
 10
-246.3141770870384
 20
-252.1474565898235
 40
0.315716923076593
 50
0.0
 51
64.80558935146027
 73
     1
 72
     2
 10
-245.7915926394634
 20
-251.0366268437607
 40
0.9118975235576147
 50
115.1944106485122
 51
244.8055893514718
 73
     0
 72
     2
 10
-246.3141770870384
 20
-249.9257970976985
 40
0.3157169230761203
 50
295.1944106485397
 51
360.0
 73
     1
 72
     1
 10
-245.9984601639618
 20
-249.9257970976985
 11
-245.9984601639618
 21
-249.321772478638
 72
     2
 10
-246.3141770870384
 20
-249.321772478638
 40
0.315716923076593
 50
0.0
 51
90.0
 73
     1
 72
     1
 10
-246.3141770870384
 20
-249.0060555555618
 11
-247.790010348048
 21
-249.0060555555618
 72
     2
 10
-247.790010348048
 20
-249.321772478638
 40
0.3157169230761951
 50
90.0
 51
180.0
 73
     1
 72
     1
 10
-248.1057272711237
 20
-249.321772478638
 11
-248.1057272711237
 21
-253.6782275213551
 72
     2
 10
-247.790010348048
 20
-253.6782275213551
 40
0.3157169230756836
 50
180.0
 51
270.0
 73
     1
 97
       12
330
17C
330
20D
330
17B
330
21E
330
17A
330
21D
330
20E
330
20F
330
179
330
21C
330
174
330
21F
 75
     1
 76
     0
 52
45.0
 41
0.1
 77
     0
 78
     1
 53
45.0
 43
0.0
 44
0.0
 45
-0.0707106781186548
 46
0.0707106781186548
 79
     0
 98
        1
 10
0.0
 20
0.0
  0
HATCH
  5
25D
330
A0
100
AcDbEntity
  8
1
  6
Continuous
 62
     2
100
AcDbHatch
 10
0.0
 20
0.0
 30
0.0
210
0.0
220
0.0
230
1.0
  2
_USER
 70
     0
 71
     1
 91
        4
 92
        1
 93
        8
 72
     2
 10
-248.3839050247945
 20
-248.7177446154052
 40
0.4242446153837989
 50
90.0
 51
180.0
 73
     1
 72
     1
 10
-248.8081496401773
 20
-248.7177446154052
 11
-248.8081496401773
 21
-254.2822553846054
 72
     2
 10
-248.3839050247945
 20
-254.2822553846054
 40
0.4242446153828041
 50
180.0
 51
270.0
 73
     1
 72
     1
 10
-248.3839050247945
 20
-254.7064999999887
 11
-242.9105929340777
 21
-254.7064999999887
 72
     2
 10
-242.9105929340777
 20
-254.2822553846054
 40
0.4242446153832873
 50
270.0
 51
360.0
 73
     1
 72
     1
 10
-242.4863483186938
 20
-254.2822553846054
 11
-242.4863483186938
 21
-248.7177446154052
 72
     2
 10
-242.9105929340777
 20
-248.7177446154052
 40
0.4242446153838841
 50
0.0
 51
90.0
 73
     1
 72
     1
 10
-242.9105929340777
 20
-248.2935000000214
 11
-248.3839050247945
 21
-248.2935000000214
 97
        8
330
21A
330
177
330
219
330
178
330
210
330
175
330
21B
330
176
 92
       16
 93
        1
 72
     2
 10
-245.764319374277
 20
-251.0366268437607
 40
0.4709789327785074
 50
0.0
 51
360.0
 73
     1
 97
        1
330
22E
 92
       16
 93
        8
 72
     2
 10
-245.7405043596042
 20
-251.0366268437607
 40
0.911848150144459
 50
295.3740086781764
 51
424.6259913218075
 73
     1
 72
     2
 10
-245.2144616615163
 20
-249.9274852437929
 40
0.315716923076792
 50
115.3740086783518
 51
180.0
 73
     0
 72
     1
 10
-245.5301785845931
 20
-249.9274852437929
 11
-245.5301785845931
 21
-249.3219499552861
 72
     2
 10
-245.2144616615163
 20
-249.3219499552861
 40
0.3157169230760711
 50
180.0
 51
269.8110329574541
 73
     0
 72
     2
 10
-245.2088455262063
 20
-251.0247849028552
 40
2.018561131933266
 50
269.8110329575858
 51
450.1889670424142
 73
     0
 72
     2
 10
-245.2144616615163
 20
-252.7276198504242
 40
0.315716923076792
 50
90.18896704254585
 51
180.0
 73
     0
 72
     1
 10
-245.5301785845931
 20
-252.7276198504242
 11
-245.5301785845931
 21
-252.1457684437291
 72
     2
 10
-245.2144616615163
 20
-252.1457684437291
 40
0.3157169230765328
 50
180.0
 51
244.6259913216482
 73
     0
 97
        8
330
228
330
204
330
1B0
330
227
330
205
330
206
330
1AF
330
203
 92
       16
 93
       12
 72
     1
 10
-247.790010348048
 20
-253.9939444444318
 11
-246.3141770870384
 21
-253.9939444444318
 72
     2
 10
-246.3141770870384
 20
-253.6782275213551
 40
0.3157169230767067
 50
270.0
 51
360.0
 73
     1
 72
     1
 10
-245.9984601639618
 20
-253.6782275213551
 11
-245.9984601639618
 21
-252.1474565898235
 72
     2
 10
-246.3141770870384
 20
-252.1474565898235
 40
0.315716923076593
 50
0.0
 51
64.80558935146027
 73
     1
 72
     2
 10
-245.7915926394634
 20
-251.0366268437607
 40
0.9118975235576147
 50
115.1944106485122
 51
244.8055893514718
 73
     0
 72
     2
 10
-246.3141770870384
 20
-249.9257970976985
 40
0.3157169230761203
 50
295.1944106485397
 51
360.0
 73
     1
 72
     1
 10
-245.9984601639618
 20
-249.9257970976985
 11
-245.9984601639618
 21
-249.321772478638
 72
     2
 10
-246.3141770870384
 20
-249.321772478638
 40
0.315716923076593
 50
0.0
 51
90.0
 73
     1
 72
     1
 10
-246.3141770870384
 20
-249.0060555555618
 11
-247.790010348048
 21
-249.0060555555618
 72
     2
 10
-247.790010348048
 20
-249.321772478638
 40
0.3157169230761951
 50
90.0
 51
180.0
 73
     1
 72
     1
 10
-248.1057272711237
 20
-249.321772478638
 11
-248.1057272711237
 21
-253.6782275213551
 72
     2
 10
-247.790010348048
 20
-253.6782275213551
 40
0.3157169230756836
 50
180.0
 51
270.0
 73
     1
 97
       12
330
17C
330
20D
330
17B
330
21E
330
17A
330
21D
330
20E
330
20F
330
179
330
21C
330
174
330
21F
 75
     1
 76
     0
 52
45.0
 41
0.1
 77
     0
 78
     1
 53
45.0
 43
0.0
 44
0.0
 45
-0.0707106781186548
 46
0.0707106781186548
 79
     0
 98
        1
 10
0.0
 20
0.0
  0
HATCH
  5
25E
330
A0
100
AcDbEntity
  8
1
  6
Continuous
 62
     2
100
AcDbHatch
 10
0.0
 20
0.0
 30
0.0
210
0.0
220
0.0
230
1.0
  2
_USER
 70
     0
 71
     1
 91
        2
 92
        1
 93
       12
 72
     2
 10
-233.7087410208052
 20
-249.8204047619091
 40
1.526904761905882
 50
90.0
 51
270.0
 73
     1
 72
     1
 10
-233.7087410208052
 20
-251.3473095238144
 11
-230.5584212970242
 21
-251.3473095238144
 72
     1
 10
-230.5584212970242
 20
-251.3473095238144
 11
-230.5584212970242
 21
-250.6492959183719
 72
     1
 10
-230.5584212970242
 20
-250.6492959183719
 11
-231.8943491234519
 21
-250.6492959183719
 72
     1
 10
-231.8943491234519
 20
-250.6492959183719
 11
-231.8943491234519
 21
-250.1694115646302
 72
     1
 10
-231.8943491234519
 20
-250.1694115646302
 11
-230.5584212970242
 21
-250.1694115646302
 72
     1
 10
-230.5584212970242
 20
-250.1694115646302
 11
-230.5584212970242
 21
-249.4713979591879
 72
     1
 10
-230.5584212970242
 20
-249.4713979591879
 11
-231.8943491234519
 21
-249.4713979591879
 72
     1
 10
-231.8943491234519
 20
-249.4713979591879
 11
-231.8943491234519
 21
-248.9915136054462
 72
     1
 10
-231.8943491234519
 20
-248.9915136054462
 11
-230.5584212970242
 21
-248.9915136054462
 72
     1
 10
-230.5584212970242
 20
-248.9915136054462
 11
-230.5584212970242
 21
-248.2935000000032
 72
     1
 10
-230.5584212970242
 20
-248.2935000000032
 11
-233.7087410208052
 21
-248.2935000000032
 97
       12
330
16B
330
165
330
18C
330
18B
330
18A
330
189
330
166
330
167
330
168
330
169
330
20B
330
16A
 92
       16
 93
        4
 72
     2
 10
-233.2927289742937
 20
-249.8204047619091
 40
0.7717997786796724
 50
141.8795802028404
 51
218.1204197971562
 73
     1
 72
     2
 10
-233.49246901064
 20
-249.9771359400295
 40
0.5179085730134372
 50
218.1204197971511
 51
321.8795802028566
 73
     1
 72
     2
 10
-233.6922090469862
 20
-249.8204047619091
 40
0.7717997786796373
 50
321.8795802028437
 51
398.1204197971596
 73
     1
 72
     2
 10
-233.49246901064
 20
-249.6636735837886
 40
0.5179085730135266
 50
38.12041979714334
 51
141.8795802028489
 73
     1
 97
        4
330
218
330
217
330
212
330
211
 75
     1
 76
     0
 52
45.0
 41
0.1
 77
     0
 78
     1
 53
45.0
 43
0.0
 44
0.0
 45
-0.0707106781186548
 46
0.0707106781186548
 79
     0
 98
        1
 10
0.0
 20
0.0
  0
HATCH
  5
25F
330
A0
100
AcDbEntity
  8
1
  6
Continuous
 62
     2
100
AcDbHatch
 10
0.0
 20
0.0
 30
0.0
210
0.0
220
0.0
230
1.0
  2
_USER
 70
     0
 71
     1
 91
        2
 92
        1
 93
       12
 72
     2
 10
-233.7087410208052
 20
-249.8204047619091
 40
1.526904761905882
 50
90.0
 51
270.0
 73
     1
 72
     1
 10
-233.7087410208052
 20
-251.3473095238144
 11
-230.5584212970242
 21
-251.3473095238144
 72
     1
 10
-230.5584212970242
 20
-251.3473095238144
 11
-230.5584212970242
 21
-250.6492959183719
 72
     1
 10
-230.5584212970242
 20
-250.6492959183719
 11
-231.8943491234519
 21
-250.6492959183719
 72
     1
 10
-231.8943491234519
 20
-250.6492959183719
 11
-231.8943491234519
 21
-250.1694115646302
 72
     1
 10
-231.8943491234519
 20
-250.1694115646302
 11
-230.5584212970242
 21
-250.1694115646302
 72
     1
 10
-230.5584212970242
 20
-250.1694115646302
 11
-230.5584212970242
 21
-249.4713979591879
 72
     1
 10
-230.5584212970242
 20
-249.4713979591879
 11
-231.8943491234519
 21
-249.4713979591879
 72
     1
 10
-231.8943491234519
 20
-249.4713979591879
 11
-231.8943491234519
 21
-248.9915136054462
 72
     1
 10
-231.8943491234519
 20
-248.9915136054462
 11
-230.5584212970242
 21
-248.9915136054462
 72
     1
 10
-230.5584212970242
 20
-248.9915136054462
 11
-230.5584212970242
 21
-248.2935000000032
 72
     1
 10
-230.5584212970242
 20
-248.2935000000032
 11
-233.7087410208052
 21
-248.2935000000032
 97
       12
330
16B
330
165
330
18C
330
18B
330
18A
330
189
330
166
330
167
330
168
330
169
330
20B
330
16A
 92
       16
 93
        4
 72
     2
 10
-233.2927289742937
 20
-249.8204047619091
 40
0.7717997786796724
 50
141.8795802028404
 51
218.1204197971562
 73
     1
 72
     2
 10
-233.49246901064
 20
-249.9771359400295
 40
0.5179085730134372
 50
218.1204197971511
 51
321.8795802028566
 73
     1
 72
     2
 10
-233.6922090469862
 20
-249.8204047619091
 40
0.7717997786796373
 50
321.8795802028437
 51
398.1204197971596
 73
     1
 72
     2
 10
-233.49246901064
 20
-249.6636735837886
 40
0.5179085730135266
 50
38.12041979714334
 51
141.8795802028489
 73
     1
 97
        4
330
218
330
217
330
212
330
211
 75
     1
 76
     0
 52
45.0
 41
0.1
 77
     0
 78
     1
 53
45.0
 43
0.0
 44
0.0
 45
-0.0707106781186548
 46
0.0707106781186548
 79
     0
 98
        1
 10
0.0
 20
0.0
  0
HATCH
  5
260
330
A0
100
AcDbEntity
  8
1
  6
Continuous
 62
     2
100
AcDbHatch
 10
0.0
 20
0.0
 30
0.0
210
0.0
220
0.0
230
1.0
  2
_USER
 70
     0
 71
     1
 91
        2
 92
        1
 93
        4
 72
     2
 10
-237.7343563832668
 20
-253.1795952380834
 40
1.45803408365149
 50
117.5481481756624
 51
242.4518518243375
 73
     1
 72
     2
 10
-237.4534164914335
 20
-252.6410202277801
 40
2.065479772208509
 50
242.4518518243402
 51
297.5481481756871
 73
     1
 72
     2
 10
-237.1724765996002
 20
-253.1795952380834
 40
1.458034083652003
 50
297.548148175701
 51
422.451851824299
 73
     1
 72
     2
 10
-237.4534164914335
 20
-253.7181702483862
 40
2.065479772208568
 50
62.45185182430637
 51
117.5481481756664
 73
     1
 97
        4
330
216
330
213
330
215
330
214
 92
       16
 93
        4
 72
     2
 10
-237.4534164914335
 20
-253.0228640599629
 40
0.5179085730132998
 50
38.12041979714704
 51
141.8795802028588
 73
     1
 72
     2
 10
-237.2536764550874
 20
-253.1795952380834
 40
0.7717997786794633
 50
141.8795802028363
 51
218.1204197971687
 73
     1
 72
     2
 10
-237.4534164914335
 20
-253.3363264162034
 40
0.5179085730137354
 50
218.1204197971931
 51
321.879580202801
 73
     1
 72
     2
 10
-237.6531565277799
 20
-253.1795952380834
 40
0.7717997786796947
 50
321.8795802028417
 51
398.1204197971533
 73
     1
 97
        4
330
1F9
330
1FA
330
1FB
330
1F8
 75
     1
 76
     0
 52
45.0
 41
0.1
 77
     0
 78
     1
 53
45.0
 43
0.0
 44
0.0
 45
-0.0707106781186548
 46
0.0707106781186548
 79
     0
 98
        1
 10
0.0
 20
0.0
  0
HATCH
  5
261
330
A0
100
AcDbEntity
  8
1
  6
Continuous
 62
     2
100
AcDbHatch
 10
0.0
 20
0.0
 30
0.0
210
0.0
220
0.0
230
1.0
  2
_USER
 70
     0
 71
     1
 91
        2
 92
        1
 93
        4
 72
     2
 10
-237.7343563832668
 20
-253.1795952380834
 40
1.45803408365149
 50
117.5481481756624
 51
242.4518518243375
 73
     1
 72
     2
 10
-237.4534164914335
 20
-252.6410202277801
 40
2.065479772208509
 50
242.4518518243402
 51
297.5481481756871
 73
     1
 72
     2
 10
-237.1724765996002
 20
-253.1795952380834
 40
1.458034083652003
 50
297.548148175701
 51
422.451851824299
 73
     1
 72
     2
 10
-237.4534164914335
 20
-253.7181702483862
 40
2.065479772208568
 50
62.45185182430637
 51
117.5481481756664
 73
     1
 97
        4
330
216
330
213
330
215
330
214
 92
       16
 93
        4
 72
     2
 10
-237.4534164914335
 20
-253.0228640599629
 40
0.5179085730132998
 50
38.12041979714704
 51
141.8795802028588
 73
     1
 72
     2
 10
-237.2536764550874
 20
-253.1795952380834
 40
0.7717997786794633
 50
141.8795802028363
 51
218.1204197971687
 73
     1
 72
     2
 10
-237.4534164914335
 20
-253.3363264162034
 40
0.5179085730137354
 50
218.1204197971931
 51
321.879580202801
 73
     1
 72
     2
 10
-237.6531565277799
 20
-253.1795952380834
 40
0.7717997786796947
 50
321.8795802028417
 51
398.1204197971533
 73
     1
 97
        4
330
1F9
330
1FA
330
1FB
330
1F8
 75
     1
 76
     0
 52
45.0
 41
0.1
 77
     0
 78
     1
 53
45.0
 43
0.0
 44
0.0
 45
-0.0707106781186548
 46
0.0707106781186548
 79
     0
 98
        1
 10
0.0
 20
0.0
  0
HATCH
  5
262
330
A0
100
AcDbEntity
  8
1
  6
Continuous
 62
     2
100
AcDbHatch
 10
0.0
 20
0.0
 30
0.0
210
0.0
220
0.0
230
1.0
  2
_USER
 70
     0
 71
     1
 91
        2
 92
        1
 93
        6
 72
     1
 10
-242.009231237827
 20
-248.2935000000032
 11
-242.009231237827
 21
-251.3473095238144
 72
     1
 10
-242.009231237827
 20
-251.3473095238144
 11
-240.7687268275729
 21
-251.3473095238144
 72
     1
 10
-240.7687268275729
 20
-251.3473095238144
 11
-240.7687268275729
 21
-250.4042312826706
 72
     1
 10
-240.7687268275729
 20
-250.4042312826706
 11
-240.0099592397926
 21
-250.4042312826706
 72
     2
 10
-240.0099592397926
 20
-249.3488656413369
 40
1.055365641333708
 50
270.0
 51
450.0
 73
     1
 72
     1
 10
-240.0099592397926
 20
-248.2935000000032
 11
-242.009231237827
 21
-248.2935000000032
 97
        6
330
220
330
17D
330
173
330
172
330
17F
330
17E
 92
       16
 93
        4
 72
     1
 10
-240.451431766031
 20
-248.9566058454433
 11
-240.7687268275729
 21
-248.9566058454433
 72
     1
 10
-240.7687268275729
 20
-248.9566058454433
 11
-240.7687268275729
 21
-249.6623334947855
 72
     1
 10
-240.7687268275729
 20
-249.6623334947855
 11
-240.451431766031
 21
-249.6623334947855
 72
     2
 10
-240.451431766031
 20
-249.3094696701144
 40
0.3528638246711182
 50
270.0
 51
450.0
 73
     1
 97
        4
330
180
330
171
330
181
330
20C
 75
     1
 76
     0
 52
45.0
 41
0.1
 77
     0
 78
     1
 53
45.0
 43
0.0
 44
0.0
 45
-0.0707106781186548
 46
0.0707106781186548
 79
     0
 98
        1
 10
0.0
 20
0.0
  0
HATCH
  5
263
330
A0
100
AcDbEntity
  8
1
  6
Continuous
 62
     2
100
AcDbHatch
 10
0.0
 20
0.0
 30
0.0
210
0.0
220
0.0
230
1.0
  2
_USER
 70
     0
 71
     1
 91
        2
 92
        1
 93
        6
 72
     1
 10
-242.009231237827
 20
-248.2935000000032
 11
-242.009231237827
 21
-251.3473095238144
 72
     1
 10
-242.009231237827
 20
-251.3473095238144
 11
-240.7687268275729
 21
-251.3473095238144
 72
     1
 10
-240.7687268275729
 20
-251.3473095238144
 11
-240.7687268275729
 21
-250.4042312826706
 72
     1
 10
-240.7687268275729
 20
-250.4042312826706
 11
-240.0099592397926
 21
-250.4042312826706
 72
     2
 10
-240.0099592397926
 20
-249.3488656413369
 40
1.055365641333708
 50
270.0
 51
450.0
 73
     1
 72
     1
 10
-240.0099592397926
 20
-248.2935000000032
 11
-242.009231237827
 21
-248.2935000000032
 97
        6
330
220
330
17D
330
173
330
172
330
17F
330
17E
 92
       16
 93
        4
 72
     1
 10
-240.451431766031
 20
-248.9566058454433
 11
-240.7687268275729
 21
-248.9566058454433
 72
     1
 10
-240.7687268275729
 20
-248.9566058454433
 11
-240.7687268275729
 21
-249.6623334947855
 72
     1
 10
-240.7687268275729
 20
-249.6623334947855
 11
-240.451431766031
 21
-249.6623334947855
 72
     2
 10
-240.451431766031
 20
-249.3094696701144
 40
0.3528638246711182
 50
270.0
 51
450.0
 73
     1
 97
        4
330
180
330
171
330
181
330
20C
 75
     1
 76
     0
 52
45.0
 41
0.1
 77
     0
 78
     1
 53
45.0
 43
0.0
 44
0.0
 45
-0.0707106781186548
 46
0.0707106781186548
 79
     0
 98
        1
 10
0.0
 20
0.0
  0
HATCH
  5
264
330
A0
100
AcDbEntity
  8
1
  6
Continuous
 62
     2
100
AcDbHatch
 10
0.0
 20
0.0
 30
0.0
210
0.0
220
0.0
230
1.0
  2
_USER
 70
     0
 71
     1
 91
        1
 92
        1
 93
       12
 72
     1
 10
-222.3949480433938
 20
-248.2935000000032
 11
-220.9922238256466
 21
-248.2935000000032
 72
     1
 10
-220.9922238256466
 20
-248.2935000000032
 11
-222.2947534564131
 21
-249.7664505300394
 72
     1
 10
-222.2947534564131
 20
-249.7664505300394
 11
-220.8968004094728
 21
-251.3473095238144
 72
     1
 10
-220.8968004094728
 20
-251.3473095238144
 11
-222.2995246272211
 21
-251.3473095238144
 72
     1
 10
-222.2995246272211
 20
-251.3473095238144
 11
-222.9961155652866
 21
-250.5595777385207
 72
     1
 10
-222.9961155652866
 20
-250.5595777385207
 11
-223.6927065033523
 21
-251.3473095238144
 72
     1
 10
-223.6927065033523
 20
-251.3473095238144
 11
-225.0954307211005
 21
-251.3473095238144
 72
     1
 10
-225.0954307211005
 20
-251.3473095238144
 11
-223.6974776741602
 21
-249.7664505300394
 72
     1
 10
-223.6974776741602
 20
-249.7664505300394
 11
-225.0000073049277
 21
-248.2935000000032
 72
     1
 10
-225.0000073049277
 20
-248.2935000000032
 11
-223.5972830871784
 21
-248.2935000000032
 72
     1
 10
-223.5972830871784
 20
-248.2935000000032
 11
-222.9961155652866
 21
-248.9733233215587
 72
     1
 10
-222.9961155652866
 20
-248.9733233215587
 11
-222.3949480433938
 21
-248.2935000000032
 97
       12
330
14C
330
1A5
330
1A4
330
1A3
330
1A2
330
14D
330
14E
330
14A
330
14B
330
1A8
330
1A7
330
1A6
 75
     1
 76
     0
 52
45.0
 41
0.1
 77
     0
 78
     1
 53
45.0
 43
0.0
 44
0.0
 45
-0.0707106781186548
 46
0.0707106781186548
 79
     0
 98
        1
 10
0.0
 20
0.0
  0
HATCH
  5
265
330
A0
100
AcDbEntity
  8
1
  6
Continuous
 62
     2
100
AcDbHatch
 10
0.0
 20
0.0
 30
0.0
210
0.0
220
0.0
230
1.0
  2
_USER
 70
     0
 71
     1
 91
        1
 92
        1
 93
       12
 72
     1
 10
-222.3949480433938
 20
-248.2935000000032
 11
-220.9922238256466
 21
-248.2935000000032
 72
     1
 10
-220.9922238256466
 20
-248.2935000000032
 11
-222.2947534564131
 21
-249.7664505300394
 72
     1
 10
-222.2947534564131
 20
-249.7664505300394
 11
-220.8968004094728
 21
-251.3473095238144
 72
     1
 10
-220.8968004094728
 20
-251.3473095238144
 11
-222.2995246272211
 21
-251.3473095238144
 72
     1
 10
-222.2995246272211
 20
-251.3473095238144
 11
-222.9961155652866
 21
-250.5595777385207
 72
     1
 10
-222.9961155652866
 20
-250.5595777385207
 11
-223.6927065033523
 21
-251.3473095238144
 72
     1
 10
-223.6927065033523
 20
-251.3473095238144
 11
-225.0954307211005
 21
-251.3473095238144
 72
     1
 10
-225.0954307211005
 20
-251.3473095238144
 11
-223.6974776741602
 21
-249.7664505300394
 72
     1
 10
-223.6974776741602
 20
-249.7664505300394
 11
-225.0000073049277
 21
-248.2935000000032
 72
     1
 10
-225.0000073049277
 20
-248.2935000000032
 11
-223.5972830871784
 21
-248.2935000000032
 72
     1
 10
-223.5972830871784
 20
-248.2935000000032
 11
-222.9961155652866
 21
-248.9733233215587
 72
     1
 10
-222.9961155652866
 20
-248.9733233215587
 11
-222.3949480433938
 21
-248.2935000000032
 97
       12
330
14C
330
1A5
330
1A4
330
1A3
330
1A2
330
14D
330
14E
330
14A
330
14B
330
1A8
330
1A7
330
1A6
 75
     1
 76
     0
 52
45.0
 41
0.1
 77
     0
 78
     1
 53
45.0
 43
0.0
 44
0.0
 45
-0.0707106781186548
 46
0.0707106781186548
 79
     0
 98
        1
 10
0.0
 20
0.0
  0
HATCH
  5
266
330
A0
100
AcDbEntity
  8
1
  6
Continuous
 62
     2
100
AcDbHatch
 10
0.0
 20
0.0
 30
0.0
210
0.0
220
0.0
230
1.0
  2
_USER
 70
     0
 71
     1
 91
        1
 92
        1
 93
        4
 72
     1
 10
-225.2147099913174
 20
-248.2935000000032
 11
-225.2147099913174
 21
-251.3473095238144
 72
     1
 10
-225.2147099913174
 20
-251.3473095238144
 11
-226.4552144015703
 21
-251.3473095238144
 72
     1
 10
-226.4552144015703
 20
-251.3473095238144
 11
-226.4552144015703
 21
-248.2935000000032
 72
     1
 10
-226.4552144015703
 20
-248.2935000000032
 11
-225.2147099913174
 21
-248.2935000000032
 97
        4
330
1A0
330
14F
330
19F
330
1A1
 75
     1
 76
     0
 52
45.0
 41
0.1
 77
     0
 78
     1
 53
45.0
 43
0.0
 44
0.0
 45
-0.0707106781186548
 46
0.0707106781186548
 79
     0
 98
        1
 10
0.0
 20
0.0
  0
HATCH
  5
267
330
A0
100
AcDbEntity
  8
1
  6
Continuous
 62
     2
100
AcDbHatch
 10
0.0
 20
0.0
 30
0.0
210
0.0
220
0.0
230
1.0
  2
_USER
 70
     0
 71
     1
 91
        1
 92
        1
 93
        4
 72
     1
 10
-225.2147099913174
 20
-248.2935000000032
 11
-225.2147099913174
 21
-251.3473095238144
 72
     1
 10
-225.2147099913174
 20
-251.3473095238144
 11
-226.4552144015703
 21
-251.3473095238144
 72
     1
 10
-226.4552144015703
 20
-251.3473095238144
 11
-226.4552144015703
 21
-248.2935000000032
 72
     1
 10
-226.4552144015703
 20
-248.2935000000032
 11
-225.2147099913174
 21
-248.2935000000032
 97
        4
330
1A0
330
14F
330
19F
330
1A1
 75
     1
 76
     0
 52
45.0
 41
0.1
 77
     0
 78
     1
 53
45.0
 43
0.0
 44
0.0
 45
-0.0707106781186548
 46
0.0707106781186548
 79
     0
 98
        1
 10
0.0
 20
0.0
  0
HATCH
  5
268
330
A0
100
AcDbEntity
  8
1
  6
Continuous
 62
     2
100
AcDbHatch
 10
0.0
 20
0.0
 30
0.0
210
0.0
220
0.0
230
1.0
  2
_USER
 70
     0
 71
     1
 91
        2
 92
        1
 93
        8
 72
     1
 10
-225.6051539948494
 20
-254.7064999999887
 11
-226.8456584051033
 21
-254.7064999999887
 72
     1
 10
-226.8456584051033
 20
-254.7064999999887
 11
-227.0571384585791
 21
-254.1655394557708
 72
     1
 10
-227.0571384585791
 20
-254.1655394557708
 11
-228.1895800352529
 21
-254.1655394557708
 72
     1
 10
-228.1895800352529
 20
-254.1655394557708
 11
-228.4010600887287
 21
-254.7064999999887
 72
     1
 10
-228.4010600887287
 20
-254.7064999999887
 11
-229.6415644989817
 21
-254.7064999999887
 72
     1
 10
-229.6415644989817
 20
-254.7064999999887
 11
-228.2436114520424
 21
-251.6526904761776
 72
     1
 10
-228.2436114520424
 20
-251.6526904761776
 11
-227.0031070417897
 21
-251.6526904761776
 72
     1
 10
-227.0031070417897
 20
-251.6526904761776
 11
-225.6051539948494
 21
-254.7064999999887
 97
        8
330
19B
330
155
330
19A
330
19D
330
152
330
19C
330
153
330
154
 92
       16
 93
        3
 72
     1
 10
-227.9235244841079
 20
-253.4849761904642
 11
-227.3231940097254
 21
-253.4849761904642
 72
     1
 10
-227.3231940097254
 20
-253.4849761904642
 11
-227.6233592469155
 21
-252.7171612244775
 72
     1
 10
-227.6233592469155
 20
-252.7171612244775
 11
-227.9235244841079
 21
-253.4849761904642
 97
        3
330
151
330
150
330
19E
 75
     1
 76
     0
 52
45.0
 41
0.1
 77
     0
 78
     1
 53
45.0
 43
0.0
 44
0.0
 45
-0.0707106781186548
 46
0.0707106781186548
 79
     0
 98
        1
 10
0.0
 20
0.0
  0
HATCH
  5
269
330
A0
100
AcDbEntity
  8
1
  6
Continuous
 62
     2
100
AcDbHatch
 10
0.0
 20
0.0
 30
0.0
210
0.0
220
0.0
230
1.0
  2
_USER
 70
     0
 71
     1
 91
        2
 92
        1
 93
        8
 72
     1
 10
-225.6051539948494
 20
-254.7064999999887
 11
-226.8456584051033
 21
-254.7064999999887
 72
     1
 10
-226.8456584051033
 20
-254.7064999999887
 11
-227.0571384585791
 21
-254.1655394557708
 72
     1
 10
-227.0571384585791
 20
-254.1655394557708
 11
-228.1895800352529
 21
-254.1655394557708
 72
     1
 10
-228.1895800352529
 20
-254.1655394557708
 11
-228.4010600887287
 21
-254.7064999999887
 72
     1
 10
-228.4010600887287
 20
-254.7064999999887
 11
-229.6415644989817
 21
-254.7064999999887
 72
     1
 10
-229.6415644989817
 20
-254.7064999999887
 11
-228.2436114520424
 21
-251.6526904761776
 72
     1
 10
-228.2436114520424
 20
-251.6526904761776
 11
-227.0031070417897
 21
-251.6526904761776
 72
     1
 10
-227.0031070417897
 20
-251.6526904761776
 11
-225.6051539948494
 21
-254.7064999999887
 97
        8
330
19B
330
155
330
19A
330
19D
330
152
330
19C
330
153
330
154
 92
       16
 93
        3
 72
     1
 10
-227.9235244841079
 20
-253.4849761904642
 11
-227.3231940097254
 21
-253.4849761904642
 72
     1
 10
-227.3231940097254
 20
-253.4849761904642
 11
-227.6233592469155
 21
-252.7171612244775
 72
     1
 10
-227.6233592469155
 20
-252.7171612244775
 11
-227.9235244841079
 21
-253.4849761904642
 97
        3
330
151
330
150
330
19E
 75
     1
 76
     0
 52
45.0
 41
0.1
 77
     0
 78
     1
 53
45.0
 43
0.0
 44
0.0
 45
-0.0707106781186548
 46
0.0707106781186548
 79
     0
 98
        1
 10
0.0
 20
0.0
  0
HATCH
  5
26A
330
A0
100
AcDbEntity
  8
1
  6
Continuous
 62
     2
100
AcDbHatch
 10
0.0
 20
0.0
 30
0.0
210
0.0
220
0.0
230
1.0
  2
_USER
 70
     0
 71
     1
 91
        1
 92
        1
 93
        8
 72
     1
 10
-231.7990766381639
 20
-251.6526904761776
 11
-231.7990766381639
 21
-252.4379557823012
 72
     1
 10
-231.7990766381639
 20
-252.4379557823012
 11
-230.9879776006893
 21
-252.4379557823012
 72
     1
 10
-230.9879776006893
 20
-252.4379557823012
 11
-230.9879776006893
 21
-254.7064999999887
 72
     1
 10
-230.9879776006893
 20
-254.7064999999887
 11
-229.7951848985228
 21
-254.7064999999887
 72
     1
 10
-229.7951848985228
 20
-254.7064999999887
 11
-229.7951848985228
 21
-252.4379557823012
 72
     1
 10
-229.7951848985228
 20
-252.4379557823012
 11
-228.9840858610503
 21
-252.4379557823012
 72
     1
 10
-228.9840858610503
 20
-252.4379557823012
 11
-228.9840858610503
 21
-251.6526904761776
 72
     1
 10
-228.9840858610503
 20
-251.6526904761776
 11
-231.7990766381639
 21
-251.6526904761776
 97
        8
330
197
330
196
330
195
330
156
330
157
330
199
330
158
330
198
 75
     1
 76
     0
 52
45.0
 41
0.1
 77
     0
 78
     1
 53
45.0
 43
0.0
 44
0.0
 45
-0.0707106781186548
 46
0.0707106781186548
 79
     0
 98
        1
 10
0.0
 20
0.0
  0
HATCH
  5
26B
330
A0
100
AcDbEntity
  8
1
  6
Continuous
 62
     2
100
AcDbHatch
 10
0.0
 20
0.0
 30
0.0
210
0.0
220
0.0
230
1.0
  2
_USER
 70
     0
 71
     1
 91
        1
 92
        1
 93
        8
 72
     1
 10
-231.7990766381639
 20
-251.6526904761776
 11
-231.7990766381639
 21
-252.4379557823012
 72
     1
 10
-231.7990766381639
 20
-252.4379557823012
 11
-230.9879776006893
 21
-252.4379557823012
 72
     1
 10
-230.9879776006893
 20
-252.4379557823012
 11
-230.9879776006893
 21
-254.7064999999887
 72
     1
 10
-230.9879776006893
 20
-254.7064999999887
 11
-229.7951848985228
 21
-254.7064999999887
 72
     1
 10
-229.7951848985228
 20
-254.7064999999887
 11
-229.7951848985228
 21
-252.4379557823012
 72
     1
 10
-229.7951848985228
 20
-252.4379557823012
 11
-228.9840858610503
 21
-252.4379557823012
 72
     1
 10
-228.9840858610503
 20
-252.4379557823012
 11
-228.9840858610503
 21
-251.6526904761776
 72
     1
 10
-228.9840858610503
 20
-251.6526904761776
 11
-231.7990766381639
 21
-251.6526904761776
 97
        8
330
197
330
196
330
195
330
156
330
157
330
199
330
158
330
198
 75
     1
 76
     0
 52
45.0
 41
0.1
 77
     0
 78
     1
 53
45.0
 43
0.0
 44
0.0
 45
-0.0707106781186548
 46
0.0707106781186548
 79
     0
 98
        1
 10
0.0
 20
0.0
  0
HATCH
  5
26C
330
A0
100
AcDbEntity
  8
1
  6
Continuous
 62
     2
100
AcDbHatch
 10
0.0
 20
0.0
 30
0.0
210
0.0
220
0.0
230
1.0
  2
_USER
 70
     0
 71
     1
 91
        1
 92
        1
 93
       10
 72
     1
 10
-229.1270700544248
 20
-248.2935000000032
 11
-230.3198627565913
 21
-248.2935000000032
 72
     1
 10
-230.3198627565913
 20
-248.2935000000032
 11
-230.3198627565913
 21
-251.3473095238144
 72
     1
 10
-230.3198627565913
 20
-251.3473095238144
 11
-229.1270700544248
 21
-251.3473095238144
 72
     1
 10
-229.1270700544248
 20
-251.3473095238144
 11
-229.1270700544248
 21
-250.0385340136097
 72
     1
 10
-229.1270700544248
 20
-250.0385340136097
 11
-227.8865656441708
 21
-251.3473095238144
 72
     1
 10
-227.8865656441708
 20
-251.3473095238144
 11
-226.6937729420042
 21
-251.3473095238144
 72
     1
 10
-226.6937729420042
 20
-251.3473095238144
 11
-226.6937729420042
 21
-248.2935000000032
 72
     1
 10
-226.6937729420042
 20
-248.2935000000032
 11
-227.8865656441708
 21
-248.2935000000032
 72
     1
 10
-227.8865656441708
 20
-248.2935000000032
 11
-227.8865656441708
 21
-249.6022755102084
 72
     1
 10
-227.8865656441708
 20
-249.6022755102084
 11
-229.1270700544248
 21
-248.2935000000032
 97
       10
330
191
330
15B
330
15C
330
15D
330
15E
330
194
330
159
330
193
330
192
330
15A
 75
     1
 76
     0
 52
45.0
 41
0.1
 77
     0
 78
     1
 53
45.0
 43
0.0
 44
0.0
 45
-0.0707106781186548
 46
0.0707106781186548
 79
     0
 98
        1
 10
0.0
 20
0.0
  0
HATCH
  5
26D
330
A0
100
AcDbEntity
  8
1
  6
Continuous
 62
     2
100
AcDbHatch
 10
0.0
 20
0.0
 30
0.0
210
0.0
220
0.0
230
1.0
  2
_USER
 70
     0
 71
     1
 91
        1
 92
        1
 93
       10
 72
     1
 10
-229.1270700544248
 20
-248.2935000000032
 11
-230.3198627565913
 21
-248.2935000000032
 72
     1
 10
-230.3198627565913
 20
-248.2935000000032
 11
-230.3198627565913
 21
-251.3473095238144
 72
     1
 10
-230.3198627565913
 20
-251.3473095238144
 11
-229.1270700544248
 21
-251.3473095238144
 72
     1
 10
-229.1270700544248
 20
-251.3473095238144
 11
-229.1270700544248
 21
-250.0385340136097
 72
     1
 10
-229.1270700544248
 20
-250.0385340136097
 11
-227.8865656441708
 21
-251.3473095238144
 72
     1
 10
-227.8865656441708
 20
-251.3473095238144
 11
-226.6937729420042
 21
-251.3473095238144
 72
     1
 10
-226.6937729420042
 20
-251.3473095238144
 11
-226.6937729420042
 21
-248.2935000000032
 72
     1
 10
-226.6937729420042
 20
-248.2935000000032
 11
-227.8865656441708
 21
-248.2935000000032
 72
     1
 10
-227.8865656441708
 20
-248.2935000000032
 11
-227.8865656441708
 21
-249.6022755102084
 72
     1
 10
-227.8865656441708
 20
-249.6022755102084
 11
-229.1270700544248
 21
-248.2935000000032
 97
       10
330
191
330
15B
330
15C
330
15D
330
15E
330
194
330
159
330
193
330
192
330
15A
 75
     1
 76
     0
 52
45.0
 41
0.1
 77
     0
 78
     1
 53
45.0
 43
0.0
 44
0.0
 45
-0.0707106781186548
 46
0.0707106781186548
 79
     0
 98
        1
 10
0.0
 20
0.0
  0
HATCH
  5
26E
330
A0
100
AcDbEntity
  8
1
  6
Continuous
 62
     2
100
AcDbHatch
 10
0.0
 20
0.0
 30
0.0
210
0.0
220
0.0
230
1.0
  2
_USER
 70
     0
 71
     1
 91
        1
 92
        1
 93
       10
 72
     1
 10
-234.3755088748434
 20
-251.6526904761776
 11
-235.568301577011
 21
-251.6526904761776
 72
     1
 10
-235.568301577011
 20
-251.6526904761776
 11
-235.568301577011
 21
-254.7064999999887
 72
     1
 10
-235.568301577011
 20
-254.7064999999887
 11
-234.3755088748434
 21
-254.7064999999887
 72
     1
 10
-234.3755088748434
 20
-254.7064999999887
 11
-234.3755088748434
 21
-253.3977244897841
 72
     1
 10
-234.3755088748434
 20
-253.3977244897841
 11
-233.1350044645905
 21
-254.7064999999887
 72
     1
 10
-233.1350044645905
 20
-254.7064999999887
 11
-231.9422117624241
 21
-254.7064999999887
 72
     1
 10
-231.9422117624241
 20
-254.7064999999887
 11
-231.9422117624241
 21
-251.6526904761776
 72
     1
 10
-231.9422117624241
 20
-251.6526904761776
 11
-233.1350044645905
 21
-251.6526904761776
 72
     1
 10
-233.1350044645905
 20
-251.6526904761776
 11
-233.1350044645905
 21
-252.9614659863827
 72
     1
 10
-233.1350044645905
 20
-252.9614659863827
 11
-234.3755088748434
 21
-251.6526904761776
 97
       10
330
160
330
161
330
162
330
18E
330
163
330
164
330
18D
330
190
330
18F
330
15F
 75
     1
 76
     0
 52
45.0
 41
0.1
 77
     0
 78
     1
 53
45.0
 43
0.0
 44
0.0
 45
-0.0707106781186548
 46
0.0707106781186548
 79
     0
 98
        1
 10
0.0
 20
0.0
  0
HATCH
  5
26F
330
A0
100
AcDbEntity
  8
1
  6
Continuous
 62
     2
100
AcDbHatch
 10
0.0
 20
0.0
 30
0.0
210
0.0
220
0.0
230
1.0
  2
_USER
 70
     0
 71
     1
 91
        1
 92
        1
 93
       10
 72
     1
 10
-234.3755088748434
 20
-251.6526904761776
 11
-235.568301577011
 21
-251.6526904761776
 72
     1
 10
-235.568301577011
 20
-251.6526904761776
 11
-235.568301577011
 21
-254.7064999999887
 72
     1
 10
-235.568301577011
 20
-254.7064999999887
 11
-234.3755088748434
 21
-254.7064999999887
 72
     1
 10
-234.3755088748434
 20
-254.7064999999887
 11
-234.3755088748434
 21
-253.3977244897841
 72
     1
 10
-234.3755088748434
 20
-253.3977244897841
 11
-233.1350044645905
 21
-254.7064999999887
 72
     1
 10
-233.1350044645905
 20
-254.7064999999887
 11
-231.9422117624241
 21
-254.7064999999887
 72
     1
 10
-231.9422117624241
 20
-254.7064999999887
 11
-231.9422117624241
 21
-251.6526904761776
 72
     1
 10
-231.9422117624241
 20
-251.6526904761776
 11
-233.1350044645905
 21
-251.6526904761776
 72
     1
 10
-233.1350044645905
 20
-251.6526904761776
 11
-233.1350044645905
 21
-252.9614659863827
 72
     1
 10
-233.1350044645905
 20
-252.9614659863827
 11
-234.3755088748434
 21
-251.6526904761776
 97
       10
330
160
330
161
330
162
330
18E
330
163
330
164
330
18D
330
190
330
18F
330
15F
 75
     1
 76
     0
 52
45.0
 41
0.1
 77
     0
 78
     1
 53
45.0
 43
0.0
 44
0.0
 45
-0.0707106781186548
 46
0.0707106781186548
 79
     0
 98
        1
 10
0.0
 20
0.0
  0
HATCH
  5
270
330
A0
100
AcDbEntity
  8
1
  6
Continuous
 62
     2
100
AcDbHatch
 10
0.0
 20
0.0
 30
0.0
210
0.0
220
0.0
230
1.0
  2
_USER
 70
     0
 71
     1
 91
        1
 92
        1
 93
       12
 72
     1
 10
-235.3773038137788
 20
-248.2935000000032
 11
-235.3773038137788
 21
-251.3473095238144
 72
     1
 10
-235.3773038137788
 20
-251.3473095238144
 11
-236.5700965159452
 21
-251.3473095238144
 72
     1
 10
-236.5700965159452
 20
-251.3473095238144
 11
-236.5700965159452
 21
-250.2130374149706
 72
     1
 10
-236.5700965159452
 20
-250.2130374149706
 11
-237.6197540938527
 21
-250.2130374149706
 72
     1
 10
-237.6197540938527
 20
-250.2130374149706
 11
-237.6197540938527
 21
-251.3473095238144
 72
     1
 10
-237.6197540938527
 20
-251.3473095238144
 11
-238.8125467960193
 21
-251.3473095238144
 72
     1
 10
-238.8125467960193
 20
-251.3473095238144
 11
-238.8125467960193
 21
-248.2935000000032
 72
     1
 10
-238.8125467960193
 20
-248.2935000000032
 11
-237.6197540938527
 21
-248.2935000000032
 72
     1
 10
-237.6197540938527
 20
-248.2935000000032
 11
-237.6197540938527
 21
-249.3623333333378
 72
     1
 10
-237.6197540938527
 20
-249.3623333333378
 11
-236.5700965159452
 21
-249.3623333333378
 72
     1
 10
-236.5700965159452
 20
-249.3623333333378
 11
-236.5700965159452
 21
-248.2935000000032
 72
     1
 10
-236.5700965159452
 20
-248.2935000000032
 11
-235.3773038137788
 21
-248.2935000000032
 97
       12
330
188
330
187
330
186
330
16E
330
16F
330
185
330
170
330
184
330
183
330
182
330
16C
330
16D
 75
     1
 76
     0
 52
45.0
 41
0.1
 77
     0
 78
     1
 53
45.0
 43
0.0
 44
0.0
 45
-0.0707106781186548
 46
0.0707106781186548
 79
     0
 98
        1
 10
0.0
 20
0.0
  0
HATCH
  5
271
330
A0
100
AcDbEntity
  8
1
  6
Continuous
 62
     2
100
AcDbHatch
 10
0.0
 20
0.0
 30
0.0
210
0.0
220
0.0
230
1.0
  2
_USER
 70
     0
 71
     1
 91
        1
 92
        1
 93
       12
 72
     1
 10
-235.3773038137788
 20
-248.2935000000032
 11
-235.3773038137788
 21
-251.3473095238144
 72
     1
 10
-235.3773038137788
 20
-251.3473095238144
 11
-236.5700965159452
 21
-251.3473095238144
 72
     1
 10
-236.5700965159452
 20
-251.3473095238144
 11
-236.5700965159452
 21
-250.2130374149706
 72
     1
 10
-236.5700965159452
 20
-250.2130374149706
 11
-237.6197540938527
 21
-250.2130374149706
 72
     1
 10
-237.6197540938527
 20
-250.2130374149706
 11
-237.6197540938527
 21
-251.3473095238144
 72
     1
 10
-237.6197540938527
 20
-251.3473095238144
 11
-238.8125467960193
 21
-251.3473095238144
 72
     1
 10
-238.8125467960193
 20
-251.3473095238144
 11
-238.8125467960193
 21
-248.2935000000032
 72
     1
 10
-238.8125467960193
 20
-248.2935000000032
 11
-237.6197540938527
 21
-248.2935000000032
 72
     1
 10
-237.6197540938527
 20
-248.2935000000032
 11
-237.6197540938527
 21
-249.3623333333378
 72
     1
 10
-237.6197540938527
 20
-249.3623333333378
 11
-236.5700965159452
 21
-249.3623333333378
 72
     1
 10
-236.5700965159452
 20
-249.3623333333378
 11
-236.5700965159452
 21
-248.2935000000032
 72
     1
 10
-236.5700965159452
 20
-248.2935000000032
 11
-235.3773038137788
 21
-248.2935000000032
 97
       12
330
188
330
187
330
186
330
16E
330
16F
330
185
330
170
330
184
330
183
330
182
330
16C
330
16D
 75
     1
 76
     0
 52
45.0
 41
0.1
 77
     0
 78
     1
 53
45.0
 43
0.0
 44
0.0
 45
-0.0707106781186548
 46
0.0707106781186548
 79
     0
 98
        1
 10
0.0
 20
0.0
  0
ENDBLK
  5
A2
330
A0
100
AcDbEntity
  8
0
100
AcDbBlockEnd
  0
BLOCK
  5
A4
330
A3
100
AcDbEntity
  8
0
100
AcDbBlockBegin
  2
_punkt
 70
     0
 10
-123.4999999999899
 20
-262.000000000005
 30
0.0
  3
_punkt
  1

  0
LINE
  5
272
330
A3
100
AcDbEntity
  8
1
  6
Continuous
 62
     2
100
AcDbLine
 10
-123.4999999999899
 20
-262.000000000005
 30
0.0
 11
-123.4999999999899
 21
-267.0000000000051
 31
0.0
  0
LINE
  5
273
330
A3
100
AcDbEntity
  8
1
  6
Continuous
 62
     2
100
AcDbLine
 10
-123.4999999999899
 20
-262.000000000005
 30
0.0
 11
-118.4999999999909
 21
-262.000000000005
 31
0.0
  0
ENDBLK
  5
A5
330
A3
100
AcDbEntity
  8
0
100
AcDbBlockEnd
  0
BLOCK
  5
A9
330
A6
100
AcDbEntity
  8
0
100
AcDbBlockBegin
  2
A4I_CS
 70
     0
 10
-123.4999999999899
 20
-267.0000000000051
 30
0.0
  3
A4I_CS
  1

  0
INSERT
  5
A7
330
A6
100
AcDbEntity
  8
1
100
AcDbBlockReference
  2
_rahmen
 10
-123.4999999999899
 20
-267.0000000000051
 30
0.0
  0
INSERT
  5
A8
330
A6
100
AcDbEntity
  8
1
100
AcDbBlockReference
  2
_punkt
 10
-123.4999999999899
 20
-262.000000000005
 30
0.0
  0
ENDBLK
  5
AA
330
A6
100
AcDbEntity
  8
0
100
AcDbBlockEnd
  0
BLOCK
  5
B3
330
AB
100
AcDbEntity
  8
0
100
AcDbBlockBegin
  2
1
 70
     0
 10
0.0
 20
0.0
 30
0.0
  3
1
  1

  0
INSERT
  5
AC
330
AB
100
AcDbEntity
  8
0
100
AcDbBlockReference
  2
Back1
 10
-252.5009717941285
 20
-127.000002173451
 30
0.0
  0
INSERT
  5
AD
330
AB
100
AcDbEntity
  8
0
100
AcDbBlockReference
  2
Front1
 10
-307.4990282058716
 20
-127.000002173451
 30
0.0
  0
INSERT
  5
AE
330
AB
100
AcDbEntity
  8
0
100
AcDbBlockReference
  2
Gen1
 10
-147.0000000000003
 20
-203.000001882264
 30
0.0
  0
INSERT
  5
AF
330
AB
100
AcDbEntity
  8
0
100
AcDbBlockReference
  2
Left1
 10
-280.0
 20
-127.000002173451
 30
0.0
  0
INSERT
  5
B0
330
AB
100
AcDbEntity
  8
0
100
AcDbBlockReference
  2
Right1
 10
-347.9980564117432
 20
-127.000002173451
 30
0.0
  0
INSERT
  5
B1
330
AB
100
AcDbEntity
  8
0
100
AcDbBlockReference
  2
Top1
 10
-307.4990282058716
 20
-175.5500028783165
 30
0.0
  0
INSERT
  5
B2
330
AB
100
AcDbEntity
  8
0
100
AcDbBlockReference
  2
A4I_CS
 10
-123.4999999999899
 20
-267.0000000000051
 30
0.0
  0
ENDBLK
  5
B4
330
AB
100
AcDbEntity
  8
0
100
AcDbBlockEnd
  0
BLOCK
  5
E2
330
DB
100
AcDbEntity
  8
0
100
AcDbBlockBegin
  2
*D17
 70
     1
 10
0.0
 20
0.0
 30
0.0
  3
*D17
  1

  0
LINE
  5
DC
330
DB
100
AcDbEntity
  8
1
  6
Continuous
 62
     2
100
AcDbLine
 10
-319.4990282058717
 20
-112.2000054685859
 30
0.0
 11
-319.4990282058717
 21
-141.800005468627
 31
0.0
  0
LINE
  5
DD
330
DB
100
AcDbEntity
  8
1
  6
Continuous
 62
     2
100
AcDbLine
 10
-307.4990282058717
 20
-112.2000054685859
 30
0.0
 11
-320.9990282058717
 21
-112.2000054685859
 31
0.0
  0
LINE
  5
DE
330
DB
100
AcDbEntity
  8
1
  6
Continuous
 62
     2
100
AcDbLine
 10
-309.4990282058717
 20
-141.800005468627
 30
0.0
 11
-320.9990282058717
 21
-141.800005468627
 31
0.0
  0
SOLID
  5
DF
330
DB
100
AcDbEntity
  8
1
 62
     2
100
AcDbTrace
 10
-319.0382444643158
 20
-115.7000054685859
 30
0.0
 11
-319.9598119474276
 21
-115.7000054685859
 31
0.0
 12
-319.4990282058717
 22
-112.2000054685859
 32
0.0
 13
-319.4990282058717
 23
-112.2000054685859
 33
0.0
  0
SOLID
  5
E0
330
DB
100
AcDbEntity
  8
1
 62
     2
100
AcDbTrace
 10
-319.9598119474276
 20
-138.300005468627
 30
0.0
 11
-319.0382444643158
 21
-138.300005468627
 31
0.0
 12
-319.4990282058717
 22
-141.800005468627
 32
0.0
 13
-319.4990282058717
 23
-141.800005468627
 33
0.0
  0
MTEXT
  5
E1
330
DB
100
AcDbEntity
  8
1
 62
     3
100
AcDbMText
 10
-321.3490282058717
 20
-131.614037271139
 30
0.0
 40
3.5
 41
0.0
 71
     7
 72
     1
  1
29,6
  7
CONVERTER_11
 11
0.0
 21
1.0
 31
0.0
 73
     1
 44
0.60024009603842
  0
ENDBLK
  5
E3
330
DB
100
AcDbEntity
  8
0
100
AcDbBlockEnd
  0
BLOCK
  5
EF
330
E6
100
AcDbEntity
  8
0
100
AcDbBlockBegin
  2
*D18
 70
     1
 10
0.0
 20
0.0
 30
0.0
  3
*D18
  1

  0
LINE
  5
E7
330
E6
100
AcDbEntity
  8
1
  6
Continuous
 62
     2
100
AcDbLine
 10
-318.2490282058716
 20
-102.200005468586
 30
0.0
 11
-311.2490282058716
 21
-102.200005468586
 31
0.0
  0
LINE
  5
E8
330
E6
100
AcDbEntity
  8
1
  6
Continuous
 62
     2
100
AcDbLine
 10
-311.2490282058716
 20
-102.200005468586
 30
0.0
 11
-303.7490282058716
 21
-102.200005468586
 31
0.0
  0
LINE
  5
E9
330
E6
100
AcDbEntity
  8
1
  6
Continuous
 62
     2
100
AcDbLine
 10
-303.7490282058716
 20
-102.200005468586
 30
0.0
 11
-296.7490282058716
 21
-102.200005468586
 31
0.0
  0
LINE
  5
EA
330
E6
100
AcDbEntity
  8
1
  6
Continuous
 62
     2
100
AcDbLine
 10
-311.2490282058716
 20
-112.200005468586
 30
0.0
 11
-311.2490282058716
 21
-100.700005468586
 31
0.0
  0
LINE
  5
EB
330
E6
100
AcDbEntity
  8
1
  6
Continuous
 62
     2
100
AcDbLine
 10
-303.7490282058716
 20
-112.200005468586
 30
0.0
 11
-303.7490282058716
 21
-100.700005468586
 31
0.0
  0
SOLID
  5
EC
330
E6
100
AcDbEntity
  8
1
 62
     2
100
AcDbTrace
 10
-314.7490282058716
 20
-102.6607892101419
 30
0.0
 11
-314.7490282058716
 21
-101.7392217270301
 31
0.0
 12
-311.2490282058716
 22
-102.200005468586
 32
0.0
 13
-311.2490282058716
 23
-102.200005468586
 33
0.0
  0
SOLID
  5
ED
330
E6
100
AcDbEntity
  8
1
 62
     2
100
AcDbTrace
 10
-300.2490282058716
 20
-101.7392217270301
 30
0.0
 11
-300.2490282058716
 21
-102.6607892101419
 31
0.0
 12
-303.7490282058716
 22
-102.200005468586
 32
0.0
 13
-303.7490282058716
 23
-102.200005468586
 33
0.0
  0
MTEXT
  5
EE
330
E6
100
AcDbEntity
  8
1
 62
     3
100
AcDbMText
 10
-314.3596509489871
 20
-100.3500193827386
 30
0.0
 40
3.5
 41
0.0
 71
     7
 72
     1
  1
\C3; {\Fgdt;n}\C3;7,5
  7
CONVERTER_11
 11
0.9999999999970619
 21
2.424068405545306E-6
 31
0.0
 73
     1
 44
0.60024009603842
  0
ENDBLK
  5
F0
330
E6
100
AcDbEntity
  8
0
100
AcDbBlockEnd
  0
ENDSEC
  0
SECTION
  2
ENTITIES
  0
INSERT
  5
B5
330
1F
100
AcDbEntity
  8
1
100
AcDbBlockReference
  2
1
 10
0.0
 20
0.0
 30
0.0
  0
ENDSEC
  0
SECTION
  2
OBJECTS
  0
DICTIONARY
  5
C
330
0
100
AcDbDictionary
281
     1
  3
ACAD_DETAILVIEWSTYLE
350
2B9
  3
ACAD_GROUP
350
D
  3
ACAD_LAYOUT
350
1A
  3
ACAD_MATERIAL
350
43
  3
ACAD_MLEADERSTYLE
350
6B
  3
ACAD_MLINESTYLE
350
17
  3
ACAD_PLOTSETTINGS
350
19
  3
ACAD_PLOTSTYLENAME
350
E
  3
ACAD_SCALELIST
350
47
  3
ACAD_SECTIONVIEWSTYLE
350
2BA
  3
ACAD_TABLESTYLE
350
69
  3
ACAD_VISUALSTYLE
350
2A
  3
ACDB_RECOMPOSE_DATA
350
2B6
  3
AcDbVariableDictionary
350
276
  0
DICTIONARY
  5
274
330
8
100
AcDbDictionary
280
     1
281
     1
  3
ACAD_XREC_ROUNDTRIP
360
275
  0
DICTIONARY
  5
2B9
102
{ACAD_REACTORS
330
C
102
}
330
C
100
AcDbDictionary
281
     1
  0
DICTIONARY
  5
D
102
{ACAD_REACTORS
330
C
102
}
330
C
100
AcDbDictionary
281
     1
  0
DICTIONARY
  5
1A
102
{ACAD_REACTORS
330
C
102
}
330
C
100
AcDbDictionary
281
     1
  3
Layout1
350
1E
  3
Layout2
350
26
  3
Model
350
22
  0
DICTIONARY
  5
43
102
{ACAD_REACTORS
330
C
102
}
330
C
100
AcDbDictionary
281
     1
  3
ByBlock
350
45
  3
ByLayer
350
44
  3
Global
350
46
  0
DICTIONARY
  5
6B
102
{ACAD_REACTORS
330
C
102
}
330
C
100
AcDbDictionary
281
     1
  3
Standard
350
6C
  0
DICTIONARY
  5
17
102
{ACAD_REACTORS
330
C
102
}
330
C
100
AcDbDictionary
281
     1
  3
Standard
350
18
  0
DICTIONARY
  5
19
102
{ACAD_REACTORS
330
C
102
}
330
C
100
AcDbDictionary
281
     1
  0
ACDBDICTIONARYWDFLT
  5
E
102
{ACAD_REACTORS
330
C
102
}
330
C
100
AcDbDictionary
281
     1
  3
Normal
350
F
100
AcDbDictionaryWithDefault
340
F
  0
DICTIONARY
  5
47
102
{ACAD_REACTORS
330
C
102
}
330
C
100
AcDbDictionary
281
     1
  3
A0
350
48
  3
A1
350
49
  3
A2
350
4A
  3
A3
350
4B
  3
A4
350
4C
  3
A5
350
4D
  3
A6
350
4E
  3
A7
350
4F
  3
A8
350
50
  3
A9
350
51
  3
B0
350
52
  3
B1
350
53
  3
B2
350
54
  3
B3
350
55
  3
B4
350
56
  3
B5
350
57
  3
B6
350
58
  3
B7
350
59
  3
B8
350
5A
  3
B9
350
5B
  3
C0
350
5C
  3
C1
350
5D
  3
C2
350
5E
  3
C3
350
5F
  3
C4
350
60
  3
C5
350
61
  3
C6
350
62
  3
C7
350
63
  3
C8
350
64
  3
C9
350
65
  3
D0
350
66
  3
D1
350
67
  3
D2
350
68
  0
DICTIONARY
  5
2BA
102
{ACAD_REACTORS
330
C
102
}
330
C
100
AcDbDictionary
281
     1
  0
DICTIONARY
  5
69
102
{ACAD_REACTORS
330
C
102
}
330
C
100
AcDbDictionary
281
     1
  3
Standard
350
6A
  0
DICTIONARY
  5
2A
102
{ACAD_REACTORS
330
C
102
}
330
C
100
AcDbDictionary
281
     1
  3
2dWireframe
350
2F
  3
Basic
350
32
  3
Brighten
350
36
  3
ColorChange
350
3A
  3
Conceptual
350
34
  3
Dim
350
35
  3
EdgeColorOff
350
3D
  3
Facepattern
350
39
  3
Flat
350
2B
  3
FlatWithEdges
350
2C
  3
Gouraud
350
2D
  3
GouraudWithEdges
350
2E
  3
Hidden
350
31
  3
JitterOff
350
3B
  3
Linepattern
350
38
  3
OverhangOff
350
3C
  3
Realistic
350
33
  3
Shaded
350
42
  3
Shaded with edges
350
41
  3
Shades of Gray
350
3E
  3
Sketchy
350
3F
  3
Thicken
350
37
  3
Wireframe
350
30
  3
X-Ray
350
40
  0
XRECORD
  5
2B6
102
{ACAD_REACTORS
330
C
102
}
330
C
100
AcDbXrecord
280
     1
 90
        1
330
6A
  0
DICTIONARY
  5
276
102
{ACAD_REACTORS
330
C
102
}
330
C
100
AcDbDictionary
281
     1
  3
CANNOSCALE
350
277
  3
CMLEADERSTYLE
350
2B8
  3
CTABLESTYLE
350
2B7
  3
MSLTSCALE
350
278
  3
XCLIPFRAME
350
279
  0
XRECORD
  5
275
102
{ACAD_REACTORS
330
274
102
}
330
274
100
AcDbXrecord
280
     1
102
VTR_0.000_0.000_1.000_1.000_VISUALSTYLE
340
2F
102
VTR_0.000_0.000_1.000_1.000_GRIDDISPLAY
 70
     3
102
VTR_0.000_0.000_1.000_1.000_GRIDMAJOR
 70
     5
102
VTR_0.000_0.000_1.000_1.000_DEFAULTLIGHTING
280
     1
102
VTR_0.000_0.000_1.000_1.000_DEFAULTLIGHTINGTYPE
 70
     1
102
VTR_0.000_0.000_1.000_1.000_BRIGHTNESS
141
0.0
102
VTR_0.000_0.000_1.000_1.000_CONTRAST
142
0.0
  0
LAYOUT
  5
1E
102
{ACAD_REACTORS
330
1A
102
}
330
1A
100
AcDbPlotSettings
  1

  2
none_device
  4

  6

 40
0.0
 41
0.0
 42
0.0
 43
0.0
 44
0.0
 45
0.0
 46
0.0
 47
0.0
 48
0.0
 49
0.0
140
0.0
141
0.0
142
1.0
143
1.0
 70
   688
 72
     0
 73
     0
 74
     5
  7

 75
    16
 76
     0
 77
     2
 78
   300
147
1.0
148
0.0
149
0.0
100
AcDbLayout
  1
Layout1
 70
     1
 71
     1
 10
0.0
 20
0.0
 11
12.0
 21
9.0
 12
0.0
 22
0.0
 32
0.0
 14
1.00000000000000E+20
 24
1.00000000000000E+20
 34
1.00000000000000E+20
 15
-1.00000000000000E+20
 25
-1.00000000000000E+20
 35
-1.00000000000000E+20
146
0.0
 13
0.0
 23
0.0
 33
0.0
 16
1.0
 26
0.0
 36
0.0
 17
0.0
 27
1.0
 37
0.0
 76
     0
330
1B
  0
LAYOUT
  5
26
102
{ACAD_REACTORS
330
1A
102
}
330
1A
100
AcDbPlotSettings
  1

  2
none_device
  4

  6

 40
0.0
 41
0.0
 42
0.0
 43
0.0
 44
0.0
 45
0.0
 46
0.0
 47
0.0
 48
0.0
 49
0.0
140
0.0
141
0.0
142
1.0
143
1.0
 70
   688
 72
     0
 73
     0
 74
     5
  7

 75
    16
 76
     0
 77
     2
 78
   300
147
1.0
148
0.0
149
0.0
100
AcDbLayout
  1
Layout2
 70
     1
 71
     2
 10
0.0
 20
0.0
 11
0.0
 21
0.0
 12
0.0
 22
0.0
 32
0.0
 14
0.0
 24
0.0
 34
0.0
 15
0.0
 25
0.0
 35
0.0
146
0.0
 13
0.0
 23
0.0
 33
0.0
 16
1.0
 26
0.0
 36
0.0
 17
0.0
 27
1.0
 37
0.0
 76
     0
330
23
  0
LAYOUT
  5
22
102
{ACAD_REACTORS
330
1A
102
}
330
1A
100
AcDbPlotSettings
  1

  2
none_device
  4
Letter_(8.50_x_11.00_Inches)
  6

 40
6.35
 41
6.35
 42
6.35000508
 43
6.35000508
 44
215.9
 45
279.4
 46
0.0
 47
0.0
 48
0.0
 49
0.0
140
0.0
141
0.0
142
1.0
143
1.0
 70
  1712
 72
     0
 73
     0
 74
     0
  7

 75
     0
 76
     0
 77
     2
 78
   300
147
1.0
148
0.0
149
0.0
100
AcDbLayout
  1
Model
 70
     1
 71
     0
 10
0.0
 20
0.0
 11
12.0
 21
9.0
 12
0.0
 22
0.0
 32
0.0
 14
-415.499999999989
 24
-267.0000000000051
 34
0.0
 15
-118.4999999999909
 25
-57.000000000005
 35
0.0
146
0.0
 13
0.0
 23
0.0
 33
0.0
 16
1.0
 26
0.0
 36
0.0
 17
0.0
 27
1.0
 37
0.0
 76
     0
330
1F
331
29
  0
MATERIAL
  5
45
102
{ACAD_REACTORS
330
43
102
}
102
{ACAD_XDICTIONARY
360
2AC
102
}
330
43
100
AcDbMaterial
  1
ByBlock
  0
MATERIAL
  5
44
102
{ACAD_REACTORS
330
43
102
}
102
{ACAD_XDICTIONARY
360
2AA
102
}
330
43
100
AcDbMaterial
  1
ByLayer
  0
MATERIAL
  5
46
102
{ACAD_REACTORS
330
43
102
}
102
{ACAD_XDICTIONARY
360
2AE
102
}
330
43
100
AcDbMaterial
  1
Global
  0
MLEADERSTYLE
  5
6C
102
{ACAD_REACTORS
330
6B
102
}
102
{ACAD_XDICTIONARY
360
2B4
102
}
330
6B
100
AcDbMLeaderStyle
170
     2
171
     1
172
     0
 90
        2
 40
0.0
 41
0.0
173
     1
 91
-1056964608
340
14
 92
       -2
290
     1
 42
0.09
291
     1
 43
0.36
  3
Standard
341
0
 44
0.18
300

342
11
174
     1
178
     6
175
     1
176
     0
 93
-1056964608
 45
0.18
292
     0
297
     0
 46
0.18
343
0
 94
-1056964608
 47
1.0
 49
1.0
140
1.0
293
     1
141
0.0
294
     1
177
     0
142
1.0
295
     0
296
     0
143
0.125
1001
ACAD_MLEADERVER
1070
     2
  0
MLINESTYLE
  5
18
102
{ACAD_REACTORS
330
17
102
}
330
17
100
AcDbMlineStyle
  2
Standard
 70
     0
  3

 62
   256
 51
90.0
 52
90.0
 71
     2
 49
0.5
 62
   256
  6
BYLAYER
 49
-0.5
 62
   256
  6
BYLAYER
  0
ACDBPLACEHOLDER
  5
F
102
{ACAD_REACTORS
330
E
102
}
330
E
  0
SCALE
  5
48
102
{ACAD_REACTORS
330
47
102
}
330
47
100
AcDbScale
 70
     0
300
1:1
140
1.0
141
1.0
290
     1
  0
SCALE
  5
49
102
{ACAD_REACTORS
330
47
102
}
330
47
100
AcDbScale
 70
     0
300
1:2
140
1.0
141
2.0
290
     0
  0
SCALE
  5
4A
102
{ACAD_REACTORS
330
47
102
}
330
47
100
AcDbScale
 70
     0
300
1:4
140
1.0
141
4.0
290
     0
  0
SCALE
  5
4B
102
{ACAD_REACTORS
330
47
102
}
330
47
100
AcDbScale
 70
     0
300
1:5
140
1.0
141
5.0
290
     0
  0
SCALE
  5
4C
102
{ACAD_REACTORS
330
47
102
}
330
47
100
AcDbScale
 70
     0
300
1:8
140
1.0
141
8.0
290
     0
  0
SCALE
  5
4D
102
{ACAD_REACTORS
330
47
102
}
330
47
100
AcDbScale
 70
     0
300
1:10
140
1.0
141
10.0
290
     0
  0
SCALE
  5
4E
102
{ACAD_REACTORS
330
47
102
}
330
47
100
AcDbScale
 70
     0
300
1:16
140
1.0
141
16.0
290
     0
  0
SCALE
  5
4F
102
{ACAD_REACTORS
330
47
102
}
330
47
100
AcDbScale
 70
     0
300
1:20
140
1.0
141
20.0
290
     0
  0
SCALE
  5
50
102
{ACAD_REACTORS
330
47
102
}
330
47
100
AcDbScale
 70
     0
300
1:30
140
1.0
141
30.0
290
     0
  0
SCALE
  5
51
102
{ACAD_REACTORS
330
47
102
}
330
47
100
AcDbScale
 70
     0
300
1:40
140
1.0
141
40.0
290
     0
  0
SCALE
  5
52
102
{ACAD_REACTORS
330
47
102
}
330
47
100
AcDbScale
 70
     0
300
1:50
140
1.0
141
50.0
290
     0
  0
SCALE
  5
53
102
{ACAD_REACTORS
330
47
102
}
330
47
100
AcDbScale
 70
     0
300
1:100
140
1.0
141
100.0
290
     0
  0
SCALE
  5
54
102
{ACAD_REACTORS
330
47
102
}
330
47
100
AcDbScale
 70
     0
300
2:1
140
2.0
141
1.0
290
     0
  0
SCALE
  5
55
102
{ACAD_REACTORS
330
47
102
}
330
47
100
AcDbScale
 70
     0
300
4:1
140
4.0
141
1.0
290
     0
  0
SCALE
  5
56
102
{ACAD_REACTORS
330
47
102
}
330
47
100
AcDbScale
 70
     0
300
8:1
140
8.0
141
1.0
290
     0
  0
SCALE
  5
57
102
{ACAD_REACTORS
330
47
102
}
330
47
100
AcDbScale
 70
     0
300
10:1
140
10.0
141
1.0
290
     0
  0
SCALE
  5
58
102
{ACAD_REACTORS
330
47
102
}
330
47
100
AcDbScale
 70
     0
300
100:1
140
100.0
141
1.0
290
     0
  0
SCALE
  5
59
102
{ACAD_REACTORS
330
47
102
}
330
47
100
AcDbScale
 70
     0
300
1/128" = 1'-0"
140
0.0078125
141
12.0
290
     0
  0
SCALE
  5
5A
102
{ACAD_REACTORS
330
47
102
}
330
47
100
AcDbScale
 70
     0
300
1/64" = 1'-0"
140
0.015625
141
12.0
290
     0
  0
SCALE
  5
5B
102
{ACAD_REACTORS
330
47
102
}
330
47
100
AcDbScale
 70
     0
300
1/32" = 1'-0"
140
0.03125
141
12.0
290
     0
  0
SCALE
  5
5C
102
{ACAD_REACTORS
330
47
102
}
330
47
100
AcDbScale
 70
     0
300
1/16" = 1'-0"
140
0.0625
141
12.0
290
     0
  0
SCALE
  5
5D
102
{ACAD_REACTORS
330
47
102
}
330
47
100
AcDbScale
 70
     0
300
3/32" = 1'-0"
140
0.09375
141
12.0
290
     0
  0
SCALE
  5
5E
102
{ACAD_REACTORS
330
47
102
}
330
47
100
AcDbScale
 70
     0
300
1/8" = 1'-0"
140
0.125
141
12.0
290
     0
  0
SCALE
  5
5F
102
{ACAD_REACTORS
330
47
102
}
330
47
100
AcDbScale
 70
     0
300
3/16" = 1'-0"
140
0.1875
141
12.0
290
     0
  0
SCALE
  5
60
102
{ACAD_REACTORS
330
47
102
}
330
47
100
AcDbScale
 70
     0
300
1/4" = 1'-0"
140
0.25
141
12.0
290
     0
  0
SCALE
  5
61
102
{ACAD_REACTORS
330
47
102
}
330
47
100
AcDbScale
 70
     0
300
3/8" = 1'-0"
140
0.375
141
12.0
290
     0
  0
SCALE
  5
62
102
{ACAD_REACTORS
330
47
102
}
330
47
100
AcDbScale
 70
     0
300
1/2" = 1'-0"
140
0.5
141
12.0
290
     0
  0
SCALE
  5
63
102
{ACAD_REACTORS
330
47
102
}
330
47
100
AcDbScale
 70
     0
300
3/4" = 1'-0"
140
0.75
141
12.0
290
     0
  0
SCALE
  5
64
102
{ACAD_REACTORS
330
47
102
}
330
47
100
AcDbScale
 70
     0
300
1" = 1'-0"
140
1.0
141
12.0
290
     0
  0
SCALE
  5
65
102
{ACAD_REACTORS
330
47
102
}
330
47
100
AcDbScale
 70
     0
300
1-1/2" = 1'-0"
140
1.5
141
12.0
290
     0
  0
SCALE
  5
66
102
{ACAD_REACTORS
330
47
102
}
330
47
100
AcDbScale
 70
     0
300
3" = 1'-0"
140
3.0
141
12.0
290
     0
  0
SCALE
  5
67
102
{ACAD_REACTORS
330
47
102
}
330
47
100
AcDbScale
 70
     0
300
6" = 1'-0"
140
6.0
141
12.0
290
     0
  0
SCALE
  5
68
102
{ACAD_REACTORS
330
47
102
}
330
47
100
AcDbScale
 70
     0
300
1'-0" = 1'-0"
140
12.0
141
12.0
290
     0
  0
TABLESTYLE
  5
6A
102
{ACAD_REACTORS
330
69
102
}
102
{ACAD_XDICTIONARY
360
2B0
102
}
330
69
100
AcDbTableStyle
  3
Standard
 70
     0
 71
     0
 40
0.06
 41
0.06
280
     0
281
     0
  7
Standard
140
0.18
170
     2
 62
     0
 63
   257
283
     0
274
    -2
284
     1
 64
     0
275
    -2
285
     1
 65
     0
276
    -2
286
     1
 66
     0
277
    -2
287
     1
 67
     0
278
    -2
288
     1
 68
     0
279
    -2
289
     1
 69
     0
  7
Standard
140
0.25
170
     5
 62
     0
 63
   257
283
     0
274
    -2
284
     1
 64
     0
275
    -2
285
     1
 65
     0
276
    -2
286
     1
 66
     0
277
    -2
287
     1
 67
     0
278
    -2
288
     1
 68
     0
279
    -2
289
     1
 69
     0
  7
Standard
140
0.18
170
     5
 62
     0
 63
   257
283
     0
274
    -2
284
     1
 64
     0
275
    -2
285
     1
 65
     0
276
    -2
286
     1
 66
     0
277
    -2
287
     1
 67
     0
278
    -2
288
     1
 68
     0
279
    -2
289
     1
 69
     0
  0
VISUALSTYLE
  5
2F
102
{ACAD_REACTORS
330
2A
102
}
102
{ACAD_XDICTIONARY
360
282
102
}
330
2A
100
AcDbVisualStyle
  2
2dWireframe
 70
     4
 71
     0
 72
     2
 73
     0
 90
        0
 40
0.6
 41
30.0
 62
     5
 63
     7
421
 16777215
 74
     1
 91
        4
 64
     7
 65
   257
 75
     1
175
     1
 42
1.0
 92
        0
 66
   257
 43
1.0
 76
     1
 77
     6
 78
     2
 67
     7
 79
     5
170
     0
171
     0
290
     0
174
     0
 93
        1
 44
0.0
173
     0
291
     0
 45
0.0
1001
ACAD
1000
AcDbSavedByObjectVersion
1070
     0
  0
VISUALSTYLE
  5
32
102
{ACAD_REACTORS
330
2A
102
}
102
{ACAD_XDICTIONARY
360
288
102
}
330
2A
100
AcDbVisualStyle
  2
Basic
 70
     7
 71
     1
 72
     0
 73
     1
 90
        0
 40
0.6
 41
30.0
 62
     5
 63
     7
421
 16777215
 74
     0
 91
        4
 64
     7
 65
   257
 75
     1
175
     1
 42
1.0
 92
        8
 66
     7
 43
1.0
 76
     1
 77
     6
 78
     2
 67
     7
 79
     5
170
     0
171
     0
290
     0
174
     0
 93
        1
 44
0.0
173
     0
291
     1
 45
0.0
1001
ACAD
1000
AcDbSavedByObjectVersion
1070
     0
  0
VISUALSTYLE
  5
36
102
{ACAD_REACTORS
330
2A
102
}
102
{ACAD_XDICTIONARY
360
290
102
}
330
2A
100
AcDbVisualStyle
  2
Brighten
 70
    12
 71
     2
 72
     2
 73
     0
 90
        0
 40
0.6
 41
30.0
 62
     5
 63
     7
421
 16777215
 74
     1
 91
        4
 64
     7
 65
   257
 75
     1
175
     1
 42
1.0
 92
        8
 66
     7
 43
1.0
 76
     1
 77
     6
 78
     2
 67
     7
 79
     5
170
     0
171
     0
290
     0
174
     0
 93
        1
 44
50.0
173
     0
291
     1
 45
0.0
1001
ACAD
1000
AcDbSavedByObjectVersion
1070
     0
  0
VISUALSTYLE
  5
3A
102
{ACAD_REACTORS
330
2A
102
}
102
{ACAD_XDICTIONARY
360
298
102
}
330
2A
100
AcDbVisualStyle
  2
ColorChange
 70
    16
 71
     2
 72
     2
 73
     3
 90
        0
 40
0.6
 41
30.0
 62
     5
 63
     8
421
  8421504
 74
     1
 91
        4
 64
     7
 65
   257
 75
     1
175
     1
 42
1.0
 92
        8
 66
     8
424
  8421504
 43
1.0
 76
     1
 77
     6
 78
     2
 67
     7
 79
     5
170
     0
171
     0
290
     0
174
     0
 93
        1
 44
0.0
173
     0
291
     1
 45
0.0
1001
ACAD
1000
AcDbSavedByObjectVersion
1070
     0
  0
VISUALSTYLE
  5
34
102
{ACAD_REACTORS
330
2A
102
}
102
{ACAD_XDICTIONARY
360
28C
102
}
330
2A
100
AcDbVisualStyle
  2
Conceptual
 70
     9
 71
     3
 72
     2
 73
     0
 90
        0
 40
0.6
 41
30.0
 62
     5
 63
     7
421
 16777215
 74
     2
 91
        2
 64
     7
 65
   257
 75
     1
175
     1
 42
179.0
 92
        8
 66
     7
 43
1.0
 76
     1
 77
     6
 78
     2
 67
     7
 79
     3
170
     0
171
     0
290
     0
174
     0
 93
        1
 44
0.0
173
     0
291
     0
 45
0.0
1001
ACAD
1000
AcDbSavedByObjectVersion
1070
     0
  0
VISUALSTYLE
  5
35
102
{ACAD_REACTORS
330
2A
102
}
102
{ACAD_XDICTIONARY
360
28E
102
}
330
2A
100
AcDbVisualStyle
  2
Dim
 70
    11
 71
     2
 72
     2
 73
     0
 90
        0
 40
0.6
 41
30.0
 62
     5
 63
     7
421
 16777215
 74
     1
 91
        4
 64
     7
 65
   257
 75
     1
175
     1
 42
1.0
 92
        8
 66
     7
 43
1.0
 76
     1
 77
     6
 78
     2
 67
     7
 79
     5
170
     0
171
     0
290
     0
174
     0
 93
        1
 44
-50.0
173
     0
291
     1
 45
0.0
1001
ACAD
1000
AcDbSavedByObjectVersion
1070
     0
  0
VISUALSTYLE
  5
3D
102
{ACAD_REACTORS
330
2A
102
}
102
{ACAD_XDICTIONARY
360
29E
102
}
330
2A
100
AcDbVisualStyle
  2
EdgeColorOff
 70
    22
 71
     2
 72
     2
 73
     0
 90
        0
 40
0.6
 41
30.0
 62
     5
 63
     7
421
 16777215
 74
     1
 91
        4
 64
     7
 65
   257
 75
     1
175
     1
 42
1.0
 92
        8
 66
     7
 43
1.0
 76
     1
 77
     6
 78
     2
 67
     7
 79
     5
170
     0
171
     0
290
     0
174
     0
 93
        1
 44
0.0
173
     0
291
     1
 45
0.0
1001
ACAD
1000
AcDbSavedByObjectVersion
1070
     0
  0
VISUALSTYLE
  5
39
102
{ACAD_REACTORS
330
2A
102
}
102
{ACAD_XDICTIONARY
360
296
102
}
330
2A
100
AcDbVisualStyle
  2
Facepattern
 70
    15
 71
     2
 72
     2
 73
     0
 90
        0
 40
0.6
 41
30.0
 62
     5
 63
     7
421
 16777215
 74
     1
 91
        4
 64
     7
 65
   257
 75
     1
175
     1
 42
1.0
 92
        8
 66
     7
 43
1.0
 76
     1
 77
     6
 78
     2
 67
     7
 79
     5
170
     0
171
     0
290
     0
174
     0
 93
        1
 44
0.0
173
     0
291
     1
 45
0.0
1001
ACAD
1000
AcDbSavedByObjectVersion
1070
     0
  0
VISUALSTYLE
  5
2B
102
{ACAD_REACTORS
330
2A
102
}
102
{ACAD_XDICTIONARY
360
27A
102
}
330
2A
100
AcDbVisualStyle
  2
Flat
 70
     0
 71
     2
 72
     1
 73
     1
 90
        2
 40
0.6
 41
30.0
 62
     5
 63
     7
421
 16777215
 74
     0
 91
        0
 64
     7
 65
   257
 75
     1
175
     1
 42
1.0
 92
        8
 66
     7
 43
1.0
 76
     1
 77
     6
 78
     2
 67
     7
 79
     5
170
     0
171
     0
290
     0
174
     0
 93
       13
 44
0.0
173
     0
291
     1
 45
0.0
1001
ACAD
1000
AcDbSavedByObjectVersion
1070
     0
  0
VISUALSTYLE
  5
2C
102
{ACAD_REACTORS
330
2A
102
}
102
{ACAD_XDICTIONARY
360
27C
102
}
330
2A
100
AcDbVisualStyle
  2
FlatWithEdges
 70
     1
 71
     2
 72
     1
 73
     1
 90
        2
 40
0.6
 41
30.0
 62
     5
 63
     7
421
 16777215
 74
     1
 91
        0
 64
     7
 65
   257
 75
     1
175
     1
 42
1.0
 92
        0
 66
   257
 43
1.0
 76
     1
 77
     6
 78
     2
 67
     7
 79
     5
170
     0
171
     0
290
     0
174
     0
 93
       13
 44
0.0
173
     0
291
     1
 45
0.0
1001
ACAD
1000
AcDbSavedByObjectVersion
1070
     0
  0
VISUALSTYLE
  5
2D
102
{ACAD_REACTORS
330
2A
102
}
102
{ACAD_XDICTIONARY
360
27E
102
}
330
2A
100
AcDbVisualStyle
  2
Gouraud
 70
     2
 71
     2
 72
     2
 73
     1
 90
        2
 40
0.6
 41
30.0
 62
     5
 63
     7
421
 16777215
 74
     0
 91
        0
 64
     7
 65
   257
 75
     1
175
     1
 42
1.0
 92
        0
 66
     7
 43
1.0
 76
     1
 77
     6
 78
     2
 67
     7
 79
     5
170
     0
171
     0
290
     0
174
     0
 93
       13
 44
0.0
173
     0
291
     1
 45
0.0
1001
ACAD
1000
AcDbSavedByObjectVersion
1070
     0
  0
VISUALSTYLE
  5
2E
102
{ACAD_REACTORS
330
2A
102
}
102
{ACAD_XDICTIONARY
360
280
102
}
330
2A
100
AcDbVisualStyle
  2
GouraudWithEdges
 70
     3
 71
     2
 72
     2
 73
     1
 90
        2
 40
0.6
 41
30.0
 62
     5
 63
     7
421
 16777215
 74
     1
 91
        0
 64
     7
 65
   257
 75
     1
175
     1
 42
1.0
 92
        0
 66
   257
 43
1.0
 76
     1
 77
     6
 78
     2
 67
     7
 79
     5
170
     0
171
     0
290
     0
174
     0
 93
       13
 44
0.0
173
     0
291
     1
 45
0.0
1001
ACAD
1000
AcDbSavedByObjectVersion
1070
     0
  0
VISUALSTYLE
  5
31
102
{ACAD_REACTORS
330
2A
102
}
102
{ACAD_XDICTIONARY
360
286
102
}
330
2A
100
AcDbVisualStyle
  2
Hidden
 70
     6
 71
     1
 72
     2
 73
     2
 90
        0
 40
0.6
 41
30.0
 62
     5
 63
     7
421
 16777215
 74
     2
 91
        2
 64
     7
 65
   257
 75
     2
175
     1
 42
40.0
 92
        0
 66
   257
 43
1.0
 76
     1
 77
     6
 78
     2
 67
     7
 79
     3
170
     0
171
     0
290
     0
174
     0
 93
        1
 44
0.0
173
     0
291
     0
 45
0.0
1001
ACAD
1000
AcDbSavedByObjectVersion
1070
     0
  0
VISUALSTYLE
  5
3B
102
{ACAD_REACTORS
330
2A
102
}
102
{ACAD_XDICTIONARY
360
29A
102
}
330
2A
100
AcDbVisualStyle
  2
JitterOff
 70
    20
 71
     2
 72
     2
 73
     0
 90
        0
 40
0.6
 41
30.0
 62
     5
 63
     7
421
 16777215
 74
     1
 91
        4
 64
     7
 65
   257
 75
     1
175
     1
 42
1.0
 92
       10
 66
     7
 43
1.0
 76
     1
 77
     6
 78
     2
 67
     7
 79
     5
170
     0
171
     0
290
     0
174
     0
 93
        1
 44
0.0
173
     0
291
     1
 45
0.0
1001
ACAD
1000
AcDbSavedByObjectVersion
1070
     0
  0
VISUALSTYLE
  5
38
102
{ACAD_REACTORS
330
2A
102
}
102
{ACAD_XDICTIONARY
360
294
102
}
330
2A
100
AcDbVisualStyle
  2
Linepattern
 70
    14
 71
     2
 72
     2
 73
     0
 90
        0
 40
0.6
 41
30.0
 62
     5
 63
     7
421
 16777215
 74
     1
 91
        4
 64
     7
 65
   257
 75
     7
175
     7
 42
1.0
 92
        8
 66
     7
 43
1.0
 76
     1
 77
     6
 78
     2
 67
     7
 79
     5
170
     0
171
     0
290
     0
174
     0
 93
        1
 44
0.0
173
     0
291
     1
 45
0.0
1001
ACAD
1000
AcDbSavedByObjectVersion
1070
     0
  0
VISUALSTYLE
  5
3C
102
{ACAD_REACTORS
330
2A
102
}
102
{ACAD_XDICTIONARY
360
29C
102
}
330
2A
100
AcDbVisualStyle
  2
OverhangOff
 70
    21
 71
     2
 72
     2
 73
     0
 90
        0
 40
0.6
 41
30.0
 62
     5
 63
     7
421
 16777215
 74
     1
 91
        4
 64
     7
 65
   257
 75
     1
175
     1
 42
1.0
 92
        9
 66
     7
 43
1.0
 76
     1
 77
     6
 78
     2
 67
     7
 79
     5
170
     0
171
     0
290
     0
174
     0
 93
        1
 44
0.0
173
     0
291
     1
 45
0.0
1001
ACAD
1000
AcDbSavedByObjectVersion
1070
     0
  0
VISUALSTYLE
  5
33
102
{ACAD_REACTORS
330
2A
102
}
102
{ACAD_XDICTIONARY
360
28A
102
}
330
2A
100
AcDbVisualStyle
  2
Realistic
 70
     8
 71
     2
 72
     3
 73
     0
 90
        2
 40
0.6
 41
30.0
 62
     5
 63
     7
421
 16777215
 74
     0
 91
        0
 64
     7
 65
   257
 75
     1
175
     1
 42
1.0
 92
        8
 66
   257
 43
1.0
 76
     1
 77
     6
 78
     2
 67
     7
 79
     3
170
     0
171
     0
290
     0
174
     0
 93
       13
 44
0.0
173
     0
291
     0
 45
0.0
1001
ACAD
1000
AcDbSavedByObjectVersion
1070
     0
  0
VISUALSTYLE
  5
42
102
{ACAD_REACTORS
330
2A
102
}
102
{ACAD_XDICTIONARY
360
2A8
102
}
330
2A
100
AcDbVisualStyle
  2
Shaded
 70
    27
 71
     2
 72
     2
 73
     1
 90
        2
 40
0.6
 41
30.0
 62
     5
 63
     7
421
 16777215
 74
     0
 91
        4
 64
     7
 65
   257
 75
     1
175
     1
 42
1.0
 92
        8
 66
   257
 43
1.0
 76
     1
 77
     6
 78
     2
 67
     8
425
  7895160
 79
     3
170
     0
171
     0
290
     0
174
     0
 93
        5
 44
0.0
173
     0
291
     0
 45
0.0
1001
ACAD
1000
AcDbSavedByObjectVersion
1070
     0
  0
VISUALSTYLE
  5
41
102
{ACAD_REACTORS
330
2A
102
}
102
{ACAD_XDICTIONARY
360
2A6
102
}
330
2A
100
AcDbVisualStyle
  2
Shaded with edges
 70
    26
 71
     2
 72
     2
 73
     1
 90
        2
 40
0.6
 41
30.0
 62
     5
 63
     7
421
 16777215
 74
     1
 91
       10
 64
     7
 65
   257
 75
     2
175
     1
 42
1.0
 92
        8
 66
   257
 43
1.0
 76
     1
 77
     6
 78
     2
 67
     7
 79
     3
170
     0
171
     0
290
     0
174
     0
 93
        5
 44
0.0
173
     0
291
     0
 45
0.0
1001
ACAD
1000
AcDbSavedByObjectVersion
1070
     0
  0
VISUALSTYLE
  5
3E
102
{ACAD_REACTORS
330
2A
102
}
102
{ACAD_XDICTIONARY
360
2A0
102
}
330
2A
100
AcDbVisualStyle
  2
Shades of Gray
 70
    23
 71
     2
 72
     2
 73
     3
 90
        0
 40
0.6
 41
30.0
 62
     5
 63
     7
421
 16777215
 74
     2
 91
        2
 64
     7
 65
     7
 75
     1
175
     1
 42
40.0
 92
        8
 66
     7
 43
1.0
 76
     1
 77
     6
 78
     2
 67
     7
 79
     3
170
     0
171
     0
290
     0
174
     0
 93
        1
 44
0.0
173
     0
291
     0
 45
0.0
1001
ACAD
1000
AcDbSavedByObjectVersion
1070
     0
  0
VISUALSTYLE
  5
3F
102
{ACAD_REACTORS
330
2A
102
}
102
{ACAD_XDICTIONARY
360
2A2
102
}
330
2A
100
AcDbVisualStyle
  2
Sketchy
 70
    24
 71
     1
 72
     2
 73
     2
 90
        0
 40
0.6
 41
30.0
 62
     5
 63
     7
421
 16777215
 74
     2
 91
        2
 64
     7
 65
     7
 75
     1
175
     1
 42
40.0
 92
       11
 66
     7
 43
1.0
 76
     1
 77
     6
 78
     2
 67
     7
 79
     6
170
     0
171
     0
290
     0
174
     0
 93
        1
 44
0.0
173
     0
291
     0
 45
0.0
1001
ACAD
1000
AcDbSavedByObjectVersion
1070
     0
  0
VISUALSTYLE
  5
37
102
{ACAD_REACTORS
330
2A
102
}
102
{ACAD_XDICTIONARY
360
292
102
}
330
2A
100
AcDbVisualStyle
  2
Thicken
 70
    13
 71
     2
 72
     2
 73
     0
 90
        0
 40
0.6
 41
30.0
 62
     5
 63
     7
421
 16777215
 74
     1
 91
        4
 64
     7
 65
   257
 75
     1
175
     1
 42
1.0
 92
       12
 66
     7
 43
1.0
 76
     1
 77
     6
 78
     2
 67
     7
 79
     5
170
     0
171
     0
290
     0
174
     0
 93
        1
 44
0.0
173
     0
291
     1
 45
0.0
1001
ACAD
1000
AcDbSavedByObjectVersion
1070
     0
  0
VISUALSTYLE
  5
30
102
{ACAD_REACTORS
330
2A
102
}
102
{ACAD_XDICTIONARY
360
284
102
}
330
2A
100
AcDbVisualStyle
  2
Wireframe
 70
     5
 71
     0
 72
     2
 73
     0
 90
        0
 40
0.6
 41
30.0
 62
     5
 63
     7
421
 16777215
 74
     1
 91
        4
 64
     7
 65
   257
 75
     1
175
     1
 42
1.0
 92
        0
 66
   257
 43
1.0
 76
     1
 77
     6
 78
     2
 67
     7
 79
     3
170
     0
171
     0
290
     0
174
     0
 93
        1
 44
0.0
173
     0
291
     0
 45
0.0
1001
ACAD
1000
AcDbSavedByObjectVersion
1070
     0
  0
VISUALSTYLE
  5
40
102
{ACAD_REACTORS
330
2A
102
}
102
{ACAD_XDICTIONARY
360
2A4
102
}
330
2A
100
AcDbVisualStyle
  2
X-Ray
 70
    25
 71
     2
 72
     2
 73
     1
 90
        1
 40
0.5
 41
30.0
 62
     5
 63
     7
421
 16777215
 74
     1
 91
        0
 64
     7
 65
   257
 75
     1
175
     1
 42
1.0
 92
        8
 66
     7
 43
1.0
 76
     1
 77
     6
 78
     2
 67
     7
 79
     3
170
     0
171
     0
290
     0
174
     0
 93
       13
 44
0.0
173
     0
291
     0
 45
0.0
1001
ACAD
1000
AcDbSavedByObjectVersion
1070
     0
  0
DICTIONARYVAR
  5
277
102
{ACAD_REACTORS
330
276
102
}
330
276
100
DictionaryVariables
280
     0
  1
1:1
  0
DICTIONARYVAR
  5
2B8
102
{ACAD_REACTORS
330
276
102
}
330
276
100
DictionaryVariables
280
     0
  1
Standard
  0
DICTIONARYVAR
  5
2B7
102
{ACAD_REACTORS
330
276
102
}
330
276
100
DictionaryVariables
280
     0
  1
Standard
  0
DICTIONARYVAR
  5
278
102
{ACAD_REACTORS
330
276
102
}
330
276
100
DictionaryVariables
280
     0
  1
1
  0
DICTIONARYVAR
  5
279
102
{ACAD_REACTORS
330
276
102
}
330
276
100
DictionaryVariables
280
     0
  1
2
  0
DICTIONARY
  5
2AC
330
45
100
AcDbDictionary
280
     1
281
     1
  3
ACAD_XREC_ROUNDTRIP
360
2AD
  0
DICTIONARY
  5
2AA
330
44
100
AcDbDictionary
280
     1
281
     1
  3
ACAD_XREC_ROUNDTRIP
360
2AB
  0
DICTIONARY
  5
2AE
330
46
100
AcDbDictionary
280
     1
281
     1
  3
ACAD_XREC_ROUNDTRIP
360
2AF
  0
DICTIONARY
  5
2B4
330
6C
100
AcDbDictionary
280
     1
281
     1
  3
ACAD_XREC_ROUNDTRIP
360
2B5
  0
DICTIONARY
  5
2B0
330
6A
100
AcDbDictionary
280
     1
281
     1
  3
ACAD_ROUNDTRIP_2008_TABLESTYLE_CELLSTYLEMAP
360
2B2
  3
ACAD_XREC_ROUNDTRIP
360
2B1
  0
DICTIONARY
  5
282
330
2F
100
AcDbDictionary
280
     1
281
     1
  3
ACAD_XREC_ROUNDTRIP
360
283
  0
DICTIONARY
  5
288
330
32
100
AcDbDictionary
280
     1
281
     1
  3
ACAD_XREC_ROUNDTRIP
360
289
  0
DICTIONARY
  5
290
330
36
100
AcDbDictionary
280
     1
281
     1
  3
ACAD_XREC_ROUNDTRIP
360
291
  0
DICTIONARY
  5
298
330
3A
100
AcDbDictionary
280
     1
281
     1
  3
ACAD_XREC_ROUNDTRIP
360
299
  0
DICTIONARY
  5
28C
330
34
100
AcDbDictionary
280
     1
281
     1
  3
ACAD_XREC_ROUNDTRIP
360
28D
  0
DICTIONARY
  5
28E
330
35
100
AcDbDictionary
280
     1
281
     1
  3
ACAD_XREC_ROUNDTRIP
360
28F
  0
DICTIONARY
  5
29E
330
3D
100
AcDbDictionary
280
     1
281
     1
  3
ACAD_XREC_ROUNDTRIP
360
29F
  0
DICTIONARY
  5
296
330
39
100
AcDbDictionary
280
     1
281
     1
  3
ACAD_XREC_ROUNDTRIP
360
297
  0
DICTIONARY
  5
27A
330
2B
100
AcDbDictionary
280
     1
281
     1
  3
ACAD_XREC_ROUNDTRIP
360
27B
  0
DICTIONARY
  5
27C
330
2C
100
AcDbDictionary
280
     1
281
     1
  3
ACAD_XREC_ROUNDTRIP
360
27D
  0
DICTIONARY
  5
27E
330
2D
100
AcDbDictionary
280
     1
281
     1
  3
ACAD_XREC_ROUNDTRIP
360
27F
  0
DICTIONARY
  5
280
330
2E
100
AcDbDictionary
280
     1
281
     1
  3
ACAD_XREC_ROUNDTRIP
360
281
  0
DICTIONARY
  5
286
330
31
100
AcDbDictionary
280
     1
281
     1
  3
ACAD_XREC_ROUNDTRIP
360
287
  0
DICTIONARY
  5
29A
330
3B
100
AcDbDictionary
280
     1
281
     1
  3
ACAD_XREC_ROUNDTRIP
360
29B
  0
DICTIONARY
  5
294
330
38
100
AcDbDictionary
280
     1
281
     1
  3
ACAD_XREC_ROUNDTRIP
360
295
  0
DICTIONARY
  5
29C
330
3C
100
AcDbDictionary
280
     1
281
     1
  3
ACAD_XREC_ROUNDTRIP
360
29D
  0
DICTIONARY
  5
28A
330
33
100
AcDbDictionary
280
     1
281
     1
  3
ACAD_XREC_ROUNDTRIP
360
28B
  0
DICTIONARY
  5
2A8
330
42
100
AcDbDictionary
280
     1
281
     1
  3
ACAD_XREC_ROUNDTRIP
360
2A9
  0
DICTIONARY
  5
2A6
330
41
100
AcDbDictionary
280
     1
281
     1
  3
ACAD_XREC_ROUNDTRIP
360
2A7
  0
DICTIONARY
  5
2A0
330
3E
100
AcDbDictionary
280
     1
281
     1
  3
ACAD_XREC_ROUNDTRIP
360
2A1
  0
DICTIONARY
  5
2A2
330
3F
100
AcDbDictionary
280
     1
281
     1
  3
ACAD_XREC_ROUNDTRIP
360
2A3
  0
DICTIONARY
  5
292
330
37
100
AcDbDictionary
280
     1
281
     1
  3
ACAD_XREC_ROUNDTRIP
360
293
  0
DICTIONARY
  5
284
330
30
100
AcDbDictionary
280
     1
281
     1
  3
ACAD_XREC_ROUNDTRIP
360
285
  0
DICTIONARY
  5
2A4
330
40
100
AcDbDictionary
280
     1
281
     1
  3
ACAD_XREC_ROUNDTRIP
360
2A5
  0
XRECORD
  5
2AD
102
{ACAD_REACTORS
330
2AC
102
}
330
2AC
100
AcDbXrecord
280
     1
102
MATERIAL
148
0.0
149
0.0
149
0.0
 93
        0
 94
      127
282
     0
 72
     1
 77
     1
171
     1
175
     1
179
     1
273
     0
  0
XRECORD
  5
2AB
102
{ACAD_REACTORS
330
2AA
102
}
330
2AA
100
AcDbXrecord
280
     1
102
MATERIAL
148
0.0
149
0.0
149
0.0
 93
        0
 94
      127
282
     0
 72
     1
 77
     1
171
     1
175
     1
179
     1
273
     0
  0
XRECORD
  5
2AF
102
{ACAD_REACTORS
330
2AE
102
}
330
2AE
100
AcDbXrecord
280
     1
102
MATERIAL
148
0.0
149
0.0
149
0.0
 93
        0
 94
      127
282
     0
 72
     1
 77
     1
171
     1
175
     1
179
     1
273
     0
  0
XRECORD
  5
2B5
102
{ACAD_REACTORS
330
2B4
102
}
330
2B4
100
AcDbXrecord
280
     1
102
ACAD_ROUNDTRIP_2010_MLEADER_STYLE
  0
CELLSTYLEMAP
  5
2B2
102
{ACAD_REACTORS
330
2B0
102
}
330
2B0
100
AcDbCellStyleMap
 90
        3
300
CELLSTYLE
  1
TABLEFORMAT_BEGIN
 90
        5
170
     1
 91
        0
 92
    32768
 62
   257
 93
        1
300
CONTENTFORMAT
  1
CONTENTFORMAT_BEGIN
 90
        0
 91
        0
 92
        4
 93
        0
300

 40
0.0
140
1.0
 94
        5
 62
     0
340
11
144
0.25
309
CONTENTFORMAT_END
171
     1
301
MARGIN
  1
CELLMARGIN_BEGIN
 40
0.06
 40
0.06
 40
0.06
 40
0.06
 40
0.06
 40
0.06
309
CELLMARGIN_END
 94
        6
 95
        1
302
GRIDFORMAT
  1
GRIDFORMAT_BEGIN
 90
        0
 91
        1
 62
     0
 92
       -2
340
14
 93
        0
 40
0.045
309
GRIDFORMAT_END
 95
        2
302
GRIDFORMAT
  1
GRIDFORMAT_BEGIN
 90
        0
 91
        1
 62
     0
 92
       -2
340
14
 93
        0
 40
0.045
309
GRIDFORMAT_END
 95
        4
302
GRIDFORMAT
  1
GRIDFORMAT_BEGIN
 90
        0
 91
        1
 62
     0
 92
       -2
340
14
 93
        0
 40
0.045
309
GRIDFORMAT_END
 95
        8
302
GRIDFORMAT
  1
GRIDFORMAT_BEGIN
 90
        0
 91
        1
 62
     0
 92
       -2
340
14
 93
        0
 40
0.045
309
GRIDFORMAT_END
 95
       16
302
GRIDFORMAT
  1
GRIDFORMAT_BEGIN
 90
        0
 91
        1
 62
     0
 92
       -2
340
14
 93
        0
 40
0.045
309
GRIDFORMAT_END
 95
       32
302
GRIDFORMAT
  1
GRIDFORMAT_BEGIN
 90
        0
 91
        1
 62
     0
 92
       -2
340
14
 93
        0
 40
0.045
309
GRIDFORMAT_END
309
TABLEFORMAT_END
  1
CELLSTYLE_BEGIN
 90
        1
 91
        1
300
_TITLE
309
CELLSTYLE_END
300
CELLSTYLE
  1
TABLEFORMAT_BEGIN
 90
        5
170
     1
 91
        0
 92
        0
 62
   257
 93
        1
300
CONTENTFORMAT
  1
CONTENTFORMAT_BEGIN
 90
        0
 91
        0
 92
        4
 93
        0
300

 40
0.0
140
1.0
 94
        5
 62
     0
340
11
144
0.18
309
CONTENTFORMAT_END
171
     1
301
MARGIN
  1
CELLMARGIN_BEGIN
 40
0.06
 40
0.06
 40
0.06
 40
0.06
 40
0.06
 40
0.06
309
CELLMARGIN_END
 94
        6
 95
        1
302
GRIDFORMAT
  1
GRIDFORMAT_BEGIN
 90
        0
 91
        1
 62
     0
 92
       -2
340
14
 93
        0
 40
0.045
309
GRIDFORMAT_END
 95
        2
302
GRIDFORMAT
  1
GRIDFORMAT_BEGIN
 90
        0
 91
        1
 62
     0
 92
       -2
340
14
 93
        0
 40
0.045
309
GRIDFORMAT_END
 95
        4
302
GRIDFORMAT
  1
GRIDFORMAT_BEGIN
 90
        0
 91
        1
 62
     0
 92
       -2
340
14
 93
        0
 40
0.045
309
GRIDFORMAT_END
 95
        8
302
GRIDFORMAT
  1
GRIDFORMAT_BEGIN
 90
        0
 91
        1
 62
     0
 92
       -2
340
14
 93
        0
 40
0.045
309
GRIDFORMAT_END
 95
       16
302
GRIDFORMAT
  1
GRIDFORMAT_BEGIN
 90
        0
 91
        1
 62
     0
 92
       -2
340
14
 93
        0
 40
0.045
309
GRIDFORMAT_END
 95
       32
302
GRIDFORMAT
  1
GRIDFORMAT_BEGIN
 90
        0
 91
        1
 62
     0
 92
       -2
340
14
 93
        0
 40
0.045
309
GRIDFORMAT_END
309
TABLEFORMAT_END
  1
CELLSTYLE_BEGIN
 90
        2
 91
        1
300
_HEADER
309
CELLSTYLE_END
300
CELLSTYLE
  1
TABLEFORMAT_BEGIN
 90
        5
170
     1
 91
        0
 92
        0
 62
   257
 93
        1
300
CONTENTFORMAT
  1
CONTENTFORMAT_BEGIN
 90
        0
 91
        0
 92
        4
 93
        0
300

 40
0.0
140
1.0
 94
        2
 62
     0
340
11
144
0.18
309
CONTENTFORMAT_END
171
     1
301
MARGIN
  1
CELLMARGIN_BEGIN
 40
0.06
 40
0.06
 40
0.06
 40
0.06
 40
0.06
 40
0.06
309
CELLMARGIN_END
 94
        6
 95
        1
302
GRIDFORMAT
  1
GRIDFORMAT_BEGIN
 90
        0
 91
        1
 62
     0
 92
       -2
340
14
 93
        0
 40
0.045
309
GRIDFORMAT_END
 95
        2
302
GRIDFORMAT
  1
GRIDFORMAT_BEGIN
 90
        0
 91
        1
 62
     0
 92
       -2
340
14
 93
        0
 40
0.045
309
GRIDFORMAT_END
 95
        4
302
GRIDFORMAT
  1
GRIDFORMAT_BEGIN
 90
        0
 91
        1
 62
     0
 92
       -2
340
14
 93
        0
 40
0.045
309
GRIDFORMAT_END
 95
        8
302
GRIDFORMAT
  1
GRIDFORMAT_BEGIN
 90
        0
 91
        1
 62
     0
 92
       -2
340
14
 93
        0
 40
0.045
309
GRIDFORMAT_END
 95
       16
302
GRIDFORMAT
  1
GRIDFORMAT_BEGIN
 90
        0
 91
        1
 62
     0
 92
       -2
340
14
 93
        0
 40
0.045
309
GRIDFORMAT_END
 95
       32
302
GRIDFORMAT
  1
GRIDFORMAT_BEGIN
 90
        0
 91
        1
 62
     0
 92
       -2
340
14
 93
        0
 40
0.045
309
GRIDFORMAT_END
309
TABLEFORMAT_END
  1
CELLSTYLE_BEGIN
 90
        3
 91
        2
300
_DATA
309
CELLSTYLE_END
  0
XRECORD
  5
2B1
102
{ACAD_REACTORS
330
2B0
102
}
330
2B0
100
AcDbXrecord
280
     1
102
ACAD_ROUNDTRIP_PRE2007_TABLESTYLE
 90
        4
 91
        0
  1

 92
        4
 93
        0
  2

 94
        4
 95
        0
  3

  0
XRECORD
  5
283
102
{ACAD_REACTORS
330
282
102
}
330
282
100
AcDbXrecord
280
     1
102
RTVSPropertyOp0
 70
     1
102
RTVSPropertyOp1
 70
     1
102
RTVSPropertyOp2
 70
     1
102
RTVSPropertyOp3
 70
     1
102
RTVSPropertyOp4
 70
     1
102
RTVSPropertyOp5
 70
     1
102
RTVSPropertyOp6
 70
     1
102
RTVSPropertyOp7
 70
     1
102
RTVSPropertyOp8
 70
     1
102
RTVSPropertyOp9
 70
     1
102
RTVSPropertyOp10
 70
     1
102
RTVSPropertyOp11
 70
     1
102
RTVSPropertyOp12
 70
     1
102
RTVSPropertyOp13
 70
     1
102
RTVSPropertyOp14
 70
     1
102
RTVSPropertyOp15
 70
     1
102
RTVSPropertyOp16
 70
     1
102
RTVSPropertyOp17
 70
     1
102
RTVSPropertyOp18
 70
     1
102
RTVSPropertyOp19
 70
     1
102
RTVSPropertyOp20
 70
     1
102
RTVSPropertyOp21
 70
     1
102
RTVSPropertyOp22
 70
     1
102
RTVSPropertyOp23
 70
     1
102
RTVSPropertyOp24
 70
     1
102
RTVSPropertyOp25
 70
     1
102
RTVSPropertyOp26
 70
     1
102
RTVSPropertyOp27
 70
     1
102
RTVSPropertyOp28
 70
     1
102
RTVSPropertyOp29
 70
     1
102
RTVSPropertyOp30
 70
     1
102
RTVSPropertyOp31
 70
     1
102
RTVSPropertyOp32
 70
     1
102
RTVSPropertyOp33
 70
     1
102
RTVSPropertyOp34
 70
     1
102
RTVSPropertyOp35
 70
     1
102
RTVSPropertyOp36
 70
     1
102
RTVSPropertyOp37
 70
     1
102
RTVSPropertyOp38
 70
     1
102
RTVSPropertyOp39
 70
     1
102
RTVSPropertyOp40
 70
     1
102
RTVSPropertyOp41
 70
     1
102
RTVSPropertyOp42
 70
     1
102
RTVSPropertyOp43
 70
     1
102
RTVSPropertyOp44
 70
     1
102
RTVSPropertyOp45
 70
     1
102
RTVSPropertyOp46
 70
     1
102
RTVSPropertyOp47
 70
     1
102
RTVSPropertyOp48
 70
     1
102
RTVSPropertyOp49
 70
     1
102
RTVSPropertyOp50
 70
     1
102
RTVSPropertyOp51
 70
     0
102
RTVSPropertyOp52
 70
     0
102
RTVSPropertyOp53
 70
     1
102
RTVSPropertyOp54
 70
     1
102
RTVSPropertyOp55
 70
     1
102
RTVSPropertyOp56
 70
     1
102
RTVSPropertyOp57
 70
     1
102
RTVSPost2010Prop28
280
     1
102
RTVSPost2010PropOp28
 70
     1
102
RTVSPost2010Prop29
280
     1
102
RTVSPost2010PropOp29
 70
     1
102
RTVSPost2010Prop30
280
     0
102
RTVSPost2010PropOp30
 70
     1
102
RTVSPost2010Prop31
280
     0
102
RTVSPost2010PropOp31
 70
     1
102
RTVSPost2010Prop32
280
     0
102
RTVSPost2010PropOp32
 70
     1
102
RTVSPost2010Prop33
280
     0
102
RTVSPost2010PropOp33
 70
     1
102
RTVSPost2010Prop34
280
     0
102
RTVSPost2010PropOp34
 70
     1
102
RTVSPost2010Prop35
280
     0
102
RTVSPost2010PropOp35
 70
     1
102
RTVSPost2010Prop36
280
     0
102
RTVSPost2010PropOp36
 70
     1
102
RTVSPost2010Prop37
 90
       50
102
RTVSPost2010PropOp37
 70
     1
102
RTVSPost2010Prop38
140
0.0
102
RTVSPost2010PropOp38
 70
     1
102
RTVSPost2010Prop39
140
1.0
102
RTVSPost2010PropOp39
 70
     1
102
RTVSPost2010Prop40
 90
        0
102
RTVSPost2010PropOp40
 70
     1
102
RTVSPost2010Prop41ColorIndex
 90
       18
102
RTVSPost2010Prop41ColorRGB
 90
        0
102
RTVSPost2010PropOp41
 70
     1
102
RTVSPost2010Prop42
 90
       50
102
RTVSPost2010PropOp42
 70
     1
102
RTVSPost2010Prop43
 90
        3
102
RTVSPost2010PropOp43
 70
     1
102
RTVSPost2010Prop44ColorIndex
 90
        5
102
RTVSPost2010Prop44ColorRGB
 90
      255
102
RTVSPost2010PropOp44
 70
     1
102
RTVSPost2010Prop45
280
     0
102
RTVSPost2010PropOp45
 70
     1
102
RTVSPost2010Prop46
 90
       50
102
RTVSPost2010PropOp46
 70
     1
102
RTVSPost2010Prop47
 90
       50
102
RTVSPost2010PropOp47
 70
     1
102
RTVSPost2010Prop48
 90
       50
102
RTVSPost2010PropOp48
 70
     1
102
RTVSPost2010Prop49
280
     0
102
RTVSPost2010PropOp49
 70
     1
102
RTVSPost2010Prop50
 90
       50
102
RTVSPost2010PropOp50
 70
     1
102
RTVSPost2010Prop51ColorIndex
 90
      256
102
RTVSPost2010Prop51ColorRGB
 90
-16777216
102
RTVSPost2010PropOp51
 70
     0
102
RTVSPost2010Prop52
140
1.0
102
RTVSPost2010PropOp52
 70
     0
102
RTVSPost2010Prop53
 90
        2
102
RTVSPost2010PropOp53
 70
     1
102
RTVSPost2010Prop54
  1
strokes_ogs.tif
102
RTVSPost2010PropOp54
 70
     1
102
RTVSPost2010Prop55
280
     0
102
RTVSPost2010PropOp55
 70
     1
102
RTVSPost2010Prop56
140
1.0
102
RTVSPost2010PropOp56
 70
     1
102
RTVSPost2010Prop57
140
1.0
102
RTVSPost2010PropOp57
 70
     1
  0
XRECORD
  5
289
102
{ACAD_REACTORS
330
288
102
}
330
288
100
AcDbXrecord
280
     1
102
RTVSPropertyOp0
 70
     1
102
RTVSPropertyOp1
 70
     1
102
RTVSPropertyOp2
 70
     1
102
RTVSPropertyOp3
 70
     1
102
RTVSPropertyOp4
 70
     1
102
RTVSPropertyOp5
 70
     1
102
RTVSPropertyOp6
 70
     1
102
RTVSPropertyOp7
 70
     1
102
RTVSPropertyOp8
 70
     1
102
RTVSPropertyOp9
 70
     1
102
RTVSPropertyOp10
 70
     1
102
RTVSPropertyOp11
 70
     1
102
RTVSPropertyOp12
 70
     1
102
RTVSPropertyOp13
 70
     1
102
RTVSPropertyOp14
 70
     1
102
RTVSPropertyOp15
 70
     1
102
RTVSPropertyOp16
 70
     1
102
RTVSPropertyOp17
 70
     1
102
RTVSPropertyOp18
 70
     1
102
RTVSPropertyOp19
 70
     1
102
RTVSPropertyOp20
 70
     1
102
RTVSPropertyOp21
 70
     1
102
RTVSPropertyOp22
 70
     1
102
RTVSPropertyOp23
 70
     1
102
RTVSPropertyOp24
 70
     1
102
RTVSPropertyOp25
 70
     1
102
RTVSPropertyOp26
 70
     1
102
RTVSPropertyOp27
 70
     1
102
RTVSPropertyOp28
 70
     1
102
RTVSPropertyOp29
 70
     1
102
RTVSPropertyOp30
 70
     1
102
RTVSPropertyOp31
 70
     1
102
RTVSPropertyOp32
 70
     1
102
RTVSPropertyOp33
 70
     1
102
RTVSPropertyOp34
 70
     1
102
RTVSPropertyOp35
 70
     1
102
RTVSPropertyOp36
 70
     1
102
RTVSPropertyOp37
 70
     1
102
RTVSPropertyOp38
 70
     1
102
RTVSPropertyOp39
 70
     1
102
RTVSPropertyOp40
 70
     1
102
RTVSPropertyOp41
 70
     1
102
RTVSPropertyOp42
 70
     1
102
RTVSPropertyOp43
 70
     1
102
RTVSPropertyOp44
 70
     1
102
RTVSPropertyOp45
 70
     1
102
RTVSPropertyOp46
 70
     1
102
RTVSPropertyOp47
 70
     1
102
RTVSPropertyOp48
 70
     1
102
RTVSPropertyOp49
 70
     1
102
RTVSPropertyOp50
 70
     1
102
RTVSPropertyOp51
 70
     0
102
RTVSPropertyOp52
 70
     0
102
RTVSPropertyOp53
 70
     1
102
RTVSPropertyOp54
 70
     1
102
RTVSPropertyOp55
 70
     1
102
RTVSPropertyOp56
 70
     1
102
RTVSPropertyOp57
 70
     1
102
RTVSPost2010Prop28
280
     0
102
RTVSPost2010PropOp28
 70
     1
102
RTVSPost2010Prop29
280
     1
102
RTVSPost2010PropOp29
 70
     1
102
RTVSPost2010Prop30
280
     1
102
RTVSPost2010PropOp30
 70
     1
102
RTVSPost2010Prop31
280
     0
102
RTVSPost2010PropOp31
 70
     1
102
RTVSPost2010Prop32
280
     0
102
RTVSPost2010PropOp32
 70
     1
102
RTVSPost2010Prop33
280
     0
102
RTVSPost2010PropOp33
 70
     1
102
RTVSPost2010Prop34
280
     0
102
RTVSPost2010PropOp34
 70
     1
102
RTVSPost2010Prop35
280
     0
102
RTVSPost2010PropOp35
 70
     1
102
RTVSPost2010Prop36
280
     0
102
RTVSPost2010PropOp36
 70
     1
102
RTVSPost2010Prop37
 90
       50
102
RTVSPost2010PropOp37
 70
     1
102
RTVSPost2010Prop38
140
0.0
102
RTVSPost2010PropOp38
 70
     1
102
RTVSPost2010Prop39
140
1.0
102
RTVSPost2010PropOp39
 70
     1
102
RTVSPost2010Prop40
 90
        0
102
RTVSPost2010PropOp40
 70
     1
102
RTVSPost2010Prop41ColorIndex
 90
       18
102
RTVSPost2010Prop41ColorRGB
 90
        0
102
RTVSPost2010PropOp41
 70
     1
102
RTVSPost2010Prop42
 90
       50
102
RTVSPost2010PropOp42
 70
     1
102
RTVSPost2010Prop43
 90
        3
102
RTVSPost2010PropOp43
 70
     1
102
RTVSPost2010Prop44ColorIndex
 90
        5
102
RTVSPost2010Prop44ColorRGB
 90
      255
102
RTVSPost2010PropOp44
 70
     1
102
RTVSPost2010Prop45
280
     0
102
RTVSPost2010PropOp45
 70
     1
102
RTVSPost2010Prop46
 90
       50
102
RTVSPost2010PropOp46
 70
     1
102
RTVSPost2010Prop47
 90
       50
102
RTVSPost2010PropOp47
 70
     1
102
RTVSPost2010Prop48
 90
       50
102
RTVSPost2010PropOp48
 70
     1
102
RTVSPost2010Prop49
280
     0
102
RTVSPost2010PropOp49
 70
     1
102
RTVSPost2010Prop50
 90
       50
102
RTVSPost2010PropOp50
 70
     1
102
RTVSPost2010Prop51ColorIndex
 90
      256
102
RTVSPost2010Prop51ColorRGB
 90
-16777216
102
RTVSPost2010PropOp51
 70
     0
102
RTVSPost2010Prop52
140
1.0
102
RTVSPost2010PropOp52
 70
     0
102
RTVSPost2010Prop53
 90
        2
102
RTVSPost2010PropOp53
 70
     1
102
RTVSPost2010Prop54
  1
strokes_ogs.tif
102
RTVSPost2010PropOp54
 70
     1
102
RTVSPost2010Prop55
280
     0
102
RTVSPost2010PropOp55
 70
     1
102
RTVSPost2010Prop56
140
1.0
102
RTVSPost2010PropOp56
 70
     1
102
RTVSPost2010Prop57
140
1.0
102
RTVSPost2010PropOp57
 70
     1
  0
XRECORD
  5
291
102
{ACAD_REACTORS
330
290
102
}
330
290
100
AcDbXrecord
280
     1
102
RTVSPropertyOp0
 70
     1
102
RTVSPropertyOp1
 70
     1
102
RTVSPropertyOp2
 70
     1
102
RTVSPropertyOp3
 70
     1
102
RTVSPropertyOp4
 70
     1
102
RTVSPropertyOp5
 70
     1
102
RTVSPropertyOp6
 70
     1
102
RTVSPropertyOp7
 70
     1
102
RTVSPropertyOp8
 70
     1
102
RTVSPropertyOp9
 70
     1
102
RTVSPropertyOp10
 70
     1
102
RTVSPropertyOp11
 70
     1
102
RTVSPropertyOp12
 70
     1
102
RTVSPropertyOp13
 70
     1
102
RTVSPropertyOp14
 70
     1
102
RTVSPropertyOp15
 70
     1
102
RTVSPropertyOp16
 70
     1
102
RTVSPropertyOp17
 70
     1
102
RTVSPropertyOp18
 70
     1
102
RTVSPropertyOp19
 70
     1
102
RTVSPropertyOp20
 70
     1
102
RTVSPropertyOp21
 70
     1
102
RTVSPropertyOp22
 70
     1
102
RTVSPropertyOp23
 70
     1
102
RTVSPropertyOp24
 70
     1
102
RTVSPropertyOp25
 70
     1
102
RTVSPropertyOp26
 70
     1
102
RTVSPropertyOp27
 70
     1
102
RTVSPropertyOp28
 70
     1
102
RTVSPropertyOp29
 70
     1
102
RTVSPropertyOp30
 70
     1
102
RTVSPropertyOp31
 70
     1
102
RTVSPropertyOp32
 70
     1
102
RTVSPropertyOp33
 70
     1
102
RTVSPropertyOp34
 70
     1
102
RTVSPropertyOp35
 70
     1
102
RTVSPropertyOp36
 70
     1
102
RTVSPropertyOp37
 70
     1
102
RTVSPropertyOp38
 70
     1
102
RTVSPropertyOp39
 70
     1
102
RTVSPropertyOp40
 70
     1
102
RTVSPropertyOp41
 70
     1
102
RTVSPropertyOp42
 70
     1
102
RTVSPropertyOp43
 70
     1
102
RTVSPropertyOp44
 70
     1
102
RTVSPropertyOp45
 70
     1
102
RTVSPropertyOp46
 70
     1
102
RTVSPropertyOp47
 70
     1
102
RTVSPropertyOp48
 70
     1
102
RTVSPropertyOp49
 70
     1
102
RTVSPropertyOp50
 70
     1
102
RTVSPropertyOp51
 70
     0
102
RTVSPropertyOp52
 70
     0
102
RTVSPropertyOp53
 70
     1
102
RTVSPropertyOp54
 70
     1
102
RTVSPropertyOp55
 70
     1
102
RTVSPropertyOp56
 70
     1
102
RTVSPropertyOp57
 70
     1
102
RTVSPost2010Prop28
280
     0
102
RTVSPost2010PropOp28
 70
     1
102
RTVSPost2010Prop29
280
     1
102
RTVSPost2010PropOp29
 70
     1
102
RTVSPost2010Prop30
280
     1
102
RTVSPost2010PropOp30
 70
     1
102
RTVSPost2010Prop31
280
     0
102
RTVSPost2010PropOp31
 70
     1
102
RTVSPost2010Prop32
280
     0
102
RTVSPost2010PropOp32
 70
     1
102
RTVSPost2010Prop33
280
     0
102
RTVSPost2010PropOp33
 70
     1
102
RTVSPost2010Prop34
280
     0
102
RTVSPost2010PropOp34
 70
     1
102
RTVSPost2010Prop35
280
     0
102
RTVSPost2010PropOp35
 70
     1
102
RTVSPost2010Prop36
280
     0
102
RTVSPost2010PropOp36
 70
     1
102
RTVSPost2010Prop37
 90
       50
102
RTVSPost2010PropOp37
 70
     1
102
RTVSPost2010Prop38
140
0.0
102
RTVSPost2010PropOp38
 70
     1
102
RTVSPost2010Prop39
140
1.0
102
RTVSPost2010PropOp39
 70
     1
102
RTVSPost2010Prop40
 90
        0
102
RTVSPost2010PropOp40
 70
     1
102
RTVSPost2010Prop41ColorIndex
 90
       18
102
RTVSPost2010Prop41ColorRGB
 90
        0
102
RTVSPost2010PropOp41
 70
     1
102
RTVSPost2010Prop42
 90
       50
102
RTVSPost2010PropOp42
 70
     1
102
RTVSPost2010Prop43
 90
        3
102
RTVSPost2010PropOp43
 70
     1
102
RTVSPost2010Prop44ColorIndex
 90
        5
102
RTVSPost2010Prop44ColorRGB
 90
      255
102
RTVSPost2010PropOp44
 70
     1
102
RTVSPost2010Prop45
280
     0
102
RTVSPost2010PropOp45
 70
     1
102
RTVSPost2010Prop46
 90
       50
102
RTVSPost2010PropOp46
 70
     1
102
RTVSPost2010Prop47
 90
       50
102
RTVSPost2010PropOp47
 70
     1
102
RTVSPost2010Prop48
 90
       50
102
RTVSPost2010PropOp48
 70
     1
102
RTVSPost2010Prop49
280
     0
102
RTVSPost2010PropOp49
 70
     1
102
RTVSPost2010Prop50
 90
       50
102
RTVSPost2010PropOp50
 70
     1
102
RTVSPost2010Prop51ColorIndex
 90
      256
102
RTVSPost2010Prop51ColorRGB
 90
-16777216
102
RTVSPost2010PropOp51
 70
     0
102
RTVSPost2010Prop52
140
1.0
102
RTVSPost2010PropOp52
 70
     0
102
RTVSPost2010Prop53
 90
        2
102
RTVSPost2010PropOp53
 70
     1
102
RTVSPost2010Prop54
  1
strokes_ogs.tif
102
RTVSPost2010PropOp54
 70
     1
102
RTVSPost2010Prop55
280
     0
102
RTVSPost2010PropOp55
 70
     1
102
RTVSPost2010Prop56
140
1.0
102
RTVSPost2010PropOp56
 70
     1
102
RTVSPost2010Prop57
140
1.0
102
RTVSPost2010PropOp57
 70
     1
  0
XRECORD
  5
299
102
{ACAD_REACTORS
330
298
102
}
330
298
100
AcDbXrecord
280
     1
102
RTVSPropertyOp0
 70
     1
102
RTVSPropertyOp1
 70
     1
102
RTVSPropertyOp2
 70
     1
102
RTVSPropertyOp3
 70
     1
102
RTVSPropertyOp4
 70
     1
102
RTVSPropertyOp5
 70
     1
102
RTVSPropertyOp6
 70
     1
102
RTVSPropertyOp7
 70
     1
102
RTVSPropertyOp8
 70
     1
102
RTVSPropertyOp9
 70
     1
102
RTVSPropertyOp10
 70
     1
102
RTVSPropertyOp11
 70
     1
102
RTVSPropertyOp12
 70
     1
102
RTVSPropertyOp13
 70
     1
102
RTVSPropertyOp14
 70
     1
102
RTVSPropertyOp15
 70
     1
102
RTVSPropertyOp16
 70
     1
102
RTVSPropertyOp17
 70
     1
102
RTVSPropertyOp18
 70
     1
102
RTVSPropertyOp19
 70
     1
102
RTVSPropertyOp20
 70
     1
102
RTVSPropertyOp21
 70
     1
102
RTVSPropertyOp22
 70
     1
102
RTVSPropertyOp23
 70
     1
102
RTVSPropertyOp24
 70
     1
102
RTVSPropertyOp25
 70
     1
102
RTVSPropertyOp26
 70
     1
102
RTVSPropertyOp27
 70
     1
102
RTVSPropertyOp28
 70
     1
102
RTVSPropertyOp29
 70
     1
102
RTVSPropertyOp30
 70
     1
102
RTVSPropertyOp31
 70
     1
102
RTVSPropertyOp32
 70
     1
102
RTVSPropertyOp33
 70
     1
102
RTVSPropertyOp34
 70
     1
102
RTVSPropertyOp35
 70
     1
102
RTVSPropertyOp36
 70
     1
102
RTVSPropertyOp37
 70
     1
102
RTVSPropertyOp38
 70
     1
102
RTVSPropertyOp39
 70
     1
102
RTVSPropertyOp40
 70
     1
102
RTVSPropertyOp41
 70
     1
102
RTVSPropertyOp42
 70
     1
102
RTVSPropertyOp43
 70
     1
102
RTVSPropertyOp44
 70
     1
102
RTVSPropertyOp45
 70
     1
102
RTVSPropertyOp46
 70
     1
102
RTVSPropertyOp47
 70
     1
102
RTVSPropertyOp48
 70
     1
102
RTVSPropertyOp49
 70
     1
102
RTVSPropertyOp50
 70
     1
102
RTVSPropertyOp51
 70
     0
102
RTVSPropertyOp52
 70
     0
102
RTVSPropertyOp53
 70
     1
102
RTVSPropertyOp54
 70
     1
102
RTVSPropertyOp55
 70
     1
102
RTVSPropertyOp56
 70
     1
102
RTVSPropertyOp57
 70
     1
102
RTVSPost2010Prop28
280
     0
102
RTVSPost2010PropOp28
 70
     1
102
RTVSPost2010Prop29
280
     1
102
RTVSPost2010PropOp29
 70
     1
102
RTVSPost2010Prop30
280
     1
102
RTVSPost2010PropOp30
 70
     1
102
RTVSPost2010Prop31
280
     0
102
RTVSPost2010PropOp31
 70
     1
102
RTVSPost2010Prop32
280
     0
102
RTVSPost2010PropOp32
 70
     1
102
RTVSPost2010Prop33
280
     0
102
RTVSPost2010PropOp33
 70
     1
102
RTVSPost2010Prop34
280
     0
102
RTVSPost2010PropOp34
 70
     1
102
RTVSPost2010Prop35
280
     0
102
RTVSPost2010PropOp35
 70
     1
102
RTVSPost2010Prop36
280
     0
102
RTVSPost2010PropOp36
 70
     1
102
RTVSPost2010Prop37
 90
       50
102
RTVSPost2010PropOp37
 70
     1
102
RTVSPost2010Prop38
140
0.0
102
RTVSPost2010PropOp38
 70
     1
102
RTVSPost2010Prop39
140
1.0
102
RTVSPost2010PropOp39
 70
     1
102
RTVSPost2010Prop40
 90
        0
102
RTVSPost2010PropOp40
 70
     1
102
RTVSPost2010Prop41ColorIndex
 90
       18
102
RTVSPost2010Prop41ColorRGB
 90
        0
102
RTVSPost2010PropOp41
 70
     1
102
RTVSPost2010Prop42
 90
       50
102
RTVSPost2010PropOp42
 70
     1
102
RTVSPost2010Prop43
 90
        3
102
RTVSPost2010PropOp43
 70
     1
102
RTVSPost2010Prop44ColorIndex
 90
        5
102
RTVSPost2010Prop44ColorRGB
 90
      255
102
RTVSPost2010PropOp44
 70
     1
102
RTVSPost2010Prop45
280
     0
102
RTVSPost2010PropOp45
 70
     1
102
RTVSPost2010Prop46
 90
       50
102
RTVSPost2010PropOp46
 70
     1
102
RTVSPost2010Prop47
 90
       50
102
RTVSPost2010PropOp47
 70
     1
102
RTVSPost2010Prop48
 90
       50
102
RTVSPost2010PropOp48
 70
     1
102
RTVSPost2010Prop49
280
     0
102
RTVSPost2010PropOp49
 70
     1
102
RTVSPost2010Prop50
 90
       50
102
RTVSPost2010PropOp50
 70
     1
102
RTVSPost2010Prop51ColorIndex
 90
      256
102
RTVSPost2010Prop51ColorRGB
 90
-16777216
102
RTVSPost2010PropOp51
 70
     0
102
RTVSPost2010Prop52
140
1.0
102
RTVSPost2010PropOp52
 70
     0
102
RTVSPost2010Prop53
 90
        2
102
RTVSPost2010PropOp53
 70
     1
102
RTVSPost2010Prop54
  1
strokes_ogs.tif
102
RTVSPost2010PropOp54
 70
     1
102
RTVSPost2010Prop55
280
     0
102
RTVSPost2010PropOp55
 70
     1
102
RTVSPost2010Prop56
140
1.0
102
RTVSPost2010PropOp56
 70
     1
102
RTVSPost2010Prop57
140
1.0
102
RTVSPost2010PropOp57
 70
     1
  0
XRECORD
  5
28D
102
{ACAD_REACTORS
330
28C
102
}
330
28C
100
AcDbXrecord
280
     1
102
RTVSPropertyOp0
 70
     1
102
RTVSPropertyOp1
 70
     1
102
RTVSPropertyOp2
 70
     1
102
RTVSPropertyOp3
 70
     1
102
RTVSPropertyOp4
 70
     1
102
RTVSPropertyOp5
 70
     1
102
RTVSPropertyOp6
 70
     1
102
RTVSPropertyOp7
 70
     1
102
RTVSPropertyOp8
 70
     1
102
RTVSPropertyOp9
 70
     1
102
RTVSPropertyOp10
 70
     1
102
RTVSPropertyOp11
 70
     1
102
RTVSPropertyOp12
 70
     1
102
RTVSPropertyOp13
 70
     1
102
RTVSPropertyOp14
 70
     1
102
RTVSPropertyOp15
 70
     1
102
RTVSPropertyOp16
 70
     1
102
RTVSPropertyOp17
 70
     1
102
RTVSPropertyOp18
 70
     1
102
RTVSPropertyOp19
 70
     1
102
RTVSPropertyOp20
 70
     1
102
RTVSPropertyOp21
 70
     1
102
RTVSPropertyOp22
 70
     1
102
RTVSPropertyOp23
 70
     1
102
RTVSPropertyOp24
 70
     1
102
RTVSPropertyOp25
 70
     1
102
RTVSPropertyOp26
 70
     1
102
RTVSPropertyOp27
 70
     1
102
RTVSPropertyOp28
 70
     1
102
RTVSPropertyOp29
 70
     1
102
RTVSPropertyOp30
 70
     1
102
RTVSPropertyOp31
 70
     1
102
RTVSPropertyOp32
 70
     1
102
RTVSPropertyOp33
 70
     1
102
RTVSPropertyOp34
 70
     1
102
RTVSPropertyOp35
 70
     1
102
RTVSPropertyOp36
 70
     1
102
RTVSPropertyOp37
 70
     1
102
RTVSPropertyOp38
 70
     1
102
RTVSPropertyOp39
 70
     1
102
RTVSPropertyOp40
 70
     1
102
RTVSPropertyOp41
 70
     1
102
RTVSPropertyOp42
 70
     1
102
RTVSPropertyOp43
 70
     1
102
RTVSPropertyOp44
 70
     1
102
RTVSPropertyOp45
 70
     1
102
RTVSPropertyOp46
 70
     1
102
RTVSPropertyOp47
 70
     1
102
RTVSPropertyOp48
 70
     1
102
RTVSPropertyOp49
 70
     1
102
RTVSPropertyOp50
 70
     1
102
RTVSPropertyOp51
 70
     0
102
RTVSPropertyOp52
 70
     0
102
RTVSPropertyOp53
 70
     1
102
RTVSPropertyOp54
 70
     1
102
RTVSPropertyOp55
 70
     1
102
RTVSPropertyOp56
 70
     1
102
RTVSPropertyOp57
 70
     1
102
RTVSPost2010Prop28
280
     0
102
RTVSPost2010PropOp28
 70
     1
102
RTVSPost2010Prop29
280
     1
102
RTVSPost2010PropOp29
 70
     1
102
RTVSPost2010Prop30
280
     1
102
RTVSPost2010PropOp30
 70
     1
102
RTVSPost2010Prop31
280
     0
102
RTVSPost2010PropOp31
 70
     1
102
RTVSPost2010Prop32
280
     0
102
RTVSPost2010PropOp32
 70
     1
102
RTVSPost2010Prop33
280
     0
102
RTVSPost2010PropOp33
 70
     1
102
RTVSPost2010Prop34
280
     0
102
RTVSPost2010PropOp34
 70
     1
102
RTVSPost2010Prop35
280
     0
102
RTVSPost2010PropOp35
 70
     1
102
RTVSPost2010Prop36
280
     0
102
RTVSPost2010PropOp36
 70
     1
102
RTVSPost2010Prop37
 90
       50
102
RTVSPost2010PropOp37
 70
     1
102
RTVSPost2010Prop38
140
0.0
102
RTVSPost2010PropOp38
 70
     1
102
RTVSPost2010Prop39
140
1.0
102
RTVSPost2010PropOp39
 70
     1
102
RTVSPost2010Prop40
 90
        0
102
RTVSPost2010PropOp40
 70
     1
102
RTVSPost2010Prop41ColorIndex
 90
       18
102
RTVSPost2010Prop41ColorRGB
 90
        0
102
RTVSPost2010PropOp41
 70
     1
102
RTVSPost2010Prop42
 90
       50
102
RTVSPost2010PropOp42
 70
     1
102
RTVSPost2010Prop43
 90
        3
102
RTVSPost2010PropOp43
 70
     1
102
RTVSPost2010Prop44ColorIndex
 90
        5
102
RTVSPost2010Prop44ColorRGB
 90
      255
102
RTVSPost2010PropOp44
 70
     1
102
RTVSPost2010Prop45
280
     0
102
RTVSPost2010PropOp45
 70
     1
102
RTVSPost2010Prop46
 90
       50
102
RTVSPost2010PropOp46
 70
     1
102
RTVSPost2010Prop47
 90
       50
102
RTVSPost2010PropOp47
 70
     1
102
RTVSPost2010Prop48
 90
       50
102
RTVSPost2010PropOp48
 70
     1
102
RTVSPost2010Prop49
280
     0
102
RTVSPost2010PropOp49
 70
     1
102
RTVSPost2010Prop50
 90
       50
102
RTVSPost2010PropOp50
 70
     1
102
RTVSPost2010Prop51ColorIndex
 90
      256
102
RTVSPost2010Prop51ColorRGB
 90
-16777216
102
RTVSPost2010PropOp51
 70
     0
102
RTVSPost2010Prop52
140
1.0
102
RTVSPost2010PropOp52
 70
     0
102
RTVSPost2010Prop53
 90
        2
102
RTVSPost2010PropOp53
 70
     1
102
RTVSPost2010Prop54
  1
strokes_ogs.tif
102
RTVSPost2010PropOp54
 70
     1
102
RTVSPost2010Prop55
280
     0
102
RTVSPost2010PropOp55
 70
     1
102
RTVSPost2010Prop56
140
1.0
102
RTVSPost2010PropOp56
 70
     1
102
RTVSPost2010Prop57
140
1.0
102
RTVSPost2010PropOp57
 70
     1
  0
XRECORD
  5
28F
102
{ACAD_REACTORS
330
28E
102
}
330
28E
100
AcDbXrecord
280
     1
102
RTVSPropertyOp0
 70
     1
102
RTVSPropertyOp1
 70
     1
102
RTVSPropertyOp2
 70
     1
102
RTVSPropertyOp3
 70
     1
102
RTVSPropertyOp4
 70
     1
102
RTVSPropertyOp5
 70
     1
102
RTVSPropertyOp6
 70
     1
102
RTVSPropertyOp7
 70
     1
102
RTVSPropertyOp8
 70
     1
102
RTVSPropertyOp9
 70
     1
102
RTVSPropertyOp10
 70
     1
102
RTVSPropertyOp11
 70
     1
102
RTVSPropertyOp12
 70
     1
102
RTVSPropertyOp13
 70
     1
102
RTVSPropertyOp14
 70
     1
102
RTVSPropertyOp15
 70
     1
102
RTVSPropertyOp16
 70
     1
102
RTVSPropertyOp17
 70
     1
102
RTVSPropertyOp18
 70
     1
102
RTVSPropertyOp19
 70
     1
102
RTVSPropertyOp20
 70
     1
102
RTVSPropertyOp21
 70
     1
102
RTVSPropertyOp22
 70
     1
102
RTVSPropertyOp23
 70
     1
102
RTVSPropertyOp24
 70
     1
102
RTVSPropertyOp25
 70
     1
102
RTVSPropertyOp26
 70
     1
102
RTVSPropertyOp27
 70
     1
102
RTVSPropertyOp28
 70
     1
102
RTVSPropertyOp29
 70
     1
102
RTVSPropertyOp30
 70
     1
102
RTVSPropertyOp31
 70
     1
102
RTVSPropertyOp32
 70
     1
102
RTVSPropertyOp33
 70
     1
102
RTVSPropertyOp34
 70
     1
102
RTVSPropertyOp35
 70
     1
102
RTVSPropertyOp36
 70
     1
102
RTVSPropertyOp37
 70
     1
102
RTVSPropertyOp38
 70
     1
102
RTVSPropertyOp39
 70
     1
102
RTVSPropertyOp40
 70
     1
102
RTVSPropertyOp41
 70
     1
102
RTVSPropertyOp42
 70
     1
102
RTVSPropertyOp43
 70
     1
102
RTVSPropertyOp44
 70
     1
102
RTVSPropertyOp45
 70
     1
102
RTVSPropertyOp46
 70
     1
102
RTVSPropertyOp47
 70
     1
102
RTVSPropertyOp48
 70
     1
102
RTVSPropertyOp49
 70
     1
102
RTVSPropertyOp50
 70
     1
102
RTVSPropertyOp51
 70
     0
102
RTVSPropertyOp52
 70
     0
102
RTVSPropertyOp53
 70
     1
102
RTVSPropertyOp54
 70
     1
102
RTVSPropertyOp55
 70
     1
102
RTVSPropertyOp56
 70
     1
102
RTVSPropertyOp57
 70
     1
102
RTVSPost2010Prop28
280
     0
102
RTVSPost2010PropOp28
 70
     1
102
RTVSPost2010Prop29
280
     1
102
RTVSPost2010PropOp29
 70
     1
102
RTVSPost2010Prop30
280
     1
102
RTVSPost2010PropOp30
 70
     1
102
RTVSPost2010Prop31
280
     0
102
RTVSPost2010PropOp31
 70
     1
102
RTVSPost2010Prop32
280
     0
102
RTVSPost2010PropOp32
 70
     1
102
RTVSPost2010Prop33
280
     0
102
RTVSPost2010PropOp33
 70
     1
102
RTVSPost2010Prop34
280
     0
102
RTVSPost2010PropOp34
 70
     1
102
RTVSPost2010Prop35
280
     0
102
RTVSPost2010PropOp35
 70
     1
102
RTVSPost2010Prop36
280
     0
102
RTVSPost2010PropOp36
 70
     1
102
RTVSPost2010Prop37
 90
       50
102
RTVSPost2010PropOp37
 70
     1
102
RTVSPost2010Prop38
140
0.0
102
RTVSPost2010PropOp38
 70
     1
102
RTVSPost2010Prop39
140
1.0
102
RTVSPost2010PropOp39
 70
     1
102
RTVSPost2010Prop40
 90
        0
102
RTVSPost2010PropOp40
 70
     1
102
RTVSPost2010Prop41ColorIndex
 90
       18
102
RTVSPost2010Prop41ColorRGB
 90
        0
102
RTVSPost2010PropOp41
 70
     1
102
RTVSPost2010Prop42
 90
       50
102
RTVSPost2010PropOp42
 70
     1
102
RTVSPost2010Prop43
 90
        3
102
RTVSPost2010PropOp43
 70
     1
102
RTVSPost2010Prop44ColorIndex
 90
        5
102
RTVSPost2010Prop44ColorRGB
 90
      255
102
RTVSPost2010PropOp44
 70
     1
102
RTVSPost2010Prop45
280
     0
102
RTVSPost2010PropOp45
 70
     1
102
RTVSPost2010Prop46
 90
       50
102
RTVSPost2010PropOp46
 70
     1
102
RTVSPost2010Prop47
 90
       50
102
RTVSPost2010PropOp47
 70
     1
102
RTVSPost2010Prop48
 90
       50
102
RTVSPost2010PropOp48
 70
     1
102
RTVSPost2010Prop49
280
     0
102
RTVSPost2010PropOp49
 70
     1
102
RTVSPost2010Prop50
 90
       50
102
RTVSPost2010PropOp50
 70
     1
102
RTVSPost2010Prop51ColorIndex
 90
      256
102
RTVSPost2010Prop51ColorRGB
 90
-16777216
102
RTVSPost2010PropOp51
 70
     0
102
RTVSPost2010Prop52
140
1.0
102
RTVSPost2010PropOp52
 70
     0
102
RTVSPost2010Prop53
 90
        2
102
RTVSPost2010PropOp53
 70
     1
102
RTVSPost2010Prop54
  1
strokes_ogs.tif
102
RTVSPost2010PropOp54
 70
     1
102
RTVSPost2010Prop55
280
     0
102
RTVSPost2010PropOp55
 70
     1
102
RTVSPost2010Prop56
140
1.0
102
RTVSPost2010PropOp56
 70
     1
102
RTVSPost2010Prop57
140
1.0
102
RTVSPost2010PropOp57
 70
     1
  0
XRECORD
  5
29F
102
{ACAD_REACTORS
330
29E
102
}
330
29E
100
AcDbXrecord
280
     1
102
RTVSPropertyOp0
 70
     0
102
RTVSPropertyOp1
 70
     0
102
RTVSPropertyOp2
 70
     0
102
RTVSPropertyOp3
 70
     0
102
RTVSPropertyOp4
 70
     0
102
RTVSPropertyOp5
 70
     0
102
RTVSPropertyOp6
 70
     0
102
RTVSPropertyOp7
 70
     0
102
RTVSPropertyOp8
 70
     0
102
RTVSPropertyOp9
 70
     0
102
RTVSPropertyOp10
 70
     0
102
RTVSPropertyOp11
 70
     0
102
RTVSPropertyOp12
 70
     0
102
RTVSPropertyOp13
 70
     0
102
RTVSPropertyOp14
 70
     2
102
RTVSPropertyOp15
 70
     0
102
RTVSPropertyOp16
 70
     0
102
RTVSPropertyOp17
 70
     0
102
RTVSPropertyOp18
 70
     0
102
RTVSPropertyOp19
 70
     0
102
RTVSPropertyOp20
 70
     0
102
RTVSPropertyOp21
 70
     0
102
RTVSPropertyOp22
 70
     0
102
RTVSPropertyOp23
 70
     0
102
RTVSPropertyOp24
 70
     0
102
RTVSPropertyOp25
 70
     0
102
RTVSPropertyOp26
 70
     0
102
RTVSPropertyOp27
 70
     0
102
RTVSPropertyOp28
 70
     0
102
RTVSPropertyOp29
 70
     0
102
RTVSPropertyOp30
 70
     0
102
RTVSPropertyOp31
 70
     0
102
RTVSPropertyOp32
 70
     0
102
RTVSPropertyOp33
 70
     0
102
RTVSPropertyOp34
 70
     0
102
RTVSPropertyOp35
 70
     0
102
RTVSPropertyOp36
 70
     0
102
RTVSPropertyOp37
 70
     0
102
RTVSPropertyOp38
 70
     0
102
RTVSPropertyOp39
 70
     0
102
RTVSPropertyOp40
 70
     0
102
RTVSPropertyOp41
 70
     0
102
RTVSPropertyOp42
 70
     0
102
RTVSPropertyOp43
 70
     0
102
RTVSPropertyOp44
 70
     0
102
RTVSPropertyOp45
 70
     0
102
RTVSPropertyOp46
 70
     0
102
RTVSPropertyOp47
 70
     0
102
RTVSPropertyOp48
 70
     0
102
RTVSPropertyOp49
 70
     0
102
RTVSPropertyOp50
 70
     0
102
RTVSPropertyOp51
 70
     0
102
RTVSPropertyOp52
 70
     0
102
RTVSPropertyOp53
 70
     0
102
RTVSPropertyOp54
 70
     0
102
RTVSPropertyOp55
 70
     0
102
RTVSPropertyOp56
 70
     0
102
RTVSPropertyOp57
 70
     0
102
RTVSPost2010Prop28
280
     0
102
RTVSPost2010PropOp28
 70
     0
102
RTVSPost2010Prop29
280
     1
102
RTVSPost2010PropOp29
 70
     0
102
RTVSPost2010Prop30
280
     1
102
RTVSPost2010PropOp30
 70
     0
102
RTVSPost2010Prop31
280
     0
102
RTVSPost2010PropOp31
 70
     0
102
RTVSPost2010Prop32
280
     0
102
RTVSPost2010PropOp32
 70
     0
102
RTVSPost2010Prop33
280
     0
102
RTVSPost2010PropOp33
 70
     0
102
RTVSPost2010Prop34
280
     0
102
RTVSPost2010PropOp34
 70
     0
102
RTVSPost2010Prop35
280
     0
102
RTVSPost2010PropOp35
 70
     0
102
RTVSPost2010Prop36
280
     0
102
RTVSPost2010PropOp36
 70
     0
102
RTVSPost2010Prop37
 90
       50
102
RTVSPost2010PropOp37
 70
     0
102
RTVSPost2010Prop38
140
0.0
102
RTVSPost2010PropOp38
 70
     0
102
RTVSPost2010Prop39
140
1.0
102
RTVSPost2010PropOp39
 70
     0
102
RTVSPost2010Prop40
 90
        0
102
RTVSPost2010PropOp40
 70
     0
102
RTVSPost2010Prop41ColorIndex
 90
       18
102
RTVSPost2010Prop41ColorRGB
 90
        0
102
RTVSPost2010PropOp41
 70
     0
102
RTVSPost2010Prop42
 90
       50
102
RTVSPost2010PropOp42
 70
     0
102
RTVSPost2010Prop43
 90
        3
102
RTVSPost2010PropOp43
 70
     0
102
RTVSPost2010Prop44ColorIndex
 90
        5
102
RTVSPost2010Prop44ColorRGB
 90
      255
102
RTVSPost2010PropOp44
 70
     0
102
RTVSPost2010Prop45
280
     0
102
RTVSPost2010PropOp45
 70
     0
102
RTVSPost2010Prop46
 90
       50
102
RTVSPost2010PropOp46
 70
     0
102
RTVSPost2010Prop47
 90
       50
102
RTVSPost2010PropOp47
 70
     0
102
RTVSPost2010Prop48
 90
       50
102
RTVSPost2010PropOp48
 70
     0
102
RTVSPost2010Prop49
280
     0
102
RTVSPost2010PropOp49
 70
     0
102
RTVSPost2010Prop50
 90
       50
102
RTVSPost2010PropOp50
 70
     0
102
RTVSPost2010Prop51ColorIndex
 90
      256
102
RTVSPost2010Prop51ColorRGB
 90
-16777216
102
RTVSPost2010PropOp51
 70
     0
102
RTVSPost2010Prop52
140
1.0
102
RTVSPost2010PropOp52
 70
     0
102
RTVSPost2010Prop53
 90
        2
102
RTVSPost2010PropOp53
 70
     0
102
RTVSPost2010Prop54
  1
strokes_ogs.tif
102
RTVSPost2010PropOp54
 70
     0
102
RTVSPost2010Prop55
280
     0
102
RTVSPost2010PropOp55
 70
     0
102
RTVSPost2010Prop56
140
1.0
102
RTVSPost2010PropOp56
 70
     0
102
RTVSPost2010Prop57
140
1.0
102
RTVSPost2010PropOp57
 70
     0
  0
XRECORD
  5
297
102
{ACAD_REACTORS
330
296
102
}
330
296
100
AcDbXrecord
280
     1
102
RTVSPropertyOp0
 70
     1
102
RTVSPropertyOp1
 70
     1
102
RTVSPropertyOp2
 70
     1
102
RTVSPropertyOp3
 70
     1
102
RTVSPropertyOp4
 70
     1
102
RTVSPropertyOp5
 70
     1
102
RTVSPropertyOp6
 70
     1
102
RTVSPropertyOp7
 70
     1
102
RTVSPropertyOp8
 70
     1
102
RTVSPropertyOp9
 70
     1
102
RTVSPropertyOp10
 70
     1
102
RTVSPropertyOp11
 70
     1
102
RTVSPropertyOp12
 70
     1
102
RTVSPropertyOp13
 70
     1
102
RTVSPropertyOp14
 70
     1
102
RTVSPropertyOp15
 70
     1
102
RTVSPropertyOp16
 70
     1
102
RTVSPropertyOp17
 70
     1
102
RTVSPropertyOp18
 70
     1
102
RTVSPropertyOp19
 70
     1
102
RTVSPropertyOp20
 70
     1
102
RTVSPropertyOp21
 70
     1
102
RTVSPropertyOp22
 70
     1
102
RTVSPropertyOp23
 70
     1
102
RTVSPropertyOp24
 70
     1
102
RTVSPropertyOp25
 70
     1
102
RTVSPropertyOp26
 70
     1
102
RTVSPropertyOp27
 70
     1
102
RTVSPropertyOp28
 70
     1
102
RTVSPropertyOp29
 70
     1
102
RTVSPropertyOp30
 70
     1
102
RTVSPropertyOp31
 70
     1
102
RTVSPropertyOp32
 70
     1
102
RTVSPropertyOp33
 70
     1
102
RTVSPropertyOp34
 70
     1
102
RTVSPropertyOp35
 70
     1
102
RTVSPropertyOp36
 70
     1
102
RTVSPropertyOp37
 70
     1
102
RTVSPropertyOp38
 70
     1
102
RTVSPropertyOp39
 70
     1
102
RTVSPropertyOp40
 70
     1
102
RTVSPropertyOp41
 70
     1
102
RTVSPropertyOp42
 70
     1
102
RTVSPropertyOp43
 70
     1
102
RTVSPropertyOp44
 70
     1
102
RTVSPropertyOp45
 70
     1
102
RTVSPropertyOp46
 70
     1
102
RTVSPropertyOp47
 70
     1
102
RTVSPropertyOp48
 70
     1
102
RTVSPropertyOp49
 70
     1
102
RTVSPropertyOp50
 70
     1
102
RTVSPropertyOp51
 70
     0
102
RTVSPropertyOp52
 70
     0
102
RTVSPropertyOp53
 70
     1
102
RTVSPropertyOp54
 70
     1
102
RTVSPropertyOp55
 70
     1
102
RTVSPropertyOp56
 70
     1
102
RTVSPropertyOp57
 70
     1
102
RTVSPost2010Prop28
280
     0
102
RTVSPost2010PropOp28
 70
     1
102
RTVSPost2010Prop29
280
     1
102
RTVSPost2010PropOp29
 70
     1
102
RTVSPost2010Prop30
280
     1
102
RTVSPost2010PropOp30
 70
     1
102
RTVSPost2010Prop31
280
     0
102
RTVSPost2010PropOp31
 70
     1
102
RTVSPost2010Prop32
280
     0
102
RTVSPost2010PropOp32
 70
     1
102
RTVSPost2010Prop33
280
     0
102
RTVSPost2010PropOp33
 70
     1
102
RTVSPost2010Prop34
280
     0
102
RTVSPost2010PropOp34
 70
     1
102
RTVSPost2010Prop35
280
     0
102
RTVSPost2010PropOp35
 70
     1
102
RTVSPost2010Prop36
280
     0
102
RTVSPost2010PropOp36
 70
     1
102
RTVSPost2010Prop37
 90
       50
102
RTVSPost2010PropOp37
 70
     1
102
RTVSPost2010Prop38
140
0.0
102
RTVSPost2010PropOp38
 70
     1
102
RTVSPost2010Prop39
140
1.0
102
RTVSPost2010PropOp39
 70
     1
102
RTVSPost2010Prop40
 90
        0
102
RTVSPost2010PropOp40
 70
     1
102
RTVSPost2010Prop41ColorIndex
 90
       18
102
RTVSPost2010Prop41ColorRGB
 90
        0
102
RTVSPost2010PropOp41
 70
     1
102
RTVSPost2010Prop42
 90
       50
102
RTVSPost2010PropOp42
 70
     1
102
RTVSPost2010Prop43
 90
        3
102
RTVSPost2010PropOp43
 70
     1
102
RTVSPost2010Prop44ColorIndex
 90
        5
102
RTVSPost2010Prop44ColorRGB
 90
      255
102
RTVSPost2010PropOp44
 70
     1
102
RTVSPost2010Prop45
280
     0
102
RTVSPost2010PropOp45
 70
     1
102
RTVSPost2010Prop46
 90
       50
102
RTVSPost2010PropOp46
 70
     1
102
RTVSPost2010Prop47
 90
       50
102
RTVSPost2010PropOp47
 70
     1
102
RTVSPost2010Prop48
 90
       50
102
RTVSPost2010PropOp48
 70
     1
102
RTVSPost2010Prop49
280
     0
102
RTVSPost2010PropOp49
 70
     1
102
RTVSPost2010Prop50
 90
       50
102
RTVSPost2010PropOp50
 70
     1
102
RTVSPost2010Prop51ColorIndex
 90
      256
102
RTVSPost2010Prop51ColorRGB
 90
-16777216
102
RTVSPost2010PropOp51
 70
     0
102
RTVSPost2010Prop52
140
1.0
102
RTVSPost2010PropOp52
 70
     0
102
RTVSPost2010Prop53
 90
        2
102
RTVSPost2010PropOp53
 70
     1
102
RTVSPost2010Prop54
  1
strokes_ogs.tif
102
RTVSPost2010PropOp54
 70
     1
102
RTVSPost2010Prop55
280
     0
102
RTVSPost2010PropOp55
 70
     1
102
RTVSPost2010Prop56
140
1.0
102
RTVSPost2010PropOp56
 70
     1
102
RTVSPost2010Prop57
140
1.0
102
RTVSPost2010PropOp57
 70
     1
  0
XRECORD
  5
27B
102
{ACAD_REACTORS
330
27A
102
}
330
27A
100
AcDbXrecord
280
     1
102
RTVSPropertyOp0
 70
     1
102
RTVSPropertyOp1
 70
     1
102
RTVSPropertyOp2
 70
     1
102
RTVSPropertyOp3
 70
     1
102
RTVSPropertyOp4
 70
     1
102
RTVSPropertyOp5
 70
     1
102
RTVSPropertyOp6
 70
     1
102
RTVSPropertyOp7
 70
     1
102
RTVSPropertyOp8
 70
     1
102
RTVSPropertyOp9
 70
     1
102
RTVSPropertyOp10
 70
     1
102
RTVSPropertyOp11
 70
     1
102
RTVSPropertyOp12
 70
     1
102
RTVSPropertyOp13
 70
     1
102
RTVSPropertyOp14
 70
     1
102
RTVSPropertyOp15
 70
     1
102
RTVSPropertyOp16
 70
     1
102
RTVSPropertyOp17
 70
     1
102
RTVSPropertyOp18
 70
     1
102
RTVSPropertyOp19
 70
     1
102
RTVSPropertyOp20
 70
     1
102
RTVSPropertyOp21
 70
     1
102
RTVSPropertyOp22
 70
     1
102
RTVSPropertyOp23
 70
     1
102
RTVSPropertyOp24
 70
     1
102
RTVSPropertyOp25
 70
     1
102
RTVSPropertyOp26
 70
     1
102
RTVSPropertyOp27
 70
     1
102
RTVSPropertyOp28
 70
     1
102
RTVSPropertyOp29
 70
     1
102
RTVSPropertyOp30
 70
     1
102
RTVSPropertyOp31
 70
     1
102
RTVSPropertyOp32
 70
     1
102
RTVSPropertyOp33
 70
     1
102
RTVSPropertyOp34
 70
     1
102
RTVSPropertyOp35
 70
     1
102
RTVSPropertyOp36
 70
     1
102
RTVSPropertyOp37
 70
     1
102
RTVSPropertyOp38
 70
     1
102
RTVSPropertyOp39
 70
     1
102
RTVSPropertyOp40
 70
     1
102
RTVSPropertyOp41
 70
     1
102
RTVSPropertyOp42
 70
     1
102
RTVSPropertyOp43
 70
     1
102
RTVSPropertyOp44
 70
     1
102
RTVSPropertyOp45
 70
     1
102
RTVSPropertyOp46
 70
     1
102
RTVSPropertyOp47
 70
     1
102
RTVSPropertyOp48
 70
     1
102
RTVSPropertyOp49
 70
     1
102
RTVSPropertyOp50
 70
     1
102
RTVSPropertyOp51
 70
     0
102
RTVSPropertyOp52
 70
     0
102
RTVSPropertyOp53
 70
     1
102
RTVSPropertyOp54
 70
     1
102
RTVSPropertyOp55
 70
     1
102
RTVSPropertyOp56
 70
     1
102
RTVSPropertyOp57
 70
     1
102
RTVSPost2010Prop28
280
     0
102
RTVSPost2010PropOp28
 70
     1
102
RTVSPost2010Prop29
280
     1
102
RTVSPost2010PropOp29
 70
     1
102
RTVSPost2010Prop30
280
     1
102
RTVSPost2010PropOp30
 70
     1
102
RTVSPost2010Prop31
280
     0
102
RTVSPost2010PropOp31
 70
     1
102
RTVSPost2010Prop32
280
     0
102
RTVSPost2010PropOp32
 70
     1
102
RTVSPost2010Prop33
280
     0
102
RTVSPost2010PropOp33
 70
     1
102
RTVSPost2010Prop34
280
     0
102
RTVSPost2010PropOp34
 70
     1
102
RTVSPost2010Prop35
280
     0
102
RTVSPost2010PropOp35
 70
     1
102
RTVSPost2010Prop36
280
     0
102
RTVSPost2010PropOp36
 70
     1
102
RTVSPost2010Prop37
 90
       50
102
RTVSPost2010PropOp37
 70
     1
102
RTVSPost2010Prop38
140
0.0
102
RTVSPost2010PropOp38
 70
     1
102
RTVSPost2010Prop39
140
1.0
102
RTVSPost2010PropOp39
 70
     1
102
RTVSPost2010Prop40
 90
        0
102
RTVSPost2010PropOp40
 70
     1
102
RTVSPost2010Prop41ColorIndex
 90
       18
102
RTVSPost2010Prop41ColorRGB
 90
        0
102
RTVSPost2010PropOp41
 70
     1
102
RTVSPost2010Prop42
 90
       50
102
RTVSPost2010PropOp42
 70
     1
102
RTVSPost2010Prop43
 90
        3
102
RTVSPost2010PropOp43
 70
     1
102
RTVSPost2010Prop44ColorIndex
 90
        5
102
RTVSPost2010Prop44ColorRGB
 90
      255
102
RTVSPost2010PropOp44
 70
     1
102
RTVSPost2010Prop45
280
     0
102
RTVSPost2010PropOp45
 70
     1
102
RTVSPost2010Prop46
 90
       50
102
RTVSPost2010PropOp46
 70
     1
102
RTVSPost2010Prop47
 90
       50
102
RTVSPost2010PropOp47
 70
     1
102
RTVSPost2010Prop48
 90
       50
102
RTVSPost2010PropOp48
 70
     1
102
RTVSPost2010Prop49
280
     0
102
RTVSPost2010PropOp49
 70
     1
102
RTVSPost2010Prop50
 90
       50
102
RTVSPost2010PropOp50
 70
     1
102
RTVSPost2010Prop51ColorIndex
 90
      256
102
RTVSPost2010Prop51ColorRGB
 90
-16777216
102
RTVSPost2010PropOp51
 70
     0
102
RTVSPost2010Prop52
140
1.0
102
RTVSPost2010PropOp52
 70
     0
102
RTVSPost2010Prop53
 90
        2
102
RTVSPost2010PropOp53
 70
     1
102
RTVSPost2010Prop54
  1
strokes_ogs.tif
102
RTVSPost2010PropOp54
 70
     1
102
RTVSPost2010Prop55
280
     0
102
RTVSPost2010PropOp55
 70
     1
102
RTVSPost2010Prop56
140
1.0
102
RTVSPost2010PropOp56
 70
     1
102
RTVSPost2010Prop57
140
1.0
102
RTVSPost2010PropOp57
 70
     1
  0
XRECORD
  5
27D
102
{ACAD_REACTORS
330
27C
102
}
330
27C
100
AcDbXrecord
280
     1
102
RTVSPropertyOp0
 70
     1
102
RTVSPropertyOp1
 70
     1
102
RTVSPropertyOp2
 70
     1
102
RTVSPropertyOp3
 70
     1
102
RTVSPropertyOp4
 70
     1
102
RTVSPropertyOp5
 70
     1
102
RTVSPropertyOp6
 70
     1
102
RTVSPropertyOp7
 70
     1
102
RTVSPropertyOp8
 70
     1
102
RTVSPropertyOp9
 70
     1
102
RTVSPropertyOp10
 70
     1
102
RTVSPropertyOp11
 70
     1
102
RTVSPropertyOp12
 70
     1
102
RTVSPropertyOp13
 70
     1
102
RTVSPropertyOp14
 70
     1
102
RTVSPropertyOp15
 70
     1
102
RTVSPropertyOp16
 70
     1
102
RTVSPropertyOp17
 70
     1
102
RTVSPropertyOp18
 70
     1
102
RTVSPropertyOp19
 70
     1
102
RTVSPropertyOp20
 70
     1
102
RTVSPropertyOp21
 70
     1
102
RTVSPropertyOp22
 70
     1
102
RTVSPropertyOp23
 70
     1
102
RTVSPropertyOp24
 70
     1
102
RTVSPropertyOp25
 70
     1
102
RTVSPropertyOp26
 70
     1
102
RTVSPropertyOp27
 70
     1
102
RTVSPropertyOp28
 70
     1
102
RTVSPropertyOp29
 70
     1
102
RTVSPropertyOp30
 70
     1
102
RTVSPropertyOp31
 70
     1
102
RTVSPropertyOp32
 70
     1
102
RTVSPropertyOp33
 70
     1
102
RTVSPropertyOp34
 70
     1
102
RTVSPropertyOp35
 70
     1
102
RTVSPropertyOp36
 70
     1
102
RTVSPropertyOp37
 70
     1
102
RTVSPropertyOp38
 70
     1
102
RTVSPropertyOp39
 70
     1
102
RTVSPropertyOp40
 70
     1
102
RTVSPropertyOp41
 70
     1
102
RTVSPropertyOp42
 70
     1
102
RTVSPropertyOp43
 70
     1
102
RTVSPropertyOp44
 70
     1
102
RTVSPropertyOp45
 70
     1
102
RTVSPropertyOp46
 70
     1
102
RTVSPropertyOp47
 70
     1
102
RTVSPropertyOp48
 70
     1
102
RTVSPropertyOp49
 70
     1
102
RTVSPropertyOp50
 70
     1
102
RTVSPropertyOp51
 70
     0
102
RTVSPropertyOp52
 70
     0
102
RTVSPropertyOp53
 70
     1
102
RTVSPropertyOp54
 70
     1
102
RTVSPropertyOp55
 70
     1
102
RTVSPropertyOp56
 70
     1
102
RTVSPropertyOp57
 70
     1
102
RTVSPost2010Prop28
280
     0
102
RTVSPost2010PropOp28
 70
     1
102
RTVSPost2010Prop29
280
     1
102
RTVSPost2010PropOp29
 70
     1
102
RTVSPost2010Prop30
280
     1
102
RTVSPost2010PropOp30
 70
     1
102
RTVSPost2010Prop31
280
     0
102
RTVSPost2010PropOp31
 70
     1
102
RTVSPost2010Prop32
280
     0
102
RTVSPost2010PropOp32
 70
     1
102
RTVSPost2010Prop33
280
     0
102
RTVSPost2010PropOp33
 70
     1
102
RTVSPost2010Prop34
280
     0
102
RTVSPost2010PropOp34
 70
     1
102
RTVSPost2010Prop35
280
     0
102
RTVSPost2010PropOp35
 70
     1
102
RTVSPost2010Prop36
280
     0
102
RTVSPost2010PropOp36
 70
     1
102
RTVSPost2010Prop37
 90
       50
102
RTVSPost2010PropOp37
 70
     1
102
RTVSPost2010Prop38
140
0.0
102
RTVSPost2010PropOp38
 70
     1
102
RTVSPost2010Prop39
140
1.0
102
RTVSPost2010PropOp39
 70
     1
102
RTVSPost2010Prop40
 90
        0
102
RTVSPost2010PropOp40
 70
     1
102
RTVSPost2010Prop41ColorIndex
 90
       18
102
RTVSPost2010Prop41ColorRGB
 90
        0
102
RTVSPost2010PropOp41
 70
     1
102
RTVSPost2010Prop42
 90
       50
102
RTVSPost2010PropOp42
 70
     1
102
RTVSPost2010Prop43
 90
        3
102
RTVSPost2010PropOp43
 70
     1
102
RTVSPost2010Prop44ColorIndex
 90
        5
102
RTVSPost2010Prop44ColorRGB
 90
      255
102
RTVSPost2010PropOp44
 70
     1
102
RTVSPost2010Prop45
280
     0
102
RTVSPost2010PropOp45
 70
     1
102
RTVSPost2010Prop46
 90
       50
102
RTVSPost2010PropOp46
 70
     1
102
RTVSPost2010Prop47
 90
       50
102
RTVSPost2010PropOp47
 70
     1
102
RTVSPost2010Prop48
 90
       50
102
RTVSPost2010PropOp48
 70
     1
102
RTVSPost2010Prop49
280
     0
102
RTVSPost2010PropOp49
 70
     1
102
RTVSPost2010Prop50
 90
       50
102
RTVSPost2010PropOp50
 70
     1
102
RTVSPost2010Prop51ColorIndex
 90
      256
102
RTVSPost2010Prop51ColorRGB
 90
-16777216
102
RTVSPost2010PropOp51
 70
     0
102
RTVSPost2010Prop52
140
1.0
102
RTVSPost2010PropOp52
 70
     0
102
RTVSPost2010Prop53
 90
        2
102
RTVSPost2010PropOp53
 70
     1
102
RTVSPost2010Prop54
  1
strokes_ogs.tif
102
RTVSPost2010PropOp54
 70
     1
102
RTVSPost2010Prop55
280
     0
102
RTVSPost2010PropOp55
 70
     1
102
RTVSPost2010Prop56
140
1.0
102
RTVSPost2010PropOp56
 70
     1
102
RTVSPost2010Prop57
140
1.0
102
RTVSPost2010PropOp57
 70
     1
  0
XRECORD
  5
27F
102
{ACAD_REACTORS
330
27E
102
}
330
27E
100
AcDbXrecord
280
     1
102
RTVSPropertyOp0
 70
     1
102
RTVSPropertyOp1
 70
     1
102
RTVSPropertyOp2
 70
     1
102
RTVSPropertyOp3
 70
     1
102
RTVSPropertyOp4
 70
     1
102
RTVSPropertyOp5
 70
     1
102
RTVSPropertyOp6
 70
     1
102
RTVSPropertyOp7
 70
     1
102
RTVSPropertyOp8
 70
     1
102
RTVSPropertyOp9
 70
     1
102
RTVSPropertyOp10
 70
     1
102
RTVSPropertyOp11
 70
     1
102
RTVSPropertyOp12
 70
     1
102
RTVSPropertyOp13
 70
     1
102
RTVSPropertyOp14
 70
     1
102
RTVSPropertyOp15
 70
     1
102
RTVSPropertyOp16
 70
     1
102
RTVSPropertyOp17
 70
     1
102
RTVSPropertyOp18
 70
     1
102
RTVSPropertyOp19
 70
     1
102
RTVSPropertyOp20
 70
     1
102
RTVSPropertyOp21
 70
     1
102
RTVSPropertyOp22
 70
     1
102
RTVSPropertyOp23
 70
     1
102
RTVSPropertyOp24
 70
     1
102
RTVSPropertyOp25
 70
     1
102
RTVSPropertyOp26
 70
     1
102
RTVSPropertyOp27
 70
     1
102
RTVSPropertyOp28
 70
     1
102
RTVSPropertyOp29
 70
     1
102
RTVSPropertyOp30
 70
     1
102
RTVSPropertyOp31
 70
     1
102
RTVSPropertyOp32
 70
     1
102
RTVSPropertyOp33
 70
     1
102
RTVSPropertyOp34
 70
     1
102
RTVSPropertyOp35
 70
     1
102
RTVSPropertyOp36
 70
     1
102
RTVSPropertyOp37
 70
     1
102
RTVSPropertyOp38
 70
     1
102
RTVSPropertyOp39
 70
     1
102
RTVSPropertyOp40
 70
     1
102
RTVSPropertyOp41
 70
     1
102
RTVSPropertyOp42
 70
     1
102
RTVSPropertyOp43
 70
     1
102
RTVSPropertyOp44
 70
     1
102
RTVSPropertyOp45
 70
     1
102
RTVSPropertyOp46
 70
     1
102
RTVSPropertyOp47
 70
     1
102
RTVSPropertyOp48
 70
     1
102
RTVSPropertyOp49
 70
     1
102
RTVSPropertyOp50
 70
     1
102
RTVSPropertyOp51
 70
     0
102
RTVSPropertyOp52
 70
     0
102
RTVSPropertyOp53
 70
     1
102
RTVSPropertyOp54
 70
     1
102
RTVSPropertyOp55
 70
     1
102
RTVSPropertyOp56
 70
     1
102
RTVSPropertyOp57
 70
     1
102
RTVSPost2010Prop28
280
     0
102
RTVSPost2010PropOp28
 70
     1
102
RTVSPost2010Prop29
280
     1
102
RTVSPost2010PropOp29
 70
     1
102
RTVSPost2010Prop30
280
     1
102
RTVSPost2010PropOp30
 70
     1
102
RTVSPost2010Prop31
280
     0
102
RTVSPost2010PropOp31
 70
     1
102
RTVSPost2010Prop32
280
     0
102
RTVSPost2010PropOp32
 70
     1
102
RTVSPost2010Prop33
280
     0
102
RTVSPost2010PropOp33
 70
     1
102
RTVSPost2010Prop34
280
     0
102
RTVSPost2010PropOp34
 70
     1
102
RTVSPost2010Prop35
280
     0
102
RTVSPost2010PropOp35
 70
     1
102
RTVSPost2010Prop36
280
     0
102
RTVSPost2010PropOp36
 70
     1
102
RTVSPost2010Prop37
 90
       50
102
RTVSPost2010PropOp37
 70
     1
102
RTVSPost2010Prop38
140
0.0
102
RTVSPost2010PropOp38
 70
     1
102
RTVSPost2010Prop39
140
1.0
102
RTVSPost2010PropOp39
 70
     1
102
RTVSPost2010Prop40
 90
        0
102
RTVSPost2010PropOp40
 70
     1
102
RTVSPost2010Prop41ColorIndex
 90
       18
102
RTVSPost2010Prop41ColorRGB
 90
        0
102
RTVSPost2010PropOp41
 70
     1
102
RTVSPost2010Prop42
 90
       50
102
RTVSPost2010PropOp42
 70
     1
102
RTVSPost2010Prop43
 90
        3
102
RTVSPost2010PropOp43
 70
     1
102
RTVSPost2010Prop44ColorIndex
 90
        5
102
RTVSPost2010Prop44ColorRGB
 90
      255
102
RTVSPost2010PropOp44
 70
     1
102
RTVSPost2010Prop45
280
     0
102
RTVSPost2010PropOp45
 70
     1
102
RTVSPost2010Prop46
 90
       50
102
RTVSPost2010PropOp46
 70
     1
102
RTVSPost2010Prop47
 90
       50
102
RTVSPost2010PropOp47
 70
     1
102
RTVSPost2010Prop48
 90
       50
102
RTVSPost2010PropOp48
 70
     1
102
RTVSPost2010Prop49
280
     0
102
RTVSPost2010PropOp49
 70
     1
102
RTVSPost2010Prop50
 90
       50
102
RTVSPost2010PropOp50
 70
     1
102
RTVSPost2010Prop51ColorIndex
 90
      256
102
RTVSPost2010Prop51ColorRGB
 90
-16777216
102
RTVSPost2010PropOp51
 70
     0
102
RTVSPost2010Prop52
140
1.0
102
RTVSPost2010PropOp52
 70
     0
102
RTVSPost2010Prop53
 90
        2
102
RTVSPost2010PropOp53
 70
     1
102
RTVSPost2010Prop54
  1
strokes_ogs.tif
102
RTVSPost2010PropOp54
 70
     1
102
RTVSPost2010Prop55
280
     0
102
RTVSPost2010PropOp55
 70
     1
102
RTVSPost2010Prop56
140
1.0
102
RTVSPost2010PropOp56
 70
     1
102
RTVSPost2010Prop57
140
1.0
102
RTVSPost2010PropOp57
 70
     1
  0
XRECORD
  5
281
102
{ACAD_REACTORS
330
280
102
}
330
280
100
AcDbXrecord
280
     1
102
RTVSPropertyOp0
 70
     1
102
RTVSPropertyOp1
 70
     1
102
RTVSPropertyOp2
 70
     1
102
RTVSPropertyOp3
 70
     1
102
RTVSPropertyOp4
 70
     1
102
RTVSPropertyOp5
 70
     1
102
RTVSPropertyOp6
 70
     1
102
RTVSPropertyOp7
 70
     1
102
RTVSPropertyOp8
 70
     1
102
RTVSPropertyOp9
 70
     1
102
RTVSPropertyOp10
 70
     1
102
RTVSPropertyOp11
 70
     1
102
RTVSPropertyOp12
 70
     1
102
RTVSPropertyOp13
 70
     1
102
RTVSPropertyOp14
 70
     1
102
RTVSPropertyOp15
 70
     1
102
RTVSPropertyOp16
 70
     1
102
RTVSPropertyOp17
 70
     1
102
RTVSPropertyOp18
 70
     1
102
RTVSPropertyOp19
 70
     1
102
RTVSPropertyOp20
 70
     1
102
RTVSPropertyOp21
 70
     1
102
RTVSPropertyOp22
 70
     1
102
RTVSPropertyOp23
 70
     1
102
RTVSPropertyOp24
 70
     1
102
RTVSPropertyOp25
 70
     1
102
RTVSPropertyOp26
 70
     1
102
RTVSPropertyOp27
 70
     1
102
RTVSPropertyOp28
 70
     1
102
RTVSPropertyOp29
 70
     1
102
RTVSPropertyOp30
 70
     1
102
RTVSPropertyOp31
 70
     1
102
RTVSPropertyOp32
 70
     1
102
RTVSPropertyOp33
 70
     1
102
RTVSPropertyOp34
 70
     1
102
RTVSPropertyOp35
 70
     1
102
RTVSPropertyOp36
 70
     1
102
RTVSPropertyOp37
 70
     1
102
RTVSPropertyOp38
 70
     1
102
RTVSPropertyOp39
 70
     1
102
RTVSPropertyOp40
 70
     1
102
RTVSPropertyOp41
 70
     1
102
RTVSPropertyOp42
 70
     1
102
RTVSPropertyOp43
 70
     1
102
RTVSPropertyOp44
 70
     1
102
RTVSPropertyOp45
 70
     1
102
RTVSPropertyOp46
 70
     1
102
RTVSPropertyOp47
 70
     1
102
RTVSPropertyOp48
 70
     1
102
RTVSPropertyOp49
 70
     1
102
RTVSPropertyOp50
 70
     1
102
RTVSPropertyOp51
 70
     0
102
RTVSPropertyOp52
 70
     0
102
RTVSPropertyOp53
 70
     1
102
RTVSPropertyOp54
 70
     1
102
RTVSPropertyOp55
 70
     1
102
RTVSPropertyOp56
 70
     1
102
RTVSPropertyOp57
 70
     1
102
RTVSPost2010Prop28
280
     0
102
RTVSPost2010PropOp28
 70
     1
102
RTVSPost2010Prop29
280
     1
102
RTVSPost2010PropOp29
 70
     1
102
RTVSPost2010Prop30
280
     1
102
RTVSPost2010PropOp30
 70
     1
102
RTVSPost2010Prop31
280
     0
102
RTVSPost2010PropOp31
 70
     1
102
RTVSPost2010Prop32
280
     0
102
RTVSPost2010PropOp32
 70
     1
102
RTVSPost2010Prop33
280
     0
102
RTVSPost2010PropOp33
 70
     1
102
RTVSPost2010Prop34
280
     0
102
RTVSPost2010PropOp34
 70
     1
102
RTVSPost2010Prop35
280
     0
102
RTVSPost2010PropOp35
 70
     1
102
RTVSPost2010Prop36
280
     0
102
RTVSPost2010PropOp36
 70
     1
102
RTVSPost2010Prop37
 90
       50
102
RTVSPost2010PropOp37
 70
     1
102
RTVSPost2010Prop38
140
0.0
102
RTVSPost2010PropOp38
 70
     1
102
RTVSPost2010Prop39
140
1.0
102
RTVSPost2010PropOp39
 70
     1
102
RTVSPost2010Prop40
 90
        0
102
RTVSPost2010PropOp40
 70
     1
102
RTVSPost2010Prop41ColorIndex
 90
       18
102
RTVSPost2010Prop41ColorRGB
 90
        0
102
RTVSPost2010PropOp41
 70
     1
102
RTVSPost2010Prop42
 90
       50
102
RTVSPost2010PropOp42
 70
     1
102
RTVSPost2010Prop43
 90
        3
102
RTVSPost2010PropOp43
 70
     1
102
RTVSPost2010Prop44ColorIndex
 90
        5
102
RTVSPost2010Prop44ColorRGB
 90
      255
102
RTVSPost2010PropOp44
 70
     1
102
RTVSPost2010Prop45
280
     0
102
RTVSPost2010PropOp45
 70
     1
102
RTVSPost2010Prop46
 90
       50
102
RTVSPost2010PropOp46
 70
     1
102
RTVSPost2010Prop47
 90
       50
102
RTVSPost2010PropOp47
 70
     1
102
RTVSPost2010Prop48
 90
       50
102
RTVSPost2010PropOp48
 70
     1
102
RTVSPost2010Prop49
280
     0
102
RTVSPost2010PropOp49
 70
     1
102
RTVSPost2010Prop50
 90
       50
102
RTVSPost2010PropOp50
 70
     1
102
RTVSPost2010Prop51ColorIndex
 90
      256
102
RTVSPost2010Prop51ColorRGB
 90
-16777216
102
RTVSPost2010PropOp51
 70
     0
102
RTVSPost2010Prop52
140
1.0
102
RTVSPost2010PropOp52
 70
     0
102
RTVSPost2010Prop53
 90
        2
102
RTVSPost2010PropOp53
 70
     1
102
RTVSPost2010Prop54
  1
strokes_ogs.tif
102
RTVSPost2010PropOp54
 70
     1
102
RTVSPost2010Prop55
280
     0
102
RTVSPost2010PropOp55
 70
     1
102
RTVSPost2010Prop56
140
1.0
102
RTVSPost2010PropOp56
 70
     1
102
RTVSPost2010Prop57
140
1.0
102
RTVSPost2010PropOp57
 70
     1
  0
XRECORD
  5
287
102
{ACAD_REACTORS
330
286
102
}
330
286
100
AcDbXrecord
280
     1
102
RTVSPropertyOp0
 70
     1
102
RTVSPropertyOp1
 70
     1
102
RTVSPropertyOp2
 70
     1
102
RTVSPropertyOp3
 70
     1
102
RTVSPropertyOp4
 70
     1
102
RTVSPropertyOp5
 70
     1
102
RTVSPropertyOp6
 70
     1
102
RTVSPropertyOp7
 70
     1
102
RTVSPropertyOp8
 70
     1
102
RTVSPropertyOp9
 70
     1
102
RTVSPropertyOp10
 70
     1
102
RTVSPropertyOp11
 70
     1
102
RTVSPropertyOp12
 70
     1
102
RTVSPropertyOp13
 70
     1
102
RTVSPropertyOp14
 70
     1
102
RTVSPropertyOp15
 70
     1
102
RTVSPropertyOp16
 70
     1
102
RTVSPropertyOp17
 70
     1
102
RTVSPropertyOp18
 70
     1
102
RTVSPropertyOp19
 70
     1
102
RTVSPropertyOp20
 70
     1
102
RTVSPropertyOp21
 70
     1
102
RTVSPropertyOp22
 70
     1
102
RTVSPropertyOp23
 70
     1
102
RTVSPropertyOp24
 70
     1
102
RTVSPropertyOp25
 70
     1
102
RTVSPropertyOp26
 70
     1
102
RTVSPropertyOp27
 70
     1
102
RTVSPropertyOp28
 70
     1
102
RTVSPropertyOp29
 70
     1
102
RTVSPropertyOp30
 70
     1
102
RTVSPropertyOp31
 70
     1
102
RTVSPropertyOp32
 70
     1
102
RTVSPropertyOp33
 70
     1
102
RTVSPropertyOp34
 70
     1
102
RTVSPropertyOp35
 70
     1
102
RTVSPropertyOp36
 70
     1
102
RTVSPropertyOp37
 70
     1
102
RTVSPropertyOp38
 70
     1
102
RTVSPropertyOp39
 70
     1
102
RTVSPropertyOp40
 70
     1
102
RTVSPropertyOp41
 70
     1
102
RTVSPropertyOp42
 70
     1
102
RTVSPropertyOp43
 70
     1
102
RTVSPropertyOp44
 70
     1
102
RTVSPropertyOp45
 70
     1
102
RTVSPropertyOp46
 70
     1
102
RTVSPropertyOp47
 70
     1
102
RTVSPropertyOp48
 70
     1
102
RTVSPropertyOp49
 70
     1
102
RTVSPropertyOp50
 70
     1
102
RTVSPropertyOp51
 70
     0
102
RTVSPropertyOp52
 70
     0
102
RTVSPropertyOp53
 70
     1
102
RTVSPropertyOp54
 70
     1
102
RTVSPropertyOp55
 70
     1
102
RTVSPropertyOp56
 70
     1
102
RTVSPropertyOp57
 70
     1
102
RTVSPost2010Prop28
280
     0
102
RTVSPost2010PropOp28
 70
     1
102
RTVSPost2010Prop29
280
     1
102
RTVSPost2010PropOp29
 70
     1
102
RTVSPost2010Prop30
280
     1
102
RTVSPost2010PropOp30
 70
     1
102
RTVSPost2010Prop31
280
     0
102
RTVSPost2010PropOp31
 70
     1
102
RTVSPost2010Prop32
280
     0
102
RTVSPost2010PropOp32
 70
     1
102
RTVSPost2010Prop33
280
     0
102
RTVSPost2010PropOp33
 70
     1
102
RTVSPost2010Prop34
280
     0
102
RTVSPost2010PropOp34
 70
     1
102
RTVSPost2010Prop35
280
     0
102
RTVSPost2010PropOp35
 70
     1
102
RTVSPost2010Prop36
280
     0
102
RTVSPost2010PropOp36
 70
     1
102
RTVSPost2010Prop37
 90
       50
102
RTVSPost2010PropOp37
 70
     1
102
RTVSPost2010Prop38
140
0.0
102
RTVSPost2010PropOp38
 70
     1
102
RTVSPost2010Prop39
140
1.0
102
RTVSPost2010PropOp39
 70
     1
102
RTVSPost2010Prop40
 90
        0
102
RTVSPost2010PropOp40
 70
     1
102
RTVSPost2010Prop41ColorIndex
 90
       18
102
RTVSPost2010Prop41ColorRGB
 90
        0
102
RTVSPost2010PropOp41
 70
     1
102
RTVSPost2010Prop42
 90
       50
102
RTVSPost2010PropOp42
 70
     1
102
RTVSPost2010Prop43
 90
        3
102
RTVSPost2010PropOp43
 70
     1
102
RTVSPost2010Prop44ColorIndex
 90
        5
102
RTVSPost2010Prop44ColorRGB
 90
      255
102
RTVSPost2010PropOp44
 70
     1
102
RTVSPost2010Prop45
280
     0
102
RTVSPost2010PropOp45
 70
     1
102
RTVSPost2010Prop46
 90
       50
102
RTVSPost2010PropOp46
 70
     1
102
RTVSPost2010Prop47
 90
       50
102
RTVSPost2010PropOp47
 70
     1
102
RTVSPost2010Prop48
 90
       50
102
RTVSPost2010PropOp48
 70
     1
102
RTVSPost2010Prop49
280
     0
102
RTVSPost2010PropOp49
 70
     1
102
RTVSPost2010Prop50
 90
       50
102
RTVSPost2010PropOp50
 70
     1
102
RTVSPost2010Prop51ColorIndex
 90
      256
102
RTVSPost2010Prop51ColorRGB
 90
-16777216
102
RTVSPost2010PropOp51
 70
     0
102
RTVSPost2010Prop52
140
1.0
102
RTVSPost2010PropOp52
 70
     0
102
RTVSPost2010Prop53
 90
        2
102
RTVSPost2010PropOp53
 70
     1
102
RTVSPost2010Prop54
  1
strokes_ogs.tif
102
RTVSPost2010PropOp54
 70
     1
102
RTVSPost2010Prop55
280
     0
102
RTVSPost2010PropOp55
 70
     1
102
RTVSPost2010Prop56
140
1.0
102
RTVSPost2010PropOp56
 70
     1
102
RTVSPost2010Prop57
140
1.0
102
RTVSPost2010PropOp57
 70
     1
  0
XRECORD
  5
29B
102
{ACAD_REACTORS
330
29A
102
}
330
29A
100
AcDbXrecord
280
     1
102
RTVSPropertyOp0
 70
     0
102
RTVSPropertyOp1
 70
     0
102
RTVSPropertyOp2
 70
     0
102
RTVSPropertyOp3
 70
     0
102
RTVSPropertyOp4
 70
     0
102
RTVSPropertyOp5
 70
     0
102
RTVSPropertyOp6
 70
     0
102
RTVSPropertyOp7
 70
     0
102
RTVSPropertyOp8
 70
     0
102
RTVSPropertyOp9
 70
     0
102
RTVSPropertyOp10
 70
     0
102
RTVSPropertyOp11
 70
     0
102
RTVSPropertyOp12
 70
     0
102
RTVSPropertyOp13
 70
     0
102
RTVSPropertyOp14
 70
     2
102
RTVSPropertyOp15
 70
     0
102
RTVSPropertyOp16
 70
     0
102
RTVSPropertyOp17
 70
     0
102
RTVSPropertyOp18
 70
     0
102
RTVSPropertyOp19
 70
     0
102
RTVSPropertyOp20
 70
     0
102
RTVSPropertyOp21
 70
     0
102
RTVSPropertyOp22
 70
     0
102
RTVSPropertyOp23
 70
     0
102
RTVSPropertyOp24
 70
     0
102
RTVSPropertyOp25
 70
     0
102
RTVSPropertyOp26
 70
     0
102
RTVSPropertyOp27
 70
     0
102
RTVSPropertyOp28
 70
     0
102
RTVSPropertyOp29
 70
     0
102
RTVSPropertyOp30
 70
     0
102
RTVSPropertyOp31
 70
     0
102
RTVSPropertyOp32
 70
     0
102
RTVSPropertyOp33
 70
     0
102
RTVSPropertyOp34
 70
     0
102
RTVSPropertyOp35
 70
     0
102
RTVSPropertyOp36
 70
     0
102
RTVSPropertyOp37
 70
     0
102
RTVSPropertyOp38
 70
     0
102
RTVSPropertyOp39
 70
     0
102
RTVSPropertyOp40
 70
     0
102
RTVSPropertyOp41
 70
     0
102
RTVSPropertyOp42
 70
     0
102
RTVSPropertyOp43
 70
     0
102
RTVSPropertyOp44
 70
     0
102
RTVSPropertyOp45
 70
     0
102
RTVSPropertyOp46
 70
     0
102
RTVSPropertyOp47
 70
     0
102
RTVSPropertyOp48
 70
     0
102
RTVSPropertyOp49
 70
     0
102
RTVSPropertyOp50
 70
     0
102
RTVSPropertyOp51
 70
     0
102
RTVSPropertyOp52
 70
     0
102
RTVSPropertyOp53
 70
     0
102
RTVSPropertyOp54
 70
     0
102
RTVSPropertyOp55
 70
     0
102
RTVSPropertyOp56
 70
     0
102
RTVSPropertyOp57
 70
     0
102
RTVSPost2010Prop28
280
     0
102
RTVSPost2010PropOp28
 70
     0
102
RTVSPost2010Prop29
280
     1
102
RTVSPost2010PropOp29
 70
     0
102
RTVSPost2010Prop30
280
     1
102
RTVSPost2010PropOp30
 70
     0
102
RTVSPost2010Prop31
280
     0
102
RTVSPost2010PropOp31
 70
     0
102
RTVSPost2010Prop32
280
     0
102
RTVSPost2010PropOp32
 70
     0
102
RTVSPost2010Prop33
280
     0
102
RTVSPost2010PropOp33
 70
     0
102
RTVSPost2010Prop34
280
     0
102
RTVSPost2010PropOp34
 70
     0
102
RTVSPost2010Prop35
280
     0
102
RTVSPost2010PropOp35
 70
     0
102
RTVSPost2010Prop36
280
     0
102
RTVSPost2010PropOp36
 70
     0
102
RTVSPost2010Prop37
 90
       50
102
RTVSPost2010PropOp37
 70
     0
102
RTVSPost2010Prop38
140
0.0
102
RTVSPost2010PropOp38
 70
     0
102
RTVSPost2010Prop39
140
1.0
102
RTVSPost2010PropOp39
 70
     0
102
RTVSPost2010Prop40
 90
        0
102
RTVSPost2010PropOp40
 70
     0
102
RTVSPost2010Prop41ColorIndex
 90
       18
102
RTVSPost2010Prop41ColorRGB
 90
        0
102
RTVSPost2010PropOp41
 70
     0
102
RTVSPost2010Prop42
 90
       50
102
RTVSPost2010PropOp42
 70
     0
102
RTVSPost2010Prop43
 90
        3
102
RTVSPost2010PropOp43
 70
     0
102
RTVSPost2010Prop44ColorIndex
 90
        5
102
RTVSPost2010Prop44ColorRGB
 90
      255
102
RTVSPost2010PropOp44
 70
     0
102
RTVSPost2010Prop45
280
     0
102
RTVSPost2010PropOp45
 70
     0
102
RTVSPost2010Prop46
 90
       50
102
RTVSPost2010PropOp46
 70
     0
102
RTVSPost2010Prop47
 90
       50
102
RTVSPost2010PropOp47
 70
     0
102
RTVSPost2010Prop48
 90
       50
102
RTVSPost2010PropOp48
 70
     0
102
RTVSPost2010Prop49
280
     0
102
RTVSPost2010PropOp49
 70
     0
102
RTVSPost2010Prop50
 90
       50
102
RTVSPost2010PropOp50
 70
     0
102
RTVSPost2010Prop51ColorIndex
 90
      256
102
RTVSPost2010Prop51ColorRGB
 90
-16777216
102
RTVSPost2010PropOp51
 70
     0
102
RTVSPost2010Prop52
140
1.0
102
RTVSPost2010PropOp52
 70
     0
102
RTVSPost2010Prop53
 90
        2
102
RTVSPost2010PropOp53
 70
     0
102
RTVSPost2010Prop54
  1
strokes_ogs.tif
102
RTVSPost2010PropOp54
 70
     0
102
RTVSPost2010Prop55
280
     0
102
RTVSPost2010PropOp55
 70
     0
102
RTVSPost2010Prop56
140
1.0
102
RTVSPost2010PropOp56
 70
     0
102
RTVSPost2010Prop57
140
1.0
102
RTVSPost2010PropOp57
 70
     0
  0
XRECORD
  5
295
102
{ACAD_REACTORS
330
294
102
}
330
294
100
AcDbXrecord
280
     1
102
RTVSPropertyOp0
 70
     1
102
RTVSPropertyOp1
 70
     1
102
RTVSPropertyOp2
 70
     1
102
RTVSPropertyOp3
 70
     1
102
RTVSPropertyOp4
 70
     1
102
RTVSPropertyOp5
 70
     1
102
RTVSPropertyOp6
 70
     1
102
RTVSPropertyOp7
 70
     1
102
RTVSPropertyOp8
 70
     1
102
RTVSPropertyOp9
 70
     1
102
RTVSPropertyOp10
 70
     1
102
RTVSPropertyOp11
 70
     1
102
RTVSPropertyOp12
 70
     1
102
RTVSPropertyOp13
 70
     1
102
RTVSPropertyOp14
 70
     1
102
RTVSPropertyOp15
 70
     1
102
RTVSPropertyOp16
 70
     1
102
RTVSPropertyOp17
 70
     1
102
RTVSPropertyOp18
 70
     1
102
RTVSPropertyOp19
 70
     1
102
RTVSPropertyOp20
 70
     1
102
RTVSPropertyOp21
 70
     1
102
RTVSPropertyOp22
 70
     1
102
RTVSPropertyOp23
 70
     1
102
RTVSPropertyOp24
 70
     1
102
RTVSPropertyOp25
 70
     1
102
RTVSPropertyOp26
 70
     1
102
RTVSPropertyOp27
 70
     1
102
RTVSPropertyOp28
 70
     1
102
RTVSPropertyOp29
 70
     1
102
RTVSPropertyOp30
 70
     1
102
RTVSPropertyOp31
 70
     1
102
RTVSPropertyOp32
 70
     1
102
RTVSPropertyOp33
 70
     1
102
RTVSPropertyOp34
 70
     1
102
RTVSPropertyOp35
 70
     1
102
RTVSPropertyOp36
 70
     1
102
RTVSPropertyOp37
 70
     1
102
RTVSPropertyOp38
 70
     1
102
RTVSPropertyOp39
 70
     1
102
RTVSPropertyOp40
 70
     1
102
RTVSPropertyOp41
 70
     1
102
RTVSPropertyOp42
 70
     1
102
RTVSPropertyOp43
 70
     1
102
RTVSPropertyOp44
 70
     1
102
RTVSPropertyOp45
 70
     1
102
RTVSPropertyOp46
 70
     1
102
RTVSPropertyOp47
 70
     1
102
RTVSPropertyOp48
 70
     1
102
RTVSPropertyOp49
 70
     1
102
RTVSPropertyOp50
 70
     1
102
RTVSPropertyOp51
 70
     0
102
RTVSPropertyOp52
 70
     0
102
RTVSPropertyOp53
 70
     1
102
RTVSPropertyOp54
 70
     1
102
RTVSPropertyOp55
 70
     1
102
RTVSPropertyOp56
 70
     1
102
RTVSPropertyOp57
 70
     1
102
RTVSPost2010Prop28
280
     0
102
RTVSPost2010PropOp28
 70
     1
102
RTVSPost2010Prop29
280
     1
102
RTVSPost2010PropOp29
 70
     1
102
RTVSPost2010Prop30
280
     1
102
RTVSPost2010PropOp30
 70
     1
102
RTVSPost2010Prop31
280
     0
102
RTVSPost2010PropOp31
 70
     1
102
RTVSPost2010Prop32
280
     0
102
RTVSPost2010PropOp32
 70
     1
102
RTVSPost2010Prop33
280
     0
102
RTVSPost2010PropOp33
 70
     1
102
RTVSPost2010Prop34
280
     0
102
RTVSPost2010PropOp34
 70
     1
102
RTVSPost2010Prop35
280
     0
102
RTVSPost2010PropOp35
 70
     1
102
RTVSPost2010Prop36
280
     0
102
RTVSPost2010PropOp36
 70
     1
102
RTVSPost2010Prop37
 90
       50
102
RTVSPost2010PropOp37
 70
     1
102
RTVSPost2010Prop38
140
0.0
102
RTVSPost2010PropOp38
 70
     1
102
RTVSPost2010Prop39
140
1.0
102
RTVSPost2010PropOp39
 70
     1
102
RTVSPost2010Prop40
 90
        0
102
RTVSPost2010PropOp40
 70
     1
102
RTVSPost2010Prop41ColorIndex
 90
       18
102
RTVSPost2010Prop41ColorRGB
 90
        0
102
RTVSPost2010PropOp41
 70
     1
102
RTVSPost2010Prop42
 90
       50
102
RTVSPost2010PropOp42
 70
     1
102
RTVSPost2010Prop43
 90
        3
102
RTVSPost2010PropOp43
 70
     1
102
RTVSPost2010Prop44ColorIndex
 90
        5
102
RTVSPost2010Prop44ColorRGB
 90
      255
102
RTVSPost2010PropOp44
 70
     1
102
RTVSPost2010Prop45
280
     0
102
RTVSPost2010PropOp45
 70
     1
102
RTVSPost2010Prop46
 90
       50
102
RTVSPost2010PropOp46
 70
     1
102
RTVSPost2010Prop47
 90
       50
102
RTVSPost2010PropOp47
 70
     1
102
RTVSPost2010Prop48
 90
       50
102
RTVSPost2010PropOp48
 70
     1
102
RTVSPost2010Prop49
280
     0
102
RTVSPost2010PropOp49
 70
     1
102
RTVSPost2010Prop50
 90
       50
102
RTVSPost2010PropOp50
 70
     1
102
RTVSPost2010Prop51ColorIndex
 90
      256
102
RTVSPost2010Prop51ColorRGB
 90
-16777216
102
RTVSPost2010PropOp51
 70
     0
102
RTVSPost2010Prop52
140
1.0
102
RTVSPost2010PropOp52
 70
     0
102
RTVSPost2010Prop53
 90
        2
102
RTVSPost2010PropOp53
 70
     1
102
RTVSPost2010Prop54
  1
strokes_ogs.tif
102
RTVSPost2010PropOp54
 70
     1
102
RTVSPost2010Prop55
280
     0
102
RTVSPost2010PropOp55
 70
     1
102
RTVSPost2010Prop56
140
1.0
102
RTVSPost2010PropOp56
 70
     1
102
RTVSPost2010Prop57
140
1.0
102
RTVSPost2010PropOp57
 70
     1
  0
XRECORD
  5
29D
102
{ACAD_REACTORS
330
29C
102
}
330
29C
100
AcDbXrecord
280
     1
102
RTVSPropertyOp0
 70
     0
102
RTVSPropertyOp1
 70
     0
102
RTVSPropertyOp2
 70
     0
102
RTVSPropertyOp3
 70
     0
102
RTVSPropertyOp4
 70
     0
102
RTVSPropertyOp5
 70
     0
102
RTVSPropertyOp6
 70
     0
102
RTVSPropertyOp7
 70
     0
102
RTVSPropertyOp8
 70
     0
102
RTVSPropertyOp9
 70
     0
102
RTVSPropertyOp10
 70
     0
102
RTVSPropertyOp11
 70
     0
102
RTVSPropertyOp12
 70
     0
102
RTVSPropertyOp13
 70
     0
102
RTVSPropertyOp14
 70
     2
102
RTVSPropertyOp15
 70
     0
102
RTVSPropertyOp16
 70
     0
102
RTVSPropertyOp17
 70
     0
102
RTVSPropertyOp18
 70
     0
102
RTVSPropertyOp19
 70
     0
102
RTVSPropertyOp20
 70
     0
102
RTVSPropertyOp21
 70
     0
102
RTVSPropertyOp22
 70
     0
102
RTVSPropertyOp23
 70
     0
102
RTVSPropertyOp24
 70
     0
102
RTVSPropertyOp25
 70
     0
102
RTVSPropertyOp26
 70
     0
102
RTVSPropertyOp27
 70
     0
102
RTVSPropertyOp28
 70
     0
102
RTVSPropertyOp29
 70
     0
102
RTVSPropertyOp30
 70
     0
102
RTVSPropertyOp31
 70
     0
102
RTVSPropertyOp32
 70
     0
102
RTVSPropertyOp33
 70
     0
102
RTVSPropertyOp34
 70
     0
102
RTVSPropertyOp35
 70
     0
102
RTVSPropertyOp36
 70
     0
102
RTVSPropertyOp37
 70
     0
102
RTVSPropertyOp38
 70
     0
102
RTVSPropertyOp39
 70
     0
102
RTVSPropertyOp40
 70
     0
102
RTVSPropertyOp41
 70
     0
102
RTVSPropertyOp42
 70
     0
102
RTVSPropertyOp43
 70
     0
102
RTVSPropertyOp44
 70
     0
102
RTVSPropertyOp45
 70
     0
102
RTVSPropertyOp46
 70
     0
102
RTVSPropertyOp47
 70
     0
102
RTVSPropertyOp48
 70
     0
102
RTVSPropertyOp49
 70
     0
102
RTVSPropertyOp50
 70
     0
102
RTVSPropertyOp51
 70
     0
102
RTVSPropertyOp52
 70
     0
102
RTVSPropertyOp53
 70
     0
102
RTVSPropertyOp54
 70
     0
102
RTVSPropertyOp55
 70
     0
102
RTVSPropertyOp56
 70
     0
102
RTVSPropertyOp57
 70
     0
102
RTVSPost2010Prop28
280
     0
102
RTVSPost2010PropOp28
 70
     0
102
RTVSPost2010Prop29
280
     1
102
RTVSPost2010PropOp29
 70
     0
102
RTVSPost2010Prop30
280
     1
102
RTVSPost2010PropOp30
 70
     0
102
RTVSPost2010Prop31
280
     0
102
RTVSPost2010PropOp31
 70
     0
102
RTVSPost2010Prop32
280
     0
102
RTVSPost2010PropOp32
 70
     0
102
RTVSPost2010Prop33
280
     0
102
RTVSPost2010PropOp33
 70
     0
102
RTVSPost2010Prop34
280
     0
102
RTVSPost2010PropOp34
 70
     0
102
RTVSPost2010Prop35
280
     0
102
RTVSPost2010PropOp35
 70
     0
102
RTVSPost2010Prop36
280
     0
102
RTVSPost2010PropOp36
 70
     0
102
RTVSPost2010Prop37
 90
       50
102
RTVSPost2010PropOp37
 70
     0
102
RTVSPost2010Prop38
140
0.0
102
RTVSPost2010PropOp38
 70
     0
102
RTVSPost2010Prop39
140
1.0
102
RTVSPost2010PropOp39
 70
     0
102
RTVSPost2010Prop40
 90
        0
102
RTVSPost2010PropOp40
 70
     0
102
RTVSPost2010Prop41ColorIndex
 90
       18
102
RTVSPost2010Prop41ColorRGB
 90
        0
102
RTVSPost2010PropOp41
 70
     0
102
RTVSPost2010Prop42
 90
       50
102
RTVSPost2010PropOp42
 70
     0
102
RTVSPost2010Prop43
 90
        3
102
RTVSPost2010PropOp43
 70
     0
102
RTVSPost2010Prop44ColorIndex
 90
        5
102
RTVSPost2010Prop44ColorRGB
 90
      255
102
RTVSPost2010PropOp44
 70
     0
102
RTVSPost2010Prop45
280
     0
102
RTVSPost2010PropOp45
 70
     0
102
RTVSPost2010Prop46
 90
       50
102
RTVSPost2010PropOp46
 70
     0
102
RTVSPost2010Prop47
 90
       50
102
RTVSPost2010PropOp47
 70
     0
102
RTVSPost2010Prop48
 90
       50
102
RTVSPost2010PropOp48
 70
     0
102
RTVSPost2010Prop49
280
     0
102
RTVSPost2010PropOp49
 70
     0
102
RTVSPost2010Prop50
 90
       50
102
RTVSPost2010PropOp50
 70
     0
102
RTVSPost2010Prop51ColorIndex
 90
      256
102
RTVSPost2010Prop51ColorRGB
 90
-16777216
102
RTVSPost2010PropOp51
 70
     0
102
RTVSPost2010Prop52
140
1.0
102
RTVSPost2010PropOp52
 70
     0
102
RTVSPost2010Prop53
 90
        2
102
RTVSPost2010PropOp53
 70
     0
102
RTVSPost2010Prop54
  1
strokes_ogs.tif
102
RTVSPost2010PropOp54
 70
     0
102
RTVSPost2010Prop55
280
     0
102
RTVSPost2010PropOp55
 70
     0
102
RTVSPost2010Prop56
140
1.0
102
RTVSPost2010PropOp56
 70
     0
102
RTVSPost2010Prop57
140
1.0
102
RTVSPost2010PropOp57
 70
     0
  0
XRECORD
  5
28B
102
{ACAD_REACTORS
330
28A
102
}
330
28A
100
AcDbXrecord
280
     1
102
RTVSPropertyOp0
 70
     1
102
RTVSPropertyOp1
 70
     1
102
RTVSPropertyOp2
 70
     1
102
RTVSPropertyOp3
 70
     1
102
RTVSPropertyOp4
 70
     1
102
RTVSPropertyOp5
 70
     1
102
RTVSPropertyOp6
 70
     1
102
RTVSPropertyOp7
 70
     1
102
RTVSPropertyOp8
 70
     1
102
RTVSPropertyOp9
 70
     1
102
RTVSPropertyOp10
 70
     1
102
RTVSPropertyOp11
 70
     1
102
RTVSPropertyOp12
 70
     1
102
RTVSPropertyOp13
 70
     1
102
RTVSPropertyOp14
 70
     1
102
RTVSPropertyOp15
 70
     1
102
RTVSPropertyOp16
 70
     1
102
RTVSPropertyOp17
 70
     1
102
RTVSPropertyOp18
 70
     1
102
RTVSPropertyOp19
 70
     1
102
RTVSPropertyOp20
 70
     1
102
RTVSPropertyOp21
 70
     1
102
RTVSPropertyOp22
 70
     1
102
RTVSPropertyOp23
 70
     1
102
RTVSPropertyOp24
 70
     1
102
RTVSPropertyOp25
 70
     1
102
RTVSPropertyOp26
 70
     1
102
RTVSPropertyOp27
 70
     1
102
RTVSPropertyOp28
 70
     1
102
RTVSPropertyOp29
 70
     1
102
RTVSPropertyOp30
 70
     1
102
RTVSPropertyOp31
 70
     1
102
RTVSPropertyOp32
 70
     1
102
RTVSPropertyOp33
 70
     1
102
RTVSPropertyOp34
 70
     1
102
RTVSPropertyOp35
 70
     1
102
RTVSPropertyOp36
 70
     1
102
RTVSPropertyOp37
 70
     1
102
RTVSPropertyOp38
 70
     1
102
RTVSPropertyOp39
 70
     1
102
RTVSPropertyOp40
 70
     1
102
RTVSPropertyOp41
 70
     1
102
RTVSPropertyOp42
 70
     1
102
RTVSPropertyOp43
 70
     1
102
RTVSPropertyOp44
 70
     1
102
RTVSPropertyOp45
 70
     1
102
RTVSPropertyOp46
 70
     1
102
RTVSPropertyOp47
 70
     1
102
RTVSPropertyOp48
 70
     1
102
RTVSPropertyOp49
 70
     1
102
RTVSPropertyOp50
 70
     1
102
RTVSPropertyOp51
 70
     0
102
RTVSPropertyOp52
 70
     0
102
RTVSPropertyOp53
 70
     1
102
RTVSPropertyOp54
 70
     1
102
RTVSPropertyOp55
 70
     1
102
RTVSPropertyOp56
 70
     1
102
RTVSPropertyOp57
 70
     1
102
RTVSPost2010Prop28
280
     0
102
RTVSPost2010PropOp28
 70
     1
102
RTVSPost2010Prop29
280
     1
102
RTVSPost2010PropOp29
 70
     1
102
RTVSPost2010Prop30
280
     1
102
RTVSPost2010PropOp30
 70
     1
102
RTVSPost2010Prop31
280
     0
102
RTVSPost2010PropOp31
 70
     1
102
RTVSPost2010Prop32
280
     0
102
RTVSPost2010PropOp32
 70
     1
102
RTVSPost2010Prop33
280
     0
102
RTVSPost2010PropOp33
 70
     1
102
RTVSPost2010Prop34
280
     0
102
RTVSPost2010PropOp34
 70
     1
102
RTVSPost2010Prop35
280
     0
102
RTVSPost2010PropOp35
 70
     1
102
RTVSPost2010Prop36
280
     0
102
RTVSPost2010PropOp36
 70
     1
102
RTVSPost2010Prop37
 90
       50
102
RTVSPost2010PropOp37
 70
     1
102
RTVSPost2010Prop38
140
0.0
102
RTVSPost2010PropOp38
 70
     1
102
RTVSPost2010Prop39
140
1.0
102
RTVSPost2010PropOp39
 70
     1
102
RTVSPost2010Prop40
 90
        0
102
RTVSPost2010PropOp40
 70
     1
102
RTVSPost2010Prop41ColorIndex
 90
       18
102
RTVSPost2010Prop41ColorRGB
 90
        0
102
RTVSPost2010PropOp41
 70
     1
102
RTVSPost2010Prop42
 90
       50
102
RTVSPost2010PropOp42
 70
     1
102
RTVSPost2010Prop43
 90
        3
102
RTVSPost2010PropOp43
 70
     1
102
RTVSPost2010Prop44ColorIndex
 90
        5
102
RTVSPost2010Prop44ColorRGB
 90
      255
102
RTVSPost2010PropOp44
 70
     1
102
RTVSPost2010Prop45
280
     0
102
RTVSPost2010PropOp45
 70
     1
102
RTVSPost2010Prop46
 90
       50
102
RTVSPost2010PropOp46
 70
     1
102
RTVSPost2010Prop47
 90
       50
102
RTVSPost2010PropOp47
 70
     1
102
RTVSPost2010Prop48
 90
       50
102
RTVSPost2010PropOp48
 70
     1
102
RTVSPost2010Prop49
280
     0
102
RTVSPost2010PropOp49
 70
     1
102
RTVSPost2010Prop50
 90
       50
102
RTVSPost2010PropOp50
 70
     1
102
RTVSPost2010Prop51ColorIndex
 90
      256
102
RTVSPost2010Prop51ColorRGB
 90
-16777216
102
RTVSPost2010PropOp51
 70
     0
102
RTVSPost2010Prop52
140
1.0
102
RTVSPost2010PropOp52
 70
     0
102
RTVSPost2010Prop53
 90
        2
102
RTVSPost2010PropOp53
 70
     1
102
RTVSPost2010Prop54
  1
strokes_ogs.tif
102
RTVSPost2010PropOp54
 70
     1
102
RTVSPost2010Prop55
280
     0
102
RTVSPost2010PropOp55
 70
     1
102
RTVSPost2010Prop56
140
1.0
102
RTVSPost2010PropOp56
 70
     1
102
RTVSPost2010Prop57
140
1.0
102
RTVSPost2010PropOp57
 70
     1
  0
XRECORD
  5
2A9
102
{ACAD_REACTORS
330
2A8
102
}
330
2A8
100
AcDbXrecord
280
     1
102
RTVSPropertyOp0
 70
     1
102
RTVSPropertyOp1
 70
     1
102
RTVSPropertyOp2
 70
     1
102
RTVSPropertyOp3
 70
     1
102
RTVSPropertyOp4
 70
     1
102
RTVSPropertyOp5
 70
     1
102
RTVSPropertyOp6
 70
     1
102
RTVSPropertyOp7
 70
     1
102
RTVSPropertyOp8
 70
     1
102
RTVSPropertyOp9
 70
     1
102
RTVSPropertyOp10
 70
     1
102
RTVSPropertyOp11
 70
     1
102
RTVSPropertyOp12
 70
     1
102
RTVSPropertyOp13
 70
     1
102
RTVSPropertyOp14
 70
     1
102
RTVSPropertyOp15
 70
     1
102
RTVSPropertyOp16
 70
     1
102
RTVSPropertyOp17
 70
     1
102
RTVSPropertyOp18
 70
     1
102
RTVSPropertyOp19
 70
     1
102
RTVSPropertyOp20
 70
     1
102
RTVSPropertyOp21
 70
     1
102
RTVSPropertyOp22
 70
     1
102
RTVSPropertyOp23
 70
     1
102
RTVSPropertyOp24
 70
     1
102
RTVSPropertyOp25
 70
     1
102
RTVSPropertyOp26
 70
     1
102
RTVSPropertyOp27
 70
     1
102
RTVSPropertyOp28
 70
     1
102
RTVSPropertyOp29
 70
     1
102
RTVSPropertyOp30
 70
     1
102
RTVSPropertyOp31
 70
     1
102
RTVSPropertyOp32
 70
     1
102
RTVSPropertyOp33
 70
     1
102
RTVSPropertyOp34
 70
     1
102
RTVSPropertyOp35
 70
     1
102
RTVSPropertyOp36
 70
     1
102
RTVSPropertyOp37
 70
     1
102
RTVSPropertyOp38
 70
     1
102
RTVSPropertyOp39
 70
     1
102
RTVSPropertyOp40
 70
     1
102
RTVSPropertyOp41
 70
     1
102
RTVSPropertyOp42
 70
     1
102
RTVSPropertyOp43
 70
     1
102
RTVSPropertyOp44
 70
     1
102
RTVSPropertyOp45
 70
     1
102
RTVSPropertyOp46
 70
     1
102
RTVSPropertyOp47
 70
     1
102
RTVSPropertyOp48
 70
     1
102
RTVSPropertyOp49
 70
     1
102
RTVSPropertyOp50
 70
     1
102
RTVSPropertyOp51
 70
     0
102
RTVSPropertyOp52
 70
     0
102
RTVSPropertyOp53
 70
     1
102
RTVSPropertyOp54
 70
     1
102
RTVSPropertyOp55
 70
     1
102
RTVSPropertyOp56
 70
     1
102
RTVSPropertyOp57
 70
     1
102
RTVSPost2010Prop28
280
     0
102
RTVSPost2010PropOp28
 70
     1
102
RTVSPost2010Prop29
280
     1
102
RTVSPost2010PropOp29
 70
     1
102
RTVSPost2010Prop30
280
     1
102
RTVSPost2010PropOp30
 70
     1
102
RTVSPost2010Prop31
280
     0
102
RTVSPost2010PropOp31
 70
     1
102
RTVSPost2010Prop32
280
     0
102
RTVSPost2010PropOp32
 70
     1
102
RTVSPost2010Prop33
280
     0
102
RTVSPost2010PropOp33
 70
     1
102
RTVSPost2010Prop34
280
     0
102
RTVSPost2010PropOp34
 70
     1
102
RTVSPost2010Prop35
280
     0
102
RTVSPost2010PropOp35
 70
     1
102
RTVSPost2010Prop36
280
     0
102
RTVSPost2010PropOp36
 70
     1
102
RTVSPost2010Prop37
 90
       50
102
RTVSPost2010PropOp37
 70
     1
102
RTVSPost2010Prop38
140
0.0
102
RTVSPost2010PropOp38
 70
     1
102
RTVSPost2010Prop39
140
1.0
102
RTVSPost2010PropOp39
 70
     1
102
RTVSPost2010Prop40
 90
        0
102
RTVSPost2010PropOp40
 70
     1
102
RTVSPost2010Prop41ColorIndex
 90
       18
102
RTVSPost2010Prop41ColorRGB
 90
        0
102
RTVSPost2010PropOp41
 70
     1
102
RTVSPost2010Prop42
 90
       50
102
RTVSPost2010PropOp42
 70
     1
102
RTVSPost2010Prop43
 90
        3
102
RTVSPost2010PropOp43
 70
     1
102
RTVSPost2010Prop44ColorIndex
 90
        5
102
RTVSPost2010Prop44ColorRGB
 90
      255
102
RTVSPost2010PropOp44
 70
     1
102
RTVSPost2010Prop45
280
     0
102
RTVSPost2010PropOp45
 70
     1
102
RTVSPost2010Prop46
 90
       50
102
RTVSPost2010PropOp46
 70
     1
102
RTVSPost2010Prop47
 90
       50
102
RTVSPost2010PropOp47
 70
     1
102
RTVSPost2010Prop48
 90
       50
102
RTVSPost2010PropOp48
 70
     1
102
RTVSPost2010Prop49
280
     0
102
RTVSPost2010PropOp49
 70
     1
102
RTVSPost2010Prop50
 90
       50
102
RTVSPost2010PropOp50
 70
     1
102
RTVSPost2010Prop51ColorIndex
 90
      256
102
RTVSPost2010Prop51ColorRGB
 90
-16777216
102
RTVSPost2010PropOp51
 70
     0
102
RTVSPost2010Prop52
140
1.0
102
RTVSPost2010PropOp52
 70
     0
102
RTVSPost2010Prop53
 90
        2
102
RTVSPost2010PropOp53
 70
     1
102
RTVSPost2010Prop54
  1
strokes_ogs.tif
102
RTVSPost2010PropOp54
 70
     1
102
RTVSPost2010Prop55
280
     0
102
RTVSPost2010PropOp55
 70
     1
102
RTVSPost2010Prop56
140
1.0
102
RTVSPost2010PropOp56
 70
     1
102
RTVSPost2010Prop57
140
1.0
102
RTVSPost2010PropOp57
 70
     1
  0
XRECORD
  5
2A7
102
{ACAD_REACTORS
330
2A6
102
}
330
2A6
100
AcDbXrecord
280
     1
102
RTVSPropertyOp0
 70
     1
102
RTVSPropertyOp1
 70
     1
102
RTVSPropertyOp2
 70
     1
102
RTVSPropertyOp3
 70
     1
102
RTVSPropertyOp4
 70
     1
102
RTVSPropertyOp5
 70
     1
102
RTVSPropertyOp6
 70
     1
102
RTVSPropertyOp7
 70
     1
102
RTVSPropertyOp8
 70
     1
102
RTVSPropertyOp9
 70
     1
102
RTVSPropertyOp10
 70
     1
102
RTVSPropertyOp11
 70
     1
102
RTVSPropertyOp12
 70
     1
102
RTVSPropertyOp13
 70
     1
102
RTVSPropertyOp14
 70
     1
102
RTVSPropertyOp15
 70
     1
102
RTVSPropertyOp16
 70
     1
102
RTVSPropertyOp17
 70
     1
102
RTVSPropertyOp18
 70
     1
102
RTVSPropertyOp19
 70
     1
102
RTVSPropertyOp20
 70
     1
102
RTVSPropertyOp21
 70
     1
102
RTVSPropertyOp22
 70
     1
102
RTVSPropertyOp23
 70
     1
102
RTVSPropertyOp24
 70
     1
102
RTVSPropertyOp25
 70
     1
102
RTVSPropertyOp26
 70
     1
102
RTVSPropertyOp27
 70
     1
102
RTVSPropertyOp28
 70
     1
102
RTVSPropertyOp29
 70
     1
102
RTVSPropertyOp30
 70
     1
102
RTVSPropertyOp31
 70
     1
102
RTVSPropertyOp32
 70
     1
102
RTVSPropertyOp33
 70
     1
102
RTVSPropertyOp34
 70
     1
102
RTVSPropertyOp35
 70
     1
102
RTVSPropertyOp36
 70
     1
102
RTVSPropertyOp37
 70
     1
102
RTVSPropertyOp38
 70
     1
102
RTVSPropertyOp39
 70
     1
102
RTVSPropertyOp40
 70
     1
102
RTVSPropertyOp41
 70
     1
102
RTVSPropertyOp42
 70
     1
102
RTVSPropertyOp43
 70
     1
102
RTVSPropertyOp44
 70
     1
102
RTVSPropertyOp45
 70
     1
102
RTVSPropertyOp46
 70
     1
102
RTVSPropertyOp47
 70
     1
102
RTVSPropertyOp48
 70
     1
102
RTVSPropertyOp49
 70
     1
102
RTVSPropertyOp50
 70
     1
102
RTVSPropertyOp51
 70
     0
102
RTVSPropertyOp52
 70
     0
102
RTVSPropertyOp53
 70
     1
102
RTVSPropertyOp54
 70
     1
102
RTVSPropertyOp55
 70
     1
102
RTVSPropertyOp56
 70
     1
102
RTVSPropertyOp57
 70
     1
102
RTVSPost2010Prop28
280
     0
102
RTVSPost2010PropOp28
 70
     1
102
RTVSPost2010Prop29
280
     1
102
RTVSPost2010PropOp29
 70
     1
102
RTVSPost2010Prop30
280
     1
102
RTVSPost2010PropOp30
 70
     1
102
RTVSPost2010Prop31
280
     0
102
RTVSPost2010PropOp31
 70
     1
102
RTVSPost2010Prop32
280
     0
102
RTVSPost2010PropOp32
 70
     1
102
RTVSPost2010Prop33
280
     0
102
RTVSPost2010PropOp33
 70
     1
102
RTVSPost2010Prop34
280
     0
102
RTVSPost2010PropOp34
 70
     1
102
RTVSPost2010Prop35
280
     0
102
RTVSPost2010PropOp35
 70
     1
102
RTVSPost2010Prop36
280
     0
102
RTVSPost2010PropOp36
 70
     1
102
RTVSPost2010Prop37
 90
       50
102
RTVSPost2010PropOp37
 70
     1
102
RTVSPost2010Prop38
140
0.0
102
RTVSPost2010PropOp38
 70
     1
102
RTVSPost2010Prop39
140
1.0
102
RTVSPost2010PropOp39
 70
     1
102
RTVSPost2010Prop40
 90
        0
102
RTVSPost2010PropOp40
 70
     1
102
RTVSPost2010Prop41ColorIndex
 90
       18
102
RTVSPost2010Prop41ColorRGB
 90
        0
102
RTVSPost2010PropOp41
 70
     1
102
RTVSPost2010Prop42
 90
       50
102
RTVSPost2010PropOp42
 70
     1
102
RTVSPost2010Prop43
 90
        3
102
RTVSPost2010PropOp43
 70
     1
102
RTVSPost2010Prop44ColorIndex
 90
        5
102
RTVSPost2010Prop44ColorRGB
 90
      255
102
RTVSPost2010PropOp44
 70
     1
102
RTVSPost2010Prop45
280
     0
102
RTVSPost2010PropOp45
 70
     1
102
RTVSPost2010Prop46
 90
       50
102
RTVSPost2010PropOp46
 70
     1
102
RTVSPost2010Prop47
 90
       50
102
RTVSPost2010PropOp47
 70
     1
102
RTVSPost2010Prop48
 90
       50
102
RTVSPost2010PropOp48
 70
     1
102
RTVSPost2010Prop49
280
     0
102
RTVSPost2010PropOp49
 70
     1
102
RTVSPost2010Prop50
 90
       50
102
RTVSPost2010PropOp50
 70
     1
102
RTVSPost2010Prop51ColorIndex
 90
      256
102
RTVSPost2010Prop51ColorRGB
 90
-16777216
102
RTVSPost2010PropOp51
 70
     0
102
RTVSPost2010Prop52
140
1.0
102
RTVSPost2010PropOp52
 70
     0
102
RTVSPost2010Prop53
 90
        2
102
RTVSPost2010PropOp53
 70
     1
102
RTVSPost2010Prop54
  1
strokes_ogs.tif
102
RTVSPost2010PropOp54
 70
     1
102
RTVSPost2010Prop55
280
     0
102
RTVSPost2010PropOp55
 70
     1
102
RTVSPost2010Prop56
140
1.0
102
RTVSPost2010PropOp56
 70
     1
102
RTVSPost2010Prop57
140
1.0
102
RTVSPost2010PropOp57
 70
     1
  0
XRECORD
  5
2A1
102
{ACAD_REACTORS
330
2A0
102
}
330
2A0
100
AcDbXrecord
280
     1
102
RTVSPropertyOp0
 70
     1
102
RTVSPropertyOp1
 70
     1
102
RTVSPropertyOp2
 70
     1
102
RTVSPropertyOp3
 70
     1
102
RTVSPropertyOp4
 70
     1
102
RTVSPropertyOp5
 70
     1
102
RTVSPropertyOp6
 70
     1
102
RTVSPropertyOp7
 70
     1
102
RTVSPropertyOp8
 70
     1
102
RTVSPropertyOp9
 70
     1
102
RTVSPropertyOp10
 70
     1
102
RTVSPropertyOp11
 70
     1
102
RTVSPropertyOp12
 70
     1
102
RTVSPropertyOp13
 70
     1
102
RTVSPropertyOp14
 70
     1
102
RTVSPropertyOp15
 70
     1
102
RTVSPropertyOp16
 70
     1
102
RTVSPropertyOp17
 70
     1
102
RTVSPropertyOp18
 70
     1
102
RTVSPropertyOp19
 70
     1
102
RTVSPropertyOp20
 70
     1
102
RTVSPropertyOp21
 70
     1
102
RTVSPropertyOp22
 70
     1
102
RTVSPropertyOp23
 70
     1
102
RTVSPropertyOp24
 70
     1
102
RTVSPropertyOp25
 70
     1
102
RTVSPropertyOp26
 70
     1
102
RTVSPropertyOp27
 70
     1
102
RTVSPropertyOp28
 70
     1
102
RTVSPropertyOp29
 70
     1
102
RTVSPropertyOp30
 70
     1
102
RTVSPropertyOp31
 70
     1
102
RTVSPropertyOp32
 70
     1
102
RTVSPropertyOp33
 70
     1
102
RTVSPropertyOp34
 70
     1
102
RTVSPropertyOp35
 70
     1
102
RTVSPropertyOp36
 70
     1
102
RTVSPropertyOp37
 70
     1
102
RTVSPropertyOp38
 70
     1
102
RTVSPropertyOp39
 70
     1
102
RTVSPropertyOp40
 70
     1
102
RTVSPropertyOp41
 70
     1
102
RTVSPropertyOp42
 70
     1
102
RTVSPropertyOp43
 70
     1
102
RTVSPropertyOp44
 70
     1
102
RTVSPropertyOp45
 70
     1
102
RTVSPropertyOp46
 70
     1
102
RTVSPropertyOp47
 70
     1
102
RTVSPropertyOp48
 70
     1
102
RTVSPropertyOp49
 70
     1
102
RTVSPropertyOp50
 70
     1
102
RTVSPropertyOp51
 70
     0
102
RTVSPropertyOp52
 70
     0
102
RTVSPropertyOp53
 70
     1
102
RTVSPropertyOp54
 70
     1
102
RTVSPropertyOp55
 70
     1
102
RTVSPropertyOp56
 70
     1
102
RTVSPropertyOp57
 70
     1
102
RTVSPost2010Prop28
280
     0
102
RTVSPost2010PropOp28
 70
     1
102
RTVSPost2010Prop29
280
     1
102
RTVSPost2010PropOp29
 70
     1
102
RTVSPost2010Prop30
280
     1
102
RTVSPost2010PropOp30
 70
     1
102
RTVSPost2010Prop31
280
     0
102
RTVSPost2010PropOp31
 70
     1
102
RTVSPost2010Prop32
280
     0
102
RTVSPost2010PropOp32
 70
     1
102
RTVSPost2010Prop33
280
     0
102
RTVSPost2010PropOp33
 70
     1
102
RTVSPost2010Prop34
280
     0
102
RTVSPost2010PropOp34
 70
     1
102
RTVSPost2010Prop35
280
     0
102
RTVSPost2010PropOp35
 70
     1
102
RTVSPost2010Prop36
280
     0
102
RTVSPost2010PropOp36
 70
     1
102
RTVSPost2010Prop37
 90
       50
102
RTVSPost2010PropOp37
 70
     1
102
RTVSPost2010Prop38
140
0.0
102
RTVSPost2010PropOp38
 70
     1
102
RTVSPost2010Prop39
140
1.0
102
RTVSPost2010PropOp39
 70
     1
102
RTVSPost2010Prop40
 90
        0
102
RTVSPost2010PropOp40
 70
     1
102
RTVSPost2010Prop41ColorIndex
 90
       18
102
RTVSPost2010Prop41ColorRGB
 90
        0
102
RTVSPost2010PropOp41
 70
     1
102
RTVSPost2010Prop42
 90
       50
102
RTVSPost2010PropOp42
 70
     1
102
RTVSPost2010Prop43
 90
        3
102
RTVSPost2010PropOp43
 70
     1
102
RTVSPost2010Prop44ColorIndex
 90
        5
102
RTVSPost2010Prop44ColorRGB
 90
      255
102
RTVSPost2010PropOp44
 70
     1
102
RTVSPost2010Prop45
280
     0
102
RTVSPost2010PropOp45
 70
     1
102
RTVSPost2010Prop46
 90
       50
102
RTVSPost2010PropOp46
 70
     1
102
RTVSPost2010Prop47
 90
       50
102
RTVSPost2010PropOp47
 70
     1
102
RTVSPost2010Prop48
 90
       50
102
RTVSPost2010PropOp48
 70
     1
102
RTVSPost2010Prop49
280
     0
102
RTVSPost2010PropOp49
 70
     1
102
RTVSPost2010Prop50
 90
       50
102
RTVSPost2010PropOp50
 70
     1
102
RTVSPost2010Prop51ColorIndex
 90
      256
102
RTVSPost2010Prop51ColorRGB
 90
-16777216
102
RTVSPost2010PropOp51
 70
     0
102
RTVSPost2010Prop52
140
1.0
102
RTVSPost2010PropOp52
 70
     0
102
RTVSPost2010Prop53
 90
        2
102
RTVSPost2010PropOp53
 70
     1
102
RTVSPost2010Prop54
  1
strokes_ogs.tif
102
RTVSPost2010PropOp54
 70
     1
102
RTVSPost2010Prop55
280
     0
102
RTVSPost2010PropOp55
 70
     1
102
RTVSPost2010Prop56
140
1.0
102
RTVSPost2010PropOp56
 70
     1
102
RTVSPost2010Prop57
140
1.0
102
RTVSPost2010PropOp57
 70
     1
  0
XRECORD
  5
2A3
102
{ACAD_REACTORS
330
2A2
102
}
330
2A2
100
AcDbXrecord
280
     1
102
RTVSPropertyOp0
 70
     1
102
RTVSPropertyOp1
 70
     1
102
RTVSPropertyOp2
 70
     1
102
RTVSPropertyOp3
 70
     1
102
RTVSPropertyOp4
 70
     1
102
RTVSPropertyOp5
 70
     1
102
RTVSPropertyOp6
 70
     1
102
RTVSPropertyOp7
 70
     1
102
RTVSPropertyOp8
 70
     1
102
RTVSPropertyOp9
 70
     1
102
RTVSPropertyOp10
 70
     1
102
RTVSPropertyOp11
 70
     1
102
RTVSPropertyOp12
 70
     1
102
RTVSPropertyOp13
 70
     1
102
RTVSPropertyOp14
 70
     1
102
RTVSPropertyOp15
 70
     1
102
RTVSPropertyOp16
 70
     1
102
RTVSPropertyOp17
 70
     1
102
RTVSPropertyOp18
 70
     1
102
RTVSPropertyOp19
 70
     1
102
RTVSPropertyOp20
 70
     1
102
RTVSPropertyOp21
 70
     1
102
RTVSPropertyOp22
 70
     1
102
RTVSPropertyOp23
 70
     1
102
RTVSPropertyOp24
 70
     1
102
RTVSPropertyOp25
 70
     1
102
RTVSPropertyOp26
 70
     1
102
RTVSPropertyOp27
 70
     1
102
RTVSPropertyOp28
 70
     1
102
RTVSPropertyOp29
 70
     1
102
RTVSPropertyOp30
 70
     1
102
RTVSPropertyOp31
 70
     1
102
RTVSPropertyOp32
 70
     1
102
RTVSPropertyOp33
 70
     1
102
RTVSPropertyOp34
 70
     1
102
RTVSPropertyOp35
 70
     1
102
RTVSPropertyOp36
 70
     1
102
RTVSPropertyOp37
 70
     1
102
RTVSPropertyOp38
 70
     1
102
RTVSPropertyOp39
 70
     1
102
RTVSPropertyOp40
 70
     1
102
RTVSPropertyOp41
 70
     1
102
RTVSPropertyOp42
 70
     1
102
RTVSPropertyOp43
 70
     1
102
RTVSPropertyOp44
 70
     1
102
RTVSPropertyOp45
 70
     1
102
RTVSPropertyOp46
 70
     1
102
RTVSPropertyOp47
 70
     1
102
RTVSPropertyOp48
 70
     1
102
RTVSPropertyOp49
 70
     1
102
RTVSPropertyOp50
 70
     1
102
RTVSPropertyOp51
 70
     0
102
RTVSPropertyOp52
 70
     0
102
RTVSPropertyOp53
 70
     1
102
RTVSPropertyOp54
 70
     1
102
RTVSPropertyOp55
 70
     1
102
RTVSPropertyOp56
 70
     1
102
RTVSPropertyOp57
 70
     1
102
RTVSPost2010Prop28
280
     0
102
RTVSPost2010PropOp28
 70
     1
102
RTVSPost2010Prop29
280
     1
102
RTVSPost2010PropOp29
 70
     1
102
RTVSPost2010Prop30
280
     1
102
RTVSPost2010PropOp30
 70
     1
102
RTVSPost2010Prop31
280
     0
102
RTVSPost2010PropOp31
 70
     1
102
RTVSPost2010Prop32
280
     0
102
RTVSPost2010PropOp32
 70
     1
102
RTVSPost2010Prop33
280
     0
102
RTVSPost2010PropOp33
 70
     1
102
RTVSPost2010Prop34
280
     0
102
RTVSPost2010PropOp34
 70
     1
102
RTVSPost2010Prop35
280
     0
102
RTVSPost2010PropOp35
 70
     1
102
RTVSPost2010Prop36
280
     0
102
RTVSPost2010PropOp36
 70
     1
102
RTVSPost2010Prop37
 90
       50
102
RTVSPost2010PropOp37
 70
     1
102
RTVSPost2010Prop38
140
0.0
102
RTVSPost2010PropOp38
 70
     1
102
RTVSPost2010Prop39
140
1.0
102
RTVSPost2010PropOp39
 70
     1
102
RTVSPost2010Prop40
 90
        0
102
RTVSPost2010PropOp40
 70
     1
102
RTVSPost2010Prop41ColorIndex
 90
       18
102
RTVSPost2010Prop41ColorRGB
 90
        0
102
RTVSPost2010PropOp41
 70
     1
102
RTVSPost2010Prop42
 90
       50
102
RTVSPost2010PropOp42
 70
     1
102
RTVSPost2010Prop43
 90
        3
102
RTVSPost2010PropOp43
 70
     1
102
RTVSPost2010Prop44ColorIndex
 90
        5
102
RTVSPost2010Prop44ColorRGB
 90
      255
102
RTVSPost2010PropOp44
 70
     1
102
RTVSPost2010Prop45
280
     0
102
RTVSPost2010PropOp45
 70
     1
102
RTVSPost2010Prop46
 90
       50
102
RTVSPost2010PropOp46
 70
     1
102
RTVSPost2010Prop47
 90
       50
102
RTVSPost2010PropOp47
 70
     1
102
RTVSPost2010Prop48
 90
       50
102
RTVSPost2010PropOp48
 70
     1
102
RTVSPost2010Prop49
280
     0
102
RTVSPost2010PropOp49
 70
     1
102
RTVSPost2010Prop50
 90
       50
102
RTVSPost2010PropOp50
 70
     1
102
RTVSPost2010Prop51ColorIndex
 90
      256
102
RTVSPost2010Prop51ColorRGB
 90
-16777216
102
RTVSPost2010PropOp51
 70
     0
102
RTVSPost2010Prop52
140
1.0
102
RTVSPost2010PropOp52
 70
     0
102
RTVSPost2010Prop53
 90
        2
102
RTVSPost2010PropOp53
 70
     1
102
RTVSPost2010Prop54
  1
strokes_ogs.tif
102
RTVSPost2010PropOp54
 70
     1
102
RTVSPost2010Prop55
280
     0
102
RTVSPost2010PropOp55
 70
     1
102
RTVSPost2010Prop56
140
1.0
102
RTVSPost2010PropOp56
 70
     1
102
RTVSPost2010Prop57
140
1.0
102
RTVSPost2010PropOp57
 70
     1
  0
XRECORD
  5
293
102
{ACAD_REACTORS
330
292
102
}
330
292
100
AcDbXrecord
280
     1
102
RTVSPropertyOp0
 70
     1
102
RTVSPropertyOp1
 70
     1
102
RTVSPropertyOp2
 70
     1
102
RTVSPropertyOp3
 70
     1
102
RTVSPropertyOp4
 70
     1
102
RTVSPropertyOp5
 70
     1
102
RTVSPropertyOp6
 70
     1
102
RTVSPropertyOp7
 70
     1
102
RTVSPropertyOp8
 70
     1
102
RTVSPropertyOp9
 70
     1
102
RTVSPropertyOp10
 70
     1
102
RTVSPropertyOp11
 70
     1
102
RTVSPropertyOp12
 70
     1
102
RTVSPropertyOp13
 70
     1
102
RTVSPropertyOp14
 70
     1
102
RTVSPropertyOp15
 70
     1
102
RTVSPropertyOp16
 70
     1
102
RTVSPropertyOp17
 70
     1
102
RTVSPropertyOp18
 70
     1
102
RTVSPropertyOp19
 70
     1
102
RTVSPropertyOp20
 70
     1
102
RTVSPropertyOp21
 70
     1
102
RTVSPropertyOp22
 70
     1
102
RTVSPropertyOp23
 70
     1
102
RTVSPropertyOp24
 70
     1
102
RTVSPropertyOp25
 70
     1
102
RTVSPropertyOp26
 70
     1
102
RTVSPropertyOp27
 70
     1
102
RTVSPropertyOp28
 70
     1
102
RTVSPropertyOp29
 70
     1
102
RTVSPropertyOp30
 70
     1
102
RTVSPropertyOp31
 70
     1
102
RTVSPropertyOp32
 70
     1
102
RTVSPropertyOp33
 70
     1
102
RTVSPropertyOp34
 70
     1
102
RTVSPropertyOp35
 70
     1
102
RTVSPropertyOp36
 70
     1
102
RTVSPropertyOp37
 70
     1
102
RTVSPropertyOp38
 70
     1
102
RTVSPropertyOp39
 70
     1
102
RTVSPropertyOp40
 70
     1
102
RTVSPropertyOp41
 70
     1
102
RTVSPropertyOp42
 70
     1
102
RTVSPropertyOp43
 70
     1
102
RTVSPropertyOp44
 70
     1
102
RTVSPropertyOp45
 70
     1
102
RTVSPropertyOp46
 70
     1
102
RTVSPropertyOp47
 70
     1
102
RTVSPropertyOp48
 70
     1
102
RTVSPropertyOp49
 70
     1
102
RTVSPropertyOp50
 70
     1
102
RTVSPropertyOp51
 70
     0
102
RTVSPropertyOp52
 70
     0
102
RTVSPropertyOp53
 70
     1
102
RTVSPropertyOp54
 70
     1
102
RTVSPropertyOp55
 70
     1
102
RTVSPropertyOp56
 70
     1
102
RTVSPropertyOp57
 70
     1
102
RTVSPost2010Prop28
280
     0
102
RTVSPost2010PropOp28
 70
     1
102
RTVSPost2010Prop29
280
     1
102
RTVSPost2010PropOp29
 70
     1
102
RTVSPost2010Prop30
280
     1
102
RTVSPost2010PropOp30
 70
     1
102
RTVSPost2010Prop31
280
     0
102
RTVSPost2010PropOp31
 70
     1
102
RTVSPost2010Prop32
280
     0
102
RTVSPost2010PropOp32
 70
     1
102
RTVSPost2010Prop33
280
     0
102
RTVSPost2010PropOp33
 70
     1
102
RTVSPost2010Prop34
280
     0
102
RTVSPost2010PropOp34
 70
     1
102
RTVSPost2010Prop35
280
     0
102
RTVSPost2010PropOp35
 70
     1
102
RTVSPost2010Prop36
280
     0
102
RTVSPost2010PropOp36
 70
     1
102
RTVSPost2010Prop37
 90
       50
102
RTVSPost2010PropOp37
 70
     1
102
RTVSPost2010Prop38
140
0.0
102
RTVSPost2010PropOp38
 70
     1
102
RTVSPost2010Prop39
140
1.0
102
RTVSPost2010PropOp39
 70
     1
102
RTVSPost2010Prop40
 90
        0
102
RTVSPost2010PropOp40
 70
     1
102
RTVSPost2010Prop41ColorIndex
 90
       18
102
RTVSPost2010Prop41ColorRGB
 90
        0
102
RTVSPost2010PropOp41
 70
     1
102
RTVSPost2010Prop42
 90
       50
102
RTVSPost2010PropOp42
 70
     1
102
RTVSPost2010Prop43
 90
        3
102
RTVSPost2010PropOp43
 70
     1
102
RTVSPost2010Prop44ColorIndex
 90
        5
102
RTVSPost2010Prop44ColorRGB
 90
      255
102
RTVSPost2010PropOp44
 70
     1
102
RTVSPost2010Prop45
280
     0
102
RTVSPost2010PropOp45
 70
     1
102
RTVSPost2010Prop46
 90
       50
102
RTVSPost2010PropOp46
 70
     1
102
RTVSPost2010Prop47
 90
       50
102
RTVSPost2010PropOp47
 70
     1
102
RTVSPost2010Prop48
 90
       50
102
RTVSPost2010PropOp48
 70
     1
102
RTVSPost2010Prop49
280
     0
102
RTVSPost2010PropOp49
 70
     1
102
RTVSPost2010Prop50
 90
       50
102
RTVSPost2010PropOp50
 70
     1
102
RTVSPost2010Prop51ColorIndex
 90
      256
102
RTVSPost2010Prop51ColorRGB
 90
-16777216
102
RTVSPost2010PropOp51
 70
     0
102
RTVSPost2010Prop52
140
1.0
102
RTVSPost2010PropOp52
 70
     0
102
RTVSPost2010Prop53
 90
        2
102
RTVSPost2010PropOp53
 70
     1
102
RTVSPost2010Prop54
  1
strokes_ogs.tif
102
RTVSPost2010PropOp54
 70
     1
102
RTVSPost2010Prop55
280
     0
102
RTVSPost2010PropOp55
 70
     1
102
RTVSPost2010Prop56
140
1.0
102
RTVSPost2010PropOp56
 70
     1
102
RTVSPost2010Prop57
140
1.0
102
RTVSPost2010PropOp57
 70
     1
  0
XRECORD
  5
285
102
{ACAD_REACTORS
330
284
102
}
330
284
100
AcDbXrecord
280
     1
102
RTVSPropertyOp0
 70
     1
102
RTVSPropertyOp1
 70
     1
102
RTVSPropertyOp2
 70
     1
102
RTVSPropertyOp3
 70
     1
102
RTVSPropertyOp4
 70
     1
102
RTVSPropertyOp5
 70
     1
102
RTVSPropertyOp6
 70
     1
102
RTVSPropertyOp7
 70
     1
102
RTVSPropertyOp8
 70
     1
102
RTVSPropertyOp9
 70
     1
102
RTVSPropertyOp10
 70
     1
102
RTVSPropertyOp11
 70
     1
102
RTVSPropertyOp12
 70
     1
102
RTVSPropertyOp13
 70
     1
102
RTVSPropertyOp14
 70
     1
102
RTVSPropertyOp15
 70
     1
102
RTVSPropertyOp16
 70
     1
102
RTVSPropertyOp17
 70
     1
102
RTVSPropertyOp18
 70
     1
102
RTVSPropertyOp19
 70
     1
102
RTVSPropertyOp20
 70
     1
102
RTVSPropertyOp21
 70
     1
102
RTVSPropertyOp22
 70
     1
102
RTVSPropertyOp23
 70
     1
102
RTVSPropertyOp24
 70
     1
102
RTVSPropertyOp25
 70
     1
102
RTVSPropertyOp26
 70
     1
102
RTVSPropertyOp27
 70
     1
102
RTVSPropertyOp28
 70
     1
102
RTVSPropertyOp29
 70
     1
102
RTVSPropertyOp30
 70
     1
102
RTVSPropertyOp31
 70
     1
102
RTVSPropertyOp32
 70
     1
102
RTVSPropertyOp33
 70
     1
102
RTVSPropertyOp34
 70
     1
102
RTVSPropertyOp35
 70
     1
102
RTVSPropertyOp36
 70
     1
102
RTVSPropertyOp37
 70
     1
102
RTVSPropertyOp38
 70
     1
102
RTVSPropertyOp39
 70
     1
102
RTVSPropertyOp40
 70
     1
102
RTVSPropertyOp41
 70
     1
102
RTVSPropertyOp42
 70
     1
102
RTVSPropertyOp43
 70
     1
102
RTVSPropertyOp44
 70
     1
102
RTVSPropertyOp45
 70
     1
102
RTVSPropertyOp46
 70
     1
102
RTVSPropertyOp47
 70
     1
102
RTVSPropertyOp48
 70
     1
102
RTVSPropertyOp49
 70
     1
102
RTVSPropertyOp50
 70
     1
102
RTVSPropertyOp51
 70
     0
102
RTVSPropertyOp52
 70
     0
102
RTVSPropertyOp53
 70
     1
102
RTVSPropertyOp54
 70
     1
102
RTVSPropertyOp55
 70
     1
102
RTVSPropertyOp56
 70
     1
102
RTVSPropertyOp57
 70
     1
102
RTVSPost2010Prop28
280
     0
102
RTVSPost2010PropOp28
 70
     1
102
RTVSPost2010Prop29
280
     1
102
RTVSPost2010PropOp29
 70
     1
102
RTVSPost2010Prop30
280
     1
102
RTVSPost2010PropOp30
 70
     1
102
RTVSPost2010Prop31
280
     0
102
RTVSPost2010PropOp31
 70
     1
102
RTVSPost2010Prop32
280
     0
102
RTVSPost2010PropOp32
 70
     1
102
RTVSPost2010Prop33
280
     0
102
RTVSPost2010PropOp33
 70
     1
102
RTVSPost2010Prop34
280
     0
102
RTVSPost2010PropOp34
 70
     1
102
RTVSPost2010Prop35
280
     0
102
RTVSPost2010PropOp35
 70
     1
102
RTVSPost2010Prop36
280
     0
102
RTVSPost2010PropOp36
 70
     1
102
RTVSPost2010Prop37
 90
       50
102
RTVSPost2010PropOp37
 70
     1
102
RTVSPost2010Prop38
140
0.0
102
RTVSPost2010PropOp38
 70
     1
102
RTVSPost2010Prop39
140
1.0
102
RTVSPost2010PropOp39
 70
     1
102
RTVSPost2010Prop40
 90
        0
102
RTVSPost2010PropOp40
 70
     1
102
RTVSPost2010Prop41ColorIndex
 90
       18
102
RTVSPost2010Prop41ColorRGB
 90
        0
102
RTVSPost2010PropOp41
 70
     1
102
RTVSPost2010Prop42
 90
       50
102
RTVSPost2010PropOp42
 70
     1
102
RTVSPost2010Prop43
 90
        3
102
RTVSPost2010PropOp43
 70
     1
102
RTVSPost2010Prop44ColorIndex
 90
        5
102
RTVSPost2010Prop44ColorRGB
 90
      255
102
RTVSPost2010PropOp44
 70
     1
102
RTVSPost2010Prop45
280
     0
102
RTVSPost2010PropOp45
 70
     1
102
RTVSPost2010Prop46
 90
       50
102
RTVSPost2010PropOp46
 70
     1
102
RTVSPost2010Prop47
 90
       50
102
RTVSPost2010PropOp47
 70
     1
102
RTVSPost2010Prop48
 90
       50
102
RTVSPost2010PropOp48
 70
     1
102
RTVSPost2010Prop49
280
     0
102
RTVSPost2010PropOp49
 70
     1
102
RTVSPost2010Prop50
 90
       50
102
RTVSPost2010PropOp50
 70
     1
102
RTVSPost2010Prop51ColorIndex
 90
      256
102
RTVSPost2010Prop51ColorRGB
 90
-16777216
102
RTVSPost2010PropOp51
 70
     0
102
RTVSPost2010Prop52
140
1.0
102
RTVSPost2010PropOp52
 70
     0
102
RTVSPost2010Prop53
 90
        2
102
RTVSPost2010PropOp53
 70
     1
102
RTVSPost2010Prop54
  1
strokes_ogs.tif
102
RTVSPost2010PropOp54
 70
     1
102
RTVSPost2010Prop55
280
     0
102
RTVSPost2010PropOp55
 70
     1
102
RTVSPost2010Prop56
140
1.0
102
RTVSPost2010PropOp56
 70
     1
102
RTVSPost2010Prop57
140
1.0
102
RTVSPost2010PropOp57
 70
     1
  0
XRECORD
  5
2A5
102
{ACAD_REACTORS
330
2A4
102
}
330
2A4
100
AcDbXrecord
280
     1
102
RTVSPropertyOp0
 70
     1
102
RTVSPropertyOp1
 70
     1
102
RTVSPropertyOp2
 70
     1
102
RTVSPropertyOp3
 70
     1
102
RTVSPropertyOp4
 70
     1
102
RTVSPropertyOp5
 70
     1
102
RTVSPropertyOp6
 70
     1
102
RTVSPropertyOp7
 70
     1
102
RTVSPropertyOp8
 70
     1
102
RTVSPropertyOp9
 70
     1
102
RTVSPropertyOp10
 70
     1
102
RTVSPropertyOp11
 70
     1
102
RTVSPropertyOp12
 70
     1
102
RTVSPropertyOp13
 70
     1
102
RTVSPropertyOp14
 70
     1
102
RTVSPropertyOp15
 70
     1
102
RTVSPropertyOp16
 70
     1
102
RTVSPropertyOp17
 70
     1
102
RTVSPropertyOp18
 70
     1
102
RTVSPropertyOp19
 70
     1
102
RTVSPropertyOp20
 70
     1
102
RTVSPropertyOp21
 70
     1
102
RTVSPropertyOp22
 70
     1
102
RTVSPropertyOp23
 70
     1
102
RTVSPropertyOp24
 70
     1
102
RTVSPropertyOp25
 70
     1
102
RTVSPropertyOp26
 70
     1
102
RTVSPropertyOp27
 70
     1
102
RTVSPropertyOp28
 70
     1
102
RTVSPropertyOp29
 70
     1
102
RTVSPropertyOp30
 70
     1
102
RTVSPropertyOp31
 70
     1
102
RTVSPropertyOp32
 70
     1
102
RTVSPropertyOp33
 70
     1
102
RTVSPropertyOp34
 70
     1
102
RTVSPropertyOp35
 70
     1
102
RTVSPropertyOp36
 70
     1
102
RTVSPropertyOp37
 70
     1
102
RTVSPropertyOp38
 70
     1
102
RTVSPropertyOp39
 70
     1
102
RTVSPropertyOp40
 70
     1
102
RTVSPropertyOp41
 70
     1
102
RTVSPropertyOp42
 70
     1
102
RTVSPropertyOp43
 70
     1
102
RTVSPropertyOp44
 70
     1
102
RTVSPropertyOp45
 70
     1
102
RTVSPropertyOp46
 70
     1
102
RTVSPropertyOp47
 70
     1
102
RTVSPropertyOp48
 70
     1
102
RTVSPropertyOp49
 70
     1
102
RTVSPropertyOp50
 70
     1
102
RTVSPropertyOp51
 70
     0
102
RTVSPropertyOp52
 70
     0
102
RTVSPropertyOp53
 70
     1
102
RTVSPropertyOp54
 70
     1
102
RTVSPropertyOp55
 70
     1
102
RTVSPropertyOp56
 70
     1
102
RTVSPropertyOp57
 70
     1
102
RTVSPost2010Prop28
280
     0
102
RTVSPost2010PropOp28
 70
     1
102
RTVSPost2010Prop29
280
     1
102
RTVSPost2010PropOp29
 70
     1
102
RTVSPost2010Prop30
280
     1
102
RTVSPost2010PropOp30
 70
     1
102
RTVSPost2010Prop31
280
     0
102
RTVSPost2010PropOp31
 70
     1
102
RTVSPost2010Prop32
280
     0
102
RTVSPost2010PropOp32
 70
     1
102
RTVSPost2010Prop33
280
     0
102
RTVSPost2010PropOp33
 70
     1
102
RTVSPost2010Prop34
280
     0
102
RTVSPost2010PropOp34
 70
     1
102
RTVSPost2010Prop35
280
     0
102
RTVSPost2010PropOp35
 70
     1
102
RTVSPost2010Prop36
280
     0
102
RTVSPost2010PropOp36
 70
     1
102
RTVSPost2010Prop37
 90
       50
102
RTVSPost2010PropOp37
 70
     1
102
RTVSPost2010Prop38
140
0.0
102
RTVSPost2010PropOp38
 70
     1
102
RTVSPost2010Prop39
140
1.0
102
RTVSPost2010PropOp39
 70
     1
102
RTVSPost2010Prop40
 90
        0
102
RTVSPost2010PropOp40
 70
     1
102
RTVSPost2010Prop41ColorIndex
 90
       18
102
RTVSPost2010Prop41ColorRGB
 90
        0
102
RTVSPost2010PropOp41
 70
     1
102
RTVSPost2010Prop42
 90
       50
102
RTVSPost2010PropOp42
 70
     1
102
RTVSPost2010Prop43
 90
        3
102
RTVSPost2010PropOp43
 70
     1
102
RTVSPost2010Prop44ColorIndex
 90
        5
102
RTVSPost2010Prop44ColorRGB
 90
      255
102
RTVSPost2010PropOp44
 70
     1
102
RTVSPost2010Prop45
280
     0
102
RTVSPost2010PropOp45
 70
     1
102
RTVSPost2010Prop46
 90
       50
102
RTVSPost2010PropOp46
 70
     1
102
RTVSPost2010Prop47
 90
       50
102
RTVSPost2010PropOp47
 70
     1
102
RTVSPost2010Prop48
 90
       50
102
RTVSPost2010PropOp48
 70
     1
102
RTVSPost2010Prop49
280
     0
102
RTVSPost2010PropOp49
 70
     1
102
RTVSPost2010Prop50
 90
       50
102
RTVSPost2010PropOp50
 70
     1
102
RTVSPost2010Prop51ColorIndex
 90
      256
102
RTVSPost2010Prop51ColorRGB
 90
-16777216
102
RTVSPost2010PropOp51
 70
     0
102
RTVSPost2010Prop52
140
1.0
102
RTVSPost2010PropOp52
 70
     0
102
RTVSPost2010Prop53
 90
        2
102
RTVSPost2010PropOp53
 70
     1
102
RTVSPost2010Prop54
  1
strokes_ogs.tif
102
RTVSPost2010PropOp54
 70
     1
102
RTVSPost2010Prop55
280
     0
102
RTVSPost2010PropOp55
 70
     1
102
RTVSPost2010Prop56
140
1.0
102
RTVSPost2010PropOp56
 70
     1
102
RTVSPost2010Prop57
140
1.0
102
RTVSPost2010PropOp57
 70
     1
  0
ENDSEC
  0
EOF
