  0
SECTION
  2
HEADER
  9
$ACADVER
  1
AC1018
  9
$ACADMAINTVER
 70
     0
  9
$DWGCODEPAGE
  3
ANSI_1252
  9
$INSBASE
 10
0.0
 20
0.0
 30
0.0
  9
$EXTMIN
 10
-239.3999998092668
 20
4.2079355804828
 30
0.0
  9
$EXTMAX
 10
57.60000019073129
 20
214.2079355804829
 30
0.0
  9
$LIMMIN
 10
0.0
 20
0.0
  9
$LIMMAX
 10
12.0
 20
9.0
  9
$ORTHOMODE
 70
     0
  9
$REGENMODE
 70
     1
  9
$FILLMODE
 70
     1
  9
$QTEXTMODE
 70
     0
  9
$MIRRTEXT
 70
     1
  9
$LTSCALE
 40
1.0
  9
$ATTMODE
 70
     1
  9
$TEXTSIZE
 40
0.2
  9
$TRACEWID
 40
0.05
  9
$TEXTSTYLE
  7
Standard
  9
$CLAYER
  8
0
  9
$CELTYPE
  6
ByLayer
  9
$CECOLOR
 62
   256
  9
$CELTSCALE
 40
1.0
  9
$DISPSILH
 70
     0
  9
$DIMSCALE
 40
1.0
  9
$DIMASZ
 40
0.18
  9
$DIMEXO
 40
0.0625
  9
$DIMDLI
 40
0.38
  9
$DIMRND
 40
0.0
  9
$DIMDLE
 40
0.0
  9
$DIMEXE
 40
0.18
  9
$DIMTP
 40
0.0
  9
$DIMTM
 40
0.0
  9
$DIMTXT
 40
0.18
  9
$DIMCEN
 40
0.09
  9
$DIMTSZ
 40
0.0
  9
$DIMTOL
 70
     0
  9
$DIMLIM
 70
     0
  9
$DIMTIH
 70
     1
  9
$DIMTOH
 70
     1
  9
$DIMSE1
 70
     0
  9
$DIMSE2
 70
     0
  9
$DIMTAD
 70
     0
  9
$DIMZIN
 70
     0
  9
$DIMBLK
  1

  9
$DIMASO
 70
     1
  9
$DIMSHO
 70
     1
  9
$DIMPOST
  1

  9
$DIMAPOST
  1

  9
$DIMALT
 70
     0
  9
$DIMALTD
 70
     2
  9
$DIMALTF
 40
25.4
  9
$DIMLFAC
 40
1.0
  9
$DIMTOFL
 70
     0
  9
$DIMTVP
 40
0.0
  9
$DIMTIX
 70
     0
  9
$DIMSOXD
 70
     0
  9
$DIMSAH
 70
     0
  9
$DIMBLK1
  1

  9
$DIMBLK2
  1

  9
$DIMSTYLE
  2
Standard
  9
$DIMCLRD
 70
     0
  9
$DIMCLRE
 70
     0
  9
$DIMCLRT
 70
     0
  9
$DIMTFAC
 40
1.0
  9
$DIMGAP
 40
0.09
  9
$DIMJUST
 70
     0
  9
$DIMSD1
 70
     0
  9
$DIMSD2
 70
     0
  9
$DIMTOLJ
 70
     1
  9
$DIMTZIN
 70
     0
  9
$DIMALTZ
 70
     0
  9
$DIMALTTZ
 70
     0
  9
$DIMUPT
 70
     0
  9
$DIMDEC
 70
     4
  9
$DIMTDEC
 70
     4
  9
$DIMALTU
 70
     2
  9
$DIMALTTD
 70
     2
  9
$DIMTXSTY
  7
Standard
  9
$DIMAUNIT
 70
     0
  9
$DIMADEC
 70
     0
  9
$DIMALTRND
 40
0.0
  9
$DIMAZIN
 70
     0
  9
$DIMDSEP
 70
    46
  9
$DIMATFIT
 70
     3
  9
$DIMFRAC
 70
     0
  9
$DIMLDRBLK
  1

  9
$DIMLUNIT
 70
     2
  9
$DIMLWD
 70
    -2
  9
$DIMLWE
 70
    -2
  9
$DIMTMOVE
 70
     0
  9
$LUNITS
 70
     2
  9
$LUPREC
 70
     4
  9
$SKETCHINC
 40
0.1
  9
$FILLETRAD
 40
0.5
  9
$AUNITS
 70
     0
  9
$AUPREC
 70
     0
  9
$MENU
  1
.
  9
$ELEVATION
 40
0.0
  9
$PELEVATION
 40
0.0
  9
$THICKNESS
 40
0.0
  9
$LIMCHECK
 70
     0
  9
$CHAMFERA
 40
0.5
  9
$CHAMFERB
 40
0.5
  9
$CHAMFERC
 40
1.0
  9
$CHAMFERD
 40
0.0
  9
$SKPOLY
 70
     0
  9
$TDCREATE
 40
2458161.618318345
  9
$TDUCREATE
 40
2458161.576651678
  9
$TDUPDATE
 40
2458161.618318703
  9
$TDUUPDATE
 40
2458161.576652037
  9
$TDINDWG
 40
0.0000000116
  9
$TDUSRTIMER
 40
0.0000000116
  9
$USRTIMER
 70
     1
  9
$ANGBASE
 50
0.0
  9
$ANGDIR
 70
     0
  9
$PDMODE
 70
     0
  9
$PDSIZE
 40
0.0
  9
$PLINEWID
 40
0.0
  9
$SPLFRAME
 70
     0
  9
$SPLINETYPE
 70
     6
  9
$SPLINESEGS
 70
     8
  9
$HANDSEED
  5
249
  9
$SURFTAB1
 70
     6
  9
$SURFTAB2
 70
     6
  9
$SURFTYPE
 70
     6
  9
$SURFU
 70
     6
  9
$SURFV
 70
     6
  9
$UCSBASE
  2

  9
$UCSNAME
  2

  9
$UCSORG
 10
0.0
 20
0.0
 30
0.0
  9
$UCSXDIR
 10
1.0
 20
0.0
 30
0.0
  9
$UCSYDIR
 10
0.0
 20
1.0
 30
0.0
  9
$UCSORTHOREF
  2

  9
$UCSORTHOVIEW
 70
     0
  9
$UCSORGTOP
 10
0.0
 20
0.0
 30
0.0
  9
$UCSORGBOTTOM
 10
0.0
 20
0.0
 30
0.0
  9
$UCSORGLEFT
 10
0.0
 20
0.0
 30
0.0
  9
$UCSORGRIGHT
 10
0.0
 20
0.0
 30
0.0
  9
$UCSORGFRONT
 10
0.0
 20
0.0
 30
0.0
  9
$UCSORGBACK
 10
0.0
 20
0.0
 30
0.0
  9
$PUCSBASE
  2

  9
$PUCSNAME
  2

  9
$PUCSORG
 10
0.0
 20
0.0
 30
0.0
  9
$PUCSXDIR
 10
1.0
 20
0.0
 30
0.0
  9
$PUCSYDIR
 10
0.0
 20
1.0
 30
0.0
  9
$PUCSORTHOREF
  2

  9
$PUCSORTHOVIEW
 70
     0
  9
$PUCSORGTOP
 10
0.0
 20
0.0
 30
0.0
  9
$PUCSORGBOTTOM
 10
0.0
 20
0.0
 30
0.0
  9
$PUCSORGLEFT
 10
0.0
 20
0.0
 30
0.0
  9
$PUCSORGRIGHT
 10
0.0
 20
0.0
 30
0.0
  9
$PUCSORGFRONT
 10
0.0
 20
0.0
 30
0.0
  9
$PUCSORGBACK
 10
0.0
 20
0.0
 30
0.0
  9
$USERI1
 70
     0
  9
$USERI2
 70
     0
  9
$USERI3
 70
     0
  9
$USERI4
 70
     0
  9
$USERI5
 70
     0
  9
$USERR1
 40
18.1
  9
$USERR2
 40
0.0
  9
$USERR3
 40
0.0
  9
$USERR4
 40
0.0
  9
$USERR5
 40
0.0
  9
$WORLDVIEW
 70
     1
  9
$SHADEDGE
 70
     3
  9
$SHADEDIF
 70
    70
  9
$TILEMODE
 70
     1
  9
$MAXACTVP
 70
    64
  9
$PINSBASE
 10
0.0
 20
0.0
 30
0.0
  9
$PLIMCHECK
 70
     0
  9
$PEXTMIN
 10
1.00000000000000E+20
 20
1.00000000000000E+20
 30
1.00000000000000E+20
  9
$PEXTMAX
 10
-1.00000000000000E+20
 20
-1.00000000000000E+20
 30
-1.00000000000000E+20
  9
$PLIMMIN
 10
0.0
 20
0.0
  9
$PLIMMAX
 10
12.0
 20
9.0
  9
$UNITMODE
 70
     0
  9
$VISRETAIN
 70
     1
  9
$PLINEGEN
 70
     0
  9
$PSLTSCALE
 70
     1
  9
$TREEDEPTH
 70
  3020
  9
$CMLSTYLE
  2
Standard
  9
$CMLJUST
 70
     0
  9
$CMLSCALE
 40
1.0
  9
$PROXYGRAPHICS
 70
     1
  9
$MEASUREMENT
 70
     1
  9
$CELWEIGHT
370
    -1
  9
$ENDCAPS
280
     0
  9
$JOINSTYLE
280
     0
  9
$LWDISPLAY
290
     0
  9
$INSUNITS
 70
     4
  9
$HYPERLINKBASE
  1

  9
$STYLESHEET
  1

  9
$XEDIT
290
     1
  9
$CEPSNTYPE
380
     0
  9
$PSTYLEMODE
290
     1
  9
$FINGERPRINTGUID
  2
{0E1C4709-A1E5-4FA1-8A1E-7F2F33CF7D26}
  9
$VERSIONGUID
  2
{FAEB1C32-E019-11D5-929B-00C0DF256EC4}
  9
$EXTNAMES
290
     1
  9
$PSVPSCALE
 40
0.0
  9
$OLESTARTUP
290
     0
  9
$SORTENTS
280
   127
  9
$INDEXCTL
280
     0
  9
$HIDETEXT
280
     1
  9
$XCLIPFRAME
290
     0
  9
$HALOGAP
280
     0
  9
$OBSCOLOR
 70
   257
  9
$OBSLTYPE
280
     0
  9
$INTERSECTIONDISPLAY
280
     0
  9
$INTERSECTIONCOLOR
 70
   257
  9
$DIMASSOC
280
     2
  9
$PROJECTNAME
  1

  0
ENDSEC
  0
SECTION
  2
CLASSES
  0
CLASS
  1
ACDBDICTIONARYWDFLT
  2
AcDbDictionaryWithDefault
  3
ObjectDBX Classes
 90
        0
 91
        4
280
     0
281
     0
  0
CLASS
  1
VISUALSTYLE
  2
AcDbVisualStyle
  3
ObjectDBX Classes
 90
     4095
 91
        4
280
     0
281
     0
  0
CLASS
  1
MATERIAL
  2
AcDbMaterial
  3
ObjectDBX Classes
 90
     1153
 91
        4
280
     0
281
     0
  0
ENDSEC
  0
SECTION
  2
TABLES
  0
TABLE
  2
VPORT
  5
8
330
0
100
AcDbSymbolTable
 70
     1
  0
VPORT
  5
29
330
8
100
AcDbSymbolTableRecord
100
AcDbViewportTableRecord
  2
*Active
 70
     0
 10
0.0
 20
0.0
 11
1.0
 21
1.0
 12
-90.89999980926775
 22
109.2079355804829
 13
0.0
 23
0.0
 14
0.5
 24
0.5
 15
0.5
 25
0.5
 16
0.0
 26
0.0
 36
1.0
 17
0.0
 27
0.0
 37
0.0
 40
231.0000000000001
 41
1.60267857142857
 42
50.0
 43
0.0
 44
0.0
 50
0.0
 51
0.0
 71
     0
 72
   100
 73
     1
 74
     3
 75
     0
 76
     0
 77
     0
 78
     0
281
     0
 65
     1
110
0.0
120
0.0
130
0.0
111
1.0
121
0.0
131
0.0
112
0.0
122
1.0
132
0.0
 79
     0
146
0.0
  0
ENDTAB
  0
TABLE
  2
LTYPE
  5
5
330
0
100
AcDbSymbolTable
 70
     8
  0
LTYPE
  5
14
330
5
100
AcDbSymbolTableRecord
100
AcDbLinetypeTableRecord
  2
ByBlock
 70
     0
  3

 72
    65
 73
     0
 40
0.0
  0
LTYPE
  5
15
330
5
100
AcDbSymbolTableRecord
100
AcDbLinetypeTableRecord
  2
ByLayer
 70
     0
  3

 72
    65
 73
     0
 40
0.0
  0
LTYPE
  5
16
330
5
100
AcDbSymbolTableRecord
100
AcDbLinetypeTableRecord
  2
Continuous
 70
     0
  3
Solid line
 72
    65
 73
     0
 40
0.0
  0
LTYPE
  5
3F
330
5
100
AcDbSymbolTableRecord
100
AcDbLinetypeTableRecord
  2
DASHED
 70
     0
  3
Dashed
 72
    65
 73
     2
 40
15.0
 49
7.0
 74
     0
 49
-8.0
 74
     0
  0
LTYPE
  5
40
330
5
100
AcDbSymbolTableRecord
100
AcDbLinetypeTableRecord
  2
DOTTED
 70
     0
  3
Dotted
 72
    65
 73
     2
 40
1.0
 49
0.0
 74
     0
 49
-1.0
 74
     0
  0
LTYPE
  5
41
330
5
100
AcDbSymbolTableRecord
100
AcDbLinetypeTableRecord
  2
DOT_CENTER
 70
     0
  3
Dot_Center
 72
    65
 73
     4
 40
14.0
 49
12.0
 74
     0
 49
-1.0
 74
     0
 49
0.0
 74
     0
 49
-1.0
 74
     0
  0
LTYPE
  5
42
330
5
100
AcDbSymbolTableRecord
100
AcDbLinetypeTableRecord
  2
LONG_DASHED
 70
     0
  3
Long_Dashed
 72
    65
 73
     2
 40
15.0
 49
10.0
 74
     0
 49
-5.0
 74
     0
  0
LTYPE
  5
43
330
5
100
AcDbSymbolTableRecord
100
AcDbLinetypeTableRecord
  2
DASH_CENTER
 70
     0
  3
Dash_Center
 72
    65
 73
     4
 40
14.0
 49
11.0
 74
     0
 49
-1.0
 74
     0
 49
1.0
 74
     0
 49
-1.0
 74
     0
  0
LTYPE
  5
44
330
5
100
AcDbSymbolTableRecord
100
AcDbLinetypeTableRecord
  2
PHANTOM
 70
     0
  3
Phantom
 72
    65
 73
     6
 40
13.0
 49
10.0
 74
     0
 49
-1.0
 74
     0
 49
0.0
 74
     0
 49
-1.0
 74
     0
 49
0.0
 74
     0
 49
-1.0
 74
     0
  0
LTYPE
  5
45
330
5
100
AcDbSymbolTableRecord
100
AcDbLinetypeTableRecord
  2
CENTER_DASH_DASH
 70
     0
  3
Center_Dash_Dash
 72
    65
 73
     6
 40
14.0
 49
9.0
 74
     0
 49
-1.0
 74
     0
 49
1.0
 74
     0
 49
-1.0
 74
     0
 49
1.0
 74
     0
 49
-1.0
 74
     0
  0
ENDTAB
  0
TABLE
  2
LAYER
  5
2
330
0
100
AcDbSymbolTable
 70
     2
  0
LAYER
  5
10
330
2
100
AcDbSymbolTableRecord
100
AcDbLayerTableRecord
  2
0
 70
     0
 62
     7
  6
Continuous
370
    -3
390
F
  0
LAYER
  5
46
330
2
100
AcDbSymbolTableRecord
100
AcDbLayerTableRecord
  2
1
 70
     0
 62
     7
  6
Continuous
370
    -3
390
F
  0
ENDTAB
  0
TABLE
  2
STYLE
  5
3
330
0
100
AcDbSymbolTable
 70
     5
  0
STYLE
  5
11
330
3
100
AcDbSymbolTableRecord
100
AcDbTextStyleTableRecord
  2
Standard
 70
     0
 40
0.0
 41
1.0
 50
0.0
 71
     0
 42
0.2
  3
txt
  4

  0
STYLE
  5
A8
330
3
100
AcDbSymbolTableRecord
100
AcDbTextStyleTableRecord
  2
CONVERTER_11
 70
     0
 40
0.0
 41
0.9
 50
0.0
 71
     0
 42
0.2
  3
txt.shx
  4

  0
STYLE
  5
1DF
330
3
100
AcDbSymbolTableRecord
100
AcDbTextStyleTableRecord
  2
CONVERTER_12
 70
     0
 40
0.0
 41
0.81
 50
0.0
 71
     0
 42
0.2
  3
txt.shx
  4

  0
STYLE
  5
1E5
330
3
100
AcDbSymbolTableRecord
100
AcDbTextStyleTableRecord
  2
CONVERTER_13
 70
     0
 40
0.0
 41
0.855
 50
0.0
 71
     0
 42
0.2
  3
txt.shx
  4

  0
STYLE
  5
1E8
330
3
100
AcDbSymbolTableRecord
100
AcDbTextStyleTableRecord
  2
CONVERTER_14
 70
     0
 40
0.0
 41
0.72
 50
0.0
 71
     0
 42
0.2
  3
txt.shx
  4

  0
ENDTAB
  0
TABLE
  2
VIEW
  5
6
330
0
100
AcDbSymbolTable
 70
     0
  0
ENDTAB
  0
TABLE
  2
UCS
  5
7
330
0
100
AcDbSymbolTable
 70
     0
  0
ENDTAB
  0
TABLE
  2
APPID
  5
9
330
0
100
AcDbSymbolTable
 70
     1
  0
APPID
  5
12
330
9
100
AcDbSymbolTableRecord
100
AcDbRegAppTableRecord
  2
ACAD
 70
     0
  0
ENDTAB
  0
TABLE
  2
DIMSTYLE
  5
A
330
0
100
AcDbSymbolTable
 70
     4
100
AcDbDimStyleTable
  0
DIMSTYLE
105
27
330
A
100
AcDbSymbolTableRecord
100
AcDbDimStyleTableRecord
  2
Standard
 70
     0
178
     0
340
11
  0
DIMSTYLE
105
AC
102
{ACAD_REACTORS
330
AD
102
}
330
A
100
AcDbSymbolTableRecord
100
AcDbDimStyleTableRecord
  2
ME10_DIM_10
 70
     0
 41
3.5
 42
0.0
 44
1.5
 73
     0
 74
     0
 77
     1
 78
     8
140
3.5
147
1.5
172
     1
173
     1
174
     1
175
     1
176
     2
177
     2
271
     2
178
     3
271
     2
340
A8
  0
DIMSTYLE
105
DB
102
{ACAD_REACTORS
330
DC
102
}
330
A
100
AcDbSymbolTableRecord
100
AcDbDimStyleTableRecord
  2
ME10_DIM_11
 70
     0
 41
3.5
 42
0.0
 44
1.5
 73
     0
 74
     0
 77
     1
 78
     8
140
3.5
147
1.5
172
     1
173
     1
174
     1
175
     1
176
     2
177
     2
271
     2
178
     3
271
     2
340
A8
  0
DIMSTYLE
105
E6
102
{ACAD_REACTORS
330
E7
102
}
330
A
100
AcDbSymbolTableRecord
100
AcDbDimStyleTableRecord
  2
ME10_DIM_12
 70
     0
 41
3.5
 42
0.0
 44
1.5
 73
     0
 74
     0
 77
     1
 78
     8
140
3.5
147
1.5
172
     1
173
     1
174
     1
175
     1
176
     2
177
     2
271
     2
178
     3
271
     2
340
A8
  0
ENDTAB
  0
TABLE
  2
BLOCK_RECORD
  5
1
330
0
100
AcDbSymbolTable
 70
    20
  0
BLOCK_RECORD
  5
1F
330
1
100
AcDbSymbolTableRecord
100
AcDbBlockTableRecord
  2
*Model_Space
340
22
  0
BLOCK_RECORD
  5
1B
330
1
100
AcDbSymbolTableRecord
100
AcDbBlockTableRecord
  2
*Paper_Space
340
1E
  0
BLOCK_RECORD
  5
23
330
1
100
AcDbSymbolTableRecord
100
AcDbBlockTableRecord
  2
*Paper_Space0
340
26
  0
BLOCK_RECORD
  5
47
330
1
100
AcDbSymbolTableRecord
100
AcDbBlockTableRecord
  2
D-URTK-BEN-select__1
340
0
102
{BLKREFS
331
4B
102
}
  0
BLOCK_RECORD
  5
4A
330
1
100
AcDbSymbolTableRecord
100
AcDbBlockTableRecord
  2
AllgSicht1
340
0
102
{BLKREFS
331
7D
102
}
  0
BLOCK_RECORD
  5
4E
330
1
100
AcDbSymbolTableRecord
100
AcDbBlockTableRecord
  2
D-URTK-BEN-select__2
340
0
102
{BLKREFS
331
52
102
}
  0
BLOCK_RECORD
  5
51
330
1
100
AcDbSymbolTableRecord
100
AcDbBlockTableRecord
  2
Drfsicht1
340
0
102
{BLKREFS
331
7E
102
}
  0
BLOCK_RECORD
  5
55
330
1
100
AcDbSymbolTableRecord
100
AcDbBlockTableRecord
  2
D-URTK-BEN-select__3
340
0
102
{BLKREFS
331
59
102
}
  0
BLOCK_RECORD
  5
58
330
1
100
AcDbSymbolTableRecord
100
AcDbBlockTableRecord
  2
Rckans1
340
0
102
{BLKREFS
331
7F
102
}
  0
BLOCK_RECORD
  5
5C
330
1
100
AcDbSymbolTableRecord
100
AcDbBlockTableRecord
  2
D-URTK-BEN-select__4
340
0
102
{BLKREFS
331
60
102
}
  0
BLOCK_RECORD
  5
5F
330
1
100
AcDbSymbolTableRecord
100
AcDbBlockTableRecord
  2
SA_Links1
340
0
102
{BLKREFS
331
80
102
}
  0
BLOCK_RECORD
  5
63
330
1
100
AcDbSymbolTableRecord
100
AcDbBlockTableRecord
  2
D-URTK-BEN-select__5
340
0
102
{BLKREFS
331
67
102
}
  0
BLOCK_RECORD
  5
66
330
1
100
AcDbSymbolTableRecord
100
AcDbBlockTableRecord
  2
SA_Rechts1
340
0
102
{BLKREFS
331
81
102
}
  0
BLOCK_RECORD
  5
6A
330
1
100
AcDbSymbolTableRecord
100
AcDbBlockTableRecord
  2
D-URTK-BEN-select__6
340
0
102
{BLKREFS
331
6E
102
}
  0
BLOCK_RECORD
  5
6D
330
1
100
AcDbSymbolTableRecord
100
AcDbBlockTableRecord
  2
Vordans1
340
0
102
{BLKREFS
331
82
102
}
  0
BLOCK_RECORD
  5
71
330
1
100
AcDbSymbolTableRecord
100
AcDbBlockTableRecord
  2
_rahmen
340
0
102
{BLKREFS
331
78
102
}
  0
BLOCK_RECORD
  5
74
330
1
100
AcDbSymbolTableRecord
100
AcDbBlockTableRecord
  2
_punkt
340
0
102
{BLKREFS
331
79
102
}
  0
BLOCK_RECORD
  5
77
330
1
100
AcDbSymbolTableRecord
100
AcDbBlockTableRecord
  2
A4I_CS
340
0
102
{BLKREFS
331
83
102
}
  0
BLOCK_RECORD
  5
7C
330
1
100
AcDbSymbolTableRecord
100
AcDbBlockTableRecord
  2
1
340
0
102
{BLKREFS
331
86
102
}
  0
BLOCK_RECORD
  5
A0
330
1
100
AcDbSymbolTableRecord
100
AcDbBlockTableRecord
  2
*D17
340
0
  0
BLOCK_RECORD
  5
D2
330
1
100
AcDbSymbolTableRecord
100
AcDbBlockTableRecord
  2
*D18
340
0
  0
BLOCK_RECORD
  5
DD
330
1
100
AcDbSymbolTableRecord
100
AcDbBlockTableRecord
  2
*D19
340
0
  0
ENDTAB
  0
ENDSEC
  0
SECTION
  2
BLOCKS
  0
BLOCK
  5
20
330
1F
100
AcDbEntity
  8
0
100
AcDbBlockBegin
  2
*Model_Space
 70
     0
 10
0.0
 20
0.0
 30
0.0
  3
*Model_Space
  1

  0
ENDBLK
  5
21
330
1F
100
AcDbEntity
  8
0
100
AcDbBlockEnd
  0
BLOCK
  5
1C
330
1B
100
AcDbEntity
 67
     1
  8
0
100
AcDbBlockBegin
  2
*Paper_Space
 70
     0
 10
0.0
 20
0.0
 30
0.0
  3
*Paper_Space
  1

  0
ENDBLK
  5
1D
330
1B
100
AcDbEntity
 67
     1
  8
0
100
AcDbBlockEnd
  0
BLOCK
  5
24
330
23
100
AcDbEntity
  8
0
100
AcDbBlockBegin
  2
*Paper_Space0
 70
     0
 10
0.0
 20
0.0
 30
0.0
  3
*Paper_Space0
  1

  0
ENDBLK
  5
25
330
23
100
AcDbEntity
  8
0
100
AcDbBlockEnd
  0
BLOCK
  5
48
330
47
100
AcDbEntity
  8
0
100
AcDbBlockBegin
  2
D-URTK-BEN-select__1
 70
     0
 10
-5.00037735580547
 20
36.66587125633301
 30
0.0
  3
D-URTK-BEN-select__1
  1

  0
LINE
  5
87
330
47
100
AcDbEntity
  8
0
  6
Continuous
 62
     7
100
AcDbLine
 10
45.40230114444893
 20
36.66587125633301
 30
0.0
 11
-1.73534779935926
 21
50.27333840966988
 31
0.0
  0
LINE
  5
88
330
47
100
AcDbEntity
  8
0
  6
Continuous
 62
     7
100
AcDbLine
 10
-1.73534779935926
 20
50.27333840966988
 30
0.0
 11
-5.00037735580547
 21
53.81394746768632
 31
0.0
  0
LINE
  5
89
330
47
100
AcDbEntity
  8
0
  6
Continuous
 62
     7
100
AcDbLine
 10
-5.00037735580547
 20
53.81394746768632
 30
0.0
 11
-5.00037735580547
 21
81.35355530803152
 31
0.0
  0
LINE
  5
8A
330
47
100
AcDbEntity
  8
0
  6
Continuous
 62
     7
100
AcDbLine
 10
2.84962264419454
 20
92.10670407168824
 30
0.0
 11
42.15037735580222
 21
80.7615534156372
 31
0.0
  0
LINE
  5
8B
330
47
100
AcDbEntity
  8
0
  6
Continuous
 62
     7
100
AcDbLine
 10
1.84962264419454
 20
91.24067866790381
 30
0.0
 11
41.15037735580222
 21
79.89552801185275
 31
0.0
  0
LINE
  5
8C
330
47
100
AcDbEntity
  8
0
  6
Continuous
 62
     7
100
AcDbLine
 10
1.84962264419454
 20
91.24067866790381
 30
0.0
 11
-5.00037735580547
 21
81.35355530803152
 31
0.0
  0
LINE
  5
8D
330
47
100
AcDbEntity
  8
0
  6
Continuous
 62
     7
100
AcDbLine
 10
1.84962264419454
 20
91.24067866790381
 30
0.0
 11
2.84962264419454
 21
92.10670407168824
 31
0.0
  0
LINE
  5
8E
330
47
100
AcDbEntity
  8
0
  6
Continuous
 62
     7
100
AcDbLine
 10
45.40230114444893
 20
36.66587125633301
 30
0.0
 11
48.00037735580224
 21
38.51394746768634
 31
0.0
  0
LINE
  5
8F
330
47
100
AcDbEntity
  8
0
  6
Continuous
 62
     7
100
AcDbLine
 10
48.00037735580224
 20
66.05355530803152
 30
0.0
 11
48.00037735580224
 21
38.51394746768634
 31
0.0
  0
LINE
  5
90
330
47
100
AcDbEntity
  8
0
  6
Continuous
 62
     7
100
AcDbLine
 10
49.00037735580224
 20
66.91958071181595
 30
0.0
 11
42.15037735580222
 21
80.7615534156372
 31
0.0
  0
LINE
  5
91
330
47
100
AcDbEntity
  8
0
  6
Continuous
 62
     7
100
AcDbLine
 10
48.00037735580224
 20
66.05355530803152
 30
0.0
 11
41.15037735580222
 21
79.89552801185275
 31
0.0
  0
LINE
  5
92
330
47
100
AcDbEntity
  8
0
  6
Continuous
 62
     7
100
AcDbLine
 10
48.00037735580224
 20
66.05355530803152
 30
0.0
 11
49.00037735580224
 21
66.91958071181595
 31
0.0
  0
LINE
  5
93
330
47
100
AcDbEntity
  8
0
  6
Continuous
 62
     7
100
AcDbLine
 10
41.15037735580222
 20
79.89552801185275
 30
0.0
 11
42.15037735580222
 21
80.7615534156372
 31
0.0
  0
LINE
  5
94
330
47
100
AcDbEntity
  8
0
  6
Continuous
 62
     7
100
AcDbLine
 10
49.00037735580224
 20
66.91958071181595
 30
0.0
 11
49.00037735580224
 21
39.37997287147077
 31
0.0
  0
LINE
  5
95
330
47
100
AcDbEntity
  8
0
  6
Continuous
 62
     7
100
AcDbLine
 10
48.00037735580224
 20
38.51394746768634
 30
0.0
 11
49.00037735580224
 21
39.37997287147077
 31
0.0
  0
ENDBLK
  5
49
330
47
100
AcDbEntity
  8
0
100
AcDbBlockEnd
  0
BLOCK
  5
4C
330
4A
100
AcDbEntity
  8
0
100
AcDbBlockBegin
  2
AllgSicht1
 70
     0
 10
22.00000000000094
 20
65.0
 30
0.0
  3
AllgSicht1
  1

  0
INSERT
  5
4B
330
4A
100
AcDbEntity
  8
0
100
AcDbBlockReference
  2
D-URTK-BEN-select__1
 10
-5.00037735580547
 20
36.66587125633301
 30
0.0
  0
ENDBLK
  5
4D
330
4A
100
AcDbEntity
  8
0
100
AcDbBlockEnd
  0
BLOCK
  5
4F
330
4E
100
AcDbEntity
  8
0
100
AcDbBlockBegin
  2
D-URTK-BEN-select__2
 70
     0
 10
-163.6
 20
68.99999999999002
 30
0.0
  3
D-URTK-BEN-select__2
  1

  0
LINE
  5
96
330
4E
100
AcDbEntity
  8
0
  6
Continuous
 62
     7
100
AcDbLine
 10
-155.6903013121021
 20
70.99999999999002
 30
0.0
 11
-110.3096986878979
 21
70.99999999999002
 31
0.0
  0
LINE
  5
97
330
4E
100
AcDbEntity
  8
0
  6
Continuous
 62
     7
100
AcDbLine
 10
-163.6
 20
68.99999999999002
 30
0.0
 11
-163.6
 21
70.99999999999002
 31
0.0
  0
LINE
  5
98
330
4E
100
AcDbEntity
  8
0
  6
Continuous
 62
     7
100
AcDbLine
 10
-155.6903013121021
 20
70.99999999999002
 30
0.0
 11
-163.6
 21
70.99999999999002
 31
0.0
  0
LINE
  5
99
330
4E
100
AcDbEntity
  8
0
  6
Continuous
 62
     7
100
AcDbLine
 10
-155.6903013121021
 20
68.99999999999002
 30
0.0
 11
-155.6903013121021
 21
70.99999999999002
 31
0.0
  0
LINE
  5
9A
330
4E
100
AcDbEntity
  8
0
  6
Continuous
 62
     7
100
AcDbLine
 10
-155.6903013121021
 20
68.99999999999002
 30
0.0
 11
-110.3096986878979
 21
68.99999999999002
 31
0.0
  0
LINE
  5
9B
330
4E
100
AcDbEntity
  8
0
  6
Continuous
 62
     7
100
AcDbLine
 10
-155.6903013121021
 20
68.99999999999002
 30
0.0
 11
-163.6
 21
68.99999999999002
 31
0.0
  0
LINE
  5
9C
330
4E
100
AcDbEntity
  8
0
  6
Continuous
 62
     7
100
AcDbLine
 10
-110.3096986878979
 20
68.99999999999002
 30
0.0
 11
-110.3096986878979
 21
70.99999999999002
 31
0.0
  0
LINE
  5
9D
330
4E
100
AcDbEntity
  8
0
  6
Continuous
 62
     7
100
AcDbLine
 10
-102.4
 20
68.99999999999002
 30
0.0
 11
-110.3096986878979
 21
68.99999999999002
 31
0.0
  0
LINE
  5
9E
330
4E
100
AcDbEntity
  8
0
  6
Continuous
 62
     7
100
AcDbLine
 10
-102.4
 20
68.99999999999002
 30
0.0
 11
-102.4
 21
70.99999999999002
 31
0.0
  0
LINE
  5
9F
330
4E
100
AcDbEntity
  8
0
  6
Continuous
 62
     7
100
AcDbLine
 10
-102.4
 20
70.99999999999002
 30
0.0
 11
-110.3096986878979
 21
70.99999999999002
 31
0.0
  0
ENDBLK
  5
50
330
4E
100
AcDbEntity
  8
0
100
AcDbBlockEnd
  0
BLOCK
  5
53
330
51
100
AcDbEntity
  8
0
100
AcDbBlockBegin
  2
Drfsicht1
 70
     0
 10
-133.0
 20
69.99999999999503
 30
0.0
  3
Drfsicht1
  1

  0
INSERT
  5
52
330
51
100
AcDbEntity
  8
0
100
AcDbBlockReference
  2
D-URTK-BEN-select__2
 10
-163.6
 20
68.99999999999002
 30
0.0
  0
DIMENSION
  5
AD
330
51
100
AcDbEntity
  8
1
100
AcDbDimension
  2
*D17
 10
-173.6
 20
70.99999999999002
 30
0.0
 11
-176.85
 21
76.1151401088287
 31
0.0
 70
    32
  1
<>
 71
     5
 42
-1.0
 53
90.0
  3
ME10_DIM_10
100
AcDbAlignedDimension
 13
-163.6
 23
68.99999999999002
 33
0.0
 14
-163.6
 24
70.99999999999002
 34
0.0
 50
90.0
100
AcDbRotatedDimension
  0
ENDBLK
  5
54
330
51
100
AcDbEntity
  8
0
100
AcDbBlockEnd
  0
BLOCK
  5
56
330
55
100
AcDbEntity
  8
0
100
AcDbBlockBegin
  2
D-URTK-BEN-select__3
 70
     0
 10
-53.39999923706065
 20
97.00000000000004
 30
0.0
  3
D-URTK-BEN-select__3
  1

  0
LINE
  5
AE
330
55
100
AcDbEntity
  8
0
  6
Continuous
 62
     7
100
AcDbLine
 10
-53.39999923706065
 20
131.8000000000001
 30
0.0
 11
-45.49030054916277
 21
145.5
 31
0.0
  0
LINE
  5
AF
330
55
100
AcDbEntity
  8
0
  6
Continuous
 62
     7
100
AcDbLine
 10
-53.39999923706065
 20
131.8000000000001
 30
0.0
 11
-53.39999923706065
 21
100.0
 31
0.0
  0
LINE
  5
B0
330
55
100
AcDbEntity
  8
0
  6
Continuous
 62
     7
100
AcDbLine
 10
-50.39999923706065
 20
97.00000000000004
 30
0.0
 11
-53.39999923706065
 21
100.0
 31
0.0
  0
LINE
  5
B1
330
55
100
AcDbEntity
  8
0
  6
Continuous
 62
     7
100
AcDbLine
 10
-50.39999923706065
 20
97.00000000000004
 30
0.0
 11
4.02986937628684
 21
97.00000000000004
 31
0.0
  0
LINE
  5
B2
330
55
100
AcDbEntity
  8
0
  6
Continuous
 62
     7
100
AcDbLine
 10
4.02986937628684
 20
97.00000000000004
 30
0.0
 11
7.80000076293934
 21
100.0
 31
0.0
  0
LINE
  5
B3
330
55
100
AcDbEntity
  8
0
  6
Continuous
 62
     7
100
AcDbLine
 10
7.80000076293934
 20
100.0
 30
0.0
 11
7.80000076293936
 21
131.8000000000001
 31
0.0
  0
LINE
  5
B4
330
55
100
AcDbEntity
  8
0
  6
Continuous
 62
     7
100
AcDbLine
 10
-0.10969792495852
 20
145.5
 30
0.0
 11
7.80000076293936
 21
131.8000000000001
 31
0.0
  0
LINE
  5
B5
330
55
100
AcDbEntity
  8
0
  6
Continuous
 62
     7
100
AcDbLine
 10
-0.10969792495852
 20
145.5
 30
0.0
 11
-45.49030054916277
 21
145.5
 31
0.0
  0
ENDBLK
  5
57
330
55
100
AcDbEntity
  8
0
100
AcDbBlockEnd
  0
BLOCK
  5
5A
330
58
100
AcDbEntity
  8
0
100
AcDbBlockBegin
  2
Rckans1
 70
     0
 10
-22.79999923706066
 20
121.25
 30
0.0
  3
Rckans1
  1

  0
INSERT
  5
59
330
58
100
AcDbEntity
  8
0
100
AcDbBlockReference
  2
D-URTK-BEN-select__3
 10
-53.39999923706065
 20
97.00000000000004
 30
0.0
  0
ENDBLK
  5
5B
330
58
100
AcDbEntity
  8
0
100
AcDbBlockEnd
  0
BLOCK
  5
5D
330
5C
100
AcDbEntity
  8
0
100
AcDbBlockBegin
  2
D-URTK-BEN-select__4
 70
     0
 10
-73.39999961851476
 20
97.00000000000003
 30
0.0
  3
D-URTK-BEN-select__4
  1

  0
LINE
  5
B6
330
5C
100
AcDbEntity
  8
0
  6
Continuous
 62
     7
100
AcDbLine
 10
-73.39999961851476
 20
100.0
 30
0.0
 11
-73.39999961851476
 21
131.8000000000001
 31
0.0
  0
LINE
  5
B7
330
5C
100
AcDbEntity
  8
0
  6
Continuous
 62
     7
100
AcDbLine
 10
-71.39999961851476
 20
131.8000000000001
 30
0.0
 11
-73.39999961851476
 21
131.8000000000001
 31
0.0
  0
LINE
  5
B8
330
5C
100
AcDbEntity
  8
0
  6
Continuous
 62
     7
100
AcDbLine
 10
-71.39999961851476
 20
100.0
 30
0.0
 11
-73.39999961851476
 21
100.0
 31
0.0
  0
LINE
  5
B9
330
5C
100
AcDbEntity
  8
0
  6
Continuous
 62
     7
100
AcDbLine
 10
-71.39999961851476
 20
145.5
 30
0.0
 11
-73.39999961851476
 21
145.5
 31
0.0
  0
LINE
  5
BA
330
5C
100
AcDbEntity
  8
0
  6
Continuous
 62
     7
100
AcDbLine
 10
-73.39999961851476
 20
145.5
 30
0.0
 11
-73.39999961851476
 21
131.8000000000001
 31
0.0
  0
LINE
  5
BB
330
5C
100
AcDbEntity
  8
0
  6
Continuous
 62
     7
100
AcDbLine
 10
-71.39999961851476
 20
100.0
 30
0.0
 11
-71.39999961851476
 21
131.8000000000001
 31
0.0
  0
LINE
  5
BC
330
5C
100
AcDbEntity
  8
0
  6
Continuous
 62
     7
100
AcDbLine
 10
-71.39999961851476
 20
145.5
 30
0.0
 11
-71.39999961851476
 21
131.8000000000001
 31
0.0
  0
LINE
  5
BD
330
5C
100
AcDbEntity
  8
0
  6
Continuous
 62
     7
100
AcDbLine
 10
-73.39999961851476
 20
97.00000000000003
 30
0.0
 11
-73.39999961851476
 21
100.0
 31
0.0
  0
LINE
  5
BE
330
5C
100
AcDbEntity
  8
0
  6
Continuous
 62
     7
100
AcDbLine
 10
-71.39999961851476
 20
97.00000000000003
 30
0.0
 11
-73.39999961851476
 21
97.00000000000003
 31
0.0
  0
LINE
  5
BF
330
5C
100
AcDbEntity
  8
0
  6
Continuous
 62
     7
100
AcDbLine
 10
-71.39999961851476
 20
97.00000000000003
 30
0.0
 11
-71.39999961851476
 21
100.0
 31
0.0
  0
ENDBLK
  5
5E
330
5C
100
AcDbEntity
  8
0
100
AcDbBlockEnd
  0
BLOCK
  5
61
330
5F
100
AcDbEntity
  8
0
100
AcDbBlockBegin
  2
SA_Links1
 70
     0
 10
-72.39999961851976
 20
121.25
 30
0.0
  3
SA_Links1
  1

  0
INSERT
  5
60
330
5F
100
AcDbEntity
  8
0
100
AcDbBlockReference
  2
D-URTK-BEN-select__4
 10
-73.39999961851476
 20
97.00000000000003
 30
0.0
  0
ENDBLK
  5
62
330
5F
100
AcDbEntity
  8
0
100
AcDbBlockEnd
  0
BLOCK
  5
64
330
63
100
AcDbEntity
  8
0
100
AcDbBlockBegin
  2
D-URTK-BEN-select__5
 70
     0
 10
-196.6000003814798
 20
97.00000000000004
 30
0.0
  3
D-URTK-BEN-select__5
  1

  0
LINE
  5
C0
330
63
100
AcDbEntity
  8
0
  6
Continuous
 62
     7
100
AcDbLine
 10
-194.6000003814798
 20
131.8000000000001
 30
0.0
 11
-194.6000003814798
 21
100.0
 31
0.0
  0
LINE
  5
C1
330
63
100
AcDbEntity
  8
0
  6
Continuous
 62
     7
100
AcDbLine
 10
-196.6000003814798
 20
100.0
 30
0.0
 11
-194.6000003814798
 21
100.0
 31
0.0
  0
LINE
  5
C2
330
63
100
AcDbEntity
  8
0
  6
Continuous
 62
     7
100
AcDbLine
 10
-194.6000003814798
 20
131.8000000000001
 30
0.0
 11
-194.6000003814798
 21
145.5
 31
0.0
  0
LINE
  5
C3
330
63
100
AcDbEntity
  8
0
  6
Continuous
 62
     7
100
AcDbLine
 10
-196.6000003814798
 20
97.00000000000004
 30
0.0
 11
-194.6000003814798
 21
97.00000000000004
 31
0.0
  0
LINE
  5
C4
330
63
100
AcDbEntity
  8
0
  6
Continuous
 62
     7
100
AcDbLine
 10
-196.6000003814798
 20
145.5
 30
0.0
 11
-194.6000003814798
 21
145.5
 31
0.0
  0
LINE
  5
C5
330
63
100
AcDbEntity
  8
0
  6
Continuous
 62
     7
100
AcDbLine
 10
-194.6000003814798
 20
97.00000000000004
 30
0.0
 11
-194.6000003814798
 21
100.0
 31
0.0
  0
LINE
  5
C6
330
63
100
AcDbEntity
  8
0
  6
Continuous
 62
     7
100
AcDbLine
 10
-196.6000003814798
 20
131.8000000000001
 30
0.0
 11
-194.6000003814798
 21
131.8000000000001
 31
0.0
  0
LINE
  5
C7
330
63
100
AcDbEntity
  8
0
  6
Continuous
 62
     7
100
AcDbLine
 10
-196.6000003814798
 20
131.8000000000001
 30
0.0
 11
-196.6000003814798
 21
100.0
 31
0.0
  0
LINE
  5
C8
330
63
100
AcDbEntity
  8
0
  6
Continuous
 62
     7
100
AcDbLine
 10
-196.6000003814798
 20
97.00000000000004
 30
0.0
 11
-196.6000003814798
 21
100.0
 31
0.0
  0
LINE
  5
C9
330
63
100
AcDbEntity
  8
0
  6
Continuous
 62
     7
100
AcDbLine
 10
-196.6000003814798
 20
131.8000000000001
 30
0.0
 11
-196.6000003814798
 21
145.5
 31
0.0
  0
ENDBLK
  5
65
330
63
100
AcDbEntity
  8
0
100
AcDbBlockEnd
  0
BLOCK
  5
68
330
66
100
AcDbEntity
  8
0
100
AcDbBlockBegin
  2
SA_Rechts1
 70
     0
 10
-195.6000003814748
 20
121.25
 30
0.0
  3
SA_Rechts1
  1

  0
INSERT
  5
67
330
66
100
AcDbEntity
  8
0
100
AcDbBlockReference
  2
D-URTK-BEN-select__5
 10
-196.6000003814798
 20
97.00000000000004
 30
0.0
  0
ENDBLK
  5
69
330
66
100
AcDbEntity
  8
0
100
AcDbBlockEnd
  0
BLOCK
  5
6B
330
6A
100
AcDbEntity
  8
0
100
AcDbBlockBegin
  2
D-URTK-BEN-select__6
 70
     0
 10
-163.6000000000002
 20
97.00000000000003
 30
0.0
  3
D-URTK-BEN-select__6
  1

  0
LINE
  5
CA
330
6A
100
AcDbEntity
  8
0
  6
Continuous
 62
     7
100
AcDbLine
 10
-155.6903013121023
 20
145.5
 30
0.0
 11
-163.6000000000002
 21
131.8000000000001
 31
0.0
  0
LINE
  5
CB
330
6A
100
AcDbEntity
  8
0
  6
Continuous
 62
     7
100
AcDbLine
 10
-155.6903013121023
 20
145.5
 30
0.0
 11
-110.3096986878981
 21
145.5
 31
0.0
  0
LINE
  5
CC
330
6A
100
AcDbEntity
  8
0
  6
Continuous
 62
     7
100
AcDbLine
 10
-163.6000000000002
 20
100.0
 30
0.0
 11
-163.6000000000002
 21
131.8000000000001
 31
0.0
  0
LINE
  5
CD
330
6A
100
AcDbEntity
  8
0
  6
Continuous
 62
     7
100
AcDbLine
 10
-159.8298686133477
 20
97.00000000000003
 30
0.0
 11
-163.6000000000002
 21
100.0
 31
0.0
  0
LINE
  5
CE
330
6A
100
AcDbEntity
  8
0
  6
Continuous
 62
     7
100
AcDbLine
 10
-105.4000000000002
 20
97.00000000000003
 30
0.0
 11
-159.8298686133477
 21
97.00000000000003
 31
0.0
  0
LINE
  5
CF
330
6A
100
AcDbEntity
  8
0
  6
Continuous
 62
     7
100
AcDbLine
 10
-105.4000000000002
 20
97.00000000000003
 30
0.0
 11
-102.4000000000002
 21
100.0
 31
0.0
  0
LINE
  5
D0
330
6A
100
AcDbEntity
  8
0
  6
Continuous
 62
     7
100
AcDbLine
 10
-102.4000000000002
 20
131.8000000000001
 30
0.0
 11
-102.4000000000002
 21
100.0
 31
0.0
  0
LINE
  5
D1
330
6A
100
AcDbEntity
  8
0
  6
Continuous
 62
     7
100
AcDbLine
 10
-102.4000000000002
 20
131.8000000000001
 30
0.0
 11
-110.3096986878981
 21
145.5
 31
0.0
  0
ENDBLK
  5
6C
330
6A
100
AcDbEntity
  8
0
100
AcDbBlockEnd
  0
BLOCK
  5
6F
330
6D
100
AcDbEntity
  8
0
100
AcDbBlockBegin
  2
Vordans1
 70
     0
 10
-133.0000000000002
 20
121.25
 30
0.0
  3
Vordans1
  1

  0
INSERT
  5
6E
330
6D
100
AcDbEntity
  8
0
100
AcDbBlockReference
  2
D-URTK-BEN-select__6
 10
-163.6000000000002
 20
97.00000000000003
 30
0.0
  0
DIMENSION
  5
DC
330
6D
100
AcDbEntity
  8
1
100
AcDbDimension
  2
*D18
 10
-163.6000000000002
 20
87.8424890673278
 30
0.0
 11
-131.833602617558
 21
91.2674890673278
 31
0.0
 70
    32
  1
<>
 71
     5
 42
-1.0
 53
0.00013888888889
  3
ME10_DIM_11
100
AcDbAlignedDimension
 13
-102.4000000000002
 23
100.0
 33
0.0
 14
-163.6000000000002
 24
100.0
 34
0.0
100
AcDbRotatedDimension
  0
DIMENSION
  5
E7
330
6D
100
AcDbEntity
  8
1
100
AcDbDimension
  2
*D19
 10
-172.00954168833
 20
145.5
 30
0.0
 11
-175.43454168833
 21
120.061514071133
 31
0.0
 70
    32
  1
<>
 71
     5
 42
-1.0
 53
90.0
  3
ME10_DIM_12
100
AcDbAlignedDimension
 13
-159.8298686133477
 23
97.00000000000003
 33
0.0
 14
-155.6903013121023
 24
145.5
 34
0.0
 50
90.0
100
AcDbRotatedDimension
  0
ENDBLK
  5
70
330
6D
100
AcDbEntity
  8
0
100
AcDbBlockEnd
  0
BLOCK
  5
72
330
71
100
AcDbEntity
  8
0
100
AcDbBlockBegin
  2
_rahmen
 70
     0
 10
52.6000001907323
 20
4.2079355804828
 30
0.0
  3
_rahmen
  1

  0
LINE
  5
E8
330
71
100
AcDbEntity
  8
1
  6
DOT_CENTER
 62
     2
100
AcDbLine
 10
-72.9581494494551
 20
30.33293558048283
 30
0.0
 11
-67.4581494494551
 21
30.33293558048283
 31
0.0
  0
LINE
  5
E9
330
71
100
AcDbEntity
  8
1
  6
PHANTOM
 62
     2
100
AcDbLine
 10
-64.2081494494551
 20
33.08293558048283
 30
0.0
 11
-64.2081494494551
 21
27.58293558048283
 31
0.0
  0
LINE
  5
EA
330
71
100
AcDbEntity
  8
1
  6
PHANTOM
 62
     2
100
AcDbLine
 10
-61.45814944945511
 20
30.33293558048283
 30
0.0
 11
-66.9581494494551
 21
30.33293558048283
 31
0.0
  0
LINE
  5
EB
330
71
100
AcDbEntity
  8
1
  6
Continuous
 62
     7
100
AcDbLine
 10
-12.6448043360177
 20
17.70793558048283
 30
0.0
 11
-12.6448043360177
 21
26.20793558048291
 31
0.0
  0
LINE
  5
EC
330
71
100
AcDbEntity
  8
1
  6
Continuous
 62
     6
100
AcDbLine
 10
-40.54480433601779
 20
26.20793558048291
 30
0.0
 11
52.60000019073399
 21
26.20793558048291
 31
0.0
  0
LINE
  5
ED
330
71
100
AcDbEntity
  8
1
  6
Continuous
 62
     7
100
AcDbLine
 10
-76.94480433601771
 20
26.20793558048291
 30
0.0
 11
-76.94480433601771
 21
34.70793558048291
 31
0.0
  0
LINE
  5
EE
330
71
100
AcDbEntity
  8
1
  6
Continuous
 62
     7
100
AcDbLine
 10
-40.54480433601779
 20
26.20793558048291
 30
0.0
 11
-40.54480433601779
 21
34.70793558048291
 31
0.0
  0
LINE
  5
EF
330
71
100
AcDbEntity
  8
1
  6
Continuous
 62
     7
100
AcDbLine
 10
17.18159190905519
 20
34.70793558048291
 30
0.0
 11
17.18159190905519
 21
26.20793558048291
 31
0.0
  0
LINE
  5
F0
330
71
100
AcDbEntity
  8
1
  6
Continuous
 62
     7
100
AcDbLine
 10
43.68159190905479
 20
34.70793558048291
 30
0.0
 11
43.68159190905479
 21
26.20793558048291
 31
0.0
  0
LINE
  5
F1
330
71
100
AcDbEntity
  8
1
  6
Continuous
 62
     6
100
AcDbLine
 10
-145.9448043360177
 20
9.20793558048291
 30
0.0
 11
-190.8999998092677
 21
9.20793558048291
 31
0.0
  0
LINE
  5
F2
330
71
100
AcDbEntity
  8
1
  6
Continuous
 62
     7
100
AcDbLine
 10
52.6000001907336
 20
17.70793558048291
 30
0.0
 11
-40.54480433601779
 21
17.70793558048291
 31
0.0
  0
LINE
  5
F3
102
{ACAD_REACTORS
330
205
330
206
102
}
330
71
100
AcDbEntity
  8
0
  6
Continuous
 62
     2
100
AcDbLine
 10
-63.23737539425031
 20
18.50822469614622
 30
0.0
 11
-63.23737539425031
 21
19.38074170294951
 31
0.0
  0
LINE
  5
F4
102
{ACAD_REACTORS
330
205
330
206
102
}
330
71
100
AcDbEntity
  8
0
  6
Continuous
 62
     2
100
AcDbLine
 10
-63.23737539425031
 20
17.54845598866331
 30
0.0
 11
-63.23737539425031
 21
16.6759389818601
 31
0.0
  0
LINE
  5
F5
102
{ACAD_REACTORS
330
207
330
208
102
}
330
71
100
AcDbEntity
  8
0
  6
Continuous
 62
     2
100
AcDbLine
 10
-47.9043312579598
 20
18.76997979818671
 30
0.0
 11
-46.8006919583917
 21
18.76997979818671
 31
0.0
  0
LINE
  5
F6
102
{ACAD_REACTORS
330
207
330
208
102
}
330
71
100
AcDbEntity
  8
0
  6
Continuous
 62
     2
100
AcDbLine
 10
-47.13467391499839
 20
17.54845598866282
 30
0.0
 11
-47.13467391499839
 21
16.6759389818595
 31
0.0
  0
LINE
  5
F7
102
{ACAD_REACTORS
330
211
330
212
102
}
330
71
100
AcDbEntity
  8
0
  6
Continuous
 62
     2
100
AcDbLine
 10
-48.99543053037831
 20
19.86062605667351
 30
0.0
 11
-47.59747748343801
 21
21.44148505044851
 31
0.0
  0
LINE
  5
F8
102
{ACAD_REACTORS
330
211
330
212
102
}
330
71
100
AcDbEntity
  8
0
  6
Continuous
 62
     2
100
AcDbLine
 10
-48.90000711420549
 20
22.91443558048471
 30
0.0
 11
-47.59747748343801
 21
21.44148505044851
 31
0.0
  0
LINE
  5
F9
102
{ACAD_REACTORS
330
211
330
212
102
}
330
71
100
AcDbEntity
  8
0
  6
Continuous
 62
     2
100
AcDbLine
 10
-46.29494785267161
 20
22.91443558048471
 30
0.0
 11
-44.89222363492439
 21
22.91443558048471
 31
0.0
  0
LINE
  5
FA
102
{ACAD_REACTORS
330
211
330
212
102
}
330
71
100
AcDbEntity
  8
0
  6
Continuous
 62
     2
100
AcDbLine
 10
-47.5927063126301
 20
19.86062605667351
 30
0.0
 11
-46.8961153745644
 21
20.64835784196723
 31
0.0
  0
LINE
  5
FB
102
{ACAD_REACTORS
330
211
330
212
102
}
330
71
100
AcDbEntity
  8
0
  6
Continuous
 62
     2
100
AcDbLine
 10
-47.5927063126301
 20
19.86062605667351
 30
0.0
 11
-48.99543053037831
 21
19.86062605667351
 31
0.0
  0
LINE
  5
FC
102
{ACAD_REACTORS
330
213
330
214
102
}
330
71
100
AcDbEntity
  8
0
  6
Continuous
 62
     2
100
AcDbLine
 10
-49.11470980059519
 20
19.86062605667351
 30
0.0
 11
-50.35521421084809
 21
19.86062605667351
 31
0.0
  0
LINE
  5
FD
102
{ACAD_REACTORS
330
215
330
216
102
}
330
71
100
AcDbEntity
  8
0
  6
Continuous
 62
     2
100
AcDbLine
 10
-51.2231938190032
 20
17.7229593900237
 30
0.0
 11
-51.5233590561933
 21
18.49077435601041
 31
0.0
  0
LINE
  5
FE
102
{ACAD_REACTORS
330
215
330
216
102
}
330
71
100
AcDbEntity
  8
0
  6
Continuous
 62
     2
100
AcDbLine
 10
-51.8235242933857
 20
17.7229593900237
 30
0.0
 11
-51.2231938190032
 21
17.7229593900237
 31
0.0
  0
LINE
  5
FF
102
{ACAD_REACTORS
330
215
330
216
102
}
330
71
100
AcDbEntity
  8
0
  6
Continuous
 62
     2
100
AcDbLine
 10
-53.5415643082595
 20
16.50143558049922
 30
0.0
 11
-52.30105989800651
 21
16.50143558049922
 31
0.0
  0
LINE
  5
100
102
{ACAD_REACTORS
330
215
330
216
102
}
330
71
100
AcDbEntity
  8
0
  6
Continuous
 62
     2
100
AcDbLine
 10
-52.14361126132019
 20
19.5552451043103
 30
0.0
 11
-50.90310685106749
 21
19.5552451043103
 31
0.0
  0
LINE
  5
101
102
{ACAD_REACTORS
330
215
330
216
102
}
330
71
100
AcDbEntity
  8
0
  6
Continuous
 62
     2
100
AcDbLine
 10
-50.90310685106749
 20
19.5552451043103
 30
0.0
 11
-49.50515380412719
 21
16.50143558049922
 31
0.0
  0
LINE
  5
102
102
{ACAD_REACTORS
330
215
330
216
102
}
330
71
100
AcDbEntity
  8
0
  6
Continuous
 62
     2
100
AcDbLine
 10
-50.74565821438111
 20
16.50143558049922
 30
0.0
 11
-50.95713826785689
 21
17.0423961247171
 31
0.0
  0
LINE
  5
103
102
{ACAD_REACTORS
330
217
330
218
102
}
330
71
100
AcDbEntity
  8
0
  6
Continuous
 62
     2
100
AcDbLine
 10
-54.88797740996711
 20
16.50143558049922
 30
0.0
 11
-53.69518470780059
 21
16.50143558049922
 31
0.0
  0
LINE
  5
104
102
{ACAD_REACTORS
330
217
330
218
102
}
330
71
100
AcDbEntity
  8
0
  6
Continuous
 62
     2
100
AcDbLine
 10
-54.88797740996711
 20
18.76997979818671
 30
0.0
 11
-54.88797740996711
 21
16.50143558049922
 31
0.0
  0
LINE
  5
105
102
{ACAD_REACTORS
330
217
330
218
102
}
330
71
100
AcDbEntity
  8
0
  6
Continuous
 62
     2
100
AcDbLine
 10
-55.69907644744171
 20
19.5552451043103
 30
0.0
 11
-55.69907644744171
 21
18.76997979818671
 31
0.0
  0
LINE
  5
106
102
{ACAD_REACTORS
330
219
330
21A
102
}
330
71
100
AcDbEntity
  8
0
  6
Continuous
 62
     2
100
AcDbLine
 10
-54.21986256586911
 20
19.86062605667351
 30
0.0
 11
-53.02706986370259
 21
19.86062605667351
 31
0.0
  0
LINE
  5
107
102
{ACAD_REACTORS
330
219
330
21A
102
}
330
71
100
AcDbEntity
  8
0
  6
Continuous
 62
     2
100
AcDbLine
 10
-51.78656545344859
 20
21.60566007027953
 30
0.0
 11
-53.02706986370259
 21
22.91443558048471
 31
0.0
  0
LINE
  5
108
102
{ACAD_REACTORS
330
219
330
21A
102
}
330
71
100
AcDbEntity
  8
0
  6
Continuous
 62
     2
100
AcDbLine
 10
-50.59377275128199
 20
22.91443558048471
 30
0.0
 11
-51.78656545344859
 21
22.91443558048471
 31
0.0
  0
LINE
  5
109
102
{ACAD_REACTORS
330
219
330
21A
102
}
330
71
100
AcDbEntity
  8
0
  6
Continuous
 62
     2
100
AcDbLine
 10
-50.59377275128199
 20
19.86062605667351
 30
0.0
 11
-50.59377275128199
 21
22.91443558048471
 31
0.0
  0
LINE
  5
10A
102
{ACAD_REACTORS
330
219
330
21A
102
}
330
71
100
AcDbEntity
  8
0
  6
Continuous
 62
     2
100
AcDbLine
 10
-51.78656545344859
 20
19.86062605667351
 30
0.0
 11
-50.59377275128199
 21
19.86062605667351
 31
0.0
  0
LINE
  5
10B
102
{ACAD_REACTORS
330
219
330
21A
102
}
330
71
100
AcDbEntity
  8
0
  6
Continuous
 62
     2
100
AcDbLine
 10
-53.02706986370259
 20
21.16940156687821
 30
0.0
 11
-51.78656545344859
 21
19.86062605667351
 31
0.0
  0
LINE
  5
10C
102
{ACAD_REACTORS
330
21B
330
21C
102
}
330
71
100
AcDbEntity
  8
0
  6
Continuous
 62
     2
100
AcDbLine
 10
-57.03500427386831
 20
18.24646959410521
 30
0.0
 11
-58.27550868412121
 21
19.5552451043103
 31
0.0
  0
LINE
  5
10D
102
{ACAD_REACTORS
330
21B
330
21C
102
}
330
71
100
AcDbEntity
  8
0
  6
Continuous
 62
     2
100
AcDbLine
 10
-57.03500427386831
 20
19.5552451043103
 30
0.0
 11
-57.03500427386831
 21
18.24646959410521
 31
0.0
  0
LINE
  5
10E
102
{ACAD_REACTORS
330
21B
330
21C
102
}
330
71
100
AcDbEntity
  8
0
  6
Continuous
 62
     2
100
AcDbLine
 10
-55.84221157170191
 20
19.5552451043103
 30
0.0
 11
-57.03500427386831
 21
19.5552451043103
 31
0.0
  0
LINE
  5
10F
102
{ACAD_REACTORS
330
21B
330
21C
102
}
330
71
100
AcDbEntity
  8
0
  6
Continuous
 62
     2
100
AcDbLine
 10
-55.84221157170191
 20
16.50143558049922
 30
0.0
 11
-55.84221157170191
 21
19.5552451043103
 31
0.0
  0
LINE
  5
110
102
{ACAD_REACTORS
330
21B
330
21C
102
}
330
71
100
AcDbEntity
  8
0
  6
Continuous
 62
     2
100
AcDbLine
 10
-58.27550868412121
 20
17.8102110907038
 30
0.0
 11
-57.03500427386831
 21
16.50143558049922
 31
0.0
  0
LINE
  5
111
102
{ACAD_REACTORS
330
21B
330
21C
102
}
330
71
100
AcDbEntity
  8
0
  6
Continuous
 62
     2
100
AcDbLine
 10
-58.27550868412121
 20
16.50143558049922
 30
0.0
 11
-58.27550868412121
 21
17.8102110907038
 31
0.0
  0
LINE
  5
112
102
{ACAD_REACTORS
330
20B
330
20C
102
}
330
71
100
AcDbEntity
  8
0
  6
Continuous
 62
     2
100
AcDbLine
 10
-55.79434893272969
 20
22.21642197504173
 30
0.0
 11
-54.45842110630201
 21
22.21642197504173
 31
0.0
  0
LINE
  5
113
102
{ACAD_REACTORS
330
20B
330
20C
102
}
330
71
100
AcDbEntity
  8
0
  6
Continuous
 62
     2
100
AcDbLine
 10
-55.79434893272969
 20
20.55863966211601
 30
0.0
 11
-55.79434893272969
 21
21.03852401585772
 31
0.0
  0
LINE
  5
114
102
{ACAD_REACTORS
330
20B
330
20C
102
}
330
71
100
AcDbEntity
  8
0
  6
Continuous
 62
     2
100
AcDbLine
 10
-54.45842110630201
 20
20.55863966211601
 30
0.0
 11
-55.79434893272969
 21
20.55863966211601
 31
0.0
  0
LINE
  5
115
102
{ACAD_REACTORS
330
20B
330
20C
102
}
330
71
100
AcDbEntity
  8
0
  6
Continuous
 62
     2
100
AcDbLine
 10
-54.45842110630201
 20
19.86062605667351
 30
0.0
 11
-54.45842110630201
 21
20.55863966211601
 31
0.0
  0
LINE
  5
116
102
{ACAD_REACTORS
330
20B
330
20C
102
}
330
71
100
AcDbEntity
  8
0
  6
Continuous
 62
     2
100
AcDbLine
 10
-57.60874083008301
 20
19.86062605667351
 30
0.0
 11
-54.45842110630201
 21
19.86062605667351
 31
0.0
  0
LINE
  5
117
102
{ACAD_REACTORS
330
20B
330
20C
102
}
330
71
100
AcDbEntity
  8
0
  6
Continuous
 62
     2
100
AcDbLine
 10
-57.60874083008301
 20
22.91443558048471
 30
0.0
 11
-54.45842110630201
 21
22.91443558048471
 31
0.0
  0
LINE
  5
118
102
{ACAD_REACTORS
330
20B
330
20C
102
}
330
71
100
AcDbEntity
  8
0
  6
Continuous
 62
     2
100
AcDbLine
 10
-54.45842110630201
 20
22.21642197504173
 30
0.0
 11
-54.45842110630201
 21
22.91443558048471
 31
0.0
  0
LINE
  5
119
102
{ACAD_REACTORS
330
21D
330
21E
102
}
330
71
100
AcDbEntity
  8
0
  6
Continuous
 62
     2
100
AcDbLine
 10
-60.47009632522301
 20
21.84560224715011
 30
0.0
 11
-60.47009632522301
 21
22.91443558048471
 31
0.0
  0
LINE
  5
11A
102
{ACAD_REACTORS
330
21D
330
21E
102
}
330
71
100
AcDbEntity
  8
0
  6
Continuous
 62
     2
100
AcDbLine
 10
-60.47009632522301
 20
22.91443558048471
 30
0.0
 11
-59.27730362305661
 21
22.91443558048471
 31
0.0
  0
LINE
  5
11B
102
{ACAD_REACTORS
330
21D
330
21E
102
}
330
71
100
AcDbEntity
  8
0
  6
Continuous
 62
     2
100
AcDbLine
 10
-60.47009632522301
 20
20.99489816551733
 30
0.0
 11
-61.51975390313049
 21
20.99489816551733
 31
0.0
  0
LINE
  5
11C
102
{ACAD_REACTORS
330
21D
330
21E
102
}
330
71
100
AcDbEntity
  8
0
  6
Continuous
 62
     2
100
AcDbLine
 10
-61.51975390313049
 20
20.99489816551733
 30
0.0
 11
-61.51975390313049
 21
19.86062605667351
 31
0.0
  0
LINE
  5
11D
102
{ACAD_REACTORS
330
21D
330
21E
102
}
330
71
100
AcDbEntity
  8
0
  6
Continuous
 62
     2
100
AcDbLine
 10
-62.71254660529709
 20
22.91443558048471
 30
0.0
 11
-62.71254660529709
 21
19.86062605667351
 31
0.0
  0
LINE
  5
11E
102
{ACAD_REACTORS
330
20F
330
210
102
}
330
71
100
AcDbEntity
  8
0
  6
Continuous
 62
     2
100
AcDbLine
 10
-64.66872663685069
 20
21.5456020857024
 30
0.0
 11
-64.66872663685069
 21
22.25132973504461
 31
0.0
  0
LINE
  5
11F
102
{ACAD_REACTORS
330
20F
330
210
102
}
330
71
100
AcDbEntity
  8
0
  6
Continuous
 62
     2
100
AcDbLine
 10
-65.90923104710481
 20
19.86062605667351
 30
0.0
 11
-64.66872663685069
 21
19.86062605667351
 31
0.0
  0
LINE
  5
120
102
{ACAD_REACTORS
330
20F
330
210
102
}
330
71
100
AcDbEntity
  8
0
  6
Continuous
 62
     2
100
AcDbLine
 10
-64.66872663685069
 20
19.86062605667351
 30
0.0
 11
-64.66872663685069
 21
20.80370429781732
 31
0.0
  0
LINE
  5
121
102
{ACAD_REACTORS
330
209
330
20A
102
}
330
71
100
AcDbEntity
  8
0
  6
Continuous
 62
     2
100
AcDbLine
 10
-70.21417689631619
 20
17.21399113605611
 30
0.0
 11
-71.69001015732582
 21
17.21399113605611
 31
0.0
  0
LINE
  5
122
102
{ACAD_REACTORS
330
209
330
20A
102
}
330
71
100
AcDbEntity
  8
0
  6
Continuous
 62
     2
100
AcDbLine
 10
-72.7081494494551
 20
22.49019096508272
 30
0.0
 11
-72.7081494494551
 21
16.92568019588251
 31
0.0
  0
LINE
  5
123
102
{ACAD_REACTORS
330
209
330
20A
102
}
330
71
100
AcDbEntity
  8
0
  6
Continuous
 62
     2
100
AcDbLine
 10
-72.2839048340723
 20
22.91443558046652
 30
0.0
 11
-66.8105927433555
 21
22.91443558046652
 31
0.0
  0
LINE
  5
124
102
{ACAD_REACTORS
330
209
330
20A
102
}
330
71
100
AcDbEntity
  8
0
  6
Continuous
 62
     2
100
AcDbLine
 10
-66.38634812797162
 20
22.49019096508272
 30
0.0
 11
-66.38634812797162
 21
16.92568019588251
 31
0.0
  0
LINE
  5
125
102
{ACAD_REACTORS
330
209
330
20A
102
}
330
71
100
AcDbEntity
  8
0
  6
Continuous
 62
     2
100
AcDbLine
 10
-66.8105927433555
 20
16.50143558049922
 30
0.0
 11
-72.2839048340723
 21
16.50143558049922
 31
0.0
  0
LINE
  5
126
102
{ACAD_REACTORS
330
209
330
20A
102
}
330
71
100
AcDbEntity
  8
0
  6
Continuous
 62
     2
100
AcDbLine
 10
-69.8984599732396
 20
17.52970805913282
 30
0.0
 11
-69.8984599732396
 21
19.06047899066442
 31
0.0
  0
LINE
  5
127
102
{ACAD_REACTORS
330
209
330
20A
102
}
330
71
100
AcDbEntity
  8
0
  6
Continuous
 62
     2
100
AcDbLine
 10
-69.8984599732396
 20
21.28213848278941
 30
0.0
 11
-69.8984599732396
 21
21.88616310184992
 31
0.0
  0
LINE
  5
128
102
{ACAD_REACTORS
330
209
330
20A
102
}
330
71
100
AcDbEntity
  8
0
  6
Continuous
 62
     2
100
AcDbLine
 10
-71.69001015732582
 20
22.20188002492611
 30
0.0
 11
-70.21417689631619
 21
22.20188002492611
 31
0.0
  0
LINE
  5
129
102
{ACAD_REACTORS
330
209
330
20A
102
}
330
71
100
AcDbEntity
  8
0
  6
Continuous
 62
     2
100
AcDbLine
 10
-72.0057270804015
 20
21.88616310184992
 30
0.0
 11
-72.0057270804015
 21
17.52970805913282
 31
0.0
  0
LINE
  5
12A
102
{ACAD_REACTORS
330
20F
330
210
102
}
330
71
100
AcDbEntity
  8
0
  6
Continuous
 62
     2
100
AcDbLine
 10
-64.66872663685069
 20
20.80370429781732
 30
0.0
 11
-63.90995904907041
 21
20.80370429781732
 31
0.0
  0
LINE
  5
12B
102
{ACAD_REACTORS
330
20F
330
210
102
}
330
71
100
AcDbEntity
  8
0
  6
Continuous
 62
     2
100
AcDbLine
 10
-65.90923104710481
 20
22.91443558048471
 30
0.0
 11
-63.90995904907041
 21
22.91443558048471
 31
0.0
  0
LINE
  5
12C
102
{ACAD_REACTORS
330
20F
330
210
102
}
330
71
100
AcDbEntity
  8
0
  6
Continuous
 62
     2
100
AcDbLine
 10
-65.90923104710481
 20
22.91443558048471
 30
0.0
 11
-65.90923104710481
 21
19.86062605667351
 31
0.0
  0
LINE
  5
12D
102
{ACAD_REACTORS
330
20F
330
210
102
}
330
71
100
AcDbEntity
  8
0
  6
Continuous
 62
     2
100
AcDbLine
 10
-64.66872663685069
 20
21.5456020857024
 30
0.0
 11
-64.3514315753088
 21
21.5456020857024
 31
0.0
  0
LINE
  5
12E
102
{ACAD_REACTORS
330
20F
330
210
102
}
330
71
100
AcDbEntity
  8
0
  6
Continuous
 62
     2
100
AcDbLine
 10
-64.66872663685069
 20
22.25132973504461
 30
0.0
 11
-64.3514315753088
 21
22.25132973504461
 31
0.0
  0
LINE
  5
12F
102
{ACAD_REACTORS
330
21D
330
21E
102
}
330
71
100
AcDbEntity
  8
0
  6
Continuous
 62
     2
100
AcDbLine
 10
-61.51975390313049
 20
21.84560224715011
 30
0.0
 11
-60.47009632522301
 21
21.84560224715011
 31
0.0
  0
LINE
  5
130
102
{ACAD_REACTORS
330
21D
330
21E
102
}
330
71
100
AcDbEntity
  8
0
  6
Continuous
 62
     2
100
AcDbLine
 10
-61.51975390313049
 20
22.91443558048471
 30
0.0
 11
-61.51975390313049
 21
21.84560224715011
 31
0.0
  0
LINE
  5
131
102
{ACAD_REACTORS
330
21D
330
21E
102
}
330
71
100
AcDbEntity
  8
0
  6
Continuous
 62
     2
100
AcDbLine
 10
-62.71254660529709
 20
22.91443558048471
 30
0.0
 11
-61.51975390313049
 21
22.91443558048471
 31
0.0
  0
LINE
  5
132
102
{ACAD_REACTORS
330
21D
330
21E
102
}
330
71
100
AcDbEntity
  8
0
  6
Continuous
 62
     2
100
AcDbLine
 10
-61.51975390313049
 20
19.86062605667351
 30
0.0
 11
-62.71254660529709
 21
19.86062605667351
 31
0.0
  0
LINE
  5
133
102
{ACAD_REACTORS
330
21D
330
21E
102
}
330
71
100
AcDbEntity
  8
0
  6
Continuous
 62
     2
100
AcDbLine
 10
-60.47009632522301
 20
19.86062605667351
 30
0.0
 11
-60.47009632522301
 21
20.99489816551733
 31
0.0
  0
LINE
  5
134
102
{ACAD_REACTORS
330
21D
330
21E
102
}
330
71
100
AcDbEntity
  8
0
  6
Continuous
 62
     2
100
AcDbLine
 10
-59.27730362305661
 20
19.86062605667351
 30
0.0
 11
-60.47009632522301
 21
19.86062605667351
 31
0.0
  0
LINE
  5
135
102
{ACAD_REACTORS
330
21D
330
21E
102
}
330
71
100
AcDbEntity
  8
0
  6
Continuous
 62
     2
100
AcDbLine
 10
-59.27730362305661
 20
22.91443558048471
 30
0.0
 11
-59.27730362305661
 21
19.86062605667351
 31
0.0
  0
LINE
  5
136
102
{ACAD_REACTORS
330
20B
330
20C
102
}
330
71
100
AcDbEntity
  8
0
  6
Continuous
 62
     2
100
AcDbLine
 10
-55.79434893272969
 20
21.03852401585772
 30
0.0
 11
-54.45842110630201
 21
21.03852401585772
 31
0.0
  0
LINE
  5
137
102
{ACAD_REACTORS
330
20B
330
20C
102
}
330
71
100
AcDbEntity
  8
0
  6
Continuous
 62
     2
100
AcDbLine
 10
-54.45842110630201
 20
21.03852401585772
 30
0.0
 11
-54.45842110630201
 21
21.73653762130002
 31
0.0
  0
LINE
  5
138
102
{ACAD_REACTORS
330
20B
330
20C
102
}
330
71
100
AcDbEntity
  8
0
  6
Continuous
 62
     2
100
AcDbLine
 10
-54.45842110630201
 20
21.73653762130002
 30
0.0
 11
-55.79434893272969
 21
21.73653762130002
 31
0.0
  0
LINE
  5
139
102
{ACAD_REACTORS
330
20B
330
20C
102
}
330
71
100
AcDbEntity
  8
0
  6
Continuous
 62
     2
100
AcDbLine
 10
-55.79434893272969
 20
21.73653762130002
 30
0.0
 11
-55.79434893272969
 21
22.21642197504173
 31
0.0
  0
LINE
  5
13A
102
{ACAD_REACTORS
330
21B
330
21C
102
}
330
71
100
AcDbEntity
  8
0
  6
Continuous
 62
     2
100
AcDbLine
 10
-59.4683013862888
 20
16.50143558049922
 30
0.0
 11
-58.27550868412121
 21
16.50143558049922
 31
0.0
  0
LINE
  5
13B
102
{ACAD_REACTORS
330
21B
330
21C
102
}
330
71
100
AcDbEntity
  8
0
  6
Continuous
 62
     2
100
AcDbLine
 10
-57.03500427386831
 20
16.50143558049922
 30
0.0
 11
-55.84221157170191
 21
16.50143558049922
 31
0.0
  0
LINE
  5
13C
102
{ACAD_REACTORS
330
21B
330
21C
102
}
330
71
100
AcDbEntity
  8
0
  6
Continuous
 62
     2
100
AcDbLine
 10
-58.27550868412121
 20
19.5552451043103
 30
0.0
 11
-59.4683013862888
 21
19.5552451043103
 31
0.0
  0
LINE
  5
13D
102
{ACAD_REACTORS
330
21B
330
21C
102
}
330
71
100
AcDbEntity
  8
0
  6
Continuous
 62
     2
100
AcDbLine
 10
-59.4683013862888
 20
19.5552451043103
 30
0.0
 11
-59.4683013862888
 21
16.50143558049922
 31
0.0
  0
LINE
  5
13E
102
{ACAD_REACTORS
330
219
330
21A
102
}
330
71
100
AcDbEntity
  8
0
  6
Continuous
 62
     2
100
AcDbLine
 10
-51.78656545344859
 20
22.91443558048471
 30
0.0
 11
-51.78656545344859
 21
21.60566007027953
 31
0.0
  0
LINE
  5
13F
102
{ACAD_REACTORS
330
219
330
21A
102
}
330
71
100
AcDbEntity
  8
0
  6
Continuous
 62
     2
100
AcDbLine
 10
-53.02706986370259
 20
22.91443558048471
 30
0.0
 11
-54.21986256586911
 21
22.91443558048471
 31
0.0
  0
LINE
  5
140
102
{ACAD_REACTORS
330
219
330
21A
102
}
330
71
100
AcDbEntity
  8
0
  6
Continuous
 62
     2
100
AcDbLine
 10
-54.21986256586911
 20
22.91443558048471
 30
0.0
 11
-54.21986256586911
 21
19.86062605667351
 31
0.0
  0
LINE
  5
141
102
{ACAD_REACTORS
330
219
330
21A
102
}
330
71
100
AcDbEntity
  8
0
  6
Continuous
 62
     2
100
AcDbLine
 10
-53.02706986370259
 20
19.86062605667351
 30
0.0
 11
-53.02706986370259
 21
21.16940156687821
 31
0.0
  0
LINE
  5
142
102
{ACAD_REACTORS
330
217
330
218
102
}
330
71
100
AcDbEntity
  8
0
  6
Continuous
 62
     2
100
AcDbLine
 10
-53.69518470780059
 20
16.50143558049922
 30
0.0
 11
-53.69518470780059
 21
18.76997979818671
 31
0.0
  0
LINE
  5
143
102
{ACAD_REACTORS
330
217
330
218
102
}
330
71
100
AcDbEntity
  8
0
  6
Continuous
 62
     2
100
AcDbLine
 10
-53.69518470780059
 20
18.76997979818671
 30
0.0
 11
-52.88408567032809
 21
18.76997979818671
 31
0.0
  0
LINE
  5
144
102
{ACAD_REACTORS
330
217
330
218
102
}
330
71
100
AcDbEntity
  8
0
  6
Continuous
 62
     2
100
AcDbLine
 10
-52.88408567032809
 20
18.76997979818671
 30
0.0
 11
-52.88408567032809
 21
19.5552451043103
 31
0.0
  0
LINE
  5
145
102
{ACAD_REACTORS
330
217
330
218
102
}
330
71
100
AcDbEntity
  8
0
  6
Continuous
 62
     2
100
AcDbLine
 10
-52.88408567032809
 20
19.5552451043103
 30
0.0
 11
-55.69907644744171
 21
19.5552451043103
 31
0.0
  0
LINE
  5
146
102
{ACAD_REACTORS
330
217
330
218
102
}
330
71
100
AcDbEntity
  8
0
  6
Continuous
 62
     2
100
AcDbLine
 10
-55.69907644744171
 20
18.76997979818671
 30
0.0
 11
-54.88797740996711
 21
18.76997979818671
 31
0.0
  0
LINE
  5
147
102
{ACAD_REACTORS
330
215
330
216
102
}
330
71
100
AcDbEntity
  8
0
  6
Continuous
 62
     2
100
AcDbLine
 10
-52.0895798445307
 20
17.0423961247171
 30
0.0
 11
-50.95713826785689
 21
17.0423961247171
 31
0.0
  0
LINE
  5
148
102
{ACAD_REACTORS
330
215
330
216
102
}
330
71
100
AcDbEntity
  8
0
  6
Continuous
 62
     2
100
AcDbLine
 10
-49.50515380412719
 20
16.50143558049922
 30
0.0
 11
-50.74565821438111
 21
16.50143558049922
 31
0.0
  0
LINE
  5
149
102
{ACAD_REACTORS
330
215
330
216
102
}
330
71
100
AcDbEntity
  8
0
  6
Continuous
 62
     2
100
AcDbLine
 10
-52.14361126132019
 20
19.5552451043103
 30
0.0
 11
-53.5415643082595
 21
16.50143558049922
 31
0.0
  0
LINE
  5
14A
102
{ACAD_REACTORS
330
215
330
216
102
}
330
71
100
AcDbEntity
  8
0
  6
Continuous
 62
     2
100
AcDbLine
 10
-52.30105989800651
 20
16.50143558049922
 30
0.0
 11
-52.0895798445307
 21
17.0423961247171
 31
0.0
  0
LINE
  5
14B
102
{ACAD_REACTORS
330
215
330
216
102
}
330
71
100
AcDbEntity
  8
0
  6
Continuous
 62
     2
100
AcDbLine
 10
-51.8235242933857
 20
17.7229593900237
 30
0.0
 11
-51.5233590561933
 21
18.49077435601041
 31
0.0
  0
LINE
  5
14C
102
{ACAD_REACTORS
330
213
330
214
102
}
330
71
100
AcDbEntity
  8
0
  6
Continuous
 62
     2
100
AcDbLine
 10
-50.35521421084809
 20
19.86062605667351
 30
0.0
 11
-50.35521421084809
 21
22.91443558048471
 31
0.0
  0
LINE
  5
14D
102
{ACAD_REACTORS
330
213
330
214
102
}
330
71
100
AcDbEntity
  8
0
  6
Continuous
 62
     2
100
AcDbLine
 10
-49.11470980059519
 20
22.91443558048471
 30
0.0
 11
-49.11470980059519
 21
19.86062605667351
 31
0.0
  0
LINE
  5
14E
102
{ACAD_REACTORS
330
213
330
214
102
}
330
71
100
AcDbEntity
  8
0
  6
Continuous
 62
     2
100
AcDbLine
 10
-50.35521421084809
 20
22.91443558048471
 30
0.0
 11
-49.11470980059519
 21
22.91443558048471
 31
0.0
  0
LINE
  5
14F
102
{ACAD_REACTORS
330
211
330
212
102
}
330
71
100
AcDbEntity
  8
0
  6
Continuous
 62
     2
100
AcDbLine
 10
-46.8961153745644
 20
20.64835784196723
 30
0.0
 11
-46.19952443649891
 21
19.86062605667351
 31
0.0
  0
LINE
  5
150
102
{ACAD_REACTORS
330
211
330
212
102
}
330
71
100
AcDbEntity
  8
0
  6
Continuous
 62
     2
100
AcDbLine
 10
-46.19952443649891
 20
19.86062605667351
 30
0.0
 11
-44.7968002187506
 21
19.86062605667351
 31
0.0
  0
LINE
  5
151
102
{ACAD_REACTORS
330
211
330
212
102
}
330
71
100
AcDbEntity
  8
0
  6
Continuous
 62
     2
100
AcDbLine
 10
-46.19475326569091
 20
21.44148505044851
 30
0.0
 11
-44.7968002187506
 21
19.86062605667351
 31
0.0
  0
LINE
  5
152
102
{ACAD_REACTORS
330
211
330
212
102
}
330
71
100
AcDbEntity
  8
0
  6
Continuous
 62
     2
100
AcDbLine
 10
-46.19475326569091
 20
21.44148505044851
 30
0.0
 11
-44.89222363492439
 21
22.91443558048471
 31
0.0
  0
LINE
  5
153
102
{ACAD_REACTORS
330
211
330
212
102
}
330
71
100
AcDbEntity
  8
0
  6
Continuous
 62
     2
100
AcDbLine
 10
-46.8961153745644
 20
22.23461225892922
 30
0.0
 11
-46.29494785267161
 21
22.91443558048471
 31
0.0
  0
LINE
  5
154
102
{ACAD_REACTORS
330
211
330
212
102
}
330
71
100
AcDbEntity
  8
0
  6
Continuous
 62
     2
100
AcDbLine
 10
-47.4972828964562
 20
22.91443558048471
 30
0.0
 11
-46.8961153745644
 21
22.23461225892922
 31
0.0
  0
LINE
  5
155
102
{ACAD_REACTORS
330
211
330
212
102
}
330
71
100
AcDbEntity
  8
0
  6
Continuous
 62
     2
100
AcDbLine
 10
-47.4972828964562
 20
22.91443558048471
 30
0.0
 11
-48.90000711420549
 21
22.91443558048471
 31
0.0
  0
LINE
  5
156
102
{ACAD_REACTORS
330
207
330
208
102
}
330
71
100
AcDbEntity
  8
0
  6
Continuous
 62
     2
100
AcDbLine
 10
-46.8006919583917
 20
16.50143558049922
 30
0.0
 11
-45.60789925622399
 21
16.50143558049922
 31
0.0
  0
LINE
  5
157
102
{ACAD_REACTORS
330
207
330
208
102
}
330
71
100
AcDbEntity
  8
0
  6
Continuous
 62
     2
100
AcDbLine
 10
-45.60789925622399
 20
16.50143558049922
 30
0.0
 11
-45.60789925622399
 21
18.76997979818671
 31
0.0
  0
LINE
  5
158
102
{ACAD_REACTORS
330
207
330
208
102
}
330
71
100
AcDbEntity
  8
0
  6
Continuous
 62
     2
100
AcDbLine
 10
-45.60789925622399
 20
18.76997979818671
 30
0.0
 11
-44.7968002187506
 21
18.76997979818671
 31
0.0
  0
LINE
  5
159
102
{ACAD_REACTORS
330
207
330
208
102
}
330
71
100
AcDbEntity
  8
0
  6
Continuous
 62
     2
100
AcDbLine
 10
-44.7968002187506
 20
18.76997979818671
 30
0.0
 11
-44.7968002187506
 21
19.5552451043103
 31
0.0
  0
LINE
  5
15A
102
{ACAD_REACTORS
330
207
330
208
102
}
330
71
100
AcDbEntity
  8
0
  6
Continuous
 62
     2
100
AcDbLine
 10
-48.18174573737929
 20
19.55524510430982
 30
0.0
 11
-44.7968002187506
 21
19.5552451043103
 31
0.0
  0
LINE
  5
15B
102
{ACAD_REACTORS
330
207
330
208
102
}
330
71
100
AcDbEntity
  8
0
  6
Continuous
 62
     2
100
AcDbLine
 10
-46.8006919583917
 20
18.76997979818671
 30
0.0
 11
-46.8006919583917
 21
16.50143558049922
 31
0.0
  0
LINE
  5
15C
102
{ACAD_REACTORS
330
209
330
20A
102
}
330
71
100
AcDbEntity
  8
0
  6
Continuous
 62
     2
100
AcDbLine
 10
-69.4301783938709
 20
18.48031573006372
 30
0.0
 11
-69.4301783938709
 21
19.0621671367588
 31
0.0
  0
LINE
  5
15D
102
{ACAD_REACTORS
330
209
330
20A
102
}
330
71
100
AcDbEntity
  8
0
  6
Continuous
 62
     2
100
AcDbLine
 10
-69.4301783938709
 20
21.28045033669503
 30
0.0
 11
-69.4301783938709
 21
21.88598562520181
 31
0.0
  0
LINE
  5
15E
330
71
100
AcDbEntity
  8
1
  6
Continuous
 62
     6
100
AcDbLine
 10
-90.89999980926768
 20
9.20793558048291
 30
0.0
 11
-76.94480433601771
 21
9.2079355804828
 31
0.0
  0
LINE
  5
15F
330
71
100
AcDbEntity
  8
1
  6
Continuous
 62
     6
100
AcDbLine
 10
-140.8999998092679
 20
9.20793558048291
 30
0.0
 11
-145.9448043360177
 21
9.20793558048291
 31
0.0
  0
LINE
  5
160
330
71
100
AcDbEntity
  8
1
  6
Continuous
 62
     6
100
AcDbLine
 10
9.10000019073229
 20
9.20793558048291
 30
0.0
 11
52.6000001907323
 21
9.20793558048291
 31
0.0
  0
LINE
  5
161
330
71
100
AcDbEntity
  8
1
  6
Continuous
 62
     6
100
AcDbLine
 10
-40.89999980926771
 20
9.20793558048291
 30
0.0
 11
-58.74480433601769
 21
9.20793558048291
 31
0.0
  0
LINE
  5
162
330
71
100
AcDbEntity
  8
1
  6
Continuous
 62
     2
100
AcDbLine
 10
52.6000001907323
 20
9.20793558048291
 30
0.0
 11
57.60000019073129
 21
9.20793558048291
 31
0.0
  0
LINE
  5
163
330
71
100
AcDbEntity
  8
1
  6
Continuous
 62
     2
100
AcDbLine
 10
52.6000001907323
 20
9.20793558048291
 30
0.0
 11
52.6000001907323
 21
4.2079355804828
 31
0.0
  0
LINE
  5
164
330
71
100
AcDbEntity
  8
1
  6
Continuous
 62
     6
100
AcDbLine
 10
-76.94480433601771
 20
26.20793558048291
 30
0.0
 11
-40.54480433601779
 21
26.20793558048291
 31
0.0
  0
LINE
  5
165
330
71
100
AcDbEntity
  8
1
  6
Continuous
 62
     2
100
AcDbLine
 10
57.60000019073129
 20
4.2079355804828
 30
0.0
 11
57.60000019073129
 21
9.20793558048291
 31
0.0
  0
LINE
  5
166
330
71
100
AcDbEntity
  8
1
  6
Continuous
 62
     2
100
AcDbLine
 10
57.60000019073129
 20
4.2079355804828
 30
0.0
 11
52.6000001907323
 21
4.2079355804828
 31
0.0
  0
LINE
  5
167
330
71
100
AcDbEntity
  8
1
  6
Continuous
 62
     2
100
AcDbLine
 10
52.6000001907323
 20
4.2079355804828
 30
0.0
 11
9.10000019073229
 21
4.2079355804828
 31
0.0
  0
LINE
  5
168
330
71
100
AcDbEntity
  8
1
  6
Continuous
 62
     6
100
AcDbLine
 10
52.60000019073399
 20
26.20793558048291
 30
0.0
 11
52.6000001907332
 21
59.20793558048302
 31
0.0
  0
LINE
  5
169
330
71
100
AcDbEntity
  8
1
  6
Continuous
 62
     2
100
AcDbLine
 10
57.60000019073129
 20
214.2079355804829
 30
0.0
 11
-90.89999980926768
 21
214.2079355804829
 31
0.0
  0
LINE
  5
16A
330
71
100
AcDbEntity
  8
1
  6
Continuous
 62
     6
100
AcDbLine
 10
52.60000019073129
 20
194.2079355804829
 30
0.0
 11
-234.3999998092668
 21
194.2079355804829
 31
0.0
  0
LINE
  5
16B
330
71
100
AcDbEntity
  8
1
  6
Continuous
 62
     2
100
AcDbLine
 10
52.6000001907332
 20
59.20793558048302
 30
0.0
 11
57.60000019073129
 21
59.20793558048302
 31
0.0
  0
LINE
  5
16C
330
71
100
AcDbEntity
  8
1
  6
Continuous
 62
     6
100
AcDbLine
 10
52.6000001907332
 20
59.20793558048302
 30
0.0
 11
52.6000001907327
 21
109.2079355804828
 31
0.0
  0
LINE
  5
16D
330
71
100
AcDbEntity
  8
1
  6
Continuous
 62
     2
100
AcDbLine
 10
57.60000019073129
 20
59.20793558048302
 30
0.0
 11
57.60000019073129
 21
109.2079355804828
 31
0.0
  0
LINE
  5
16E
330
71
100
AcDbEntity
  8
1
  6
Continuous
 62
     2
100
AcDbLine
 10
52.6000001907327
 20
109.2079355804828
 30
0.0
 11
57.60000019073129
 21
109.2079355804828
 31
0.0
  0
LINE
  5
16F
330
71
100
AcDbEntity
  8
1
  6
Continuous
 62
     6
100
AcDbLine
 10
52.6000001907327
 20
109.2079355804828
 30
0.0
 11
52.60000019073149
 21
159.2079355804829
 31
0.0
  0
LINE
  5
170
330
71
100
AcDbEntity
  8
1
  6
Continuous
 62
     2
100
AcDbLine
 10
57.60000019073129
 20
109.2079355804828
 30
0.0
 11
57.60000019073129
 21
159.2079355804829
 31
0.0
  0
LINE
  5
171
330
71
100
AcDbEntity
  8
1
  6
Continuous
 62
     2
100
AcDbLine
 10
52.60000019073149
 20
159.2079355804829
 30
0.0
 11
57.60000019073129
 21
159.2079355804829
 31
0.0
  0
LINE
  5
172
330
71
100
AcDbEntity
  8
1
  6
Continuous
 62
     6
100
AcDbLine
 10
52.60000019073149
 20
159.2079355804829
 30
0.0
 11
52.60000019073129
 21
194.2079355804829
 31
0.0
  0
LINE
  5
173
330
71
100
AcDbEntity
  8
1
  6
Continuous
 62
     2
100
AcDbLine
 10
57.60000019073129
 20
159.2079355804829
 30
0.0
 11
57.60000019073129
 21
214.2079355804829
 31
0.0
  0
LINE
  5
174
330
71
100
AcDbEntity
  8
1
  6
Continuous
 62
     2
100
AcDbLine
 10
57.60000019073129
 20
9.20793558048291
 30
0.0
 11
57.60000019073129
 21
59.20793558048302
 31
0.0
  0
LINE
  5
175
330
71
100
AcDbEntity
  8
1
  6
Continuous
 62
     2
100
AcDbLine
 10
-90.89999980926768
 20
214.2079355804829
 30
0.0
 11
-239.3999998092668
 21
214.2079355804829
 31
0.0
  0
LINE
  5
176
330
71
100
AcDbEntity
  8
1
  6
Continuous
 62
     2
100
AcDbLine
 10
-90.89999980926768
 20
214.2079355804829
 30
0.0
 11
-90.89999980926768
 21
204.9992437357816
 31
0.0
  0
LINE
  5
177
330
71
100
AcDbEntity
  8
1
  6
Continuous
 62
     2
100
AcDbLine
 10
-239.3999998092668
 20
4.2079355804828
 30
0.0
 11
-234.3999998092658
 21
4.2079355804828
 31
0.0
  0
LINE
  5
178
330
71
100
AcDbEntity
  8
1
  6
Continuous
 62
     2
100
AcDbLine
 10
-239.3999998092668
 20
214.2079355804829
 30
0.0
 11
-239.3999998092668
 21
159.2079355804829
 31
0.0
  0
LINE
  5
179
330
71
100
AcDbEntity
  8
1
  6
Continuous
 62
     6
100
AcDbLine
 10
-234.3999998092668
 20
194.2079355804829
 30
0.0
 11
-234.3999998092667
 21
159.2079355804829
 31
0.0
  0
LINE
  5
17A
330
71
100
AcDbEntity
  8
1
  6
Continuous
 62
     2
100
AcDbLine
 10
-239.3999998092668
 20
159.2079355804829
 30
0.0
 11
-234.3999998092667
 21
159.2079355804829
 31
0.0
  0
LINE
  5
17B
330
71
100
AcDbEntity
  8
1
  6
Continuous
 62
     2
100
AcDbLine
 10
-239.3999998092668
 20
159.2079355804829
 30
0.0
 11
-239.3999998092668
 21
109.2079355804828
 31
0.0
  0
LINE
  5
17C
330
71
100
AcDbEntity
  8
1
  6
Continuous
 62
     6
100
AcDbLine
 10
-234.3999998092667
 20
159.2079355804829
 30
0.0
 11
-234.3999998092662
 21
109.2079355804828
 31
0.0
  0
LINE
  5
17D
330
71
100
AcDbEntity
  8
1
  6
Continuous
 62
     2
100
AcDbLine
 10
-239.3999998092668
 20
109.2079355804828
 30
0.0
 11
-234.3999998092662
 21
109.2079355804828
 31
0.0
  0
LINE
  5
17E
330
71
100
AcDbEntity
  8
1
  6
Continuous
 62
     2
100
AcDbLine
 10
-239.3999998092668
 20
109.2079355804828
 30
0.0
 11
-239.3999998092668
 21
59.20793558048302
 31
0.0
  0
LINE
  5
17F
330
71
100
AcDbEntity
  8
1
  6
Continuous
 62
     6
100
AcDbLine
 10
-234.3999998092662
 20
109.2079355804828
 30
0.0
 11
-234.399999809266
 21
59.20793558048302
 31
0.0
  0
LINE
  5
180
330
71
100
AcDbEntity
  8
1
  6
Continuous
 62
     2
100
AcDbLine
 10
-239.3999998092668
 20
59.20793558048302
 30
0.0
 11
-234.399999809266
 21
59.20793558048302
 31
0.0
  0
LINE
  5
181
330
71
100
AcDbEntity
  8
1
  6
Continuous
 62
     2
100
AcDbLine
 10
-239.3999998092668
 20
59.20793558048302
 30
0.0
 11
-239.3999998092668
 21
9.20793558048291
 31
0.0
  0
LINE
  5
182
330
71
100
AcDbEntity
  8
1
  6
Continuous
 62
     6
100
AcDbLine
 10
-234.399999809266
 20
59.20793558048302
 30
0.0
 11
-234.3999998092658
 21
9.20793558048291
 31
0.0
  0
LINE
  5
183
330
71
100
AcDbEntity
  8
1
  6
Continuous
 62
     2
100
AcDbLine
 10
-190.8999998092677
 20
4.2079355804828
 30
0.0
 11
-190.8999998092677
 21
9.20793558048291
 31
0.0
  0
LINE
  5
184
330
71
100
AcDbEntity
  8
1
  6
Continuous
 62
     2
100
AcDbLine
 10
-190.8999998092677
 20
4.2079355804828
 30
0.0
 11
-140.8999998092679
 21
4.2079355804828
 31
0.0
  0
LINE
  5
185
330
71
100
AcDbEntity
  8
1
  6
Continuous
 62
     2
100
AcDbLine
 10
-140.8999998092679
 20
4.2079355804828
 30
0.0
 11
-140.8999998092679
 21
9.20793558048291
 31
0.0
  0
LINE
  5
186
330
71
100
AcDbEntity
  8
1
  6
Continuous
 62
     2
100
AcDbLine
 10
-140.8999998092679
 20
4.2079355804828
 30
0.0
 11
-90.89999980926768
 21
4.2079355804828
 31
0.0
  0
LINE
  5
187
330
71
100
AcDbEntity
  8
1
  6
Continuous
 62
     2
100
AcDbLine
 10
-90.89999980926768
 20
4.2079355804828
 30
0.0
 11
-90.89999980926768
 21
9.20793558048291
 31
0.0
  0
LINE
  5
188
330
71
100
AcDbEntity
  8
1
  6
Continuous
 62
     2
100
AcDbLine
 10
-90.89999980926768
 20
4.2079355804828
 30
0.0
 11
-40.89999980926771
 21
4.2079355804828
 31
0.0
  0
LINE
  5
189
330
71
100
AcDbEntity
  8
1
  6
Continuous
 62
     2
100
AcDbLine
 10
-40.89999980926771
 20
4.2079355804828
 30
0.0
 11
-40.89999980926771
 21
9.20793558048291
 31
0.0
  0
LINE
  5
18A
330
71
100
AcDbEntity
  8
1
  6
Continuous
 62
     2
100
AcDbLine
 10
9.10000019073229
 20
4.2079355804828
 30
0.0
 11
9.10000019073229
 21
9.20793558048291
 31
0.0
  0
LINE
  5
18B
330
71
100
AcDbEntity
  8
1
  6
Continuous
 62
     2
100
AcDbLine
 10
9.10000019073229
 20
4.2079355804828
 30
0.0
 11
-40.89999980926771
 21
4.2079355804828
 31
0.0
  0
LINE
  5
18C
330
71
100
AcDbEntity
  8
1
  6
Continuous
 62
     2
100
AcDbLine
 10
-234.3999998092658
 20
9.20793558048291
 30
0.0
 11
-234.3999998092658
 21
4.2079355804828
 31
0.0
  0
LINE
  5
18D
330
71
100
AcDbEntity
  8
1
  6
Continuous
 62
     2
100
AcDbLine
 10
-234.3999998092658
 20
4.2079355804828
 30
0.0
 11
-190.8999998092677
 21
4.2079355804828
 31
0.0
  0
LINE
  5
18E
330
71
100
AcDbEntity
  8
1
  6
Continuous
 62
     2
100
AcDbLine
 10
-234.3999998092658
 20
9.20793558048291
 30
0.0
 11
-239.3999998092668
 21
9.20793558048291
 31
0.0
  0
LINE
  5
18F
330
71
100
AcDbEntity
  8
1
  6
Continuous
 62
     2
100
AcDbLine
 10
-239.3999998092668
 20
9.20793558048291
 30
0.0
 11
-239.3999998092668
 21
4.2079355804828
 31
0.0
  0
LINE
  5
190
330
71
100
AcDbEntity
  8
1
  6
Continuous
 62
     6
100
AcDbLine
 10
52.6000001907323
 20
9.20793558048291
 30
0.0
 11
52.6000001907336
 21
17.70793558048291
 31
0.0
  0
LINE
  5
191
330
71
100
AcDbEntity
  8
1
  6
Continuous
 62
     6
100
AcDbLine
 10
-40.54480433601779
 20
9.2079355804828
 30
0.0
 11
9.10000019073229
 21
9.20793558048291
 31
0.0
  0
LINE
  5
192
330
71
100
AcDbEntity
  8
1
  6
Continuous
 62
     6
100
AcDbLine
 10
-193.1999998092679
 20
9.2079355804828
 30
0.0
 11
-190.8999998092677
 21
9.20793558048291
 31
0.0
  0
LINE
  5
193
330
71
100
AcDbEntity
  8
1
  6
Continuous
 62
     6
100
AcDbLine
 10
-90.89999980926768
 20
9.20793558048291
 30
0.0
 11
-140.8999998092679
 21
9.20793558048291
 31
0.0
  0
LINE
  5
194
330
71
100
AcDbEntity
  8
1
  6
Continuous
 62
     7
100
AcDbLine
 10
-76.94480433601771
 20
26.20793558048291
 30
0.0
 11
-76.94480433601771
 21
13.4579355804828
 31
0.0
  0
LINE
  5
195
330
71
100
AcDbEntity
  8
1
  6
Continuous
 62
     7
100
AcDbLine
 10
-40.54480433601779
 20
26.20793558048291
 30
0.0
 11
-40.54480433601779
 21
13.45793558048291
 31
0.0
  0
LINE
  5
196
330
71
100
AcDbEntity
  8
1
  6
Continuous
 62
     6
100
AcDbLine
 10
-193.1999998092679
 20
9.2079355804828
 30
0.0
 11
-199.3999998092659
 21
9.20793558048291
 31
0.0
  0
LINE
  5
197
330
71
100
AcDbEntity
  8
1
  6
Continuous
 62
     6
100
AcDbLine
 10
-40.54480433601779
 20
9.2079355804828
 30
0.0
 11
-40.89999980926771
 21
9.20793558048291
 31
0.0
  0
LINE
  5
198
330
71
100
AcDbEntity
  8
1
  6
Continuous
 62
     6
100
AcDbLine
 10
52.60000019073399
 20
26.20793558048291
 30
0.0
 11
52.6000001907336
 21
17.70793558048291
 31
0.0
  0
LINE
  5
199
330
71
100
AcDbEntity
  8
1
  6
Continuous
 62
     6
100
AcDbLine
 10
-199.3999998092659
 20
9.20793558048291
 30
0.0
 11
-234.3999998092658
 21
9.20793558048291
 31
0.0
  0
LINE
  5
19A
330
71
100
AcDbEntity
  8
1
  6
Continuous
 62
     2
100
AcDbLine
 10
-72.7081494494551
 20
31.58293558048283
 30
0.0
 11
-67.7081494494551
 21
32.83293558048283
 31
0.0
  0
LINE
  5
19B
330
71
100
AcDbEntity
  8
1
  6
Continuous
 62
     2
100
AcDbLine
 10
-72.7081494494551
 20
29.08293558048283
 30
0.0
 11
-72.7081494494551
 21
31.58293558048283
 31
0.0
  0
LINE
  5
19C
330
71
100
AcDbEntity
  8
1
  6
Continuous
 62
     2
100
AcDbLine
 10
-67.7081494494551
 20
27.83293558048283
 30
0.0
 11
-72.7081494494551
 21
29.08293558048283
 31
0.0
  0
LINE
  5
19D
330
71
100
AcDbEntity
  8
1
  6
Continuous
 62
     2
100
AcDbLine
 10
-67.7081494494551
 20
32.83293558048283
 30
0.0
 11
-67.7081494494551
 21
27.83293558048283
 31
0.0
  0
LINE
  5
19E
330
71
100
AcDbEntity
  8
1
  6
Continuous
 62
     7
100
AcDbLine
 10
-76.94480433601771
 20
13.4579355804828
 30
0.0
 11
-58.74480433601769
 21
13.45793558048291
 31
0.0
  0
LINE
  5
19F
330
71
100
AcDbEntity
  8
1
  6
Continuous
 62
     7
100
AcDbLine
 10
-76.94480433601771
 20
13.4579355804828
 30
0.0
 11
-76.94480433601771
 21
9.2079355804828
 31
0.0
  0
LINE
  5
1A0
330
71
100
AcDbEntity
  8
1
  6
Continuous
 62
     7
100
AcDbLine
 10
-40.54480433601779
 20
13.45793558048291
 30
0.0
 11
-40.54480433601779
 21
9.2079355804828
 31
0.0
  0
LINE
  5
1A1
330
71
100
AcDbEntity
  8
1
  6
Continuous
 62
     7
100
AcDbLine
 10
-58.74480433601769
 20
13.45793558048291
 30
0.0
 11
-58.74480433601769
 21
9.20793558048291
 31
0.0
  0
LINE
  5
1A2
330
71
100
AcDbEntity
  8
1
  6
Continuous
 62
     6
100
AcDbLine
 10
-58.74480433601769
 20
9.20793558048291
 30
0.0
 11
-76.94480433601771
 21
9.2079355804828
 31
0.0
  0
LINE
  5
1A3
330
71
100
AcDbEntity
  8
1
  6
Continuous
 62
     7
100
AcDbLine
 10
-58.74480433601769
 20
13.45793558048291
 30
0.0
 11
-40.54480433601779
 21
13.45793558048291
 31
0.0
  0
LINE
  5
1A4
330
71
100
AcDbEntity
  8
1
  6
Continuous
 62
     6
100
AcDbLine
 10
-76.94480433601771
 20
34.70793558048291
 30
0.0
 11
52.60000019073399
 21
34.70793558048291
 31
0.0
  0
ARC
  5
1A5
102
{ACAD_REACTORS
330
20D
330
20E
102
}
330
71
100
AcDbEntity
  8
0
  6
Continuous
 62
     2
100
AcDbCircle
 10
-61.55315633705772
 20
18.02834034240451
 30
0.0
 40
0.7717997786796947
100
AcDbArc
 50
321.8795802028417
 51
38.12041979715308
  0
ARC
  5
1A6
102
{ACAD_REACTORS
330
20D
330
20E
102
}
330
71
100
AcDbEntity
  8
0
  6
Continuous
 62
     2
100
AcDbCircle
 10
-61.3534163007113
 20
17.87160916428451
 30
0.0
 40
0.5179085730137298
100
AcDbArc
 50
218.1204197971936
 51
321.8795802028005
  0
ARC
  5
1A7
102
{ACAD_REACTORS
330
20D
330
20E
102
}
330
71
100
AcDbEntity
  8
0
  6
Continuous
 62
     2
100
AcDbCircle
 10
-61.1536762643652
 20
18.02834034240451
 30
0.0
 40
0.7717997786794555
100
AcDbArc
 50
141.8795802028362
 51
218.120419797169
  0
ARC
  5
1A8
102
{ACAD_REACTORS
330
20D
330
20E
102
}
330
71
100
AcDbEntity
  8
0
  6
Continuous
 62
     2
100
AcDbCircle
 10
-61.3534163007113
 20
18.18507152052501
 30
0.0
 40
0.5179085730132965
100
AcDbArc
 50
38.12041979714783
 51
141.879580202858
  0
ARC
  5
1A9
102
{ACAD_REACTORS
330
205
330
206
102
}
330
71
100
AcDbEntity
  8
0
  6
Continuous
 62
     2
100
AcDbCircle
 10
-64.41543043627519
 20
16.61787397699632
 30
0.0
 40
2.22738400897348
100
AcDbArc
 50
58.06909105004078
 51
71.55192388186705
  0
ARC
  5
1AA
102
{ACAD_REACTORS
330
205
330
206
102
}
330
71
100
AcDbEntity
  8
0
  6
Continuous
 62
     2
100
AcDbCircle
 10
-64.15370273531641
 20
18.23341177174351
 30
0.0
 40
0.5115800601948713
100
AcDbArc
 50
113.3722778881994
 51
151.4785267423044
  0
ARC
  5
1AB
102
{ACAD_REACTORS
330
205
330
206
102
}
330
71
100
AcDbEntity
  8
0
  6
Continuous
 62
     2
100
AcDbCircle
 10
-63.77634547723611
 20
18.02834034240451
 30
0.0
 40
0.9410597353332483
100
AcDbArc
 50
151.4785267422667
 51
208.5214732577059
  0
ARC
  5
1AC
102
{ACAD_REACTORS
330
205
330
206
102
}
330
71
100
AcDbEntity
  8
0
  6
Continuous
 62
     2
100
AcDbCircle
 10
-64.57330331136811
 20
21.34102128766091
 30
0.0
 40
4.852596863498138
100
AcDbArc
 50
275.1581447696249
 51
285.9799912583529
  0
ARC
  5
1AD
102
{ACAD_REACTORS
330
205
330
206
102
}
330
71
100
AcDbEntity
  8
0
  6
Continuous
 62
     2
100
AcDbCircle
 10
-64.2844472166322
 20
18.14113070443932
 30
0.0
 40
1.639695123939386
100
AcDbArc
 50
195.0618917770894
 51
275.1581447696395
  0
ARC
  5
1AE
102
{ACAD_REACTORS
330
205
330
206
102
}
330
71
100
AcDbEntity
  8
0
  6
Continuous
 62
     2
100
AcDbCircle
 10
-64.703575060095
 20
18.02834034240451
 30
0.0
 40
1.205656168390944
100
AcDbArc
 50
164.9381082228765
 51
195.0618917770948
  0
ARC
  5
1AF
102
{ACAD_REACTORS
330
205
330
206
102
}
330
71
100
AcDbEntity
  8
0
  6
Continuous
 62
     2
100
AcDbCircle
 10
-64.2844472166322
 20
17.91554998036961
 30
0.0
 40
1.639695123940503
100
AcDbArc
 50
84.84185523036234
 51
164.9381082228866
  0
ARC
  5
1B0
102
{ACAD_REACTORS
330
209
330
20A
102
}
330
71
100
AcDbEntity
  8
0
  6
Continuous
 62
     2
100
AcDbCircle
 10
-69.11446147079411
 20
19.0621671367588
 30
0.0
 40
0.315716923076536
100
AcDbArc
 50
115.3740086783516
 51
180.0
  0
ARC
  5
1B1
102
{ACAD_REACTORS
330
209
330
20A
102
}
330
71
100
AcDbEntity
  8
0
  6
Continuous
 62
     2
100
AcDbCircle
 10
-69.11446147079411
 20
21.28045033669503
 30
0.0
 40
0.315716923076792
100
AcDbArc
 50
180.0
 51
244.6259913216482
  0
ARC
  5
1B2
102
{ACAD_REACTORS
330
209
330
20A
102
}
330
71
100
AcDbEntity
  8
0
  6
Continuous
 62
     2
100
AcDbCircle
 10
-69.10884533548409
 20
20.18315067763271
 30
0.0
 40
2.018561131933266
100
AcDbArc
 50
269.8110329575858
 51
90.18896704241416
  0
ARC
  5
1B3
102
{ACAD_REACTORS
330
209
330
20A
102
}
330
71
100
AcDbEntity
  8
0
  6
Continuous
 62
     2
100
AcDbCircle
 10
-69.11446147079411
 20
18.48031573006372
 30
0.0
 40
0.315716923076792
100
AcDbArc
 50
180.0
 51
269.8110329574542
  0
ARC
  5
1B4
102
{ACAD_REACTORS
330
207
330
208
102
}
330
71
100
AcDbEntity
  8
0
  6
Continuous
 62
     2
100
AcDbCircle
 10
-48.0510012560635
 20
18.23341177174351
 30
0.0
 40
0.5115800601944109
100
AcDbArc
 50
109.3371432194854
 51
151.4785267424225
  0
ARC
  5
1B5
102
{ACAD_REACTORS
330
207
330
208
102
}
330
71
100
AcDbEntity
  8
0
  6
Continuous
 62
     2
100
AcDbCircle
 10
-48.0510012560635
 20
17.82326891306602
 30
0.0
 40
0.5115800601960215
100
AcDbArc
 50
208.5214732576866
 51
246.6277221118458
  0
ARC
  5
1B6
102
{ACAD_REACTORS
330
207
330
208
102
}
330
71
100
AcDbEntity
  8
0
  6
Continuous
 62
     2
100
AcDbCircle
 10
-48.6008735808409
 20
18.02834034240451
 30
0.0
 40
1.205656168393002
100
AcDbArc
 50
164.9381082229028
 51
195.0618917770961
  0
ARC
  5
1B7
102
{ACAD_REACTORS
330
207
330
208
102
}
330
71
100
AcDbEntity
  8
0
  6
Continuous
 62
     2
100
AcDbCircle
 10
-48.18174573737929
 20
17.91554998036961
 30
0.0
 40
1.639695123940207
100
AcDbArc
 50
90.0
 51
164.9381082228951
  0
ARC
  5
1B8
102
{ACAD_REACTORS
330
20B
330
20C
102
}
330
71
100
AcDbEntity
  8
0
  6
Continuous
 62
     2
100
AcDbCircle
 10
-57.60874083008301
 20
21.38753081857882
 30
0.0
 40
1.52690476190589
100
AcDbArc
 50
90.0
 51
270.0
  0
ARC
  5
1B9
102
{ACAD_REACTORS
330
20F
330
210
102
}
330
71
100
AcDbEntity
  8
0
  6
Continuous
 62
     2
100
AcDbCircle
 10
-64.3514315753088
 20
21.89846591037352
 30
0.0
 40
0.3528638246711218
100
AcDbArc
 50
270.0
 51
90.0
  0
ARC
  5
1BA
102
{ACAD_REACTORS
330
209
330
20A
102
}
330
71
100
AcDbEntity
  8
0
  6
Continuous
 62
     2
100
AcDbCircle
 10
-71.69001015732582
 20
21.88616310184992
 30
0.0
 40
0.315716923076188
100
AcDbArc
 50
90.0
 51
180.0
  0
ARC
  5
1BB
102
{ACAD_REACTORS
330
209
330
20A
102
}
330
71
100
AcDbEntity
  8
0
  6
Continuous
 62
     2
100
AcDbCircle
 10
-69.6915924487412
 20
20.17130873672721
 30
0.0
 40
0.911897523557621
100
AcDbArc
 50
115.194410648528
 51
244.8055893514877
  0
ARC
  5
1BC
102
{ACAD_REACTORS
330
209
330
20A
102
}
330
71
100
AcDbEntity
  8
0
  6
Continuous
 62
     2
100
AcDbCircle
 10
-70.21417689631619
 20
19.06047899066442
 30
0.0
 40
0.315716923076593
100
AcDbArc
 50
0.0
 51
64.80558935146027
  0
ARC
  5
1BD
102
{ACAD_REACTORS
330
209
330
20A
102
}
330
71
100
AcDbEntity
  8
0
  6
Continuous
 62
     2
100
AcDbCircle
 10
-72.2839048340723
 20
16.92568019588251
 30
0.0
 40
0.4242446153828041
100
AcDbArc
 50
180.0
 51
270.0
  0
ARC
  5
1BE
102
{ACAD_REACTORS
330
20B
330
20C
102
}
330
71
100
AcDbEntity
  8
0
  6
Continuous
 62
     2
100
AcDbCircle
 10
-57.39246881991781
 20
21.54426199669931
 30
0.0
 40
0.5179085730135278
100
AcDbArc
 50
38.12041979714224
 51
141.8795802028495
  0
ARC
  5
1BF
102
{ACAD_REACTORS
330
20B
330
20C
102
}
330
71
100
AcDbEntity
  8
0
  6
Continuous
 62
     2
100
AcDbCircle
 10
-57.19272878357151
 20
21.38753081857882
 30
0.0
 40
0.7717997786796724
100
AcDbArc
 50
141.8795802028404
 51
218.120419797156
  0
ARC
  5
1C0
102
{ACAD_REACTORS
330
20D
330
20E
102
}
330
71
100
AcDbEntity
  8
0
  6
Continuous
 62
     2
100
AcDbCircle
 10
-61.3534163007113
 20
18.56691535270781
 30
0.0
 40
2.065479772208505
100
AcDbArc
 50
242.4518518243401
 51
297.5481481756871
  0
ARC
  5
1C1
102
{ACAD_REACTORS
330
20D
330
20E
102
}
330
71
100
AcDbEntity
  8
0
  6
Continuous
 62
     2
100
AcDbCircle
 10
-61.3534163007113
 20
17.48976533210171
 30
0.0
 40
2.065479772208564
100
AcDbArc
 50
62.45185182430632
 51
117.5481481756664
  0
ARC
  5
1C2
102
{ACAD_REACTORS
330
20D
330
20E
102
}
330
71
100
AcDbEntity
  8
0
  6
Continuous
 62
     2
100
AcDbCircle
 10
-61.6343561925446
 20
18.02834034240451
 30
0.0
 40
1.458034083651484
100
AcDbArc
 50
117.5481481756626
 51
242.4518518243375
  0
ARC
  5
1C3
102
{ACAD_REACTORS
330
20D
330
20E
102
}
330
71
100
AcDbEntity
  8
0
  6
Continuous
 62
     2
100
AcDbCircle
 10
-61.072476408878
 20
18.02834034240451
 30
0.0
 40
1.458034083652003
100
AcDbArc
 50
297.548148175701
 51
62.45185182429882
  0
ARC
  5
1C4
102
{ACAD_REACTORS
330
20B
330
20C
102
}
330
71
100
AcDbEntity
  8
0
  6
Continuous
 62
     2
100
AcDbCircle
 10
-57.39246881991781
 20
21.2307996404584
 30
0.0
 40
0.5179085730134372
100
AcDbArc
 50
218.1204197971511
 51
321.8795802028571
  0
ARC
  5
1C5
102
{ACAD_REACTORS
330
20B
330
20C
102
}
330
71
100
AcDbEntity
  8
0
  6
Continuous
 62
     2
100
AcDbCircle
 10
-57.59220885626399
 20
21.38753081857882
 30
0.0
 40
0.7717997786796351
100
AcDbArc
 50
321.879580202844
 51
38.12041979715956
  0
ARC
  5
1C6
102
{ACAD_REACTORS
330
209
330
20A
102
}
330
71
100
AcDbEntity
  8
0
  6
Continuous
 62
     2
100
AcDbCircle
 10
-66.8105927433555
 20
16.92568019588251
 30
0.0
 40
0.4242446153832908
100
AcDbArc
 50
270.0
 51
0.0
  0
ARC
  5
1C7
102
{ACAD_REACTORS
330
209
330
20A
102
}
330
71
100
AcDbEntity
  8
0
  6
Continuous
 62
     2
100
AcDbCircle
 10
-66.8105927433555
 20
22.49019096508272
 30
0.0
 40
0.4242446153838841
100
AcDbArc
 50
0.0
 51
90.0
  0
ARC
  5
1C8
102
{ACAD_REACTORS
330
209
330
20A
102
}
330
71
100
AcDbEntity
  8
0
  6
Continuous
 62
     2
100
AcDbCircle
 10
-72.2839048340723
 20
22.49019096508272
 30
0.0
 40
0.4242446153837989
100
AcDbArc
 50
90.0
 51
180.0
  0
ARC
  5
1C9
102
{ACAD_REACTORS
330
209
330
20A
102
}
330
71
100
AcDbEntity
  8
0
  6
Continuous
 62
     2
100
AcDbCircle
 10
-70.21417689631619
 20
17.52970805913282
 30
0.0
 40
0.3157169230767103
100
AcDbArc
 50
270.0
 51
0.0
  0
ARC
  5
1CA
102
{ACAD_REACTORS
330
209
330
20A
102
}
330
71
100
AcDbEntity
  8
0
  6
Continuous
 62
     2
100
AcDbCircle
 10
-70.21417689631619
 20
21.28213848278941
 30
0.0
 40
0.3157169230761203
100
AcDbArc
 50
295.1944106485397
 51
0.0
  0
ARC
  5
1CB
102
{ACAD_REACTORS
330
209
330
20A
102
}
330
71
100
AcDbEntity
  8
0
  6
Continuous
 62
     2
100
AcDbCircle
 10
-70.21417689631619
 20
21.88616310184992
 30
0.0
 40
0.315716923076593
100
AcDbArc
 50
0.0
 51
90.0
  0
ARC
  5
1CC
102
{ACAD_REACTORS
330
209
330
20A
102
}
330
71
100
AcDbEntity
  8
0
  6
Continuous
 62
     2
100
AcDbCircle
 10
-71.69001015732582
 20
17.52970805913282
 30
0.0
 40
0.3157169230756836
100
AcDbArc
 50
180.0
 51
270.0
  0
ARC
  5
1CD
102
{ACAD_REACTORS
330
20F
330
210
102
}
330
71
100
AcDbEntity
  8
0
  6
Continuous
 62
     2
100
AcDbCircle
 10
-63.90995904907041
 20
21.85906993915103
 30
0.0
 40
1.055365641333712
100
AcDbArc
 50
270.0
 51
90.0
  0
ARC
  5
1CE
102
{ACAD_REACTORS
330
207
330
208
102
}
330
71
100
AcDbEntity
  8
0
  6
Continuous
 62
     2
100
AcDbCircle
 10
-48.18174573737929
 20
18.14113070443932
 30
0.0
 40
1.639695123940448
100
AcDbArc
 50
195.0618917771012
 51
275.1581447696762
  0
ARC
  5
1CF
102
{ACAD_REACTORS
330
207
330
208
102
}
330
71
100
AcDbEntity
  8
0
  6
Continuous
 62
     2
100
AcDbCircle
 10
-48.47060183211511
 20
21.34102128766091
 30
0.0
 40
4.852596863498825
100
AcDbArc
 50
275.1581447696364
 51
285.9799912583387
  0
ARC
  5
1D0
102
{ACAD_REACTORS
330
207
330
208
102
}
330
71
100
AcDbEntity
  8
0
  6
Continuous
 62
     2
100
AcDbCircle
 10
-48.3127289570223
 20
19.4388067078126
 30
0.0
 40
2.227384008972746
100
AcDbArc
 50
288.4480761181335
 51
301.9309089499397
  0
ARC
  5
1D1
102
{ACAD_REACTORS
330
207
330
208
102
}
330
71
100
AcDbEntity
  8
0
  6
Continuous
 62
     2
100
AcDbCircle
 10
-47.8945612233604
 20
18.18526093177601
 30
0.0
 40
0.905929784985274
100
AcDbArc
 50
246.6277221118186
 51
288.4480761180817
  0
ARC
  5
1D2
102
{ACAD_REACTORS
330
207
330
208
102
}
330
71
100
AcDbEntity
  8
0
  6
Continuous
 62
     2
100
AcDbCircle
 10
-47.67364399798211
 20
18.02834034240451
 30
0.0
 40
0.9410597353348924
100
AcDbArc
 50
151.4785267423624
 51
208.5214732576695
  0
ARC
  5
1D3
102
{ACAD_REACTORS
330
207
330
208
102
}
330
71
100
AcDbEntity
  8
0
  6
Continuous
 62
     2
100
AcDbCircle
 10
-47.9043312579598
 20
17.81545679136062
 30
0.0
 40
0.9545230068260899
100
AcDbArc
 50
90.0
 51
109.3371432194321
  0
ARC
  5
1D4
102
{ACAD_REACTORS
330
209
330
20A
102
}
330
71
100
AcDbEntity
  8
0
  6
Continuous
 62
     2
100
AcDbCircle
 10
-69.11446147079411
 20
21.88598562520181
 30
0.0
 40
0.3157169230760746
100
AcDbArc
 50
90.18896704254594
 51
180.0
  0
ARC
  5
1D5
102
{ACAD_REACTORS
330
209
330
20A
102
}
330
71
100
AcDbEntity
  8
0
  6
Continuous
 62
     2
100
AcDbCircle
 10
-69.64050416888199
 20
20.17130873672721
 30
0.0
 40
0.9118481501444557
100
AcDbArc
 50
295.3740086781766
 51
64.62599132180766
  0
ARC
  5
1D6
102
{ACAD_REACTORS
330
205
330
206
102
}
330
71
100
AcDbEntity
  8
0
  6
Continuous
 62
     2
100
AcDbCircle
 10
-64.41543043627519
 20
19.4388067078132
 30
0.0
 40
2.227384008972739
100
AcDbArc
 50
288.448076118133
 51
301.9309089499593
  0
ARC
  5
1D7
102
{ACAD_REACTORS
330
205
330
206
102
}
330
71
100
AcDbEntity
  8
0
  6
Continuous
 62
     2
100
AcDbCircle
 10
-63.99726270261439
 20
18.18526093177601
 30
0.0
 40
0.905929784984916
100
AcDbArc
 50
246.6277221118709
 51
288.448076118159
  0
ARC
  5
1D8
102
{ACAD_REACTORS
330
205
330
206
102
}
330
71
100
AcDbEntity
  8
0
  6
Continuous
 62
     2
100
AcDbCircle
 10
-64.15370273531641
 20
17.82326891306602
 30
0.0
 40
0.5115800601948034
100
AcDbArc
 50
208.5214732576956
 51
246.6277221118275
  0
ARC
  5
1D9
102
{ACAD_REACTORS
330
205
330
206
102
}
330
71
100
AcDbEntity
  8
0
  6
Continuous
 62
     2
100
AcDbCircle
 10
-63.99726270261439
 20
17.87141975303291
 30
0.0
 40
0.9059297849853251
100
AcDbArc
 50
71.55192388185306
 51
113.372277888129
  0
ARC
  5
1DA
102
{ACAD_REACTORS
330
205
330
206
102
}
330
71
100
AcDbEntity
  8
0
  6
Continuous
 62
     2
100
AcDbCircle
 10
-64.57330331136811
 20
14.71565939714861
 30
0.0
 40
4.852596863498075
100
AcDbArc
 50
74.02000874164742
 51
84.84185523037506
  0
CIRCLE
  5
1DB
102
{ACAD_REACTORS
330
209
330
20A
102
}
330
71
100
AcDbEntity
  8
0
  6
Continuous
 62
     2
100
AcDbCircle
 10
-69.6643191835548
 20
20.17130873672721
 30
0.0
 40
0.4709789327785074
  0
CIRCLE
  5
1DC
330
71
100
AcDbEntity
  8
1
  6
Continuous
 62
     2
100
AcDbCircle
 10
-64.2081494494551
 20
30.33293558048283
 30
0.0
 40
1.249999999999915
  0
CIRCLE
  5
1DD
330
71
100
AcDbEntity
  8
1
  6
Continuous
 62
     2
100
AcDbCircle
 10
-64.2081494494551
 20
30.33293558048283
 30
0.0
 40
2.5
  0
TEXT
  5
1DE
330
71
100
AcDbEntity
  8
1
 62
     7
100
AcDbText
 10
-21.57125661400391
 20
27.50793558048281
 30
0.0
 40
2.5
  1
/
 41
0.9
  7
CONVERTER_11
100
AcDbText
  0
TEXT
  5
1E0
330
71
100
AcDbEntity
  8
1
 62
     7
100
AcDbText
 10
-19.41489211696191
 20
27.50793558048281
 30
0.0
 40
2.5
  1
00
 41
0.81
  7
CONVERTER_12
100
AcDbText
  0
TEXT
  5
1E1
330
71
100
AcDbEntity
  8
1
 62
     3
100
AcDbText
 10
18.18159190905519
 20
27.50793558048281
 30
0.0
 40
2.5
  1
11.02.2018
 41
0.81
  7
CONVERTER_12
100
AcDbText
  0
MTEXT
  5
1E2
330
71
100
AcDbEntity
  8
1
 62
     2
100
AcDbMText
 10
18.18159190905519
 20
33.70793558048283
 30
0.0
 40
1.8
 41
0.0
 71
     1
 72
     1
  1
date
  7
CONVERTER_11
 73
     1
 44
1.32052821128451
  0
MTEXT
  5
1E3
330
71
100
AcDbEntity
  8
1
 62
     2
100
AcDbMText
 10
-11.6448043360177
 20
25.20793558048283
 30
0.0
 40
1.8
 41
0.0
 71
     1
 72
     1
  1
document-type
  7
CONVERTER_11
 73
     1
 44
1.20048019207683
  0
TEXT
  5
1E4
330
71
100
AcDbEntity
  8
1
 62
     3
100
AcDbText
 10
-11.6448043360177
 20
19.00793558048281
 30
0.0
 40
2.5
  1
TECDOC 2D_Productdrawing
 41
0.81
  7
CONVERTER_12
100
AcDbText
  0
MTEXT
  5
1E6
330
71
100
AcDbEntity
  8
1
 62
     2
100
AcDbMText
 10
-39.44480433601771
 20
33.70793558048291
 30
0.0
 40
1.8
 41
0.0
 71
     1
 72
     1
  1
document-No. / RI
  7
CONVERTER_13
 73
     1
 44
1.32052821128451
  0
TEXT
  5
1E7
330
71
100
AcDbEntity
  8
1
 62
     7
100
AcDbText
 10
-39.44480433601771
 20
27.50793558048281
 30
0.0
 40
2.5
  1
00351777
 41
0.81
  7
CONVERTER_12
100
AcDbText
  0
MTEXT
  5
1E9
330
71
100
AcDbEntity
  8
1
 62
     3
100
AcDbMText
 10
48.1407960498946
 20
27.50793558048301
 30
0.0
 40
2.5
 41
0.0
 71
     8
 72
     1
  1
1:1
  7
CONVERTER_14
 73
     1
 44
1.32052821128451
  0
MTEXT
  5
1EA
330
71
100
AcDbEntity
  8
1
 62
     2
100
AcDbMText
 10
44.78159190905501
 20
33.70793558048291
 30
0.0
 40
1.8
 41
0.0
 71
     1
 72
     1
  1
scale
  7
CONVERTER_11
 73
     1
 44
1.20048019207683
  0
MTEXT
  5
1EB
330
71
100
AcDbEntity
  8
1
 62
     2
100
AcDbMText
 10
-39.44480433601771
 20
25.20793558048291
 30
0.0
 40
1.8
 41
0.0
 71
     1
 72
     1
  1
ident.-No.
  7
CONVERTER_11
 73
     1
 44
1.20048019207683
  0
TEXT
  5
1EC
330
71
100
AcDbEntity
  8
1
 62
     7
100
AcDbText
 10
-39.04480433601799
 20
19.00793558048281
 30
0.0
 40
2.5
  1
0301589
 41
0.81
  7
CONVERTER_12
100
AcDbText
  0
MTEXT
  5
1ED
330
71
100
AcDbEntity
  8
1
 62
     2
100
AcDbMText
 10
-111.3828190610652
 20
21.95793558048283
 30
0.0
 40
2.0
 41
0.0
 71
     5
 72
     1
  1
General Information\P- Simplified representation\P- Document excluded from change process\P- Linear dimensions [mm]
  7
CONVERTER_11
 73
     1
 44
1.20048019207683
  0
MTEXT
  5
1EE
330
71
100
AcDbEntity
  8
1
 62
     7
100
AcDbMText
 10
55.10000019073129
 20
84.20793558048481
 30
0.0
 40
3.5
 41
0.0
 71
     5
 72
     1
  1
C
  7
CONVERTER_11
 73
     1
 44
1.20048019207683
  0
MTEXT
  5
1EF
330
71
100
AcDbEntity
  8
1
 62
     7
100
AcDbMText
 10
55.10000019073129
 20
186.7079355804829
 30
0.0
 40
3.5
 41
0.0
 71
     5
 72
     1
  1
A
  7
CONVERTER_11
 73
     1
 44
1.20048019207683
  0
MTEXT
  5
1F0
330
71
100
AcDbEntity
  8
1
 62
     7
100
AcDbMText
 10
55.10000019073129
 20
134.2079355804848
 30
0.0
 40
3.5
 41
0.0
 71
     5
 72
     1
  1
B
  7
CONVERTER_11
 73
     1
 44
1.20048019207683
  0
MTEXT
  5
1F1
330
71
100
AcDbEntity
  8
1
 62
     7
100
AcDbMText
 10
55.10000019073129
 20
31.70793558048291
 30
0.0
 40
3.5
 41
0.0
 71
     5
 72
     1
  1
D
  7
CONVERTER_11
 73
     1
 44
1.20048019207683
  0
MTEXT
  5
1F2
330
71
100
AcDbEntity
  8
1
 62
     7
100
AcDbMText
 10
-215.1499998092673
 20
6.7079355804828
 30
0.0
 40
3.5
 41
0.0
 71
     5
 72
     1
  1
1
  7
CONVERTER_11
 73
     1
 44
1.20048019207683
  0
MTEXT
  5
1F3
330
71
100
AcDbEntity
  8
1
 62
     7
100
AcDbMText
 10
-165.8999998092677
 20
6.7079355804828
 30
0.0
 40
3.5
 41
0.0
 71
     5
 72
     1
  1
2
  7
CONVERTER_11
 73
     1
 44
1.20048019207683
  0
MTEXT
  5
1F4
330
71
100
AcDbEntity
  8
1
 62
     7
100
AcDbMText
 10
-115.8999998092677
 20
6.7079355804828
 30
0.0
 40
3.5
 41
0.0
 71
     5
 72
     1
  1
3
  7
CONVERTER_11
 73
     1
 44
1.20048019207683
  0
MTEXT
  5
1F5
330
71
100
AcDbEntity
  8
1
 62
     7
100
AcDbMText
 10
-65.8999998092678
 20
6.7079355804828
 30
0.0
 40
3.5
 41
0.0
 71
     5
 72
     1
  1
4
  7
CONVERTER_11
 73
     1
 44
1.20048019207683
  0
MTEXT
  5
1F6
330
71
100
AcDbEntity
  8
1
 62
     7
100
AcDbMText
 10
-15.89999980926771
 20
6.7079355804828
 30
0.0
 40
3.5
 41
0.0
 71
     5
 72
     1
  1
5
  7
CONVERTER_11
 73
     1
 44
1.20048019207683
  0
MTEXT
  5
1F7
330
71
100
AcDbEntity
  8
1
 62
     7
100
AcDbMText
 10
33.35000019073149
 20
6.7079355804828
 30
0.0
 40
3.5
 41
0.0
 71
     5
 72
     1
  1
6
  7
CONVERTER_11
 73
     1
 44
1.20048019207683
  0
MTEXT
  5
1F8
330
71
100
AcDbEntity
  8
1
 62
     7
100
AcDbMText
 10
-236.8999998092668
 20
186.7079355804829
 30
0.0
 40
3.5
 41
0.0
 71
     5
 72
     1
  1
A
  7
CONVERTER_11
 73
     1
 44
1.20048019207683
  0
MTEXT
  5
1F9
330
71
100
AcDbEntity
  8
1
 62
     7
100
AcDbMText
 10
-236.8999998092668
 20
134.2079355804829
 30
0.0
 40
3.5
 41
0.0
 71
     5
 72
     1
  1
B
  7
CONVERTER_11
 73
     1
 44
1.20048019207683
  0
MTEXT
  5
1FA
330
71
100
AcDbEntity
  8
1
 62
     7
100
AcDbMText
 10
-236.8999998092668
 20
84.20793558048291
 30
0.0
 40
3.5
 41
0.0
 71
     5
 72
     1
  1
C
  7
CONVERTER_11
 73
     1
 44
1.20048019207683
  0
MTEXT
  5
1FB
330
71
100
AcDbEntity
  8
1
 62
     7
100
AcDbMText
 10
-236.8999998092668
 20
31.70793558048291
 30
0.0
 40
3.5
 41
0.0
 71
     5
 72
     1
  1
D
  7
CONVERTER_11
 73
     1
 44
1.20048019207683
  0
MTEXT
  5
1FC
330
71
100
AcDbEntity
  8
1
 62
     3
100
AcDbMText
 10
-50.74480433601781
 20
30.33293558048291
 30
0.0
 40
2.5
 41
0.0
 71
     5
 72
     1
  1
DIN A4
  7
CONVERTER_11
 73
     1
 44
1.20048019207683
  0
MTEXT
  5
1FD
330
71
100
AcDbEntity
  8
1
 62
     2
100
AcDbMText
 10
-39.54480433601779
 20
16.70793558048291
 30
0.0
 40
1.8
 41
0.0
 71
     1
 72
     1
  1
description
  7
CONVERTER_11
 73
     1
 44
1.20048019207683
  0
MTEXT
  5
1FE
330
71
100
AcDbEntity
  8
1
 62
     7
100
AcDbMText
 10
6.02759792735779
 20
12.45793558048314
 30
0.0
 40
3.0
 41
0.0
 71
     5
 72
     1
  1
D-URTK-BEN
  7
CONVERTER_12
 73
     1
 44
1.20048019207683
  0
TEXT
  5
1FF
330
71
100
AcDbEntity
  8
1
 62
     2
100
AcDbText
 10
-52.50949552620421
 20
10.4579355804828
 30
0.0
 40
1.8
  1
1
 41
0.9
  7
CONVERTER_11
100
AcDbText
  0
TEXT
  5
200
330
71
100
AcDbEntity
  8
1
 62
     2
100
AcDbText
 10
-67.29853936567571
 20
10.4086869266809
 30
0.0
 40
1.8
  1
1
 41
0.9
  7
CONVERTER_11
100
AcDbText
  0
TEXT
  5
201
330
71
100
AcDbEntity
  8
1
 62
     2
100
AcDbText
 10
-75.94480433601771
 20
10.44891836549124
 30
0.0
 40
1.8
  1
page
 41
0.9
  7
CONVERTER_11
100
AcDbText
  0
TEXT
  5
202
330
71
100
AcDbEntity
  8
1
 62
     2
100
AcDbText
 10
-57.74480433601789
 20
10.4489183654913
 30
0.0
 40
1.8
  1
of
 41
0.9
  7
CONVERTER_11
100
AcDbText
  0
MTEXT
  5
203
330
71
100
AcDbEntity
  8
1
 62
     3
100
AcDbMText
 10
-51.54182218440781
 20
195.9992437357817
 30
0.0
 40
1.8
 41
0.0
 71
     7
 72
     1
  3
Transfer or duplication of this document as well as the utilisation or\Pcommunication of its content are not permitted unless express consent\Pis granted. Violations give rise to claims for damages. All rights reserved\Pin case of patent, utility mo
  1
del or design patent registrations.
  7
CONVERTER_11
 73
     1
 44
0.99639855942377
  0
MTEXT
  5
204
330
71
100
AcDbEntity
  8
1
 62
     3
100
AcDbMText
 10
-234.3949320231959
 20
195.9992437357817
 30
0.0
 40
1.8
 41
0.0
 71
     7
 72
     1
  3
Weitergabe sowie Vervielf\U+00e4ltigung dieses Dokuments, Verwertung und \PMitteilung seines Inhalts sind verboten, soweit nicht ausdr\U+00fccklich gestattet. \PZuwiderhandlungen verpflichten zu Schadenersatz. Alle Rechte f\U+00fcr den Fall\Pder Pat
  1
ent-, Gebrauchsmuster- oder Designeintragung vorbehalten.
  7
CONVERTER_11
 73
     1
 44
0.99639855942377
  0
HATCH
  5
205
330
71
100
AcDbEntity
  8
1
  6
Continuous
 62
     2
100
AcDbHatch
 10
0.0
 20
0.0
 30
0.0
210
0.0
220
0.0
230
1.0
  2
_USER
 70
     0
 71
     1
 91
        1
 92
        1
 93
       14
 72
     2
 10
-64.703575060095
 20
18.02834034240451
 40
1.205656168390944
 50
164.9381082228765
 51
195.0618917770948
 73
     1
 72
     2
 10
-64.2844472166322
 20
18.14113070443932
 40
1.639695123939386
 50
195.0618917770894
 51
275.1581447696395
 73
     1
 72
     2
 10
-64.57330331136811
 20
21.34102128766091
 40
4.852596863498138
 50
275.1581447696249
 51
285.9799912583529
 73
     1
 72
     1
 10
-63.23737539425031
 20
16.6759389818601
 11
-63.23737539425031
 21
17.54845598866331
 72
     2
 10
-64.41543043627519
 20
19.4388067078132
 40
2.227384008972739
 50
58.06909105004065
 51
71.55192388186703
 73
     0
 72
     2
 10
-63.99726270261439
 20
18.18526093177601
 40
0.905929784984916
 50
71.55192388184102
 51
113.3722778881291
 73
     0
 72
     2
 10
-64.15370273531641
 20
17.82326891306602
 40
0.5115800601948034
 50
113.3722778881725
 51
151.4785267423044
 73
     0
 72
     2
 10
-63.77634547723611
 20
18.02834034240451
 40
0.9410597353332483
 50
151.4785267422941
 51
208.5214732577333
 73
     0
 72
     2
 10
-64.15370273531641
 20
18.23341177174351
 40
0.5115800601948713
 50
208.5214732576956
 51
246.6277221118006
 73
     0
 72
     2
 10
-63.99726270261439
 20
17.87141975303291
 40
0.9059297849853251
 50
246.6277221118709
 51
288.4480761181469
 73
     0
 72
     2
 10
-64.41543043627519
 20
16.61787397699632
 40
2.22738400897348
 50
288.448076118133
 51
301.9309089499592
 73
     0
 72
     1
 10
-63.23737539425031
 20
18.50822469614622
 11
-63.23737539425031
 21
19.38074170294951
 72
     2
 10
-64.57330331136811
 20
14.71565939714861
 40
4.852596863498075
 50
74.02000874164742
 51
84.84185523037506
 73
     1
 72
     2
 10
-64.2844472166322
 20
17.91554998036961
 40
1.639695123940503
 50
84.84185523036234
 51
164.9381082228866
 73
     1
 97
       14
330
1DA
330
F3
330
1A9
330
1D9
330
1AA
330
1AB
330
1D8
330
1D7
330
1D6
330
F4
330
1AC
330
1AD
330
1AE
330
1AF
 75
     1
 76
     0
 52
45.0
 41
0.1
 77
     0
 78
     1
 53
45.0
 43
0.0
 44
0.0
 45
-0.0707106781186548
 46
0.0707106781186548
 79
     0
 98
        1
 10
0.0
 20
0.0
  0
HATCH
  5
206
330
71
100
AcDbEntity
  8
1
  6
Continuous
 62
     2
100
AcDbHatch
 10
0.0
 20
0.0
 30
0.0
210
0.0
220
0.0
230
1.0
  2
_USER
 70
     0
 71
     1
 91
        1
 92
        1
 93
       14
 72
     2
 10
-64.703575060095
 20
18.02834034240451
 40
1.205656168390944
 50
164.9381082228765
 51
195.0618917770948
 73
     1
 72
     2
 10
-64.2844472166322
 20
18.14113070443932
 40
1.639695123939386
 50
195.0618917770894
 51
275.1581447696395
 73
     1
 72
     2
 10
-64.57330331136811
 20
21.34102128766091
 40
4.852596863498138
 50
275.1581447696249
 51
285.9799912583529
 73
     1
 72
     1
 10
-63.23737539425031
 20
16.6759389818601
 11
-63.23737539425031
 21
17.54845598866331
 72
     2
 10
-64.41543043627519
 20
19.4388067078132
 40
2.227384008972739
 50
58.06909105004065
 51
71.55192388186703
 73
     0
 72
     2
 10
-63.99726270261439
 20
18.18526093177601
 40
0.905929784984916
 50
71.55192388184102
 51
113.3722778881291
 73
     0
 72
     2
 10
-64.15370273531641
 20
17.82326891306602
 40
0.5115800601948034
 50
113.3722778881725
 51
151.4785267423044
 73
     0
 72
     2
 10
-63.77634547723611
 20
18.02834034240451
 40
0.9410597353332483
 50
151.4785267422941
 51
208.5214732577333
 73
     0
 72
     2
 10
-64.15370273531641
 20
18.23341177174351
 40
0.5115800601948713
 50
208.5214732576956
 51
246.6277221118006
 73
     0
 72
     2
 10
-63.99726270261439
 20
17.87141975303291
 40
0.9059297849853251
 50
246.6277221118709
 51
288.4480761181469
 73
     0
 72
     2
 10
-64.41543043627519
 20
16.61787397699632
 40
2.22738400897348
 50
288.448076118133
 51
301.9309089499592
 73
     0
 72
     1
 10
-63.23737539425031
 20
18.50822469614622
 11
-63.23737539425031
 21
19.38074170294951
 72
     2
 10
-64.57330331136811
 20
14.71565939714861
 40
4.852596863498075
 50
74.02000874164742
 51
84.84185523037506
 73
     1
 72
     2
 10
-64.2844472166322
 20
17.91554998036961
 40
1.639695123940503
 50
84.84185523036234
 51
164.9381082228866
 73
     1
 97
       14
330
1DA
330
F3
330
1A9
330
1D9
330
1AA
330
1AB
330
1D8
330
1D7
330
1D6
330
F4
330
1AC
330
1AD
330
1AE
330
1AF
 75
     1
 76
     0
 52
45.0
 41
0.1
 77
     0
 78
     1
 53
45.0
 43
0.0
 44
0.0
 45
-0.0707106781186548
 46
0.0707106781186548
 79
     0
 98
        1
 10
0.0
 20
0.0
  0
HATCH
  5
207
330
71
100
AcDbEntity
  8
1
  6
Continuous
 62
     2
100
AcDbHatch
 10
0.0
 20
0.0
 30
0.0
210
0.0
220
0.0
230
1.0
  2
_USER
 70
     0
 71
     1
 91
        1
 92
        1
 93
       18
 72
     2
 10
-48.18174573737929
 20
17.91554998036961
 40
1.639695123940207
 50
90.0
 51
164.9381082228951
 73
     1
 72
     2
 10
-48.6008735808409
 20
18.02834034240451
 40
1.205656168393002
 50
164.9381082229028
 51
195.0618917770961
 73
     1
 72
     2
 10
-48.18174573737929
 20
18.14113070443932
 40
1.639695123940448
 50
195.0618917771012
 51
275.1581447696762
 73
     1
 72
     2
 10
-48.47060183211511
 20
21.34102128766091
 40
4.852596863498825
 50
275.1581447696364
 51
285.9799912583387
 73
     1
 72
     1
 10
-47.13467391499839
 20
16.6759389818595
 11
-47.13467391499839
 21
17.54845598866282
 72
     2
 10
-48.3127289570223
 20
19.4388067078126
 40
2.227384008972746
 50
58.06909105006029
 51
71.55192388186651
 73
     0
 72
     2
 10
-47.8945612233604
 20
18.18526093177601
 40
0.905929784985274
 50
71.55192388191827
 51
113.3722778881814
 73
     0
 72
     2
 10
-48.0510012560635
 20
17.82326891306602
 40
0.5115800601960215
 50
113.3722778881542
 51
151.4785267423134
 73
     0
 72
     2
 10
-47.67364399798211
 20
18.02834034240451
 40
0.9410597353348924
 50
151.4785267423305
 51
208.5214732576376
 73
     0
 72
     2
 10
-48.0510012560635
 20
18.23341177174351
 40
0.5115800601944109
 50
208.5214732575775
 51
250.6628567805146
 73
     0
 72
     2
 10
-47.9043312579598
 20
17.81545679136062
 40
0.9545230068260899
 50
250.6628567805679
 51
270.0
 73
     0
 72
     1
 10
-47.9043312579598
 20
18.76997979818671
 11
-46.8006919583917
 21
18.76997979818671
 72
     1
 10
-46.8006919583917
 20
18.76997979818671
 11
-46.8006919583917
 21
16.50143558049922
 72
     1
 10
-46.8006919583917
 20
16.50143558049922
 11
-45.60789925622399
 21
16.50143558049922
 72
     1
 10
-45.60789925622399
 20
16.50143558049922
 11
-45.60789925622399
 21
18.76997979818671
 72
     1
 10
-45.60789925622399
 20
18.76997979818671
 11
-44.7968002187506
 21
18.76997979818671
 72
     1
 10
-44.7968002187506
 20
18.76997979818671
 11
-44.7968002187506
 21
19.5552451043103
 72
     1
 10
-44.7968002187506
 20
19.5552451043103
 11
-48.18174573737929
 21
19.55524510430982
 97
       18
330
159
330
158
330
157
330
156
330
15B
330
F5
330
1D3
330
1B4
330
1D2
330
1B5
330
1D1
330
1D0
330
F6
330
1CF
330
1CE
330
1B6
330
1B7
330
15A
 75
     1
 76
     0
 52
45.0
 41
0.1
 77
     0
 78
     1
 53
45.0
 43
0.0
 44
0.0
 45
-0.0707106781186548
 46
0.0707106781186548
 79
     0
 98
        1
 10
0.0
 20
0.0
  0
HATCH
  5
208
330
71
100
AcDbEntity
  8
1
  6
Continuous
 62
     2
100
AcDbHatch
 10
0.0
 20
0.0
 30
0.0
210
0.0
220
0.0
230
1.0
  2
_USER
 70
     0
 71
     1
 91
        1
 92
        1
 93
       18
 72
     2
 10
-48.18174573737929
 20
17.91554998036961
 40
1.639695123940207
 50
90.0
 51
164.9381082228951
 73
     1
 72
     2
 10
-48.6008735808409
 20
18.02834034240451
 40
1.205656168393002
 50
164.9381082229028
 51
195.0618917770961
 73
     1
 72
     2
 10
-48.18174573737929
 20
18.14113070443932
 40
1.639695123940448
 50
195.0618917771012
 51
275.1581447696762
 73
     1
 72
     2
 10
-48.47060183211511
 20
21.34102128766091
 40
4.852596863498825
 50
275.1581447696364
 51
285.9799912583387
 73
     1
 72
     1
 10
-47.13467391499839
 20
16.6759389818595
 11
-47.13467391499839
 21
17.54845598866282
 72
     2
 10
-48.3127289570223
 20
19.4388067078126
 40
2.227384008972746
 50
58.06909105006029
 51
71.55192388186651
 73
     0
 72
     2
 10
-47.8945612233604
 20
18.18526093177601
 40
0.905929784985274
 50
71.55192388191827
 51
113.3722778881814
 73
     0
 72
     2
 10
-48.0510012560635
 20
17.82326891306602
 40
0.5115800601960215
 50
113.3722778881542
 51
151.4785267423134
 73
     0
 72
     2
 10
-47.67364399798211
 20
18.02834034240451
 40
0.9410597353348924
 50
151.4785267423305
 51
208.5214732576376
 73
     0
 72
     2
 10
-48.0510012560635
 20
18.23341177174351
 40
0.5115800601944109
 50
208.5214732575775
 51
250.6628567805146
 73
     0
 72
     2
 10
-47.9043312579598
 20
17.81545679136062
 40
0.9545230068260899
 50
250.6628567805679
 51
270.0
 73
     0
 72
     1
 10
-47.9043312579598
 20
18.76997979818671
 11
-46.8006919583917
 21
18.76997979818671
 72
     1
 10
-46.8006919583917
 20
18.76997979818671
 11
-46.8006919583917
 21
16.50143558049922
 72
     1
 10
-46.8006919583917
 20
16.50143558049922
 11
-45.60789925622399
 21
16.50143558049922
 72
     1
 10
-45.60789925622399
 20
16.50143558049922
 11
-45.60789925622399
 21
18.76997979818671
 72
     1
 10
-45.60789925622399
 20
18.76997979818671
 11
-44.7968002187506
 21
18.76997979818671
 72
     1
 10
-44.7968002187506
 20
18.76997979818671
 11
-44.7968002187506
 21
19.5552451043103
 72
     1
 10
-44.7968002187506
 20
19.5552451043103
 11
-48.18174573737929
 21
19.55524510430982
 97
       18
330
159
330
158
330
157
330
156
330
15B
330
F5
330
1D3
330
1B4
330
1D2
330
1B5
330
1D1
330
1D0
330
F6
330
1CF
330
1CE
330
1B6
330
1B7
330
15A
 75
     1
 76
     0
 52
45.0
 41
0.1
 77
     0
 78
     1
 53
45.0
 43
0.0
 44
0.0
 45
-0.0707106781186548
 46
0.0707106781186548
 79
     0
 98
        1
 10
0.0
 20
0.0
  0
HATCH
  5
209
330
71
100
AcDbEntity
  8
1
  6
Continuous
 62
     2
100
AcDbHatch
 10
0.0
 20
0.0
 30
0.0
210
0.0
220
0.0
230
1.0
  2
_USER
 70
     0
 71
     1
 91
        4
 92
        1
 93
        8
 72
     2
 10
-72.2839048340723
 20
22.49019096508272
 40
0.4242446153837989
 50
90.0
 51
180.0
 73
     1
 72
     1
 10
-72.7081494494551
 20
22.49019096508272
 11
-72.7081494494551
 21
16.92568019588251
 72
     2
 10
-72.2839048340723
 20
16.92568019588251
 40
0.4242446153828041
 50
180.0
 51
270.0
 73
     1
 72
     1
 10
-72.2839048340723
 20
16.50143558049922
 11
-66.8105927433555
 21
16.50143558049922
 72
     2
 10
-66.8105927433555
 20
16.92568019588251
 40
0.4242446153832908
 50
270.0
 51
360.0
 73
     1
 72
     1
 10
-66.38634812797162
 20
16.92568019588251
 11
-66.38634812797162
 21
22.49019096508272
 72
     2
 10
-66.8105927433555
 20
22.49019096508272
 40
0.4242446153838841
 50
0.0
 51
90.0
 73
     1
 72
     1
 10
-66.8105927433555
 20
22.91443558046652
 11
-72.2839048340723
 21
22.91443558046652
 97
        8
330
1C7
330
124
330
1C6
330
125
330
1BD
330
122
330
1C8
330
123
 92
       16
 93
        1
 72
     2
 10
-69.6643191835548
 20
20.17130873672721
 40
0.4709789327785074
 50
0.0
 51
360.0
 73
     1
 97
        1
330
1DB
 92
       16
 93
        8
 72
     2
 10
-69.64050416888199
 20
20.17130873672721
 40
0.9118481501444557
 50
295.3740086781766
 51
424.6259913218076
 73
     1
 72
     2
 10
-69.11446147079411
 20
21.28045033669503
 40
0.315716923076792
 50
115.3740086783518
 51
180.0
 73
     0
 72
     1
 10
-69.4301783938709
 20
21.28045033669503
 11
-69.4301783938709
 21
21.88598562520181
 72
     2
 10
-69.11446147079411
 20
21.88598562520181
 40
0.3157169230760746
 50
180.0
 51
269.8110329574541
 73
     0
 72
     2
 10
-69.10884533548409
 20
20.18315067763271
 40
2.018561131933266
 50
269.8110329575858
 51
450.1889670424142
 73
     0
 72
     2
 10
-69.11446147079411
 20
18.48031573006372
 40
0.315716923076792
 50
90.18896704254585
 51
180.0
 73
     0
 72
     1
 10
-69.4301783938709
 20
18.48031573006372
 11
-69.4301783938709
 21
19.0621671367588
 72
     2
 10
-69.11446147079411
 20
19.0621671367588
 40
0.315716923076536
 50
180.0
 51
244.6259913216484
 73
     0
 97
        8
330
1D5
330
1B1
330
15D
330
1D4
330
1B2
330
1B3
330
15C
330
1B0
 92
       16
 93
       12
 72
     1
 10
-71.69001015732582
 20
17.21399113605611
 11
-70.21417689631619
 21
17.21399113605611
 72
     2
 10
-70.21417689631619
 20
17.52970805913282
 40
0.3157169230767103
 50
270.0
 51
360.0
 73
     1
 72
     1
 10
-69.8984599732396
 20
17.52970805913282
 11
-69.8984599732396
 21
19.06047899066442
 72
     2
 10
-70.21417689631619
 20
19.06047899066442
 40
0.315716923076593
 50
0.0
 51
64.80558935146027
 73
     1
 72
     2
 10
-69.6915924487412
 20
20.17130873672721
 40
0.911897523557621
 50
115.1944106485123
 51
244.805589351472
 73
     0
 72
     2
 10
-70.21417689631619
 20
21.28213848278941
 40
0.3157169230761203
 50
295.1944106485397
 51
360.0
 73
     1
 72
     1
 10
-69.8984599732396
 20
21.28213848278941
 11
-69.8984599732396
 21
21.88616310184992
 72
     2
 10
-70.21417689631619
 20
21.88616310184992
 40
0.315716923076593
 50
0.0
 51
90.0
 73
     1
 72
     1
 10
-70.21417689631619
 20
22.20188002492611
 11
-71.69001015732582
 21
22.20188002492611
 72
     2
 10
-71.69001015732582
 20
21.88616310184992
 40
0.315716923076188
 50
90.0
 51
180.0
 73
     1
 72
     1
 10
-72.0057270804015
 20
21.88616310184992
 11
-72.0057270804015
 21
17.52970805913282
 72
     2
 10
-71.69001015732582
 20
17.52970805913282
 40
0.3157169230756836
 50
180.0
 51
270.0
 73
     1
 97
       12
330
129
330
1BA
330
128
330
1CB
330
127
330
1CA
330
1BB
330
1BC
330
126
330
1C9
330
121
330
1CC
 75
     1
 76
     0
 52
45.0
 41
0.1
 77
     0
 78
     1
 53
45.0
 43
0.0
 44
0.0
 45
-0.0707106781186548
 46
0.0707106781186548
 79
     0
 98
        1
 10
0.0
 20
0.0
  0
HATCH
  5
20A
330
71
100
AcDbEntity
  8
1
  6
Continuous
 62
     2
100
AcDbHatch
 10
0.0
 20
0.0
 30
0.0
210
0.0
220
0.0
230
1.0
  2
_USER
 70
     0
 71
     1
 91
        4
 92
        1
 93
        8
 72
     2
 10
-72.2839048340723
 20
22.49019096508272
 40
0.4242446153837989
 50
90.0
 51
180.0
 73
     1
 72
     1
 10
-72.7081494494551
 20
22.49019096508272
 11
-72.7081494494551
 21
16.92568019588251
 72
     2
 10
-72.2839048340723
 20
16.92568019588251
 40
0.4242446153828041
 50
180.0
 51
270.0
 73
     1
 72
     1
 10
-72.2839048340723
 20
16.50143558049922
 11
-66.8105927433555
 21
16.50143558049922
 72
     2
 10
-66.8105927433555
 20
16.92568019588251
 40
0.4242446153832908
 50
270.0
 51
360.0
 73
     1
 72
     1
 10
-66.38634812797162
 20
16.92568019588251
 11
-66.38634812797162
 21
22.49019096508272
 72
     2
 10
-66.8105927433555
 20
22.49019096508272
 40
0.4242446153838841
 50
0.0
 51
90.0
 73
     1
 72
     1
 10
-66.8105927433555
 20
22.91443558046652
 11
-72.2839048340723
 21
22.91443558046652
 97
        8
330
1C7
330
124
330
1C6
330
125
330
1BD
330
122
330
1C8
330
123
 92
       16
 93
        1
 72
     2
 10
-69.6643191835548
 20
20.17130873672721
 40
0.4709789327785074
 50
0.0
 51
360.0
 73
     1
 97
        1
330
1DB
 92
       16
 93
        8
 72
     2
 10
-69.64050416888199
 20
20.17130873672721
 40
0.9118481501444557
 50
295.3740086781766
 51
424.6259913218076
 73
     1
 72
     2
 10
-69.11446147079411
 20
21.28045033669503
 40
0.315716923076792
 50
115.3740086783518
 51
180.0
 73
     0
 72
     1
 10
-69.4301783938709
 20
21.28045033669503
 11
-69.4301783938709
 21
21.88598562520181
 72
     2
 10
-69.11446147079411
 20
21.88598562520181
 40
0.3157169230760746
 50
180.0
 51
269.8110329574541
 73
     0
 72
     2
 10
-69.10884533548409
 20
20.18315067763271
 40
2.018561131933266
 50
269.8110329575858
 51
450.1889670424142
 73
     0
 72
     2
 10
-69.11446147079411
 20
18.48031573006372
 40
0.315716923076792
 50
90.18896704254585
 51
180.0
 73
     0
 72
     1
 10
-69.4301783938709
 20
18.48031573006372
 11
-69.4301783938709
 21
19.0621671367588
 72
     2
 10
-69.11446147079411
 20
19.0621671367588
 40
0.315716923076536
 50
180.0
 51
244.6259913216484
 73
     0
 97
        8
330
1D5
330
1B1
330
15D
330
1D4
330
1B2
330
1B3
330
15C
330
1B0
 92
       16
 93
       12
 72
     1
 10
-71.69001015732582
 20
17.21399113605611
 11
-70.21417689631619
 21
17.21399113605611
 72
     2
 10
-70.21417689631619
 20
17.52970805913282
 40
0.3157169230767103
 50
270.0
 51
360.0
 73
     1
 72
     1
 10
-69.8984599732396
 20
17.52970805913282
 11
-69.8984599732396
 21
19.06047899066442
 72
     2
 10
-70.21417689631619
 20
19.06047899066442
 40
0.315716923076593
 50
0.0
 51
64.80558935146027
 73
     1
 72
     2
 10
-69.6915924487412
 20
20.17130873672721
 40
0.911897523557621
 50
115.1944106485123
 51
244.805589351472
 73
     0
 72
     2
 10
-70.21417689631619
 20
21.28213848278941
 40
0.3157169230761203
 50
295.1944106485397
 51
360.0
 73
     1
 72
     1
 10
-69.8984599732396
 20
21.28213848278941
 11
-69.8984599732396
 21
21.88616310184992
 72
     2
 10
-70.21417689631619
 20
21.88616310184992
 40
0.315716923076593
 50
0.0
 51
90.0
 73
     1
 72
     1
 10
-70.21417689631619
 20
22.20188002492611
 11
-71.69001015732582
 21
22.20188002492611
 72
     2
 10
-71.69001015732582
 20
21.88616310184992
 40
0.315716923076188
 50
90.0
 51
180.0
 73
     1
 72
     1
 10
-72.0057270804015
 20
21.88616310184992
 11
-72.0057270804015
 21
17.52970805913282
 72
     2
 10
-71.69001015732582
 20
17.52970805913282
 40
0.3157169230756836
 50
180.0
 51
270.0
 73
     1
 97
       12
330
129
330
1BA
330
128
330
1CB
330
127
330
1CA
330
1BB
330
1BC
330
126
330
1C9
330
121
330
1CC
 75
     1
 76
     0
 52
45.0
 41
0.1
 77
     0
 78
     1
 53
45.0
 43
0.0
 44
0.0
 45
-0.0707106781186548
 46
0.0707106781186548
 79
     0
 98
        1
 10
0.0
 20
0.0
  0
HATCH
  5
20B
330
71
100
AcDbEntity
  8
1
  6
Continuous
 62
     2
100
AcDbHatch
 10
0.0
 20
0.0
 30
0.0
210
0.0
220
0.0
230
1.0
  2
_USER
 70
     0
 71
     1
 91
        2
 92
        1
 93
       12
 72
     2
 10
-57.60874083008301
 20
21.38753081857882
 40
1.52690476190589
 50
90.0
 51
270.0
 73
     1
 72
     1
 10
-57.60874083008301
 20
19.86062605667351
 11
-54.45842110630201
 21
19.86062605667351
 72
     1
 10
-54.45842110630201
 20
19.86062605667351
 11
-54.45842110630201
 21
20.55863966211601
 72
     1
 10
-54.45842110630201
 20
20.55863966211601
 11
-55.79434893272969
 21
20.55863966211601
 72
     1
 10
-55.79434893272969
 20
20.55863966211601
 11
-55.79434893272969
 21
21.03852401585772
 72
     1
 10
-55.79434893272969
 20
21.03852401585772
 11
-54.45842110630201
 21
21.03852401585772
 72
     1
 10
-54.45842110630201
 20
21.03852401585772
 11
-54.45842110630201
 21
21.73653762130002
 72
     1
 10
-54.45842110630201
 20
21.73653762130002
 11
-55.79434893272969
 21
21.73653762130002
 72
     1
 10
-55.79434893272969
 20
21.73653762130002
 11
-55.79434893272969
 21
22.21642197504173
 72
     1
 10
-55.79434893272969
 20
22.21642197504173
 11
-54.45842110630201
 21
22.21642197504173
 72
     1
 10
-54.45842110630201
 20
22.21642197504173
 11
-54.45842110630201
 21
22.91443558048471
 72
     1
 10
-54.45842110630201
 20
22.91443558048471
 11
-57.60874083008301
 21
22.91443558048471
 97
       12
330
118
330
112
330
139
330
138
330
137
330
136
330
113
330
114
330
115
330
116
330
1B8
330
117
 92
       16
 93
        4
 72
     2
 10
-57.19272878357151
 20
21.38753081857882
 40
0.7717997786796724
 50
141.8795802028404
 51
218.120419797156
 73
     1
 72
     2
 10
-57.39246881991781
 20
21.2307996404584
 40
0.5179085730134372
 50
218.1204197971511
 51
321.8795802028571
 73
     1
 72
     2
 10
-57.59220885626399
 20
21.38753081857882
 40
0.7717997786796351
 50
321.879580202844
 51
398.1204197971596
 73
     1
 72
     2
 10
-57.39246881991781
 20
21.54426199669931
 40
0.5179085730135278
 50
38.12041979714224
 51
141.8795802028495
 73
     1
 97
        4
330
1C5
330
1C4
330
1BF
330
1BE
 75
     1
 76
     0
 52
45.0
 41
0.1
 77
     0
 78
     1
 53
45.0
 43
0.0
 44
0.0
 45
-0.0707106781186548
 46
0.0707106781186548
 79
     0
 98
        1
 10
0.0
 20
0.0
  0
HATCH
  5
20C
330
71
100
AcDbEntity
  8
1
  6
Continuous
 62
     2
100
AcDbHatch
 10
0.0
 20
0.0
 30
0.0
210
0.0
220
0.0
230
1.0
  2
_USER
 70
     0
 71
     1
 91
        2
 92
        1
 93
       12
 72
     2
 10
-57.60874083008301
 20
21.38753081857882
 40
1.52690476190589
 50
90.0
 51
270.0
 73
     1
 72
     1
 10
-57.60874083008301
 20
19.86062605667351
 11
-54.45842110630201
 21
19.86062605667351
 72
     1
 10
-54.45842110630201
 20
19.86062605667351
 11
-54.45842110630201
 21
20.55863966211601
 72
     1
 10
-54.45842110630201
 20
20.55863966211601
 11
-55.79434893272969
 21
20.55863966211601
 72
     1
 10
-55.79434893272969
 20
20.55863966211601
 11
-55.79434893272969
 21
21.03852401585772
 72
     1
 10
-55.79434893272969
 20
21.03852401585772
 11
-54.45842110630201
 21
21.03852401585772
 72
     1
 10
-54.45842110630201
 20
21.03852401585772
 11
-54.45842110630201
 21
21.73653762130002
 72
     1
 10
-54.45842110630201
 20
21.73653762130002
 11
-55.79434893272969
 21
21.73653762130002
 72
     1
 10
-55.79434893272969
 20
21.73653762130002
 11
-55.79434893272969
 21
22.21642197504173
 72
     1
 10
-55.79434893272969
 20
22.21642197504173
 11
-54.45842110630201
 21
22.21642197504173
 72
     1
 10
-54.45842110630201
 20
22.21642197504173
 11
-54.45842110630201
 21
22.91443558048471
 72
     1
 10
-54.45842110630201
 20
22.91443558048471
 11
-57.60874083008301
 21
22.91443558048471
 97
       12
330
118
330
112
330
139
330
138
330
137
330
136
330
113
330
114
330
115
330
116
330
1B8
330
117
 92
       16
 93
        4
 72
     2
 10
-57.19272878357151
 20
21.38753081857882
 40
0.7717997786796724
 50
141.8795802028404
 51
218.120419797156
 73
     1
 72
     2
 10
-57.39246881991781
 20
21.2307996404584
 40
0.5179085730134372
 50
218.1204197971511
 51
321.8795802028571
 73
     1
 72
     2
 10
-57.59220885626399
 20
21.38753081857882
 40
0.7717997786796351
 50
321.879580202844
 51
398.1204197971596
 73
     1
 72
     2
 10
-57.39246881991781
 20
21.54426199669931
 40
0.5179085730135278
 50
38.12041979714224
 51
141.8795802028495
 73
     1
 97
        4
330
1C5
330
1C4
330
1BF
330
1BE
 75
     1
 76
     0
 52
45.0
 41
0.1
 77
     0
 78
     1
 53
45.0
 43
0.0
 44
0.0
 45
-0.0707106781186548
 46
0.0707106781186548
 79
     0
 98
        1
 10
0.0
 20
0.0
  0
HATCH
  5
20D
330
71
100
AcDbEntity
  8
1
  6
Continuous
 62
     2
100
AcDbHatch
 10
0.0
 20
0.0
 30
0.0
210
0.0
220
0.0
230
1.0
  2
_USER
 70
     0
 71
     1
 91
        2
 92
        1
 93
        4
 72
     2
 10
-61.6343561925446
 20
18.02834034240451
 40
1.458034083651484
 50
117.5481481756626
 51
242.4518518243375
 73
     1
 72
     2
 10
-61.3534163007113
 20
18.56691535270781
 40
2.065479772208505
 50
242.4518518243401
 51
297.5481481756871
 73
     1
 72
     2
 10
-61.072476408878
 20
18.02834034240451
 40
1.458034083652003
 50
297.548148175701
 51
422.4518518242988
 73
     1
 72
     2
 10
-61.3534163007113
 20
17.48976533210171
 40
2.065479772208564
 50
62.45185182430632
 51
117.5481481756664
 73
     1
 97
        4
330
1C3
330
1C0
330
1C2
330
1C1
 92
       16
 93
        4
 72
     2
 10
-61.3534163007113
 20
18.18507152052501
 40
0.5179085730132965
 50
38.12041979714783
 51
141.879580202858
 73
     1
 72
     2
 10
-61.1536762643652
 20
18.02834034240451
 40
0.7717997786794555
 50
141.8795802028362
 51
218.120419797169
 73
     1
 72
     2
 10
-61.3534163007113
 20
17.87160916428451
 40
0.5179085730137298
 50
218.1204197971936
 51
321.8795802028005
 73
     1
 72
     2
 10
-61.55315633705772
 20
18.02834034240451
 40
0.7717997786796947
 50
321.8795802028417
 51
398.120419797153
 73
     1
 97
        4
330
1A6
330
1A7
330
1A8
330
1A5
 75
     1
 76
     0
 52
45.0
 41
0.1
 77
     0
 78
     1
 53
45.0
 43
0.0
 44
0.0
 45
-0.0707106781186548
 46
0.0707106781186548
 79
     0
 98
        1
 10
0.0
 20
0.0
  0
HATCH
  5
20E
330
71
100
AcDbEntity
  8
1
  6
Continuous
 62
     2
100
AcDbHatch
 10
0.0
 20
0.0
 30
0.0
210
0.0
220
0.0
230
1.0
  2
_USER
 70
     0
 71
     1
 91
        2
 92
        1
 93
        4
 72
     2
 10
-61.6343561925446
 20
18.02834034240451
 40
1.458034083651484
 50
117.5481481756626
 51
242.4518518243375
 73
     1
 72
     2
 10
-61.3534163007113
 20
18.56691535270781
 40
2.065479772208505
 50
242.4518518243401
 51
297.5481481756871
 73
     1
 72
     2
 10
-61.072476408878
 20
18.02834034240451
 40
1.458034083652003
 50
297.548148175701
 51
422.4518518242988
 73
     1
 72
     2
 10
-61.3534163007113
 20
17.48976533210171
 40
2.065479772208564
 50
62.45185182430632
 51
117.5481481756664
 73
     1
 97
        4
330
1C3
330
1C0
330
1C2
330
1C1
 92
       16
 93
        4
 72
     2
 10
-61.3534163007113
 20
18.18507152052501
 40
0.5179085730132965
 50
38.12041979714783
 51
141.879580202858
 73
     1
 72
     2
 10
-61.1536762643652
 20
18.02834034240451
 40
0.7717997786794555
 50
141.8795802028362
 51
218.120419797169
 73
     1
 72
     2
 10
-61.3534163007113
 20
17.87160916428451
 40
0.5179085730137298
 50
218.1204197971936
 51
321.8795802028005
 73
     1
 72
     2
 10
-61.55315633705772
 20
18.02834034240451
 40
0.7717997786796947
 50
321.8795802028417
 51
398.120419797153
 73
     1
 97
        4
330
1A6
330
1A7
330
1A8
330
1A5
 75
     1
 76
     0
 52
45.0
 41
0.1
 77
     0
 78
     1
 53
45.0
 43
0.0
 44
0.0
 45
-0.0707106781186548
 46
0.0707106781186548
 79
     0
 98
        1
 10
0.0
 20
0.0
  0
HATCH
  5
20F
330
71
100
AcDbEntity
  8
1
  6
Continuous
 62
     2
100
AcDbHatch
 10
0.0
 20
0.0
 30
0.0
210
0.0
220
0.0
230
1.0
  2
_USER
 70
     0
 71
     1
 91
        2
 92
        1
 93
        6
 72
     1
 10
-65.90923104710481
 20
22.91443558048471
 11
-65.90923104710481
 21
19.86062605667351
 72
     1
 10
-65.90923104710481
 20
19.86062605667351
 11
-64.66872663685069
 21
19.86062605667351
 72
     1
 10
-64.66872663685069
 20
19.86062605667351
 11
-64.66872663685069
 21
20.80370429781732
 72
     1
 10
-64.66872663685069
 20
20.80370429781732
 11
-63.90995904907041
 21
20.80370429781732
 72
     2
 10
-63.90995904907041
 20
21.85906993915103
 40
1.055365641333712
 50
270.0
 51
450.0
 73
     1
 72
     1
 10
-63.90995904907041
 20
22.91443558048471
 11
-65.90923104710481
 21
22.91443558048471
 97
        6
330
1CD
330
12A
330
120
330
11F
330
12C
330
12B
 92
       16
 93
        4
 72
     1
 10
-64.3514315753088
 20
22.25132973504461
 11
-64.66872663685069
 21
22.25132973504461
 72
     1
 10
-64.66872663685069
 20
22.25132973504461
 11
-64.66872663685069
 21
21.5456020857024
 72
     1
 10
-64.66872663685069
 20
21.5456020857024
 11
-64.3514315753088
 21
21.5456020857024
 72
     2
 10
-64.3514315753088
 20
21.89846591037352
 40
0.3528638246711218
 50
270.0
 51
450.0
 73
     1
 97
        4
330
12D
330
11E
330
12E
330
1B9
 75
     1
 76
     0
 52
45.0
 41
0.1
 77
     0
 78
     1
 53
45.0
 43
0.0
 44
0.0
 45
-0.0707106781186548
 46
0.0707106781186548
 79
     0
 98
        1
 10
0.0
 20
0.0
  0
HATCH
  5
210
330
71
100
AcDbEntity
  8
1
  6
Continuous
 62
     2
100
AcDbHatch
 10
0.0
 20
0.0
 30
0.0
210
0.0
220
0.0
230
1.0
  2
_USER
 70
     0
 71
     1
 91
        2
 92
        1
 93
        6
 72
     1
 10
-65.90923104710481
 20
22.91443558048471
 11
-65.90923104710481
 21
19.86062605667351
 72
     1
 10
-65.90923104710481
 20
19.86062605667351
 11
-64.66872663685069
 21
19.86062605667351
 72
     1
 10
-64.66872663685069
 20
19.86062605667351
 11
-64.66872663685069
 21
20.80370429781732
 72
     1
 10
-64.66872663685069
 20
20.80370429781732
 11
-63.90995904907041
 21
20.80370429781732
 72
     2
 10
-63.90995904907041
 20
21.85906993915103
 40
1.055365641333712
 50
270.0
 51
450.0
 73
     1
 72
     1
 10
-63.90995904907041
 20
22.91443558048471
 11
-65.90923104710481
 21
22.91443558048471
 97
        6
330
1CD
330
12A
330
120
330
11F
330
12C
330
12B
 92
       16
 93
        4
 72
     1
 10
-64.3514315753088
 20
22.25132973504461
 11
-64.66872663685069
 21
22.25132973504461
 72
     1
 10
-64.66872663685069
 20
22.25132973504461
 11
-64.66872663685069
 21
21.5456020857024
 72
     1
 10
-64.66872663685069
 20
21.5456020857024
 11
-64.3514315753088
 21
21.5456020857024
 72
     2
 10
-64.3514315753088
 20
21.89846591037352
 40
0.3528638246711218
 50
270.0
 51
450.0
 73
     1
 97
        4
330
12D
330
11E
330
12E
330
1B9
 75
     1
 76
     0
 52
45.0
 41
0.1
 77
     0
 78
     1
 53
45.0
 43
0.0
 44
0.0
 45
-0.0707106781186548
 46
0.0707106781186548
 79
     0
 98
        1
 10
0.0
 20
0.0
  0
HATCH
  5
211
330
71
100
AcDbEntity
  8
1
  6
Continuous
 62
     2
100
AcDbHatch
 10
0.0
 20
0.0
 30
0.0
210
0.0
220
0.0
230
1.0
  2
_USER
 70
     0
 71
     1
 91
        1
 92
        1
 93
       12
 72
     1
 10
-46.29494785267161
 20
22.91443558048471
 11
-44.89222363492439
 21
22.91443558048471
 72
     1
 10
-44.89222363492439
 20
22.91443558048471
 11
-46.19475326569091
 21
21.44148505044851
 72
     1
 10
-46.19475326569091
 20
21.44148505044851
 11
-44.7968002187506
 21
19.86062605667351
 72
     1
 10
-44.7968002187506
 20
19.86062605667351
 11
-46.19952443649891
 21
19.86062605667351
 72
     1
 10
-46.19952443649891
 20
19.86062605667351
 11
-46.8961153745644
 21
20.64835784196723
 72
     1
 10
-46.8961153745644
 20
20.64835784196723
 11
-47.5927063126301
 21
19.86062605667351
 72
     1
 10
-47.5927063126301
 20
19.86062605667351
 11
-48.99543053037831
 21
19.86062605667351
 72
     1
 10
-48.99543053037831
 20
19.86062605667351
 11
-47.59747748343801
 21
21.44148505044851
 72
     1
 10
-47.59747748343801
 20
21.44148505044851
 11
-48.90000711420549
 21
22.91443558048471
 72
     1
 10
-48.90000711420549
 20
22.91443558048471
 11
-47.4972828964562
 21
22.91443558048471
 72
     1
 10
-47.4972828964562
 20
22.91443558048471
 11
-46.8961153745644
 21
22.23461225892922
 72
     1
 10
-46.8961153745644
 20
22.23461225892922
 11
-46.29494785267161
 21
22.91443558048471
 97
       12
330
F9
330
152
330
151
330
150
330
14F
330
FA
330
FB
330
F7
330
F8
330
155
330
154
330
153
 75
     1
 76
     0
 52
45.0
 41
0.1
 77
     0
 78
     1
 53
45.0
 43
0.0
 44
0.0
 45
-0.0707106781186548
 46
0.0707106781186548
 79
     0
 98
        1
 10
0.0
 20
0.0
  0
HATCH
  5
212
330
71
100
AcDbEntity
  8
1
  6
Continuous
 62
     2
100
AcDbHatch
 10
0.0
 20
0.0
 30
0.0
210
0.0
220
0.0
230
1.0
  2
_USER
 70
     0
 71
     1
 91
        1
 92
        1
 93
       12
 72
     1
 10
-46.29494785267161
 20
22.91443558048471
 11
-44.89222363492439
 21
22.91443558048471
 72
     1
 10
-44.89222363492439
 20
22.91443558048471
 11
-46.19475326569091
 21
21.44148505044851
 72
     1
 10
-46.19475326569091
 20
21.44148505044851
 11
-44.7968002187506
 21
19.86062605667351
 72
     1
 10
-44.7968002187506
 20
19.86062605667351
 11
-46.19952443649891
 21
19.86062605667351
 72
     1
 10
-46.19952443649891
 20
19.86062605667351
 11
-46.8961153745644
 21
20.64835784196723
 72
     1
 10
-46.8961153745644
 20
20.64835784196723
 11
-47.5927063126301
 21
19.86062605667351
 72
     1
 10
-47.5927063126301
 20
19.86062605667351
 11
-48.99543053037831
 21
19.86062605667351
 72
     1
 10
-48.99543053037831
 20
19.86062605667351
 11
-47.59747748343801
 21
21.44148505044851
 72
     1
 10
-47.59747748343801
 20
21.44148505044851
 11
-48.90000711420549
 21
22.91443558048471
 72
     1
 10
-48.90000711420549
 20
22.91443558048471
 11
-47.4972828964562
 21
22.91443558048471
 72
     1
 10
-47.4972828964562
 20
22.91443558048471
 11
-46.8961153745644
 21
22.23461225892922
 72
     1
 10
-46.8961153745644
 20
22.23461225892922
 11
-46.29494785267161
 21
22.91443558048471
 97
       12
330
F9
330
152
330
151
330
150
330
14F
330
FA
330
FB
330
F7
330
F8
330
155
330
154
330
153
 75
     1
 76
     0
 52
45.0
 41
0.1
 77
     0
 78
     1
 53
45.0
 43
0.0
 44
0.0
 45
-0.0707106781186548
 46
0.0707106781186548
 79
     0
 98
        1
 10
0.0
 20
0.0
  0
HATCH
  5
213
330
71
100
AcDbEntity
  8
1
  6
Continuous
 62
     2
100
AcDbHatch
 10
0.0
 20
0.0
 30
0.0
210
0.0
220
0.0
230
1.0
  2
_USER
 70
     0
 71
     1
 91
        1
 92
        1
 93
        4
 72
     1
 10
-49.11470980059519
 20
22.91443558048471
 11
-49.11470980059519
 21
19.86062605667351
 72
     1
 10
-49.11470980059519
 20
19.86062605667351
 11
-50.35521421084809
 21
19.86062605667351
 72
     1
 10
-50.35521421084809
 20
19.86062605667351
 11
-50.35521421084809
 21
22.91443558048471
 72
     1
 10
-50.35521421084809
 20
22.91443558048471
 11
-49.11470980059519
 21
22.91443558048471
 97
        4
330
14D
330
FC
330
14C
330
14E
 75
     1
 76
     0
 52
45.0
 41
0.1
 77
     0
 78
     1
 53
45.0
 43
0.0
 44
0.0
 45
-0.0707106781186548
 46
0.0707106781186548
 79
     0
 98
        1
 10
0.0
 20
0.0
  0
HATCH
  5
214
330
71
100
AcDbEntity
  8
1
  6
Continuous
 62
     2
100
AcDbHatch
 10
0.0
 20
0.0
 30
0.0
210
0.0
220
0.0
230
1.0
  2
_USER
 70
     0
 71
     1
 91
        1
 92
        1
 93
        4
 72
     1
 10
-49.11470980059519
 20
22.91443558048471
 11
-49.11470980059519
 21
19.86062605667351
 72
     1
 10
-49.11470980059519
 20
19.86062605667351
 11
-50.35521421084809
 21
19.86062605667351
 72
     1
 10
-50.35521421084809
 20
19.86062605667351
 11
-50.35521421084809
 21
22.91443558048471
 72
     1
 10
-50.35521421084809
 20
22.91443558048471
 11
-49.11470980059519
 21
22.91443558048471
 97
        4
330
14D
330
FC
330
14C
330
14E
 75
     1
 76
     0
 52
45.0
 41
0.1
 77
     0
 78
     1
 53
45.0
 43
0.0
 44
0.0
 45
-0.0707106781186548
 46
0.0707106781186548
 79
     0
 98
        1
 10
0.0
 20
0.0
  0
HATCH
  5
215
330
71
100
AcDbEntity
  8
1
  6
Continuous
 62
     2
100
AcDbHatch
 10
0.0
 20
0.0
 30
0.0
210
0.0
220
0.0
230
1.0
  2
_USER
 70
     0
 71
     1
 91
        2
 92
        1
 93
        8
 72
     1
 10
-49.50515380412719
 20
16.50143558049922
 11
-50.74565821438111
 21
16.50143558049922
 72
     1
 10
-50.74565821438111
 20
16.50143558049922
 11
-50.95713826785689
 21
17.0423961247171
 72
     1
 10
-50.95713826785689
 20
17.0423961247171
 11
-52.0895798445307
 21
17.0423961247171
 72
     1
 10
-52.0895798445307
 20
17.0423961247171
 11
-52.30105989800651
 21
16.50143558049922
 72
     1
 10
-52.30105989800651
 20
16.50143558049922
 11
-53.5415643082595
 21
16.50143558049922
 72
     1
 10
-53.5415643082595
 20
16.50143558049922
 11
-52.14361126132019
 21
19.5552451043103
 72
     1
 10
-52.14361126132019
 20
19.5552451043103
 11
-50.90310685106749
 21
19.5552451043103
 72
     1
 10
-50.90310685106749
 20
19.5552451043103
 11
-49.50515380412719
 21
16.50143558049922
 97
        8
330
148
330
102
330
147
330
14A
330
FF
330
149
330
100
330
101
 92
       16
 93
        3
 72
     1
 10
-51.8235242933857
 20
17.7229593900237
 11
-51.2231938190032
 21
17.7229593900237
 72
     1
 10
-51.2231938190032
 20
17.7229593900237
 11
-51.5233590561933
 21
18.49077435601041
 72
     1
 10
-51.5233590561933
 20
18.49077435601041
 11
-51.8235242933857
 21
17.7229593900237
 97
        3
330
FE
330
FD
330
14B
 75
     1
 76
     0
 52
45.0
 41
0.1
 77
     0
 78
     1
 53
45.0
 43
0.0
 44
0.0
 45
-0.0707106781186548
 46
0.0707106781186548
 79
     0
 98
        1
 10
0.0
 20
0.0
  0
HATCH
  5
216
330
71
100
AcDbEntity
  8
1
  6
Continuous
 62
     2
100
AcDbHatch
 10
0.0
 20
0.0
 30
0.0
210
0.0
220
0.0
230
1.0
  2
_USER
 70
     0
 71
     1
 91
        2
 92
        1
 93
        8
 72
     1
 10
-49.50515380412719
 20
16.50143558049922
 11
-50.74565821438111
 21
16.50143558049922
 72
     1
 10
-50.74565821438111
 20
16.50143558049922
 11
-50.95713826785689
 21
17.0423961247171
 72
     1
 10
-50.95713826785689
 20
17.0423961247171
 11
-52.0895798445307
 21
17.0423961247171
 72
     1
 10
-52.0895798445307
 20
17.0423961247171
 11
-52.30105989800651
 21
16.50143558049922
 72
     1
 10
-52.30105989800651
 20
16.50143558049922
 11
-53.5415643082595
 21
16.50143558049922
 72
     1
 10
-53.5415643082595
 20
16.50143558049922
 11
-52.14361126132019
 21
19.5552451043103
 72
     1
 10
-52.14361126132019
 20
19.5552451043103
 11
-50.90310685106749
 21
19.5552451043103
 72
     1
 10
-50.90310685106749
 20
19.5552451043103
 11
-49.50515380412719
 21
16.50143558049922
 97
        8
330
148
330
102
330
147
330
14A
330
FF
330
149
330
100
330
101
 92
       16
 93
        3
 72
     1
 10
-51.8235242933857
 20
17.7229593900237
 11
-51.2231938190032
 21
17.7229593900237
 72
     1
 10
-51.2231938190032
 20
17.7229593900237
 11
-51.5233590561933
 21
18.49077435601041
 72
     1
 10
-51.5233590561933
 20
18.49077435601041
 11
-51.8235242933857
 21
17.7229593900237
 97
        3
330
FE
330
FD
330
14B
 75
     1
 76
     0
 52
45.0
 41
0.1
 77
     0
 78
     1
 53
45.0
 43
0.0
 44
0.0
 45
-0.0707106781186548
 46
0.0707106781186548
 79
     0
 98
        1
 10
0.0
 20
0.0
  0
HATCH
  5
217
330
71
100
AcDbEntity
  8
1
  6
Continuous
 62
     2
100
AcDbHatch
 10
0.0
 20
0.0
 30
0.0
210
0.0
220
0.0
230
1.0
  2
_USER
 70
     0
 71
     1
 91
        1
 92
        1
 93
        8
 72
     1
 10
-55.69907644744171
 20
19.5552451043103
 11
-55.69907644744171
 21
18.76997979818671
 72
     1
 10
-55.69907644744171
 20
18.76997979818671
 11
-54.88797740996711
 21
18.76997979818671
 72
     1
 10
-54.88797740996711
 20
18.76997979818671
 11
-54.88797740996711
 21
16.50143558049922
 72
     1
 10
-54.88797740996711
 20
16.50143558049922
 11
-53.69518470780059
 21
16.50143558049922
 72
     1
 10
-53.69518470780059
 20
16.50143558049922
 11
-53.69518470780059
 21
18.76997979818671
 72
     1
 10
-53.69518470780059
 20
18.76997979818671
 11
-52.88408567032809
 21
18.76997979818671
 72
     1
 10
-52.88408567032809
 20
18.76997979818671
 11
-52.88408567032809
 21
19.5552451043103
 72
     1
 10
-52.88408567032809
 20
19.5552451043103
 11
-55.69907644744171
 21
19.5552451043103
 97
        8
330
144
330
143
330
142
330
103
330
104
330
146
330
105
330
145
 75
     1
 76
     0
 52
45.0
 41
0.1
 77
     0
 78
     1
 53
45.0
 43
0.0
 44
0.0
 45
-0.0707106781186548
 46
0.0707106781186548
 79
     0
 98
        1
 10
0.0
 20
0.0
  0
HATCH
  5
218
330
71
100
AcDbEntity
  8
1
  6
Continuous
 62
     2
100
AcDbHatch
 10
0.0
 20
0.0
 30
0.0
210
0.0
220
0.0
230
1.0
  2
_USER
 70
     0
 71
     1
 91
        1
 92
        1
 93
        8
 72
     1
 10
-55.69907644744171
 20
19.5552451043103
 11
-55.69907644744171
 21
18.76997979818671
 72
     1
 10
-55.69907644744171
 20
18.76997979818671
 11
-54.88797740996711
 21
18.76997979818671
 72
     1
 10
-54.88797740996711
 20
18.76997979818671
 11
-54.88797740996711
 21
16.50143558049922
 72
     1
 10
-54.88797740996711
 20
16.50143558049922
 11
-53.69518470780059
 21
16.50143558049922
 72
     1
 10
-53.69518470780059
 20
16.50143558049922
 11
-53.69518470780059
 21
18.76997979818671
 72
     1
 10
-53.69518470780059
 20
18.76997979818671
 11
-52.88408567032809
 21
18.76997979818671
 72
     1
 10
-52.88408567032809
 20
18.76997979818671
 11
-52.88408567032809
 21
19.5552451043103
 72
     1
 10
-52.88408567032809
 20
19.5552451043103
 11
-55.69907644744171
 21
19.5552451043103
 97
        8
330
144
330
143
330
142
330
103
330
104
330
146
330
105
330
145
 75
     1
 76
     0
 52
45.0
 41
0.1
 77
     0
 78
     1
 53
45.0
 43
0.0
 44
0.0
 45
-0.0707106781186548
 46
0.0707106781186548
 79
     0
 98
        1
 10
0.0
 20
0.0
  0
HATCH
  5
219
330
71
100
AcDbEntity
  8
1
  6
Continuous
 62
     2
100
AcDbHatch
 10
0.0
 20
0.0
 30
0.0
210
0.0
220
0.0
230
1.0
  2
_USER
 70
     0
 71
     1
 91
        1
 92
        1
 93
       10
 72
     1
 10
-53.02706986370259
 20
22.91443558048471
 11
-54.21986256586911
 21
22.91443558048471
 72
     1
 10
-54.21986256586911
 20
22.91443558048471
 11
-54.21986256586911
 21
19.86062605667351
 72
     1
 10
-54.21986256586911
 20
19.86062605667351
 11
-53.02706986370259
 21
19.86062605667351
 72
     1
 10
-53.02706986370259
 20
19.86062605667351
 11
-53.02706986370259
 21
21.16940156687821
 72
     1
 10
-53.02706986370259
 20
21.16940156687821
 11
-51.78656545344859
 21
19.86062605667351
 72
     1
 10
-51.78656545344859
 20
19.86062605667351
 11
-50.59377275128199
 21
19.86062605667351
 72
     1
 10
-50.59377275128199
 20
19.86062605667351
 11
-50.59377275128199
 21
22.91443558048471
 72
     1
 10
-50.59377275128199
 20
22.91443558048471
 11
-51.78656545344859
 21
22.91443558048471
 72
     1
 10
-51.78656545344859
 20
22.91443558048471
 11
-51.78656545344859
 21
21.60566007027953
 72
     1
 10
-51.78656545344859
 20
21.60566007027953
 11
-53.02706986370259
 21
22.91443558048471
 97
       10
330
13E
330
108
330
109
330
10A
330
10B
330
141
330
106
330
140
330
13F
330
107
 75
     1
 76
     0
 52
45.0
 41
0.1
 77
     0
 78
     1
 53
45.0
 43
0.0
 44
0.0
 45
-0.0707106781186548
 46
0.0707106781186548
 79
     0
 98
        1
 10
0.0
 20
0.0
  0
HATCH
  5
21A
330
71
100
AcDbEntity
  8
1
  6
Continuous
 62
     2
100
AcDbHatch
 10
0.0
 20
0.0
 30
0.0
210
0.0
220
0.0
230
1.0
  2
_USER
 70
     0
 71
     1
 91
        1
 92
        1
 93
       10
 72
     1
 10
-53.02706986370259
 20
22.91443558048471
 11
-54.21986256586911
 21
22.91443558048471
 72
     1
 10
-54.21986256586911
 20
22.91443558048471
 11
-54.21986256586911
 21
19.86062605667351
 72
     1
 10
-54.21986256586911
 20
19.86062605667351
 11
-53.02706986370259
 21
19.86062605667351
 72
     1
 10
-53.02706986370259
 20
19.86062605667351
 11
-53.02706986370259
 21
21.16940156687821
 72
     1
 10
-53.02706986370259
 20
21.16940156687821
 11
-51.78656545344859
 21
19.86062605667351
 72
     1
 10
-51.78656545344859
 20
19.86062605667351
 11
-50.59377275128199
 21
19.86062605667351
 72
     1
 10
-50.59377275128199
 20
19.86062605667351
 11
-50.59377275128199
 21
22.91443558048471
 72
     1
 10
-50.59377275128199
 20
22.91443558048471
 11
-51.78656545344859
 21
22.91443558048471
 72
     1
 10
-51.78656545344859
 20
22.91443558048471
 11
-51.78656545344859
 21
21.60566007027953
 72
     1
 10
-51.78656545344859
 20
21.60566007027953
 11
-53.02706986370259
 21
22.91443558048471
 97
       10
330
13E
330
108
330
109
330
10A
330
10B
330
141
330
106
330
140
330
13F
330
107
 75
     1
 76
     0
 52
45.0
 41
0.1
 77
     0
 78
     1
 53
45.0
 43
0.0
 44
0.0
 45
-0.0707106781186548
 46
0.0707106781186548
 79
     0
 98
        1
 10
0.0
 20
0.0
  0
HATCH
  5
21B
330
71
100
AcDbEntity
  8
1
  6
Continuous
 62
     2
100
AcDbHatch
 10
0.0
 20
0.0
 30
0.0
210
0.0
220
0.0
230
1.0
  2
_USER
 70
     0
 71
     1
 91
        1
 92
        1
 93
       10
 72
     1
 10
-58.27550868412121
 20
19.5552451043103
 11
-59.4683013862888
 21
19.5552451043103
 72
     1
 10
-59.4683013862888
 20
19.5552451043103
 11
-59.4683013862888
 21
16.50143558049922
 72
     1
 10
-59.4683013862888
 20
16.50143558049922
 11
-58.27550868412121
 21
16.50143558049922
 72
     1
 10
-58.27550868412121
 20
16.50143558049922
 11
-58.27550868412121
 21
17.8102110907038
 72
     1
 10
-58.27550868412121
 20
17.8102110907038
 11
-57.03500427386831
 21
16.50143558049922
 72
     1
 10
-57.03500427386831
 20
16.50143558049922
 11
-55.84221157170191
 21
16.50143558049922
 72
     1
 10
-55.84221157170191
 20
16.50143558049922
 11
-55.84221157170191
 21
19.5552451043103
 72
     1
 10
-55.84221157170191
 20
19.5552451043103
 11
-57.03500427386831
 21
19.5552451043103
 72
     1
 10
-57.03500427386831
 20
19.5552451043103
 11
-57.03500427386831
 21
18.24646959410521
 72
     1
 10
-57.03500427386831
 20
18.24646959410521
 11
-58.27550868412121
 21
19.5552451043103
 97
       10
330
10D
330
10E
330
10F
330
13B
330
110
330
111
330
13A
330
13D
330
13C
330
10C
 75
     1
 76
     0
 52
45.0
 41
0.1
 77
     0
 78
     1
 53
45.0
 43
0.0
 44
0.0
 45
-0.0707106781186548
 46
0.0707106781186548
 79
     0
 98
        1
 10
0.0
 20
0.0
  0
HATCH
  5
21C
330
71
100
AcDbEntity
  8
1
  6
Continuous
 62
     2
100
AcDbHatch
 10
0.0
 20
0.0
 30
0.0
210
0.0
220
0.0
230
1.0
  2
_USER
 70
     0
 71
     1
 91
        1
 92
        1
 93
       10
 72
     1
 10
-58.27550868412121
 20
19.5552451043103
 11
-59.4683013862888
 21
19.5552451043103
 72
     1
 10
-59.4683013862888
 20
19.5552451043103
 11
-59.4683013862888
 21
16.50143558049922
 72
     1
 10
-59.4683013862888
 20
16.50143558049922
 11
-58.27550868412121
 21
16.50143558049922
 72
     1
 10
-58.27550868412121
 20
16.50143558049922
 11
-58.27550868412121
 21
17.8102110907038
 72
     1
 10
-58.27550868412121
 20
17.8102110907038
 11
-57.03500427386831
 21
16.50143558049922
 72
     1
 10
-57.03500427386831
 20
16.50143558049922
 11
-55.84221157170191
 21
16.50143558049922
 72
     1
 10
-55.84221157170191
 20
16.50143558049922
 11
-55.84221157170191
 21
19.5552451043103
 72
     1
 10
-55.84221157170191
 20
19.5552451043103
 11
-57.03500427386831
 21
19.5552451043103
 72
     1
 10
-57.03500427386831
 20
19.5552451043103
 11
-57.03500427386831
 21
18.24646959410521
 72
     1
 10
-57.03500427386831
 20
18.24646959410521
 11
-58.27550868412121
 21
19.5552451043103
 97
       10
330
10D
330
10E
330
10F
330
13B
330
110
330
111
330
13A
330
13D
330
13C
330
10C
 75
     1
 76
     0
 52
45.0
 41
0.1
 77
     0
 78
     1
 53
45.0
 43
0.0
 44
0.0
 45
-0.0707106781186548
 46
0.0707106781186548
 79
     0
 98
        1
 10
0.0
 20
0.0
  0
HATCH
  5
21D
330
71
100
AcDbEntity
  8
1
  6
Continuous
 62
     2
100
AcDbHatch
 10
0.0
 20
0.0
 30
0.0
210
0.0
220
0.0
230
1.0
  2
_USER
 70
     0
 71
     1
 91
        1
 92
        1
 93
       12
 72
     1
 10
-59.27730362305661
 20
22.91443558048471
 11
-59.27730362305661
 21
19.86062605667351
 72
     1
 10
-59.27730362305661
 20
19.86062605667351
 11
-60.47009632522301
 21
19.86062605667351
 72
     1
 10
-60.47009632522301
 20
19.86062605667351
 11
-60.47009632522301
 21
20.99489816551733
 72
     1
 10
-60.47009632522301
 20
20.99489816551733
 11
-61.51975390313049
 21
20.99489816551733
 72
     1
 10
-61.51975390313049
 20
20.99489816551733
 11
-61.51975390313049
 21
19.86062605667351
 72
     1
 10
-61.51975390313049
 20
19.86062605667351
 11
-62.71254660529709
 21
19.86062605667351
 72
     1
 10
-62.71254660529709
 20
19.86062605667351
 11
-62.71254660529709
 21
22.91443558048471
 72
     1
 10
-62.71254660529709
 20
22.91443558048471
 11
-61.51975390313049
 21
22.91443558048471
 72
     1
 10
-61.51975390313049
 20
22.91443558048471
 11
-61.51975390313049
 21
21.84560224715011
 72
     1
 10
-61.51975390313049
 20
21.84560224715011
 11
-60.47009632522301
 21
21.84560224715011
 72
     1
 10
-60.47009632522301
 20
21.84560224715011
 11
-60.47009632522301
 21
22.91443558048471
 72
     1
 10
-60.47009632522301
 20
22.91443558048471
 11
-59.27730362305661
 21
22.91443558048471
 97
       12
330
135
330
134
330
133
330
11B
330
11C
330
132
330
11D
330
131
330
130
330
12F
330
119
330
11A
 75
     1
 76
     0
 52
45.0
 41
0.1
 77
     0
 78
     1
 53
45.0
 43
0.0
 44
0.0
 45
-0.0707106781186548
 46
0.0707106781186548
 79
     0
 98
        1
 10
0.0
 20
0.0
  0
HATCH
  5
21E
330
71
100
AcDbEntity
  8
1
  6
Continuous
 62
     2
100
AcDbHatch
 10
0.0
 20
0.0
 30
0.0
210
0.0
220
0.0
230
1.0
  2
_USER
 70
     0
 71
     1
 91
        1
 92
        1
 93
       12
 72
     1
 10
-59.27730362305661
 20
22.91443558048471
 11
-59.27730362305661
 21
19.86062605667351
 72
     1
 10
-59.27730362305661
 20
19.86062605667351
 11
-60.47009632522301
 21
19.86062605667351
 72
     1
 10
-60.47009632522301
 20
19.86062605667351
 11
-60.47009632522301
 21
20.99489816551733
 72
     1
 10
-60.47009632522301
 20
20.99489816551733
 11
-61.51975390313049
 21
20.99489816551733
 72
     1
 10
-61.51975390313049
 20
20.99489816551733
 11
-61.51975390313049
 21
19.86062605667351
 72
     1
 10
-61.51975390313049
 20
19.86062605667351
 11
-62.71254660529709
 21
19.86062605667351
 72
     1
 10
-62.71254660529709
 20
19.86062605667351
 11
-62.71254660529709
 21
22.91443558048471
 72
     1
 10
-62.71254660529709
 20
22.91443558048471
 11
-61.51975390313049
 21
22.91443558048471
 72
     1
 10
-61.51975390313049
 20
22.91443558048471
 11
-61.51975390313049
 21
21.84560224715011
 72
     1
 10
-61.51975390313049
 20
21.84560224715011
 11
-60.47009632522301
 21
21.84560224715011
 72
     1
 10
-60.47009632522301
 20
21.84560224715011
 11
-60.47009632522301
 21
22.91443558048471
 72
     1
 10
-60.47009632522301
 20
22.91443558048471
 11
-59.27730362305661
 21
22.91443558048471
 97
       12
330
135
330
134
330
133
330
11B
330
11C
330
132
330
11D
330
131
330
130
330
12F
330
119
330
11A
 75
     1
 76
     0
 52
45.0
 41
0.1
 77
     0
 78
     1
 53
45.0
 43
0.0
 44
0.0
 45
-0.0707106781186548
 46
0.0707106781186548
 79
     0
 98
        1
 10
0.0
 20
0.0
  0
ENDBLK
  5
73
330
71
100
AcDbEntity
  8
0
100
AcDbBlockEnd
  0
BLOCK
  5
75
330
74
100
AcDbEntity
  8
0
100
AcDbBlockBegin
  2
_punkt
 70
     0
 10
52.6000001907323
 20
9.20793558048291
 30
0.0
  3
_punkt
  1

  0
LINE
  5
21F
330
74
100
AcDbEntity
  8
1
  6
Continuous
 62
     2
100
AcDbLine
 10
52.6000001907323
 20
9.20793558048291
 30
0.0
 11
52.6000001907323
 21
4.2079355804828
 31
0.0
  0
LINE
  5
220
330
74
100
AcDbEntity
  8
1
  6
Continuous
 62
     2
100
AcDbLine
 10
52.6000001907323
 20
9.20793558048291
 30
0.0
 11
57.60000019073129
 21
9.20793558048291
 31
0.0
  0
ENDBLK
  5
76
330
74
100
AcDbEntity
  8
0
100
AcDbBlockEnd
  0
BLOCK
  5
7A
330
77
100
AcDbEntity
  8
0
100
AcDbBlockBegin
  2
A4I_CS
 70
     0
 10
52.6000001907323
 20
4.2079355804828
 30
0.0
  3
A4I_CS
  1

  0
INSERT
  5
78
330
77
100
AcDbEntity
  8
1
100
AcDbBlockReference
  2
_rahmen
 10
52.6000001907323
 20
4.2079355804828
 30
0.0
  0
INSERT
  5
79
330
77
100
AcDbEntity
  8
1
100
AcDbBlockReference
  2
_punkt
 10
52.6000001907323
 20
9.20793558048291
 30
0.0
  0
ENDBLK
  5
7B
330
77
100
AcDbEntity
  8
0
100
AcDbBlockEnd
  0
BLOCK
  5
84
330
7C
100
AcDbEntity
  8
0
100
AcDbBlockBegin
  2
1
 70
     0
 10
0.0
 20
0.0
 30
0.0
  3
1
  1

  0
INSERT
  5
7D
330
7C
100
AcDbEntity
  8
0
100
AcDbBlockReference
  2
AllgSicht1
 10
22.00000000000094
 20
65.0
 30
0.0
  0
INSERT
  5
7E
330
7C
100
AcDbEntity
  8
0
100
AcDbBlockReference
  2
Drfsicht1
 10
-133.0
 20
69.99999999999503
 30
0.0
  0
INSERT
  5
7F
330
7C
100
AcDbEntity
  8
0
100
AcDbBlockReference
  2
Rckans1
 10
-22.79999923706066
 20
121.25
 30
0.0
  0
INSERT
  5
80
330
7C
100
AcDbEntity
  8
0
100
AcDbBlockReference
  2
SA_Links1
 10
-72.39999961851976
 20
121.25
 30
0.0
  0
INSERT
  5
81
330
7C
100
AcDbEntity
  8
0
100
AcDbBlockReference
  2
SA_Rechts1
 10
-195.6000003814748
 20
121.25
 30
0.0
  0
INSERT
  5
82
330
7C
100
AcDbEntity
  8
0
100
AcDbBlockReference
  2
Vordans1
 10
-133.0000000000002
 20
121.25
 30
0.0
  0
INSERT
  5
83
330
7C
100
AcDbEntity
  8
0
100
AcDbBlockReference
  2
A4I_CS
 10
52.6000001907323
 20
4.2079355804828
 30
0.0
  0
ENDBLK
  5
85
330
7C
100
AcDbEntity
  8
0
100
AcDbBlockEnd
  0
BLOCK
  5
AA
330
A0
100
AcDbEntity
  8
0
100
AcDbBlockBegin
  2
*D17
 70
     1
 10
0.0
 20
0.0
 30
0.0
  3
*D17
  1

  0
LINE
  5
A1
330
A0
100
AcDbEntity
  8
1
  6
Continuous
 62
     2
100
AcDbLine
 10
-173.6
 20
68.99999999999002
 30
0.0
 11
-173.6
 21
61.99999999999002
 31
0.0
  0
LINE
  5
A2
330
A0
100
AcDbEntity
  8
1
  6
Continuous
 62
     2
100
AcDbLine
 10
-173.6
 20
70.99999999999002
 30
0.0
 11
-173.6
 21
68.99999999999002
 31
0.0
  0
LINE
  5
A3
330
A0
100
AcDbEntity
  8
1
  6
Continuous
 62
     2
100
AcDbLine
 10
-173.6
 20
77.99999999999002
 30
0.0
 11
-173.6
 21
70.99999999999002
 31
0.0
  0
LINE
  5
A4
330
A0
100
AcDbEntity
  8
1
  6
Continuous
 62
     2
100
AcDbLine
 10
-163.6
 20
68.99999999999002
 30
0.0
 11
-175.1
 21
68.99999999999002
 31
0.0
  0
LINE
  5
A5
330
A0
100
AcDbEntity
  8
1
  6
Continuous
 62
     2
100
AcDbLine
 10
-163.6
 20
70.99999999999002
 30
0.0
 11
-175.1
 21
70.99999999999002
 31
0.0
  0
SOLID
  5
A6
330
A0
100
AcDbEntity
  8
1
 62
     2
100
AcDbTrace
 10
-174.0607837415559
 20
74.49999999999002
 30
0.0
 11
-173.1392162584441
 21
74.49999999999002
 31
0.0
 12
-173.6
 22
70.99999999999002
 32
0.0
 13
-173.6
 23
70.99999999999002
 33
0.0
  0
SOLID
  5
A7
330
A0
100
AcDbEntity
  8
1
 62
     2
100
AcDbTrace
 10
-173.1392162584441
 20
65.49999999999002
 30
0.0
 11
-174.0607837415559
 21
65.49999999999002
 31
0.0
 12
-173.6
 22
68.99999999999002
 32
0.0
 13
-173.6
 23
68.99999999999002
 33
0.0
  0
MTEXT
  5
A9
330
A0
100
AcDbEntity
  8
1
 62
     3
100
AcDbMText
 10
-175.1
 20
75.0651401088287
 30
0.0
 40
3.5
 41
0.0
 71
     7
 72
     1
  1
2
  7
CONVERTER_11
 11
0.0
 21
1.0
 31
0.0
 73
     1
 44
0.60024009603842
  0
ENDBLK
  5
AB
330
A0
100
AcDbEntity
  8
0
100
AcDbBlockEnd
  0
BLOCK
  5
D9
330
D2
100
AcDbEntity
  8
0
100
AcDbBlockBegin
  2
*D18
 70
     1
 10
0.0
 20
0.0
 30
0.0
  3
*D18
  1

  0
LINE
  5
D3
330
D2
100
AcDbEntity
  8
1
  6
Continuous
 62
     2
100
AcDbLine
 10
-163.6000000000002
 20
87.8424890673278
 30
0.0
 11
-102.4000000000002
 21
87.8424890673278
 31
0.0
  0
LINE
  5
D4
330
D2
100
AcDbEntity
  8
1
  6
Continuous
 62
     2
100
AcDbLine
 10
-163.6000000000002
 20
100.0
 30
0.0
 11
-163.6000000000002
 21
86.3424890673278
 31
0.0
  0
LINE
  5
D5
330
D2
100
AcDbEntity
  8
1
  6
Continuous
 62
     2
100
AcDbLine
 10
-102.4000000000002
 20
100.0
 30
0.0
 11
-102.4000000000002
 21
86.3424890673278
 31
0.0
  0
SOLID
  5
D6
330
D2
100
AcDbEntity
  8
1
 62
     2
100
AcDbTrace
 10
-160.1000000000002
 20
88.30327280888369
 30
0.0
 11
-160.1000000000002
 21
87.38170532577192
 31
0.0
 12
-163.6000000000002
 22
87.8424890673278
 32
0.0
 13
-163.6000000000002
 23
87.8424890673278
 33
0.0
  0
SOLID
  5
D7
330
D2
100
AcDbEntity
  8
1
 62
     2
100
AcDbTrace
 10
-105.9000000000002
 20
87.38170532577192
 30
0.0
 11
-105.9000000000002
 21
88.30327280888369
 31
0.0
 12
-102.4000000000002
 22
87.8424890673278
 32
0.0
 13
-102.4000000000002
 23
87.8424890673278
 33
0.0
  0
MTEXT
  5
D8
330
D2
100
AcDbEntity
  8
1
 62
     3
100
AcDbMText
 10
-136.121102617558
 20
89.6924890673278
 30
0.0
 40
3.5
 41
0.0
 71
     7
 72
     1
  1
61,2
  7
CONVERTER_11
 11
0.9999999999970619
 21
2.424068405545306E-6
 31
0.0
 73
     1
 44
0.60024009603842
  0
ENDBLK
  5
DA
330
D2
100
AcDbEntity
  8
0
100
AcDbBlockEnd
  0
BLOCK
  5
E4
330
DD
100
AcDbEntity
  8
0
100
AcDbBlockBegin
  2
*D19
 70
     1
 10
0.0
 20
0.0
 30
0.0
  3
*D19
  1

  0
LINE
  5
DE
330
DD
100
AcDbEntity
  8
1
  6
Continuous
 62
     2
100
AcDbLine
 10
-172.00954168833
 20
145.5
 30
0.0
 11
-172.00954168833
 21
97.00000000000003
 31
0.0
  0
LINE
  5
DF
330
DD
100
AcDbEntity
  8
1
  6
Continuous
 62
     2
100
AcDbLine
 10
-159.8298686133477
 20
97.00000000000003
 30
0.0
 11
-173.50954168833
 21
97.00000000000003
 31
0.0
  0
LINE
  5
E0
330
DD
100
AcDbEntity
  8
1
  6
Continuous
 62
     2
100
AcDbLine
 10
-155.6903013121023
 20
145.5
 30
0.0
 11
-173.50954168833
 21
145.5
 31
0.0
  0
SOLID
  5
E1
330
DD
100
AcDbEntity
  8
1
 62
     2
100
AcDbTrace
 10
-171.5487579467741
 20
142.0
 30
0.0
 11
-172.4703254298859
 21
142.0
 31
0.0
 12
-172.00954168833
 22
145.5
 32
0.0
 13
-172.00954168833
 23
145.5
 33
0.0
  0
SOLID
  5
E2
330
DD
100
AcDbEntity
  8
1
 62
     2
100
AcDbTrace
 10
-172.4703254298859
 20
100.5
 30
0.0
 11
-171.5487579467741
 21
100.5
 31
0.0
 12
-172.00954168833
 22
97.00000000000003
 32
0.0
 13
-172.00954168833
 23
97.00000000000003
 33
0.0
  0
MTEXT
  5
E3
330
DD
100
AcDbEntity
  8
1
 62
     3
100
AcDbMText
 10
-173.85954168833
 20
115.249014071133
 30
0.0
 40
3.5
 41
0.0
 71
     7
 72
     1
  1
48,5
  7
CONVERTER_11
 11
0.0
 21
1.0
 31
0.0
 73
     1
 44
0.60024009603842
  0
ENDBLK
  5
E5
330
DD
100
AcDbEntity
  8
0
100
AcDbBlockEnd
  0
ENDSEC
  0
SECTION
  2
ENTITIES
  0
INSERT
  5
86
330
1F
100
AcDbEntity
  8
1
100
AcDbBlockReference
  2
1
 10
0.0
 20
0.0
 30
0.0
  0
ENDSEC
  0
SECTION
  2
OBJECTS
  0
DICTIONARY
  5
C
330
0
100
AcDbDictionary
281
     1
  3
ACAD_GROUP
350
D
  3
ACAD_LAYOUT
350
1A
  3
ACAD_MATERIAL
350
3B
  3
ACAD_MLEADERSTYLE
350
248
  3
ACAD_MLINESTYLE
350
17
  3
ACAD_PLOTSETTINGS
350
19
  3
ACAD_PLOTSTYLENAME
350
E
  3
ACAD_TABLESTYLE
350
247
  3
ACAD_VISUALSTYLE
350
2A
  0
DICTIONARY
  5
D
102
{ACAD_REACTORS
330
C
102
}
330
C
100
AcDbDictionary
281
     1
  0
DICTIONARY
  5
1A
102
{ACAD_REACTORS
330
C
102
}
330
C
100
AcDbDictionary
281
     1
  3
Layout1
350
1E
  3
Layout2
350
26
  3
Model
350
22
  0
DICTIONARY
  5
3B
102
{ACAD_REACTORS
330
C
102
}
330
C
100
AcDbDictionary
281
     1
  3
ByBlock
350
3D
  3
ByLayer
350
3C
  3
Global
350
3E
  0
DICTIONARY
  5
248
102
{ACAD_REACTORS
330
C
102
}
330
C
100
AcDbDictionary
281
     1
  0
DICTIONARY
  5
17
102
{ACAD_REACTORS
330
C
102
}
330
C
100
AcDbDictionary
281
     1
  3
Standard
350
18
  0
DICTIONARY
  5
19
102
{ACAD_REACTORS
330
C
102
}
330
C
100
AcDbDictionary
281
     1
  0
ACDBDICTIONARYWDFLT
  5
E
102
{ACAD_REACTORS
330
C
102
}
330
C
100
AcDbDictionary
281
     1
  3
Normal
350
F
100
AcDbDictionaryWithDefault
340
F
  0
DICTIONARY
  5
247
102
{ACAD_REACTORS
330
C
102
}
330
C
100
AcDbDictionary
281
     1
  0
DICTIONARY
  5
2A
102
{ACAD_REACTORS
330
C
102
}
330
C
100
AcDbDictionary
281
     1
  3
2dWireframe
350
2F
  3
3D Hidden
350
31
  3
3dWireframe
350
30
  3
Basic
350
32
  3
Brighten
350
36
  3
ColorChange
350
3A
  3
Conceptual
350
34
  3
Dim
350
35
  3
Facepattern
350
39
  3
Flat
350
2B
  3
FlatWithEdges
350
2C
  3
Gouraud
350
2D
  3
GouraudWithEdges
350
2E
  3
Linepattern
350
38
  3
Realistic
350
33
  3
Thicken
350
37
  0
LAYOUT
  5
1E
102
{ACAD_REACTORS
330
1A
102
}
330
1A
100
AcDbPlotSettings
  1

  2
none_device
  4

  6

 40
0.0
 41
0.0
 42
0.0
 43
0.0
 44
0.0
 45
0.0
 46
0.0
 47
0.0
 48
0.0
 49
0.0
140
0.0
141
0.0
142
1.0
143
1.0
 70
   688
 72
     0
 73
     0
 74
     5
  7

 75
    16
 76
     0
 77
     2
 78
   300
147
1.0
148
0.0
149
0.0
100
AcDbLayout
  1
Layout1
 70
     1
 71
     1
 10
0.0
 20
0.0
 11
12.0
 21
9.0
 12
0.0
 22
0.0
 32
0.0
 14
1.00000000000000E+20
 24
1.00000000000000E+20
 34
1.00000000000000E+20
 15
-1.00000000000000E+20
 25
-1.00000000000000E+20
 35
-1.00000000000000E+20
146
0.0
 13
0.0
 23
0.0
 33
0.0
 16
1.0
 26
0.0
 36
0.0
 17
0.0
 27
1.0
 37
0.0
 76
     0
330
1B
  0
LAYOUT
  5
26
102
{ACAD_REACTORS
330
1A
102
}
330
1A
100
AcDbPlotSettings
  1

  2
none_device
  4

  6

 40
0.0
 41
0.0
 42
0.0
 43
0.0
 44
0.0
 45
0.0
 46
0.0
 47
0.0
 48
0.0
 49
0.0
140
0.0
141
0.0
142
1.0
143
1.0
 70
   688
 72
     0
 73
     0
 74
     5
  7

 75
    16
 76
     0
 77
     2
 78
   300
147
1.0
148
0.0
149
0.0
100
AcDbLayout
  1
Layout2
 70
     1
 71
     2
 10
0.0
 20
0.0
 11
0.0
 21
0.0
 12
0.0
 22
0.0
 32
0.0
 14
0.0
 24
0.0
 34
0.0
 15
0.0
 25
0.0
 35
0.0
146
0.0
 13
0.0
 23
0.0
 33
0.0
 16
1.0
 26
0.0
 36
0.0
 17
0.0
 27
1.0
 37
0.0
 76
     0
330
23
  0
LAYOUT
  5
22
102
{ACAD_REACTORS
330
1A
102
}
330
1A
100
AcDbPlotSettings
  1

  2
none_device
  4

  6

 40
0.0
 41
0.0
 42
0.0
 43
0.0
 44
0.0
 45
0.0
 46
0.0
 47
0.0
 48
0.0
 49
0.0
140
0.0
141
0.0
142
1.0
143
1.0
 70
  1712
 72
     0
 73
     0
 74
     0
  7

 75
     0
 76
     0
 77
     2
 78
   300
147
1.0
148
0.0
149
0.0
100
AcDbLayout
  1
Model
 70
     1
 71
     0
 10
0.0
 20
0.0
 11
12.0
 21
9.0
 12
0.0
 22
0.0
 32
0.0
 14
-239.3999998092668
 24
4.2079355804828
 34
0.0
 15
57.60000019073129
 25
214.2079355804829
 35
0.0
146
0.0
 13
0.0
 23
0.0
 33
0.0
 16
1.0
 26
0.0
 36
0.0
 17
0.0
 27
1.0
 37
0.0
 76
     0
330
1F
331
29
  0
MATERIAL
  5
3D
102
{ACAD_REACTORS
330
3B
102
}
102
{ACAD_XDICTIONARY
360
243
102
}
330
3B
100
AcDbMaterial
  1
ByBlock
  0
MATERIAL
  5
3C
102
{ACAD_REACTORS
330
3B
102
}
102
{ACAD_XDICTIONARY
360
241
102
}
330
3B
100
AcDbMaterial
  1
ByLayer
  0
MATERIAL
  5
3E
102
{ACAD_REACTORS
330
3B
102
}
102
{ACAD_XDICTIONARY
360
245
102
}
330
3B
100
AcDbMaterial
  1
Global
  0
MLINESTYLE
  5
18
102
{ACAD_REACTORS
330
17
102
}
330
17
100
AcDbMlineStyle
  2
Standard
 70
     0
  3

 62
   256
 51
90.0
 52
90.0
 71
     2
 49
0.5
 62
   256
  6
BYLAYER
 49
-0.5
 62
   256
  6
BYLAYER
  0
ACDBPLACEHOLDER
  5
F
102
{ACAD_REACTORS
330
E
102
}
330
E
  0
VISUALSTYLE
  5
2F
102
{ACAD_REACTORS
330
2A
102
}
102
{ACAD_XDICTIONARY
360
229
102
}
330
2A
100
AcDbVisualStyle
  2
2dWireframe
 70
     4
 71
     0
 72
     2
 73
     0
 90
        0
 40
-0.6
 41
-30.0
 62
     5
 63
     7
421
 16777215
 74
     1
 91
        4
 64
     7
 65
   257
 75
     1
175
     1
 42
1.0
 92
        0
 66
   257
 43
1.0
 76
     1
 77
     6
 78
     2
 67
     7
 79
     5
170
     0
171
     0
290
     0
174
     0
 93
        1
 44
0.0
173
     0
291
     0
 45
0.0
1001
ACAD
1000
AcDbSavedByObjectVersion
1070
     0
  0
VISUALSTYLE
  5
31
102
{ACAD_REACTORS
330
2A
102
}
102
{ACAD_XDICTIONARY
360
22D
102
}
330
2A
100
AcDbVisualStyle
  2
3D Hidden
 70
     6
 71
     1
 72
     2
 73
     2
 90
        0
 40
-0.6
 41
-30.0
 62
     5
 63
     7
421
 16777215
 74
     2
 91
        2
 64
     7
 65
   257
 75
     2
175
     1
 42
40.0
 92
        0
 66
   257
 43
1.0
 76
     1
 77
     6
 78
     2
 67
     7
 79
     3
170
     0
171
     0
290
     0
174
     0
 93
        1
 44
0.0
173
     0
291
     0
 45
0.0
1001
ACAD
1000
AcDbSavedByObjectVersion
1070
     0
  0
VISUALSTYLE
  5
30
102
{ACAD_REACTORS
330
2A
102
}
102
{ACAD_XDICTIONARY
360
22B
102
}
330
2A
100
AcDbVisualStyle
  2
3dWireframe
 70
     5
 71
     0
 72
     2
 73
     0
 90
        0
 40
-0.6
 41
-30.0
 62
     5
 63
     7
421
 16777215
 74
     1
 91
        4
 64
     7
 65
   257
 75
     1
175
     1
 42
1.0
 92
        0
 66
   257
 43
1.0
 76
     1
 77
     6
 78
     2
 67
     7
 79
     5
170
     0
171
     0
290
     0
174
     0
 93
        1
 44
0.0
173
     0
291
     0
 45
0.0
1001
ACAD
1000
AcDbSavedByObjectVersion
1070
     0
  0
VISUALSTYLE
  5
32
102
{ACAD_REACTORS
330
2A
102
}
102
{ACAD_XDICTIONARY
360
22F
102
}
330
2A
100
AcDbVisualStyle
  2
Basic
 70
     7
 71
     1
 72
     0
 73
     1
 90
        0
 40
-0.6
 41
-30.0
 62
     5
 63
     7
421
 16777215
 74
     0
 91
        4
 64
     7
 65
   257
 75
     1
175
     1
 42
1.0
 92
        8
 66
     7
 43
1.0
 76
     1
 77
     6
 78
     2
 67
     7
 79
     5
170
     0
171
     0
290
     0
174
     0
 93
        1
 44
0.0
173
     0
291
     1
 45
0.0
1001
ACAD
1000
AcDbSavedByObjectVersion
1070
     0
  0
VISUALSTYLE
  5
36
102
{ACAD_REACTORS
330
2A
102
}
102
{ACAD_XDICTIONARY
360
237
102
}
330
2A
100
AcDbVisualStyle
  2
Brighten
 70
    12
 71
     2
 72
     2
 73
     0
 90
        0
 40
-0.6
 41
-30.0
 62
     5
 63
     7
421
 16777215
 74
     1
 91
        4
 64
     7
 65
   257
 75
     1
175
     1
 42
1.0
 92
        8
 66
     7
 43
1.0
 76
     1
 77
     6
 78
     2
 67
     7
 79
     5
170
     0
171
     0
290
     0
174
     0
 93
        1
 44
50.0
173
     0
291
     1
 45
0.0
1001
ACAD
1000
AcDbSavedByObjectVersion
1070
     0
  0
VISUALSTYLE
  5
3A
102
{ACAD_REACTORS
330
2A
102
}
102
{ACAD_XDICTIONARY
360
23F
102
}
330
2A
100
AcDbVisualStyle
  2
ColorChange
 70
    16
 71
     2
 72
     2
 73
     3
 90
        0
 40
-0.6
 41
-30.0
 62
     5
 63
     8
421
  8421504
 74
     1
 91
        4
 64
     7
 65
   257
 75
     1
175
     1
 42
1.0
 92
        8
 66
     8
424
  8421504
 43
1.0
 76
     1
 77
     6
 78
     2
 67
     7
 79
     5
170
     0
171
     0
290
     0
174
     0
 93
        1
 44
0.0
173
     0
291
     1
 45
0.0
1001
ACAD
1000
AcDbSavedByObjectVersion
1070
     0
  0
VISUALSTYLE
  5
34
102
{ACAD_REACTORS
330
2A
102
}
102
{ACAD_XDICTIONARY
360
233
102
}
330
2A
100
AcDbVisualStyle
  2
Conceptual
 70
     9
 71
     3
 72
     2
 73
     0
 90
        0
 40
-0.6
 41
-30.0
 62
     5
 63
     7
421
 16777215
 74
     2
 91
        2
 64
     7
 65
   257
 75
     1
175
     1
 42
40.0
 92
        8
 66
     7
 43
1.0
 76
     1
 77
     6
 78
     2
 67
     7
 79
     3
170
     0
171
     0
290
     0
174
     0
 93
        1
 44
0.0
173
     0
291
     0
 45
0.0
1001
ACAD
1000
AcDbSavedByObjectVersion
1070
     0
  0
VISUALSTYLE
  5
35
102
{ACAD_REACTORS
330
2A
102
}
102
{ACAD_XDICTIONARY
360
235
102
}
330
2A
100
AcDbVisualStyle
  2
Dim
 70
    11
 71
     2
 72
     2
 73
     0
 90
        0
 40
-0.6
 41
-30.0
 62
     5
 63
     7
421
 16777215
 74
     1
 91
        4
 64
     7
 65
   257
 75
     1
175
     1
 42
1.0
 92
        8
 66
     7
 43
1.0
 76
     1
 77
     6
 78
     2
 67
     7
 79
     5
170
     0
171
     0
290
     0
174
     0
 93
        1
 44
-50.0
173
     0
291
     1
 45
0.0
1001
ACAD
1000
AcDbSavedByObjectVersion
1070
     0
  0
VISUALSTYLE
  5
39
102
{ACAD_REACTORS
330
2A
102
}
102
{ACAD_XDICTIONARY
360
23D
102
}
330
2A
100
AcDbVisualStyle
  2
Facepattern
 70
    15
 71
     2
 72
     2
 73
     0
 90
        0
 40
-0.6
 41
-30.0
 62
     5
 63
     7
421
 16777215
 74
     1
 91
        4
 64
     7
 65
   257
 75
     1
175
     1
 42
1.0
 92
        8
 66
     7
 43
1.0
 76
     1
 77
     6
 78
     2
 67
     7
 79
     5
170
     0
171
     0
290
     0
174
     0
 93
        1
 44
0.0
173
     0
291
     1
 45
0.0
1001
ACAD
1000
AcDbSavedByObjectVersion
1070
     0
  0
VISUALSTYLE
  5
2B
102
{ACAD_REACTORS
330
2A
102
}
102
{ACAD_XDICTIONARY
360
221
102
}
330
2A
100
AcDbVisualStyle
  2
Flat
 70
     0
 71
     2
 72
     1
 73
     1
 90
        2
 40
-0.6
 41
30.0
 62
     5
 63
     7
421
 16777215
 74
     0
 91
        4
 64
     7
 65
   257
 75
     1
175
     1
 42
1.0
 92
        8
 66
     7
 43
1.0
 76
     1
 77
     6
 78
     2
 67
     7
 79
     5
170
     0
171
     0
290
     0
174
     0
 93
       13
 44
0.0
173
     0
291
     1
 45
0.0
1001
ACAD
1000
AcDbSavedByObjectVersion
1070
     0
  0
VISUALSTYLE
  5
2C
102
{ACAD_REACTORS
330
2A
102
}
102
{ACAD_XDICTIONARY
360
223
102
}
330
2A
100
AcDbVisualStyle
  2
FlatWithEdges
 70
     1
 71
     2
 72
     1
 73
     1
 90
        2
 40
-0.6
 41
30.0
 62
     5
 63
     7
421
 16777215
 74
     1
 91
        4
 64
     7
 65
   257
 75
     1
175
     1
 42
1.0
 92
        0
 66
   257
 43
1.0
 76
     1
 77
     6
 78
     2
 67
     7
 79
     5
170
     0
171
     0
290
     0
174
     0
 93
       13
 44
0.0
173
     0
291
     1
 45
0.0
1001
ACAD
1000
AcDbSavedByObjectVersion
1070
     0
  0
VISUALSTYLE
  5
2D
102
{ACAD_REACTORS
330
2A
102
}
102
{ACAD_XDICTIONARY
360
225
102
}
330
2A
100
AcDbVisualStyle
  2
Gouraud
 70
     2
 71
     2
 72
     2
 73
     1
 90
        2
 40
-0.6
 41
30.0
 62
     5
 63
     7
421
 16777215
 74
     0
 91
        4
 64
     7
 65
   257
 75
     1
175
     1
 42
1.0
 92
        0
 66
     7
 43
1.0
 76
     1
 77
     6
 78
     2
 67
     7
 79
     5
170
     0
171
     0
290
     0
174
     0
 93
       13
 44
0.0
173
     0
291
     1
 45
0.0
1001
ACAD
1000
AcDbSavedByObjectVersion
1070
     0
  0
VISUALSTYLE
  5
2E
102
{ACAD_REACTORS
330
2A
102
}
102
{ACAD_XDICTIONARY
360
227
102
}
330
2A
100
AcDbVisualStyle
  2
GouraudWithEdges
 70
     3
 71
     2
 72
     2
 73
     1
 90
        2
 40
-0.6
 41
30.0
 62
     5
 63
     7
421
 16777215
 74
     1
 91
        4
 64
     7
 65
   257
 75
     1
175
     1
 42
1.0
 92
        0
 66
   257
 43
1.0
 76
     1
 77
     6
 78
     2
 67
     7
 79
     5
170
     0
171
     0
290
     0
174
     0
 93
       13
 44
0.0
173
     0
291
     1
 45
0.0
1001
ACAD
1000
AcDbSavedByObjectVersion
1070
     0
  0
VISUALSTYLE
  5
38
102
{ACAD_REACTORS
330
2A
102
}
102
{ACAD_XDICTIONARY
360
23B
102
}
330
2A
100
AcDbVisualStyle
  2
Linepattern
 70
    14
 71
     2
 72
     2
 73
     0
 90
        0
 40
-0.6
 41
-30.0
 62
     5
 63
     7
421
 16777215
 74
     1
 91
        4
 64
     7
 65
   257
 75
     7
175
     7
 42
1.0
 92
        8
 66
     7
 43
1.0
 76
     1
 77
     6
 78
     2
 67
     7
 79
     5
170
     0
171
     0
290
     0
174
     0
 93
        1
 44
0.0
173
     0
291
     1
 45
0.0
1001
ACAD
1000
AcDbSavedByObjectVersion
1070
     0
  0
VISUALSTYLE
  5
33
102
{ACAD_REACTORS
330
2A
102
}
102
{ACAD_XDICTIONARY
360
231
102
}
330
2A
100
AcDbVisualStyle
  2
Realistic
 70
     8
 71
     2
 72
     2
 73
     0
 90
        0
 40
-0.6
 41
-30.0
 62
     5
 63
     7
421
 16777215
 74
     1
 91
        0
 64
     7
 65
   257
 75
     1
175
     1
 42
1.0
 92
        8
 66
     8
424
  7895160
 43
1.0
 76
     1
 77
     6
 78
     2
 67
     7
 79
     5
170
     0
171
     0
290
     0
174
     0
 93
       13
 44
0.0
173
     0
291
     0
 45
0.0
1001
ACAD
1000
AcDbSavedByObjectVersion
1070
     0
  0
VISUALSTYLE
  5
37
102
{ACAD_REACTORS
330
2A
102
}
102
{ACAD_XDICTIONARY
360
239
102
}
330
2A
100
AcDbVisualStyle
  2
Thicken
 70
    13
 71
     2
 72
     2
 73
     0
 90
        0
 40
-0.6
 41
-30.0
 62
     5
 63
     7
421
 16777215
 74
     1
 91
        4
 64
     7
 65
   257
 75
     1
175
     1
 42
1.0
 92
       12
 66
     7
 43
1.0
 76
     1
 77
     6
 78
     2
 67
     7
 79
     5
170
     0
171
     0
290
     0
174
     0
 93
        1
 44
0.0
173
     0
291
     1
 45
0.0
1001
ACAD
1000
AcDbSavedByObjectVersion
1070
     0
  0
DICTIONARY
  5
243
330
3D
100
AcDbDictionary
280
     1
281
     1
  3
ACAD_XREC_ROUNDTRIP
360
244
  0
DICTIONARY
  5
241
330
3C
100
AcDbDictionary
280
     1
281
     1
  3
ACAD_XREC_ROUNDTRIP
360
242
  0
DICTIONARY
  5
245
330
3E
100
AcDbDictionary
280
     1
281
     1
  3
ACAD_XREC_ROUNDTRIP
360
246
  0
DICTIONARY
  5
229
330
2F
100
AcDbDictionary
280
     1
281
     1
  3
ACAD_XREC_ROUNDTRIP
360
22A
  0
DICTIONARY
  5
22D
330
31
100
AcDbDictionary
280
     1
281
     1
  3
ACAD_XREC_ROUNDTRIP
360
22E
  0
DICTIONARY
  5
22B
330
30
100
AcDbDictionary
280
     1
281
     1
  3
ACAD_XREC_ROUNDTRIP
360
22C
  0
DICTIONARY
  5
22F
330
32
100
AcDbDictionary
280
     1
281
     1
  3
ACAD_XREC_ROUNDTRIP
360
230
  0
DICTIONARY
  5
237
330
36
100
AcDbDictionary
280
     1
281
     1
  3
ACAD_XREC_ROUNDTRIP
360
238
  0
DICTIONARY
  5
23F
330
3A
100
AcDbDictionary
280
     1
281
     1
  3
ACAD_XREC_ROUNDTRIP
360
240
  0
DICTIONARY
  5
233
330
34
100
AcDbDictionary
280
     1
281
     1
  3
ACAD_XREC_ROUNDTRIP
360
234
  0
DICTIONARY
  5
235
330
35
100
AcDbDictionary
280
     1
281
     1
  3
ACAD_XREC_ROUNDTRIP
360
236
  0
DICTIONARY
  5
23D
330
39
100
AcDbDictionary
280
     1
281
     1
  3
ACAD_XREC_ROUNDTRIP
360
23E
  0
DICTIONARY
  5
221
330
2B
100
AcDbDictionary
280
     1
281
     1
  3
ACAD_XREC_ROUNDTRIP
360
222
  0
DICTIONARY
  5
223
330
2C
100
AcDbDictionary
280
     1
281
     1
  3
ACAD_XREC_ROUNDTRIP
360
224
  0
DICTIONARY
  5
225
330
2D
100
AcDbDictionary
280
     1
281
     1
  3
ACAD_XREC_ROUNDTRIP
360
226
  0
DICTIONARY
  5
227
330
2E
100
AcDbDictionary
280
     1
281
     1
  3
ACAD_XREC_ROUNDTRIP
360
228
  0
DICTIONARY
  5
23B
330
38
100
AcDbDictionary
280
     1
281
     1
  3
ACAD_XREC_ROUNDTRIP
360
23C
  0
DICTIONARY
  5
231
330
33
100
AcDbDictionary
280
     1
281
     1
  3
ACAD_XREC_ROUNDTRIP
360
232
  0
DICTIONARY
  5
239
330
37
100
AcDbDictionary
280
     1
281
     1
  3
ACAD_XREC_ROUNDTRIP
360
23A
  0
XRECORD
  5
244
102
{ACAD_REACTORS
330
243
102
}
330
243
100
AcDbXrecord
280
     1
102
MATERIAL
148
0.0
149
0.0
149
0.0
 93
        0
 94
      127
282
     0
 72
     1
 77
     1
171
     1
175
     1
179
     1
273
     0
  0
XRECORD
  5
242
102
{ACAD_REACTORS
330
241
102
}
330
241
100
AcDbXrecord
280
     1
102
MATERIAL
148
0.0
149
0.0
149
0.0
 93
        0
 94
      127
282
     0
 72
     1
 77
     1
171
     1
175
     1
179
     1
273
     0
  0
XRECORD
  5
246
102
{ACAD_REACTORS
330
245
102
}
330
245
100
AcDbXrecord
280
     1
102
MATERIAL
148
0.0
149
0.0
149
0.0
 93
        0
 94
      127
282
     0
 72
     1
 77
     1
171
     1
175
     1
179
     1
273
     0
  0
XRECORD
  5
22A
102
{ACAD_REACTORS
330
229
102
}
330
229
100
AcDbXrecord
280
     1
102
RTVSPropertyOp0
 70
     1
102
RTVSPropertyOp1
 70
     1
102
RTVSPropertyOp2
 70
     1
102
RTVSPropertyOp3
 70
     1
102
RTVSPropertyOp4
 70
     1
102
RTVSPropertyOp5
 70
     1
102
RTVSPropertyOp6
 70
     1
102
RTVSPropertyOp7
 70
     1
102
RTVSPropertyOp8
 70
     1
102
RTVSPropertyOp9
 70
     1
102
RTVSPropertyOp10
 70
     1
102
RTVSPropertyOp11
 70
     1
102
RTVSPropertyOp12
 70
     1
102
RTVSPropertyOp13
 70
     1
102
RTVSPropertyOp14
 70
     1
102
RTVSPropertyOp15
 70
     1
102
RTVSPropertyOp16
 70
     1
102
RTVSPropertyOp17
 70
     1
102
RTVSPropertyOp18
 70
     1
102
RTVSPropertyOp19
 70
     1
102
RTVSPropertyOp20
 70
     1
102
RTVSPropertyOp21
 70
     1
102
RTVSPropertyOp22
 70
     1
102
RTVSPropertyOp23
 70
     1
102
RTVSPropertyOp24
 70
     1
102
RTVSPropertyOp25
 70
     1
102
RTVSPropertyOp26
 70
     1
102
RTVSPropertyOp27
 70
     1
102
RTVSPropertyOp28
 70
     1
102
RTVSPropertyOp29
 70
     1
102
RTVSPropertyOp30
 70
     1
102
RTVSPropertyOp31
 70
     1
102
RTVSPropertyOp32
 70
     1
  0
XRECORD
  5
22E
102
{ACAD_REACTORS
330
22D
102
}
330
22D
100
AcDbXrecord
280
     1
102
RTVSPropertyOp0
 70
     1
102
RTVSPropertyOp1
 70
     1
102
RTVSPropertyOp2
 70
     1
102
RTVSPropertyOp3
 70
     1
102
RTVSPropertyOp4
 70
     1
102
RTVSPropertyOp5
 70
     1
102
RTVSPropertyOp6
 70
     1
102
RTVSPropertyOp7
 70
     1
102
RTVSPropertyOp8
 70
     1
102
RTVSPropertyOp9
 70
     1
102
RTVSPropertyOp10
 70
     1
102
RTVSPropertyOp11
 70
     1
102
RTVSPropertyOp12
 70
     1
102
RTVSPropertyOp13
 70
     1
102
RTVSPropertyOp14
 70
     1
102
RTVSPropertyOp15
 70
     1
102
RTVSPropertyOp16
 70
     1
102
RTVSPropertyOp17
 70
     1
102
RTVSPropertyOp18
 70
     1
102
RTVSPropertyOp19
 70
     1
102
RTVSPropertyOp20
 70
     1
102
RTVSPropertyOp21
 70
     1
102
RTVSPropertyOp22
 70
     1
102
RTVSPropertyOp23
 70
     1
102
RTVSPropertyOp24
 70
     1
102
RTVSPropertyOp25
 70
     1
102
RTVSPropertyOp26
 70
     1
102
RTVSPropertyOp27
 70
     1
102
RTVSPropertyOp28
 70
     1
102
RTVSPropertyOp29
 70
     1
102
RTVSPropertyOp30
 70
     1
102
RTVSPropertyOp31
 70
     1
102
RTVSPropertyOp32
 70
     1
  0
XRECORD
  5
22C
102
{ACAD_REACTORS
330
22B
102
}
330
22B
100
AcDbXrecord
280
     1
102
RTVSPropertyOp0
 70
     1
102
RTVSPropertyOp1
 70
     1
102
RTVSPropertyOp2
 70
     1
102
RTVSPropertyOp3
 70
     1
102
RTVSPropertyOp4
 70
     1
102
RTVSPropertyOp5
 70
     1
102
RTVSPropertyOp6
 70
     1
102
RTVSPropertyOp7
 70
     1
102
RTVSPropertyOp8
 70
     1
102
RTVSPropertyOp9
 70
     1
102
RTVSPropertyOp10
 70
     1
102
RTVSPropertyOp11
 70
     1
102
RTVSPropertyOp12
 70
     1
102
RTVSPropertyOp13
 70
     1
102
RTVSPropertyOp14
 70
     1
102
RTVSPropertyOp15
 70
     1
102
RTVSPropertyOp16
 70
     1
102
RTVSPropertyOp17
 70
     1
102
RTVSPropertyOp18
 70
     1
102
RTVSPropertyOp19
 70
     1
102
RTVSPropertyOp20
 70
     1
102
RTVSPropertyOp21
 70
     1
102
RTVSPropertyOp22
 70
     1
102
RTVSPropertyOp23
 70
     1
102
RTVSPropertyOp24
 70
     1
102
RTVSPropertyOp25
 70
     1
102
RTVSPropertyOp26
 70
     1
102
RTVSPropertyOp27
 70
     1
102
RTVSPropertyOp28
 70
     1
102
RTVSPropertyOp29
 70
     1
102
RTVSPropertyOp30
 70
     1
102
RTVSPropertyOp31
 70
     1
102
RTVSPropertyOp32
 70
     1
  0
XRECORD
  5
230
102
{ACAD_REACTORS
330
22F
102
}
330
22F
100
AcDbXrecord
280
     1
102
RTVSPropertyOp0
 70
     1
102
RTVSPropertyOp1
 70
     1
102
RTVSPropertyOp2
 70
     1
102
RTVSPropertyOp3
 70
     1
102
RTVSPropertyOp4
 70
     1
102
RTVSPropertyOp5
 70
     1
102
RTVSPropertyOp6
 70
     1
102
RTVSPropertyOp7
 70
     1
102
RTVSPropertyOp8
 70
     1
102
RTVSPropertyOp9
 70
     1
102
RTVSPropertyOp10
 70
     1
102
RTVSPropertyOp11
 70
     1
102
RTVSPropertyOp12
 70
     1
102
RTVSPropertyOp13
 70
     1
102
RTVSPropertyOp14
 70
     1
102
RTVSPropertyOp15
 70
     1
102
RTVSPropertyOp16
 70
     1
102
RTVSPropertyOp17
 70
     1
102
RTVSPropertyOp18
 70
     1
102
RTVSPropertyOp19
 70
     1
102
RTVSPropertyOp20
 70
     1
102
RTVSPropertyOp21
 70
     1
102
RTVSPropertyOp22
 70
     1
102
RTVSPropertyOp23
 70
     1
102
RTVSPropertyOp24
 70
     1
102
RTVSPropertyOp25
 70
     1
102
RTVSPropertyOp26
 70
     1
102
RTVSPropertyOp27
 70
     1
102
RTVSPropertyOp28
 70
     1
102
RTVSPropertyOp29
 70
     1
102
RTVSPropertyOp30
 70
     1
102
RTVSPropertyOp31
 70
     1
102
RTVSPropertyOp32
 70
     1
  0
XRECORD
  5
238
102
{ACAD_REACTORS
330
237
102
}
330
237
100
AcDbXrecord
280
     1
102
RTVSPropertyOp0
 70
     1
102
RTVSPropertyOp1
 70
     1
102
RTVSPropertyOp2
 70
     1
102
RTVSPropertyOp3
 70
     1
102
RTVSPropertyOp4
 70
     1
102
RTVSPropertyOp5
 70
     1
102
RTVSPropertyOp6
 70
     1
102
RTVSPropertyOp7
 70
     1
102
RTVSPropertyOp8
 70
     1
102
RTVSPropertyOp9
 70
     1
102
RTVSPropertyOp10
 70
     1
102
RTVSPropertyOp11
 70
     1
102
RTVSPropertyOp12
 70
     1
102
RTVSPropertyOp13
 70
     1
102
RTVSPropertyOp14
 70
     1
102
RTVSPropertyOp15
 70
     1
102
RTVSPropertyOp16
 70
     1
102
RTVSPropertyOp17
 70
     1
102
RTVSPropertyOp18
 70
     1
102
RTVSPropertyOp19
 70
     1
102
RTVSPropertyOp20
 70
     1
102
RTVSPropertyOp21
 70
     1
102
RTVSPropertyOp22
 70
     1
102
RTVSPropertyOp23
 70
     1
102
RTVSPropertyOp24
 70
     1
102
RTVSPropertyOp25
 70
     1
102
RTVSPropertyOp26
 70
     1
102
RTVSPropertyOp27
 70
     1
102
RTVSPropertyOp28
 70
     1
102
RTVSPropertyOp29
 70
     1
102
RTVSPropertyOp30
 70
     1
102
RTVSPropertyOp31
 70
     1
102
RTVSPropertyOp32
 70
     1
  0
XRECORD
  5
240
102
{ACAD_REACTORS
330
23F
102
}
330
23F
100
AcDbXrecord
280
     1
102
RTVSPropertyOp0
 70
     1
102
RTVSPropertyOp1
 70
     1
102
RTVSPropertyOp2
 70
     1
102
RTVSPropertyOp3
 70
     1
102
RTVSPropertyOp4
 70
     1
102
RTVSPropertyOp5
 70
     1
102
RTVSPropertyOp6
 70
     1
102
RTVSPropertyOp7
 70
     1
102
RTVSPropertyOp8
 70
     1
102
RTVSPropertyOp9
 70
     1
102
RTVSPropertyOp10
 70
     1
102
RTVSPropertyOp11
 70
     1
102
RTVSPropertyOp12
 70
     1
102
RTVSPropertyOp13
 70
     1
102
RTVSPropertyOp14
 70
     1
102
RTVSPropertyOp15
 70
     1
102
RTVSPropertyOp16
 70
     1
102
RTVSPropertyOp17
 70
     1
102
RTVSPropertyOp18
 70
     1
102
RTVSPropertyOp19
 70
     1
102
RTVSPropertyOp20
 70
     1
102
RTVSPropertyOp21
 70
     1
102
RTVSPropertyOp22
 70
     1
102
RTVSPropertyOp23
 70
     1
102
RTVSPropertyOp24
 70
     1
102
RTVSPropertyOp25
 70
     1
102
RTVSPropertyOp26
 70
     1
102
RTVSPropertyOp27
 70
     1
102
RTVSPropertyOp28
 70
     1
102
RTVSPropertyOp29
 70
     1
102
RTVSPropertyOp30
 70
     1
102
RTVSPropertyOp31
 70
     1
102
RTVSPropertyOp32
 70
     1
  0
XRECORD
  5
234
102
{ACAD_REACTORS
330
233
102
}
330
233
100
AcDbXrecord
280
     1
102
RTVSPropertyOp0
 70
     1
102
RTVSPropertyOp1
 70
     1
102
RTVSPropertyOp2
 70
     1
102
RTVSPropertyOp3
 70
     1
102
RTVSPropertyOp4
 70
     1
102
RTVSPropertyOp5
 70
     1
102
RTVSPropertyOp6
 70
     1
102
RTVSPropertyOp7
 70
     1
102
RTVSPropertyOp8
 70
     1
102
RTVSPropertyOp9
 70
     1
102
RTVSPropertyOp10
 70
     1
102
RTVSPropertyOp11
 70
     1
102
RTVSPropertyOp12
 70
     1
102
RTVSPropertyOp13
 70
     1
102
RTVSPropertyOp14
 70
     1
102
RTVSPropertyOp15
 70
     1
102
RTVSPropertyOp16
 70
     1
102
RTVSPropertyOp17
 70
     1
102
RTVSPropertyOp18
 70
     1
102
RTVSPropertyOp19
 70
     1
102
RTVSPropertyOp20
 70
     1
102
RTVSPropertyOp21
 70
     1
102
RTVSPropertyOp22
 70
     1
102
RTVSPropertyOp23
 70
     1
102
RTVSPropertyOp24
 70
     1
102
RTVSPropertyOp25
 70
     1
102
RTVSPropertyOp26
 70
     1
102
RTVSPropertyOp27
 70
     1
102
RTVSPropertyOp28
 70
     1
102
RTVSPropertyOp29
 70
     1
102
RTVSPropertyOp30
 70
     1
102
RTVSPropertyOp31
 70
     1
102
RTVSPropertyOp32
 70
     1
  0
XRECORD
  5
236
102
{ACAD_REACTORS
330
235
102
}
330
235
100
AcDbXrecord
280
     1
102
RTVSPropertyOp0
 70
     1
102
RTVSPropertyOp1
 70
     1
102
RTVSPropertyOp2
 70
     1
102
RTVSPropertyOp3
 70
     1
102
RTVSPropertyOp4
 70
     1
102
RTVSPropertyOp5
 70
     1
102
RTVSPropertyOp6
 70
     1
102
RTVSPropertyOp7
 70
     1
102
RTVSPropertyOp8
 70
     1
102
RTVSPropertyOp9
 70
     1
102
RTVSPropertyOp10
 70
     1
102
RTVSPropertyOp11
 70
     1
102
RTVSPropertyOp12
 70
     1
102
RTVSPropertyOp13
 70
     1
102
RTVSPropertyOp14
 70
     1
102
RTVSPropertyOp15
 70
     1
102
RTVSPropertyOp16
 70
     1
102
RTVSPropertyOp17
 70
     1
102
RTVSPropertyOp18
 70
     1
102
RTVSPropertyOp19
 70
     1
102
RTVSPropertyOp20
 70
     1
102
RTVSPropertyOp21
 70
     1
102
RTVSPropertyOp22
 70
     1
102
RTVSPropertyOp23
 70
     1
102
RTVSPropertyOp24
 70
     1
102
RTVSPropertyOp25
 70
     1
102
RTVSPropertyOp26
 70
     1
102
RTVSPropertyOp27
 70
     1
102
RTVSPropertyOp28
 70
     1
102
RTVSPropertyOp29
 70
     1
102
RTVSPropertyOp30
 70
     1
102
RTVSPropertyOp31
 70
     1
102
RTVSPropertyOp32
 70
     1
  0
XRECORD
  5
23E
102
{ACAD_REACTORS
330
23D
102
}
330
23D
100
AcDbXrecord
280
     1
102
RTVSPropertyOp0
 70
     1
102
RTVSPropertyOp1
 70
     1
102
RTVSPropertyOp2
 70
     1
102
RTVSPropertyOp3
 70
     1
102
RTVSPropertyOp4
 70
     1
102
RTVSPropertyOp5
 70
     1
102
RTVSPropertyOp6
 70
     1
102
RTVSPropertyOp7
 70
     1
102
RTVSPropertyOp8
 70
     1
102
RTVSPropertyOp9
 70
     1
102
RTVSPropertyOp10
 70
     1
102
RTVSPropertyOp11
 70
     1
102
RTVSPropertyOp12
 70
     1
102
RTVSPropertyOp13
 70
     1
102
RTVSPropertyOp14
 70
     1
102
RTVSPropertyOp15
 70
     1
102
RTVSPropertyOp16
 70
     1
102
RTVSPropertyOp17
 70
     1
102
RTVSPropertyOp18
 70
     1
102
RTVSPropertyOp19
 70
     1
102
RTVSPropertyOp20
 70
     1
102
RTVSPropertyOp21
 70
     1
102
RTVSPropertyOp22
 70
     1
102
RTVSPropertyOp23
 70
     1
102
RTVSPropertyOp24
 70
     1
102
RTVSPropertyOp25
 70
     1
102
RTVSPropertyOp26
 70
     1
102
RTVSPropertyOp27
 70
     1
102
RTVSPropertyOp28
 70
     1
102
RTVSPropertyOp29
 70
     1
102
RTVSPropertyOp30
 70
     1
102
RTVSPropertyOp31
 70
     1
102
RTVSPropertyOp32
 70
     1
  0
XRECORD
  5
222
102
{ACAD_REACTORS
330
221
102
}
330
221
100
AcDbXrecord
280
     1
102
RTVSPropertyOp0
 70
     1
102
RTVSPropertyOp1
 70
     1
102
RTVSPropertyOp2
 70
     1
102
RTVSPropertyOp3
 70
     1
102
RTVSPropertyOp4
 70
     1
102
RTVSPropertyOp5
 70
     1
102
RTVSPropertyOp6
 70
     1
102
RTVSPropertyOp7
 70
     1
102
RTVSPropertyOp8
 70
     1
102
RTVSPropertyOp9
 70
     1
102
RTVSPropertyOp10
 70
     1
102
RTVSPropertyOp11
 70
     1
102
RTVSPropertyOp12
 70
     1
102
RTVSPropertyOp13
 70
     1
102
RTVSPropertyOp14
 70
     1
102
RTVSPropertyOp15
 70
     1
102
RTVSPropertyOp16
 70
     1
102
RTVSPropertyOp17
 70
     1
102
RTVSPropertyOp18
 70
     1
102
RTVSPropertyOp19
 70
     1
102
RTVSPropertyOp20
 70
     1
102
RTVSPropertyOp21
 70
     1
102
RTVSPropertyOp22
 70
     1
102
RTVSPropertyOp23
 70
     1
102
RTVSPropertyOp24
 70
     1
102
RTVSPropertyOp25
 70
     1
102
RTVSPropertyOp26
 70
     1
102
RTVSPropertyOp27
 70
     1
102
RTVSPropertyOp28
 70
     1
102
RTVSPropertyOp29
 70
     1
102
RTVSPropertyOp30
 70
     1
102
RTVSPropertyOp31
 70
     1
102
RTVSPropertyOp32
 70
     1
  0
XRECORD
  5
224
102
{ACAD_REACTORS
330
223
102
}
330
223
100
AcDbXrecord
280
     1
102
RTVSPropertyOp0
 70
     1
102
RTVSPropertyOp1
 70
     1
102
RTVSPropertyOp2
 70
     1
102
RTVSPropertyOp3
 70
     1
102
RTVSPropertyOp4
 70
     1
102
RTVSPropertyOp5
 70
     1
102
RTVSPropertyOp6
 70
     1
102
RTVSPropertyOp7
 70
     1
102
RTVSPropertyOp8
 70
     1
102
RTVSPropertyOp9
 70
     1
102
RTVSPropertyOp10
 70
     1
102
RTVSPropertyOp11
 70
     1
102
RTVSPropertyOp12
 70
     1
102
RTVSPropertyOp13
 70
     1
102
RTVSPropertyOp14
 70
     1
102
RTVSPropertyOp15
 70
     1
102
RTVSPropertyOp16
 70
     1
102
RTVSPropertyOp17
 70
     1
102
RTVSPropertyOp18
 70
     1
102
RTVSPropertyOp19
 70
     1
102
RTVSPropertyOp20
 70
     1
102
RTVSPropertyOp21
 70
     1
102
RTVSPropertyOp22
 70
     1
102
RTVSPropertyOp23
 70
     1
102
RTVSPropertyOp24
 70
     1
102
RTVSPropertyOp25
 70
     1
102
RTVSPropertyOp26
 70
     1
102
RTVSPropertyOp27
 70
     1
102
RTVSPropertyOp28
 70
     1
102
RTVSPropertyOp29
 70
     1
102
RTVSPropertyOp30
 70
     1
102
RTVSPropertyOp31
 70
     1
102
RTVSPropertyOp32
 70
     1
  0
XRECORD
  5
226
102
{ACAD_REACTORS
330
225
102
}
330
225
100
AcDbXrecord
280
     1
102
RTVSPropertyOp0
 70
     1
102
RTVSPropertyOp1
 70
     1
102
RTVSPropertyOp2
 70
     1
102
RTVSPropertyOp3
 70
     1
102
RTVSPropertyOp4
 70
     1
102
RTVSPropertyOp5
 70
     1
102
RTVSPropertyOp6
 70
     1
102
RTVSPropertyOp7
 70
     1
102
RTVSPropertyOp8
 70
     1
102
RTVSPropertyOp9
 70
     1
102
RTVSPropertyOp10
 70
     1
102
RTVSPropertyOp11
 70
     1
102
RTVSPropertyOp12
 70
     1
102
RTVSPropertyOp13
 70
     1
102
RTVSPropertyOp14
 70
     1
102
RTVSPropertyOp15
 70
     1
102
RTVSPropertyOp16
 70
     1
102
RTVSPropertyOp17
 70
     1
102
RTVSPropertyOp18
 70
     1
102
RTVSPropertyOp19
 70
     1
102
RTVSPropertyOp20
 70
     1
102
RTVSPropertyOp21
 70
     1
102
RTVSPropertyOp22
 70
     1
102
RTVSPropertyOp23
 70
     1
102
RTVSPropertyOp24
 70
     1
102
RTVSPropertyOp25
 70
     1
102
RTVSPropertyOp26
 70
     1
102
RTVSPropertyOp27
 70
     1
102
RTVSPropertyOp28
 70
     1
102
RTVSPropertyOp29
 70
     1
102
RTVSPropertyOp30
 70
     1
102
RTVSPropertyOp31
 70
     1
102
RTVSPropertyOp32
 70
     1
  0
XRECORD
  5
228
102
{ACAD_REACTORS
330
227
102
}
330
227
100
AcDbXrecord
280
     1
102
RTVSPropertyOp0
 70
     1
102
RTVSPropertyOp1
 70
     1
102
RTVSPropertyOp2
 70
     1
102
RTVSPropertyOp3
 70
     1
102
RTVSPropertyOp4
 70
     1
102
RTVSPropertyOp5
 70
     1
102
RTVSPropertyOp6
 70
     1
102
RTVSPropertyOp7
 70
     1
102
RTVSPropertyOp8
 70
     1
102
RTVSPropertyOp9
 70
     1
102
RTVSPropertyOp10
 70
     1
102
RTVSPropertyOp11
 70
     1
102
RTVSPropertyOp12
 70
     1
102
RTVSPropertyOp13
 70
     1
102
RTVSPropertyOp14
 70
     1
102
RTVSPropertyOp15
 70
     1
102
RTVSPropertyOp16
 70
     1
102
RTVSPropertyOp17
 70
     1
102
RTVSPropertyOp18
 70
     1
102
RTVSPropertyOp19
 70
     1
102
RTVSPropertyOp20
 70
     1
102
RTVSPropertyOp21
 70
     1
102
RTVSPropertyOp22
 70
     1
102
RTVSPropertyOp23
 70
     1
102
RTVSPropertyOp24
 70
     1
102
RTVSPropertyOp25
 70
     1
102
RTVSPropertyOp26
 70
     1
102
RTVSPropertyOp27
 70
     1
102
RTVSPropertyOp28
 70
     1
102
RTVSPropertyOp29
 70
     1
102
RTVSPropertyOp30
 70
     1
102
RTVSPropertyOp31
 70
     1
102
RTVSPropertyOp32
 70
     1
  0
XRECORD
  5
23C
102
{ACAD_REACTORS
330
23B
102
}
330
23B
100
AcDbXrecord
280
     1
102
RTVSPropertyOp0
 70
     1
102
RTVSPropertyOp1
 70
     1
102
RTVSPropertyOp2
 70
     1
102
RTVSPropertyOp3
 70
     1
102
RTVSPropertyOp4
 70
     1
102
RTVSPropertyOp5
 70
     1
102
RTVSPropertyOp6
 70
     1
102
RTVSPropertyOp7
 70
     1
102
RTVSPropertyOp8
 70
     1
102
RTVSPropertyOp9
 70
     1
102
RTVSPropertyOp10
 70
     1
102
RTVSPropertyOp11
 70
     1
102
RTVSPropertyOp12
 70
     1
102
RTVSPropertyOp13
 70
     1
102
RTVSPropertyOp14
 70
     1
102
RTVSPropertyOp15
 70
     1
102
RTVSPropertyOp16
 70
     1
102
RTVSPropertyOp17
 70
     1
102
RTVSPropertyOp18
 70
     1
102
RTVSPropertyOp19
 70
     1
102
RTVSPropertyOp20
 70
     1
102
RTVSPropertyOp21
 70
     1
102
RTVSPropertyOp22
 70
     1
102
RTVSPropertyOp23
 70
     1
102
RTVSPropertyOp24
 70
     1
102
RTVSPropertyOp25
 70
     1
102
RTVSPropertyOp26
 70
     1
102
RTVSPropertyOp27
 70
     1
102
RTVSPropertyOp28
 70
     1
102
RTVSPropertyOp29
 70
     1
102
RTVSPropertyOp30
 70
     1
102
RTVSPropertyOp31
 70
     1
102
RTVSPropertyOp32
 70
     1
  0
XRECORD
  5
232
102
{ACAD_REACTORS
330
231
102
}
330
231
100
AcDbXrecord
280
     1
102
RTVSPropertyOp0
 70
     1
102
RTVSPropertyOp1
 70
     1
102
RTVSPropertyOp2
 70
     1
102
RTVSPropertyOp3
 70
     1
102
RTVSPropertyOp4
 70
     1
102
RTVSPropertyOp5
 70
     1
102
RTVSPropertyOp6
 70
     1
102
RTVSPropertyOp7
 70
     1
102
RTVSPropertyOp8
 70
     1
102
RTVSPropertyOp9
 70
     1
102
RTVSPropertyOp10
 70
     1
102
RTVSPropertyOp11
 70
     1
102
RTVSPropertyOp12
 70
     1
102
RTVSPropertyOp13
 70
     1
102
RTVSPropertyOp14
 70
     1
102
RTVSPropertyOp15
 70
     1
102
RTVSPropertyOp16
 70
     1
102
RTVSPropertyOp17
 70
     1
102
RTVSPropertyOp18
 70
     1
102
RTVSPropertyOp19
 70
     1
102
RTVSPropertyOp20
 70
     1
102
RTVSPropertyOp21
 70
     1
102
RTVSPropertyOp22
 70
     1
102
RTVSPropertyOp23
 70
     1
102
RTVSPropertyOp24
 70
     1
102
RTVSPropertyOp25
 70
     1
102
RTVSPropertyOp26
 70
     1
102
RTVSPropertyOp27
 70
     1
102
RTVSPropertyOp28
 70
     1
102
RTVSPropertyOp29
 70
     1
102
RTVSPropertyOp30
 70
     1
102
RTVSPropertyOp31
 70
     1
102
RTVSPropertyOp32
 70
     1
  0
XRECORD
  5
23A
102
{ACAD_REACTORS
330
239
102
}
330
239
100
AcDbXrecord
280
     1
102
RTVSPropertyOp0
 70
     1
102
RTVSPropertyOp1
 70
     1
102
RTVSPropertyOp2
 70
     1
102
RTVSPropertyOp3
 70
     1
102
RTVSPropertyOp4
 70
     1
102
RTVSPropertyOp5
 70
     1
102
RTVSPropertyOp6
 70
     1
102
RTVSPropertyOp7
 70
     1
102
RTVSPropertyOp8
 70
     1
102
RTVSPropertyOp9
 70
     1
102
RTVSPropertyOp10
 70
     1
102
RTVSPropertyOp11
 70
     1
102
RTVSPropertyOp12
 70
     1
102
RTVSPropertyOp13
 70
     1
102
RTVSPropertyOp14
 70
     1
102
RTVSPropertyOp15
 70
     1
102
RTVSPropertyOp16
 70
     1
102
RTVSPropertyOp17
 70
     1
102
RTVSPropertyOp18
 70
     1
102
RTVSPropertyOp19
 70
     1
102
RTVSPropertyOp20
 70
     1
102
RTVSPropertyOp21
 70
     1
102
RTVSPropertyOp22
 70
     1
102
RTVSPropertyOp23
 70
     1
102
RTVSPropertyOp24
 70
     1
102
RTVSPropertyOp25
 70
     1
102
RTVSPropertyOp26
 70
     1
102
RTVSPropertyOp27
 70
     1
102
RTVSPropertyOp28
 70
     1
102
RTVSPropertyOp29
 70
     1
102
RTVSPropertyOp30
 70
     1
102
RTVSPropertyOp31
 70
     1
102
RTVSPropertyOp32
 70
     1
  0
ENDSEC
  0
EOF
