  0
SECTION
  2
HEADER
  9
$ACADVER
  1
AC1018
  9
$ACADMAINTVER
 70
     0
  9
$DWGCODEPAGE
  3
ANSI_1252
  9
$INSBASE
 10
0.0
 20
0.0
 30
0.0
  9
$EXTMIN
 10
-420.6672295997792
 20
-251.3823337441978
 30
0.0
  9
$EXTMAX
 10
-123.6672295997811
 20
-41.3823337441977
 30
0.0
  9
$LIMMIN
 10
0.0
 20
0.0
  9
$LIMMAX
 10
12.0
 20
9.0
  9
$ORTHOMODE
 70
     0
  9
$REGENMODE
 70
     1
  9
$FILLMODE
 70
     1
  9
$QTEXTMODE
 70
     0
  9
$MIRRTEXT
 70
     1
  9
$LTSCALE
 40
1.0
  9
$ATTMODE
 70
     1
  9
$TEXTSIZE
 40
0.2
  9
$TRACEWID
 40
0.05
  9
$TEXTSTYLE
  7
Standard
  9
$CLAYER
  8
0
  9
$CELTYPE
  6
ByLayer
  9
$CECOLOR
 62
   256
  9
$CELTSCALE
 40
1.0
  9
$DISPSILH
 70
     0
  9
$DIMSCALE
 40
1.0
  9
$DIMASZ
 40
0.18
  9
$DIMEXO
 40
0.0625
  9
$DIMDLI
 40
0.38
  9
$DIMRND
 40
0.0
  9
$DIMDLE
 40
0.0
  9
$DIMEXE
 40
0.18
  9
$DIMTP
 40
0.0
  9
$DIMTM
 40
0.0
  9
$DIMTXT
 40
0.18
  9
$DIMCEN
 40
0.09
  9
$DIMTSZ
 40
0.0
  9
$DIMTOL
 70
     0
  9
$DIMLIM
 70
     0
  9
$DIMTIH
 70
     1
  9
$DIMTOH
 70
     1
  9
$DIMSE1
 70
     0
  9
$DIMSE2
 70
     0
  9
$DIMTAD
 70
     0
  9
$DIMZIN
 70
     0
  9
$DIMBLK
  1

  9
$DIMASO
 70
     1
  9
$DIMSHO
 70
     1
  9
$DIMPOST
  1

  9
$DIMAPOST
  1

  9
$DIMALT
 70
     0
  9
$DIMALTD
 70
     2
  9
$DIMALTF
 40
25.4
  9
$DIMLFAC
 40
1.0
  9
$DIMTOFL
 70
     0
  9
$DIMTVP
 40
0.0
  9
$DIMTIX
 70
     0
  9
$DIMSOXD
 70
     0
  9
$DIMSAH
 70
     0
  9
$DIMBLK1
  1

  9
$DIMBLK2
  1

  9
$DIMSTYLE
  2
Standard
  9
$DIMCLRD
 70
     0
  9
$DIMCLRE
 70
     0
  9
$DIMCLRT
 70
     0
  9
$DIMTFAC
 40
1.0
  9
$DIMGAP
 40
0.09
  9
$DIMJUST
 70
     0
  9
$DIMSD1
 70
     0
  9
$DIMSD2
 70
     0
  9
$DIMTOLJ
 70
     1
  9
$DIMTZIN
 70
     0
  9
$DIMALTZ
 70
     0
  9
$DIMALTTZ
 70
     0
  9
$DIMUPT
 70
     0
  9
$DIMDEC
 70
     4
  9
$DIMTDEC
 70
     4
  9
$DIMALTU
 70
     2
  9
$DIMALTTD
 70
     2
  9
$DIMTXSTY
  7
Standard
  9
$DIMAUNIT
 70
     0
  9
$DIMADEC
 70
     0
  9
$DIMALTRND
 40
0.0
  9
$DIMAZIN
 70
     0
  9
$DIMDSEP
 70
    46
  9
$DIMATFIT
 70
     3
  9
$DIMFRAC
 70
     0
  9
$DIMLDRBLK
  1

  9
$DIMLUNIT
 70
     2
  9
$DIMLWD
 70
    -2
  9
$DIMLWE
 70
    -2
  9
$DIMTMOVE
 70
     0
  9
$LUNITS
 70
     2
  9
$LUPREC
 70
     4
  9
$SKETCHINC
 40
0.1
  9
$FILLETRAD
 40
0.5
  9
$AUNITS
 70
     0
  9
$AUPREC
 70
     0
  9
$MENU
  1
.
  9
$ELEVATION
 40
0.0
  9
$PELEVATION
 40
0.0
  9
$THICKNESS
 40
0.0
  9
$LIMCHECK
 70
     0
  9
$CHAMFERA
 40
0.5
  9
$CHAMFERB
 40
0.5
  9
$CHAMFERC
 40
1.0
  9
$CHAMFERD
 40
0.0
  9
$SKPOLY
 70
     0
  9
$TDCREATE
 40
2458184.622427986
  9
$TDUCREATE
 40
2458184.580761319
  9
$TDUPDATE
 40
2458184.62242853
  9
$TDUUPDATE
 40
2458184.580761863
  9
$TDINDWG
 40
0.0000000116
  9
$TDUSRTIMER
 40
0.0000000116
  9
$USRTIMER
 70
     1
  9
$ANGBASE
 50
0.0
  9
$ANGDIR
 70
     0
  9
$PDMODE
 70
     0
  9
$PDSIZE
 40
0.0
  9
$PLINEWID
 40
0.0
  9
$SPLFRAME
 70
     0
  9
$SPLINETYPE
 70
     6
  9
$SPLINESEGS
 70
     8
  9
$HANDSEED
  5
2E9
  9
$SURFTAB1
 70
     6
  9
$SURFTAB2
 70
     6
  9
$SURFTYPE
 70
     6
  9
$SURFU
 70
     6
  9
$SURFV
 70
     6
  9
$UCSBASE
  2

  9
$UCSNAME
  2

  9
$UCSORG
 10
0.0
 20
0.0
 30
0.0
  9
$UCSXDIR
 10
1.0
 20
0.0
 30
0.0
  9
$UCSYDIR
 10
0.0
 20
1.0
 30
0.0
  9
$UCSORTHOREF
  2

  9
$UCSORTHOVIEW
 70
     0
  9
$UCSORGTOP
 10
0.0
 20
0.0
 30
0.0
  9
$UCSORGBOTTOM
 10
0.0
 20
0.0
 30
0.0
  9
$UCSORGLEFT
 10
0.0
 20
0.0
 30
0.0
  9
$UCSORGRIGHT
 10
0.0
 20
0.0
 30
0.0
  9
$UCSORGFRONT
 10
0.0
 20
0.0
 30
0.0
  9
$UCSORGBACK
 10
0.0
 20
0.0
 30
0.0
  9
$PUCSBASE
  2

  9
$PUCSNAME
  2

  9
$PUCSORG
 10
0.0
 20
0.0
 30
0.0
  9
$PUCSXDIR
 10
1.0
 20
0.0
 30
0.0
  9
$PUCSYDIR
 10
0.0
 20
1.0
 30
0.0
  9
$PUCSORTHOREF
  2

  9
$PUCSORTHOVIEW
 70
     0
  9
$PUCSORGTOP
 10
0.0
 20
0.0
 30
0.0
  9
$PUCSORGBOTTOM
 10
0.0
 20
0.0
 30
0.0
  9
$PUCSORGLEFT
 10
0.0
 20
0.0
 30
0.0
  9
$PUCSORGRIGHT
 10
0.0
 20
0.0
 30
0.0
  9
$PUCSORGFRONT
 10
0.0
 20
0.0
 30
0.0
  9
$PUCSORGBACK
 10
0.0
 20
0.0
 30
0.0
  9
$USERI1
 70
     0
  9
$USERI2
 70
     0
  9
$USERI3
 70
     0
  9
$USERI4
 70
     0
  9
$USERI5
 70
     0
  9
$USERR1
 40
18.1
  9
$USERR2
 40
0.0
  9
$USERR3
 40
0.0
  9
$USERR4
 40
0.0
  9
$USERR5
 40
0.0
  9
$WORLDVIEW
 70
     1
  9
$SHADEDGE
 70
     3
  9
$SHADEDIF
 70
    70
  9
$TILEMODE
 70
     1
  9
$MAXACTVP
 70
    64
  9
$PINSBASE
 10
0.0
 20
0.0
 30
0.0
  9
$PLIMCHECK
 70
     0
  9
$PEXTMIN
 10
1.00000000000000E+20
 20
1.00000000000000E+20
 30
1.00000000000000E+20
  9
$PEXTMAX
 10
-1.00000000000000E+20
 20
-1.00000000000000E+20
 30
-1.00000000000000E+20
  9
$PLIMMIN
 10
0.0
 20
0.0
  9
$PLIMMAX
 10
12.0
 20
9.0
  9
$UNITMODE
 70
     0
  9
$VISRETAIN
 70
     1
  9
$PLINEGEN
 70
     0
  9
$PSLTSCALE
 70
     1
  9
$TREEDEPTH
 70
  3020
  9
$CMLSTYLE
  2
Standard
  9
$CMLJUST
 70
     0
  9
$CMLSCALE
 40
1.0
  9
$PROXYGRAPHICS
 70
     1
  9
$MEASUREMENT
 70
     1
  9
$CELWEIGHT
370
    -1
  9
$ENDCAPS
280
     0
  9
$JOINSTYLE
280
     0
  9
$LWDISPLAY
290
     0
  9
$INSUNITS
 70
     4
  9
$HYPERLINKBASE
  1

  9
$STYLESHEET
  1

  9
$XEDIT
290
     1
  9
$CEPSNTYPE
380
     0
  9
$PSTYLEMODE
290
     1
  9
$FINGERPRINTGUID
  2
{E6EE8191-F7C3-4874-9F9F-17F38C66EA02}
  9
$VERSIONGUID
  2
{FAEB1C32-E019-11D5-929B-00C0DF256EC4}
  9
$EXTNAMES
290
     1
  9
$PSVPSCALE
 40
0.0
  9
$OLESTARTUP
290
     0
  9
$SORTENTS
280
   127
  9
$INDEXCTL
280
     0
  9
$HIDETEXT
280
     1
  9
$XCLIPFRAME
290
     0
  9
$HALOGAP
280
     0
  9
$OBSCOLOR
 70
   257
  9
$OBSLTYPE
280
     0
  9
$INTERSECTIONDISPLAY
280
     0
  9
$INTERSECTIONCOLOR
 70
   257
  9
$DIMASSOC
280
     2
  9
$PROJECTNAME
  1

  0
ENDSEC
  0
SECTION
  2
CLASSES
  0
CLASS
  1
ACDBDICTIONARYWDFLT
  2
AcDbDictionaryWithDefault
  3
ObjectDBX Classes
 90
        0
 91
        4
280
     0
281
     0
  0
CLASS
  1
VISUALSTYLE
  2
AcDbVisualStyle
  3
ObjectDBX Classes
 90
     4095
 91
        4
280
     0
281
     0
  0
CLASS
  1
MATERIAL
  2
AcDbMaterial
  3
ObjectDBX Classes
 90
     1153
 91
        4
280
     0
281
     0
  0
ENDSEC
  0
SECTION
  2
TABLES
  0
TABLE
  2
VPORT
  5
8
330
0
100
AcDbSymbolTable
 70
     1
  0
VPORT
  5
29
330
8
100
AcDbSymbolTableRecord
100
AcDbViewportTableRecord
  2
*Active
 70
     0
 10
0.0
 20
0.0
 11
1.0
 21
1.0
 12
-272.1672295997802
 22
-146.3823337441978
 13
0.0
 23
0.0
 14
0.5
 24
0.5
 15
0.5
 25
0.5
 16
0.0
 26
0.0
 36
1.0
 17
0.0
 27
0.0
 37
0.0
 40
231.0000000000001
 41
1.60267857142857
 42
50.0
 43
0.0
 44
0.0
 50
0.0
 51
0.0
 71
     0
 72
   100
 73
     1
 74
     3
 75
     0
 76
     0
 77
     0
 78
     0
281
     0
 65
     1
110
0.0
120
0.0
130
0.0
111
1.0
121
0.0
131
0.0
112
0.0
122
1.0
132
0.0
 79
     0
146
0.0
  0
ENDTAB
  0
TABLE
  2
LTYPE
  5
5
330
0
100
AcDbSymbolTable
 70
     8
  0
LTYPE
  5
14
330
5
100
AcDbSymbolTableRecord
100
AcDbLinetypeTableRecord
  2
ByBlock
 70
     0
  3

 72
    65
 73
     0
 40
0.0
  0
LTYPE
  5
15
330
5
100
AcDbSymbolTableRecord
100
AcDbLinetypeTableRecord
  2
ByLayer
 70
     0
  3

 72
    65
 73
     0
 40
0.0
  0
LTYPE
  5
16
330
5
100
AcDbSymbolTableRecord
100
AcDbLinetypeTableRecord
  2
Continuous
 70
     0
  3
Solid line
 72
    65
 73
     0
 40
0.0
  0
LTYPE
  5
3F
330
5
100
AcDbSymbolTableRecord
100
AcDbLinetypeTableRecord
  2
DASHED
 70
     0
  3
Dashed
 72
    65
 73
     2
 40
15.0
 49
7.0
 74
     0
 49
-8.0
 74
     0
  0
LTYPE
  5
40
330
5
100
AcDbSymbolTableRecord
100
AcDbLinetypeTableRecord
  2
DOTTED
 70
     0
  3
Dotted
 72
    65
 73
     2
 40
1.0
 49
0.0
 74
     0
 49
-1.0
 74
     0
  0
LTYPE
  5
41
330
5
100
AcDbSymbolTableRecord
100
AcDbLinetypeTableRecord
  2
DOT_CENTER
 70
     0
  3
Dot_Center
 72
    65
 73
     4
 40
14.0
 49
12.0
 74
     0
 49
-1.0
 74
     0
 49
0.0
 74
     0
 49
-1.0
 74
     0
  0
LTYPE
  5
42
330
5
100
AcDbSymbolTableRecord
100
AcDbLinetypeTableRecord
  2
LONG_DASHED
 70
     0
  3
Long_Dashed
 72
    65
 73
     2
 40
15.0
 49
10.0
 74
     0
 49
-5.0
 74
     0
  0
LTYPE
  5
43
330
5
100
AcDbSymbolTableRecord
100
AcDbLinetypeTableRecord
  2
DASH_CENTER
 70
     0
  3
Dash_Center
 72
    65
 73
     4
 40
14.0
 49
11.0
 74
     0
 49
-1.0
 74
     0
 49
1.0
 74
     0
 49
-1.0
 74
     0
  0
LTYPE
  5
44
330
5
100
AcDbSymbolTableRecord
100
AcDbLinetypeTableRecord
  2
PHANTOM
 70
     0
  3
Phantom
 72
    65
 73
     6
 40
13.0
 49
10.0
 74
     0
 49
-1.0
 74
     0
 49
0.0
 74
     0
 49
-1.0
 74
     0
 49
0.0
 74
     0
 49
-1.0
 74
     0
  0
LTYPE
  5
45
330
5
100
AcDbSymbolTableRecord
100
AcDbLinetypeTableRecord
  2
CENTER_DASH_DASH
 70
     0
  3
Center_Dash_Dash
 72
    65
 73
     6
 40
14.0
 49
9.0
 74
     0
 49
-1.0
 74
     0
 49
1.0
 74
     0
 49
-1.0
 74
     0
 49
1.0
 74
     0
 49
-1.0
 74
     0
  0
ENDTAB
  0
TABLE
  2
LAYER
  5
2
330
0
100
AcDbSymbolTable
 70
     2
  0
LAYER
  5
10
330
2
100
AcDbSymbolTableRecord
100
AcDbLayerTableRecord
  2
0
 70
     0
 62
     7
  6
Continuous
370
    -3
390
F
  0
LAYER
  5
46
330
2
100
AcDbSymbolTableRecord
100
AcDbLayerTableRecord
  2
1
 70
     0
 62
     7
  6
Continuous
370
    -3
390
F
  0
ENDTAB
  0
TABLE
  2
STYLE
  5
3
330
0
100
AcDbSymbolTable
 70
     5
  0
STYLE
  5
11
330
3
100
AcDbSymbolTableRecord
100
AcDbTextStyleTableRecord
  2
Standard
 70
     0
 40
0.0
 41
1.0
 50
0.0
 71
     0
 42
0.2
  3
txt
  4

  0
STYLE
  5
B5
330
3
100
AcDbSymbolTableRecord
100
AcDbTextStyleTableRecord
  2
CONVERTER_11
 70
     0
 40
0.0
 41
0.9
 50
0.0
 71
     0
 42
0.2
  3
txt.shx
  4

  0
STYLE
  5
27F
330
3
100
AcDbSymbolTableRecord
100
AcDbTextStyleTableRecord
  2
CONVERTER_12
 70
     0
 40
0.0
 41
0.81
 50
0.0
 71
     0
 42
0.2
  3
txt.shx
  4

  0
STYLE
  5
285
330
3
100
AcDbSymbolTableRecord
100
AcDbTextStyleTableRecord
  2
CONVERTER_13
 70
     0
 40
0.0
 41
0.855
 50
0.0
 71
     0
 42
0.2
  3
txt.shx
  4

  0
STYLE
  5
288
330
3
100
AcDbSymbolTableRecord
100
AcDbTextStyleTableRecord
  2
CONVERTER_14
 70
     0
 40
0.0
 41
0.72
 50
0.0
 71
     0
 42
0.2
  3
txt.shx
  4

  0
ENDTAB
  0
TABLE
  2
VIEW
  5
6
330
0
100
AcDbSymbolTable
 70
     0
  0
ENDTAB
  0
TABLE
  2
UCS
  5
7
330
0
100
AcDbSymbolTable
 70
     0
  0
ENDTAB
  0
TABLE
  2
APPID
  5
9
330
0
100
AcDbSymbolTable
 70
     1
  0
APPID
  5
12
330
9
100
AcDbSymbolTableRecord
100
AcDbRegAppTableRecord
  2
ACAD
 70
     0
  0
ENDTAB
  0
TABLE
  2
DIMSTYLE
  5
A
330
0
100
AcDbSymbolTable
 70
     4
100
AcDbDimStyleTable
  0
DIMSTYLE
105
27
330
A
100
AcDbSymbolTableRecord
100
AcDbDimStyleTableRecord
  2
Standard
 70
     0
178
     0
340
11
  0
DIMSTYLE
105
B9
102
{ACAD_REACTORS
330
BA
102
}
330
A
100
AcDbSymbolTableRecord
100
AcDbDimStyleTableRecord
  2
ME10_DIM_10
 70
     0
 41
3.5
 42
0.0
 44
1.5
 73
     0
 74
     0
 77
     1
 78
     8
140
3.5
147
1.5
172
     1
173
     1
174
     1
175
     1
176
     2
177
     2
178
     3
340
B5
  0
DIMSTYLE
105
C6
102
{ACAD_REACTORS
330
C7
102
}
330
A
100
AcDbSymbolTableRecord
100
AcDbDimStyleTableRecord
  2
ME10_DIM_11
 70
     0
 41
3.5
 42
0.0
 44
1.5
 73
     0
 74
     0
 77
     1
 78
     8
140
3.5
147
1.5
172
     1
173
     1
174
     1
175
     1
176
     2
177
     2
178
     3
340
B5
  0
DIMSTYLE
105
186
102
{ACAD_REACTORS
330
187
102
}
330
A
100
AcDbSymbolTableRecord
100
AcDbDimStyleTableRecord
  2
ME10_DIM_12
 70
     0
 41
3.5
 42
0.0
 44
1.5
 73
     0
 74
     0
 77
     1
 78
     8
140
3.5
147
1.5
172
     1
173
     1
174
     1
175
     1
176
     2
177
     2
178
     3
340
B5
  0
ENDTAB
  0
TABLE
  2
BLOCK_RECORD
  5
1
330
0
100
AcDbSymbolTable
 70
    20
  0
BLOCK_RECORD
  5
1F
330
1
100
AcDbSymbolTableRecord
100
AcDbBlockTableRecord
  2
*Model_Space
340
22
  0
BLOCK_RECORD
  5
1B
330
1
100
AcDbSymbolTableRecord
100
AcDbBlockTableRecord
  2
*Paper_Space
340
1E
  0
BLOCK_RECORD
  5
23
330
1
100
AcDbSymbolTableRecord
100
AcDbBlockTableRecord
  2
*Paper_Space0
340
26
  0
BLOCK_RECORD
  5
47
330
1
100
AcDbSymbolTableRecord
100
AcDbBlockTableRecord
  2
EB_2_25-select__1
340
0
102
{BLKREFS
331
4B
102
}
  0
BLOCK_RECORD
  5
4A
330
1
100
AcDbSymbolTableRecord
100
AcDbBlockTableRecord
  2
Back1
340
0
102
{BLKREFS
331
7D
102
}
  0
BLOCK_RECORD
  5
4E
330
1
100
AcDbSymbolTableRecord
100
AcDbBlockTableRecord
  2
EB_2_25-select__2
340
0
102
{BLKREFS
331
52
102
}
  0
BLOCK_RECORD
  5
51
330
1
100
AcDbSymbolTableRecord
100
AcDbBlockTableRecord
  2
Front1
340
0
102
{BLKREFS
331
7E
102
}
  0
BLOCK_RECORD
  5
55
330
1
100
AcDbSymbolTableRecord
100
AcDbBlockTableRecord
  2
EB_2_25-select__3
340
0
102
{BLKREFS
331
59
102
}
  0
BLOCK_RECORD
  5
58
330
1
100
AcDbSymbolTableRecord
100
AcDbBlockTableRecord
  2
Gen1
340
0
102
{BLKREFS
331
7F
102
}
  0
BLOCK_RECORD
  5
5C
330
1
100
AcDbSymbolTableRecord
100
AcDbBlockTableRecord
  2
EB_2_25-select__4
340
0
102
{BLKREFS
331
60
102
}
  0
BLOCK_RECORD
  5
5F
330
1
100
AcDbSymbolTableRecord
100
AcDbBlockTableRecord
  2
Left1
340
0
102
{BLKREFS
331
80
102
}
  0
BLOCK_RECORD
  5
63
330
1
100
AcDbSymbolTableRecord
100
AcDbBlockTableRecord
  2
EB_2_25-select__5
340
0
102
{BLKREFS
331
67
102
}
  0
BLOCK_RECORD
  5
66
330
1
100
AcDbSymbolTableRecord
100
AcDbBlockTableRecord
  2
Right1
340
0
102
{BLKREFS
331
81
102
}
  0
BLOCK_RECORD
  5
6A
330
1
100
AcDbSymbolTableRecord
100
AcDbBlockTableRecord
  2
EB_2_25-select__6
340
0
102
{BLKREFS
331
6E
102
}
  0
BLOCK_RECORD
  5
6D
330
1
100
AcDbSymbolTableRecord
100
AcDbBlockTableRecord
  2
Top1
340
0
102
{BLKREFS
331
82
102
}
  0
BLOCK_RECORD
  5
71
330
1
100
AcDbSymbolTableRecord
100
AcDbBlockTableRecord
  2
_rahmen
340
0
102
{BLKREFS
331
78
102
}
  0
BLOCK_RECORD
  5
74
330
1
100
AcDbSymbolTableRecord
100
AcDbBlockTableRecord
  2
_punkt
340
0
102
{BLKREFS
331
79
102
}
  0
BLOCK_RECORD
  5
77
330
1
100
AcDbSymbolTableRecord
100
AcDbBlockTableRecord
  2
A4I_CS
340
0
102
{BLKREFS
331
83
102
}
  0
BLOCK_RECORD
  5
7C
330
1
100
AcDbSymbolTableRecord
100
AcDbBlockTableRecord
  2
1
340
0
102
{BLKREFS
331
86
102
}
  0
BLOCK_RECORD
  5
AF
330
1
100
AcDbSymbolTableRecord
100
AcDbBlockTableRecord
  2
*D17
340
0
  0
BLOCK_RECORD
  5
BB
330
1
100
AcDbSymbolTableRecord
100
AcDbBlockTableRecord
  2
*D18
340
0
  0
BLOCK_RECORD
  5
17D
330
1
100
AcDbSymbolTableRecord
100
AcDbBlockTableRecord
  2
*D19
340
0
  0
ENDTAB
  0
ENDSEC
  0
SECTION
  2
BLOCKS
  0
BLOCK
  5
20
330
1F
100
AcDbEntity
  8
0
100
AcDbBlockBegin
  2
*Model_Space
 70
     0
 10
0.0
 20
0.0
 30
0.0
  3
*Model_Space
  1

  0
ENDBLK
  5
21
330
1F
100
AcDbEntity
  8
0
100
AcDbBlockEnd
  0
BLOCK
  5
1C
330
1B
100
AcDbEntity
 67
     1
  8
0
100
AcDbBlockBegin
  2
*Paper_Space
 70
     0
 10
0.0
 20
0.0
 30
0.0
  3
*Paper_Space
  1

  0
ENDBLK
  5
1D
330
1B
100
AcDbEntity
 67
     1
  8
0
100
AcDbBlockEnd
  0
BLOCK
  5
24
330
23
100
AcDbEntity
  8
0
100
AcDbBlockBegin
  2
*Paper_Space0
 70
     0
 10
0.0
 20
0.0
 30
0.0
  3
*Paper_Space0
  1

  0
ENDBLK
  5
25
330
23
100
AcDbEntity
  8
0
100
AcDbBlockEnd
  0
BLOCK
  5
48
330
47
100
AcDbEntity
  8
0
100
AcDbBlockBegin
  2
EB_2_25-select__1
 70
     0
 10
-196.250000495785
 20
-118.4999995793218
 30
0.0
  3
EB_2_25-select__1
  1

  0
LINE
  5
87
330
47
100
AcDbEntity
  8
0
  6
Continuous
 62
     7
100
AcDbLine
 10
-187.4500004957849
 20
-118.4999995793218
 30
0.0
 11
-187.4500004957849
 21
-115.9999995793218
 31
0.0
  0
LINE
  5
88
330
47
100
AcDbEntity
  8
0
  6
Continuous
 62
     7
100
AcDbLine
 10
-182.4500004957849
 20
-118.4999995793218
 30
0.0
 11
-182.4500004957849
 21
-115.9999995793218
 31
0.0
  0
LINE
  5
89
330
47
100
AcDbEntity
  8
0
  6
Continuous
 62
     7
100
AcDbLine
 10
-196.250000495785
 20
-115.9999995793218
 30
0.0
 11
-196.250000495785
 21
-118.4999995793218
 31
0.0
  0
LINE
  5
8A
330
47
100
AcDbEntity
  8
0
  6
Continuous
 62
     7
100
AcDbLine
 10
-187.4500004957849
 20
-115.9999995793218
 30
0.0
 11
-182.4500004957849
 21
-115.9999995793218
 31
0.0
  0
LINE
  5
8B
330
47
100
AcDbEntity
  8
0
  6
Continuous
 62
     7
100
AcDbLine
 10
-177.2500004957849
 20
-115.9999995793217
 30
0.0
 11
-182.4500004957849
 21
-115.9999995793218
 31
0.0
  0
LINE
  5
8C
330
47
100
AcDbEntity
  8
0
  6
Continuous
 62
     7
100
AcDbLine
 10
-187.4500004957849
 20
-115.9999995793218
 30
0.0
 11
-196.250000495785
 21
-115.9999995793218
 31
0.0
  0
LINE
  5
8D
330
47
100
AcDbEntity
  8
0
  6
Continuous
 62
     7
100
AcDbLine
 10
-173.7928937145984
 20
-116.0784267040679
 30
0.0
 11
-174.7500004957849
 21
-115.1213199228814
 31
0.0
  0
LINE
  5
8E
330
47
100
AcDbEntity
  8
0
  6
Continuous
 62
     7
100
AcDbLine
 10
-172.7322335428186
 20
-117.1390868758478
 30
0.0
 11
-173.7928937145984
 21
-116.0784267040679
 31
0.0
  0
LINE
  5
8F
330
47
100
AcDbEntity
  8
0
  6
Continuous
 62
     7
100
AcDbLine
 10
-176.2144665898522
 20
-118.4999995793217
 30
0.0
 11
-173.7928937145984
 21
-116.0784267040679
 31
0.0
  0
LINE
  5
90
330
47
100
AcDbEntity
  8
0
  6
Continuous
 62
     7
100
AcDbLine
 10
-170.5931462462925
 20
-114.9999995793218
 30
0.0
 11
-172.7322335428186
 21
-117.1390868758478
 31
0.0
  0
LINE
  5
91
330
47
100
AcDbEntity
  8
0
  6
Continuous
 62
     7
100
AcDbLine
 10
-174.7500004957849
 20
-115.1213199228814
 30
0.0
 11
-174.7500004957849
 21
-113.4999995793217
 31
0.0
  0
LINE
  5
92
330
47
100
AcDbEntity
  8
0
  6
Continuous
 62
     7
100
AcDbLine
 10
-174.7500004957849
 20
-113.4999995793217
 30
0.0
 11
-174.7500004957849
 21
-111.3786792357621
 31
0.0
  0
LINE
  5
93
330
47
100
AcDbEntity
  8
0
  6
Continuous
 62
     7
100
AcDbLine
 10
-172.8713208393446
 20
-109.4999995793217
 30
0.0
 11
-174.7500004957849
 21
-111.3786792357621
 31
0.0
  0
LINE
  5
94
330
47
100
AcDbEntity
  8
0
  6
Continuous
 62
     7
100
AcDbLine
 10
-172.8713208393446
 20
-109.4999995793217
 30
0.0
 11
-153.7500004957849
 21
-109.4999995793218
 31
0.0
  0
LINE
  5
95
330
47
100
AcDbEntity
  8
0
  6
Continuous
 62
     7
100
AcDbLine
 10
-153.7500004957849
 20
-109.4999995793218
 30
0.0
 11
-153.7500004957849
 21
-114.9999995793218
 31
0.0
  0
LINE
  5
96
330
47
100
AcDbEntity
  8
0
  6
Continuous
 62
     7
100
AcDbLine
 10
-153.7500004957849
 20
-114.9999995793218
 30
0.0
 11
-170.5931462462925
 21
-114.9999995793218
 31
0.0
  0
LINE
  5
97
330
47
100
AcDbEntity
  8
0
  6
Continuous
 62
     7
100
AcDbLine
 10
-187.4500004957849
 20
-118.4999995793218
 30
0.0
 11
-182.4500004957849
 21
-118.4999995793218
 31
0.0
  0
LINE
  5
98
330
47
100
AcDbEntity
  8
0
  6
Continuous
 62
     7
100
AcDbLine
 10
-182.4500004957849
 20
-118.4999995793218
 30
0.0
 11
-176.2144665898522
 21
-118.4999995793217
 31
0.0
  0
LINE
  5
99
330
47
100
AcDbEntity
  8
0
  6
Continuous
 62
     7
100
AcDbLine
 10
-196.250000495785
 20
-118.4999995793218
 30
0.0
 11
-187.4500004957849
 21
-118.4999995793218
 31
0.0
  0
LINE
  5
9A
330
47
100
AcDbEntity
  8
0
  6
Continuous
 62
     7
100
AcDbLine
 10
-174.7500004957849
 20
-113.4999995793217
 30
0.0
 11
-177.2500004957849
 21
-115.9999995793217
 31
0.0
  0
ENDBLK
  5
49
330
47
100
AcDbEntity
  8
0
100
AcDbBlockEnd
  0
BLOCK
  5
4C
330
4A
100
AcDbEntity
  8
0
100
AcDbBlockBegin
  2
Back1
 70
     0
 10
-175.0000004768522
 20
-114.000000000005
 30
0.0
  3
Back1
  1

  0
INSERT
  5
4B
330
4A
100
AcDbEntity
  8
0
100
AcDbBlockReference
  2
EB_2_25-select__1
 10
-196.250000495785
 20
-118.4999995793218
 30
0.0
  0
ENDBLK
  5
4D
330
4A
100
AcDbEntity
  8
0
100
AcDbBlockEnd
  0
BLOCK
  5
4F
330
4E
100
AcDbEntity
  8
0
100
AcDbBlockBegin
  2
EB_2_25-select__2
 70
     0
 10
-318.2499995042101
 20
-118.4999995793218
 30
0.0
  3
EB_2_25-select__2
  1

  0
LINE
  5
9B
330
4E
100
AcDbEntity
  8
0
  6
Continuous
 62
     7
100
AcDbLine
 10
-289.5499995042101
 20
-115.9999995793218
 30
0.0
 11
-284.5499995042101
 21
-115.9999995793218
 31
0.0
  0
LINE
  5
9C
330
4E
100
AcDbEntity
  8
0
  6
Continuous
 62
     7
100
AcDbLine
 10
-289.5499995042101
 20
-115.9999995793218
 30
0.0
 11
-294.7499995042101
 21
-115.9999995793218
 31
0.0
  0
LINE
  5
9D
330
4E
100
AcDbEntity
  8
0
  6
Continuous
 62
     7
100
AcDbLine
 10
-275.7499995042101
 20
-115.9999995793218
 30
0.0
 11
-284.5499995042101
 21
-115.9999995793218
 31
0.0
  0
LINE
  5
9E
330
4E
100
AcDbEntity
  8
0
  6
Continuous
 62
     7
100
AcDbLine
 10
-289.5499995042101
 20
-118.4999995793218
 30
0.0
 11
-289.5499995042101
 21
-115.9999995793218
 31
0.0
  0
LINE
  5
9F
330
4E
100
AcDbEntity
  8
0
  6
Continuous
 62
     7
100
AcDbLine
 10
-297.2499995042101
 20
-115.1213199228814
 30
0.0
 11
-297.2499995042101
 21
-113.4999995793218
 31
0.0
  0
LINE
  5
A0
330
4E
100
AcDbEntity
  8
0
  6
Continuous
 62
     7
100
AcDbLine
 10
-297.2499995042101
 20
-113.4999995793218
 30
0.0
 11
-297.2499995042101
 21
-111.3786792357621
 31
0.0
  0
LINE
  5
A1
330
4E
100
AcDbEntity
  8
0
  6
Continuous
 62
     7
100
AcDbLine
 10
-298.2071062853967
 20
-116.078426704068
 30
0.0
 11
-295.7855334101428
 21
-118.4999995793218
 31
0.0
  0
LINE
  5
A2
330
4E
100
AcDbEntity
  8
0
  6
Continuous
 62
     7
100
AcDbLine
 10
-289.5499995042101
 20
-118.4999995793218
 30
0.0
 11
-284.5499995042101
 21
-118.4999995793218
 31
0.0
  0
LINE
  5
A3
330
4E
100
AcDbEntity
  8
0
  6
Continuous
 62
     7
100
AcDbLine
 10
-295.7855334101428
 20
-118.4999995793218
 30
0.0
 11
-289.5499995042101
 21
-118.4999995793218
 31
0.0
  0
LINE
  5
A4
330
4E
100
AcDbEntity
  8
0
  6
Continuous
 62
     7
100
AcDbLine
 10
-318.2499995042101
 20
-114.9999995793218
 30
0.0
 11
-301.4068537537025
 21
-114.9999995793218
 31
0.0
  0
LINE
  5
A5
330
4E
100
AcDbEntity
  8
0
  6
Continuous
 62
     7
100
AcDbLine
 10
-299.1286791606505
 20
-109.4999995793218
 30
0.0
 11
-318.2499995042101
 21
-109.4999995793218
 31
0.0
  0
LINE
  5
A6
330
4E
100
AcDbEntity
  8
0
  6
Continuous
 62
     7
100
AcDbLine
 10
-298.2071062853967
 20
-116.078426704068
 30
0.0
 11
-297.2499995042101
 21
-115.1213199228814
 31
0.0
  0
LINE
  5
A7
330
4E
100
AcDbEntity
  8
0
  6
Continuous
 62
     7
100
AcDbLine
 10
-299.2677664571764
 20
-117.1390868758478
 30
0.0
 11
-298.2071062853967
 21
-116.078426704068
 31
0.0
  0
LINE
  5
A8
330
4E
100
AcDbEntity
  8
0
  6
Continuous
 62
     7
100
AcDbLine
 10
-301.4068537537025
 20
-114.9999995793218
 30
0.0
 11
-299.2677664571764
 21
-117.1390868758478
 31
0.0
  0
LINE
  5
A9
330
4E
100
AcDbEntity
  8
0
  6
Continuous
 62
     7
100
AcDbLine
 10
-299.1286791606505
 20
-109.4999995793218
 30
0.0
 11
-297.2499995042101
 21
-111.3786792357621
 31
0.0
  0
LINE
  5
AA
330
4E
100
AcDbEntity
  8
0
  6
Continuous
 62
     7
100
AcDbLine
 10
-318.2499995042101
 20
-109.4999995793218
 30
0.0
 11
-318.2499995042101
 21
-114.9999995793218
 31
0.0
  0
LINE
  5
AB
330
4E
100
AcDbEntity
  8
0
  6
Continuous
 62
     7
100
AcDbLine
 10
-275.7499995042101
 20
-118.4999995793218
 30
0.0
 11
-275.7499995042101
 21
-115.9999995793218
 31
0.0
  0
LINE
  5
AC
330
4E
100
AcDbEntity
  8
0
  6
Continuous
 62
     7
100
AcDbLine
 10
-284.5499995042101
 20
-118.4999995793218
 30
0.0
 11
-284.5499995042101
 21
-115.9999995793218
 31
0.0
  0
LINE
  5
AD
330
4E
100
AcDbEntity
  8
0
  6
Continuous
 62
     7
100
AcDbLine
 10
-284.5499995042101
 20
-118.4999995793218
 30
0.0
 11
-275.7499995042101
 21
-118.4999995793218
 31
0.0
  0
LINE
  5
AE
330
4E
100
AcDbEntity
  8
0
  6
Continuous
 62
     7
100
AcDbLine
 10
-294.7499995042101
 20
-115.9999995793218
 30
0.0
 11
-297.2499995042101
 21
-113.4999995793218
 31
0.0
  0
ENDBLK
  5
50
330
4E
100
AcDbEntity
  8
0
100
AcDbBlockEnd
  0
BLOCK
  5
53
330
51
100
AcDbEntity
  8
0
100
AcDbBlockBegin
  2
Front1
 70
     0
 10
-296.9999995231428
 20
-114.000000000005
 30
0.0
  3
Front1
  1

  0
INSERT
  5
52
330
51
100
AcDbEntity
  8
0
100
AcDbBlockReference
  2
EB_2_25-select__2
 10
-318.2499995042101
 20
-118.4999995793218
 30
0.0
  0
DIMENSION
  5
BA
330
51
100
AcDbEntity
  8
1
100
AcDbDimension
  2
*D17
 10
-318.24999950421
 20
-128.4999995793218
 30
0.0
 11
-297.000532304485
 21
-125.0749995793218
 31
0.0
 70
    32
  1
<>
 71
     5
 42
-1.0
 53
0.00013888888889
  3
ME10_DIM_10
100
AcDbAlignedDimension
 13
-275.7499995042101
 23
-118.4999995793218
 33
0.0
 14
-318.2499995042101
 24
-114.9999995793218
 34
0.0
100
AcDbRotatedDimension
  0
DIMENSION
  5
C7
330
51
100
AcDbEntity
  8
1
100
AcDbDimension
  2
*D18
 10
-328.2499995042101
 20
-118.4999995793218
 30
0.0
 11
-331.4999995042101
 21
-113.79663229256
 31
0.0
 70
    32
  1
<>
 71
     5
 42
-1.0
 53
90.0
  3
ME10_DIM_11
100
AcDbAlignedDimension
 13
-318.2499995042101
 23
-109.4999995793218
 33
0.0
 14
-295.7855334101428
 24
-118.4999995793218
 34
0.0
 50
90.0
100
AcDbRotatedDimension
  0
ENDBLK
  5
54
330
51
100
AcDbEntity
  8
0
100
AcDbBlockEnd
  0
BLOCK
  5
56
330
55
100
AcDbEntity
  8
0
100
AcDbBlockBegin
  2
EB_2_25-select__3
 70
     0
 10
-209.2780398140331
 20
-190.2971438617157
 30
0.0
  3
EB_2_25-select__3
  1

  0
LINE
  5
C8
330
55
100
AcDbEntity
  8
0
  6
Continuous
 62
     7
100
AcDbLine
 10
-171.3415063345599
 20
-165.6065906813682
 30
0.0
 11
-171.3415063345599
 21
-162.3653687690857
 31
0.0
  0
LINE
  5
C9
330
55
100
AcDbEntity
  8
0
  6
Continuous
 62
     7
100
AcDbLine
 10
-179.8934906426103
 20
-166.2659404681324
 30
0.0
 11
-181.9038130304545
 21
-165.6856103822425
 31
0.0
  0
LINE
  5
CA
330
55
100
AcDbEntity
  8
0
  6
Continuous
 62
     7
100
AcDbLine
 10
-171.5148591194665
 20
-165.7567185969141
 30
0.0
 11
-171.3415063345599
 21
-165.6065906813682
 31
0.0
  0
LINE
  5
CB
330
55
100
AcDbEntity
  8
0
  6
Continuous
 62
     7
100
AcDbLine
 10
-172.9684906426103
 20
-160.2687145469252
 30
0.0
 11
-171.3415063345599
 21
-162.3653687690857
 31
0.0
  0
LINE
  5
CC
330
55
100
AcDbEntity
  8
0
  6
Continuous
 62
     7
100
AcDbLine
 10
-172.9684906426103
 20
-160.2687145469252
 30
0.0
 11
-179.8934906426103
 21
-166.2659404681324
 31
0.0
  0
LINE
  5
CD
330
55
100
AcDbEntity
  8
0
  6
Continuous
 62
     7
100
AcDbLine
 10
-179.8934906426103
 20
-166.2659404681324
 30
0.0
 11
-178.2665063345599
 21
-168.3625946902929
 31
0.0
  0
LINE
  5
CE
330
55
100
AcDbEntity
  8
0
  6
Continuous
 62
     7
100
AcDbLine
 10
-177.5165063345599
 20
-169.550192944542
 30
0.0
 11
-172.1665063345599
 21
-164.9169570342952
 31
0.0
  0
LINE
  5
CF
330
55
100
AcDbEntity
  8
0
  6
Continuous
 62
     7
100
AcDbLine
 10
-172.1665063345599
 20
-164.9169570342952
 30
0.0
 11
-170.0014428250988
 21
-167.7070205437563
 31
0.0
  0
LINE
  5
D0
330
55
100
AcDbEntity
  8
0
  6
Continuous
 62
     7
100
AcDbLine
 10
-178.2665063345599
 20
-168.3625946902929
 30
0.0
 11
-171.3415063345599
 21
-162.3653687690857
 31
0.0
  0
LINE
  5
D1
330
55
100
AcDbEntity
  8
0
  6
Continuous
 62
     7
100
AcDbLine
 10
-172.9684906426103
 20
-160.2687145469252
 30
0.0
 11
-189.5280398140331
 21
-155.4883844610353
 31
0.0
  0
LINE
  5
D2
330
55
100
AcDbEntity
  8
0
  6
Continuous
 62
     7
100
AcDbLine
 10
-209.2780398140331
 20
-172.5923861857779
 30
0.0
 11
-209.2780398140331
 21
-177.3555259065924
 31
0.0
  0
LINE
  5
D3
330
55
100
AcDbEntity
  8
0
  6
Continuous
 62
     7
100
AcDbLine
 10
-209.2780398140331
 20
-177.3555259065924
 30
0.0
 11
-194.6914477144496
 21
-181.5663123442193
 31
0.0
  0
LINE
  5
D4
330
55
100
AcDbEntity
  8
0
  6
Continuous
 62
     7
100
AcDbLine
 10
-194.6914477144496
 20
-181.5663123442193
 30
0.0
 11
-192.8389437747455
 21
-183.9535881080549
 31
0.0
  0
LINE
  5
D5
330
55
100
AcDbEntity
  8
0
  6
Continuous
 62
     7
100
AcDbLine
 10
-192.7184906426103
 20
-177.3727162716679
 30
0.0
 11
-209.2780398140331
 21
-172.5923861857779
 31
0.0
  0
LINE
  5
D6
330
55
100
AcDbEntity
  8
0
  6
Continuous
 62
     7
100
AcDbLine
 10
-171.6469601531945
 20
-188.1320803522547
 30
0.0
 11
-171.6469601531945
 21
-190.2971438617157
 31
0.0
  0
LINE
  5
D7
330
55
100
AcDbEntity
  8
0
  6
Continuous
 62
     7
100
AcDbLine
 10
-170.8481107254197
 20
-175.8053199634641
 30
0.0
 11
-170.8481107254197
 21
-173.6402564540031
 31
0.0
  0
LINE
  5
D8
330
55
100
AcDbEntity
  8
0
  6
Continuous
 62
     7
100
AcDbLine
 10
-170.8481107254197
 20
-173.6402564540031
 30
0.0
 11
-175.3514428250988
 21
-172.3402564540031
 31
0.0
  0
LINE
  5
D9
330
55
100
AcDbEntity
  8
0
  6
Continuous
 62
     7
100
AcDbLine
 10
-170.0014428250988
 20
-167.7070205437563
 30
0.0
 11
-175.3514428250988
 21
-172.3402564540031
 31
0.0
  0
LINE
  5
DA
330
55
100
AcDbEntity
  8
0
  6
Continuous
 62
     7
100
AcDbLine
 10
-176.2482414941167
 20
-174.2464364869809
 30
0.0
 11
-170.8481107254197
 21
-175.8053199634641
 31
0.0
  0
LINE
  5
DB
330
55
100
AcDbEntity
  8
0
  6
Continuous
 62
     7
100
AcDbLine
 10
-171.6469601531945
 20
-190.2971438617157
 30
0.0
 11
-179.2679837064975
 21
-188.0971438617157
 31
0.0
  0
LINE
  5
DC
330
55
100
AcDbEntity
  8
0
  6
Continuous
 62
     7
100
AcDbLine
 10
-179.2679837064975
 20
-185.9320803522546
 30
0.0
 11
-171.6469601531945
 21
-188.1320803522547
 31
0.0
  0
LINE
  5
DD
330
55
100
AcDbEntity
  8
0
  6
Continuous
 62
     7
100
AcDbLine
 10
-166.5179837064975
 20
-177.0553199634641
 30
0.0
 11
-158.8969601531945
 21
-179.2553199634642
 31
0.0
  0
LINE
  5
DE
330
55
100
AcDbEntity
  8
0
  6
Continuous
 62
     7
100
AcDbLine
 10
-158.8969601531945
 20
-179.2553199634642
 30
0.0
 11
-158.8969601531945
 21
-177.0902564540031
 31
0.0
  0
LINE
  5
DF
330
55
100
AcDbEntity
  8
0
  6
Continuous
 62
     7
100
AcDbLine
 10
-166.5179837064975
 20
-177.0553199634641
 30
0.0
 11
-166.5179837064975
 21
-174.8902564540031
 31
0.0
  0
LINE
  5
E0
330
55
100
AcDbEntity
  8
0
  6
Continuous
 62
     7
100
AcDbLine
 10
-158.8969601531945
 20
-177.0902564540031
 30
0.0
 11
-166.5179837064975
 21
-174.8902564540031
 31
0.0
  0
LINE
  5
E1
330
55
100
AcDbEntity
  8
0
  6
Continuous
 62
     7
100
AcDbLine
 10
-153.5469601531945
 20
-172.4570205437563
 30
0.0
 11
-158.8969601531945
 21
-177.0902564540031
 31
0.0
  0
LINE
  5
E2
330
55
100
AcDbEntity
  8
0
  6
Continuous
 62
     7
100
AcDbLine
 10
-158.8969601531945
 20
-179.2553199634642
 30
0.0
 11
-153.5469601531945
 21
-174.6220840532174
 31
0.0
  0
LINE
  5
E3
330
55
100
AcDbEntity
  8
0
  6
Continuous
 62
     7
100
AcDbLine
 10
-161.1679837064975
 20
-170.2570205437563
 30
0.0
 11
-153.5469601531945
 21
-172.4570205437563
 31
0.0
  0
LINE
  5
E4
330
55
100
AcDbEntity
  8
0
  6
Continuous
 62
     7
100
AcDbLine
 10
-153.5469601531945
 20
-172.4570205437563
 30
0.0
 11
-153.5469601531945
 21
-174.6220840532174
 31
0.0
  0
LINE
  5
E5
330
55
100
AcDbEntity
  8
0
  6
Continuous
 62
     7
100
AcDbLine
 10
-166.2969601531945
 20
-185.663907951469
 30
0.0
 11
-166.2969601531945
 21
-183.4988444420079
 31
0.0
  0
LINE
  5
E6
330
55
100
AcDbEntity
  8
0
  6
Continuous
 62
     7
100
AcDbLine
 10
-165.4981107254197
 20
-170.2570205437563
 30
0.0
 11
-165.4981107254197
 21
-169.0070205437563
 31
0.0
  0
LINE
  5
E7
330
55
100
AcDbEntity
  8
0
  6
Continuous
 62
     7
100
AcDbLine
 10
-170.0014428250988
 20
-167.7070205437563
 30
0.0
 11
-165.4981107254197
 21
-169.0070205437563
 31
0.0
  0
LINE
  5
E8
330
55
100
AcDbEntity
  8
0
  6
Continuous
 62
     7
100
AcDbLine
 10
-171.6469601531945
 20
-188.1320803522547
 30
0.0
 11
-166.2969601531945
 21
-183.4988444420079
 31
0.0
  0
LINE
  5
E9
330
55
100
AcDbEntity
  8
0
  6
Continuous
 62
     7
100
AcDbLine
 10
-166.2969601531945
 20
-183.4988444420079
 30
0.0
 11
-173.9179837064975
 21
-181.2988444420079
 31
0.0
  0
LINE
  5
EA
330
55
100
AcDbEntity
  8
0
  6
Continuous
 62
     7
100
AcDbLine
 10
-166.2969601531945
 20
-185.663907951469
 30
0.0
 11
-171.6469601531945
 21
-190.2971438617157
 31
0.0
  0
LINE
  5
EB
330
55
100
AcDbEntity
  8
0
  6
Continuous
 62
     7
100
AcDbLine
 10
-180.0139437747455
 20
-172.8468123045194
 30
0.0
 11
-178.2665063345599
 21
-171.6038166025755
 31
0.0
  0
LINE
  5
EC
330
55
100
AcDbEntity
  8
0
  6
Continuous
 62
     7
100
AcDbLine
 10
-192.7184906426103
 20
-177.3727162716679
 30
0.0
 11
-191.0915063345599
 21
-179.4693704938283
 31
0.0
  0
LINE
  5
ED
330
55
100
AcDbEntity
  8
0
  6
Continuous
 62
     7
100
AcDbLine
 10
-183.5981107254197
 20
-186.8471438617157
 30
0.0
 11
-183.5981107254197
 21
-184.6820803522546
 31
0.0
  0
LINE
  5
EE
330
55
100
AcDbEntity
  8
0
  6
Continuous
 62
     7
100
AcDbLine
 10
-188.9982414941167
 20
-185.2882603852325
 30
0.0
 11
-191.0358743018277
 21
-182.6624136525007
 31
0.0
  0
LINE
  5
EF
330
55
100
AcDbEntity
  8
0
  6
Continuous
 62
     7
100
AcDbLine
 10
-181.9038130304545
 20
-170.4487501030569
 30
0.0
 11
-181.9038130304545
 21
-165.6856103822425
 31
0.0
  0
LINE
  5
F0
330
55
100
AcDbEntity
  8
0
  6
Continuous
 62
     7
100
AcDbLine
 10
-181.9038130304545
 20
-165.6856103822425
 30
0.0
 11
-187.8038130304545
 21
-170.7951602645707
 31
0.0
  0
LINE
  5
F1
330
55
100
AcDbEntity
  8
0
  6
Continuous
 62
     7
100
AcDbLine
 10
-188.1014428250988
 20
-183.3820803522546
 30
0.0
 11
-183.5981107254197
 21
-184.6820803522546
 31
0.0
  0
LINE
  5
F2
330
55
100
AcDbEntity
  8
0
  6
Continuous
 62
     7
100
AcDbLine
 10
-183.5981107254197
 20
-186.8471438617157
 30
0.0
 11
-188.9982414941167
 21
-185.2882603852325
 31
0.0
  0
LINE
  5
F3
330
55
100
AcDbEntity
  8
0
  6
Continuous
 62
     7
100
AcDbLine
 10
-179.2679837064975
 20
-188.0971438617157
 30
0.0
 11
-179.2679837064975
 21
-185.9320803522546
 31
0.0
  0
LINE
  5
F4
330
55
100
AcDbEntity
  8
0
  6
Continuous
 62
     7
100
AcDbLine
 10
-178.2481107254197
 20
-181.2988444420079
 30
0.0
 11
-178.2481107254197
 21
-180.0488444420079
 31
0.0
  0
LINE
  5
F5
330
55
100
AcDbEntity
  8
0
  6
Continuous
 62
     7
100
AcDbLine
 10
-178.2665063345599
 20
-171.6038166025755
 30
0.0
 11
-178.2665063345599
 21
-168.3625946902929
 31
0.0
  0
LINE
  5
F6
330
55
100
AcDbEntity
  8
0
  6
Continuous
 62
     7
100
AcDbLine
 10
-177.5165063345599
 20
-169.550192944542
 30
0.0
 11
-177.5165063345599
 21
-170.9542975497371
 31
0.0
  0
LINE
  5
F7
330
55
100
AcDbEntity
  8
0
  6
Continuous
 62
     7
100
AcDbLine
 10
-178.2665063345599
 20
-171.6038166025755
 30
0.0
 11
-177.5165063345599
 21
-170.9542975497371
 31
0.0
  0
LINE
  5
F8
330
55
100
AcDbEntity
  8
0
  6
Continuous
 62
     7
100
AcDbLine
 10
-175.3514428250988
 20
-172.3402564540031
 30
0.0
 11
-177.5165063345599
 21
-169.550192944542
 31
0.0
  0
LINE
  5
F9
330
55
100
AcDbEntity
  8
0
  6
Continuous
 62
     7
100
AcDbLine
 10
-178.2873724193096
 20
-171.6186591675015
 30
0.0
 11
-176.2482414941167
 21
-174.2464364869809
 31
0.0
  0
LINE
  5
FA
330
55
100
AcDbEntity
  8
0
  6
Continuous
 62
     7
100
AcDbLine
 10
-178.2481107254197
 20
-180.0488444420079
 30
0.0
 11
-182.7514428250988
 21
-178.7488444420079
 31
0.0
  0
LINE
  5
FB
330
55
100
AcDbEntity
  8
0
  6
Continuous
 62
     7
100
AcDbLine
 10
-185.7934906426103
 20
-171.3754903504606
 30
0.0
 11
-187.8038130304545
 21
-170.7951602645707
 31
0.0
  0
LINE
  5
FC
330
55
100
AcDbEntity
  8
0
  6
Continuous
 62
     7
100
AcDbLine
 10
-184.6602383257516
 20
-172.8358844324183
 30
0.0
 11
-181.9038130304545
 21
-170.4487501030569
 31
0.0
  0
LINE
  5
FD
330
55
100
AcDbEntity
  8
0
  6
Continuous
 62
     7
100
AcDbLine
 10
-185.7934906426103
 20
-171.3754903504606
 30
0.0
 11
-184.1665063345599
 21
-173.4721445726211
 31
0.0
  0
LINE
  5
FE
330
55
100
AcDbEntity
  8
0
  6
Continuous
 62
     7
100
AcDbLine
 10
-182.7514428250988
 20
-178.7488444420079
 30
0.0
 11
-184.9165063345599
 21
-175.9587809325468
 31
0.0
  0
LINE
  5
FF
330
55
100
AcDbEntity
  8
0
  6
Continuous
 62
     7
100
AcDbLine
 10
-190.2665063345599
 20
-180.5920168427935
 30
0.0
 11
-190.2665063345599
 21
-181.9961214479887
 31
0.0
  0
LINE
  5
100
330
55
100
AcDbEntity
  8
0
  6
Continuous
 62
     7
100
AcDbLine
 10
-184.1665063345599
 20
-176.7133664849036
 30
0.0
 11
-184.2648591194665
 21
-176.7985424951657
 31
0.0
  0
LINE
  5
101
330
55
100
AcDbEntity
  8
0
  6
Continuous
 62
     7
100
AcDbLine
 10
-184.9165063345599
 20
-175.9587809325468
 30
0.0
 11
-190.2665063345599
 21
-180.5920168427935
 31
0.0
  0
LINE
  5
102
330
55
100
AcDbEntity
  8
0
  6
Continuous
 62
     7
100
AcDbLine
 10
-184.1665063345599
 20
-176.7133664849036
 30
0.0
 11
-184.1665063345599
 21
-173.4721445726211
 31
0.0
  0
LINE
  5
103
330
55
100
AcDbEntity
  8
0
  6
Continuous
 62
     7
100
AcDbLine
 10
-191.0915063345599
 20
-182.7105924061109
 30
0.0
 11
-191.0915063345599
 21
-179.4693704938283
 31
0.0
  0
LINE
  5
104
330
55
100
AcDbEntity
  8
0
  6
Continuous
 62
     7
100
AcDbLine
 10
-181.9038130304545
 20
-170.4487501030569
 30
0.0
 11
-181.8664477144496
 21
-170.4595365406838
 31
0.0
  0
LINE
  5
105
330
55
100
AcDbEntity
  8
0
  6
Continuous
 62
     7
100
AcDbLine
 10
-181.8664477144496
 20
-170.4595365406838
 30
0.0
 11
-180.0139437747455
 21
-172.8468123045194
 31
0.0
  0
LINE
  5
106
330
55
100
AcDbEntity
  8
0
  6
Continuous
 62
     7
100
AcDbLine
 10
-192.7184906426103
 20
-177.3727162716679
 30
0.0
 11
-185.7934906426103
 21
-171.3754903504606
 31
0.0
  0
LINE
  5
107
330
55
100
AcDbEntity
  8
0
  6
Continuous
 62
     7
100
AcDbLine
 10
-190.2665063345599
 20
-181.9961214479887
 30
0.0
 11
-191.0915063345599
 21
-182.7105924061109
 31
0.0
  0
LINE
  5
108
330
55
100
AcDbEntity
  8
0
  6
Continuous
 62
     7
100
AcDbLine
 10
-190.2665063345599
 20
-180.5920168427935
 30
0.0
 11
-188.1014428250988
 21
-183.3820803522546
 31
0.0
  0
LINE
  5
109
330
55
100
AcDbEntity
  8
0
  6
Continuous
 62
     7
100
AcDbLine
 10
-192.8389437747455
 20
-183.9535881080549
 30
0.0
 11
-191.0915063345599
 21
-182.7105924061109
 31
0.0
  0
LINE
  5
10A
330
55
100
AcDbEntity
  8
0
  6
Continuous
 62
     7
100
AcDbLine
 10
-188.1014428250988
 20
-183.3820803522546
 30
0.0
 11
-182.7514428250988
 21
-178.7488444420079
 31
0.0
  0
LINE
  5
10B
330
55
100
AcDbEntity
  8
0
  6
Continuous
 62
     7
100
AcDbLine
 10
-184.1665063345599
 20
-173.4721445726211
 30
0.0
 11
-191.0915063345599
 21
-179.4693704938283
 31
0.0
  0
LINE
  5
10C
330
55
100
AcDbEntity
  8
0
  6
Continuous
 62
     7
100
AcDbLine
 10
-209.2780398140331
 20
-172.5923861857779
 30
0.0
 11
-189.5280398140331
 21
-155.4883844610353
 31
0.0
  0
SPLINE
  5
10D
330
55
100
AcDbEntity
  8
0
  6
Continuous
 62
     7
100
AcDbSpline
210
0.0
220
0.0
230
1.0
 70
     8
 71
     3
 72
    17
 73
    13
 74
    11
 42
0.000000001
 43
0.0000000001
 44
0.00000001
 40
0.0
 40
0.0
 40
0.0
 40
0.0
 40
0.3345508323064457
 40
0.7260392941716289
 40
1.200239106591486
 40
1.754805029209872
 40
2.37055303543029
 40
3.019000841717621
 40
3.667448647781924
 40
4.283196653093264
 40
4.837762576318828
 40
5.311962394412359
 40
5.311962394412359
 40
5.311962394412359
 40
5.311962394412359
 10
-178.5830472159586
 20
-180.6738444420079
 30
0.0
 10
-178.5639977685728
 20
-180.7858622948442
 30
0.0
 10
-178.522656813287
 20
-181.0289624555734
 30
0.0
 10
-178.2360183833422
 20
-181.3332842652217
 30
0.0
 10
-177.8353822051988
 20
-181.5853468393671
 30
0.0
 10
-177.3170227555146
 20
-181.7767237748233
 30
0.0
 10
-176.7211737037003
 20
-181.8968293824738
 30
0.0
 10
-176.083140136835
 20
-181.9375592863108
 30
0.0
 10
-175.4445584672456
 20
-181.8973833743392
 30
0.0
 10
-174.8502204476925
 20
-181.7747234724634
 30
0.0
 10
-174.3271380030292
 20
-181.5916269520865
 30
0.0
 10
-174.0470757463374
 20
-181.3912200904695
 30
0.0
 10
-173.9179837064975
 20
-181.2988444420079
 30
0.0
 11
-178.5830472159586
 21
-180.6738444420079
 31
0.0
 11
-178.4978611378778
 21
-180.9973681621327
 31
0.0
 11
-178.2481107254197
 21
-181.2988444420079
 31
0.0
 11
-177.8508136976281
 21
-181.5577276828427
 31
0.0
 11
-177.3330472159586
 21
-181.7563761967385
 31
0.0
 11
-176.7300946562083
 21
-181.8812514029675
 31
0.0
 11
-176.0830472159586
 21
-181.9238444420079
 31
0.0
 11
-175.4359997757089
 21
-181.8812514029675
 31
0.0
 11
-174.8330472159586
 21
-181.7563761967385
 31
0.0
 11
-174.3152807342891
 21
-181.5577276828427
 31
0.0
 11
-173.9179837064975
 21
-181.2988444420079
 31
0.0
  0
SPLINE
  5
10E
330
55
100
AcDbEntity
  8
0
  6
Continuous
 62
     7
100
AcDbSpline
210
0.0
220
0.0
230
1.0
 70
     8
 71
     3
 72
     9
 73
     5
 74
     3
 42
0.000000001
 43
0.0000000001
 44
0.00000001
 40
0.0
 40
0.0
 40
0.0
 40
0.0
 40
0.3345508390968426
 40
0.7260392989052675
 40
0.7260392989052675
 40
0.7260392989052675
 40
0.7260392989052675
 10
-166.1830472159586
 20
-174.2652564540031
 30
0.0
 10
-166.2015939094409
 20
-174.3781582147274
 30
0.0
 10
-166.2418437992852
 20
-174.6231766197354
 30
0.0
 10
-166.4212473234575
 20
-174.796693973697
 30
0.0
 10
-166.5179837064975
 20
-174.8902564540031
 30
0.0
 11
-166.1830472159586
 21
-174.2652564540031
 31
0.0
 11
-166.2682332940394
 21
-174.5887801741279
 31
0.0
 11
-166.5179837064975
 21
-174.8902564540031
 31
0.0
  0
SPLINE
  5
10F
330
55
100
AcDbEntity
  8
0
  6
Continuous
 62
     7
100
AcDbSpline
210
0.0
220
0.0
230
1.0
 70
     8
 71
     3
 72
    17
 73
    13
 74
    11
 42
0.000000001
 43
0.0000000001
 44
0.00000001
 40
0.0
 40
0.0
 40
0.0
 40
0.0
 40
0.4741998180934917
 40
1.028765741319092
 40
1.644513746630427
 40
2.292961552694732
 40
2.941409358982032
 40
3.557157365202484
 40
4.111723287820871
 40
4.585923100240727
 40
4.977411562105928
 40
5.311962394412366
 40
5.311962394412366
 40
5.311962394412366
 40
5.311962394412366
 10
-161.1679837064975
 20
-170.2570205437563
 30
0.0
 10
-161.2970757463375
 20
-170.349396192218
 30
0.0
 10
-161.5771380030291
 20
-170.5498030538348
 30
0.0
 10
-162.1002204476925
 20
-170.7328995742118
 30
0.0
 10
-162.6945584672456
 20
-170.8555594760875
 30
0.0
 10
-163.3331401368351
 20
-170.8957353880592
 30
0.0
 10
-163.9711737037002
 20
-170.8550054842222
 30
0.0
 10
-164.5670227555146
 20
-170.7348998765717
 30
0.0
 10
-165.0853822051988
 20
-170.5435229411156
 30
0.0
 10
-165.4860183833422
 20
-170.2914603669701
 30
0.0
 10
-165.7726568132871
 20
-169.9871385573218
 30
0.0
 10
-165.8139977685727
 20
-169.7440383965926
 30
0.0
 10
-165.8330472159586
 20
-169.6320205437563
 30
0.0
 11
-161.1679837064975
 21
-170.2570205437563
 31
0.0
 11
-161.5652807342891
 21
-170.5159037845911
 31
0.0
 11
-162.0830472159586
 21
-170.7145522984869
 31
0.0
 11
-162.6859997757089
 21
-170.8394275047159
 31
0.0
 11
-163.3330472159586
 21
-170.8820205437563
 31
0.0
 11
-163.9800946562083
 21
-170.839427504716
 31
0.0
 11
-164.5830472159586
 21
-170.7145522984869
 31
0.0
 11
-165.1008136976281
 21
-170.5159037845911
 31
0.0
 11
-165.4981107254197
 21
-170.2570205437563
 31
0.0
 11
-165.7478611378778
 21
-169.9555442638812
 31
0.0
 11
-165.8330472159586
 21
-169.6320205437563
 31
0.0
  0
SPLINE
  5
110
330
55
100
AcDbEntity
  8
0
  6
Continuous
 62
     7
100
AcDbSpline
210
0.0
220
0.0
230
1.0
 70
     8
 71
     3
 72
    15
 73
    11
 74
     9
 42
0.000000001
 43
0.0000000001
 44
0.00000001
 40
0.0
 40
0.0
 40
0.0
 40
0.0
 40
0.4741998113542621
 40
1.028765734435547
 40
1.644513738885243
 40
2.292961545690479
 40
2.941409352495744
 40
3.557157356945413
 40
4.111723280026714
 40
4.585923091380968
 40
4.585923091380968
 40
4.585923091380968
 40
4.585923091380968
 10
-170.8481107254197
 20
-175.8053199634641
 30
0.0
 10
-170.7190183420484
 20
-175.7129437091183
 30
0.0
 10
-170.4389553338805
 20
-175.5125355394388
 30
0.0
 10
-169.9158794980729
 20
-175.3294505972162
 30
0.0
 10
-169.3215123850185
 20
-175.2067395586152
 30
0.0
 10
-168.6830472159586
 20
-175.166768464949
 30
0.0
 10
-168.0445820468987
 20
-175.2067395586153
 30
0.0
 10
-167.4502149338443
 20
-175.3294505972162
 30
0.0
 10
-166.9271390980367
 20
-175.5125355394388
 30
0.0
 10
-166.6470760898688
 20
-175.7129437091182
 30
0.0
 10
-166.5179837064975
 20
-175.8053199634641
 30
0.0
 11
-170.8481107254197
 21
-175.8053199634641
 31
0.0
 11
-170.4508136976281
 21
-175.5464367226294
 31
0.0
 11
-169.9330472159586
 21
-175.3477882087336
 31
0.0
 11
-169.3300946562082
 21
-175.2229130025045
 31
0.0
 11
-168.6830472159586
 21
-175.1803199634641
 31
0.0
 11
-168.0359997757089
 21
-175.2229130025045
 31
0.0
 11
-167.4330472159586
 21
-175.3477882087336
 31
0.0
 11
-166.9152807342891
 21
-175.5464367226294
 31
0.0
 11
-166.5179837064975
 21
-175.8053199634641
 31
0.0
  0
SPLINE
  5
111
330
55
100
AcDbEntity
  8
0
  6
Continuous
 62
     7
100
AcDbSpline
210
0.0
220
0.0
230
1.0
 70
     8
 71
     3
 72
     9
 73
     5
 74
     3
 42
0.000000001
 43
0.0000000001
 44
0.00000001
 40
0.0
 40
0.0
 40
0.0
 40
0.0
 40
0.3345508390968079
 40
0.7260392989052729
 40
0.7260392989052729
 40
0.7260392989052729
 40
0.7260392989052729
 10
-165.8330472159586
 20
-169.6320205437563
 30
0.0
 10
-165.8145005224763
 20
-169.519118783032
 30
0.0
 10
-165.774250632632
 20
-169.274100378024
 30
0.0
 10
-165.5948471084596
 20
-169.1005830240624
 30
0.0
 10
-165.4981107254197
 20
-169.0070205437563
 30
0.0
 11
-165.8330472159586
 21
-169.6320205437563
 31
0.0
 11
-165.7478611378778
 21
-169.3084968236315
 31
0.0
 11
-165.4981107254197
 21
-169.0070205437563
 31
0.0
  0
SPLINE
  5
112
330
55
100
AcDbEntity
  8
0
  6
Continuous
 62
     7
100
AcDbSpline
210
0.0
220
0.0
230
1.0
 70
     8
 71
     3
 72
    17
 73
    13
 74
    11
 42
0.000000001
 43
0.0000000001
 44
0.00000001
 40
0.0
 40
0.0
 40
0.0
 40
0.0
 40
0.4741998180935155
 40
1.028765741319079
 40
1.644513746630447
 40
2.292961552694724
 40
2.941409358982055
 40
3.557157365202479
 40
4.111723287820881
 40
4.585923100240715
 40
4.977411562105854
 40
5.311962394412355
 40
5.311962394412355
 40
5.311962394412355
 40
5.311962394412355
 10
-170.8481107254197
 20
-173.6402564540031
 30
0.0
 10
-170.7190186855798
 20
-173.5478808055415
 30
0.0
 10
-170.438956428888
 20
-173.3474739439245
 30
0.0
 10
-169.9158739842247
 20
-173.1643774235476
 30
0.0
 10
-169.3215359646715
 20
-173.0417175216718
 30
0.0
 10
-168.6829542950822
 20
-173.0015416097002
 30
0.0
 10
-168.044920728217
 20
-173.0422715135373
 30
0.0
 10
-167.4490716764026
 20
-173.1623771211877
 30
0.0
 10
-166.9307122267184
 20
-173.3537540566438
 30
0.0
 10
-166.5300760485751
 20
-173.6058166307893
 30
0.0
 10
-166.2434376186301
 20
-173.9101384404375
 30
0.0
 10
-166.2020966633445
 20
-174.1532386011667
 30
0.0
 10
-166.1830472159586
 20
-174.2652564540031
 30
0.0
 11
-170.8481107254197
 21
-173.6402564540031
 31
0.0
 11
-170.4508136976281
 21
-173.3813732131683
 31
0.0
 11
-169.9330472159586
 21
-173.1827246992725
 31
0.0
 11
-169.3300946562082
 21
-173.0578494930435
 31
0.0
 11
-168.6830472159586
 21
-173.0152564540031
 31
0.0
 11
-168.0359997757089
 21
-173.0578494930435
 31
0.0
 11
-167.4330472159586
 21
-173.1827246992725
 31
0.0
 11
-166.9152807342891
 21
-173.3813732131683
 31
0.0
 11
-166.5179837064975
 21
-173.6402564540031
 31
0.0
 11
-166.2682332940394
 21
-173.9417327338782
 31
0.0
 11
-166.1830472159586
 21
-174.2652564540031
 31
0.0
  0
SPLINE
  5
113
330
55
100
AcDbEntity
  8
0
  6
Continuous
 62
     7
100
AcDbSpline
210
0.0
220
0.0
230
1.0
 70
     8
 71
     3
 72
     9
 73
     5
 74
     3
 42
0.000000001
 43
0.0000000001
 44
0.00000001
 40
0.0
 40
0.0
 40
0.0
 40
0.0
 40
0.3914884598084429
 40
0.7260392989052784
 40
0.7260392989052784
 40
0.7260392989052784
 40
0.7260392989052784
 10
-178.2481107254197
 20
-180.0488444420079
 30
0.0
 10
-178.3448471084596
 20
-180.1424069223139
 30
0.0
 10
-178.524250632632
 20
-180.3159242762756
 30
0.0
 10
-178.5645005224763
 20
-180.5609426812836
 30
0.0
 10
-178.5830472159586
 20
-180.6738444420079
 30
0.0
 11
-178.2481107254197
 21
-180.0488444420079
 31
0.0
 11
-178.4978611378778
 21
-180.3503207218831
 31
0.0
 11
-178.5830472159586
 21
-180.6738444420079
 31
0.0
  0
SPLINE
  5
114
330
55
100
AcDbEntity
  8
0
  6
Continuous
 62
     7
100
AcDbSpline
210
0.0
220
0.0
230
1.0
 70
     8
 71
     3
 72
     9
 73
     5
 74
     3
 42
0.000000001
 43
0.0000000001
 44
0.00000001
 40
0.0
 40
0.0
 40
0.0
 40
0.0
 40
0.391488459808381
 40
0.7260392989052786
 40
0.7260392989052786
 40
0.7260392989052786
 40
0.7260392989052786
 10
-179.2679837064975
 20
-185.9320803522546
 30
0.0
 10
-179.1712473234575
 20
-185.8385178719485
 30
0.0
 10
-178.9918437992853
 20
-185.665000517987
 30
0.0
 10
-178.9515939094409
 20
-185.4199821129789
 30
0.0
 10
-178.9330472159586
 20
-185.3070803522546
 30
0.0
 11
-179.2679837064975
 21
-185.9320803522546
 31
0.0
 11
-179.0182332940394
 21
-185.6306040723795
 31
0.0
 11
-178.9330472159586
 21
-185.3070803522546
 31
0.0
  0
SPLINE
  5
115
330
55
100
AcDbEntity
  8
0
  6
Continuous
 62
     7
100
AcDbSpline
210
0.0
220
0.0
230
1.0
 70
     8
 71
     3
 72
    15
 73
    11
 74
     9
 42
0.000000001
 43
0.0000000001
 44
0.00000001
 40
0.0
 40
0.0
 40
0.0
 40
0.0
 40
0.4741998113542777
 40
1.028765734435552
 40
1.644513738885248
 40
2.292961545690485
 40
2.94140935249575
 40
3.557157356945418
 40
4.11172328002672
 40
4.585923091380973
 40
4.585923091380973
 40
4.585923091380973
 40
4.585923091380973
 10
-179.2679837064975
 20
-186.8471438617157
 30
0.0
 10
-179.3970760898688
 20
-186.7547676073699
 30
0.0
 10
-179.6771390980366
 20
-186.5543594376903
 30
0.0
 10
-180.2002149338445
 20
-186.371274495468
 30
0.0
 10
-180.7945820468986
 20
-186.2485634568668
 30
0.0
 10
-181.4330472159586
 20
-186.2085923632006
 30
0.0
 10
-182.0715123850186
 20
-186.2485634568669
 30
0.0
 10
-182.6658794980728
 20
-186.3712744954678
 30
0.0
 10
-183.1889553338806
 20
-186.5543594376904
 30
0.0
 10
-183.4690183420484
 20
-186.7547676073698
 30
0.0
 10
-183.5981107254197
 20
-186.8471438617157
 30
0.0
 11
-179.2679837064975
 21
-186.8471438617157
 31
0.0
 11
-179.6652807342891
 21
-186.588260620881
 31
0.0
 11
-180.1830472159586
 21
-186.3896121069852
 31
0.0
 11
-180.7859997757089
 21
-186.2647369007561
 31
0.0
 11
-181.4330472159586
 21
-186.2221438617157
 31
0.0
 11
-182.0800946562083
 21
-186.2647369007561
 31
0.0
 11
-182.6830472159586
 21
-186.3896121069852
 31
0.0
 11
-183.2008136976281
 21
-186.588260620881
 31
0.0
 11
-183.5981107254197
 21
-186.8471438617157
 31
0.0
  0
SPLINE
  5
116
330
55
100
AcDbEntity
  8
0
  6
Continuous
 62
     7
100
AcDbSpline
210
0.0
220
0.0
230
1.0
 70
     8
 71
     3
 72
    17
 73
    13
 74
    11
 42
0.000000001
 43
0.0000000001
 44
0.00000001
 40
0.0
 40
0.0
 40
0.0
 40
0.0
 40
0.3345508323063908
 40
0.7260392941715521
 40
1.200239106591393
 40
1.75480502920977
 40
2.370553035430233
 40
3.019000841717539
 40
3.667448647781848
 40
4.2831966530932
 40
4.83776257631878
 40
5.311962394412225
 40
5.311962394412225
 40
5.311962394412225
 40
5.311962394412225
 10
-178.9330472159586
 20
-185.3070803522546
 30
0.0
 10
-178.9520966633444
 20
-185.1950624994182
 30
0.0
 10
-178.9934376186302
 20
-184.9519623386891
 30
0.0
 10
-179.280076048575
 20
-184.6476405290408
 30
0.0
 10
-179.6807122267184
 20
-184.3955779548955
 30
0.0
 10
-180.1990716764026
 20
-184.2042010194394
 30
0.0
 10
-180.7949207282169
 20
-184.0840954117888
 30
0.0
 10
-181.4329542950823
 20
-184.0433655079516
 30
0.0
 10
-182.0715359646716
 20
-184.0835414199234
 30
0.0
 10
-182.6658739842246
 20
-184.2062013217993
 30
0.0
 10
-183.188956428888
 20
-184.3892978421761
 30
0.0
 10
-183.4690186855798
 20
-184.5897047037929
 30
0.0
 10
-183.5981107254197
 20
-184.6820803522546
 30
0.0
 11
-178.9330472159586
 21
-185.3070803522546
 31
0.0
 11
-179.0182332940394
 21
-184.9835566321298
 31
0.0
 11
-179.2679837064975
 21
-184.6820803522546
 31
0.0
 11
-179.6652807342891
 21
-184.4231971114199
 31
0.0
 11
-180.1830472159586
 21
-184.2245485975241
 31
0.0
 11
-180.7859997757089
 21
-184.099673391295
 31
0.0
 11
-181.4330472159586
 21
-184.0570803522546
 31
0.0
 11
-182.0800946562083
 21
-184.099673391295
 31
0.0
 11
-182.6830472159586
 21
-184.2245485975241
 31
0.0
 11
-183.2008136976281
 21
-184.4231971114199
 31
0.0
 11
-183.5981107254197
 21
-184.6820803522546
 31
0.0
  0
ENDBLK
  5
57
330
55
100
AcDbEntity
  8
0
100
AcDbBlockEnd
  0
BLOCK
  5
5A
330
58
100
AcDbEntity
  8
0
100
AcDbBlockBegin
  2
Gen1
 70
     0
 10
-181.0
 20
-173.2500000000171
 30
0.0
  3
Gen1
  1

  0
INSERT
  5
59
330
58
100
AcDbEntity
  8
0
100
AcDbBlockReference
  2
EB_2_25-select__3
 10
-209.2780398140331
 20
-190.2971438617157
 30
0.0
  0
ENDBLK
  5
5B
330
58
100
AcDbEntity
  8
0
100
AcDbBlockEnd
  0
BLOCK
  5
5D
330
5C
100
AcDbEntity
  8
0
100
AcDbBlockBegin
  2
EB_2_25-select__4
 70
     0
 10
-255.74999999996
 20
-118.4999995793217
 30
0.0
  3
EB_2_25-select__4
  1

  0
LINE
  5
117
330
5C
100
AcDbEntity
  8
0
  6
Continuous
 62
     7
100
AcDbLine
 10
-255.74999999996
 20
-114.9999995793218
 30
0.0
 11
-255.74999999996
 21
-117.1390868758477
 31
0.0
  0
LINE
  5
118
330
5C
100
AcDbEntity
  8
0
  6
Continuous
 62
     7
100
AcDbLine
 10
-255.7499999999599
 20
-109.4999995793217
 30
0.0
 11
-255.74999999996
 21
-114.9999995793218
 31
0.0
  0
LINE
  5
119
330
5C
100
AcDbEntity
  8
0
  6
Continuous
 62
     7
100
AcDbLine
 10
-216.24999999996
 20
-114.9999995793217
 30
0.0
 11
-216.24999999996
 21
-117.1390868758477
 31
0.0
  0
LINE
  5
11A
330
5C
100
AcDbEntity
  8
0
  6
Continuous
 62
     7
100
AcDbLine
 10
-217.89999999996
 20
-118.4999995793217
 30
0.0
 11
-217.89999999996
 21
-117.1390868758477
 31
0.0
  0
LINE
  5
11B
330
5C
100
AcDbEntity
  8
0
  6
Continuous
 62
     7
100
AcDbLine
 10
-216.2499999999599
 20
-109.4999995793217
 30
0.0
 11
-216.24999999996
 21
-114.9999995793217
 31
0.0
  0
LINE
  5
11C
330
5C
100
AcDbEntity
  8
0
  6
Continuous
 62
     7
100
AcDbLine
 10
-241.89999999996
 20
-117.1390868758477
 30
0.0
 11
-255.74999999996
 21
-117.1390868758477
 31
0.0
  0
LINE
  5
11D
330
5C
100
AcDbEntity
  8
0
  6
Continuous
 62
     7
100
AcDbLine
 10
-230.09999999996
 20
-117.1390868758477
 30
0.0
 11
-216.24999999996
 21
-117.1390868758477
 31
0.0
  0
LINE
  5
11E
330
5C
100
AcDbEntity
  8
0
  6
Continuous
 62
     7
100
AcDbLine
 10
-230.09999999996
 20
-114.9999995793217
 30
0.0
 11
-230.09999999996
 21
-117.1390868758477
 31
0.0
  0
LINE
  5
11F
330
5C
100
AcDbEntity
  8
0
  6
Continuous
 62
     7
100
AcDbLine
 10
-228.59999999996
 20
-118.4999995793217
 30
0.0
 11
-228.59999999996
 21
-117.1390868758477
 31
0.0
  0
LINE
  5
120
330
5C
100
AcDbEntity
  8
0
  6
Continuous
 62
     7
100
AcDbLine
 10
-230.09999999996
 20
-114.9999995793217
 30
0.0
 11
-241.89999999996
 21
-114.9999995793217
 31
0.0
  0
LINE
  5
121
330
5C
100
AcDbEntity
  8
0
  6
Continuous
 62
     7
100
AcDbLine
 10
-216.24999999996
 20
-114.9999995793217
 30
0.0
 11
-230.09999999996
 21
-114.9999995793217
 31
0.0
  0
LINE
  5
122
330
5C
100
AcDbEntity
  8
0
  6
Continuous
 62
     7
100
AcDbLine
 10
-217.89999999996
 20
-118.4999995793217
 30
0.0
 11
-228.59999999996
 21
-118.4999995793217
 31
0.0
  0
LINE
  5
123
330
5C
100
AcDbEntity
  8
0
  6
Continuous
 62
     7
100
AcDbLine
 10
-254.09999999996
 20
-118.4999995793217
 30
0.0
 11
-243.39999999996
 21
-118.4999995793217
 31
0.0
  0
LINE
  5
124
330
5C
100
AcDbEntity
  8
0
  6
Continuous
 62
     7
100
AcDbLine
 10
-241.89999999996
 20
-114.9999995793217
 30
0.0
 11
-241.89999999996
 21
-117.1390868758477
 31
0.0
  0
LINE
  5
125
330
5C
100
AcDbEntity
  8
0
  6
Continuous
 62
     7
100
AcDbLine
 10
-241.89999999996
 20
-114.9999995793217
 30
0.0
 11
-255.74999999996
 21
-114.9999995793218
 31
0.0
  0
LINE
  5
126
330
5C
100
AcDbEntity
  8
0
  6
Continuous
 62
     7
100
AcDbLine
 10
-243.39999999996
 20
-117.1390868758477
 30
0.0
 11
-243.39999999996
 21
-118.4999995793217
 31
0.0
  0
LINE
  5
127
330
5C
100
AcDbEntity
  8
0
  6
Continuous
 62
     7
100
AcDbLine
 10
-254.09999999996
 20
-118.4999995793217
 30
0.0
 11
-254.09999999996
 21
-117.1390868758477
 31
0.0
  0
LINE
  5
128
330
5C
100
AcDbEntity
  8
0
  6
Continuous
 62
     7
100
AcDbLine
 10
-216.2499999999599
 20
-109.4999995793217
 30
0.0
 11
-255.7499999999599
 21
-109.4999995793217
 31
0.0
  0
ENDBLK
  5
5E
330
5C
100
AcDbEntity
  8
0
100
AcDbBlockEnd
  0
BLOCK
  5
61
330
5F
100
AcDbEntity
  8
0
100
AcDbBlockBegin
  2
Left1
 70
     0
 10
-235.99999999998
 20
-114.000000000005
 30
0.0
  3
Left1
  1

  0
INSERT
  5
60
330
5F
100
AcDbEntity
  8
0
100
AcDbBlockReference
  2
EB_2_25-select__4
 10
-255.74999999996
 20
-118.4999995793217
 30
0.0
  0
ENDBLK
  5
62
330
5F
100
AcDbEntity
  8
0
100
AcDbBlockEnd
  0
BLOCK
  5
64
330
63
100
AcDbEntity
  8
0
100
AcDbBlockBegin
  2
EB_2_25-select__5
 70
     0
 10
-390.7499990463659
 20
-118.4999995793218
 30
0.0
  3
EB_2_25-select__5
  1

  0
LINE
  5
129
330
63
100
AcDbEntity
  8
0
  6
Continuous
 62
     7
100
AcDbLine
 10
-351.2499990463659
 20
-109.4999995793218
 30
0.0
 11
-365.0999990463659
 21
-109.4999995793218
 31
0.0
  0
LINE
  5
12A
330
63
100
AcDbEntity
  8
0
  6
Continuous
 62
     7
100
AcDbLine
 10
-365.0999990463659
 20
-109.4999995793218
 30
0.0
 11
-376.8999990463659
 21
-109.4999995793218
 31
0.0
  0
LINE
  5
12B
330
63
100
AcDbEntity
  8
0
  6
Continuous
 62
     7
100
AcDbLine
 10
-390.7499990463659
 20
-109.4999995793218
 30
0.0
 11
-390.7499990463659
 21
-111.3786792357621
 31
0.0
  0
LINE
  5
12C
330
63
100
AcDbEntity
  8
0
  6
Continuous
 62
     7
100
AcDbLine
 10
-351.2499990463659
 20
-109.4999995793218
 30
0.0
 11
-351.2499990463659
 21
-111.3786792357621
 31
0.0
  0
LINE
  5
12D
330
63
100
AcDbEntity
  8
0
  6
Continuous
 62
     7
100
AcDbLine
 10
-376.8999990463659
 20
-111.3786792357621
 30
0.0
 11
-390.7499990463659
 21
-111.3786792357621
 31
0.0
  0
LINE
  5
12E
330
63
100
AcDbEntity
  8
0
  6
Continuous
 62
     7
100
AcDbLine
 10
-389.0999990463659
 20
-113.4999995793218
 30
0.0
 11
-389.0999990463659
 21
-115.1213199228814
 31
0.0
  0
LINE
  5
12F
330
63
100
AcDbEntity
  8
0
  6
Continuous
 62
     7
100
AcDbLine
 10
-378.3999990463659
 20
-115.1213199228814
 30
0.0
 11
-378.3999990463659
 21
-113.4999995793218
 31
0.0
  0
LINE
  5
130
330
63
100
AcDbEntity
  8
0
  6
Continuous
 62
     7
100
AcDbLine
 10
-390.7499990463659
 20
-115.1213199228814
 30
0.0
 11
-390.7499990463659
 21
-111.3786792357621
 31
0.0
  0
LINE
  5
131
330
63
100
AcDbEntity
  8
0
  6
Continuous
 62
     7
100
AcDbLine
 10
-352.8999990463659
 20
-115.1213199228814
 30
0.0
 11
-351.2499990463659
 21
-115.1213199228814
 31
0.0
  0
LINE
  5
132
330
63
100
AcDbEntity
  8
0
  6
Continuous
 62
     7
100
AcDbLine
 10
-389.0999990463659
 20
-115.1213199228814
 30
0.0
 11
-390.7499990463659
 21
-115.1213199228814
 31
0.0
  0
LINE
  5
133
330
63
100
AcDbEntity
  8
0
  6
Continuous
 62
     7
100
AcDbLine
 10
-378.3999990463659
 20
-113.4999995793218
 30
0.0
 11
-389.0999990463659
 21
-113.4999995793218
 31
0.0
  0
LINE
  5
134
330
63
100
AcDbEntity
  8
0
  6
Continuous
 62
     7
100
AcDbLine
 10
-351.2499990463659
 20
-115.1213199228814
 30
0.0
 11
-351.2499990463659
 21
-111.3786792357621
 31
0.0
  0
LINE
  5
135
330
63
100
AcDbEntity
  8
0
  6
Continuous
 62
     7
100
AcDbLine
 10
-351.2499990463659
 20
-117.1390868758478
 30
0.0
 11
-351.2499990463659
 21
-115.1213199228814
 31
0.0
  0
LINE
  5
136
330
63
100
AcDbEntity
  8
0
  6
Continuous
 62
     7
100
AcDbLine
 10
-352.8999990463659
 20
-115.9999995793218
 30
0.0
 11
-352.8999990463659
 21
-118.4999995793218
 31
0.0
  0
LINE
  5
137
330
63
100
AcDbEntity
  8
0
  6
Continuous
 62
     7
100
AcDbLine
 10
-376.8999990463659
 20
-115.1213199228814
 30
0.0
 11
-376.8999990463659
 21
-114.9999995793218
 31
0.0
  0
LINE
  5
138
330
63
100
AcDbEntity
  8
0
  6
Continuous
 62
     7
100
AcDbLine
 10
-376.8999990463659
 20
-117.1390868758478
 30
0.0
 11
-376.8999990463659
 21
-115.1213199228814
 31
0.0
  0
LINE
  5
139
330
63
100
AcDbEntity
  8
0
  6
Continuous
 62
     7
100
AcDbLine
 10
-365.0999990463659
 20
-117.1390868758478
 30
0.0
 11
-365.0999990463659
 21
-115.1213199228814
 31
0.0
  0
LINE
  5
13A
330
63
100
AcDbEntity
  8
0
  6
Continuous
 62
     7
100
AcDbLine
 10
-365.0999990463659
 20
-115.1213199228814
 30
0.0
 11
-363.5999990463659
 21
-115.1213199228814
 31
0.0
  0
LINE
  5
13B
330
63
100
AcDbEntity
  8
0
  6
Continuous
 62
     7
100
AcDbLine
 10
-363.5999990463659
 20
-115.1213199228814
 30
0.0
 11
-363.5999990463659
 21
-113.4999995793218
 31
0.0
  0
LINE
  5
13C
330
63
100
AcDbEntity
  8
0
  6
Continuous
 62
     7
100
AcDbLine
 10
-363.5999990463659
 20
-115.9999995793218
 30
0.0
 11
-363.5999990463659
 21
-115.1213199228814
 31
0.0
  0
LINE
  5
13D
330
63
100
AcDbEntity
  8
0
  6
Continuous
 62
     7
100
AcDbLine
 10
-376.8999990463659
 20
-114.9999995793218
 30
0.0
 11
-365.0999990463659
 21
-114.9999995793218
 31
0.0
  0
LINE
  5
13E
330
63
100
AcDbEntity
  8
0
  6
Continuous
 62
     7
100
AcDbLine
 10
-376.8999990463659
 20
-114.9999995793218
 30
0.0
 11
-376.8999990463659
 21
-111.3786792357621
 31
0.0
  0
LINE
  5
13F
330
63
100
AcDbEntity
  8
0
  6
Continuous
 62
     7
100
AcDbLine
 10
-378.3999990463659
 20
-118.4999995793218
 30
0.0
 11
-389.0999990463658
 21
-118.4999995793218
 31
0.0
  0
LINE
  5
140
330
63
100
AcDbEntity
  8
0
  6
Continuous
 62
     7
100
AcDbLine
 10
-389.0999990463658
 20
-118.4999995793218
 30
0.0
 11
-389.0999990463658
 21
-115.9999995793218
 31
0.0
  0
LINE
  5
141
330
63
100
AcDbEntity
  8
0
  6
Continuous
 62
     7
100
AcDbLine
 10
-378.3999990463659
 20
-115.9999995793218
 30
0.0
 11
-389.0999990463658
 21
-115.9999995793218
 31
0.0
  0
LINE
  5
142
330
63
100
AcDbEntity
  8
0
  6
Continuous
 62
     7
100
AcDbLine
 10
-376.8999990463659
 20
-117.1390868758478
 30
0.0
 11
-378.3999990463659
 21
-117.1390868758478
 31
0.0
  0
LINE
  5
143
330
63
100
AcDbEntity
  8
0
  6
Continuous
 62
     7
100
AcDbLine
 10
-389.0999990463658
 20
-117.1390868758478
 30
0.0
 11
-390.7499990463659
 21
-117.1390868758478
 31
0.0
  0
LINE
  5
144
330
63
100
AcDbEntity
  8
0
  6
Continuous
 62
     7
100
AcDbLine
 10
-390.7499990463659
 20
-117.1390868758478
 30
0.0
 11
-390.7499990463659
 21
-115.1213199228814
 31
0.0
  0
LINE
  5
145
330
63
100
AcDbEntity
  8
0
  6
Continuous
 62
     7
100
AcDbLine
 10
-389.0999990463659
 20
-115.1213199228814
 30
0.0
 11
-389.0999990463658
 21
-115.9999995793218
 31
0.0
  0
LINE
  5
146
330
63
100
AcDbEntity
  8
0
  6
Continuous
 62
     7
100
AcDbLine
 10
-378.3999990463659
 20
-115.9999995793218
 30
0.0
 11
-378.3999990463659
 21
-115.1213199228814
 31
0.0
  0
LINE
  5
147
330
63
100
AcDbEntity
  8
0
  6
Continuous
 62
     7
100
AcDbLine
 10
-376.8999990463659
 20
-115.1213199228814
 30
0.0
 11
-378.3999990463659
 21
-115.1213199228814
 31
0.0
  0
LINE
  5
148
330
63
100
AcDbEntity
  8
0
  6
Continuous
 62
     7
100
AcDbLine
 10
-352.8999990463659
 20
-115.1213199228814
 30
0.0
 11
-352.8999990463659
 21
-115.9999995793218
 31
0.0
  0
LINE
  5
149
330
63
100
AcDbEntity
  8
0
  6
Continuous
 62
     7
100
AcDbLine
 10
-363.5999990463658
 20
-118.4999995793218
 30
0.0
 11
-352.8999990463659
 21
-118.4999995793218
 31
0.0
  0
LINE
  5
14A
330
63
100
AcDbEntity
  8
0
  6
Continuous
 62
     7
100
AcDbLine
 10
-363.5999990463659
 20
-113.4999995793218
 30
0.0
 11
-352.8999990463659
 21
-113.4999995793218
 31
0.0
  0
LINE
  5
14B
330
63
100
AcDbEntity
  8
0
  6
Continuous
 62
     7
100
AcDbLine
 10
-365.0999990463659
 20
-109.4999995793218
 30
0.0
 11
-365.0999990463659
 21
-111.3786792357621
 31
0.0
  0
LINE
  5
14C
330
63
100
AcDbEntity
  8
0
  6
Continuous
 62
     7
100
AcDbLine
 10
-365.0999990463659
 20
-111.3786792357621
 30
0.0
 11
-351.2499990463659
 21
-111.3786792357621
 31
0.0
  0
LINE
  5
14D
330
63
100
AcDbEntity
  8
0
  6
Continuous
 62
     7
100
AcDbLine
 10
-376.8999990463659
 20
-109.4999995793218
 30
0.0
 11
-376.8999990463659
 21
-111.3786792357621
 31
0.0
  0
LINE
  5
14E
330
63
100
AcDbEntity
  8
0
  6
Continuous
 62
     7
100
AcDbLine
 10
-365.0999990463659
 20
-115.1213199228814
 30
0.0
 11
-365.0999990463659
 21
-114.9999995793218
 31
0.0
  0
LINE
  5
14F
330
63
100
AcDbEntity
  8
0
  6
Continuous
 62
     7
100
AcDbLine
 10
-352.8999990463659
 20
-117.1390868758478
 30
0.0
 11
-351.2499990463659
 21
-117.1390868758478
 31
0.0
  0
LINE
  5
150
330
63
100
AcDbEntity
  8
0
  6
Continuous
 62
     7
100
AcDbLine
 10
-365.0999990463659
 20
-117.1390868758478
 30
0.0
 11
-363.5999990463658
 21
-117.1390868758478
 31
0.0
  0
LINE
  5
151
330
63
100
AcDbEntity
  8
0
  6
Continuous
 62
     7
100
AcDbLine
 10
-352.8999990463659
 20
-115.9999995793218
 30
0.0
 11
-363.5999990463659
 21
-115.9999995793218
 31
0.0
  0
LINE
  5
152
330
63
100
AcDbEntity
  8
0
  6
Continuous
 62
     7
100
AcDbLine
 10
-352.8999990463659
 20
-113.4999995793218
 30
0.0
 11
-352.8999990463659
 21
-115.1213199228814
 31
0.0
  0
LINE
  5
153
330
63
100
AcDbEntity
  8
0
  6
Continuous
 62
     7
100
AcDbLine
 10
-365.0999990463659
 20
-114.9999995793218
 30
0.0
 11
-365.0999990463659
 21
-111.3786792357621
 31
0.0
  0
LINE
  5
154
330
63
100
AcDbEntity
  8
0
  6
Continuous
 62
     7
100
AcDbLine
 10
-363.5999990463658
 20
-118.4999995793218
 30
0.0
 11
-363.5999990463659
 21
-115.9999995793218
 31
0.0
  0
LINE
  5
155
330
63
100
AcDbEntity
  8
0
  6
Continuous
 62
     7
100
AcDbLine
 10
-378.3999990463659
 20
-118.4999995793218
 30
0.0
 11
-378.3999990463659
 21
-115.9999995793218
 31
0.0
  0
LINE
  5
156
330
63
100
AcDbEntity
  8
0
  6
Continuous
 62
     7
100
AcDbLine
 10
-390.7499990463659
 20
-109.4999995793218
 30
0.0
 11
-376.8999990463659
 21
-109.4999995793218
 31
0.0
  0
ENDBLK
  5
65
330
63
100
AcDbEntity
  8
0
100
AcDbBlockEnd
  0
BLOCK
  5
68
330
66
100
AcDbEntity
  8
0
100
AcDbBlockBegin
  2
Right1
 70
     0
 10
-370.9999990463458
 20
-114.000000000005
 30
0.0
  3
Right1
  1

  0
INSERT
  5
67
330
66
100
AcDbEntity
  8
0
100
AcDbBlockReference
  2
EB_2_25-select__5
 10
-390.7499990463659
 20
-118.4999995793218
 30
0.0
  0
ENDBLK
  5
69
330
66
100
AcDbEntity
  8
0
100
AcDbBlockEnd
  0
BLOCK
  5
6B
330
6A
100
AcDbEntity
  8
0
100
AcDbBlockBegin
  2
EB_2_25-select__6
 70
     0
 10
-318.2499995042101
 20
-188.0000000000402
 30
0.0
  3
EB_2_25-select__6
  1

  0
LINE
  5
157
330
6A
100
AcDbEntity
  8
0
  6
Continuous
 62
     7
100
AcDbLine
 10
-299.1286791606505
 20
-148.5000000000402
 30
0.0
 11
-318.2499995042101
 21
-148.5000000000402
 31
0.0
  0
LINE
  5
158
330
6A
100
AcDbEntity
  8
0
  6
Continuous
 62
     7
100
AcDbLine
 10
-299.1286791606505
 20
-162.3500000000402
 30
0.0
 11
-301.4499995042101
 21
-162.3500000000402
 31
0.0
  0
LINE
  5
159
330
6A
100
AcDbEntity
  8
0
  6
Continuous
 62
     7
100
AcDbLine
 10
-301.4499995042101
 20
-162.3500000000402
 30
0.0
 11
-301.44999950421
 21
-174.1500000000402
 31
0.0
  0
LINE
  5
15A
330
6A
100
AcDbEntity
  8
0
  6
Continuous
 62
     7
100
AcDbLine
 10
-299.1286791606505
 20
-174.1500000000402
 30
0.0
 11
-301.44999950421
 21
-174.1500000000402
 31
0.0
  0
LINE
  5
15B
330
6A
100
AcDbEntity
  8
0
  6
Continuous
 62
     7
100
AcDbLine
 10
-299.1286791606504
 20
-188.0000000000402
 30
0.0
 11
-318.2499995042101
 21
-188.0000000000402
 31
0.0
  0
LINE
  5
15C
330
6A
100
AcDbEntity
  8
0
  6
Continuous
 62
     7
100
AcDbLine
 10
-299.1286791606505
 20
-148.5000000000402
 30
0.0
 11
-299.1286791606505
 21
-162.3500000000402
 31
0.0
  0
LINE
  5
15D
330
6A
100
AcDbEntity
  8
0
  6
Continuous
 62
     7
100
AcDbLine
 10
-299.1286791606504
 20
-188.0000000000402
 30
0.0
 11
-299.1286791606505
 21
-174.1500000000402
 31
0.0
  0
LINE
  5
15E
330
6A
100
AcDbEntity
  8
0
  6
Continuous
 62
     7
100
AcDbLine
 10
-299.1286791606505
 20
-148.5000000000402
 30
0.0
 11
-297.2499995042101
 21
-148.5000000000401
 31
0.0
  0
LINE
  5
15F
330
6A
100
AcDbEntity
  8
0
  6
Continuous
 62
     7
100
AcDbLine
 10
-299.1286791606504
 20
-188.0000000000402
 30
0.0
 11
-297.2499995042101
 21
-188.0000000000401
 31
0.0
  0
LINE
  5
160
330
6A
100
AcDbEntity
  8
0
  6
Continuous
 62
     7
100
AcDbLine
 10
-318.2499995042101
 20
-188.0000000000402
 30
0.0
 11
-318.2499995042101
 21
-148.5000000000402
 31
0.0
  0
LINE
  5
161
330
6A
100
AcDbEntity
  8
0
  6
Continuous
 62
     7
100
AcDbLine
 10
-297.2499995042101
 20
-186.3500000000402
 30
0.0
 11
-297.2499995042101
 21
-188.0000000000401
 31
0.0
  0
LINE
  5
162
330
6A
100
AcDbEntity
  8
0
  6
Continuous
 62
     7
100
AcDbLine
 10
-297.2499995042101
 20
-150.1500000000402
 30
0.0
 11
-297.2499995042101
 21
-148.5000000000401
 31
0.0
  0
LINE
  5
163
330
6A
100
AcDbEntity
  8
0
  6
Continuous
 62
     7
100
AcDbLine
 10
-297.2499995042101
 20
-160.8500000000402
 30
0.0
 11
-297.2499995042101
 21
-150.1500000000402
 31
0.0
  0
LINE
  5
164
330
6A
100
AcDbEntity
  8
0
  6
Continuous
 62
     7
100
AcDbLine
 10
-294.7499995042101
 20
-150.1500000000401
 30
0.0
 11
-289.5499995042101
 21
-150.1500000000401
 31
0.0
  0
LINE
  5
165
330
6A
100
AcDbEntity
  8
0
  6
Continuous
 62
     7
100
AcDbLine
 10
-297.2499995042101
 20
-150.1500000000402
 30
0.0
 11
-294.7499995042101
 21
-150.1500000000401
 31
0.0
  0
LINE
  5
166
330
6A
100
AcDbEntity
  8
0
  6
Continuous
 62
     7
100
AcDbLine
 10
-297.2499995042101
 20
-186.3500000000402
 30
0.0
 11
-294.7499995042101
 21
-186.3500000000402
 31
0.0
  0
LINE
  5
167
330
6A
100
AcDbEntity
  8
0
  6
Continuous
 62
     7
100
AcDbLine
 10
-294.7499995042101
 20
-150.1500000000401
 30
0.0
 11
-294.7499995042101
 21
-160.8500000000402
 31
0.0
  0
LINE
  5
168
330
6A
100
AcDbEntity
  8
0
  6
Continuous
 62
     7
100
AcDbLine
 10
-294.7499995042101
 20
-175.6500000000401
 30
0.0
 11
-297.2499995042101
 21
-175.6500000000402
 31
0.0
  0
LINE
  5
169
330
6A
100
AcDbEntity
  8
0
  6
Continuous
 62
     7
100
AcDbLine
 10
-294.7499995042101
 20
-186.3500000000402
 30
0.0
 11
-294.7499995042101
 21
-175.6500000000401
 31
0.0
  0
LINE
  5
16A
330
6A
100
AcDbEntity
  8
0
  6
Continuous
 62
     7
100
AcDbLine
 10
-294.7499995042101
 20
-186.3500000000402
 30
0.0
 11
-289.5499995042101
 21
-186.3500000000401
 31
0.0
  0
LINE
  5
16B
330
6A
100
AcDbEntity
  8
0
  6
Continuous
 62
     7
100
AcDbLine
 10
-297.2499995042101
 20
-174.1500000000402
 30
0.0
 11
-297.2499995042101
 21
-175.6500000000402
 31
0.0
  0
LINE
  5
16C
330
6A
100
AcDbEntity
  8
0
  6
Continuous
 62
     7
100
AcDbLine
 10
-299.1286791606505
 20
-174.1500000000402
 30
0.0
 11
-297.2499995042101
 21
-174.1500000000402
 31
0.0
  0
LINE
  5
16D
330
6A
100
AcDbEntity
  8
0
  6
Continuous
 62
     7
100
AcDbLine
 10
-289.5499995042101
 20
-175.6500000000401
 30
0.0
 11
-294.7499995042101
 21
-175.6500000000401
 31
0.0
  0
LINE
  5
16E
330
6A
100
AcDbEntity
  8
0
  6
Continuous
 62
     7
100
AcDbLine
 10
-297.2499995042101
 20
-162.3500000000402
 30
0.0
 11
-297.2499995042101
 21
-160.8500000000402
 31
0.0
  0
LINE
  5
16F
330
6A
100
AcDbEntity
  8
0
  6
Continuous
 62
     7
100
AcDbLine
 10
-299.1286791606505
 20
-162.3500000000402
 30
0.0
 11
-297.2499995042101
 21
-162.3500000000402
 31
0.0
  0
LINE
  5
170
330
6A
100
AcDbEntity
  8
0
  6
Continuous
 62
     7
100
AcDbLine
 10
-289.5499995042101
 20
-160.8500000000401
 30
0.0
 11
-294.7499995042101
 21
-160.8500000000402
 31
0.0
  0
LINE
  5
171
330
6A
100
AcDbEntity
  8
0
  6
Continuous
 62
     7
100
AcDbLine
 10
-294.7499995042101
 20
-160.8500000000402
 30
0.0
 11
-297.2499995042101
 21
-160.8500000000402
 31
0.0
  0
LINE
  5
172
330
6A
100
AcDbEntity
  8
0
  6
Continuous
 62
     7
100
AcDbLine
 10
-297.2499995042101
 20
-175.6500000000402
 30
0.0
 11
-297.2499995042101
 21
-186.3500000000402
 31
0.0
  0
LINE
  5
173
330
6A
100
AcDbEntity
  8
0
  6
Continuous
 62
     7
100
AcDbLine
 10
-284.5499995042101
 20
-150.1500000000401
 30
0.0
 11
-275.7499995042101
 21
-150.1500000000401
 31
0.0
  0
LINE
  5
174
330
6A
100
AcDbEntity
  8
0
  6
Continuous
 62
     7
100
AcDbLine
 10
-275.7499995042101
 20
-150.1500000000401
 30
0.0
 11
-275.7499995042101
 21
-160.8500000000401
 31
0.0
  0
LINE
  5
175
330
6A
100
AcDbEntity
  8
0
  6
Continuous
 62
     7
100
AcDbLine
 10
-275.7499995042101
 20
-175.6500000000401
 30
0.0
 11
-284.5499995042101
 21
-175.6500000000401
 31
0.0
  0
LINE
  5
176
330
6A
100
AcDbEntity
  8
0
  6
Continuous
 62
     7
100
AcDbLine
 10
-284.5499995042101
 20
-186.3500000000401
 30
0.0
 11
-275.7499995042101
 21
-186.3500000000401
 31
0.0
  0
LINE
  5
177
330
6A
100
AcDbEntity
  8
0
  6
Continuous
 62
     7
100
AcDbLine
 10
-275.7499995042101
 20
-160.8500000000401
 30
0.0
 11
-284.5499995042101
 21
-160.8500000000401
 31
0.0
  0
LINE
  5
178
330
6A
100
AcDbEntity
  8
0
  6
Continuous
 62
     7
100
AcDbLine
 10
-275.7499995042101
 20
-186.3500000000401
 30
0.0
 11
-275.7499995042101
 21
-175.6500000000401
 31
0.0
  0
ARC
  5
179
330
6A
100
AcDbEntity
  8
0
  6
Continuous
 62
     7
100
AcDbCircle
 10
-287.0499995042101
 20
-175.6500000000401
 30
0.0
 40
2.5
100
AcDbArc
 50
180.0
 51
0.0
  0
ARC
  5
17A
330
6A
100
AcDbEntity
  8
0
  6
Continuous
 62
     7
100
AcDbCircle
 10
-287.0499995042101
 20
-150.1500000000401
 30
0.0
 40
2.5
100
AcDbArc
 50
180.0
 51
0.0
  0
ARC
  5
17B
330
6A
100
AcDbEntity
  8
0
  6
Continuous
 62
     7
100
AcDbCircle
 10
-287.0499995042101
 20
-186.3500000000401
 30
0.0
 40
2.5
100
AcDbArc
 50
0.0
 51
180.0
  0
ARC
  5
17C
330
6A
100
AcDbEntity
  8
0
  6
Continuous
 62
     7
100
AcDbCircle
 10
-287.0499995042101
 20
-160.8500000000401
 30
0.0
 40
2.5
100
AcDbArc
 50
0.0
 51
180.0
  0
ENDBLK
  5
6C
330
6A
100
AcDbEntity
  8
0
100
AcDbBlockEnd
  0
BLOCK
  5
6F
330
6D
100
AcDbEntity
  8
0
100
AcDbBlockBegin
  2
Top1
 70
     0
 10
-296.9999995231428
 20
-168.2500000000201
 30
0.0
  3
Top1
  1

  0
INSERT
  5
6E
330
6D
100
AcDbEntity
  8
0
100
AcDbBlockReference
  2
EB_2_25-select__6
 10
-318.2499995042101
 20
-188.0000000000402
 30
0.0
  0
DIMENSION
  5
187
330
6D
100
AcDbEntity
  8
1
100
AcDbDimension
  2
*D19
 10
-328.2499995042101
 20
-148.5000000000402
 30
0.0
 11
-331.6749995042101
 21
-168.2500000000402
 31
0.0
 70
    32
  1
<>
 71
     5
 42
-1.0
 53
90.0
  3
ME10_DIM_12
100
AcDbAlignedDimension
 13
-318.2499995042101
 23
-188.0000000000402
 33
0.0
 14
-318.2499995042101
 24
-148.5000000000402
 34
0.0
 50
90.0
100
AcDbRotatedDimension
  0
ENDBLK
  5
70
330
6D
100
AcDbEntity
  8
0
100
AcDbBlockEnd
  0
BLOCK
  5
72
330
71
100
AcDbEntity
  8
0
100
AcDbBlockBegin
  2
_rahmen
 70
     0
 10
-128.6672295997801
 20
-251.3823337441978
 30
0.0
  3
_rahmen
  1

  0
LINE
  5
188
330
71
100
AcDbEntity
  8
1
  6
DOT_CENTER
 62
     2
100
AcDbLine
 10
-254.2253792399675
 20
-225.2573337441978
 30
0.0
 11
-248.7253792399675
 21
-225.2573337441978
 31
0.0
  0
LINE
  5
189
330
71
100
AcDbEntity
  8
1
  6
PHANTOM
 62
     2
100
AcDbLine
 10
-245.4753792399675
 20
-222.5073337441978
 30
0.0
 11
-245.4753792399675
 21
-228.0073337441978
 31
0.0
  0
LINE
  5
18A
330
71
100
AcDbEntity
  8
1
  6
PHANTOM
 62
     2
100
AcDbLine
 10
-242.7253792399675
 20
-225.2573337441978
 30
0.0
 11
-248.2253792399675
 21
-225.2573337441978
 31
0.0
  0
LINE
  5
18B
330
71
100
AcDbEntity
  8
1
  6
Continuous
 62
     7
100
AcDbLine
 10
-193.9120341265301
 20
-237.8823337441978
 30
0.0
 11
-193.9120341265301
 21
-229.3823337441977
 31
0.0
  0
LINE
  5
18C
330
71
100
AcDbEntity
  8
1
  6
Continuous
 62
     6
100
AcDbLine
 10
-221.8120341265302
 20
-229.3823337441977
 30
0.0
 11
-128.6672295997784
 21
-229.3823337441977
 31
0.0
  0
LINE
  5
18D
330
71
100
AcDbEntity
  8
1
  6
Continuous
 62
     7
100
AcDbLine
 10
-258.2120341265302
 20
-229.3823337441977
 30
0.0
 11
-258.2120341265302
 21
-220.8823337441977
 31
0.0
  0
LINE
  5
18E
330
71
100
AcDbEntity
  8
1
  6
Continuous
 62
     7
100
AcDbLine
 10
-221.8120341265302
 20
-229.3823337441977
 30
0.0
 11
-221.8120341265302
 21
-220.8823337441977
 31
0.0
  0
LINE
  5
18F
330
71
100
AcDbEntity
  8
1
  6
Continuous
 62
     7
100
AcDbLine
 10
-164.0856378814573
 20
-220.8823337441977
 30
0.0
 11
-164.0856378814573
 21
-229.3823337441977
 31
0.0
  0
LINE
  5
190
330
71
100
AcDbEntity
  8
1
  6
Continuous
 62
     7
100
AcDbLine
 10
-137.5856378814576
 20
-220.8823337441977
 30
0.0
 11
-137.5856378814576
 21
-229.3823337441977
 31
0.0
  0
LINE
  5
191
330
71
100
AcDbEntity
  8
1
  6
Continuous
 62
     6
100
AcDbLine
 10
-327.2120341265301
 20
-246.3823337441977
 30
0.0
 11
-372.1672295997801
 21
-246.3823337441977
 31
0.0
  0
LINE
  5
192
330
71
100
AcDbEntity
  8
1
  6
Continuous
 62
     7
100
AcDbLine
 10
-128.6672295997788
 20
-237.8823337441977
 30
0.0
 11
-221.8120341265302
 21
-237.8823337441977
 31
0.0
  0
LINE
  5
193
102
{ACAD_REACTORS
330
2A5
330
2A6
102
}
330
71
100
AcDbEntity
  8
0
  6
Continuous
 62
     2
100
AcDbLine
 10
-244.5046051847627
 20
-237.0820446285344
 30
0.0
 11
-244.5046051847627
 21
-236.2095276217311
 31
0.0
  0
LINE
  5
194
102
{ACAD_REACTORS
330
2A5
330
2A6
102
}
330
71
100
AcDbEntity
  8
0
  6
Continuous
 62
     2
100
AcDbLine
 10
-244.5046051847627
 20
-238.0418133360173
 30
0.0
 11
-244.5046051847627
 21
-238.9143303428205
 31
0.0
  0
LINE
  5
195
102
{ACAD_REACTORS
330
2A7
330
2A8
102
}
330
71
100
AcDbEntity
  8
0
  6
Continuous
 62
     2
100
AcDbLine
 10
-229.1715610484722
 20
-236.8202895264939
 30
0.0
 11
-228.0679217489041
 21
-236.8202895264939
 31
0.0
  0
LINE
  5
196
102
{ACAD_REACTORS
330
2A7
330
2A8
102
}
330
71
100
AcDbEntity
  8
0
  6
Continuous
 62
     2
100
AcDbLine
 10
-228.4019037055108
 20
-238.0418133360178
 30
0.0
 11
-228.4019037055108
 21
-238.9143303428211
 31
0.0
  0
LINE
  5
197
102
{ACAD_REACTORS
330
2B1
330
2B2
102
}
330
71
100
AcDbEntity
  8
0
  6
Continuous
 62
     2
100
AcDbLine
 10
-230.2626603208908
 20
-235.7296432680071
 30
0.0
 11
-228.8647072739504
 21
-234.1487842742321
 31
0.0
  0
LINE
  5
198
102
{ACAD_REACTORS
330
2B1
330
2B2
102
}
330
71
100
AcDbEntity
  8
0
  6
Continuous
 62
     2
100
AcDbLine
 10
-230.1672369047179
 20
-232.6758337441959
 30
0.0
 11
-228.8647072739504
 21
-234.1487842742321
 31
0.0
  0
LINE
  5
199
102
{ACAD_REACTORS
330
2B1
330
2B2
102
}
330
71
100
AcDbEntity
  8
0
  6
Continuous
 62
     2
100
AcDbLine
 10
-227.562177643184
 20
-232.6758337441959
 30
0.0
 11
-226.1594534254368
 21
-232.6758337441959
 31
0.0
  0
LINE
  5
19A
102
{ACAD_REACTORS
330
2B1
330
2B2
102
}
330
71
100
AcDbEntity
  8
0
  6
Continuous
 62
     2
100
AcDbLine
 10
-228.8599361031425
 20
-235.7296432680071
 30
0.0
 11
-228.1633451650768
 21
-234.9419114827134
 31
0.0
  0
LINE
  5
19B
102
{ACAD_REACTORS
330
2B1
330
2B2
102
}
330
71
100
AcDbEntity
  8
0
  6
Continuous
 62
     2
100
AcDbLine
 10
-228.8599361031425
 20
-235.7296432680071
 30
0.0
 11
-230.2626603208908
 21
-235.7296432680071
 31
0.0
  0
LINE
  5
19C
102
{ACAD_REACTORS
330
2B3
330
2B4
102
}
330
71
100
AcDbEntity
  8
0
  6
Continuous
 62
     2
100
AcDbLine
 10
-230.3819395911076
 20
-235.7296432680071
 30
0.0
 11
-231.6224440013605
 21
-235.7296432680071
 31
0.0
  0
LINE
  5
19D
102
{ACAD_REACTORS
330
2B5
330
2B6
102
}
330
71
100
AcDbEntity
  8
0
  6
Continuous
 62
     2
100
AcDbLine
 10
-232.4904236095156
 20
-237.8673099346569
 30
0.0
 11
-232.7905888467057
 21
-237.0994949686702
 31
0.0
  0
LINE
  5
19E
102
{ACAD_REACTORS
330
2B5
330
2B6
102
}
330
71
100
AcDbEntity
  8
0
  6
Continuous
 62
     2
100
AcDbLine
 10
-233.0907540838981
 20
-237.8673099346569
 30
0.0
 11
-232.4904236095156
 21
-237.8673099346569
 31
0.0
  0
LINE
  5
19F
102
{ACAD_REACTORS
330
2B5
330
2B6
102
}
330
71
100
AcDbEntity
  8
0
  6
Continuous
 62
     2
100
AcDbLine
 10
-234.8087940987719
 20
-239.0888337441814
 30
0.0
 11
-233.568289688519
 21
-239.0888337441814
 31
0.0
  0
LINE
  5
1A0
102
{ACAD_REACTORS
330
2B5
330
2B6
102
}
330
71
100
AcDbEntity
  8
0
  6
Continuous
 62
     2
100
AcDbLine
 10
-233.4108410518326
 20
-236.0350242203703
 30
0.0
 11
-232.1703366415799
 21
-236.0350242203703
 31
0.0
  0
LINE
  5
1A1
102
{ACAD_REACTORS
330
2B5
330
2B6
102
}
330
71
100
AcDbEntity
  8
0
  6
Continuous
 62
     2
100
AcDbLine
 10
-232.1703366415799
 20
-236.0350242203703
 30
0.0
 11
-230.7723835946396
 21
-239.0888337441814
 31
0.0
  0
LINE
  5
1A2
102
{ACAD_REACTORS
330
2B5
330
2B6
102
}
330
71
100
AcDbEntity
  8
0
  6
Continuous
 62
     2
100
AcDbLine
 10
-232.0128880048935
 20
-239.0888337441814
 30
0.0
 11
-232.2243680583693
 21
-238.5478731999635
 31
0.0
  0
LINE
  5
1A3
102
{ACAD_REACTORS
330
2B7
330
2B8
102
}
330
71
100
AcDbEntity
  8
0
  6
Continuous
 62
     2
100
AcDbLine
 10
-236.1552072004795
 20
-239.0888337441814
 30
0.0
 11
-234.962414498313
 21
-239.0888337441814
 31
0.0
  0
LINE
  5
1A4
102
{ACAD_REACTORS
330
2B7
330
2B8
102
}
330
71
100
AcDbEntity
  8
0
  6
Continuous
 62
     2
100
AcDbLine
 10
-236.1552072004795
 20
-236.8202895264939
 30
0.0
 11
-236.1552072004795
 21
-239.0888337441814
 31
0.0
  0
LINE
  5
1A5
102
{ACAD_REACTORS
330
2B7
330
2B8
102
}
330
71
100
AcDbEntity
  8
0
  6
Continuous
 62
     2
100
AcDbLine
 10
-236.9663062379541
 20
-236.0350242203703
 30
0.0
 11
-236.9663062379541
 21
-236.8202895264939
 31
0.0
  0
LINE
  5
1A6
102
{ACAD_REACTORS
330
2B9
330
2BA
102
}
330
71
100
AcDbEntity
  8
0
  6
Continuous
 62
     2
100
AcDbLine
 10
-235.4870923563815
 20
-235.7296432680071
 30
0.0
 11
-234.294299654215
 21
-235.7296432680071
 31
0.0
  0
LINE
  5
1A7
102
{ACAD_REACTORS
330
2B9
330
2BA
102
}
330
71
100
AcDbEntity
  8
0
  6
Continuous
 62
     2
100
AcDbLine
 10
-233.053795243961
 20
-233.9846092544011
 30
0.0
 11
-234.294299654215
 21
-232.6758337441959
 31
0.0
  0
LINE
  5
1A8
102
{ACAD_REACTORS
330
2B9
330
2BA
102
}
330
71
100
AcDbEntity
  8
0
  6
Continuous
 62
     2
100
AcDbLine
 10
-231.8610025417944
 20
-232.6758337441959
 30
0.0
 11
-233.053795243961
 21
-232.6758337441959
 31
0.0
  0
LINE
  5
1A9
102
{ACAD_REACTORS
330
2B9
330
2BA
102
}
330
71
100
AcDbEntity
  8
0
  6
Continuous
 62
     2
100
AcDbLine
 10
-231.8610025417944
 20
-235.7296432680071
 30
0.0
 11
-231.8610025417944
 21
-232.6758337441959
 31
0.0
  0
LINE
  5
1AA
102
{ACAD_REACTORS
330
2B9
330
2BA
102
}
330
71
100
AcDbEntity
  8
0
  6
Continuous
 62
     2
100
AcDbLine
 10
-233.053795243961
 20
-235.7296432680071
 30
0.0
 11
-231.8610025417944
 21
-235.7296432680071
 31
0.0
  0
LINE
  5
1AB
102
{ACAD_REACTORS
330
2B9
330
2BA
102
}
330
71
100
AcDbEntity
  8
0
  6
Continuous
 62
     2
100
AcDbLine
 10
-234.294299654215
 20
-234.4208677578024
 30
0.0
 11
-233.053795243961
 21
-235.7296432680071
 31
0.0
  0
LINE
  5
1AC
102
{ACAD_REACTORS
330
2BB
330
2BC
102
}
330
71
100
AcDbEntity
  8
0
  6
Continuous
 62
     2
100
AcDbLine
 10
-238.3022340643807
 20
-237.3437997305754
 30
0.0
 11
-239.5427384746336
 21
-236.0350242203703
 31
0.0
  0
LINE
  5
1AD
102
{ACAD_REACTORS
330
2BB
330
2BC
102
}
330
71
100
AcDbEntity
  8
0
  6
Continuous
 62
     2
100
AcDbLine
 10
-238.3022340643807
 20
-236.0350242203703
 30
0.0
 11
-238.3022340643807
 21
-237.3437997305754
 31
0.0
  0
LINE
  5
1AE
102
{ACAD_REACTORS
330
2BB
330
2BC
102
}
330
71
100
AcDbEntity
  8
0
  6
Continuous
 62
     2
100
AcDbLine
 10
-237.1094413622143
 20
-236.0350242203703
 30
0.0
 11
-238.3022340643807
 21
-236.0350242203703
 31
0.0
  0
LINE
  5
1AF
102
{ACAD_REACTORS
330
2BB
330
2BC
102
}
330
71
100
AcDbEntity
  8
0
  6
Continuous
 62
     2
100
AcDbLine
 10
-237.1094413622143
 20
-239.0888337441814
 30
0.0
 11
-237.1094413622143
 21
-236.0350242203703
 31
0.0
  0
LINE
  5
1B0
102
{ACAD_REACTORS
330
2BB
330
2BC
102
}
330
71
100
AcDbEntity
  8
0
  6
Continuous
 62
     2
100
AcDbLine
 10
-239.5427384746336
 20
-237.7800582339768
 30
0.0
 11
-238.3022340643807
 21
-239.0888337441814
 31
0.0
  0
LINE
  5
1B1
102
{ACAD_REACTORS
330
2BB
330
2BC
102
}
330
71
100
AcDbEntity
  8
0
  6
Continuous
 62
     2
100
AcDbLine
 10
-239.5427384746336
 20
-239.0888337441814
 30
0.0
 11
-239.5427384746336
 21
-237.7800582339768
 31
0.0
  0
LINE
  5
1B2
102
{ACAD_REACTORS
330
2AB
330
2AC
102
}
330
71
100
AcDbEntity
  8
0
  6
Continuous
 62
     2
100
AcDbLine
 10
-237.0615787232421
 20
-233.3738473496389
 30
0.0
 11
-235.7256508968144
 21
-233.3738473496389
 31
0.0
  0
LINE
  5
1B3
102
{ACAD_REACTORS
330
2AB
330
2AC
102
}
330
71
100
AcDbEntity
  8
0
  6
Continuous
 62
     2
100
AcDbLine
 10
-237.0615787232421
 20
-235.0316296625646
 30
0.0
 11
-237.0615787232421
 21
-234.5517453088229
 31
0.0
  0
LINE
  5
1B4
102
{ACAD_REACTORS
330
2AB
330
2AC
102
}
330
71
100
AcDbEntity
  8
0
  6
Continuous
 62
     2
100
AcDbLine
 10
-235.7256508968144
 20
-235.0316296625646
 30
0.0
 11
-237.0615787232421
 21
-235.0316296625646
 31
0.0
  0
LINE
  5
1B5
102
{ACAD_REACTORS
330
2AB
330
2AC
102
}
330
71
100
AcDbEntity
  8
0
  6
Continuous
 62
     2
100
AcDbLine
 10
-235.7256508968144
 20
-235.7296432680071
 30
0.0
 11
-235.7256508968144
 21
-235.0316296625646
 31
0.0
  0
LINE
  5
1B6
102
{ACAD_REACTORS
330
2AB
330
2AC
102
}
330
71
100
AcDbEntity
  8
0
  6
Continuous
 62
     2
100
AcDbLine
 10
-238.8759706205954
 20
-235.7296432680071
 30
0.0
 11
-235.7256508968144
 21
-235.7296432680071
 31
0.0
  0
LINE
  5
1B7
102
{ACAD_REACTORS
330
2AB
330
2AC
102
}
330
71
100
AcDbEntity
  8
0
  6
Continuous
 62
     2
100
AcDbLine
 10
-238.8759706205954
 20
-232.6758337441959
 30
0.0
 11
-235.7256508968144
 21
-232.6758337441959
 31
0.0
  0
LINE
  5
1B8
102
{ACAD_REACTORS
330
2AB
330
2AC
102
}
330
71
100
AcDbEntity
  8
0
  6
Continuous
 62
     2
100
AcDbLine
 10
-235.7256508968144
 20
-233.3738473496389
 30
0.0
 11
-235.7256508968144
 21
-232.6758337441959
 31
0.0
  0
LINE
  5
1B9
102
{ACAD_REACTORS
330
2BD
330
2BE
102
}
330
71
100
AcDbEntity
  8
0
  6
Continuous
 62
     2
100
AcDbLine
 10
-241.7373261157354
 20
-233.7446670775305
 30
0.0
 11
-241.7373261157354
 21
-232.6758337441959
 31
0.0
  0
LINE
  5
1BA
102
{ACAD_REACTORS
330
2BD
330
2BE
102
}
330
71
100
AcDbEntity
  8
0
  6
Continuous
 62
     2
100
AcDbLine
 10
-241.7373261157354
 20
-232.6758337441959
 30
0.0
 11
-240.544533413569
 21
-232.6758337441959
 31
0.0
  0
LINE
  5
1BB
102
{ACAD_REACTORS
330
2BD
330
2BE
102
}
330
71
100
AcDbEntity
  8
0
  6
Continuous
 62
     2
100
AcDbLine
 10
-241.7373261157354
 20
-234.5953711591633
 30
0.0
 11
-242.7869836936429
 21
-234.5953711591633
 31
0.0
  0
LINE
  5
1BC
102
{ACAD_REACTORS
330
2BD
330
2BE
102
}
330
71
100
AcDbEntity
  8
0
  6
Continuous
 62
     2
100
AcDbLine
 10
-242.7869836936429
 20
-234.5953711591633
 30
0.0
 11
-242.7869836936429
 21
-235.7296432680071
 31
0.0
  0
LINE
  5
1BD
102
{ACAD_REACTORS
330
2BD
330
2BE
102
}
330
71
100
AcDbEntity
  8
0
  6
Continuous
 62
     2
100
AcDbLine
 10
-243.9797763958095
 20
-232.6758337441959
 30
0.0
 11
-243.9797763958095
 21
-235.7296432680071
 31
0.0
  0
LINE
  5
1BE
102
{ACAD_REACTORS
330
2AF
330
2B0
102
}
330
71
100
AcDbEntity
  8
0
  6
Continuous
 62
     2
100
AcDbLine
 10
-245.9359564273631
 20
-234.0446672389782
 30
0.0
 11
-245.9359564273631
 21
-233.338939589636
 31
0.0
  0
LINE
  5
1BF
102
{ACAD_REACTORS
330
2AF
330
2B0
102
}
330
71
100
AcDbEntity
  8
0
  6
Continuous
 62
     2
100
AcDbLine
 10
-247.1764608376172
 20
-235.7296432680071
 30
0.0
 11
-245.9359564273631
 21
-235.7296432680071
 31
0.0
  0
LINE
  5
1C0
102
{ACAD_REACTORS
330
2AF
330
2B0
102
}
330
71
100
AcDbEntity
  8
0
  6
Continuous
 62
     2
100
AcDbLine
 10
-245.9359564273631
 20
-235.7296432680071
 30
0.0
 11
-245.9359564273631
 21
-234.7865650268633
 31
0.0
  0
LINE
  5
1C1
102
{ACAD_REACTORS
330
2A9
330
2AA
102
}
330
71
100
AcDbEntity
  8
0
  6
Continuous
 62
     2
100
AcDbLine
 10
-251.4814066868286
 20
-238.3762781886245
 30
0.0
 11
-252.9572399478383
 21
-238.3762781886245
 31
0.0
  0
LINE
  5
1C2
102
{ACAD_REACTORS
330
2A9
330
2AA
102
}
330
71
100
AcDbEntity
  8
0
  6
Continuous
 62
     2
100
AcDbLine
 10
-253.9753792399675
 20
-233.1000783595979
 30
0.0
 11
-253.9753792399675
 21
-238.6645891287981
 31
0.0
  0
LINE
  5
1C3
102
{ACAD_REACTORS
330
2A9
330
2AA
102
}
330
71
100
AcDbEntity
  8
0
  6
Continuous
 62
     2
100
AcDbLine
 10
-253.5511346245847
 20
-232.6758337442141
 30
0.0
 11
-248.0778225338679
 21
-232.6758337442141
 31
0.0
  0
LINE
  5
1C4
102
{ACAD_REACTORS
330
2A9
330
2AA
102
}
330
71
100
AcDbEntity
  8
0
  6
Continuous
 62
     2
100
AcDbLine
 10
-247.6535779184841
 20
-233.1000783595979
 30
0.0
 11
-247.6535779184841
 21
-238.6645891287981
 31
0.0
  0
LINE
  5
1C5
102
{ACAD_REACTORS
330
2A9
330
2AA
102
}
330
71
100
AcDbEntity
  8
0
  6
Continuous
 62
     2
100
AcDbLine
 10
-248.0778225338679
 20
-239.0888337441814
 30
0.0
 11
-253.5511346245847
 21
-239.0888337441814
 31
0.0
  0
LINE
  5
1C6
102
{ACAD_REACTORS
330
2A9
330
2AA
102
}
330
71
100
AcDbEntity
  8
0
  6
Continuous
 62
     2
100
AcDbLine
 10
-251.165689763752
 20
-238.0605612655478
 30
0.0
 11
-251.165689763752
 21
-236.5297903340162
 31
0.0
  0
LINE
  5
1C7
102
{ACAD_REACTORS
330
2A9
330
2AA
102
}
330
71
100
AcDbEntity
  8
0
  6
Continuous
 62
     2
100
AcDbLine
 10
-251.165689763752
 20
-234.3081308418912
 30
0.0
 11
-251.165689763752
 21
-233.7041062228307
 31
0.0
  0
LINE
  5
1C8
102
{ACAD_REACTORS
330
2A9
330
2AA
102
}
330
71
100
AcDbEntity
  8
0
  6
Continuous
 62
     2
100
AcDbLine
 10
-252.9572399478383
 20
-233.3883892997545
 30
0.0
 11
-251.4814066868286
 21
-233.3883892997545
 31
0.0
  0
LINE
  5
1C9
102
{ACAD_REACTORS
330
2A9
330
2AA
102
}
330
71
100
AcDbEntity
  8
0
  6
Continuous
 62
     2
100
AcDbLine
 10
-253.2729568709139
 20
-233.7041062228307
 30
0.0
 11
-253.2729568709139
 21
-238.0605612655478
 31
0.0
  0
LINE
  5
1CA
102
{ACAD_REACTORS
330
2AF
330
2B0
102
}
330
71
100
AcDbEntity
  8
0
  6
Continuous
 62
     2
100
AcDbLine
 10
-245.9359564273631
 20
-234.7865650268633
 30
0.0
 11
-245.1771888395828
 21
-234.7865650268633
 31
0.0
  0
LINE
  5
1CB
102
{ACAD_REACTORS
330
2AF
330
2B0
102
}
330
71
100
AcDbEntity
  8
0
  6
Continuous
 62
     2
100
AcDbLine
 10
-247.1764608376172
 20
-232.6758337441959
 30
0.0
 11
-245.1771888395828
 21
-232.6758337441959
 31
0.0
  0
LINE
  5
1CC
102
{ACAD_REACTORS
330
2AF
330
2B0
102
}
330
71
100
AcDbEntity
  8
0
  6
Continuous
 62
     2
100
AcDbLine
 10
-247.1764608376172
 20
-232.6758337441959
 30
0.0
 11
-247.1764608376172
 21
-235.7296432680071
 31
0.0
  0
LINE
  5
1CD
102
{ACAD_REACTORS
330
2AF
330
2B0
102
}
330
71
100
AcDbEntity
  8
0
  6
Continuous
 62
     2
100
AcDbLine
 10
-245.9359564273631
 20
-234.0446672389782
 30
0.0
 11
-245.6186613658212
 21
-234.0446672389782
 31
0.0
  0
LINE
  5
1CE
102
{ACAD_REACTORS
330
2AF
330
2B0
102
}
330
71
100
AcDbEntity
  8
0
  6
Continuous
 62
     2
100
AcDbLine
 10
-245.9359564273631
 20
-233.338939589636
 30
0.0
 11
-245.6186613658212
 21
-233.338939589636
 31
0.0
  0
LINE
  5
1CF
102
{ACAD_REACTORS
330
2BD
330
2BE
102
}
330
71
100
AcDbEntity
  8
0
  6
Continuous
 62
     2
100
AcDbLine
 10
-242.7869836936429
 20
-233.7446670775305
 30
0.0
 11
-241.7373261157354
 21
-233.7446670775305
 31
0.0
  0
LINE
  5
1D0
102
{ACAD_REACTORS
330
2BD
330
2BE
102
}
330
71
100
AcDbEntity
  8
0
  6
Continuous
 62
     2
100
AcDbLine
 10
-242.7869836936429
 20
-232.6758337441959
 30
0.0
 11
-242.7869836936429
 21
-233.7446670775305
 31
0.0
  0
LINE
  5
1D1
102
{ACAD_REACTORS
330
2BD
330
2BE
102
}
330
71
100
AcDbEntity
  8
0
  6
Continuous
 62
     2
100
AcDbLine
 10
-243.9797763958095
 20
-232.6758337441959
 30
0.0
 11
-242.7869836936429
 21
-232.6758337441959
 31
0.0
  0
LINE
  5
1D2
102
{ACAD_REACTORS
330
2BD
330
2BE
102
}
330
71
100
AcDbEntity
  8
0
  6
Continuous
 62
     2
100
AcDbLine
 10
-242.7869836936429
 20
-235.7296432680071
 30
0.0
 11
-243.9797763958095
 21
-235.7296432680071
 31
0.0
  0
LINE
  5
1D3
102
{ACAD_REACTORS
330
2BD
330
2BE
102
}
330
71
100
AcDbEntity
  8
0
  6
Continuous
 62
     2
100
AcDbLine
 10
-241.7373261157354
 20
-235.7296432680071
 30
0.0
 11
-241.7373261157354
 21
-234.5953711591633
 31
0.0
  0
LINE
  5
1D4
102
{ACAD_REACTORS
330
2BD
330
2BE
102
}
330
71
100
AcDbEntity
  8
0
  6
Continuous
 62
     2
100
AcDbLine
 10
-240.544533413569
 20
-235.7296432680071
 30
0.0
 11
-241.7373261157354
 21
-235.7296432680071
 31
0.0
  0
LINE
  5
1D5
102
{ACAD_REACTORS
330
2BD
330
2BE
102
}
330
71
100
AcDbEntity
  8
0
  6
Continuous
 62
     2
100
AcDbLine
 10
-240.544533413569
 20
-232.6758337441959
 30
0.0
 11
-240.544533413569
 21
-235.7296432680071
 31
0.0
  0
LINE
  5
1D6
102
{ACAD_REACTORS
330
2AB
330
2AC
102
}
330
71
100
AcDbEntity
  8
0
  6
Continuous
 62
     2
100
AcDbLine
 10
-237.0615787232421
 20
-234.5517453088229
 30
0.0
 11
-235.7256508968144
 21
-234.5517453088229
 31
0.0
  0
LINE
  5
1D7
102
{ACAD_REACTORS
330
2AB
330
2AC
102
}
330
71
100
AcDbEntity
  8
0
  6
Continuous
 62
     2
100
AcDbLine
 10
-235.7256508968144
 20
-234.5517453088229
 30
0.0
 11
-235.7256508968144
 21
-233.8537317033806
 31
0.0
  0
LINE
  5
1D8
102
{ACAD_REACTORS
330
2AB
330
2AC
102
}
330
71
100
AcDbEntity
  8
0
  6
Continuous
 62
     2
100
AcDbLine
 10
-235.7256508968144
 20
-233.8537317033806
 30
0.0
 11
-237.0615787232421
 21
-233.8537317033806
 31
0.0
  0
LINE
  5
1D9
102
{ACAD_REACTORS
330
2AB
330
2AC
102
}
330
71
100
AcDbEntity
  8
0
  6
Continuous
 62
     2
100
AcDbLine
 10
-237.0615787232421
 20
-233.8537317033806
 30
0.0
 11
-237.0615787232421
 21
-233.3738473496389
 31
0.0
  0
LINE
  5
1DA
102
{ACAD_REACTORS
330
2BB
330
2BC
102
}
330
71
100
AcDbEntity
  8
0
  6
Continuous
 62
     2
100
AcDbLine
 10
-240.7355311768012
 20
-239.0888337441814
 30
0.0
 11
-239.5427384746336
 21
-239.0888337441814
 31
0.0
  0
LINE
  5
1DB
102
{ACAD_REACTORS
330
2BB
330
2BC
102
}
330
71
100
AcDbEntity
  8
0
  6
Continuous
 62
     2
100
AcDbLine
 10
-238.3022340643807
 20
-239.0888337441814
 30
0.0
 11
-237.1094413622143
 21
-239.0888337441814
 31
0.0
  0
LINE
  5
1DC
102
{ACAD_REACTORS
330
2BB
330
2BC
102
}
330
71
100
AcDbEntity
  8
0
  6
Continuous
 62
     2
100
AcDbLine
 10
-239.5427384746336
 20
-236.0350242203703
 30
0.0
 11
-240.7355311768012
 21
-236.0350242203703
 31
0.0
  0
LINE
  5
1DD
102
{ACAD_REACTORS
330
2BB
330
2BC
102
}
330
71
100
AcDbEntity
  8
0
  6
Continuous
 62
     2
100
AcDbLine
 10
-240.7355311768012
 20
-236.0350242203703
 30
0.0
 11
-240.7355311768012
 21
-239.0888337441814
 31
0.0
  0
LINE
  5
1DE
102
{ACAD_REACTORS
330
2B9
330
2BA
102
}
330
71
100
AcDbEntity
  8
0
  6
Continuous
 62
     2
100
AcDbLine
 10
-233.053795243961
 20
-232.6758337441959
 30
0.0
 11
-233.053795243961
 21
-233.9846092544011
 31
0.0
  0
LINE
  5
1DF
102
{ACAD_REACTORS
330
2B9
330
2BA
102
}
330
71
100
AcDbEntity
  8
0
  6
Continuous
 62
     2
100
AcDbLine
 10
-234.294299654215
 20
-232.6758337441959
 30
0.0
 11
-235.4870923563815
 21
-232.6758337441959
 31
0.0
  0
LINE
  5
1E0
102
{ACAD_REACTORS
330
2B9
330
2BA
102
}
330
71
100
AcDbEntity
  8
0
  6
Continuous
 62
     2
100
AcDbLine
 10
-235.4870923563815
 20
-232.6758337441959
 30
0.0
 11
-235.4870923563815
 21
-235.7296432680071
 31
0.0
  0
LINE
  5
1E1
102
{ACAD_REACTORS
330
2B9
330
2BA
102
}
330
71
100
AcDbEntity
  8
0
  6
Continuous
 62
     2
100
AcDbLine
 10
-234.294299654215
 20
-235.7296432680071
 30
0.0
 11
-234.294299654215
 21
-234.4208677578024
 31
0.0
  0
LINE
  5
1E2
102
{ACAD_REACTORS
330
2B7
330
2B8
102
}
330
71
100
AcDbEntity
  8
0
  6
Continuous
 62
     2
100
AcDbLine
 10
-234.962414498313
 20
-239.0888337441814
 30
0.0
 11
-234.962414498313
 21
-236.8202895264939
 31
0.0
  0
LINE
  5
1E3
102
{ACAD_REACTORS
330
2B7
330
2B8
102
}
330
71
100
AcDbEntity
  8
0
  6
Continuous
 62
     2
100
AcDbLine
 10
-234.962414498313
 20
-236.8202895264939
 30
0.0
 11
-234.1513154608405
 21
-236.8202895264939
 31
0.0
  0
LINE
  5
1E4
102
{ACAD_REACTORS
330
2B7
330
2B8
102
}
330
71
100
AcDbEntity
  8
0
  6
Continuous
 62
     2
100
AcDbLine
 10
-234.1513154608405
 20
-236.8202895264939
 30
0.0
 11
-234.1513154608405
 21
-236.0350242203703
 31
0.0
  0
LINE
  5
1E5
102
{ACAD_REACTORS
330
2B7
330
2B8
102
}
330
71
100
AcDbEntity
  8
0
  6
Continuous
 62
     2
100
AcDbLine
 10
-234.1513154608405
 20
-236.0350242203703
 30
0.0
 11
-236.9663062379541
 21
-236.0350242203703
 31
0.0
  0
LINE
  5
1E6
102
{ACAD_REACTORS
330
2B7
330
2B8
102
}
330
71
100
AcDbEntity
  8
0
  6
Continuous
 62
     2
100
AcDbLine
 10
-236.9663062379541
 20
-236.8202895264939
 30
0.0
 11
-236.1552072004795
 21
-236.8202895264939
 31
0.0
  0
LINE
  5
1E7
102
{ACAD_REACTORS
330
2B5
330
2B6
102
}
330
71
100
AcDbEntity
  8
0
  6
Continuous
 62
     2
100
AcDbLine
 10
-233.3568096350431
 20
-238.5478731999635
 30
0.0
 11
-232.2243680583693
 21
-238.5478731999635
 31
0.0
  0
LINE
  5
1E8
102
{ACAD_REACTORS
330
2B5
330
2B6
102
}
330
71
100
AcDbEntity
  8
0
  6
Continuous
 62
     2
100
AcDbLine
 10
-230.7723835946396
 20
-239.0888337441814
 30
0.0
 11
-232.0128880048935
 21
-239.0888337441814
 31
0.0
  0
LINE
  5
1E9
102
{ACAD_REACTORS
330
2B5
330
2B6
102
}
330
71
100
AcDbEntity
  8
0
  6
Continuous
 62
     2
100
AcDbLine
 10
-233.4108410518326
 20
-236.0350242203703
 30
0.0
 11
-234.8087940987719
 21
-239.0888337441814
 31
0.0
  0
LINE
  5
1EA
102
{ACAD_REACTORS
330
2B5
330
2B6
102
}
330
71
100
AcDbEntity
  8
0
  6
Continuous
 62
     2
100
AcDbLine
 10
-233.568289688519
 20
-239.0888337441814
 30
0.0
 11
-233.3568096350431
 21
-238.5478731999635
 31
0.0
  0
LINE
  5
1EB
102
{ACAD_REACTORS
330
2B5
330
2B6
102
}
330
71
100
AcDbEntity
  8
0
  6
Continuous
 62
     2
100
AcDbLine
 10
-233.0907540838981
 20
-237.8673099346569
 30
0.0
 11
-232.7905888467057
 21
-237.0994949686702
 31
0.0
  0
LINE
  5
1EC
102
{ACAD_REACTORS
330
2B3
330
2B4
102
}
330
71
100
AcDbEntity
  8
0
  6
Continuous
 62
     2
100
AcDbLine
 10
-231.6224440013605
 20
-235.7296432680071
 30
0.0
 11
-231.6224440013605
 21
-232.6758337441959
 31
0.0
  0
LINE
  5
1ED
102
{ACAD_REACTORS
330
2B3
330
2B4
102
}
330
71
100
AcDbEntity
  8
0
  6
Continuous
 62
     2
100
AcDbLine
 10
-230.3819395911076
 20
-232.6758337441959
 30
0.0
 11
-230.3819395911076
 21
-235.7296432680071
 31
0.0
  0
LINE
  5
1EE
102
{ACAD_REACTORS
330
2B3
330
2B4
102
}
330
71
100
AcDbEntity
  8
0
  6
Continuous
 62
     2
100
AcDbLine
 10
-231.6224440013605
 20
-232.6758337441959
 30
0.0
 11
-230.3819395911076
 21
-232.6758337441959
 31
0.0
  0
LINE
  5
1EF
102
{ACAD_REACTORS
330
2B1
330
2B2
102
}
330
71
100
AcDbEntity
  8
0
  6
Continuous
 62
     2
100
AcDbLine
 10
-228.1633451650768
 20
-234.9419114827134
 30
0.0
 11
-227.4667542270113
 21
-235.7296432680071
 31
0.0
  0
LINE
  5
1F0
102
{ACAD_REACTORS
330
2B1
330
2B2
102
}
330
71
100
AcDbEntity
  8
0
  6
Continuous
 62
     2
100
AcDbLine
 10
-227.4667542270113
 20
-235.7296432680071
 30
0.0
 11
-226.064030009263
 21
-235.7296432680071
 31
0.0
  0
LINE
  5
1F1
102
{ACAD_REACTORS
330
2B1
330
2B2
102
}
330
71
100
AcDbEntity
  8
0
  6
Continuous
 62
     2
100
AcDbLine
 10
-227.4619830562033
 20
-234.1487842742321
 30
0.0
 11
-226.064030009263
 21
-235.7296432680071
 31
0.0
  0
LINE
  5
1F2
102
{ACAD_REACTORS
330
2B1
330
2B2
102
}
330
71
100
AcDbEntity
  8
0
  6
Continuous
 62
     2
100
AcDbLine
 10
-227.4619830562033
 20
-234.1487842742321
 30
0.0
 11
-226.1594534254368
 21
-232.6758337441959
 31
0.0
  0
LINE
  5
1F3
102
{ACAD_REACTORS
330
2B1
330
2B2
102
}
330
71
100
AcDbEntity
  8
0
  6
Continuous
 62
     2
100
AcDbLine
 10
-228.1633451650768
 20
-233.3556570657514
 30
0.0
 11
-227.562177643184
 21
-232.6758337441959
 31
0.0
  0
LINE
  5
1F4
102
{ACAD_REACTORS
330
2B1
330
2B2
102
}
330
71
100
AcDbEntity
  8
0
  6
Continuous
 62
     2
100
AcDbLine
 10
-228.7645126869686
 20
-232.6758337441959
 30
0.0
 11
-228.1633451650768
 21
-233.3556570657514
 31
0.0
  0
LINE
  5
1F5
102
{ACAD_REACTORS
330
2B1
330
2B2
102
}
330
71
100
AcDbEntity
  8
0
  6
Continuous
 62
     2
100
AcDbLine
 10
-228.7645126869686
 20
-232.6758337441959
 30
0.0
 11
-230.1672369047179
 21
-232.6758337441959
 31
0.0
  0
LINE
  5
1F6
102
{ACAD_REACTORS
330
2A7
330
2A8
102
}
330
71
100
AcDbEntity
  8
0
  6
Continuous
 62
     2
100
AcDbLine
 10
-228.0679217489041
 20
-239.0888337441814
 30
0.0
 11
-226.8751290467364
 21
-239.0888337441814
 31
0.0
  0
LINE
  5
1F7
102
{ACAD_REACTORS
330
2A7
330
2A8
102
}
330
71
100
AcDbEntity
  8
0
  6
Continuous
 62
     2
100
AcDbLine
 10
-226.8751290467364
 20
-239.0888337441814
 30
0.0
 11
-226.8751290467364
 21
-236.8202895264939
 31
0.0
  0
LINE
  5
1F8
102
{ACAD_REACTORS
330
2A7
330
2A8
102
}
330
71
100
AcDbEntity
  8
0
  6
Continuous
 62
     2
100
AcDbLine
 10
-226.8751290467364
 20
-236.8202895264939
 30
0.0
 11
-226.064030009263
 21
-236.8202895264939
 31
0.0
  0
LINE
  5
1F9
102
{ACAD_REACTORS
330
2A7
330
2A8
102
}
330
71
100
AcDbEntity
  8
0
  6
Continuous
 62
     2
100
AcDbLine
 10
-226.064030009263
 20
-236.8202895264939
 30
0.0
 11
-226.064030009263
 21
-236.0350242203703
 31
0.0
  0
LINE
  5
1FA
102
{ACAD_REACTORS
330
2A7
330
2A8
102
}
330
71
100
AcDbEntity
  8
0
  6
Continuous
 62
     2
100
AcDbLine
 10
-229.4489755278917
 20
-236.0350242203708
 30
0.0
 11
-226.064030009263
 21
-236.0350242203703
 31
0.0
  0
LINE
  5
1FB
102
{ACAD_REACTORS
330
2A7
330
2A8
102
}
330
71
100
AcDbEntity
  8
0
  6
Continuous
 62
     2
100
AcDbLine
 10
-228.0679217489041
 20
-236.8202895264939
 30
0.0
 11
-228.0679217489041
 21
-239.0888337441814
 31
0.0
  0
LINE
  5
1FC
102
{ACAD_REACTORS
330
2A9
330
2AA
102
}
330
71
100
AcDbEntity
  8
0
  6
Continuous
 62
     2
100
AcDbLine
 10
-250.6974081843833
 20
-237.1099535946169
 30
0.0
 11
-250.6974081843833
 21
-236.5281021879218
 31
0.0
  0
LINE
  5
1FD
102
{ACAD_REACTORS
330
2A9
330
2AA
102
}
330
71
100
AcDbEntity
  8
0
  6
Continuous
 62
     2
100
AcDbLine
 10
-250.6974081843833
 20
-234.3098189879856
 30
0.0
 11
-250.6974081843833
 21
-233.7042836994788
 31
0.0
  0
LINE
  5
1FE
330
71
100
AcDbEntity
  8
1
  6
Continuous
 62
     6
100
AcDbLine
 10
-272.1672295997801
 20
-246.3823337441977
 30
0.0
 11
-258.2120341265302
 21
-246.3823337441978
 31
0.0
  0
LINE
  5
1FF
330
71
100
AcDbEntity
  8
1
  6
Continuous
 62
     6
100
AcDbLine
 10
-322.1672295997803
 20
-246.3823337441977
 30
0.0
 11
-327.2120341265301
 21
-246.3823337441977
 31
0.0
  0
LINE
  5
200
330
71
100
AcDbEntity
  8
1
  6
Continuous
 62
     6
100
AcDbLine
 10
-172.1672295997801
 20
-246.3823337441977
 30
0.0
 11
-128.6672295997801
 21
-246.3823337441977
 31
0.0
  0
LINE
  5
201
330
71
100
AcDbEntity
  8
1
  6
Continuous
 62
     6
100
AcDbLine
 10
-222.1672295997801
 20
-246.3823337441977
 30
0.0
 11
-240.0120341265301
 21
-246.3823337441977
 31
0.0
  0
LINE
  5
202
330
71
100
AcDbEntity
  8
1
  6
Continuous
 62
     2
100
AcDbLine
 10
-128.6672295997801
 20
-246.3823337441977
 30
0.0
 11
-123.6672295997811
 21
-246.3823337441977
 31
0.0
  0
LINE
  5
203
330
71
100
AcDbEntity
  8
1
  6
Continuous
 62
     2
100
AcDbLine
 10
-128.6672295997801
 20
-246.3823337441977
 30
0.0
 11
-128.6672295997801
 21
-251.3823337441978
 31
0.0
  0
LINE
  5
204
330
71
100
AcDbEntity
  8
1
  6
Continuous
 62
     6
100
AcDbLine
 10
-258.2120341265302
 20
-229.3823337441977
 30
0.0
 11
-221.8120341265302
 21
-229.3823337441977
 31
0.0
  0
LINE
  5
205
330
71
100
AcDbEntity
  8
1
  6
Continuous
 62
     2
100
AcDbLine
 10
-123.6672295997811
 20
-251.3823337441978
 30
0.0
 11
-123.6672295997811
 21
-246.3823337441977
 31
0.0
  0
LINE
  5
206
330
71
100
AcDbEntity
  8
1
  6
Continuous
 62
     2
100
AcDbLine
 10
-123.6672295997811
 20
-251.3823337441978
 30
0.0
 11
-128.6672295997801
 21
-251.3823337441978
 31
0.0
  0
LINE
  5
207
330
71
100
AcDbEntity
  8
1
  6
Continuous
 62
     2
100
AcDbLine
 10
-128.6672295997801
 20
-251.3823337441978
 30
0.0
 11
-172.1672295997801
 21
-251.3823337441978
 31
0.0
  0
LINE
  5
208
330
71
100
AcDbEntity
  8
1
  6
Continuous
 62
     6
100
AcDbLine
 10
-128.6672295997784
 20
-229.3823337441977
 30
0.0
 11
-128.6672295997792
 21
-196.3823337441976
 31
0.0
  0
LINE
  5
209
330
71
100
AcDbEntity
  8
1
  6
Continuous
 62
     2
100
AcDbLine
 10
-123.6672295997811
 20
-41.3823337441977
 30
0.0
 11
-272.1672295997801
 21
-41.3823337441977
 31
0.0
  0
LINE
  5
20A
330
71
100
AcDbEntity
  8
1
  6
Continuous
 62
     6
100
AcDbLine
 10
-128.6672295997811
 20
-61.3823337441977
 30
0.0
 11
-415.6672295997792
 21
-61.3823337441977
 31
0.0
  0
LINE
  5
20B
330
71
100
AcDbEntity
  8
1
  6
Continuous
 62
     2
100
AcDbLine
 10
-128.6672295997792
 20
-196.3823337441976
 30
0.0
 11
-123.6672295997811
 21
-196.3823337441976
 31
0.0
  0
LINE
  5
20C
330
71
100
AcDbEntity
  8
1
  6
Continuous
 62
     6
100
AcDbLine
 10
-128.6672295997792
 20
-196.3823337441976
 30
0.0
 11
-128.6672295997797
 21
-146.3823337441978
 31
0.0
  0
LINE
  5
20D
330
71
100
AcDbEntity
  8
1
  6
Continuous
 62
     2
100
AcDbLine
 10
-123.6672295997811
 20
-196.3823337441976
 30
0.0
 11
-123.6672295997811
 21
-146.3823337441978
 31
0.0
  0
LINE
  5
20E
330
71
100
AcDbEntity
  8
1
  6
Continuous
 62
     2
100
AcDbLine
 10
-128.6672295997797
 20
-146.3823337441978
 30
0.0
 11
-123.6672295997811
 21
-146.3823337441978
 31
0.0
  0
LINE
  5
20F
330
71
100
AcDbEntity
  8
1
  6
Continuous
 62
     6
100
AcDbLine
 10
-128.6672295997797
 20
-146.3823337441978
 30
0.0
 11
-128.6672295997809
 21
-96.3823337441977
 31
0.0
  0
LINE
  5
210
330
71
100
AcDbEntity
  8
1
  6
Continuous
 62
     2
100
AcDbLine
 10
-123.6672295997811
 20
-146.3823337441978
 30
0.0
 11
-123.6672295997811
 21
-96.3823337441977
 31
0.0
  0
LINE
  5
211
330
71
100
AcDbEntity
  8
1
  6
Continuous
 62
     2
100
AcDbLine
 10
-128.6672295997809
 20
-96.3823337441977
 30
0.0
 11
-123.6672295997811
 21
-96.3823337441977
 31
0.0
  0
LINE
  5
212
330
71
100
AcDbEntity
  8
1
  6
Continuous
 62
     6
100
AcDbLine
 10
-128.6672295997809
 20
-96.3823337441977
 30
0.0
 11
-128.6672295997811
 21
-61.3823337441977
 31
0.0
  0
LINE
  5
213
330
71
100
AcDbEntity
  8
1
  6
Continuous
 62
     2
100
AcDbLine
 10
-123.6672295997811
 20
-96.3823337441977
 30
0.0
 11
-123.6672295997811
 21
-41.3823337441977
 31
0.0
  0
LINE
  5
214
330
71
100
AcDbEntity
  8
1
  6
Continuous
 62
     2
100
AcDbLine
 10
-123.6672295997811
 20
-246.3823337441977
 30
0.0
 11
-123.6672295997811
 21
-196.3823337441976
 31
0.0
  0
LINE
  5
215
330
71
100
AcDbEntity
  8
1
  6
Continuous
 62
     2
100
AcDbLine
 10
-272.1672295997801
 20
-41.3823337441977
 30
0.0
 11
-420.6672295997792
 21
-41.3823337441977
 31
0.0
  0
LINE
  5
216
330
71
100
AcDbEntity
  8
1
  6
Continuous
 62
     2
100
AcDbLine
 10
-272.1672295997801
 20
-41.3823337441977
 30
0.0
 11
-272.1672295997801
 21
-50.59102558889902
 31
0.0
  0
LINE
  5
217
330
71
100
AcDbEntity
  8
1
  6
Continuous
 62
     2
100
AcDbLine
 10
-420.6672295997792
 20
-251.3823337441978
 30
0.0
 11
-415.6672295997782
 21
-251.3823337441978
 31
0.0
  0
LINE
  5
218
330
71
100
AcDbEntity
  8
1
  6
Continuous
 62
     2
100
AcDbLine
 10
-420.6672295997792
 20
-41.3823337441977
 30
0.0
 11
-420.6672295997792
 21
-96.3823337441977
 31
0.0
  0
LINE
  5
219
330
71
100
AcDbEntity
  8
1
  6
Continuous
 62
     6
100
AcDbLine
 10
-415.6672295997792
 20
-61.3823337441977
 30
0.0
 11
-415.6672295997792
 21
-96.3823337441977
 31
0.0
  0
LINE
  5
21A
330
71
100
AcDbEntity
  8
1
  6
Continuous
 62
     2
100
AcDbLine
 10
-420.6672295997792
 20
-96.3823337441977
 30
0.0
 11
-415.6672295997792
 21
-96.3823337441977
 31
0.0
  0
LINE
  5
21B
330
71
100
AcDbEntity
  8
1
  6
Continuous
 62
     2
100
AcDbLine
 10
-420.6672295997792
 20
-96.3823337441977
 30
0.0
 11
-420.6672295997792
 21
-146.3823337441978
 31
0.0
  0
LINE
  5
21C
330
71
100
AcDbEntity
  8
1
  6
Continuous
 62
     6
100
AcDbLine
 10
-415.6672295997792
 20
-96.3823337441977
 30
0.0
 11
-415.6672295997786
 21
-146.3823337441978
 31
0.0
  0
LINE
  5
21D
330
71
100
AcDbEntity
  8
1
  6
Continuous
 62
     2
100
AcDbLine
 10
-420.6672295997792
 20
-146.3823337441978
 30
0.0
 11
-415.6672295997786
 21
-146.3823337441978
 31
0.0
  0
LINE
  5
21E
330
71
100
AcDbEntity
  8
1
  6
Continuous
 62
     2
100
AcDbLine
 10
-420.6672295997792
 20
-146.3823337441978
 30
0.0
 11
-420.6672295997792
 21
-196.3823337441976
 31
0.0
  0
LINE
  5
21F
330
71
100
AcDbEntity
  8
1
  6
Continuous
 62
     6
100
AcDbLine
 10
-415.6672295997786
 20
-146.3823337441978
 30
0.0
 11
-415.6672295997784
 21
-196.3823337441976
 31
0.0
  0
LINE
  5
220
330
71
100
AcDbEntity
  8
1
  6
Continuous
 62
     2
100
AcDbLine
 10
-420.6672295997792
 20
-196.3823337441976
 30
0.0
 11
-415.6672295997784
 21
-196.3823337441976
 31
0.0
  0
LINE
  5
221
330
71
100
AcDbEntity
  8
1
  6
Continuous
 62
     2
100
AcDbLine
 10
-420.6672295997792
 20
-196.3823337441976
 30
0.0
 11
-420.6672295997792
 21
-246.3823337441977
 31
0.0
  0
LINE
  5
222
330
71
100
AcDbEntity
  8
1
  6
Continuous
 62
     6
100
AcDbLine
 10
-415.6672295997784
 20
-196.3823337441976
 30
0.0
 11
-415.6672295997782
 21
-246.3823337441977
 31
0.0
  0
LINE
  5
223
330
71
100
AcDbEntity
  8
1
  6
Continuous
 62
     2
100
AcDbLine
 10
-372.1672295997801
 20
-251.3823337441978
 30
0.0
 11
-372.1672295997801
 21
-246.3823337441977
 31
0.0
  0
LINE
  5
224
330
71
100
AcDbEntity
  8
1
  6
Continuous
 62
     2
100
AcDbLine
 10
-372.1672295997801
 20
-251.3823337441978
 30
0.0
 11
-322.1672295997803
 21
-251.3823337441978
 31
0.0
  0
LINE
  5
225
330
71
100
AcDbEntity
  8
1
  6
Continuous
 62
     2
100
AcDbLine
 10
-322.1672295997803
 20
-251.3823337441978
 30
0.0
 11
-322.1672295997803
 21
-246.3823337441977
 31
0.0
  0
LINE
  5
226
330
71
100
AcDbEntity
  8
1
  6
Continuous
 62
     2
100
AcDbLine
 10
-322.1672295997803
 20
-251.3823337441978
 30
0.0
 11
-272.1672295997801
 21
-251.3823337441978
 31
0.0
  0
LINE
  5
227
330
71
100
AcDbEntity
  8
1
  6
Continuous
 62
     2
100
AcDbLine
 10
-272.1672295997801
 20
-251.3823337441978
 30
0.0
 11
-272.1672295997801
 21
-246.3823337441977
 31
0.0
  0
LINE
  5
228
330
71
100
AcDbEntity
  8
1
  6
Continuous
 62
     2
100
AcDbLine
 10
-272.1672295997801
 20
-251.3823337441978
 30
0.0
 11
-222.1672295997801
 21
-251.3823337441978
 31
0.0
  0
LINE
  5
229
330
71
100
AcDbEntity
  8
1
  6
Continuous
 62
     2
100
AcDbLine
 10
-222.1672295997801
 20
-251.3823337441978
 30
0.0
 11
-222.1672295997801
 21
-246.3823337441977
 31
0.0
  0
LINE
  5
22A
330
71
100
AcDbEntity
  8
1
  6
Continuous
 62
     2
100
AcDbLine
 10
-172.1672295997801
 20
-251.3823337441978
 30
0.0
 11
-172.1672295997801
 21
-246.3823337441977
 31
0.0
  0
LINE
  5
22B
330
71
100
AcDbEntity
  8
1
  6
Continuous
 62
     2
100
AcDbLine
 10
-172.1672295997801
 20
-251.3823337441978
 30
0.0
 11
-222.1672295997801
 21
-251.3823337441978
 31
0.0
  0
LINE
  5
22C
330
71
100
AcDbEntity
  8
1
  6
Continuous
 62
     2
100
AcDbLine
 10
-415.6672295997782
 20
-246.3823337441977
 30
0.0
 11
-415.6672295997782
 21
-251.3823337441978
 31
0.0
  0
LINE
  5
22D
330
71
100
AcDbEntity
  8
1
  6
Continuous
 62
     2
100
AcDbLine
 10
-415.6672295997782
 20
-251.3823337441978
 30
0.0
 11
-372.1672295997801
 21
-251.3823337441978
 31
0.0
  0
LINE
  5
22E
330
71
100
AcDbEntity
  8
1
  6
Continuous
 62
     2
100
AcDbLine
 10
-415.6672295997782
 20
-246.3823337441977
 30
0.0
 11
-420.6672295997792
 21
-246.3823337441977
 31
0.0
  0
LINE
  5
22F
330
71
100
AcDbEntity
  8
1
  6
Continuous
 62
     2
100
AcDbLine
 10
-420.6672295997792
 20
-246.3823337441977
 30
0.0
 11
-420.6672295997792
 21
-251.3823337441978
 31
0.0
  0
LINE
  5
230
330
71
100
AcDbEntity
  8
1
  6
Continuous
 62
     6
100
AcDbLine
 10
-128.6672295997801
 20
-246.3823337441977
 30
0.0
 11
-128.6672295997788
 21
-237.8823337441977
 31
0.0
  0
LINE
  5
231
330
71
100
AcDbEntity
  8
1
  6
Continuous
 62
     6
100
AcDbLine
 10
-221.8120341265302
 20
-246.3823337441978
 30
0.0
 11
-172.1672295997801
 21
-246.3823337441977
 31
0.0
  0
LINE
  5
232
330
71
100
AcDbEntity
  8
1
  6
Continuous
 62
     6
100
AcDbLine
 10
-374.4672295997804
 20
-246.3823337441978
 30
0.0
 11
-372.1672295997801
 21
-246.3823337441977
 31
0.0
  0
LINE
  5
233
330
71
100
AcDbEntity
  8
1
  6
Continuous
 62
     6
100
AcDbLine
 10
-272.1672295997801
 20
-246.3823337441977
 30
0.0
 11
-322.1672295997803
 21
-246.3823337441977
 31
0.0
  0
LINE
  5
234
330
71
100
AcDbEntity
  8
1
  6
Continuous
 62
     7
100
AcDbLine
 10
-258.2120341265302
 20
-229.3823337441977
 30
0.0
 11
-258.2120341265302
 21
-242.1323337441978
 31
0.0
  0
LINE
  5
235
330
71
100
AcDbEntity
  8
1
  6
Continuous
 62
     7
100
AcDbLine
 10
-221.8120341265302
 20
-229.3823337441977
 30
0.0
 11
-221.8120341265302
 21
-242.1323337441977
 31
0.0
  0
LINE
  5
236
330
71
100
AcDbEntity
  8
1
  6
Continuous
 62
     6
100
AcDbLine
 10
-374.4672295997804
 20
-246.3823337441978
 30
0.0
 11
-380.6672295997784
 21
-246.3823337441977
 31
0.0
  0
LINE
  5
237
330
71
100
AcDbEntity
  8
1
  6
Continuous
 62
     6
100
AcDbLine
 10
-221.8120341265302
 20
-246.3823337441978
 30
0.0
 11
-222.1672295997801
 21
-246.3823337441977
 31
0.0
  0
LINE
  5
238
330
71
100
AcDbEntity
  8
1
  6
Continuous
 62
     6
100
AcDbLine
 10
-128.6672295997784
 20
-229.3823337441977
 30
0.0
 11
-128.6672295997788
 21
-237.8823337441977
 31
0.0
  0
LINE
  5
239
330
71
100
AcDbEntity
  8
1
  6
Continuous
 62
     6
100
AcDbLine
 10
-380.6672295997784
 20
-246.3823337441977
 30
0.0
 11
-415.6672295997782
 21
-246.3823337441977
 31
0.0
  0
LINE
  5
23A
330
71
100
AcDbEntity
  8
1
  6
Continuous
 62
     2
100
AcDbLine
 10
-253.9753792399675
 20
-224.0073337441978
 30
0.0
 11
-248.9753792399675
 21
-222.7573337441978
 31
0.0
  0
LINE
  5
23B
330
71
100
AcDbEntity
  8
1
  6
Continuous
 62
     2
100
AcDbLine
 10
-253.9753792399675
 20
-226.5073337441978
 30
0.0
 11
-253.9753792399675
 21
-224.0073337441978
 31
0.0
  0
LINE
  5
23C
330
71
100
AcDbEntity
  8
1
  6
Continuous
 62
     2
100
AcDbLine
 10
-248.9753792399675
 20
-227.7573337441978
 30
0.0
 11
-253.9753792399675
 21
-226.5073337441978
 31
0.0
  0
LINE
  5
23D
330
71
100
AcDbEntity
  8
1
  6
Continuous
 62
     2
100
AcDbLine
 10
-248.9753792399675
 20
-222.7573337441978
 30
0.0
 11
-248.9753792399675
 21
-227.7573337441978
 31
0.0
  0
LINE
  5
23E
330
71
100
AcDbEntity
  8
1
  6
Continuous
 62
     7
100
AcDbLine
 10
-258.2120341265302
 20
-242.1323337441978
 30
0.0
 11
-240.0120341265301
 21
-242.1323337441977
 31
0.0
  0
LINE
  5
23F
330
71
100
AcDbEntity
  8
1
  6
Continuous
 62
     7
100
AcDbLine
 10
-258.2120341265302
 20
-242.1323337441978
 30
0.0
 11
-258.2120341265302
 21
-246.3823337441978
 31
0.0
  0
LINE
  5
240
330
71
100
AcDbEntity
  8
1
  6
Continuous
 62
     7
100
AcDbLine
 10
-221.8120341265302
 20
-242.1323337441977
 30
0.0
 11
-221.8120341265302
 21
-246.3823337441978
 31
0.0
  0
LINE
  5
241
330
71
100
AcDbEntity
  8
1
  6
Continuous
 62
     7
100
AcDbLine
 10
-240.0120341265301
 20
-242.1323337441977
 30
0.0
 11
-240.0120341265301
 21
-246.3823337441977
 31
0.0
  0
LINE
  5
242
330
71
100
AcDbEntity
  8
1
  6
Continuous
 62
     6
100
AcDbLine
 10
-240.0120341265301
 20
-246.3823337441977
 30
0.0
 11
-258.2120341265302
 21
-246.3823337441978
 31
0.0
  0
LINE
  5
243
330
71
100
AcDbEntity
  8
1
  6
Continuous
 62
     7
100
AcDbLine
 10
-240.0120341265301
 20
-242.1323337441977
 30
0.0
 11
-221.8120341265302
 21
-242.1323337441977
 31
0.0
  0
LINE
  5
244
330
71
100
AcDbEntity
  8
1
  6
Continuous
 62
     6
100
AcDbLine
 10
-258.2120341265302
 20
-220.8823337441977
 30
0.0
 11
-128.6672295997784
 21
-220.8823337441977
 31
0.0
  0
ARC
  5
245
102
{ACAD_REACTORS
330
2AD
330
2AE
102
}
330
71
100
AcDbEntity
  8
0
  6
Continuous
 62
     2
100
AcDbCircle
 10
-242.8203861275702
 20
-237.5619289822761
 30
0.0
 40
0.7717997786797793
100
AcDbArc
 50
321.879580202844
 51
38.12041979714938
  0
ARC
  5
246
102
{ACAD_REACTORS
330
2AD
330
2AE
102
}
330
71
100
AcDbEntity
  8
0
  6
Continuous
 62
     2
100
AcDbCircle
 10
-242.6206460912237
 20
-237.7186601603961
 30
0.0
 40
0.5179085730137529
100
AcDbArc
 50
218.1204197971956
 51
321.8795802027985
  0
ARC
  5
247
102
{ACAD_REACTORS
330
2AD
330
2AE
102
}
330
71
100
AcDbEntity
  8
0
  6
Continuous
 62
     2
100
AcDbCircle
 10
-242.4209060548776
 20
-237.5619289822761
 30
0.0
 40
0.7717997786794633
100
AcDbArc
 50
141.8795802028363
 51
218.1204197971703
  0
ARC
  5
248
102
{ACAD_REACTORS
330
2AD
330
2AE
102
}
330
71
100
AcDbEntity
  8
0
  6
Continuous
 62
     2
100
AcDbCircle
 10
-242.6206460912237
 20
-237.4051978041556
 30
0.0
 40
0.5179085730132998
100
AcDbArc
 50
38.12041979714704
 51
141.8795802028588
  0
ARC
  5
249
102
{ACAD_REACTORS
330
2A5
330
2A6
102
}
330
71
100
AcDbEntity
  8
0
  6
Continuous
 62
     2
100
AcDbCircle
 10
-245.6826602267876
 20
-238.9723953476843
 30
0.0
 40
2.227384008973501
100
AcDbArc
 50
58.06909105004111
 51
71.55192388186953
  0
ARC
  5
24A
102
{ACAD_REACTORS
330
2A5
330
2A6
102
}
330
71
100
AcDbEntity
  8
0
  6
Continuous
 62
     2
100
AcDbCircle
 10
-245.4209325258289
 20
-237.3568575529371
 30
0.0
 40
0.511580060194844
100
AcDbArc
 50
113.3722778881904
 51
151.4785267422984
  0
ARC
  5
24B
102
{ACAD_REACTORS
330
2A5
330
2A6
102
}
330
71
100
AcDbEntity
  8
0
  6
Continuous
 62
     2
100
AcDbCircle
 10
-245.0435752677485
 20
-237.5619289822761
 30
0.0
 40
0.9410597353332295
100
AcDbArc
 50
151.4785267422661
 51
208.5214732577066
  0
ARC
  5
24C
102
{ACAD_REACTORS
330
2A5
330
2A6
102
}
330
71
100
AcDbEntity
  8
0
  6
Continuous
 62
     2
100
AcDbCircle
 10
-245.8405331018805
 20
-234.2492480370197
 30
0.0
 40
4.852596863498131
100
AcDbArc
 50
275.158144769624
 51
285.9799912583529
  0
ARC
  5
24D
102
{ACAD_REACTORS
330
2A5
330
2A6
102
}
330
71
100
AcDbEntity
  8
0
  6
Continuous
 62
     2
100
AcDbCircle
 10
-245.5516770071446
 20
-237.4491386202413
 30
0.0
 40
1.63969512393938
100
AcDbArc
 50
195.0618917770886
 51
275.1581447696366
  0
ARC
  5
24E
102
{ACAD_REACTORS
330
2A5
330
2A6
102
}
330
71
100
AcDbEntity
  8
0
  6
Continuous
 62
     2
100
AcDbCircle
 10
-245.9708048506074
 20
-237.5619289822761
 30
0.0
 40
1.205656168390937
100
AcDbArc
 50
164.9381082228778
 51
195.0618917770948
  0
ARC
  5
24F
102
{ACAD_REACTORS
330
2A5
330
2A6
102
}
330
71
100
AcDbEntity
  8
0
  6
Continuous
 62
     2
100
AcDbCircle
 10
-245.5516770071446
 20
-237.674719344311
 30
0.0
 40
1.639695123940499
100
AcDbArc
 50
84.84185523036533
 51
164.9381082228874
  0
ARC
  5
250
102
{ACAD_REACTORS
330
2A9
330
2AA
102
}
330
71
100
AcDbEntity
  8
0
  6
Continuous
 62
     2
100
AcDbCircle
 10
-250.3816912613065
 20
-236.5281021879218
 30
0.0
 40
0.3157169230765071
100
AcDbArc
 50
115.3740086783541
 51
180.0
  0
ARC
  5
251
102
{ACAD_REACTORS
330
2A9
330
2AA
102
}
330
71
100
AcDbEntity
  8
0
  6
Continuous
 62
     2
100
AcDbCircle
 10
-250.3816912613065
 20
-234.3098189879856
 30
0.0
 40
0.315716923076792
100
AcDbArc
 50
180.0
 51
244.6259913216459
  0
ARC
  5
252
102
{ACAD_REACTORS
330
2A9
330
2AA
102
}
330
71
100
AcDbEntity
  8
0
  6
Continuous
 62
     2
100
AcDbCircle
 10
-250.3760751259965
 20
-235.4071186470479
 30
0.0
 40
2.018561131933266
100
AcDbArc
 50
269.8110329575858
 51
90.18896704241416
  0
ARC
  5
253
102
{ACAD_REACTORS
330
2A9
330
2AA
102
}
330
71
100
AcDbEntity
  8
0
  6
Continuous
 62
     2
100
AcDbCircle
 10
-250.3816912613065
 20
-237.1099535946169
 30
0.0
 40
0.315716923076792
100
AcDbArc
 50
180.0
 51
269.8110329574541
  0
ARC
  5
254
102
{ACAD_REACTORS
330
2A7
330
2A8
102
}
330
71
100
AcDbEntity
  8
0
  6
Continuous
 62
     2
100
AcDbCircle
 10
-229.3182310465759
 20
-237.3568575529371
 30
0.0
 40
0.5115800601944143
100
AcDbArc
 50
109.3371432194853
 51
151.4785267424225
  0
ARC
  5
255
102
{ACAD_REACTORS
330
2A7
330
2A8
102
}
330
71
100
AcDbEntity
  8
0
  6
Continuous
 62
     2
100
AcDbCircle
 10
-229.3182310465759
 20
-237.7670004116146
 30
0.0
 40
0.5115800601960215
100
AcDbArc
 50
208.5214732576866
 51
246.6277221118449
  0
ARC
  5
256
102
{ACAD_REACTORS
330
2A7
330
2A8
102
}
330
71
100
AcDbEntity
  8
0
  6
Continuous
 62
     2
100
AcDbCircle
 10
-229.8681033713533
 20
-237.5619289822761
 30
0.0
 40
1.205656168392995
100
AcDbArc
 50
164.9381082229041
 51
195.0618917770959
  0
ARC
  5
257
102
{ACAD_REACTORS
330
2A7
330
2A8
102
}
330
71
100
AcDbEntity
  8
0
  6
Continuous
 62
     2
100
AcDbCircle
 10
-229.4489755278917
 20
-237.674719344311
 30
0.0
 40
1.639695123940214
100
AcDbArc
 50
90.0
 51
164.9381082228959
  0
ARC
  5
258
102
{ACAD_REACTORS
330
2AB
330
2AC
102
}
330
71
100
AcDbEntity
  8
0
  6
Continuous
 62
     2
100
AcDbCircle
 10
-238.8759706205954
 20
-234.2027385061018
 30
0.0
 40
1.526904761905911
100
AcDbArc
 50
90.0
 51
270.0
  0
ARC
  5
259
102
{ACAD_REACTORS
330
2AF
330
2B0
102
}
330
71
100
AcDbEntity
  8
0
  6
Continuous
 62
     2
100
AcDbCircle
 10
-245.6186613658212
 20
-233.6918034143071
 30
0.0
 40
0.3528638246711182
100
AcDbArc
 50
270.0
 51
90.0
  0
ARC
  5
25A
102
{ACAD_REACTORS
330
2A9
330
2AA
102
}
330
71
100
AcDbEntity
  8
0
  6
Continuous
 62
     2
100
AcDbCircle
 10
-252.9572399478383
 20
-233.7041062228307
 30
0.0
 40
0.3157169230761951
100
AcDbArc
 50
90.0
 51
180.0
  0
ARC
  5
25B
102
{ACAD_REACTORS
330
2A9
330
2AA
102
}
330
71
100
AcDbEntity
  8
0
  6
Continuous
 62
     2
100
AcDbCircle
 10
-250.9588222392536
 20
-235.4189605879534
 30
0.0
 40
0.9118975235575889
100
AcDbArc
 50
115.194410648529
 51
244.8055893514878
  0
ARC
  5
25C
102
{ACAD_REACTORS
330
2A9
330
2AA
102
}
330
71
100
AcDbEntity
  8
0
  6
Continuous
 62
     2
100
AcDbCircle
 10
-251.4814066868286
 20
-236.5297903340162
 30
0.0
 40
0.315716923076593
100
AcDbArc
 50
0.0
 51
64.80558935146249
  0
ARC
  5
25D
102
{ACAD_REACTORS
330
2A9
330
2AA
102
}
330
71
100
AcDbEntity
  8
0
  6
Continuous
 62
     2
100
AcDbCircle
 10
-253.5511346245847
 20
-238.6645891287981
 30
0.0
 40
0.4242446153828041
100
AcDbArc
 50
180.0
 51
270.0
  0
ARC
  5
25E
102
{ACAD_REACTORS
330
2AB
330
2AC
102
}
330
71
100
AcDbEntity
  8
0
  6
Continuous
 62
     2
100
AcDbCircle
 10
-238.6596986104302
 20
-234.0460073279813
 30
0.0
 40
0.5179085730135266
100
AcDbArc
 50
38.12041979714334
 51
141.8795802028489
  0
ARC
  5
25F
102
{ACAD_REACTORS
330
2AB
330
2AC
102
}
330
71
100
AcDbEntity
  8
0
  6
Continuous
 62
     2
100
AcDbCircle
 10
-238.4599585740839
 20
-234.2027385061018
 30
0.0
 40
0.77179977867969
100
AcDbArc
 50
141.8795802028388
 51
218.1204197971546
  0
ARC
  5
260
102
{ACAD_REACTORS
330
2AD
330
2AE
102
}
330
71
100
AcDbEntity
  8
0
  6
Continuous
 62
     2
100
AcDbCircle
 10
-242.6206460912237
 20
-237.0233539719728
 30
0.0
 40
2.065479772208509
100
AcDbArc
 50
242.4518518243402
 51
297.5481481756871
  0
ARC
  5
261
102
{ACAD_REACTORS
330
2AD
330
2AE
102
}
330
71
100
AcDbEntity
  8
0
  6
Continuous
 62
     2
100
AcDbCircle
 10
-242.6206460912237
 20
-238.1005039925789
 30
0.0
 40
2.065479772208568
100
AcDbArc
 50
62.45185182430637
 51
117.5481481756664
  0
ARC
  5
262
102
{ACAD_REACTORS
330
2AD
330
2AE
102
}
330
71
100
AcDbEntity
  8
0
  6
Continuous
 62
     2
100
AcDbCircle
 10
-242.901585983057
 20
-237.5619289822761
 30
0.0
 40
1.45803408365149
100
AcDbArc
 50
117.5481481756624
 51
242.4518518243375
  0
ARC
  5
263
102
{ACAD_REACTORS
330
2AD
330
2AE
102
}
330
71
100
AcDbEntity
  8
0
  6
Continuous
 62
     2
100
AcDbCircle
 10
-242.3397061993904
 20
-237.5619289822761
 30
0.0
 40
1.458034083652003
100
AcDbArc
 50
297.548148175701
 51
62.45185182429896
  0
ARC
  5
264
102
{ACAD_REACTORS
330
2AB
330
2AC
102
}
330
71
100
AcDbEntity
  8
0
  6
Continuous
 62
     2
100
AcDbCircle
 10
-238.6596986104302
 20
-234.3594696842222
 30
0.0
 40
0.5179085730134372
100
AcDbArc
 50
218.1204197971511
 51
321.8795802028566
  0
ARC
  5
265
102
{ACAD_REACTORS
330
2AB
330
2AC
102
}
330
71
100
AcDbEntity
  8
0
  6
Continuous
 62
     2
100
AcDbCircle
 10
-238.8594386467764
 20
-234.2027385061018
 30
0.0
 40
0.7717997786796198
100
AcDbArc
 50
321.8795802028454
 51
38.12041979716123
  0
ARC
  5
266
102
{ACAD_REACTORS
330
2A9
330
2AA
102
}
330
71
100
AcDbEntity
  8
0
  6
Continuous
 62
     2
100
AcDbCircle
 10
-248.0778225338679
 20
-238.6645891287981
 30
0.0
 40
0.4242446153832873
100
AcDbArc
 50
270.0
 51
0.0
  0
ARC
  5
267
102
{ACAD_REACTORS
330
2A9
330
2AA
102
}
330
71
100
AcDbEntity
  8
0
  6
Continuous
 62
     2
100
AcDbCircle
 10
-248.0778225338679
 20
-233.1000783595979
 30
0.0
 40
0.4242446153837989
100
AcDbArc
 50
0.0
 51
90.0
  0
ARC
  5
268
102
{ACAD_REACTORS
330
2A9
330
2AA
102
}
330
71
100
AcDbEntity
  8
0
  6
Continuous
 62
     2
100
AcDbCircle
 10
-253.5511346245847
 20
-233.1000783595979
 30
0.0
 40
0.4242446153837989
100
AcDbArc
 50
90.0
 51
180.0
  0
ARC
  5
269
102
{ACAD_REACTORS
330
2A9
330
2AA
102
}
330
71
100
AcDbEntity
  8
0
  6
Continuous
 62
     2
100
AcDbCircle
 10
-251.4814066868286
 20
-238.0605612655478
 30
0.0
 40
0.3157169230767067
100
AcDbArc
 50
270.0
 51
0.0
  0
ARC
  5
26A
102
{ACAD_REACTORS
330
2A9
330
2AA
102
}
330
71
100
AcDbEntity
  8
0
  6
Continuous
 62
     2
100
AcDbCircle
 10
-251.4814066868286
 20
-234.3081308418912
 30
0.0
 40
0.315716923076146
100
AcDbArc
 50
295.1944106485375
 51
0.0
  0
ARC
  5
26B
102
{ACAD_REACTORS
330
2A9
330
2AA
102
}
330
71
100
AcDbEntity
  8
0
  6
Continuous
 62
     2
100
AcDbCircle
 10
-251.4814066868286
 20
-233.7041062228307
 30
0.0
 40
0.315716923076593
100
AcDbArc
 50
0.0
 51
90.0
  0
ARC
  5
26C
102
{ACAD_REACTORS
330
2A9
330
2AA
102
}
330
71
100
AcDbEntity
  8
0
  6
Continuous
 62
     2
100
AcDbCircle
 10
-252.9572399478383
 20
-238.0605612655478
 30
0.0
 40
0.3157169230755983
100
AcDbArc
 50
180.0
 51
270.0
  0
ARC
  5
26D
102
{ACAD_REACTORS
330
2AF
330
2B0
102
}
330
71
100
AcDbEntity
  8
0
  6
Continuous
 62
     2
100
AcDbCircle
 10
-245.1771888395828
 20
-233.7311993855296
 30
0.0
 40
1.05536564133368
100
AcDbArc
 50
270.0
 51
90.0
  0
ARC
  5
26E
102
{ACAD_REACTORS
330
2A7
330
2A8
102
}
330
71
100
AcDbEntity
  8
0
  6
Continuous
 62
     2
100
AcDbCircle
 10
-229.4489755278917
 20
-237.4491386202413
 30
0.0
 40
1.639695123940441
100
AcDbArc
 50
195.0618917771002
 51
275.1581447696763
  0
ARC
  5
26F
102
{ACAD_REACTORS
330
2A7
330
2A8
102
}
330
71
100
AcDbEntity
  8
0
  6
Continuous
 62
     2
100
AcDbCircle
 10
-229.7378316226275
 20
-234.2492480370197
 30
0.0
 40
4.852596863498825
100
AcDbArc
 50
275.1581447696364
 51
285.9799912583387
  0
ARC
  5
270
102
{ACAD_REACTORS
330
2A7
330
2A8
102
}
330
71
100
AcDbEntity
  8
0
  6
Continuous
 62
     2
100
AcDbCircle
 10
-229.5799587475347
 20
-236.151462616868
 30
0.0
 40
2.227384008972773
100
AcDbArc
 50
288.4480761181333
 51
301.9309089499394
  0
ARC
  5
271
102
{ACAD_REACTORS
330
2A7
330
2A8
102
}
330
71
100
AcDbEntity
  8
0
  6
Continuous
 62
     2
100
AcDbCircle
 10
-229.1617910138728
 20
-237.4050083929046
 30
0.0
 40
0.9059297849852801
100
AcDbArc
 50
246.6277221118183
 51
288.4480761180811
  0
ARC
  5
272
102
{ACAD_REACTORS
330
2A7
330
2A8
102
}
330
71
100
AcDbEntity
  8
0
  6
Continuous
 62
     2
100
AcDbCircle
 10
-228.9408737884945
 20
-237.5619289822761
 30
0.0
 40
0.9410597353348924
100
AcDbArc
 50
151.4785267423624
 51
208.5214732576695
  0
ARC
  5
273
102
{ACAD_REACTORS
330
2A7
330
2A8
102
}
330
71
100
AcDbEntity
  8
0
  6
Continuous
 62
     2
100
AcDbCircle
 10
-229.1715610484722
 20
-237.77481253332
 30
0.0
 40
0.9545230068260935
100
AcDbArc
 50
90.0
 51
109.337143219432
  0
ARC
  5
274
102
{ACAD_REACTORS
330
2A9
330
2AA
102
}
330
71
100
AcDbEntity
  8
0
  6
Continuous
 62
     2
100
AcDbCircle
 10
-250.3816912613065
 20
-233.7042836994788
 30
0.0
 40
0.3157169230760711
100
AcDbArc
 50
90.18896704254594
 51
180.0
  0
ARC
  5
275
102
{ACAD_REACTORS
330
2A9
330
2AA
102
}
330
71
100
AcDbEntity
  8
0
  6
Continuous
 62
     2
100
AcDbCircle
 10
-250.9077339593944
 20
-235.4189605879534
 30
0.0
 40
0.9118481501444847
100
AcDbArc
 50
295.3740086781757
 51
64.62599132180748
  0
ARC
  5
276
102
{ACAD_REACTORS
330
2A5
330
2A6
102
}
330
71
100
AcDbEntity
  8
0
  6
Continuous
 62
     2
100
AcDbCircle
 10
-245.6826602267876
 20
-236.1514626168674
 30
0.0
 40
2.227384008972737
100
AcDbArc
 50
288.4480761181305
 51
301.9309089499593
  0
ARC
  5
277
102
{ACAD_REACTORS
330
2A5
330
2A6
102
}
330
71
100
AcDbEntity
  8
0
  6
Continuous
 62
     2
100
AcDbCircle
 10
-245.2644924931268
 20
-237.4050083929046
 30
0.0
 40
0.9059297849849192
100
AcDbArc
 50
246.627722111871
 51
288.4480761181528
  0
ARC
  5
278
102
{ACAD_REACTORS
330
2A5
330
2A6
102
}
330
71
100
AcDbEntity
  8
0
  6
Continuous
 62
     2
100
AcDbCircle
 10
-245.4209325258289
 20
-237.7670004116146
 30
0.0
 40
0.5115800601947035
100
AcDbArc
 50
208.5214732577016
 51
246.6277221118361
  0
ARC
  5
279
102
{ACAD_REACTORS
330
2A5
330
2A6
102
}
330
71
100
AcDbEntity
  8
0
  6
Continuous
 62
     2
100
AcDbCircle
 10
-245.2644924931268
 20
-237.7188495716477
 30
0.0
 40
0.9059297849852959
100
AcDbArc
 50
71.55192388185858
 51
113.372277888129
  0
ARC
  5
27A
102
{ACAD_REACTORS
330
2A5
330
2A6
102
}
330
71
100
AcDbEntity
  8
0
  6
Continuous
 62
     2
100
AcDbCircle
 10
-245.8405331018805
 20
-240.874609927532
 30
0.0
 40
4.852596863498068
100
AcDbArc
 50
74.02000874164739
 51
84.84185523037605
  0
CIRCLE
  5
27B
102
{ACAD_REACTORS
330
2A9
330
2AA
102
}
330
71
100
AcDbEntity
  8
0
  6
Continuous
 62
     2
100
AcDbCircle
 10
-250.9315489740672
 20
-235.4189605879534
 30
0.0
 40
0.4709789327785074
  0
CIRCLE
  5
27C
330
71
100
AcDbEntity
  8
1
  6
Continuous
 62
     2
100
AcDbCircle
 10
-245.4753792399675
 20
-225.2573337441978
 30
0.0
 40
1.249999999999915
  0
CIRCLE
  5
27D
330
71
100
AcDbEntity
  8
1
  6
Continuous
 62
     2
100
AcDbCircle
 10
-245.4753792399675
 20
-225.2573337441978
 30
0.0
 40
2.5
  0
TEXT
  5
27E
330
71
100
AcDbEntity
  8
1
 62
     7
100
AcDbText
 10
-202.8384864045164
 20
-228.0823337441978
 30
0.0
 40
2.5
  1
/
 41
0.9
  7
CONVERTER_11
100
AcDbText
  0
TEXT
  5
280
330
71
100
AcDbEntity
  8
1
 62
     7
100
AcDbText
 10
-200.6821219074743
 20
-228.0823337441978
 30
0.0
 40
2.5
  1
00
 41
0.81
  7
CONVERTER_12
100
AcDbText
  0
TEXT
  5
281
330
71
100
AcDbEntity
  8
1
 62
     3
100
AcDbText
 10
-163.0856378814573
 20
-228.0823337441978
 30
0.0
 40
2.5
  1
26.02.2018
 41
0.81
  7
CONVERTER_12
100
AcDbText
  0
MTEXT
  5
282
330
71
100
AcDbEntity
  8
1
 62
     2
100
AcDbMText
 10
-163.0856378814573
 20
-221.8823337441978
 30
0.0
 40
1.8
 41
0.0
 71
     1
 72
     1
  1
date
  7
CONVERTER_11
 73
     1
 44
1.32052821128451
  0
MTEXT
  5
283
330
71
100
AcDbEntity
  8
1
 62
     2
100
AcDbMText
 10
-192.9120341265301
 20
-230.3823337441978
 30
0.0
 40
1.8
 41
0.0
 71
     1
 72
     1
  1
document-type
  7
CONVERTER_11
 73
     1
 44
1.20048019207683
  0
TEXT
  5
284
330
71
100
AcDbEntity
  8
1
 62
     3
100
AcDbText
 10
-192.9120341265301
 20
-236.5823337441978
 30
0.0
 40
2.5
  1
TECDOC 2D_Productdrawing
 41
0.81
  7
CONVERTER_12
100
AcDbText
  0
MTEXT
  5
286
330
71
100
AcDbEntity
  8
1
 62
     2
100
AcDbMText
 10
-220.7120341265301
 20
-221.8823337441977
 30
0.0
 40
1.8
 41
0.0
 71
     1
 72
     1
  1
document-No. / RI
  7
CONVERTER_13
 73
     1
 44
1.32052821128451
  0
TEXT
  5
287
330
71
100
AcDbEntity
  8
1
 62
     7
100
AcDbText
 10
-220.7120341265301
 20
-228.0823337441978
 30
0.0
 40
2.5
  1
01116874
 41
0.81
  7
CONVERTER_12
100
AcDbText
  0
MTEXT
  5
289
330
71
100
AcDbEntity
  8
1
 62
     3
100
AcDbMText
 10
-133.1264337406178
 20
-228.0823337441976
 30
0.0
 40
2.5
 41
0.0
 71
     8
 72
     1
  1
1:1
  7
CONVERTER_14
 73
     1
 44
1.32052821128451
  0
MTEXT
  5
28A
330
71
100
AcDbEntity
  8
1
 62
     2
100
AcDbMText
 10
-136.4856378814574
 20
-221.8823337441977
 30
0.0
 40
1.8
 41
0.0
 71
     1
 72
     1
  1
scale
  7
CONVERTER_11
 73
     1
 44
1.20048019207683
  0
MTEXT
  5
28B
330
71
100
AcDbEntity
  8
1
 62
     2
100
AcDbMText
 10
-220.7120341265301
 20
-230.3823337441977
 30
0.0
 40
1.8
 41
0.0
 71
     1
 72
     1
  1
ident.-No.
  7
CONVERTER_11
 73
     1
 44
1.20048019207683
  0
TEXT
  5
28C
330
71
100
AcDbEntity
  8
1
 62
     7
100
AcDbText
 10
-220.3120341265304
 20
-236.5823337441978
 30
0.0
 40
2.5
  1
0207159
 41
0.81
  7
CONVERTER_12
100
AcDbText
  0
MTEXT
  5
28D
330
71
100
AcDbEntity
  8
1
 62
     2
100
AcDbMText
 10
-292.6500488515777
 20
-233.6323337441978
 30
0.0
 40
2.0
 41
0.0
 71
     5
 72
     1
  1
General Information\P- Simplified representation\P- Document excluded from change process\P- Linear dimensions [mm]
  7
CONVERTER_11
 73
     1
 44
1.20048019207683
  0
MTEXT
  5
28E
330
71
100
AcDbEntity
  8
1
 62
     7
100
AcDbMText
 10
-126.1672295997811
 20
-171.3823337441958
 30
0.0
 40
3.5
 41
0.0
 71
     5
 72
     1
  1
C
  7
CONVERTER_11
 73
     1
 44
1.20048019207683
  0
MTEXT
  5
28F
330
71
100
AcDbEntity
  8
1
 62
     7
100
AcDbMText
 10
-126.1672295997811
 20
-68.8823337441977
 30
0.0
 40
3.5
 41
0.0
 71
     5
 72
     1
  1
A
  7
CONVERTER_11
 73
     1
 44
1.20048019207683
  0
MTEXT
  5
290
330
71
100
AcDbEntity
  8
1
 62
     7
100
AcDbMText
 10
-126.1672295997811
 20
-121.3823337441958
 30
0.0
 40
3.5
 41
0.0
 71
     5
 72
     1
  1
B
  7
CONVERTER_11
 73
     1
 44
1.20048019207683
  0
MTEXT
  5
291
330
71
100
AcDbEntity
  8
1
 62
     7
100
AcDbMText
 10
-126.1672295997811
 20
-223.8823337441977
 30
0.0
 40
3.5
 41
0.0
 71
     5
 72
     1
  1
D
  7
CONVERTER_11
 73
     1
 44
1.20048019207683
  0
MTEXT
  5
292
330
71
100
AcDbEntity
  8
1
 62
     7
100
AcDbMText
 10
-396.4172295997797
 20
-248.8823337441978
 30
0.0
 40
3.5
 41
0.0
 71
     5
 72
     1
  1
1
  7
CONVERTER_11
 73
     1
 44
1.20048019207683
  0
MTEXT
  5
293
330
71
100
AcDbEntity
  8
1
 62
     7
100
AcDbMText
 10
-347.1672295997801
 20
-248.8823337441978
 30
0.0
 40
3.5
 41
0.0
 71
     5
 72
     1
  1
2
  7
CONVERTER_11
 73
     1
 44
1.20048019207683
  0
MTEXT
  5
294
330
71
100
AcDbEntity
  8
1
 62
     7
100
AcDbMText
 10
-297.1672295997801
 20
-248.8823337441978
 30
0.0
 40
3.5
 41
0.0
 71
     5
 72
     1
  1
3
  7
CONVERTER_11
 73
     1
 44
1.20048019207683
  0
MTEXT
  5
295
330
71
100
AcDbEntity
  8
1
 62
     7
100
AcDbMText
 10
-247.1672295997802
 20
-248.8823337441978
 30
0.0
 40
3.5
 41
0.0
 71
     5
 72
     1
  1
4
  7
CONVERTER_11
 73
     1
 44
1.20048019207683
  0
MTEXT
  5
296
330
71
100
AcDbEntity
  8
1
 62
     7
100
AcDbMText
 10
-197.1672295997801
 20
-248.8823337441978
 30
0.0
 40
3.5
 41
0.0
 71
     5
 72
     1
  1
5
  7
CONVERTER_11
 73
     1
 44
1.20048019207683
  0
MTEXT
  5
297
330
71
100
AcDbEntity
  8
1
 62
     7
100
AcDbMText
 10
-147.9172295997809
 20
-248.8823337441978
 30
0.0
 40
3.5
 41
0.0
 71
     5
 72
     1
  1
6
  7
CONVERTER_11
 73
     1
 44
1.20048019207683
  0
MTEXT
  5
298
330
71
100
AcDbEntity
  8
1
 62
     7
100
AcDbMText
 10
-418.1672295997792
 20
-68.8823337441977
 30
0.0
 40
3.5
 41
0.0
 71
     5
 72
     1
  1
A
  7
CONVERTER_11
 73
     1
 44
1.20048019207683
  0
MTEXT
  5
299
330
71
100
AcDbEntity
  8
1
 62
     7
100
AcDbMText
 10
-418.1672295997792
 20
-121.3823337441977
 30
0.0
 40
3.5
 41
0.0
 71
     5
 72
     1
  1
B
  7
CONVERTER_11
 73
     1
 44
1.20048019207683
  0
MTEXT
  5
29A
330
71
100
AcDbEntity
  8
1
 62
     7
100
AcDbMText
 10
-418.1672295997792
 20
-171.3823337441977
 30
0.0
 40
3.5
 41
0.0
 71
     5
 72
     1
  1
C
  7
CONVERTER_11
 73
     1
 44
1.20048019207683
  0
MTEXT
  5
29B
330
71
100
AcDbEntity
  8
1
 62
     7
100
AcDbMText
 10
-418.1672295997792
 20
-223.8823337441977
 30
0.0
 40
3.5
 41
0.0
 71
     5
 72
     1
  1
D
  7
CONVERTER_11
 73
     1
 44
1.20048019207683
  0
MTEXT
  5
29C
330
71
100
AcDbEntity
  8
1
 62
     3
100
AcDbMText
 10
-232.0120341265302
 20
-225.2573337441977
 30
0.0
 40
2.5
 41
0.0
 71
     5
 72
     1
  1
DIN A4
  7
CONVERTER_11
 73
     1
 44
1.20048019207683
  0
MTEXT
  5
29D
330
71
100
AcDbEntity
  8
1
 62
     2
100
AcDbMText
 10
-220.8120341265302
 20
-238.8823337441977
 30
0.0
 40
1.8
 41
0.0
 71
     1
 72
     1
  1
description
  7
CONVERTER_11
 73
     1
 44
1.20048019207683
  0
MTEXT
  5
29E
330
71
100
AcDbEntity
  8
1
 62
     7
100
AcDbMText
 10
-175.2396318631546
 20
-243.1323337441975
 30
0.0
 40
3.0
 41
0.0
 71
     5
 72
     1
  1
EB  2-25
  7
CONVERTER_12
 73
     1
 44
1.20048019207683
  0
TEXT
  5
29F
330
71
100
AcDbEntity
  8
1
 62
     2
100
AcDbText
 10
-233.7767253167166
 20
-245.1323337441978
 30
0.0
 40
1.8
  1
1
 41
0.9
  7
CONVERTER_11
100
AcDbText
  0
TEXT
  5
2A0
330
71
100
AcDbEntity
  8
1
 62
     2
100
AcDbText
 10
-248.5657691561881
 20
-245.1815823979997
 30
0.0
 40
1.8
  1
1
 41
0.9
  7
CONVERTER_11
100
AcDbText
  0
TEXT
  5
2A1
330
71
100
AcDbEntity
  8
1
 62
     2
100
AcDbText
 10
-257.2120341265302
 20
-245.1413509591894
 30
0.0
 40
1.8
  1
page
 41
0.9
  7
CONVERTER_11
100
AcDbText
  0
TEXT
  5
2A2
330
71
100
AcDbEntity
  8
1
 62
     2
100
AcDbText
 10
-239.0120341265303
 20
-245.1413509591893
 30
0.0
 40
1.8
  1
of
 41
0.9
  7
CONVERTER_11
100
AcDbText
  0
MTEXT
  5
2A3
330
71
100
AcDbEntity
  8
1
 62
     3
100
AcDbMText
 10
-232.8090519749202
 20
-59.5910255888989
 30
0.0
 40
1.8
 41
0.0
 71
     7
 72
     1
  3
Transfer or duplication of this document as well as the utilisation or\Pcommunication of its content are not permitted unless express consent\Pis granted. Violations give rise to claims for damages. All rights reserved\Pin case of patent, utility mo
  1
del or design patent registrations.
  7
CONVERTER_11
 73
     1
 44
0.99639855942377
  0
MTEXT
  5
2A4
330
71
100
AcDbEntity
  8
1
 62
     3
100
AcDbMText
 10
-415.6621618137083
 20
-59.5910255888989
 30
0.0
 40
1.8
 41
0.0
 71
     7
 72
     1
  3
Weitergabe sowie Vervielf\U+00e4ltigung dieses Dokuments, Verwertung und \PMitteilung seines Inhalts sind verboten, soweit nicht ausdr\U+00fccklich gestattet. \PZuwiderhandlungen verpflichten zu Schadenersatz. Alle Rechte f\U+00fcr den Fall\Pder Pat
  1
ent-, Gebrauchsmuster- oder Designeintragung vorbehalten.
  7
CONVERTER_11
 73
     1
 44
0.99639855942377
  0
HATCH
  5
2A5
330
71
100
AcDbEntity
  8
1
  6
Continuous
 62
     2
100
AcDbHatch
 10
0.0
 20
0.0
 30
0.0
210
0.0
220
0.0
230
1.0
  2
_USER
 70
     0
 71
     1
 91
        1
 92
        1
 93
       14
 72
     2
 10
-245.9708048506074
 20
-237.5619289822761
 40
1.205656168390937
 50
164.9381082228778
 51
195.0618917770948
 73
     1
 72
     2
 10
-245.5516770071446
 20
-237.4491386202413
 40
1.63969512393938
 50
195.0618917770886
 51
275.1581447696366
 73
     1
 72
     2
 10
-245.8405331018805
 20
-234.2492480370197
 40
4.852596863498131
 50
275.158144769624
 51
285.9799912583529
 73
     1
 72
     1
 10
-244.5046051847627
 20
-238.9143303428205
 11
-244.5046051847627
 21
-238.0418133360173
 72
     2
 10
-245.6826602267876
 20
-236.1514626168674
 40
2.227384008972737
 50
58.0690910500407
 51
71.55192388186951
 73
     0
 72
     2
 10
-245.2644924931268
 20
-237.4050083929046
 40
0.9059297849849192
 50
71.55192388184723
 51
113.372277888129
 73
     0
 72
     2
 10
-245.4209325258289
 20
-237.7670004116146
 40
0.5115800601947035
 50
113.3722778881639
 51
151.4785267422984
 73
     0
 72
     2
 10
-245.0435752677485
 20
-237.5619289822761
 40
0.9410597353332295
 50
151.4785267422934
 51
208.5214732577339
 73
     0
 72
     2
 10
-245.4209325258289
 20
-237.3568575529371
 40
0.511580060194844
 50
208.5214732577016
 51
246.6277221118096
 73
     0
 72
     2
 10
-245.2644924931268
 20
-237.7188495716477
 40
0.9059297849852959
 50
246.627722111871
 51
288.4480761181414
 73
     0
 72
     2
 10
-245.6826602267876
 20
-238.9723953476843
 40
2.227384008973501
 50
288.4480761181305
 51
301.9309089499589
 73
     0
 72
     1
 10
-244.5046051847627
 20
-237.0820446285344
 11
-244.5046051847627
 21
-236.2095276217311
 72
     2
 10
-245.8405331018805
 20
-240.874609927532
 40
4.852596863498068
 50
74.02000874164739
 51
84.84185523037605
 73
     1
 72
     2
 10
-245.5516770071446
 20
-237.674719344311
 40
1.639695123940499
 50
84.84185523036533
 51
164.9381082228874
 73
     1
 97
       14
330
27A
330
193
330
249
330
279
330
24A
330
24B
330
278
330
277
330
276
330
194
330
24C
330
24D
330
24E
330
24F
 75
     1
 76
     0
 52
45.0
 41
0.1
 77
     0
 78
     1
 53
45.0
 43
0.0
 44
0.0
 45
-0.0707106781186548
 46
0.0707106781186548
 79
     0
 98
        1
 10
0.0
 20
0.0
  0
HATCH
  5
2A6
330
71
100
AcDbEntity
  8
1
  6
Continuous
 62
     2
100
AcDbHatch
 10
0.0
 20
0.0
 30
0.0
210
0.0
220
0.0
230
1.0
  2
_USER
 70
     0
 71
     1
 91
        1
 92
        1
 93
       14
 72
     2
 10
-245.9708048506074
 20
-237.5619289822761
 40
1.205656168390937
 50
164.9381082228778
 51
195.0618917770948
 73
     1
 72
     2
 10
-245.5516770071446
 20
-237.4491386202413
 40
1.63969512393938
 50
195.0618917770886
 51
275.1581447696366
 73
     1
 72
     2
 10
-245.8405331018805
 20
-234.2492480370197
 40
4.852596863498131
 50
275.158144769624
 51
285.9799912583529
 73
     1
 72
     1
 10
-244.5046051847627
 20
-238.9143303428205
 11
-244.5046051847627
 21
-238.0418133360173
 72
     2
 10
-245.6826602267876
 20
-236.1514626168674
 40
2.227384008972737
 50
58.0690910500407
 51
71.55192388186951
 73
     0
 72
     2
 10
-245.2644924931268
 20
-237.4050083929046
 40
0.9059297849849192
 50
71.55192388184723
 51
113.372277888129
 73
     0
 72
     2
 10
-245.4209325258289
 20
-237.7670004116146
 40
0.5115800601947035
 50
113.3722778881639
 51
151.4785267422984
 73
     0
 72
     2
 10
-245.0435752677485
 20
-237.5619289822761
 40
0.9410597353332295
 50
151.4785267422934
 51
208.5214732577339
 73
     0
 72
     2
 10
-245.4209325258289
 20
-237.3568575529371
 40
0.511580060194844
 50
208.5214732577016
 51
246.6277221118096
 73
     0
 72
     2
 10
-245.2644924931268
 20
-237.7188495716477
 40
0.9059297849852959
 50
246.627722111871
 51
288.4480761181414
 73
     0
 72
     2
 10
-245.6826602267876
 20
-238.9723953476843
 40
2.227384008973501
 50
288.4480761181305
 51
301.9309089499589
 73
     0
 72
     1
 10
-244.5046051847627
 20
-237.0820446285344
 11
-244.5046051847627
 21
-236.2095276217311
 72
     2
 10
-245.8405331018805
 20
-240.874609927532
 40
4.852596863498068
 50
74.02000874164739
 51
84.84185523037605
 73
     1
 72
     2
 10
-245.5516770071446
 20
-237.674719344311
 40
1.639695123940499
 50
84.84185523036533
 51
164.9381082228874
 73
     1
 97
       14
330
27A
330
193
330
249
330
279
330
24A
330
24B
330
278
330
277
330
276
330
194
330
24C
330
24D
330
24E
330
24F
 75
     1
 76
     0
 52
45.0
 41
0.1
 77
     0
 78
     1
 53
45.0
 43
0.0
 44
0.0
 45
-0.0707106781186548
 46
0.0707106781186548
 79
     0
 98
        1
 10
0.0
 20
0.0
  0
HATCH
  5
2A7
330
71
100
AcDbEntity
  8
1
  6
Continuous
 62
     2
100
AcDbHatch
 10
0.0
 20
0.0
 30
0.0
210
0.0
220
0.0
230
1.0
  2
_USER
 70
     0
 71
     1
 91
        1
 92
        1
 93
       18
 72
     2
 10
-229.4489755278917
 20
-237.674719344311
 40
1.639695123940214
 50
90.0
 51
164.9381082228959
 73
     1
 72
     2
 10
-229.8681033713533
 20
-237.5619289822761
 40
1.205656168392995
 50
164.9381082229041
 51
195.0618917770959
 73
     1
 72
     2
 10
-229.4489755278917
 20
-237.4491386202413
 40
1.639695123940441
 50
195.0618917771002
 51
275.1581447696763
 73
     1
 72
     2
 10
-229.7378316226275
 20
-234.2492480370197
 40
4.852596863498825
 50
275.1581447696364
 51
285.9799912583387
 73
     1
 72
     1
 10
-228.4019037055108
 20
-238.9143303428211
 11
-228.4019037055108
 21
-238.0418133360178
 72
     2
 10
-229.5799587475347
 20
-236.151462616868
 40
2.227384008972773
 50
58.06909105006066
 51
71.55192388186677
 73
     0
 72
     2
 10
-229.1617910138728
 20
-237.4050083929046
 40
0.9059297849852801
 50
71.55192388191882
 51
113.3722778881817
 73
     0
 72
     2
 10
-229.3182310465759
 20
-237.7670004116146
 40
0.5115800601960215
 50
113.3722778881551
 51
151.4785267423134
 73
     0
 72
     2
 10
-228.9408737884945
 20
-237.5619289822761
 40
0.9410597353348924
 50
151.4785267423305
 51
208.5214732576376
 73
     0
 72
     2
 10
-229.3182310465759
 20
-237.3568575529371
 40
0.5115800601944143
 50
208.5214732575775
 51
250.6628567805147
 73
     0
 72
     2
 10
-229.1715610484722
 20
-237.77481253332
 40
0.9545230068260935
 50
250.662856780568
 51
270.0
 73
     0
 72
     1
 10
-229.1715610484722
 20
-236.8202895264939
 11
-228.0679217489041
 21
-236.8202895264939
 72
     1
 10
-228.0679217489041
 20
-236.8202895264939
 11
-228.0679217489041
 21
-239.0888337441814
 72
     1
 10
-228.0679217489041
 20
-239.0888337441814
 11
-226.8751290467364
 21
-239.0888337441814
 72
     1
 10
-226.8751290467364
 20
-239.0888337441814
 11
-226.8751290467364
 21
-236.8202895264939
 72
     1
 10
-226.8751290467364
 20
-236.8202895264939
 11
-226.064030009263
 21
-236.8202895264939
 72
     1
 10
-226.064030009263
 20
-236.8202895264939
 11
-226.064030009263
 21
-236.0350242203703
 72
     1
 10
-226.064030009263
 20
-236.0350242203703
 11
-229.4489755278917
 21
-236.0350242203708
 97
       18
330
1F9
330
1F8
330
1F7
330
1F6
330
1FB
330
195
330
273
330
254
330
272
330
255
330
271
330
270
330
196
330
26F
330
26E
330
256
330
257
330
1FA
 75
     1
 76
     0
 52
45.0
 41
0.1
 77
     0
 78
     1
 53
45.0
 43
0.0
 44
0.0
 45
-0.0707106781186548
 46
0.0707106781186548
 79
     0
 98
        1
 10
0.0
 20
0.0
  0
HATCH
  5
2A8
330
71
100
AcDbEntity
  8
1
  6
Continuous
 62
     2
100
AcDbHatch
 10
0.0
 20
0.0
 30
0.0
210
0.0
220
0.0
230
1.0
  2
_USER
 70
     0
 71
     1
 91
        1
 92
        1
 93
       18
 72
     2
 10
-229.4489755278917
 20
-237.674719344311
 40
1.639695123940214
 50
90.0
 51
164.9381082228959
 73
     1
 72
     2
 10
-229.8681033713533
 20
-237.5619289822761
 40
1.205656168392995
 50
164.9381082229041
 51
195.0618917770959
 73
     1
 72
     2
 10
-229.4489755278917
 20
-237.4491386202413
 40
1.639695123940441
 50
195.0618917771002
 51
275.1581447696763
 73
     1
 72
     2
 10
-229.7378316226275
 20
-234.2492480370197
 40
4.852596863498825
 50
275.1581447696364
 51
285.9799912583387
 73
     1
 72
     1
 10
-228.4019037055108
 20
-238.9143303428211
 11
-228.4019037055108
 21
-238.0418133360178
 72
     2
 10
-229.5799587475347
 20
-236.151462616868
 40
2.227384008972773
 50
58.06909105006066
 51
71.55192388186677
 73
     0
 72
     2
 10
-229.1617910138728
 20
-237.4050083929046
 40
0.9059297849852801
 50
71.55192388191882
 51
113.3722778881817
 73
     0
 72
     2
 10
-229.3182310465759
 20
-237.7670004116146
 40
0.5115800601960215
 50
113.3722778881551
 51
151.4785267423134
 73
     0
 72
     2
 10
-228.9408737884945
 20
-237.5619289822761
 40
0.9410597353348924
 50
151.4785267423305
 51
208.5214732576376
 73
     0
 72
     2
 10
-229.3182310465759
 20
-237.3568575529371
 40
0.5115800601944143
 50
208.5214732575775
 51
250.6628567805147
 73
     0
 72
     2
 10
-229.1715610484722
 20
-237.77481253332
 40
0.9545230068260935
 50
250.662856780568
 51
270.0
 73
     0
 72
     1
 10
-229.1715610484722
 20
-236.8202895264939
 11
-228.0679217489041
 21
-236.8202895264939
 72
     1
 10
-228.0679217489041
 20
-236.8202895264939
 11
-228.0679217489041
 21
-239.0888337441814
 72
     1
 10
-228.0679217489041
 20
-239.0888337441814
 11
-226.8751290467364
 21
-239.0888337441814
 72
     1
 10
-226.8751290467364
 20
-239.0888337441814
 11
-226.8751290467364
 21
-236.8202895264939
 72
     1
 10
-226.8751290467364
 20
-236.8202895264939
 11
-226.064030009263
 21
-236.8202895264939
 72
     1
 10
-226.064030009263
 20
-236.8202895264939
 11
-226.064030009263
 21
-236.0350242203703
 72
     1
 10
-226.064030009263
 20
-236.0350242203703
 11
-229.4489755278917
 21
-236.0350242203708
 97
       18
330
1F9
330
1F8
330
1F7
330
1F6
330
1FB
330
195
330
273
330
254
330
272
330
255
330
271
330
270
330
196
330
26F
330
26E
330
256
330
257
330
1FA
 75
     1
 76
     0
 52
45.0
 41
0.1
 77
     0
 78
     1
 53
45.0
 43
0.0
 44
0.0
 45
-0.0707106781186548
 46
0.0707106781186548
 79
     0
 98
        1
 10
0.0
 20
0.0
  0
HATCH
  5
2A9
330
71
100
AcDbEntity
  8
1
  6
Continuous
 62
     2
100
AcDbHatch
 10
0.0
 20
0.0
 30
0.0
210
0.0
220
0.0
230
1.0
  2
_USER
 70
     0
 71
     1
 91
        4
 92
        1
 93
        8
 72
     2
 10
-253.5511346245847
 20
-233.1000783595979
 40
0.4242446153837989
 50
90.0
 51
180.0
 73
     1
 72
     1
 10
-253.9753792399675
 20
-233.1000783595979
 11
-253.9753792399675
 21
-238.6645891287981
 72
     2
 10
-253.5511346245847
 20
-238.6645891287981
 40
0.4242446153828041
 50
180.0
 51
270.0
 73
     1
 72
     1
 10
-253.5511346245847
 20
-239.0888337441814
 11
-248.0778225338679
 21
-239.0888337441814
 72
     2
 10
-248.0778225338679
 20
-238.6645891287981
 40
0.4242446153832873
 50
270.0
 51
360.0
 73
     1
 72
     1
 10
-247.6535779184841
 20
-238.6645891287981
 11
-247.6535779184841
 21
-233.1000783595979
 72
     2
 10
-248.0778225338679
 20
-233.1000783595979
 40
0.4242446153837989
 50
0.0
 51
90.0
 73
     1
 72
     1
 10
-248.0778225338679
 20
-232.6758337442141
 11
-253.5511346245847
 21
-232.6758337442141
 97
        8
330
267
330
1C4
330
266
330
1C5
330
25D
330
1C2
330
268
330
1C3
 92
       16
 93
        1
 72
     2
 10
-250.9315489740672
 20
-235.4189605879534
 40
0.4709789327785074
 50
0.0
 51
360.0
 73
     1
 97
        1
330
27B
 92
       16
 93
        8
 72
     2
 10
-250.9077339593944
 20
-235.4189605879534
 40
0.9118481501444847
 50
295.3740086781757
 51
424.6259913218075
 73
     1
 72
     2
 10
-250.3816912613065
 20
-234.3098189879856
 40
0.315716923076792
 50
115.3740086783541
 51
180.0
 73
     0
 72
     1
 10
-250.6974081843833
 20
-234.3098189879856
 11
-250.6974081843833
 21
-233.7042836994788
 72
     2
 10
-250.3816912613065
 20
-233.7042836994788
 40
0.3157169230760711
 50
180.0
 51
269.8110329574541
 73
     0
 72
     2
 10
-250.3760751259965
 20
-235.4071186470479
 40
2.018561131933266
 50
269.8110329575858
 51
450.1889670424142
 73
     0
 72
     2
 10
-250.3816912613065
 20
-237.1099535946169
 40
0.315716923076792
 50
90.1889670425459
 51
180.0
 73
     0
 72
     1
 10
-250.6974081843833
 20
-237.1099535946169
 11
-250.6974081843833
 21
-236.5281021879218
 72
     2
 10
-250.3816912613065
 20
-236.5281021879218
 40
0.3157169230765071
 50
180.0
 51
244.6259913216459
 73
     0
 97
        8
330
275
330
251
330
1FD
330
274
330
252
330
253
330
1FC
330
250
 92
       16
 93
       12
 72
     1
 10
-252.9572399478383
 20
-238.3762781886245
 11
-251.4814066868286
 21
-238.3762781886245
 72
     2
 10
-251.4814066868286
 20
-238.0605612655478
 40
0.3157169230767067
 50
270.0
 51
360.0
 73
     1
 72
     1
 10
-251.165689763752
 20
-238.0605612655478
 11
-251.165689763752
 21
-236.5297903340162
 72
     2
 10
-251.4814066868286
 20
-236.5297903340162
 40
0.315716923076593
 50
0.0
 51
64.80558935146249
 73
     1
 72
     2
 10
-250.9588222392536
 20
-235.4189605879534
 40
0.9118975235575889
 50
115.1944106485122
 51
244.805589351471
 73
     0
 72
     2
 10
-251.4814066868286
 20
-234.3081308418912
 40
0.315716923076146
 50
295.1944106485375
 51
360.0
 73
     1
 72
     1
 10
-251.165689763752
 20
-234.3081308418912
 11
-251.165689763752
 21
-233.7041062228307
 72
     2
 10
-251.4814066868286
 20
-233.7041062228307
 40
0.315716923076593
 50
0.0
 51
90.0
 73
     1
 72
     1
 10
-251.4814066868286
 20
-233.3883892997545
 11
-252.9572399478383
 21
-233.3883892997545
 72
     2
 10
-252.9572399478383
 20
-233.7041062228307
 40
0.3157169230761951
 50
90.0
 51
180.0
 73
     1
 72
     1
 10
-253.2729568709139
 20
-233.7041062228307
 11
-253.2729568709139
 21
-238.0605612655478
 72
     2
 10
-252.9572399478383
 20
-238.0605612655478
 40
0.3157169230755983
 50
180.0
 51
270.0
 73
     1
 97
       12
330
1C9
330
25A
330
1C8
330
26B
330
1C7
330
26A
330
25B
330
25C
330
1C6
330
269
330
1C1
330
26C
 75
     1
 76
     0
 52
45.0
 41
0.1
 77
     0
 78
     1
 53
45.0
 43
0.0
 44
0.0
 45
-0.0707106781186548
 46
0.0707106781186548
 79
     0
 98
        1
 10
0.0
 20
0.0
  0
HATCH
  5
2AA
330
71
100
AcDbEntity
  8
1
  6
Continuous
 62
     2
100
AcDbHatch
 10
0.0
 20
0.0
 30
0.0
210
0.0
220
0.0
230
1.0
  2
_USER
 70
     0
 71
     1
 91
        4
 92
        1
 93
        8
 72
     2
 10
-253.5511346245847
 20
-233.1000783595979
 40
0.4242446153837989
 50
90.0
 51
180.0
 73
     1
 72
     1
 10
-253.9753792399675
 20
-233.1000783595979
 11
-253.9753792399675
 21
-238.6645891287981
 72
     2
 10
-253.5511346245847
 20
-238.6645891287981
 40
0.4242446153828041
 50
180.0
 51
270.0
 73
     1
 72
     1
 10
-253.5511346245847
 20
-239.0888337441814
 11
-248.0778225338679
 21
-239.0888337441814
 72
     2
 10
-248.0778225338679
 20
-238.6645891287981
 40
0.4242446153832873
 50
270.0
 51
360.0
 73
     1
 72
     1
 10
-247.6535779184841
 20
-238.6645891287981
 11
-247.6535779184841
 21
-233.1000783595979
 72
     2
 10
-248.0778225338679
 20
-233.1000783595979
 40
0.4242446153837989
 50
0.0
 51
90.0
 73
     1
 72
     1
 10
-248.0778225338679
 20
-232.6758337442141
 11
-253.5511346245847
 21
-232.6758337442141
 97
        8
330
267
330
1C4
330
266
330
1C5
330
25D
330
1C2
330
268
330
1C3
 92
       16
 93
        1
 72
     2
 10
-250.9315489740672
 20
-235.4189605879534
 40
0.4709789327785074
 50
0.0
 51
360.0
 73
     1
 97
        1
330
27B
 92
       16
 93
        8
 72
     2
 10
-250.9077339593944
 20
-235.4189605879534
 40
0.9118481501444847
 50
295.3740086781757
 51
424.6259913218075
 73
     1
 72
     2
 10
-250.3816912613065
 20
-234.3098189879856
 40
0.315716923076792
 50
115.3740086783541
 51
180.0
 73
     0
 72
     1
 10
-250.6974081843833
 20
-234.3098189879856
 11
-250.6974081843833
 21
-233.7042836994788
 72
     2
 10
-250.3816912613065
 20
-233.7042836994788
 40
0.3157169230760711
 50
180.0
 51
269.8110329574541
 73
     0
 72
     2
 10
-250.3760751259965
 20
-235.4071186470479
 40
2.018561131933266
 50
269.8110329575858
 51
450.1889670424142
 73
     0
 72
     2
 10
-250.3816912613065
 20
-237.1099535946169
 40
0.315716923076792
 50
90.1889670425459
 51
180.0
 73
     0
 72
     1
 10
-250.6974081843833
 20
-237.1099535946169
 11
-250.6974081843833
 21
-236.5281021879218
 72
     2
 10
-250.3816912613065
 20
-236.5281021879218
 40
0.3157169230765071
 50
180.0
 51
244.6259913216459
 73
     0
 97
        8
330
275
330
251
330
1FD
330
274
330
252
330
253
330
1FC
330
250
 92
       16
 93
       12
 72
     1
 10
-252.9572399478383
 20
-238.3762781886245
 11
-251.4814066868286
 21
-238.3762781886245
 72
     2
 10
-251.4814066868286
 20
-238.0605612655478
 40
0.3157169230767067
 50
270.0
 51
360.0
 73
     1
 72
     1
 10
-251.165689763752
 20
-238.0605612655478
 11
-251.165689763752
 21
-236.5297903340162
 72
     2
 10
-251.4814066868286
 20
-236.5297903340162
 40
0.315716923076593
 50
0.0
 51
64.80558935146249
 73
     1
 72
     2
 10
-250.9588222392536
 20
-235.4189605879534
 40
0.9118975235575889
 50
115.1944106485122
 51
244.805589351471
 73
     0
 72
     2
 10
-251.4814066868286
 20
-234.3081308418912
 40
0.315716923076146
 50
295.1944106485375
 51
360.0
 73
     1
 72
     1
 10
-251.165689763752
 20
-234.3081308418912
 11
-251.165689763752
 21
-233.7041062228307
 72
     2
 10
-251.4814066868286
 20
-233.7041062228307
 40
0.315716923076593
 50
0.0
 51
90.0
 73
     1
 72
     1
 10
-251.4814066868286
 20
-233.3883892997545
 11
-252.9572399478383
 21
-233.3883892997545
 72
     2
 10
-252.9572399478383
 20
-233.7041062228307
 40
0.3157169230761951
 50
90.0
 51
180.0
 73
     1
 72
     1
 10
-253.2729568709139
 20
-233.7041062228307
 11
-253.2729568709139
 21
-238.0605612655478
 72
     2
 10
-252.9572399478383
 20
-238.0605612655478
 40
0.3157169230755983
 50
180.0
 51
270.0
 73
     1
 97
       12
330
1C9
330
25A
330
1C8
330
26B
330
1C7
330
26A
330
25B
330
25C
330
1C6
330
269
330
1C1
330
26C
 75
     1
 76
     0
 52
45.0
 41
0.1
 77
     0
 78
     1
 53
45.0
 43
0.0
 44
0.0
 45
-0.0707106781186548
 46
0.0707106781186548
 79
     0
 98
        1
 10
0.0
 20
0.0
  0
HATCH
  5
2AB
330
71
100
AcDbEntity
  8
1
  6
Continuous
 62
     2
100
AcDbHatch
 10
0.0
 20
0.0
 30
0.0
210
0.0
220
0.0
230
1.0
  2
_USER
 70
     0
 71
     1
 91
        2
 92
        1
 93
       12
 72
     2
 10
-238.8759706205954
 20
-234.2027385061018
 40
1.526904761905911
 50
90.0
 51
270.0
 73
     1
 72
     1
 10
-238.8759706205954
 20
-235.7296432680071
 11
-235.7256508968144
 21
-235.7296432680071
 72
     1
 10
-235.7256508968144
 20
-235.7296432680071
 11
-235.7256508968144
 21
-235.0316296625646
 72
     1
 10
-235.7256508968144
 20
-235.0316296625646
 11
-237.0615787232421
 21
-235.0316296625646
 72
     1
 10
-237.0615787232421
 20
-235.0316296625646
 11
-237.0615787232421
 21
-234.5517453088229
 72
     1
 10
-237.0615787232421
 20
-234.5517453088229
 11
-235.7256508968144
 21
-234.5517453088229
 72
     1
 10
-235.7256508968144
 20
-234.5517453088229
 11
-235.7256508968144
 21
-233.8537317033806
 72
     1
 10
-235.7256508968144
 20
-233.8537317033806
 11
-237.0615787232421
 21
-233.8537317033806
 72
     1
 10
-237.0615787232421
 20
-233.8537317033806
 11
-237.0615787232421
 21
-233.3738473496389
 72
     1
 10
-237.0615787232421
 20
-233.3738473496389
 11
-235.7256508968144
 21
-233.3738473496389
 72
     1
 10
-235.7256508968144
 20
-233.3738473496389
 11
-235.7256508968144
 21
-232.6758337441959
 72
     1
 10
-235.7256508968144
 20
-232.6758337441959
 11
-238.8759706205954
 21
-232.6758337441959
 97
       12
330
1B8
330
1B2
330
1D9
330
1D8
330
1D7
330
1D6
330
1B3
330
1B4
330
1B5
330
1B6
330
258
330
1B7
 92
       16
 93
        4
 72
     2
 10
-238.4599585740839
 20
-234.2027385061018
 40
0.77179977867969
 50
141.8795802028388
 51
218.1204197971546
 73
     1
 72
     2
 10
-238.6596986104302
 20
-234.3594696842222
 40
0.5179085730134372
 50
218.1204197971511
 51
321.8795802028566
 73
     1
 72
     2
 10
-238.8594386467764
 20
-234.2027385061018
 40
0.7717997786796198
 50
321.8795802028454
 51
398.1204197971612
 73
     1
 72
     2
 10
-238.6596986104302
 20
-234.0460073279813
 40
0.5179085730135266
 50
38.12041979714334
 51
141.8795802028489
 73
     1
 97
        4
330
265
330
264
330
25F
330
25E
 75
     1
 76
     0
 52
45.0
 41
0.1
 77
     0
 78
     1
 53
45.0
 43
0.0
 44
0.0
 45
-0.0707106781186548
 46
0.0707106781186548
 79
     0
 98
        1
 10
0.0
 20
0.0
  0
HATCH
  5
2AC
330
71
100
AcDbEntity
  8
1
  6
Continuous
 62
     2
100
AcDbHatch
 10
0.0
 20
0.0
 30
0.0
210
0.0
220
0.0
230
1.0
  2
_USER
 70
     0
 71
     1
 91
        2
 92
        1
 93
       12
 72
     2
 10
-238.8759706205954
 20
-234.2027385061018
 40
1.526904761905911
 50
90.0
 51
270.0
 73
     1
 72
     1
 10
-238.8759706205954
 20
-235.7296432680071
 11
-235.7256508968144
 21
-235.7296432680071
 72
     1
 10
-235.7256508968144
 20
-235.7296432680071
 11
-235.7256508968144
 21
-235.0316296625646
 72
     1
 10
-235.7256508968144
 20
-235.0316296625646
 11
-237.0615787232421
 21
-235.0316296625646
 72
     1
 10
-237.0615787232421
 20
-235.0316296625646
 11
-237.0615787232421
 21
-234.5517453088229
 72
     1
 10
-237.0615787232421
 20
-234.5517453088229
 11
-235.7256508968144
 21
-234.5517453088229
 72
     1
 10
-235.7256508968144
 20
-234.5517453088229
 11
-235.7256508968144
 21
-233.8537317033806
 72
     1
 10
-235.7256508968144
 20
-233.8537317033806
 11
-237.0615787232421
 21
-233.8537317033806
 72
     1
 10
-237.0615787232421
 20
-233.8537317033806
 11
-237.0615787232421
 21
-233.3738473496389
 72
     1
 10
-237.0615787232421
 20
-233.3738473496389
 11
-235.7256508968144
 21
-233.3738473496389
 72
     1
 10
-235.7256508968144
 20
-233.3738473496389
 11
-235.7256508968144
 21
-232.6758337441959
 72
     1
 10
-235.7256508968144
 20
-232.6758337441959
 11
-238.8759706205954
 21
-232.6758337441959
 97
       12
330
1B8
330
1B2
330
1D9
330
1D8
330
1D7
330
1D6
330
1B3
330
1B4
330
1B5
330
1B6
330
258
330
1B7
 92
       16
 93
        4
 72
     2
 10
-238.4599585740839
 20
-234.2027385061018
 40
0.77179977867969
 50
141.8795802028388
 51
218.1204197971546
 73
     1
 72
     2
 10
-238.6596986104302
 20
-234.3594696842222
 40
0.5179085730134372
 50
218.1204197971511
 51
321.8795802028566
 73
     1
 72
     2
 10
-238.8594386467764
 20
-234.2027385061018
 40
0.7717997786796198
 50
321.8795802028454
 51
398.1204197971612
 73
     1
 72
     2
 10
-238.6596986104302
 20
-234.0460073279813
 40
0.5179085730135266
 50
38.12041979714334
 51
141.8795802028489
 73
     1
 97
        4
330
265
330
264
330
25F
330
25E
 75
     1
 76
     0
 52
45.0
 41
0.1
 77
     0
 78
     1
 53
45.0
 43
0.0
 44
0.0
 45
-0.0707106781186548
 46
0.0707106781186548
 79
     0
 98
        1
 10
0.0
 20
0.0
  0
HATCH
  5
2AD
330
71
100
AcDbEntity
  8
1
  6
Continuous
 62
     2
100
AcDbHatch
 10
0.0
 20
0.0
 30
0.0
210
0.0
220
0.0
230
1.0
  2
_USER
 70
     0
 71
     1
 91
        2
 92
        1
 93
        4
 72
     2
 10
-242.901585983057
 20
-237.5619289822761
 40
1.45803408365149
 50
117.5481481756624
 51
242.4518518243375
 73
     1
 72
     2
 10
-242.6206460912237
 20
-237.0233539719728
 40
2.065479772208509
 50
242.4518518243402
 51
297.5481481756871
 73
     1
 72
     2
 10
-242.3397061993904
 20
-237.5619289822761
 40
1.458034083652003
 50
297.548148175701
 51
422.451851824299
 73
     1
 72
     2
 10
-242.6206460912237
 20
-238.1005039925789
 40
2.065479772208568
 50
62.45185182430637
 51
117.5481481756664
 73
     1
 97
        4
330
263
330
260
330
262
330
261
 92
       16
 93
        4
 72
     2
 10
-242.6206460912237
 20
-237.4051978041556
 40
0.5179085730132998
 50
38.12041979714704
 51
141.8795802028588
 73
     1
 72
     2
 10
-242.4209060548776
 20
-237.5619289822761
 40
0.7717997786794633
 50
141.8795802028363
 51
218.1204197971703
 73
     1
 72
     2
 10
-242.6206460912237
 20
-237.7186601603961
 40
0.5179085730137529
 50
218.1204197971956
 51
321.8795802027985
 73
     1
 72
     2
 10
-242.8203861275702
 20
-237.5619289822761
 40
0.7717997786797793
 50
321.879580202844
 51
398.1204197971494
 73
     1
 97
        4
330
246
330
247
330
248
330
245
 75
     1
 76
     0
 52
45.0
 41
0.1
 77
     0
 78
     1
 53
45.0
 43
0.0
 44
0.0
 45
-0.0707106781186548
 46
0.0707106781186548
 79
     0
 98
        1
 10
0.0
 20
0.0
  0
HATCH
  5
2AE
330
71
100
AcDbEntity
  8
1
  6
Continuous
 62
     2
100
AcDbHatch
 10
0.0
 20
0.0
 30
0.0
210
0.0
220
0.0
230
1.0
  2
_USER
 70
     0
 71
     1
 91
        2
 92
        1
 93
        4
 72
     2
 10
-242.901585983057
 20
-237.5619289822761
 40
1.45803408365149
 50
117.5481481756624
 51
242.4518518243375
 73
     1
 72
     2
 10
-242.6206460912237
 20
-237.0233539719728
 40
2.065479772208509
 50
242.4518518243402
 51
297.5481481756871
 73
     1
 72
     2
 10
-242.3397061993904
 20
-237.5619289822761
 40
1.458034083652003
 50
297.548148175701
 51
422.451851824299
 73
     1
 72
     2
 10
-242.6206460912237
 20
-238.1005039925789
 40
2.065479772208568
 50
62.45185182430637
 51
117.5481481756664
 73
     1
 97
        4
330
263
330
260
330
262
330
261
 92
       16
 93
        4
 72
     2
 10
-242.6206460912237
 20
-237.4051978041556
 40
0.5179085730132998
 50
38.12041979714704
 51
141.8795802028588
 73
     1
 72
     2
 10
-242.4209060548776
 20
-237.5619289822761
 40
0.7717997786794633
 50
141.8795802028363
 51
218.1204197971703
 73
     1
 72
     2
 10
-242.6206460912237
 20
-237.7186601603961
 40
0.5179085730137529
 50
218.1204197971956
 51
321.8795802027985
 73
     1
 72
     2
 10
-242.8203861275702
 20
-237.5619289822761
 40
0.7717997786797793
 50
321.879580202844
 51
398.1204197971494
 73
     1
 97
        4
330
246
330
247
330
248
330
245
 75
     1
 76
     0
 52
45.0
 41
0.1
 77
     0
 78
     1
 53
45.0
 43
0.0
 44
0.0
 45
-0.0707106781186548
 46
0.0707106781186548
 79
     0
 98
        1
 10
0.0
 20
0.0
  0
HATCH
  5
2AF
330
71
100
AcDbEntity
  8
1
  6
Continuous
 62
     2
100
AcDbHatch
 10
0.0
 20
0.0
 30
0.0
210
0.0
220
0.0
230
1.0
  2
_USER
 70
     0
 71
     1
 91
        2
 92
        1
 93
        6
 72
     1
 10
-247.1764608376172
 20
-232.6758337441959
 11
-247.1764608376172
 21
-235.7296432680071
 72
     1
 10
-247.1764608376172
 20
-235.7296432680071
 11
-245.9359564273631
 21
-235.7296432680071
 72
     1
 10
-245.9359564273631
 20
-235.7296432680071
 11
-245.9359564273631
 21
-234.7865650268633
 72
     1
 10
-245.9359564273631
 20
-234.7865650268633
 11
-245.1771888395828
 21
-234.7865650268633
 72
     2
 10
-245.1771888395828
 20
-233.7311993855296
 40
1.05536564133368
 50
270.0
 51
450.0
 73
     1
 72
     1
 10
-245.1771888395828
 20
-232.6758337441959
 11
-247.1764608376172
 21
-232.6758337441959
 97
        6
330
26D
330
1CA
330
1C0
330
1BF
330
1CC
330
1CB
 92
       16
 93
        4
 72
     1
 10
-245.6186613658212
 20
-233.338939589636
 11
-245.9359564273631
 21
-233.338939589636
 72
     1
 10
-245.9359564273631
 20
-233.338939589636
 11
-245.9359564273631
 21
-234.0446672389782
 72
     1
 10
-245.9359564273631
 20
-234.0446672389782
 11
-245.6186613658212
 21
-234.0446672389782
 72
     2
 10
-245.6186613658212
 20
-233.6918034143071
 40
0.3528638246711182
 50
270.0
 51
450.0
 73
     1
 97
        4
330
1CD
330
1BE
330
1CE
330
259
 75
     1
 76
     0
 52
45.0
 41
0.1
 77
     0
 78
     1
 53
45.0
 43
0.0
 44
0.0
 45
-0.0707106781186548
 46
0.0707106781186548
 79
     0
 98
        1
 10
0.0
 20
0.0
  0
HATCH
  5
2B0
330
71
100
AcDbEntity
  8
1
  6
Continuous
 62
     2
100
AcDbHatch
 10
0.0
 20
0.0
 30
0.0
210
0.0
220
0.0
230
1.0
  2
_USER
 70
     0
 71
     1
 91
        2
 92
        1
 93
        6
 72
     1
 10
-247.1764608376172
 20
-232.6758337441959
 11
-247.1764608376172
 21
-235.7296432680071
 72
     1
 10
-247.1764608376172
 20
-235.7296432680071
 11
-245.9359564273631
 21
-235.7296432680071
 72
     1
 10
-245.9359564273631
 20
-235.7296432680071
 11
-245.9359564273631
 21
-234.7865650268633
 72
     1
 10
-245.9359564273631
 20
-234.7865650268633
 11
-245.1771888395828
 21
-234.7865650268633
 72
     2
 10
-245.1771888395828
 20
-233.7311993855296
 40
1.05536564133368
 50
270.0
 51
450.0
 73
     1
 72
     1
 10
-245.1771888395828
 20
-232.6758337441959
 11
-247.1764608376172
 21
-232.6758337441959
 97
        6
330
26D
330
1CA
330
1C0
330
1BF
330
1CC
330
1CB
 92
       16
 93
        4
 72
     1
 10
-245.6186613658212
 20
-233.338939589636
 11
-245.9359564273631
 21
-233.338939589636
 72
     1
 10
-245.9359564273631
 20
-233.338939589636
 11
-245.9359564273631
 21
-234.0446672389782
 72
     1
 10
-245.9359564273631
 20
-234.0446672389782
 11
-245.6186613658212
 21
-234.0446672389782
 72
     2
 10
-245.6186613658212
 20
-233.6918034143071
 40
0.3528638246711182
 50
270.0
 51
450.0
 73
     1
 97
        4
330
1CD
330
1BE
330
1CE
330
259
 75
     1
 76
     0
 52
45.0
 41
0.1
 77
     0
 78
     1
 53
45.0
 43
0.0
 44
0.0
 45
-0.0707106781186548
 46
0.0707106781186548
 79
     0
 98
        1
 10
0.0
 20
0.0
  0
HATCH
  5
2B1
330
71
100
AcDbEntity
  8
1
  6
Continuous
 62
     2
100
AcDbHatch
 10
0.0
 20
0.0
 30
0.0
210
0.0
220
0.0
230
1.0
  2
_USER
 70
     0
 71
     1
 91
        1
 92
        1
 93
       12
 72
     1
 10
-227.562177643184
 20
-232.6758337441959
 11
-226.1594534254368
 21
-232.6758337441959
 72
     1
 10
-226.1594534254368
 20
-232.6758337441959
 11
-227.4619830562033
 21
-234.1487842742321
 72
     1
 10
-227.4619830562033
 20
-234.1487842742321
 11
-226.064030009263
 21
-235.7296432680071
 72
     1
 10
-226.064030009263
 20
-235.7296432680071
 11
-227.4667542270113
 21
-235.7296432680071
 72
     1
 10
-227.4667542270113
 20
-235.7296432680071
 11
-228.1633451650768
 21
-234.9419114827134
 72
     1
 10
-228.1633451650768
 20
-234.9419114827134
 11
-228.8599361031425
 21
-235.7296432680071
 72
     1
 10
-228.8599361031425
 20
-235.7296432680071
 11
-230.2626603208908
 21
-235.7296432680071
 72
     1
 10
-230.2626603208908
 20
-235.7296432680071
 11
-228.8647072739504
 21
-234.1487842742321
 72
     1
 10
-228.8647072739504
 20
-234.1487842742321
 11
-230.1672369047179
 21
-232.6758337441959
 72
     1
 10
-230.1672369047179
 20
-232.6758337441959
 11
-228.7645126869686
 21
-232.6758337441959
 72
     1
 10
-228.7645126869686
 20
-232.6758337441959
 11
-228.1633451650768
 21
-233.3556570657514
 72
     1
 10
-228.1633451650768
 20
-233.3556570657514
 11
-227.562177643184
 21
-232.6758337441959
 97
       12
330
199
330
1F2
330
1F1
330
1F0
330
1EF
330
19A
330
19B
330
197
330
198
330
1F5
330
1F4
330
1F3
 75
     1
 76
     0
 52
45.0
 41
0.1
 77
     0
 78
     1
 53
45.0
 43
0.0
 44
0.0
 45
-0.0707106781186548
 46
0.0707106781186548
 79
     0
 98
        1
 10
0.0
 20
0.0
  0
HATCH
  5
2B2
330
71
100
AcDbEntity
  8
1
  6
Continuous
 62
     2
100
AcDbHatch
 10
0.0
 20
0.0
 30
0.0
210
0.0
220
0.0
230
1.0
  2
_USER
 70
     0
 71
     1
 91
        1
 92
        1
 93
       12
 72
     1
 10
-227.562177643184
 20
-232.6758337441959
 11
-226.1594534254368
 21
-232.6758337441959
 72
     1
 10
-226.1594534254368
 20
-232.6758337441959
 11
-227.4619830562033
 21
-234.1487842742321
 72
     1
 10
-227.4619830562033
 20
-234.1487842742321
 11
-226.064030009263
 21
-235.7296432680071
 72
     1
 10
-226.064030009263
 20
-235.7296432680071
 11
-227.4667542270113
 21
-235.7296432680071
 72
     1
 10
-227.4667542270113
 20
-235.7296432680071
 11
-228.1633451650768
 21
-234.9419114827134
 72
     1
 10
-228.1633451650768
 20
-234.9419114827134
 11
-228.8599361031425
 21
-235.7296432680071
 72
     1
 10
-228.8599361031425
 20
-235.7296432680071
 11
-230.2626603208908
 21
-235.7296432680071
 72
     1
 10
-230.2626603208908
 20
-235.7296432680071
 11
-228.8647072739504
 21
-234.1487842742321
 72
     1
 10
-228.8647072739504
 20
-234.1487842742321
 11
-230.1672369047179
 21
-232.6758337441959
 72
     1
 10
-230.1672369047179
 20
-232.6758337441959
 11
-228.7645126869686
 21
-232.6758337441959
 72
     1
 10
-228.7645126869686
 20
-232.6758337441959
 11
-228.1633451650768
 21
-233.3556570657514
 72
     1
 10
-228.1633451650768
 20
-233.3556570657514
 11
-227.562177643184
 21
-232.6758337441959
 97
       12
330
199
330
1F2
330
1F1
330
1F0
330
1EF
330
19A
330
19B
330
197
330
198
330
1F5
330
1F4
330
1F3
 75
     1
 76
     0
 52
45.0
 41
0.1
 77
     0
 78
     1
 53
45.0
 43
0.0
 44
0.0
 45
-0.0707106781186548
 46
0.0707106781186548
 79
     0
 98
        1
 10
0.0
 20
0.0
  0
HATCH
  5
2B3
330
71
100
AcDbEntity
  8
1
  6
Continuous
 62
     2
100
AcDbHatch
 10
0.0
 20
0.0
 30
0.0
210
0.0
220
0.0
230
1.0
  2
_USER
 70
     0
 71
     1
 91
        1
 92
        1
 93
        4
 72
     1
 10
-230.3819395911076
 20
-232.6758337441959
 11
-230.3819395911076
 21
-235.7296432680071
 72
     1
 10
-230.3819395911076
 20
-235.7296432680071
 11
-231.6224440013605
 21
-235.7296432680071
 72
     1
 10
-231.6224440013605
 20
-235.7296432680071
 11
-231.6224440013605
 21
-232.6758337441959
 72
     1
 10
-231.6224440013605
 20
-232.6758337441959
 11
-230.3819395911076
 21
-232.6758337441959
 97
        4
330
1ED
330
19C
330
1EC
330
1EE
 75
     1
 76
     0
 52
45.0
 41
0.1
 77
     0
 78
     1
 53
45.0
 43
0.0
 44
0.0
 45
-0.0707106781186548
 46
0.0707106781186548
 79
     0
 98
        1
 10
0.0
 20
0.0
  0
HATCH
  5
2B4
330
71
100
AcDbEntity
  8
1
  6
Continuous
 62
     2
100
AcDbHatch
 10
0.0
 20
0.0
 30
0.0
210
0.0
220
0.0
230
1.0
  2
_USER
 70
     0
 71
     1
 91
        1
 92
        1
 93
        4
 72
     1
 10
-230.3819395911076
 20
-232.6758337441959
 11
-230.3819395911076
 21
-235.7296432680071
 72
     1
 10
-230.3819395911076
 20
-235.7296432680071
 11
-231.6224440013605
 21
-235.7296432680071
 72
     1
 10
-231.6224440013605
 20
-235.7296432680071
 11
-231.6224440013605
 21
-232.6758337441959
 72
     1
 10
-231.6224440013605
 20
-232.6758337441959
 11
-230.3819395911076
 21
-232.6758337441959
 97
        4
330
1ED
330
19C
330
1EC
330
1EE
 75
     1
 76
     0
 52
45.0
 41
0.1
 77
     0
 78
     1
 53
45.0
 43
0.0
 44
0.0
 45
-0.0707106781186548
 46
0.0707106781186548
 79
     0
 98
        1
 10
0.0
 20
0.0
  0
HATCH
  5
2B5
330
71
100
AcDbEntity
  8
1
  6
Continuous
 62
     2
100
AcDbHatch
 10
0.0
 20
0.0
 30
0.0
210
0.0
220
0.0
230
1.0
  2
_USER
 70
     0
 71
     1
 91
        2
 92
        1
 93
        8
 72
     1
 10
-230.7723835946396
 20
-239.0888337441814
 11
-232.0128880048935
 21
-239.0888337441814
 72
     1
 10
-232.0128880048935
 20
-239.0888337441814
 11
-232.2243680583693
 21
-238.5478731999635
 72
     1
 10
-232.2243680583693
 20
-238.5478731999635
 11
-233.3568096350431
 21
-238.5478731999635
 72
     1
 10
-233.3568096350431
 20
-238.5478731999635
 11
-233.568289688519
 21
-239.0888337441814
 72
     1
 10
-233.568289688519
 20
-239.0888337441814
 11
-234.8087940987719
 21
-239.0888337441814
 72
     1
 10
-234.8087940987719
 20
-239.0888337441814
 11
-233.4108410518326
 21
-236.0350242203703
 72
     1
 10
-233.4108410518326
 20
-236.0350242203703
 11
-232.1703366415799
 21
-236.0350242203703
 72
     1
 10
-232.1703366415799
 20
-236.0350242203703
 11
-230.7723835946396
 21
-239.0888337441814
 97
        8
330
1E8
330
1A2
330
1E7
330
1EA
330
19F
330
1E9
330
1A0
330
1A1
 92
       16
 93
        3
 72
     1
 10
-233.0907540838981
 20
-237.8673099346569
 11
-232.4904236095156
 21
-237.8673099346569
 72
     1
 10
-232.4904236095156
 20
-237.8673099346569
 11
-232.7905888467057
 21
-237.0994949686702
 72
     1
 10
-232.7905888467057
 20
-237.0994949686702
 11
-233.0907540838981
 21
-237.8673099346569
 97
        3
330
19E
330
19D
330
1EB
 75
     1
 76
     0
 52
45.0
 41
0.1
 77
     0
 78
     1
 53
45.0
 43
0.0
 44
0.0
 45
-0.0707106781186548
 46
0.0707106781186548
 79
     0
 98
        1
 10
0.0
 20
0.0
  0
HATCH
  5
2B6
330
71
100
AcDbEntity
  8
1
  6
Continuous
 62
     2
100
AcDbHatch
 10
0.0
 20
0.0
 30
0.0
210
0.0
220
0.0
230
1.0
  2
_USER
 70
     0
 71
     1
 91
        2
 92
        1
 93
        8
 72
     1
 10
-230.7723835946396
 20
-239.0888337441814
 11
-232.0128880048935
 21
-239.0888337441814
 72
     1
 10
-232.0128880048935
 20
-239.0888337441814
 11
-232.2243680583693
 21
-238.5478731999635
 72
     1
 10
-232.2243680583693
 20
-238.5478731999635
 11
-233.3568096350431
 21
-238.5478731999635
 72
     1
 10
-233.3568096350431
 20
-238.5478731999635
 11
-233.568289688519
 21
-239.0888337441814
 72
     1
 10
-233.568289688519
 20
-239.0888337441814
 11
-234.8087940987719
 21
-239.0888337441814
 72
     1
 10
-234.8087940987719
 20
-239.0888337441814
 11
-233.4108410518326
 21
-236.0350242203703
 72
     1
 10
-233.4108410518326
 20
-236.0350242203703
 11
-232.1703366415799
 21
-236.0350242203703
 72
     1
 10
-232.1703366415799
 20
-236.0350242203703
 11
-230.7723835946396
 21
-239.0888337441814
 97
        8
330
1E8
330
1A2
330
1E7
330
1EA
330
19F
330
1E9
330
1A0
330
1A1
 92
       16
 93
        3
 72
     1
 10
-233.0907540838981
 20
-237.8673099346569
 11
-232.4904236095156
 21
-237.8673099346569
 72
     1
 10
-232.4904236095156
 20
-237.8673099346569
 11
-232.7905888467057
 21
-237.0994949686702
 72
     1
 10
-232.7905888467057
 20
-237.0994949686702
 11
-233.0907540838981
 21
-237.8673099346569
 97
        3
330
19E
330
19D
330
1EB
 75
     1
 76
     0
 52
45.0
 41
0.1
 77
     0
 78
     1
 53
45.0
 43
0.0
 44
0.0
 45
-0.0707106781186548
 46
0.0707106781186548
 79
     0
 98
        1
 10
0.0
 20
0.0
  0
HATCH
  5
2B7
330
71
100
AcDbEntity
  8
1
  6
Continuous
 62
     2
100
AcDbHatch
 10
0.0
 20
0.0
 30
0.0
210
0.0
220
0.0
230
1.0
  2
_USER
 70
     0
 71
     1
 91
        1
 92
        1
 93
        8
 72
     1
 10
-236.9663062379541
 20
-236.0350242203703
 11
-236.9663062379541
 21
-236.8202895264939
 72
     1
 10
-236.9663062379541
 20
-236.8202895264939
 11
-236.1552072004795
 21
-236.8202895264939
 72
     1
 10
-236.1552072004795
 20
-236.8202895264939
 11
-236.1552072004795
 21
-239.0888337441814
 72
     1
 10
-236.1552072004795
 20
-239.0888337441814
 11
-234.962414498313
 21
-239.0888337441814
 72
     1
 10
-234.962414498313
 20
-239.0888337441814
 11
-234.962414498313
 21
-236.8202895264939
 72
     1
 10
-234.962414498313
 20
-236.8202895264939
 11
-234.1513154608405
 21
-236.8202895264939
 72
     1
 10
-234.1513154608405
 20
-236.8202895264939
 11
-234.1513154608405
 21
-236.0350242203703
 72
     1
 10
-234.1513154608405
 20
-236.0350242203703
 11
-236.9663062379541
 21
-236.0350242203703
 97
        8
330
1E4
330
1E3
330
1E2
330
1A3
330
1A4
330
1E6
330
1A5
330
1E5
 75
     1
 76
     0
 52
45.0
 41
0.1
 77
     0
 78
     1
 53
45.0
 43
0.0
 44
0.0
 45
-0.0707106781186548
 46
0.0707106781186548
 79
     0
 98
        1
 10
0.0
 20
0.0
  0
HATCH
  5
2B8
330
71
100
AcDbEntity
  8
1
  6
Continuous
 62
     2
100
AcDbHatch
 10
0.0
 20
0.0
 30
0.0
210
0.0
220
0.0
230
1.0
  2
_USER
 70
     0
 71
     1
 91
        1
 92
        1
 93
        8
 72
     1
 10
-236.9663062379541
 20
-236.0350242203703
 11
-236.9663062379541
 21
-236.8202895264939
 72
     1
 10
-236.9663062379541
 20
-236.8202895264939
 11
-236.1552072004795
 21
-236.8202895264939
 72
     1
 10
-236.1552072004795
 20
-236.8202895264939
 11
-236.1552072004795
 21
-239.0888337441814
 72
     1
 10
-236.1552072004795
 20
-239.0888337441814
 11
-234.962414498313
 21
-239.0888337441814
 72
     1
 10
-234.962414498313
 20
-239.0888337441814
 11
-234.962414498313
 21
-236.8202895264939
 72
     1
 10
-234.962414498313
 20
-236.8202895264939
 11
-234.1513154608405
 21
-236.8202895264939
 72
     1
 10
-234.1513154608405
 20
-236.8202895264939
 11
-234.1513154608405
 21
-236.0350242203703
 72
     1
 10
-234.1513154608405
 20
-236.0350242203703
 11
-236.9663062379541
 21
-236.0350242203703
 97
        8
330
1E4
330
1E3
330
1E2
330
1A3
330
1A4
330
1E6
330
1A5
330
1E5
 75
     1
 76
     0
 52
45.0
 41
0.1
 77
     0
 78
     1
 53
45.0
 43
0.0
 44
0.0
 45
-0.0707106781186548
 46
0.0707106781186548
 79
     0
 98
        1
 10
0.0
 20
0.0
  0
HATCH
  5
2B9
330
71
100
AcDbEntity
  8
1
  6
Continuous
 62
     2
100
AcDbHatch
 10
0.0
 20
0.0
 30
0.0
210
0.0
220
0.0
230
1.0
  2
_USER
 70
     0
 71
     1
 91
        1
 92
        1
 93
       10
 72
     1
 10
-234.294299654215
 20
-232.6758337441959
 11
-235.4870923563815
 21
-232.6758337441959
 72
     1
 10
-235.4870923563815
 20
-232.6758337441959
 11
-235.4870923563815
 21
-235.7296432680071
 72
     1
 10
-235.4870923563815
 20
-235.7296432680071
 11
-234.294299654215
 21
-235.7296432680071
 72
     1
 10
-234.294299654215
 20
-235.7296432680071
 11
-234.294299654215
 21
-234.4208677578024
 72
     1
 10
-234.294299654215
 20
-234.4208677578024
 11
-233.053795243961
 21
-235.7296432680071
 72
     1
 10
-233.053795243961
 20
-235.7296432680071
 11
-231.8610025417944
 21
-235.7296432680071
 72
     1
 10
-231.8610025417944
 20
-235.7296432680071
 11
-231.8610025417944
 21
-232.6758337441959
 72
     1
 10
-231.8610025417944
 20
-232.6758337441959
 11
-233.053795243961
 21
-232.6758337441959
 72
     1
 10
-233.053795243961
 20
-232.6758337441959
 11
-233.053795243961
 21
-233.9846092544011
 72
     1
 10
-233.053795243961
 20
-233.9846092544011
 11
-234.294299654215
 21
-232.6758337441959
 97
       10
330
1DE
330
1A8
330
1A9
330
1AA
330
1AB
330
1E1
330
1A6
330
1E0
330
1DF
330
1A7
 75
     1
 76
     0
 52
45.0
 41
0.1
 77
     0
 78
     1
 53
45.0
 43
0.0
 44
0.0
 45
-0.0707106781186548
 46
0.0707106781186548
 79
     0
 98
        1
 10
0.0
 20
0.0
  0
HATCH
  5
2BA
330
71
100
AcDbEntity
  8
1
  6
Continuous
 62
     2
100
AcDbHatch
 10
0.0
 20
0.0
 30
0.0
210
0.0
220
0.0
230
1.0
  2
_USER
 70
     0
 71
     1
 91
        1
 92
        1
 93
       10
 72
     1
 10
-234.294299654215
 20
-232.6758337441959
 11
-235.4870923563815
 21
-232.6758337441959
 72
     1
 10
-235.4870923563815
 20
-232.6758337441959
 11
-235.4870923563815
 21
-235.7296432680071
 72
     1
 10
-235.4870923563815
 20
-235.7296432680071
 11
-234.294299654215
 21
-235.7296432680071
 72
     1
 10
-234.294299654215
 20
-235.7296432680071
 11
-234.294299654215
 21
-234.4208677578024
 72
     1
 10
-234.294299654215
 20
-234.4208677578024
 11
-233.053795243961
 21
-235.7296432680071
 72
     1
 10
-233.053795243961
 20
-235.7296432680071
 11
-231.8610025417944
 21
-235.7296432680071
 72
     1
 10
-231.8610025417944
 20
-235.7296432680071
 11
-231.8610025417944
 21
-232.6758337441959
 72
     1
 10
-231.8610025417944
 20
-232.6758337441959
 11
-233.053795243961
 21
-232.6758337441959
 72
     1
 10
-233.053795243961
 20
-232.6758337441959
 11
-233.053795243961
 21
-233.9846092544011
 72
     1
 10
-233.053795243961
 20
-233.9846092544011
 11
-234.294299654215
 21
-232.6758337441959
 97
       10
330
1DE
330
1A8
330
1A9
330
1AA
330
1AB
330
1E1
330
1A6
330
1E0
330
1DF
330
1A7
 75
     1
 76
     0
 52
45.0
 41
0.1
 77
     0
 78
     1
 53
45.0
 43
0.0
 44
0.0
 45
-0.0707106781186548
 46
0.0707106781186548
 79
     0
 98
        1
 10
0.0
 20
0.0
  0
HATCH
  5
2BB
330
71
100
AcDbEntity
  8
1
  6
Continuous
 62
     2
100
AcDbHatch
 10
0.0
 20
0.0
 30
0.0
210
0.0
220
0.0
230
1.0
  2
_USER
 70
     0
 71
     1
 91
        1
 92
        1
 93
       10
 72
     1
 10
-239.5427384746336
 20
-236.0350242203703
 11
-240.7355311768012
 21
-236.0350242203703
 72
     1
 10
-240.7355311768012
 20
-236.0350242203703
 11
-240.7355311768012
 21
-239.0888337441814
 72
     1
 10
-240.7355311768012
 20
-239.0888337441814
 11
-239.5427384746336
 21
-239.0888337441814
 72
     1
 10
-239.5427384746336
 20
-239.0888337441814
 11
-239.5427384746336
 21
-237.7800582339768
 72
     1
 10
-239.5427384746336
 20
-237.7800582339768
 11
-238.3022340643807
 21
-239.0888337441814
 72
     1
 10
-238.3022340643807
 20
-239.0888337441814
 11
-237.1094413622143
 21
-239.0888337441814
 72
     1
 10
-237.1094413622143
 20
-239.0888337441814
 11
-237.1094413622143
 21
-236.0350242203703
 72
     1
 10
-237.1094413622143
 20
-236.0350242203703
 11
-238.3022340643807
 21
-236.0350242203703
 72
     1
 10
-238.3022340643807
 20
-236.0350242203703
 11
-238.3022340643807
 21
-237.3437997305754
 72
     1
 10
-238.3022340643807
 20
-237.3437997305754
 11
-239.5427384746336
 21
-236.0350242203703
 97
       10
330
1AD
330
1AE
330
1AF
330
1DB
330
1B0
330
1B1
330
1DA
330
1DD
330
1DC
330
1AC
 75
     1
 76
     0
 52
45.0
 41
0.1
 77
     0
 78
     1
 53
45.0
 43
0.0
 44
0.0
 45
-0.0707106781186548
 46
0.0707106781186548
 79
     0
 98
        1
 10
0.0
 20
0.0
  0
HATCH
  5
2BC
330
71
100
AcDbEntity
  8
1
  6
Continuous
 62
     2
100
AcDbHatch
 10
0.0
 20
0.0
 30
0.0
210
0.0
220
0.0
230
1.0
  2
_USER
 70
     0
 71
     1
 91
        1
 92
        1
 93
       10
 72
     1
 10
-239.5427384746336
 20
-236.0350242203703
 11
-240.7355311768012
 21
-236.0350242203703
 72
     1
 10
-240.7355311768012
 20
-236.0350242203703
 11
-240.7355311768012
 21
-239.0888337441814
 72
     1
 10
-240.7355311768012
 20
-239.0888337441814
 11
-239.5427384746336
 21
-239.0888337441814
 72
     1
 10
-239.5427384746336
 20
-239.0888337441814
 11
-239.5427384746336
 21
-237.7800582339768
 72
     1
 10
-239.5427384746336
 20
-237.7800582339768
 11
-238.3022340643807
 21
-239.0888337441814
 72
     1
 10
-238.3022340643807
 20
-239.0888337441814
 11
-237.1094413622143
 21
-239.0888337441814
 72
     1
 10
-237.1094413622143
 20
-239.0888337441814
 11
-237.1094413622143
 21
-236.0350242203703
 72
     1
 10
-237.1094413622143
 20
-236.0350242203703
 11
-238.3022340643807
 21
-236.0350242203703
 72
     1
 10
-238.3022340643807
 20
-236.0350242203703
 11
-238.3022340643807
 21
-237.3437997305754
 72
     1
 10
-238.3022340643807
 20
-237.3437997305754
 11
-239.5427384746336
 21
-236.0350242203703
 97
       10
330
1AD
330
1AE
330
1AF
330
1DB
330
1B0
330
1B1
330
1DA
330
1DD
330
1DC
330
1AC
 75
     1
 76
     0
 52
45.0
 41
0.1
 77
     0
 78
     1
 53
45.0
 43
0.0
 44
0.0
 45
-0.0707106781186548
 46
0.0707106781186548
 79
     0
 98
        1
 10
0.0
 20
0.0
  0
HATCH
  5
2BD
330
71
100
AcDbEntity
  8
1
  6
Continuous
 62
     2
100
AcDbHatch
 10
0.0
 20
0.0
 30
0.0
210
0.0
220
0.0
230
1.0
  2
_USER
 70
     0
 71
     1
 91
        1
 92
        1
 93
       12
 72
     1
 10
-240.544533413569
 20
-232.6758337441959
 11
-240.544533413569
 21
-235.7296432680071
 72
     1
 10
-240.544533413569
 20
-235.7296432680071
 11
-241.7373261157354
 21
-235.7296432680071
 72
     1
 10
-241.7373261157354
 20
-235.7296432680071
 11
-241.7373261157354
 21
-234.5953711591633
 72
     1
 10
-241.7373261157354
 20
-234.5953711591633
 11
-242.7869836936429
 21
-234.5953711591633
 72
     1
 10
-242.7869836936429
 20
-234.5953711591633
 11
-242.7869836936429
 21
-235.7296432680071
 72
     1
 10
-242.7869836936429
 20
-235.7296432680071
 11
-243.9797763958095
 21
-235.7296432680071
 72
     1
 10
-243.9797763958095
 20
-235.7296432680071
 11
-243.9797763958095
 21
-232.6758337441959
 72
     1
 10
-243.9797763958095
 20
-232.6758337441959
 11
-242.7869836936429
 21
-232.6758337441959
 72
     1
 10
-242.7869836936429
 20
-232.6758337441959
 11
-242.7869836936429
 21
-233.7446670775305
 72
     1
 10
-242.7869836936429
 20
-233.7446670775305
 11
-241.7373261157354
 21
-233.7446670775305
 72
     1
 10
-241.7373261157354
 20
-233.7446670775305
 11
-241.7373261157354
 21
-232.6758337441959
 72
     1
 10
-241.7373261157354
 20
-232.6758337441959
 11
-240.544533413569
 21
-232.6758337441959
 97
       12
330
1D5
330
1D4
330
1D3
330
1BB
330
1BC
330
1D2
330
1BD
330
1D1
330
1D0
330
1CF
330
1B9
330
1BA
 75
     1
 76
     0
 52
45.0
 41
0.1
 77
     0
 78
     1
 53
45.0
 43
0.0
 44
0.0
 45
-0.0707106781186548
 46
0.0707106781186548
 79
     0
 98
        1
 10
0.0
 20
0.0
  0
HATCH
  5
2BE
330
71
100
AcDbEntity
  8
1
  6
Continuous
 62
     2
100
AcDbHatch
 10
0.0
 20
0.0
 30
0.0
210
0.0
220
0.0
230
1.0
  2
_USER
 70
     0
 71
     1
 91
        1
 92
        1
 93
       12
 72
     1
 10
-240.544533413569
 20
-232.6758337441959
 11
-240.544533413569
 21
-235.7296432680071
 72
     1
 10
-240.544533413569
 20
-235.7296432680071
 11
-241.7373261157354
 21
-235.7296432680071
 72
     1
 10
-241.7373261157354
 20
-235.7296432680071
 11
-241.7373261157354
 21
-234.5953711591633
 72
     1
 10
-241.7373261157354
 20
-234.5953711591633
 11
-242.7869836936429
 21
-234.5953711591633
 72
     1
 10
-242.7869836936429
 20
-234.5953711591633
 11
-242.7869836936429
 21
-235.7296432680071
 72
     1
 10
-242.7869836936429
 20
-235.7296432680071
 11
-243.9797763958095
 21
-235.7296432680071
 72
     1
 10
-243.9797763958095
 20
-235.7296432680071
 11
-243.9797763958095
 21
-232.6758337441959
 72
     1
 10
-243.9797763958095
 20
-232.6758337441959
 11
-242.7869836936429
 21
-232.6758337441959
 72
     1
 10
-242.7869836936429
 20
-232.6758337441959
 11
-242.7869836936429
 21
-233.7446670775305
 72
     1
 10
-242.7869836936429
 20
-233.7446670775305
 11
-241.7373261157354
 21
-233.7446670775305
 72
     1
 10
-241.7373261157354
 20
-233.7446670775305
 11
-241.7373261157354
 21
-232.6758337441959
 72
     1
 10
-241.7373261157354
 20
-232.6758337441959
 11
-240.544533413569
 21
-232.6758337441959
 97
       12
330
1D5
330
1D4
330
1D3
330
1BB
330
1BC
330
1D2
330
1BD
330
1D1
330
1D0
330
1CF
330
1B9
330
1BA
 75
     1
 76
     0
 52
45.0
 41
0.1
 77
     0
 78
     1
 53
45.0
 43
0.0
 44
0.0
 45
-0.0707106781186548
 46
0.0707106781186548
 79
     0
 98
        1
 10
0.0
 20
0.0
  0
ENDBLK
  5
73
330
71
100
AcDbEntity
  8
0
100
AcDbBlockEnd
  0
BLOCK
  5
75
330
74
100
AcDbEntity
  8
0
100
AcDbBlockBegin
  2
_punkt
 70
     0
 10
-128.6672295997801
 20
-246.3823337441977
 30
0.0
  3
_punkt
  1

  0
LINE
  5
2BF
330
74
100
AcDbEntity
  8
1
  6
Continuous
 62
     2
100
AcDbLine
 10
-128.6672295997801
 20
-246.3823337441977
 30
0.0
 11
-128.6672295997801
 21
-251.3823337441978
 31
0.0
  0
LINE
  5
2C0
330
74
100
AcDbEntity
  8
1
  6
Continuous
 62
     2
100
AcDbLine
 10
-128.6672295997801
 20
-246.3823337441977
 30
0.0
 11
-123.6672295997811
 21
-246.3823337441977
 31
0.0
  0
ENDBLK
  5
76
330
74
100
AcDbEntity
  8
0
100
AcDbBlockEnd
  0
BLOCK
  5
7A
330
77
100
AcDbEntity
  8
0
100
AcDbBlockBegin
  2
A4I_CS
 70
     0
 10
-128.6672295997801
 20
-251.3823337441978
 30
0.0
  3
A4I_CS
  1

  0
INSERT
  5
78
330
77
100
AcDbEntity
  8
1
100
AcDbBlockReference
  2
_rahmen
 10
-128.6672295997801
 20
-251.3823337441978
 30
0.0
  0
INSERT
  5
79
330
77
100
AcDbEntity
  8
1
100
AcDbBlockReference
  2
_punkt
 10
-128.6672295997801
 20
-246.3823337441977
 30
0.0
  0
ENDBLK
  5
7B
330
77
100
AcDbEntity
  8
0
100
AcDbBlockEnd
  0
BLOCK
  5
84
330
7C
100
AcDbEntity
  8
0
100
AcDbBlockBegin
  2
1
 70
     0
 10
0.0
 20
0.0
 30
0.0
  3
1
  1

  0
INSERT
  5
7D
330
7C
100
AcDbEntity
  8
0
100
AcDbBlockReference
  2
Back1
 10
-175.0000004768522
 20
-114.000000000005
 30
0.0
  0
INSERT
  5
7E
330
7C
100
AcDbEntity
  8
0
100
AcDbBlockReference
  2
Front1
 10
-296.9999995231428
 20
-114.000000000005
 30
0.0
  0
INSERT
  5
7F
330
7C
100
AcDbEntity
  8
0
100
AcDbBlockReference
  2
Gen1
 10
-181.0
 20
-173.2500000000171
 30
0.0
  0
INSERT
  5
80
330
7C
100
AcDbEntity
  8
0
100
AcDbBlockReference
  2
Left1
 10
-235.99999999998
 20
-114.000000000005
 30
0.0
  0
INSERT
  5
81
330
7C
100
AcDbEntity
  8
0
100
AcDbBlockReference
  2
Right1
 10
-370.9999990463458
 20
-114.000000000005
 30
0.0
  0
INSERT
  5
82
330
7C
100
AcDbEntity
  8
0
100
AcDbBlockReference
  2
Top1
 10
-296.9999995231428
 20
-168.2500000000201
 30
0.0
  0
INSERT
  5
83
330
7C
100
AcDbEntity
  8
0
100
AcDbBlockReference
  2
A4I_CS
 10
-128.6672295997801
 20
-251.3823337441978
 30
0.0
  0
ENDBLK
  5
85
330
7C
100
AcDbEntity
  8
0
100
AcDbBlockEnd
  0
BLOCK
  5
B7
330
AF
100
AcDbEntity
  8
0
100
AcDbBlockBegin
  2
*D17
 70
     1
 10
0.0
 20
0.0
 30
0.0
  3
*D17
  1

  0
LINE
  5
B0
330
AF
100
AcDbEntity
  8
1
  6
Continuous
 62
     2
100
AcDbLine
 10
-318.24999950421
 20
-128.4999995793218
 30
0.0
 11
-275.7499995042101
 21
-128.4999995793218
 31
0.0
  0
LINE
  5
B1
330
AF
100
AcDbEntity
  8
1
  6
Continuous
 62
     2
100
AcDbLine
 10
-318.24999950421
 20
-114.9999995793218
 30
0.0
 11
-318.24999950421
 21
-129.9999995793218
 31
0.0
  0
LINE
  5
B2
330
AF
100
AcDbEntity
  8
1
  6
Continuous
 62
     2
100
AcDbLine
 10
-275.7499995042101
 20
-118.4999995793218
 30
0.0
 11
-275.7499995042101
 21
-129.9999995793218
 31
0.0
  0
SOLID
  5
B3
330
AF
100
AcDbEntity
  8
1
 62
     2
100
AcDbTrace
 10
-314.74999950421
 20
-128.0392158377659
 30
0.0
 11
-314.74999950421
 21
-128.9607833208777
 31
0.0
 12
-318.24999950421
 22
-128.4999995793218
 32
0.0
 13
-318.24999950421
 23
-128.4999995793218
 33
0.0
  0
SOLID
  5
B4
330
AF
100
AcDbEntity
  8
1
 62
     2
100
AcDbTrace
 10
-279.2499995042101
 20
-128.9607833208777
 30
0.0
 11
-279.2499995042101
 21
-128.0392158377659
 31
0.0
 12
-275.7499995042101
 22
-128.4999995793218
 32
0.0
 13
-275.7499995042101
 23
-128.4999995793218
 33
0.0
  0
MTEXT
  5
B6
330
AF
100
AcDbEntity
  8
1
 62
     3
100
AcDbMText
 10
-301.813032304485
 20
-126.6499995793218
 30
0.0
 40
3.5
 41
0.0
 71
     7
 72
     1
  1
42,5
  7
CONVERTER_11
 11
0.9999999999970619
 21
2.424068405545306E-6
 31
0.0
 73
     1
 44
0.60024009603842
  0
ENDBLK
  5
B8
330
AF
100
AcDbEntity
  8
0
100
AcDbBlockEnd
  0
BLOCK
  5
C4
330
BB
100
AcDbEntity
  8
0
100
AcDbBlockBegin
  2
*D18
 70
     1
 10
0.0
 20
0.0
 30
0.0
  3
*D18
  1

  0
LINE
  5
BC
330
BB
100
AcDbEntity
  8
1
  6
Continuous
 62
     2
100
AcDbLine
 10
-328.2499995042101
 20
-125.4999995793218
 30
0.0
 11
-328.2499995042101
 21
-118.4999995793218
 31
0.0
  0
LINE
  5
BD
330
BB
100
AcDbEntity
  8
1
  6
Continuous
 62
     2
100
AcDbLine
 10
-328.2499995042101
 20
-118.4999995793218
 30
0.0
 11
-328.2499995042101
 21
-109.4999995793218
 31
0.0
  0
LINE
  5
BE
330
BB
100
AcDbEntity
  8
1
  6
Continuous
 62
     2
100
AcDbLine
 10
-328.2499995042101
 20
-109.4999995793218
 30
0.0
 11
-328.2499995042101
 21
-102.4999995793218
 31
0.0
  0
LINE
  5
BF
330
BB
100
AcDbEntity
  8
1
  6
Continuous
 62
     2
100
AcDbLine
 10
-295.7855334101429
 20
-118.4999995793218
 30
0.0
 11
-329.7499995042101
 21
-118.4999995793218
 31
0.0
  0
LINE
  5
C0
330
BB
100
AcDbEntity
  8
1
  6
Continuous
 62
     2
100
AcDbLine
 10
-318.2499995042101
 20
-109.4999995793218
 30
0.0
 11
-329.7499995042101
 21
-109.4999995793218
 31
0.0
  0
SOLID
  5
C1
330
BB
100
AcDbEntity
  8
1
 62
     2
100
AcDbTrace
 10
-327.7892157626542
 20
-121.9999995793218
 30
0.0
 11
-328.710783245766
 21
-121.9999995793218
 31
0.0
 12
-328.2499995042101
 22
-118.4999995793218
 32
0.0
 13
-328.2499995042101
 23
-118.4999995793218
 33
0.0
  0
SOLID
  5
C2
330
BB
100
AcDbEntity
  8
1
 62
     2
100
AcDbTrace
 10
-328.710783245766
 20
-105.9999995793218
 30
0.0
 11
-327.7892157626542
 21
-105.9999995793218
 31
0.0
 12
-328.2499995042101
 22
-109.4999995793218
 32
0.0
 13
-328.2499995042101
 23
-109.4999995793218
 33
0.0
  0
MTEXT
  5
C3
330
BB
100
AcDbEntity
  8
1
 62
     3
100
AcDbMText
 10
-329.7499995042101
 20
-114.84663229256
 30
0.0
 40
3.5
 41
0.0
 71
     7
 72
     1
  1
9
  7
CONVERTER_11
 11
0.0
 21
1.0
 31
0.0
 73
     1
 44
0.60024009603842
  0
ENDBLK
  5
C5
330
BB
100
AcDbEntity
  8
0
100
AcDbBlockEnd
  0
BLOCK
  5
184
330
17D
100
AcDbEntity
  8
0
100
AcDbBlockBegin
  2
*D19
 70
     1
 10
0.0
 20
0.0
 30
0.0
  3
*D19
  1

  0
LINE
  5
17E
330
17D
100
AcDbEntity
  8
1
  6
Continuous
 62
     2
100
AcDbLine
 10
-328.2499995042101
 20
-148.5000000000402
 30
0.0
 11
-328.2499995042101
 21
-188.0000000000402
 31
0.0
  0
LINE
  5
17F
330
17D
100
AcDbEntity
  8
1
  6
Continuous
 62
     2
100
AcDbLine
 10
-318.2499995042101
 20
-148.5000000000402
 30
0.0
 11
-329.7499995042101
 21
-148.5000000000402
 31
0.0
  0
LINE
  5
180
330
17D
100
AcDbEntity
  8
1
  6
Continuous
 62
     2
100
AcDbLine
 10
-318.24999950421
 20
-188.0000000000402
 30
0.0
 11
-329.7499995042101
 21
-188.0000000000402
 31
0.0
  0
SOLID
  5
181
330
17D
100
AcDbEntity
  8
1
 62
     2
100
AcDbTrace
 10
-327.7892157626542
 20
-152.0000000000402
 30
0.0
 11
-328.710783245766
 21
-152.0000000000402
 31
0.0
 12
-328.2499995042101
 22
-148.5000000000402
 32
0.0
 13
-328.2499995042101
 23
-148.5000000000402
 33
0.0
  0
SOLID
  5
182
330
17D
100
AcDbEntity
  8
1
 62
     2
100
AcDbTrace
 10
-328.710783245766
 20
-184.5000000000402
 30
0.0
 11
-327.7892157626542
 21
-184.5000000000402
 31
0.0
 12
-328.2499995042101
 22
-188.0000000000402
 32
0.0
 13
-328.2499995042101
 23
-188.0000000000402
 33
0.0
  0
MTEXT
  5
183
330
17D
100
AcDbEntity
  8
1
 62
     3
100
AcDbMText
 10
-330.0999995042101
 20
-173.0625000000402
 30
0.0
 40
3.5
 41
0.0
 71
     7
 72
     1
  1
39,5
  7
CONVERTER_11
 11
0.0
 21
1.0
 31
0.0
 73
     1
 44
0.60024009603842
  0
ENDBLK
  5
185
330
17D
100
AcDbEntity
  8
0
100
AcDbBlockEnd
  0
ENDSEC
  0
SECTION
  2
ENTITIES
  0
INSERT
  5
86
330
1F
100
AcDbEntity
  8
1
100
AcDbBlockReference
  2
1
 10
0.0
 20
0.0
 30
0.0
  0
ENDSEC
  0
SECTION
  2
OBJECTS
  0
DICTIONARY
  5
C
330
0
100
AcDbDictionary
281
     1
  3
ACAD_GROUP
350
D
  3
ACAD_LAYOUT
350
1A
  3
ACAD_MATERIAL
350
3B
  3
ACAD_MLEADERSTYLE
350
2E8
  3
ACAD_MLINESTYLE
350
17
  3
ACAD_PLOTSETTINGS
350
19
  3
ACAD_PLOTSTYLENAME
350
E
  3
ACAD_TABLESTYLE
350
2E7
  3
ACAD_VISUALSTYLE
350
2A
  0
DICTIONARY
  5
D
102
{ACAD_REACTORS
330
C
102
}
330
C
100
AcDbDictionary
281
     1
  0
DICTIONARY
  5
1A
102
{ACAD_REACTORS
330
C
102
}
330
C
100
AcDbDictionary
281
     1
  3
Layout1
350
1E
  3
Layout2
350
26
  3
Model
350
22
  0
DICTIONARY
  5
3B
102
{ACAD_REACTORS
330
C
102
}
330
C
100
AcDbDictionary
281
     1
  3
ByBlock
350
3D
  3
ByLayer
350
3C
  3
Global
350
3E
  0
DICTIONARY
  5
2E8
102
{ACAD_REACTORS
330
C
102
}
330
C
100
AcDbDictionary
281
     1
  0
DICTIONARY
  5
17
102
{ACAD_REACTORS
330
C
102
}
330
C
100
AcDbDictionary
281
     1
  3
Standard
350
18
  0
DICTIONARY
  5
19
102
{ACAD_REACTORS
330
C
102
}
330
C
100
AcDbDictionary
281
     1
  0
ACDBDICTIONARYWDFLT
  5
E
102
{ACAD_REACTORS
330
C
102
}
330
C
100
AcDbDictionary
281
     1
  3
Normal
350
F
100
AcDbDictionaryWithDefault
340
F
  0
DICTIONARY
  5
2E7
102
{ACAD_REACTORS
330
C
102
}
330
C
100
AcDbDictionary
281
     1
  0
DICTIONARY
  5
2A
102
{ACAD_REACTORS
330
C
102
}
330
C
100
AcDbDictionary
281
     1
  3
2dWireframe
350
2F
  3
3D Hidden
350
31
  3
3dWireframe
350
30
  3
Basic
350
32
  3
Brighten
350
36
  3
ColorChange
350
3A
  3
Conceptual
350
34
  3
Dim
350
35
  3
Facepattern
350
39
  3
Flat
350
2B
  3
FlatWithEdges
350
2C
  3
Gouraud
350
2D
  3
GouraudWithEdges
350
2E
  3
Linepattern
350
38
  3
Realistic
350
33
  3
Thicken
350
37
  0
LAYOUT
  5
1E
102
{ACAD_REACTORS
330
1A
102
}
330
1A
100
AcDbPlotSettings
  1

  2
none_device
  4

  6

 40
0.0
 41
0.0
 42
0.0
 43
0.0
 44
0.0
 45
0.0
 46
0.0
 47
0.0
 48
0.0
 49
0.0
140
0.0
141
0.0
142
1.0
143
1.0
 70
   688
 72
     0
 73
     0
 74
     5
  7

 75
    16
 76
     0
 77
     2
 78
   300
147
1.0
148
0.0
149
0.0
100
AcDbLayout
  1
Layout1
 70
     1
 71
     1
 10
0.0
 20
0.0
 11
12.0
 21
9.0
 12
0.0
 22
0.0
 32
0.0
 14
1.00000000000000E+20
 24
1.00000000000000E+20
 34
1.00000000000000E+20
 15
-1.00000000000000E+20
 25
-1.00000000000000E+20
 35
-1.00000000000000E+20
146
0.0
 13
0.0
 23
0.0
 33
0.0
 16
1.0
 26
0.0
 36
0.0
 17
0.0
 27
1.0
 37
0.0
 76
     0
330
1B
  0
LAYOUT
  5
26
102
{ACAD_REACTORS
330
1A
102
}
330
1A
100
AcDbPlotSettings
  1

  2
none_device
  4

  6

 40
0.0
 41
0.0
 42
0.0
 43
0.0
 44
0.0
 45
0.0
 46
0.0
 47
0.0
 48
0.0
 49
0.0
140
0.0
141
0.0
142
1.0
143
1.0
 70
   688
 72
     0
 73
     0
 74
     5
  7

 75
    16
 76
     0
 77
     2
 78
   300
147
1.0
148
0.0
149
0.0
100
AcDbLayout
  1
Layout2
 70
     1
 71
     2
 10
0.0
 20
0.0
 11
0.0
 21
0.0
 12
0.0
 22
0.0
 32
0.0
 14
0.0
 24
0.0
 34
0.0
 15
0.0
 25
0.0
 35
0.0
146
0.0
 13
0.0
 23
0.0
 33
0.0
 16
1.0
 26
0.0
 36
0.0
 17
0.0
 27
1.0
 37
0.0
 76
     0
330
23
  0
LAYOUT
  5
22
102
{ACAD_REACTORS
330
1A
102
}
330
1A
100
AcDbPlotSettings
  1

  2
none_device
  4

  6

 40
0.0
 41
0.0
 42
0.0
 43
0.0
 44
0.0
 45
0.0
 46
0.0
 47
0.0
 48
0.0
 49
0.0
140
0.0
141
0.0
142
1.0
143
1.0
 70
  1712
 72
     0
 73
     0
 74
     0
  7

 75
     0
 76
     0
 77
     2
 78
   300
147
1.0
148
0.0
149
0.0
100
AcDbLayout
  1
Model
 70
     1
 71
     0
 10
0.0
 20
0.0
 11
12.0
 21
9.0
 12
0.0
 22
0.0
 32
0.0
 14
-420.6672295997792
 24
-251.3823337441978
 34
0.0
 15
-123.6672295997811
 25
-41.3823337441977
 35
0.0
146
0.0
 13
0.0
 23
0.0
 33
0.0
 16
1.0
 26
0.0
 36
0.0
 17
0.0
 27
1.0
 37
0.0
 76
     0
330
1F
331
29
  0
MATERIAL
  5
3D
102
{ACAD_REACTORS
330
3B
102
}
102
{ACAD_XDICTIONARY
360
2E3
102
}
330
3B
100
AcDbMaterial
  1
ByBlock
  0
MATERIAL
  5
3C
102
{ACAD_REACTORS
330
3B
102
}
102
{ACAD_XDICTIONARY
360
2E1
102
}
330
3B
100
AcDbMaterial
  1
ByLayer
  0
MATERIAL
  5
3E
102
{ACAD_REACTORS
330
3B
102
}
102
{ACAD_XDICTIONARY
360
2E5
102
}
330
3B
100
AcDbMaterial
  1
Global
  0
MLINESTYLE
  5
18
102
{ACAD_REACTORS
330
17
102
}
330
17
100
AcDbMlineStyle
  2
Standard
 70
     0
  3

 62
   256
 51
90.0
 52
90.0
 71
     2
 49
0.5
 62
   256
  6
BYLAYER
 49
-0.5
 62
   256
  6
BYLAYER
  0
ACDBPLACEHOLDER
  5
F
102
{ACAD_REACTORS
330
E
102
}
330
E
  0
VISUALSTYLE
  5
2F
102
{ACAD_REACTORS
330
2A
102
}
102
{ACAD_XDICTIONARY
360
2C9
102
}
330
2A
100
AcDbVisualStyle
  2
2dWireframe
 70
     4
 71
     0
 72
     2
 73
     0
 90
        0
 40
-0.6
 41
-30.0
 62
     5
 63
     7
421
 16777215
 74
     1
 91
        4
 64
     7
 65
   257
 75
     1
175
     1
 42
1.0
 92
        0
 66
   257
 43
1.0
 76
     1
 77
     6
 78
     2
 67
     7
 79
     5
170
     0
171
     0
290
     0
174
     0
 93
        1
 44
0.0
173
     0
291
     0
 45
0.0
1001
ACAD
1000
AcDbSavedByObjectVersion
1070
     0
  0
VISUALSTYLE
  5
31
102
{ACAD_REACTORS
330
2A
102
}
102
{ACAD_XDICTIONARY
360
2CD
102
}
330
2A
100
AcDbVisualStyle
  2
3D Hidden
 70
     6
 71
     1
 72
     2
 73
     2
 90
        0
 40
-0.6
 41
-30.0
 62
     5
 63
     7
421
 16777215
 74
     2
 91
        2
 64
     7
 65
   257
 75
     2
175
     1
 42
40.0
 92
        0
 66
   257
 43
1.0
 76
     1
 77
     6
 78
     2
 67
     7
 79
     3
170
     0
171
     0
290
     0
174
     0
 93
        1
 44
0.0
173
     0
291
     0
 45
0.0
1001
ACAD
1000
AcDbSavedByObjectVersion
1070
     0
  0
VISUALSTYLE
  5
30
102
{ACAD_REACTORS
330
2A
102
}
102
{ACAD_XDICTIONARY
360
2CB
102
}
330
2A
100
AcDbVisualStyle
  2
3dWireframe
 70
     5
 71
     0
 72
     2
 73
     0
 90
        0
 40
-0.6
 41
-30.0
 62
     5
 63
     7
421
 16777215
 74
     1
 91
        4
 64
     7
 65
   257
 75
     1
175
     1
 42
1.0
 92
        0
 66
   257
 43
1.0
 76
     1
 77
     6
 78
     2
 67
     7
 79
     5
170
     0
171
     0
290
     0
174
     0
 93
        1
 44
0.0
173
     0
291
     0
 45
0.0
1001
ACAD
1000
AcDbSavedByObjectVersion
1070
     0
  0
VISUALSTYLE
  5
32
102
{ACAD_REACTORS
330
2A
102
}
102
{ACAD_XDICTIONARY
360
2CF
102
}
330
2A
100
AcDbVisualStyle
  2
Basic
 70
     7
 71
     1
 72
     0
 73
     1
 90
        0
 40
-0.6
 41
-30.0
 62
     5
 63
     7
421
 16777215
 74
     0
 91
        4
 64
     7
 65
   257
 75
     1
175
     1
 42
1.0
 92
        8
 66
     7
 43
1.0
 76
     1
 77
     6
 78
     2
 67
     7
 79
     5
170
     0
171
     0
290
     0
174
     0
 93
        1
 44
0.0
173
     0
291
     1
 45
0.0
1001
ACAD
1000
AcDbSavedByObjectVersion
1070
     0
  0
VISUALSTYLE
  5
36
102
{ACAD_REACTORS
330
2A
102
}
102
{ACAD_XDICTIONARY
360
2D7
102
}
330
2A
100
AcDbVisualStyle
  2
Brighten
 70
    12
 71
     2
 72
     2
 73
     0
 90
        0
 40
-0.6
 41
-30.0
 62
     5
 63
     7
421
 16777215
 74
     1
 91
        4
 64
     7
 65
   257
 75
     1
175
     1
 42
1.0
 92
        8
 66
     7
 43
1.0
 76
     1
 77
     6
 78
     2
 67
     7
 79
     5
170
     0
171
     0
290
     0
174
     0
 93
        1
 44
50.0
173
     0
291
     1
 45
0.0
1001
ACAD
1000
AcDbSavedByObjectVersion
1070
     0
  0
VISUALSTYLE
  5
3A
102
{ACAD_REACTORS
330
2A
102
}
102
{ACAD_XDICTIONARY
360
2DF
102
}
330
2A
100
AcDbVisualStyle
  2
ColorChange
 70
    16
 71
     2
 72
     2
 73
     3
 90
        0
 40
-0.6
 41
-30.0
 62
     5
 63
     8
421
  8421504
 74
     1
 91
        4
 64
     7
 65
   257
 75
     1
175
     1
 42
1.0
 92
        8
 66
     8
424
  8421504
 43
1.0
 76
     1
 77
     6
 78
     2
 67
     7
 79
     5
170
     0
171
     0
290
     0
174
     0
 93
        1
 44
0.0
173
     0
291
     1
 45
0.0
1001
ACAD
1000
AcDbSavedByObjectVersion
1070
     0
  0
VISUALSTYLE
  5
34
102
{ACAD_REACTORS
330
2A
102
}
102
{ACAD_XDICTIONARY
360
2D3
102
}
330
2A
100
AcDbVisualStyle
  2
Conceptual
 70
     9
 71
     3
 72
     2
 73
     0
 90
        0
 40
-0.6
 41
-30.0
 62
     5
 63
     7
421
 16777215
 74
     2
 91
        2
 64
     7
 65
   257
 75
     1
175
     1
 42
40.0
 92
        8
 66
     7
 43
1.0
 76
     1
 77
     6
 78
     2
 67
     7
 79
     3
170
     0
171
     0
290
     0
174
     0
 93
        1
 44
0.0
173
     0
291
     0
 45
0.0
1001
ACAD
1000
AcDbSavedByObjectVersion
1070
     0
  0
VISUALSTYLE
  5
35
102
{ACAD_REACTORS
330
2A
102
}
102
{ACAD_XDICTIONARY
360
2D5
102
}
330
2A
100
AcDbVisualStyle
  2
Dim
 70
    11
 71
     2
 72
     2
 73
     0
 90
        0
 40
-0.6
 41
-30.0
 62
     5
 63
     7
421
 16777215
 74
     1
 91
        4
 64
     7
 65
   257
 75
     1
175
     1
 42
1.0
 92
        8
 66
     7
 43
1.0
 76
     1
 77
     6
 78
     2
 67
     7
 79
     5
170
     0
171
     0
290
     0
174
     0
 93
        1
 44
-50.0
173
     0
291
     1
 45
0.0
1001
ACAD
1000
AcDbSavedByObjectVersion
1070
     0
  0
VISUALSTYLE
  5
39
102
{ACAD_REACTORS
330
2A
102
}
102
{ACAD_XDICTIONARY
360
2DD
102
}
330
2A
100
AcDbVisualStyle
  2
Facepattern
 70
    15
 71
     2
 72
     2
 73
     0
 90
        0
 40
-0.6
 41
-30.0
 62
     5
 63
     7
421
 16777215
 74
     1
 91
        4
 64
     7
 65
   257
 75
     1
175
     1
 42
1.0
 92
        8
 66
     7
 43
1.0
 76
     1
 77
     6
 78
     2
 67
     7
 79
     5
170
     0
171
     0
290
     0
174
     0
 93
        1
 44
0.0
173
     0
291
     1
 45
0.0
1001
ACAD
1000
AcDbSavedByObjectVersion
1070
     0
  0
VISUALSTYLE
  5
2B
102
{ACAD_REACTORS
330
2A
102
}
102
{ACAD_XDICTIONARY
360
2C1
102
}
330
2A
100
AcDbVisualStyle
  2
Flat
 70
     0
 71
     2
 72
     1
 73
     1
 90
        2
 40
-0.6
 41
30.0
 62
     5
 63
     7
421
 16777215
 74
     0
 91
        4
 64
     7
 65
   257
 75
     1
175
     1
 42
1.0
 92
        8
 66
     7
 43
1.0
 76
     1
 77
     6
 78
     2
 67
     7
 79
     5
170
     0
171
     0
290
     0
174
     0
 93
       13
 44
0.0
173
     0
291
     1
 45
0.0
1001
ACAD
1000
AcDbSavedByObjectVersion
1070
     0
  0
VISUALSTYLE
  5
2C
102
{ACAD_REACTORS
330
2A
102
}
102
{ACAD_XDICTIONARY
360
2C3
102
}
330
2A
100
AcDbVisualStyle
  2
FlatWithEdges
 70
     1
 71
     2
 72
     1
 73
     1
 90
        2
 40
-0.6
 41
30.0
 62
     5
 63
     7
421
 16777215
 74
     1
 91
        4
 64
     7
 65
   257
 75
     1
175
     1
 42
1.0
 92
        0
 66
   257
 43
1.0
 76
     1
 77
     6
 78
     2
 67
     7
 79
     5
170
     0
171
     0
290
     0
174
     0
 93
       13
 44
0.0
173
     0
291
     1
 45
0.0
1001
ACAD
1000
AcDbSavedByObjectVersion
1070
     0
  0
VISUALSTYLE
  5
2D
102
{ACAD_REACTORS
330
2A
102
}
102
{ACAD_XDICTIONARY
360
2C5
102
}
330
2A
100
AcDbVisualStyle
  2
Gouraud
 70
     2
 71
     2
 72
     2
 73
     1
 90
        2
 40
-0.6
 41
30.0
 62
     5
 63
     7
421
 16777215
 74
     0
 91
        4
 64
     7
 65
   257
 75
     1
175
     1
 42
1.0
 92
        0
 66
     7
 43
1.0
 76
     1
 77
     6
 78
     2
 67
     7
 79
     5
170
     0
171
     0
290
     0
174
     0
 93
       13
 44
0.0
173
     0
291
     1
 45
0.0
1001
ACAD
1000
AcDbSavedByObjectVersion
1070
     0
  0
VISUALSTYLE
  5
2E
102
{ACAD_REACTORS
330
2A
102
}
102
{ACAD_XDICTIONARY
360
2C7
102
}
330
2A
100
AcDbVisualStyle
  2
GouraudWithEdges
 70
     3
 71
     2
 72
     2
 73
     1
 90
        2
 40
-0.6
 41
30.0
 62
     5
 63
     7
421
 16777215
 74
     1
 91
        4
 64
     7
 65
   257
 75
     1
175
     1
 42
1.0
 92
        0
 66
   257
 43
1.0
 76
     1
 77
     6
 78
     2
 67
     7
 79
     5
170
     0
171
     0
290
     0
174
     0
 93
       13
 44
0.0
173
     0
291
     1
 45
0.0
1001
ACAD
1000
AcDbSavedByObjectVersion
1070
     0
  0
VISUALSTYLE
  5
38
102
{ACAD_REACTORS
330
2A
102
}
102
{ACAD_XDICTIONARY
360
2DB
102
}
330
2A
100
AcDbVisualStyle
  2
Linepattern
 70
    14
 71
     2
 72
     2
 73
     0
 90
        0
 40
-0.6
 41
-30.0
 62
     5
 63
     7
421
 16777215
 74
     1
 91
        4
 64
     7
 65
   257
 75
     7
175
     7
 42
1.0
 92
        8
 66
     7
 43
1.0
 76
     1
 77
     6
 78
     2
 67
     7
 79
     5
170
     0
171
     0
290
     0
174
     0
 93
        1
 44
0.0
173
     0
291
     1
 45
0.0
1001
ACAD
1000
AcDbSavedByObjectVersion
1070
     0
  0
VISUALSTYLE
  5
33
102
{ACAD_REACTORS
330
2A
102
}
102
{ACAD_XDICTIONARY
360
2D1
102
}
330
2A
100
AcDbVisualStyle
  2
Realistic
 70
     8
 71
     2
 72
     2
 73
     0
 90
        0
 40
-0.6
 41
-30.0
 62
     5
 63
     7
421
 16777215
 74
     1
 91
        0
 64
     7
 65
   257
 75
     1
175
     1
 42
1.0
 92
        8
 66
     8
424
  7895160
 43
1.0
 76
     1
 77
     6
 78
     2
 67
     7
 79
     5
170
     0
171
     0
290
     0
174
     0
 93
       13
 44
0.0
173
     0
291
     0
 45
0.0
1001
ACAD
1000
AcDbSavedByObjectVersion
1070
     0
  0
VISUALSTYLE
  5
37
102
{ACAD_REACTORS
330
2A
102
}
102
{ACAD_XDICTIONARY
360
2D9
102
}
330
2A
100
AcDbVisualStyle
  2
Thicken
 70
    13
 71
     2
 72
     2
 73
     0
 90
        0
 40
-0.6
 41
-30.0
 62
     5
 63
     7
421
 16777215
 74
     1
 91
        4
 64
     7
 65
   257
 75
     1
175
     1
 42
1.0
 92
       12
 66
     7
 43
1.0
 76
     1
 77
     6
 78
     2
 67
     7
 79
     5
170
     0
171
     0
290
     0
174
     0
 93
        1
 44
0.0
173
     0
291
     1
 45
0.0
1001
ACAD
1000
AcDbSavedByObjectVersion
1070
     0
  0
DICTIONARY
  5
2E3
330
3D
100
AcDbDictionary
280
     1
281
     1
  3
ACAD_XREC_ROUNDTRIP
360
2E4
  0
DICTIONARY
  5
2E1
330
3C
100
AcDbDictionary
280
     1
281
     1
  3
ACAD_XREC_ROUNDTRIP
360
2E2
  0
DICTIONARY
  5
2E5
330
3E
100
AcDbDictionary
280
     1
281
     1
  3
ACAD_XREC_ROUNDTRIP
360
2E6
  0
DICTIONARY
  5
2C9
330
2F
100
AcDbDictionary
280
     1
281
     1
  3
ACAD_XREC_ROUNDTRIP
360
2CA
  0
DICTIONARY
  5
2CD
330
31
100
AcDbDictionary
280
     1
281
     1
  3
ACAD_XREC_ROUNDTRIP
360
2CE
  0
DICTIONARY
  5
2CB
330
30
100
AcDbDictionary
280
     1
281
     1
  3
ACAD_XREC_ROUNDTRIP
360
2CC
  0
DICTIONARY
  5
2CF
330
32
100
AcDbDictionary
280
     1
281
     1
  3
ACAD_XREC_ROUNDTRIP
360
2D0
  0
DICTIONARY
  5
2D7
330
36
100
AcDbDictionary
280
     1
281
     1
  3
ACAD_XREC_ROUNDTRIP
360
2D8
  0
DICTIONARY
  5
2DF
330
3A
100
AcDbDictionary
280
     1
281
     1
  3
ACAD_XREC_ROUNDTRIP
360
2E0
  0
DICTIONARY
  5
2D3
330
34
100
AcDbDictionary
280
     1
281
     1
  3
ACAD_XREC_ROUNDTRIP
360
2D4
  0
DICTIONARY
  5
2D5
330
35
100
AcDbDictionary
280
     1
281
     1
  3
ACAD_XREC_ROUNDTRIP
360
2D6
  0
DICTIONARY
  5
2DD
330
39
100
AcDbDictionary
280
     1
281
     1
  3
ACAD_XREC_ROUNDTRIP
360
2DE
  0
DICTIONARY
  5
2C1
330
2B
100
AcDbDictionary
280
     1
281
     1
  3
ACAD_XREC_ROUNDTRIP
360
2C2
  0
DICTIONARY
  5
2C3
330
2C
100
AcDbDictionary
280
     1
281
     1
  3
ACAD_XREC_ROUNDTRIP
360
2C4
  0
DICTIONARY
  5
2C5
330
2D
100
AcDbDictionary
280
     1
281
     1
  3
ACAD_XREC_ROUNDTRIP
360
2C6
  0
DICTIONARY
  5
2C7
330
2E
100
AcDbDictionary
280
     1
281
     1
  3
ACAD_XREC_ROUNDTRIP
360
2C8
  0
DICTIONARY
  5
2DB
330
38
100
AcDbDictionary
280
     1
281
     1
  3
ACAD_XREC_ROUNDTRIP
360
2DC
  0
DICTIONARY
  5
2D1
330
33
100
AcDbDictionary
280
     1
281
     1
  3
ACAD_XREC_ROUNDTRIP
360
2D2
  0
DICTIONARY
  5
2D9
330
37
100
AcDbDictionary
280
     1
281
     1
  3
ACAD_XREC_ROUNDTRIP
360
2DA
  0
XRECORD
  5
2E4
102
{ACAD_REACTORS
330
2E3
102
}
330
2E3
100
AcDbXrecord
280
     1
102
MATERIAL
148
0.0
149
0.0
149
0.0
 93
        0
 94
      127
282
     0
 72
     1
 77
     1
171
     1
175
     1
179
     1
273
     0
  0
XRECORD
  5
2E2
102
{ACAD_REACTORS
330
2E1
102
}
330
2E1
100
AcDbXrecord
280
     1
102
MATERIAL
148
0.0
149
0.0
149
0.0
 93
        0
 94
      127
282
     0
 72
     1
 77
     1
171
     1
175
     1
179
     1
273
     0
  0
XRECORD
  5
2E6
102
{ACAD_REACTORS
330
2E5
102
}
330
2E5
100
AcDbXrecord
280
     1
102
MATERIAL
148
0.0
149
0.0
149
0.0
 93
        0
 94
      127
282
     0
 72
     1
 77
     1
171
     1
175
     1
179
     1
273
     0
  0
XRECORD
  5
2CA
102
{ACAD_REACTORS
330
2C9
102
}
330
2C9
100
AcDbXrecord
280
     1
102
RTVSPropertyOp0
 70
     1
102
RTVSPropertyOp1
 70
     1
102
RTVSPropertyOp2
 70
     1
102
RTVSPropertyOp3
 70
     1
102
RTVSPropertyOp4
 70
     1
102
RTVSPropertyOp5
 70
     1
102
RTVSPropertyOp6
 70
     1
102
RTVSPropertyOp7
 70
     1
102
RTVSPropertyOp8
 70
     1
102
RTVSPropertyOp9
 70
     1
102
RTVSPropertyOp10
 70
     1
102
RTVSPropertyOp11
 70
     1
102
RTVSPropertyOp12
 70
     1
102
RTVSPropertyOp13
 70
     1
102
RTVSPropertyOp14
 70
     1
102
RTVSPropertyOp15
 70
     1
102
RTVSPropertyOp16
 70
     1
102
RTVSPropertyOp17
 70
     1
102
RTVSPropertyOp18
 70
     1
102
RTVSPropertyOp19
 70
     1
102
RTVSPropertyOp20
 70
     1
102
RTVSPropertyOp21
 70
     1
102
RTVSPropertyOp22
 70
     1
102
RTVSPropertyOp23
 70
     1
102
RTVSPropertyOp24
 70
     1
102
RTVSPropertyOp25
 70
     1
102
RTVSPropertyOp26
 70
     1
102
RTVSPropertyOp27
 70
     1
102
RTVSPropertyOp28
 70
     1
102
RTVSPropertyOp29
 70
     1
102
RTVSPropertyOp30
 70
     1
102
RTVSPropertyOp31
 70
     1
102
RTVSPropertyOp32
 70
     1
  0
XRECORD
  5
2CE
102
{ACAD_REACTORS
330
2CD
102
}
330
2CD
100
AcDbXrecord
280
     1
102
RTVSPropertyOp0
 70
     1
102
RTVSPropertyOp1
 70
     1
102
RTVSPropertyOp2
 70
     1
102
RTVSPropertyOp3
 70
     1
102
RTVSPropertyOp4
 70
     1
102
RTVSPropertyOp5
 70
     1
102
RTVSPropertyOp6
 70
     1
102
RTVSPropertyOp7
 70
     1
102
RTVSPropertyOp8
 70
     1
102
RTVSPropertyOp9
 70
     1
102
RTVSPropertyOp10
 70
     1
102
RTVSPropertyOp11
 70
     1
102
RTVSPropertyOp12
 70
     1
102
RTVSPropertyOp13
 70
     1
102
RTVSPropertyOp14
 70
     1
102
RTVSPropertyOp15
 70
     1
102
RTVSPropertyOp16
 70
     1
102
RTVSPropertyOp17
 70
     1
102
RTVSPropertyOp18
 70
     1
102
RTVSPropertyOp19
 70
     1
102
RTVSPropertyOp20
 70
     1
102
RTVSPropertyOp21
 70
     1
102
RTVSPropertyOp22
 70
     1
102
RTVSPropertyOp23
 70
     1
102
RTVSPropertyOp24
 70
     1
102
RTVSPropertyOp25
 70
     1
102
RTVSPropertyOp26
 70
     1
102
RTVSPropertyOp27
 70
     1
102
RTVSPropertyOp28
 70
     1
102
RTVSPropertyOp29
 70
     1
102
RTVSPropertyOp30
 70
     1
102
RTVSPropertyOp31
 70
     1
102
RTVSPropertyOp32
 70
     1
  0
XRECORD
  5
2CC
102
{ACAD_REACTORS
330
2CB
102
}
330
2CB
100
AcDbXrecord
280
     1
102
RTVSPropertyOp0
 70
     1
102
RTVSPropertyOp1
 70
     1
102
RTVSPropertyOp2
 70
     1
102
RTVSPropertyOp3
 70
     1
102
RTVSPropertyOp4
 70
     1
102
RTVSPropertyOp5
 70
     1
102
RTVSPropertyOp6
 70
     1
102
RTVSPropertyOp7
 70
     1
102
RTVSPropertyOp8
 70
     1
102
RTVSPropertyOp9
 70
     1
102
RTVSPropertyOp10
 70
     1
102
RTVSPropertyOp11
 70
     1
102
RTVSPropertyOp12
 70
     1
102
RTVSPropertyOp13
 70
     1
102
RTVSPropertyOp14
 70
     1
102
RTVSPropertyOp15
 70
     1
102
RTVSPropertyOp16
 70
     1
102
RTVSPropertyOp17
 70
     1
102
RTVSPropertyOp18
 70
     1
102
RTVSPropertyOp19
 70
     1
102
RTVSPropertyOp20
 70
     1
102
RTVSPropertyOp21
 70
     1
102
RTVSPropertyOp22
 70
     1
102
RTVSPropertyOp23
 70
     1
102
RTVSPropertyOp24
 70
     1
102
RTVSPropertyOp25
 70
     1
102
RTVSPropertyOp26
 70
     1
102
RTVSPropertyOp27
 70
     1
102
RTVSPropertyOp28
 70
     1
102
RTVSPropertyOp29
 70
     1
102
RTVSPropertyOp30
 70
     1
102
RTVSPropertyOp31
 70
     1
102
RTVSPropertyOp32
 70
     1
  0
XRECORD
  5
2D0
102
{ACAD_REACTORS
330
2CF
102
}
330
2CF
100
AcDbXrecord
280
     1
102
RTVSPropertyOp0
 70
     1
102
RTVSPropertyOp1
 70
     1
102
RTVSPropertyOp2
 70
     1
102
RTVSPropertyOp3
 70
     1
102
RTVSPropertyOp4
 70
     1
102
RTVSPropertyOp5
 70
     1
102
RTVSPropertyOp6
 70
     1
102
RTVSPropertyOp7
 70
     1
102
RTVSPropertyOp8
 70
     1
102
RTVSPropertyOp9
 70
     1
102
RTVSPropertyOp10
 70
     1
102
RTVSPropertyOp11
 70
     1
102
RTVSPropertyOp12
 70
     1
102
RTVSPropertyOp13
 70
     1
102
RTVSPropertyOp14
 70
     1
102
RTVSPropertyOp15
 70
     1
102
RTVSPropertyOp16
 70
     1
102
RTVSPropertyOp17
 70
     1
102
RTVSPropertyOp18
 70
     1
102
RTVSPropertyOp19
 70
     1
102
RTVSPropertyOp20
 70
     1
102
RTVSPropertyOp21
 70
     1
102
RTVSPropertyOp22
 70
     1
102
RTVSPropertyOp23
 70
     1
102
RTVSPropertyOp24
 70
     1
102
RTVSPropertyOp25
 70
     1
102
RTVSPropertyOp26
 70
     1
102
RTVSPropertyOp27
 70
     1
102
RTVSPropertyOp28
 70
     1
102
RTVSPropertyOp29
 70
     1
102
RTVSPropertyOp30
 70
     1
102
RTVSPropertyOp31
 70
     1
102
RTVSPropertyOp32
 70
     1
  0
XRECORD
  5
2D8
102
{ACAD_REACTORS
330
2D7
102
}
330
2D7
100
AcDbXrecord
280
     1
102
RTVSPropertyOp0
 70
     1
102
RTVSPropertyOp1
 70
     1
102
RTVSPropertyOp2
 70
     1
102
RTVSPropertyOp3
 70
     1
102
RTVSPropertyOp4
 70
     1
102
RTVSPropertyOp5
 70
     1
102
RTVSPropertyOp6
 70
     1
102
RTVSPropertyOp7
 70
     1
102
RTVSPropertyOp8
 70
     1
102
RTVSPropertyOp9
 70
     1
102
RTVSPropertyOp10
 70
     1
102
RTVSPropertyOp11
 70
     1
102
RTVSPropertyOp12
 70
     1
102
RTVSPropertyOp13
 70
     1
102
RTVSPropertyOp14
 70
     1
102
RTVSPropertyOp15
 70
     1
102
RTVSPropertyOp16
 70
     1
102
RTVSPropertyOp17
 70
     1
102
RTVSPropertyOp18
 70
     1
102
RTVSPropertyOp19
 70
     1
102
RTVSPropertyOp20
 70
     1
102
RTVSPropertyOp21
 70
     1
102
RTVSPropertyOp22
 70
     1
102
RTVSPropertyOp23
 70
     1
102
RTVSPropertyOp24
 70
     1
102
RTVSPropertyOp25
 70
     1
102
RTVSPropertyOp26
 70
     1
102
RTVSPropertyOp27
 70
     1
102
RTVSPropertyOp28
 70
     1
102
RTVSPropertyOp29
 70
     1
102
RTVSPropertyOp30
 70
     1
102
RTVSPropertyOp31
 70
     1
102
RTVSPropertyOp32
 70
     1
  0
XRECORD
  5
2E0
102
{ACAD_REACTORS
330
2DF
102
}
330
2DF
100
AcDbXrecord
280
     1
102
RTVSPropertyOp0
 70
     1
102
RTVSPropertyOp1
 70
     1
102
RTVSPropertyOp2
 70
     1
102
RTVSPropertyOp3
 70
     1
102
RTVSPropertyOp4
 70
     1
102
RTVSPropertyOp5
 70
     1
102
RTVSPropertyOp6
 70
     1
102
RTVSPropertyOp7
 70
     1
102
RTVSPropertyOp8
 70
     1
102
RTVSPropertyOp9
 70
     1
102
RTVSPropertyOp10
 70
     1
102
RTVSPropertyOp11
 70
     1
102
RTVSPropertyOp12
 70
     1
102
RTVSPropertyOp13
 70
     1
102
RTVSPropertyOp14
 70
     1
102
RTVSPropertyOp15
 70
     1
102
RTVSPropertyOp16
 70
     1
102
RTVSPropertyOp17
 70
     1
102
RTVSPropertyOp18
 70
     1
102
RTVSPropertyOp19
 70
     1
102
RTVSPropertyOp20
 70
     1
102
RTVSPropertyOp21
 70
     1
102
RTVSPropertyOp22
 70
     1
102
RTVSPropertyOp23
 70
     1
102
RTVSPropertyOp24
 70
     1
102
RTVSPropertyOp25
 70
     1
102
RTVSPropertyOp26
 70
     1
102
RTVSPropertyOp27
 70
     1
102
RTVSPropertyOp28
 70
     1
102
RTVSPropertyOp29
 70
     1
102
RTVSPropertyOp30
 70
     1
102
RTVSPropertyOp31
 70
     1
102
RTVSPropertyOp32
 70
     1
  0
XRECORD
  5
2D4
102
{ACAD_REACTORS
330
2D3
102
}
330
2D3
100
AcDbXrecord
280
     1
102
RTVSPropertyOp0
 70
     1
102
RTVSPropertyOp1
 70
     1
102
RTVSPropertyOp2
 70
     1
102
RTVSPropertyOp3
 70
     1
102
RTVSPropertyOp4
 70
     1
102
RTVSPropertyOp5
 70
     1
102
RTVSPropertyOp6
 70
     1
102
RTVSPropertyOp7
 70
     1
102
RTVSPropertyOp8
 70
     1
102
RTVSPropertyOp9
 70
     1
102
RTVSPropertyOp10
 70
     1
102
RTVSPropertyOp11
 70
     1
102
RTVSPropertyOp12
 70
     1
102
RTVSPropertyOp13
 70
     1
102
RTVSPropertyOp14
 70
     1
102
RTVSPropertyOp15
 70
     1
102
RTVSPropertyOp16
 70
     1
102
RTVSPropertyOp17
 70
     1
102
RTVSPropertyOp18
 70
     1
102
RTVSPropertyOp19
 70
     1
102
RTVSPropertyOp20
 70
     1
102
RTVSPropertyOp21
 70
     1
102
RTVSPropertyOp22
 70
     1
102
RTVSPropertyOp23
 70
     1
102
RTVSPropertyOp24
 70
     1
102
RTVSPropertyOp25
 70
     1
102
RTVSPropertyOp26
 70
     1
102
RTVSPropertyOp27
 70
     1
102
RTVSPropertyOp28
 70
     1
102
RTVSPropertyOp29
 70
     1
102
RTVSPropertyOp30
 70
     1
102
RTVSPropertyOp31
 70
     1
102
RTVSPropertyOp32
 70
     1
  0
XRECORD
  5
2D6
102
{ACAD_REACTORS
330
2D5
102
}
330
2D5
100
AcDbXrecord
280
     1
102
RTVSPropertyOp0
 70
     1
102
RTVSPropertyOp1
 70
     1
102
RTVSPropertyOp2
 70
     1
102
RTVSPropertyOp3
 70
     1
102
RTVSPropertyOp4
 70
     1
102
RTVSPropertyOp5
 70
     1
102
RTVSPropertyOp6
 70
     1
102
RTVSPropertyOp7
 70
     1
102
RTVSPropertyOp8
 70
     1
102
RTVSPropertyOp9
 70
     1
102
RTVSPropertyOp10
 70
     1
102
RTVSPropertyOp11
 70
     1
102
RTVSPropertyOp12
 70
     1
102
RTVSPropertyOp13
 70
     1
102
RTVSPropertyOp14
 70
     1
102
RTVSPropertyOp15
 70
     1
102
RTVSPropertyOp16
 70
     1
102
RTVSPropertyOp17
 70
     1
102
RTVSPropertyOp18
 70
     1
102
RTVSPropertyOp19
 70
     1
102
RTVSPropertyOp20
 70
     1
102
RTVSPropertyOp21
 70
     1
102
RTVSPropertyOp22
 70
     1
102
RTVSPropertyOp23
 70
     1
102
RTVSPropertyOp24
 70
     1
102
RTVSPropertyOp25
 70
     1
102
RTVSPropertyOp26
 70
     1
102
RTVSPropertyOp27
 70
     1
102
RTVSPropertyOp28
 70
     1
102
RTVSPropertyOp29
 70
     1
102
RTVSPropertyOp30
 70
     1
102
RTVSPropertyOp31
 70
     1
102
RTVSPropertyOp32
 70
     1
  0
XRECORD
  5
2DE
102
{ACAD_REACTORS
330
2DD
102
}
330
2DD
100
AcDbXrecord
280
     1
102
RTVSPropertyOp0
 70
     1
102
RTVSPropertyOp1
 70
     1
102
RTVSPropertyOp2
 70
     1
102
RTVSPropertyOp3
 70
     1
102
RTVSPropertyOp4
 70
     1
102
RTVSPropertyOp5
 70
     1
102
RTVSPropertyOp6
 70
     1
102
RTVSPropertyOp7
 70
     1
102
RTVSPropertyOp8
 70
     1
102
RTVSPropertyOp9
 70
     1
102
RTVSPropertyOp10
 70
     1
102
RTVSPropertyOp11
 70
     1
102
RTVSPropertyOp12
 70
     1
102
RTVSPropertyOp13
 70
     1
102
RTVSPropertyOp14
 70
     1
102
RTVSPropertyOp15
 70
     1
102
RTVSPropertyOp16
 70
     1
102
RTVSPropertyOp17
 70
     1
102
RTVSPropertyOp18
 70
     1
102
RTVSPropertyOp19
 70
     1
102
RTVSPropertyOp20
 70
     1
102
RTVSPropertyOp21
 70
     1
102
RTVSPropertyOp22
 70
     1
102
RTVSPropertyOp23
 70
     1
102
RTVSPropertyOp24
 70
     1
102
RTVSPropertyOp25
 70
     1
102
RTVSPropertyOp26
 70
     1
102
RTVSPropertyOp27
 70
     1
102
RTVSPropertyOp28
 70
     1
102
RTVSPropertyOp29
 70
     1
102
RTVSPropertyOp30
 70
     1
102
RTVSPropertyOp31
 70
     1
102
RTVSPropertyOp32
 70
     1
  0
XRECORD
  5
2C2
102
{ACAD_REACTORS
330
2C1
102
}
330
2C1
100
AcDbXrecord
280
     1
102
RTVSPropertyOp0
 70
     1
102
RTVSPropertyOp1
 70
     1
102
RTVSPropertyOp2
 70
     1
102
RTVSPropertyOp3
 70
     1
102
RTVSPropertyOp4
 70
     1
102
RTVSPropertyOp5
 70
     1
102
RTVSPropertyOp6
 70
     1
102
RTVSPropertyOp7
 70
     1
102
RTVSPropertyOp8
 70
     1
102
RTVSPropertyOp9
 70
     1
102
RTVSPropertyOp10
 70
     1
102
RTVSPropertyOp11
 70
     1
102
RTVSPropertyOp12
 70
     1
102
RTVSPropertyOp13
 70
     1
102
RTVSPropertyOp14
 70
     1
102
RTVSPropertyOp15
 70
     1
102
RTVSPropertyOp16
 70
     1
102
RTVSPropertyOp17
 70
     1
102
RTVSPropertyOp18
 70
     1
102
RTVSPropertyOp19
 70
     1
102
RTVSPropertyOp20
 70
     1
102
RTVSPropertyOp21
 70
     1
102
RTVSPropertyOp22
 70
     1
102
RTVSPropertyOp23
 70
     1
102
RTVSPropertyOp24
 70
     1
102
RTVSPropertyOp25
 70
     1
102
RTVSPropertyOp26
 70
     1
102
RTVSPropertyOp27
 70
     1
102
RTVSPropertyOp28
 70
     1
102
RTVSPropertyOp29
 70
     1
102
RTVSPropertyOp30
 70
     1
102
RTVSPropertyOp31
 70
     1
102
RTVSPropertyOp32
 70
     1
  0
XRECORD
  5
2C4
102
{ACAD_REACTORS
330
2C3
102
}
330
2C3
100
AcDbXrecord
280
     1
102
RTVSPropertyOp0
 70
     1
102
RTVSPropertyOp1
 70
     1
102
RTVSPropertyOp2
 70
     1
102
RTVSPropertyOp3
 70
     1
102
RTVSPropertyOp4
 70
     1
102
RTVSPropertyOp5
 70
     1
102
RTVSPropertyOp6
 70
     1
102
RTVSPropertyOp7
 70
     1
102
RTVSPropertyOp8
 70
     1
102
RTVSPropertyOp9
 70
     1
102
RTVSPropertyOp10
 70
     1
102
RTVSPropertyOp11
 70
     1
102
RTVSPropertyOp12
 70
     1
102
RTVSPropertyOp13
 70
     1
102
RTVSPropertyOp14
 70
     1
102
RTVSPropertyOp15
 70
     1
102
RTVSPropertyOp16
 70
     1
102
RTVSPropertyOp17
 70
     1
102
RTVSPropertyOp18
 70
     1
102
RTVSPropertyOp19
 70
     1
102
RTVSPropertyOp20
 70
     1
102
RTVSPropertyOp21
 70
     1
102
RTVSPropertyOp22
 70
     1
102
RTVSPropertyOp23
 70
     1
102
RTVSPropertyOp24
 70
     1
102
RTVSPropertyOp25
 70
     1
102
RTVSPropertyOp26
 70
     1
102
RTVSPropertyOp27
 70
     1
102
RTVSPropertyOp28
 70
     1
102
RTVSPropertyOp29
 70
     1
102
RTVSPropertyOp30
 70
     1
102
RTVSPropertyOp31
 70
     1
102
RTVSPropertyOp32
 70
     1
  0
XRECORD
  5
2C6
102
{ACAD_REACTORS
330
2C5
102
}
330
2C5
100
AcDbXrecord
280
     1
102
RTVSPropertyOp0
 70
     1
102
RTVSPropertyOp1
 70
     1
102
RTVSPropertyOp2
 70
     1
102
RTVSPropertyOp3
 70
     1
102
RTVSPropertyOp4
 70
     1
102
RTVSPropertyOp5
 70
     1
102
RTVSPropertyOp6
 70
     1
102
RTVSPropertyOp7
 70
     1
102
RTVSPropertyOp8
 70
     1
102
RTVSPropertyOp9
 70
     1
102
RTVSPropertyOp10
 70
     1
102
RTVSPropertyOp11
 70
     1
102
RTVSPropertyOp12
 70
     1
102
RTVSPropertyOp13
 70
     1
102
RTVSPropertyOp14
 70
     1
102
RTVSPropertyOp15
 70
     1
102
RTVSPropertyOp16
 70
     1
102
RTVSPropertyOp17
 70
     1
102
RTVSPropertyOp18
 70
     1
102
RTVSPropertyOp19
 70
     1
102
RTVSPropertyOp20
 70
     1
102
RTVSPropertyOp21
 70
     1
102
RTVSPropertyOp22
 70
     1
102
RTVSPropertyOp23
 70
     1
102
RTVSPropertyOp24
 70
     1
102
RTVSPropertyOp25
 70
     1
102
RTVSPropertyOp26
 70
     1
102
RTVSPropertyOp27
 70
     1
102
RTVSPropertyOp28
 70
     1
102
RTVSPropertyOp29
 70
     1
102
RTVSPropertyOp30
 70
     1
102
RTVSPropertyOp31
 70
     1
102
RTVSPropertyOp32
 70
     1
  0
XRECORD
  5
2C8
102
{ACAD_REACTORS
330
2C7
102
}
330
2C7
100
AcDbXrecord
280
     1
102
RTVSPropertyOp0
 70
     1
102
RTVSPropertyOp1
 70
     1
102
RTVSPropertyOp2
 70
     1
102
RTVSPropertyOp3
 70
     1
102
RTVSPropertyOp4
 70
     1
102
RTVSPropertyOp5
 70
     1
102
RTVSPropertyOp6
 70
     1
102
RTVSPropertyOp7
 70
     1
102
RTVSPropertyOp8
 70
     1
102
RTVSPropertyOp9
 70
     1
102
RTVSPropertyOp10
 70
     1
102
RTVSPropertyOp11
 70
     1
102
RTVSPropertyOp12
 70
     1
102
RTVSPropertyOp13
 70
     1
102
RTVSPropertyOp14
 70
     1
102
RTVSPropertyOp15
 70
     1
102
RTVSPropertyOp16
 70
     1
102
RTVSPropertyOp17
 70
     1
102
RTVSPropertyOp18
 70
     1
102
RTVSPropertyOp19
 70
     1
102
RTVSPropertyOp20
 70
     1
102
RTVSPropertyOp21
 70
     1
102
RTVSPropertyOp22
 70
     1
102
RTVSPropertyOp23
 70
     1
102
RTVSPropertyOp24
 70
     1
102
RTVSPropertyOp25
 70
     1
102
RTVSPropertyOp26
 70
     1
102
RTVSPropertyOp27
 70
     1
102
RTVSPropertyOp28
 70
     1
102
RTVSPropertyOp29
 70
     1
102
RTVSPropertyOp30
 70
     1
102
RTVSPropertyOp31
 70
     1
102
RTVSPropertyOp32
 70
     1
  0
XRECORD
  5
2DC
102
{ACAD_REACTORS
330
2DB
102
}
330
2DB
100
AcDbXrecord
280
     1
102
RTVSPropertyOp0
 70
     1
102
RTVSPropertyOp1
 70
     1
102
RTVSPropertyOp2
 70
     1
102
RTVSPropertyOp3
 70
     1
102
RTVSPropertyOp4
 70
     1
102
RTVSPropertyOp5
 70
     1
102
RTVSPropertyOp6
 70
     1
102
RTVSPropertyOp7
 70
     1
102
RTVSPropertyOp8
 70
     1
102
RTVSPropertyOp9
 70
     1
102
RTVSPropertyOp10
 70
     1
102
RTVSPropertyOp11
 70
     1
102
RTVSPropertyOp12
 70
     1
102
RTVSPropertyOp13
 70
     1
102
RTVSPropertyOp14
 70
     1
102
RTVSPropertyOp15
 70
     1
102
RTVSPropertyOp16
 70
     1
102
RTVSPropertyOp17
 70
     1
102
RTVSPropertyOp18
 70
     1
102
RTVSPropertyOp19
 70
     1
102
RTVSPropertyOp20
 70
     1
102
RTVSPropertyOp21
 70
     1
102
RTVSPropertyOp22
 70
     1
102
RTVSPropertyOp23
 70
     1
102
RTVSPropertyOp24
 70
     1
102
RTVSPropertyOp25
 70
     1
102
RTVSPropertyOp26
 70
     1
102
RTVSPropertyOp27
 70
     1
102
RTVSPropertyOp28
 70
     1
102
RTVSPropertyOp29
 70
     1
102
RTVSPropertyOp30
 70
     1
102
RTVSPropertyOp31
 70
     1
102
RTVSPropertyOp32
 70
     1
  0
XRECORD
  5
2D2
102
{ACAD_REACTORS
330
2D1
102
}
330
2D1
100
AcDbXrecord
280
     1
102
RTVSPropertyOp0
 70
     1
102
RTVSPropertyOp1
 70
     1
102
RTVSPropertyOp2
 70
     1
102
RTVSPropertyOp3
 70
     1
102
RTVSPropertyOp4
 70
     1
102
RTVSPropertyOp5
 70
     1
102
RTVSPropertyOp6
 70
     1
102
RTVSPropertyOp7
 70
     1
102
RTVSPropertyOp8
 70
     1
102
RTVSPropertyOp9
 70
     1
102
RTVSPropertyOp10
 70
     1
102
RTVSPropertyOp11
 70
     1
102
RTVSPropertyOp12
 70
     1
102
RTVSPropertyOp13
 70
     1
102
RTVSPropertyOp14
 70
     1
102
RTVSPropertyOp15
 70
     1
102
RTVSPropertyOp16
 70
     1
102
RTVSPropertyOp17
 70
     1
102
RTVSPropertyOp18
 70
     1
102
RTVSPropertyOp19
 70
     1
102
RTVSPropertyOp20
 70
     1
102
RTVSPropertyOp21
 70
     1
102
RTVSPropertyOp22
 70
     1
102
RTVSPropertyOp23
 70
     1
102
RTVSPropertyOp24
 70
     1
102
RTVSPropertyOp25
 70
     1
102
RTVSPropertyOp26
 70
     1
102
RTVSPropertyOp27
 70
     1
102
RTVSPropertyOp28
 70
     1
102
RTVSPropertyOp29
 70
     1
102
RTVSPropertyOp30
 70
     1
102
RTVSPropertyOp31
 70
     1
102
RTVSPropertyOp32
 70
     1
  0
XRECORD
  5
2DA
102
{ACAD_REACTORS
330
2D9
102
}
330
2D9
100
AcDbXrecord
280
     1
102
RTVSPropertyOp0
 70
     1
102
RTVSPropertyOp1
 70
     1
102
RTVSPropertyOp2
 70
     1
102
RTVSPropertyOp3
 70
     1
102
RTVSPropertyOp4
 70
     1
102
RTVSPropertyOp5
 70
     1
102
RTVSPropertyOp6
 70
     1
102
RTVSPropertyOp7
 70
     1
102
RTVSPropertyOp8
 70
     1
102
RTVSPropertyOp9
 70
     1
102
RTVSPropertyOp10
 70
     1
102
RTVSPropertyOp11
 70
     1
102
RTVSPropertyOp12
 70
     1
102
RTVSPropertyOp13
 70
     1
102
RTVSPropertyOp14
 70
     1
102
RTVSPropertyOp15
 70
     1
102
RTVSPropertyOp16
 70
     1
102
RTVSPropertyOp17
 70
     1
102
RTVSPropertyOp18
 70
     1
102
RTVSPropertyOp19
 70
     1
102
RTVSPropertyOp20
 70
     1
102
RTVSPropertyOp21
 70
     1
102
RTVSPropertyOp22
 70
     1
102
RTVSPropertyOp23
 70
     1
102
RTVSPropertyOp24
 70
     1
102
RTVSPropertyOp25
 70
     1
102
RTVSPropertyOp26
 70
     1
102
RTVSPropertyOp27
 70
     1
102
RTVSPropertyOp28
 70
     1
102
RTVSPropertyOp29
 70
     1
102
RTVSPropertyOp30
 70
     1
102
RTVSPropertyOp31
 70
     1
102
RTVSPropertyOp32
 70
     1
  0
ENDSEC
  0
EOF
