  0
SECTION
  2
HEADER
  9
$ACADVER
  1
AC1018
  9
$ACADMAINTVER
 70
     0
  9
$DWGCODEPAGE
  3
ANSI_1252
  9
$INSBASE
 10
0.0
 20
0.0
 30
0.0
  9
$EXTMIN
 10
-420.5137835827773
 20
-253.0968734534574
 30
0.0
  9
$EXTMAX
 10
-123.5137835827792
 20
-43.09687345345731
 30
0.0
  9
$LIMMIN
 10
0.0
 20
0.0
  9
$LIMMAX
 10
12.0
 20
9.0
  9
$ORTHOMODE
 70
     0
  9
$REGENMODE
 70
     1
  9
$FILLMODE
 70
     1
  9
$QTEXTMODE
 70
     0
  9
$MIRRTEXT
 70
     1
  9
$LTSCALE
 40
1.0
  9
$ATTMODE
 70
     1
  9
$TEXTSIZE
 40
0.2
  9
$TRACEWID
 40
0.05
  9
$TEXTSTYLE
  7
Standard
  9
$CLAYER
  8
0
  9
$CELTYPE
  6
ByLayer
  9
$CECOLOR
 62
   256
  9
$CELTSCALE
 40
1.0
  9
$DISPSILH
 70
     0
  9
$DIMSCALE
 40
1.0
  9
$DIMASZ
 40
0.18
  9
$DIMEXO
 40
0.0625
  9
$DIMDLI
 40
0.38
  9
$DIMRND
 40
0.0
  9
$DIMDLE
 40
0.0
  9
$DIMEXE
 40
0.18
  9
$DIMTP
 40
0.0
  9
$DIMTM
 40
0.0
  9
$DIMTXT
 40
0.18
  9
$DIMCEN
 40
0.09
  9
$DIMTSZ
 40
0.0
  9
$DIMTOL
 70
     0
  9
$DIMLIM
 70
     0
  9
$DIMTIH
 70
     1
  9
$DIMTOH
 70
     1
  9
$DIMSE1
 70
     0
  9
$DIMSE2
 70
     0
  9
$DIMTAD
 70
     0
  9
$DIMZIN
 70
     0
  9
$DIMBLK
  1

  9
$DIMASO
 70
     1
  9
$DIMSHO
 70
     1
  9
$DIMPOST
  1

  9
$DIMAPOST
  1

  9
$DIMALT
 70
     0
  9
$DIMALTD
 70
     2
  9
$DIMALTF
 40
25.4
  9
$DIMLFAC
 40
1.0
  9
$DIMTOFL
 70
     0
  9
$DIMTVP
 40
0.0
  9
$DIMTIX
 70
     0
  9
$DIMSOXD
 70
     0
  9
$DIMSAH
 70
     0
  9
$DIMBLK1
  1

  9
$DIMBLK2
  1

  9
$DIMSTYLE
  2
Standard
  9
$DIMCLRD
 70
     0
  9
$DIMCLRE
 70
     0
  9
$DIMCLRT
 70
     0
  9
$DIMTFAC
 40
1.0
  9
$DIMGAP
 40
0.09
  9
$DIMJUST
 70
     0
  9
$DIMSD1
 70
     0
  9
$DIMSD2
 70
     0
  9
$DIMTOLJ
 70
     1
  9
$DIMTZIN
 70
     0
  9
$DIMALTZ
 70
     0
  9
$DIMALTTZ
 70
     0
  9
$DIMUPT
 70
     0
  9
$DIMDEC
 70
     4
  9
$DIMTDEC
 70
     4
  9
$DIMALTU
 70
     2
  9
$DIMALTTD
 70
     2
  9
$DIMTXSTY
  7
Standard
  9
$DIMAUNIT
 70
     0
  9
$DIMADEC
 70
     0
  9
$DIMALTRND
 40
0.0
  9
$DIMAZIN
 70
     0
  9
$DIMDSEP
 70
    46
  9
$DIMATFIT
 70
     3
  9
$DIMFRAC
 70
     0
  9
$DIMLDRBLK
  1

  9
$DIMLUNIT
 70
     2
  9
$DIMLWD
 70
    -2
  9
$DIMLWE
 70
    -2
  9
$DIMTMOVE
 70
     0
  9
$LUNITS
 70
     2
  9
$LUPREC
 70
     4
  9
$SKETCHINC
 40
0.1
  9
$FILLETRAD
 40
0.5
  9
$AUNITS
 70
     0
  9
$AUPREC
 70
     0
  9
$MENU
  1
.
  9
$ELEVATION
 40
0.0
  9
$PELEVATION
 40
0.0
  9
$THICKNESS
 40
0.0
  9
$LIMCHECK
 70
     0
  9
$CHAMFERA
 40
0.5
  9
$CHAMFERB
 40
0.5
  9
$CHAMFERC
 40
1.0
  9
$CHAMFERD
 40
0.0
  9
$SKPOLY
 70
     0
  9
$TDCREATE
 40
2458174.376687338
  9
$TDUCREATE
 40
2458174.335020671
  9
$TDUPDATE
 40
2458174.376687882
  9
$TDUUPDATE
 40
2458174.335021215
  9
$TDINDWG
 40
0.0000000116
  9
$TDUSRTIMER
 40
0.0000000116
  9
$USRTIMER
 70
     1
  9
$ANGBASE
 50
0.0
  9
$ANGDIR
 70
     0
  9
$PDMODE
 70
     0
  9
$PDSIZE
 40
0.0
  9
$PLINEWID
 40
0.0
  9
$SPLFRAME
 70
     0
  9
$SPLINETYPE
 70
     6
  9
$SPLINESEGS
 70
     8
  9
$HANDSEED
  5
2FC
  9
$SURFTAB1
 70
     6
  9
$SURFTAB2
 70
     6
  9
$SURFTYPE
 70
     6
  9
$SURFU
 70
     6
  9
$SURFV
 70
     6
  9
$UCSBASE
  2

  9
$UCSNAME
  2

  9
$UCSORG
 10
0.0
 20
0.0
 30
0.0
  9
$UCSXDIR
 10
1.0
 20
0.0
 30
0.0
  9
$UCSYDIR
 10
0.0
 20
1.0
 30
0.0
  9
$UCSORTHOREF
  2

  9
$UCSORTHOVIEW
 70
     0
  9
$UCSORGTOP
 10
0.0
 20
0.0
 30
0.0
  9
$UCSORGBOTTOM
 10
0.0
 20
0.0
 30
0.0
  9
$UCSORGLEFT
 10
0.0
 20
0.0
 30
0.0
  9
$UCSORGRIGHT
 10
0.0
 20
0.0
 30
0.0
  9
$UCSORGFRONT
 10
0.0
 20
0.0
 30
0.0
  9
$UCSORGBACK
 10
0.0
 20
0.0
 30
0.0
  9
$PUCSBASE
  2

  9
$PUCSNAME
  2

  9
$PUCSORG
 10
0.0
 20
0.0
 30
0.0
  9
$PUCSXDIR
 10
1.0
 20
0.0
 30
0.0
  9
$PUCSYDIR
 10
0.0
 20
1.0
 30
0.0
  9
$PUCSORTHOREF
  2

  9
$PUCSORTHOVIEW
 70
     0
  9
$PUCSORGTOP
 10
0.0
 20
0.0
 30
0.0
  9
$PUCSORGBOTTOM
 10
0.0
 20
0.0
 30
0.0
  9
$PUCSORGLEFT
 10
0.0
 20
0.0
 30
0.0
  9
$PUCSORGRIGHT
 10
0.0
 20
0.0
 30
0.0
  9
$PUCSORGFRONT
 10
0.0
 20
0.0
 30
0.0
  9
$PUCSORGBACK
 10
0.0
 20
0.0
 30
0.0
  9
$USERI1
 70
     0
  9
$USERI2
 70
     0
  9
$USERI3
 70
     0
  9
$USERI4
 70
     0
  9
$USERI5
 70
     0
  9
$USERR1
 40
18.1
  9
$USERR2
 40
0.0
  9
$USERR3
 40
0.0
  9
$USERR4
 40
0.0
  9
$USERR5
 40
0.0
  9
$WORLDVIEW
 70
     1
  9
$SHADEDGE
 70
     3
  9
$SHADEDIF
 70
    70
  9
$TILEMODE
 70
     1
  9
$MAXACTVP
 70
    64
  9
$PINSBASE
 10
0.0
 20
0.0
 30
0.0
  9
$PLIMCHECK
 70
     0
  9
$PEXTMIN
 10
1.00000000000000E+20
 20
1.00000000000000E+20
 30
1.00000000000000E+20
  9
$PEXTMAX
 10
-1.00000000000000E+20
 20
-1.00000000000000E+20
 30
-1.00000000000000E+20
  9
$PLIMMIN
 10
0.0
 20
0.0
  9
$PLIMMAX
 10
12.0
 20
9.0
  9
$UNITMODE
 70
     0
  9
$VISRETAIN
 70
     1
  9
$PLINEGEN
 70
     0
  9
$PSLTSCALE
 70
     1
  9
$TREEDEPTH
 70
  3020
  9
$CMLSTYLE
  2
Standard
  9
$CMLJUST
 70
     0
  9
$CMLSCALE
 40
1.0
  9
$PROXYGRAPHICS
 70
     1
  9
$MEASUREMENT
 70
     1
  9
$CELWEIGHT
370
    -1
  9
$ENDCAPS
280
     0
  9
$JOINSTYLE
280
     0
  9
$LWDISPLAY
290
     0
  9
$INSUNITS
 70
     4
  9
$HYPERLINKBASE
  1

  9
$STYLESHEET
  1

  9
$XEDIT
290
     1
  9
$CEPSNTYPE
380
     0
  9
$PSTYLEMODE
290
     1
  9
$FINGERPRINTGUID
  2
{6006E19D-92B5-47AC-9AFA-EC1531F34328}
  9
$VERSIONGUID
  2
{FAEB1C32-E019-11D5-929B-00C0DF256EC4}
  9
$EXTNAMES
290
     1
  9
$PSVPSCALE
 40
0.0
  9
$OLESTARTUP
290
     0
  9
$SORTENTS
280
   127
  9
$INDEXCTL
280
     0
  9
$HIDETEXT
280
     1
  9
$XCLIPFRAME
290
     0
  9
$HALOGAP
280
     0
  9
$OBSCOLOR
 70
   257
  9
$OBSLTYPE
280
     0
  9
$INTERSECTIONDISPLAY
280
     0
  9
$INTERSECTIONCOLOR
 70
   257
  9
$DIMASSOC
280
     2
  9
$PROJECTNAME
  1

  0
ENDSEC
  0
SECTION
  2
CLASSES
  0
CLASS
  1
ACDBDICTIONARYWDFLT
  2
AcDbDictionaryWithDefault
  3
ObjectDBX Classes
 90
        0
 91
        4
280
     0
281
     0
  0
CLASS
  1
VISUALSTYLE
  2
AcDbVisualStyle
  3
ObjectDBX Classes
 90
     4095
 91
        4
280
     0
281
     0
  0
CLASS
  1
MATERIAL
  2
AcDbMaterial
  3
ObjectDBX Classes
 90
     1153
 91
        4
280
     0
281
     0
  0
ENDSEC
  0
SECTION
  2
TABLES
  0
TABLE
  2
VPORT
  5
8
330
0
100
AcDbSymbolTable
 70
     1
  0
VPORT
  5
29
330
8
100
AcDbSymbolTableRecord
100
AcDbViewportTableRecord
  2
*Active
 70
     0
 10
0.0
 20
0.0
 11
1.0
 21
1.0
 12
-272.0137835827783
 22
-148.0968734534574
 13
0.0
 23
0.0
 14
0.5
 24
0.5
 15
0.5
 25
0.5
 16
0.0
 26
0.0
 36
1.0
 17
0.0
 27
0.0
 37
0.0
 40
231.0000000000001
 41
1.60267857142857
 42
50.0
 43
0.0
 44
0.0
 50
0.0
 51
0.0
 71
     0
 72
   100
 73
     1
 74
     3
 75
     0
 76
     0
 77
     0
 78
     0
281
     0
 65
     1
110
0.0
120
0.0
130
0.0
111
1.0
121
0.0
131
0.0
112
0.0
122
1.0
132
0.0
 79
     0
146
0.0
  0
ENDTAB
  0
TABLE
  2
LTYPE
  5
5
330
0
100
AcDbSymbolTable
 70
     8
  0
LTYPE
  5
14
330
5
100
AcDbSymbolTableRecord
100
AcDbLinetypeTableRecord
  2
ByBlock
 70
     0
  3

 72
    65
 73
     0
 40
0.0
  0
LTYPE
  5
15
330
5
100
AcDbSymbolTableRecord
100
AcDbLinetypeTableRecord
  2
ByLayer
 70
     0
  3

 72
    65
 73
     0
 40
0.0
  0
LTYPE
  5
16
330
5
100
AcDbSymbolTableRecord
100
AcDbLinetypeTableRecord
  2
Continuous
 70
     0
  3
Solid line
 72
    65
 73
     0
 40
0.0
  0
LTYPE
  5
3F
330
5
100
AcDbSymbolTableRecord
100
AcDbLinetypeTableRecord
  2
DASHED
 70
     0
  3
Dashed
 72
    65
 73
     2
 40
15.0
 49
7.0
 74
     0
 49
-8.0
 74
     0
  0
LTYPE
  5
40
330
5
100
AcDbSymbolTableRecord
100
AcDbLinetypeTableRecord
  2
DOTTED
 70
     0
  3
Dotted
 72
    65
 73
     2
 40
1.0
 49
0.0
 74
     0
 49
-1.0
 74
     0
  0
LTYPE
  5
41
330
5
100
AcDbSymbolTableRecord
100
AcDbLinetypeTableRecord
  2
DOT_CENTER
 70
     0
  3
Dot_Center
 72
    65
 73
     4
 40
14.0
 49
12.0
 74
     0
 49
-1.0
 74
     0
 49
0.0
 74
     0
 49
-1.0
 74
     0
  0
LTYPE
  5
42
330
5
100
AcDbSymbolTableRecord
100
AcDbLinetypeTableRecord
  2
LONG_DASHED
 70
     0
  3
Long_Dashed
 72
    65
 73
     2
 40
15.0
 49
10.0
 74
     0
 49
-5.0
 74
     0
  0
LTYPE
  5
43
330
5
100
AcDbSymbolTableRecord
100
AcDbLinetypeTableRecord
  2
DASH_CENTER
 70
     0
  3
Dash_Center
 72
    65
 73
     4
 40
14.0
 49
11.0
 74
     0
 49
-1.0
 74
     0
 49
1.0
 74
     0
 49
-1.0
 74
     0
  0
LTYPE
  5
44
330
5
100
AcDbSymbolTableRecord
100
AcDbLinetypeTableRecord
  2
PHANTOM
 70
     0
  3
Phantom
 72
    65
 73
     6
 40
13.0
 49
10.0
 74
     0
 49
-1.0
 74
     0
 49
0.0
 74
     0
 49
-1.0
 74
     0
 49
0.0
 74
     0
 49
-1.0
 74
     0
  0
LTYPE
  5
45
330
5
100
AcDbSymbolTableRecord
100
AcDbLinetypeTableRecord
  2
CENTER_DASH_DASH
 70
     0
  3
Center_Dash_Dash
 72
    65
 73
     6
 40
14.0
 49
9.0
 74
     0
 49
-1.0
 74
     0
 49
1.0
 74
     0
 49
-1.0
 74
     0
 49
1.0
 74
     0
 49
-1.0
 74
     0
  0
ENDTAB
  0
TABLE
  2
LAYER
  5
2
330
0
100
AcDbSymbolTable
 70
     2
  0
LAYER
  5
10
330
2
100
AcDbSymbolTableRecord
100
AcDbLayerTableRecord
  2
0
 70
     0
 62
     7
  6
Continuous
370
    -3
390
F
  0
LAYER
  5
46
330
2
100
AcDbSymbolTableRecord
100
AcDbLayerTableRecord
  2
1
 70
     0
 62
     7
  6
Continuous
370
    -3
390
F
  0
ENDTAB
  0
TABLE
  2
STYLE
  5
3
330
0
100
AcDbSymbolTable
 70
     5
  0
STYLE
  5
11
330
3
100
AcDbSymbolTableRecord
100
AcDbTextStyleTableRecord
  2
Standard
 70
     0
 40
0.0
 41
1.0
 50
0.0
 71
     0
 42
0.2
  3
txt
  4

  0
STYLE
  5
B9
330
3
100
AcDbSymbolTableRecord
100
AcDbTextStyleTableRecord
  2
CONVERTER_11
 70
     0
 40
0.0
 41
0.9
 50
0.0
 71
     0
 42
0.2
  3
txt.shx
  4

  0
STYLE
  5
297
330
3
100
AcDbSymbolTableRecord
100
AcDbTextStyleTableRecord
  2
CONVERTER_12
 70
     0
 40
0.0
 41
0.81
 50
0.0
 71
     0
 42
0.2
  3
txt.shx
  4

  0
STYLE
  5
2AD
330
3
100
AcDbSymbolTableRecord
100
AcDbTextStyleTableRecord
  2
CONVERTER_13
 70
     0
 40
0.0
 41
0.72
 50
0.0
 71
     0
 42
0.2
  3
txt.shx
  4

  0
STYLE
  5
2B0
330
3
100
AcDbSymbolTableRecord
100
AcDbTextStyleTableRecord
  2
CONVERTER_14
 70
     0
 40
0.0
 41
0.855
 50
0.0
 71
     0
 42
0.2
  3
txt.shx
  4

  0
ENDTAB
  0
TABLE
  2
VIEW
  5
6
330
0
100
AcDbSymbolTable
 70
     0
  0
ENDTAB
  0
TABLE
  2
UCS
  5
7
330
0
100
AcDbSymbolTable
 70
     0
  0
ENDTAB
  0
TABLE
  2
APPID
  5
9
330
0
100
AcDbSymbolTable
 70
     1
  0
APPID
  5
12
330
9
100
AcDbSymbolTableRecord
100
AcDbRegAppTableRecord
  2
ACAD
 70
     0
  0
ENDTAB
  0
TABLE
  2
DIMSTYLE
  5
A
330
0
100
AcDbSymbolTable
 70
     4
100
AcDbDimStyleTable
  0
DIMSTYLE
105
27
330
A
100
AcDbSymbolTableRecord
100
AcDbDimStyleTableRecord
  2
Standard
 70
     0
178
     0
340
11
  0
DIMSTYLE
105
BD
102
{ACAD_REACTORS
330
BE
102
}
330
A
100
AcDbSymbolTableRecord
100
AcDbDimStyleTableRecord
  2
ME10_DIM_10
 70
     0
 41
3.5
 42
0.0
 44
1.5
 73
     0
 74
     0
 77
     1
 78
     8
140
3.5
147
1.5
172
     1
173
     1
174
     1
175
     1
176
     2
177
     2
178
     3
340
B9
  0
DIMSTYLE
105
CA
102
{ACAD_REACTORS
330
CB
102
}
330
A
100
AcDbSymbolTableRecord
100
AcDbDimStyleTableRecord
  2
ME10_DIM_11
 70
     0
 41
3.5
 42
0.0
 44
1.5
 73
     0
 74
     0
 77
     1
 78
     8
140
3.5
147
1.5
172
     1
173
     1
174
     1
175
     1
176
     2
177
     2
178
     3
340
B9
  0
DIMSTYLE
105
199
102
{ACAD_REACTORS
330
19A
102
}
330
A
100
AcDbSymbolTableRecord
100
AcDbDimStyleTableRecord
  2
ME10_DIM_12
 70
     0
 41
3.5
 42
0.0
 44
1.5
 73
     0
 74
     0
 77
     1
 78
     8
140
3.5
147
1.5
172
     1
173
     1
174
     1
175
     1
176
     2
177
     2
178
     3
340
B9
  0
ENDTAB
  0
TABLE
  2
BLOCK_RECORD
  5
1
330
0
100
AcDbSymbolTable
 70
    20
  0
BLOCK_RECORD
  5
1F
330
1
100
AcDbSymbolTableRecord
100
AcDbBlockTableRecord
  2
*Model_Space
340
22
  0
BLOCK_RECORD
  5
1B
330
1
100
AcDbSymbolTableRecord
100
AcDbBlockTableRecord
  2
*Paper_Space
340
1E
  0
BLOCK_RECORD
  5
23
330
1
100
AcDbSymbolTableRecord
100
AcDbBlockTableRecord
  2
*Paper_Space0
340
26
  0
BLOCK_RECORD
  5
47
330
1
100
AcDbSymbolTableRecord
100
AcDbBlockTableRecord
  2
EB_2_20-select__1
340
0
102
{BLKREFS
331
4B
102
}
  0
BLOCK_RECORD
  5
4A
330
1
100
AcDbSymbolTableRecord
100
AcDbBlockTableRecord
  2
Back1
340
0
102
{BLKREFS
331
7D
102
}
  0
BLOCK_RECORD
  5
4E
330
1
100
AcDbSymbolTableRecord
100
AcDbBlockTableRecord
  2
EB_2_20-select__2
340
0
102
{BLKREFS
331
52
102
}
  0
BLOCK_RECORD
  5
51
330
1
100
AcDbSymbolTableRecord
100
AcDbBlockTableRecord
  2
Front1
340
0
102
{BLKREFS
331
7E
102
}
  0
BLOCK_RECORD
  5
55
330
1
100
AcDbSymbolTableRecord
100
AcDbBlockTableRecord
  2
EB_2_20-select__3
340
0
102
{BLKREFS
331
59
102
}
  0
BLOCK_RECORD
  5
58
330
1
100
AcDbSymbolTableRecord
100
AcDbBlockTableRecord
  2
Gen1
340
0
102
{BLKREFS
331
7F
102
}
  0
BLOCK_RECORD
  5
5C
330
1
100
AcDbSymbolTableRecord
100
AcDbBlockTableRecord
  2
EB_2_20-select__4
340
0
102
{BLKREFS
331
60
102
}
  0
BLOCK_RECORD
  5
5F
330
1
100
AcDbSymbolTableRecord
100
AcDbBlockTableRecord
  2
Left1
340
0
102
{BLKREFS
331
80
102
}
  0
BLOCK_RECORD
  5
63
330
1
100
AcDbSymbolTableRecord
100
AcDbBlockTableRecord
  2
EB_2_20-select__5
340
0
102
{BLKREFS
331
67
102
}
  0
BLOCK_RECORD
  5
66
330
1
100
AcDbSymbolTableRecord
100
AcDbBlockTableRecord
  2
Right1
340
0
102
{BLKREFS
331
81
102
}
  0
BLOCK_RECORD
  5
6A
330
1
100
AcDbSymbolTableRecord
100
AcDbBlockTableRecord
  2
EB_2_20-select__6
340
0
102
{BLKREFS
331
6E
102
}
  0
BLOCK_RECORD
  5
6D
330
1
100
AcDbSymbolTableRecord
100
AcDbBlockTableRecord
  2
Top1
340
0
102
{BLKREFS
331
82
102
}
  0
BLOCK_RECORD
  5
71
330
1
100
AcDbSymbolTableRecord
100
AcDbBlockTableRecord
  2
_rahmen
340
0
102
{BLKREFS
331
78
102
}
  0
BLOCK_RECORD
  5
74
330
1
100
AcDbSymbolTableRecord
100
AcDbBlockTableRecord
  2
_punkt
340
0
102
{BLKREFS
331
79
102
}
  0
BLOCK_RECORD
  5
77
330
1
100
AcDbSymbolTableRecord
100
AcDbBlockTableRecord
  2
A4I_CS
340
0
102
{BLKREFS
331
83
102
}
  0
BLOCK_RECORD
  5
7C
330
1
100
AcDbSymbolTableRecord
100
AcDbBlockTableRecord
  2
1
340
0
102
{BLKREFS
331
86
102
}
  0
BLOCK_RECORD
  5
B3
330
1
100
AcDbSymbolTableRecord
100
AcDbBlockTableRecord
  2
*D17
340
0
  0
BLOCK_RECORD
  5
BF
330
1
100
AcDbSymbolTableRecord
100
AcDbBlockTableRecord
  2
*D18
340
0
  0
BLOCK_RECORD
  5
190
330
1
100
AcDbSymbolTableRecord
100
AcDbBlockTableRecord
  2
*D19
340
0
  0
ENDTAB
  0
ENDSEC
  0
SECTION
  2
BLOCKS
  0
BLOCK
  5
20
330
1F
100
AcDbEntity
  8
0
100
AcDbBlockBegin
  2
*Model_Space
 70
     0
 10
0.0
 20
0.0
 30
0.0
  3
*Model_Space
  1

  0
ENDBLK
  5
21
330
1F
100
AcDbEntity
  8
0
100
AcDbBlockEnd
  0
BLOCK
  5
1C
330
1B
100
AcDbEntity
 67
     1
  8
0
100
AcDbBlockBegin
  2
*Paper_Space
 70
     0
 10
0.0
 20
0.0
 30
0.0
  3
*Paper_Space
  1

  0
ENDBLK
  5
1D
330
1B
100
AcDbEntity
 67
     1
  8
0
100
AcDbBlockEnd
  0
BLOCK
  5
24
330
23
100
AcDbEntity
  8
0
100
AcDbBlockBegin
  2
*Paper_Space0
 70
     0
 10
0.0
 20
0.0
 30
0.0
  3
*Paper_Space0
  1

  0
ENDBLK
  5
25
330
23
100
AcDbEntity
  8
0
100
AcDbBlockEnd
  0
BLOCK
  5
48
330
47
100
AcDbEntity
  8
0
100
AcDbBlockBegin
  2
EB_2_20-select__1
 70
     0
 10
-206.5000004957851
 20
-123.4999995794718
 30
0.0
  3
EB_2_20-select__1
  1

  0
LINE
  5
87
330
47
100
AcDbEntity
  8
0
  6
Continuous
 62
     7
100
AcDbLine
 10
-206.5000004957851
 20
-123.4999995794718
 30
0.0
 11
-204.5000004957851
 21
-123.4999995794718
 31
0.0
  0
LINE
  5
88
330
47
100
AcDbEntity
  8
0
  6
Continuous
 62
     7
100
AcDbLine
 10
-192.0000004957851
 20
-123.4999995794718
 30
0.0
 11
-204.5000004957851
 21
-123.4999995794718
 31
0.0
  0
LINE
  5
89
330
47
100
AcDbEntity
  8
0
  6
Continuous
 62
     7
100
AcDbLine
 10
-206.5000004957851
 20
-121.9999995794718
 30
0.0
 11
-204.5000004957851
 21
-121.9999995794718
 31
0.0
  0
LINE
  5
8A
330
47
100
AcDbEntity
  8
0
  6
Continuous
 62
     7
100
AcDbLine
 10
-204.5000004957851
 20
-121.9999995794718
 30
0.0
 11
-192.0000004957851
 21
-121.9999995794718
 31
0.0
  0
LINE
  5
8B
330
47
100
AcDbEntity
  8
0
  6
Continuous
 62
     7
100
AcDbLine
 10
-188.1213208393447
 20
-116.4999995794718
 30
0.0
 11
-189.500000495785
 21
-117.8786792359122
 31
0.0
  0
LINE
  5
8C
330
47
100
AcDbEntity
  8
0
  6
Continuous
 62
     7
100
AcDbLine
 10
-172.500000495785
 20
-116.4999995794718
 30
0.0
 11
-188.1213208393447
 21
-116.4999995794718
 31
0.0
  0
LINE
  5
8D
330
47
100
AcDbEntity
  8
0
  6
Continuous
 62
     7
100
AcDbLine
 10
-186.2573598086657
 20
-120.9999995794718
 30
0.0
 11
-172.500000495785
 21
-120.9999995794718
 31
0.0
  0
LINE
  5
8E
330
47
100
AcDbEntity
  8
0
  6
Continuous
 62
     7
100
AcDbLine
 10
-172.500000495785
 20
-120.9999995794718
 30
0.0
 11
-172.500000495785
 21
-116.4999995794718
 31
0.0
  0
LINE
  5
8F
330
47
100
AcDbEntity
  8
0
  6
Continuous
 62
     7
100
AcDbLine
 10
-190.250000495785
 20
-122.8713199230314
 30
0.0
 11
-190.8786801522254
 21
-123.4999995794718
 31
0.0
  0
LINE
  5
90
330
47
100
AcDbEntity
  8
0
  6
Continuous
 62
     7
100
AcDbLine
 10
-192.0000004957851
 20
-121.9999995794718
 30
0.0
 11
-191.5000004957851
 21
-121.9999995794718
 31
0.0
  0
LINE
  5
91
330
47
100
AcDbEntity
  8
0
  6
Continuous
 62
     7
100
AcDbLine
 10
-192.0000004957851
 20
-121.9999995794718
 30
0.0
 11
-192.0000004957851
 21
-123.4999995794718
 31
0.0
  0
LINE
  5
92
330
47
100
AcDbEntity
  8
0
  6
Continuous
 62
     7
100
AcDbLine
 10
-190.8786801522254
 20
-123.4999995794718
 30
0.0
 11
-192.0000004957851
 21
-123.4999995794718
 31
0.0
  0
LINE
  5
93
330
47
100
AcDbEntity
  8
0
  6
Continuous
 62
     7
100
AcDbLine
 10
-188.4393403240052
 20
-123.1819800948113
 30
0.0
 11
-189.500000495785
 21
-122.1213199230315
 31
0.0
  0
LINE
  5
94
330
47
100
AcDbEntity
  8
0
  6
Continuous
 62
     7
100
AcDbLine
 10
-189.500000495785
 20
-122.1213199230315
 30
0.0
 11
-190.250000495785
 21
-122.8713199230314
 31
0.0
  0
LINE
  5
95
330
47
100
AcDbEntity
  8
0
  6
Continuous
 62
     7
100
AcDbLine
 10
-190.250000495785
 20
-120.7499995794718
 30
0.0
 11
-191.5000004957851
 21
-121.9999995794718
 31
0.0
  0
LINE
  5
96
330
47
100
AcDbEntity
  8
0
  6
Continuous
 62
     2
100
AcDbLine
 10
-204.5000004957851
 20
-121.9999995794718
 30
0.0
 11
-204.5000004957851
 21
-123.4999995794718
 31
0.0
  0
LINE
  5
97
330
47
100
AcDbEntity
  8
0
  6
Continuous
 62
     7
100
AcDbLine
 10
-189.500000495785
 20
-119.9999995794718
 30
0.0
 11
-189.500000495785
 21
-122.1213199230315
 31
0.0
  0
LINE
  5
98
330
47
100
AcDbEntity
  8
0
  6
Continuous
 62
     7
100
AcDbLine
 10
-189.500000495785
 20
-117.8786792359122
 30
0.0
 11
-189.500000495785
 21
-119.9999995794718
 31
0.0
  0
LINE
  5
99
330
47
100
AcDbEntity
  8
0
  6
Continuous
 62
     7
100
AcDbLine
 10
-190.250000495785
 20
-120.7499995794718
 30
0.0
 11
-190.250000495785
 21
-122.8713199230314
 31
0.0
  0
LINE
  5
9A
330
47
100
AcDbEntity
  8
0
  6
Continuous
 62
     7
100
AcDbLine
 10
-190.250000495785
 20
-120.7499995794718
 30
0.0
 11
-189.500000495785
 21
-119.9999995794718
 31
0.0
  0
LINE
  5
9B
330
47
100
AcDbEntity
  8
0
  6
Continuous
 62
     7
100
AcDbLine
 10
-206.5000004957851
 20
-123.4999995794718
 30
0.0
 11
-206.5000004957851
 21
-121.9999995794718
 31
0.0
  0
LINE
  5
9C
330
47
100
AcDbEntity
  8
0
  6
Continuous
 62
     7
100
AcDbLine
 10
-186.2573598086657
 20
-120.9999995794718
 30
0.0
 11
-188.4393403240052
 21
-123.1819800948113
 31
0.0
  0
ENDBLK
  5
49
330
47
100
AcDbEntity
  8
0
100
AcDbBlockEnd
  0
BLOCK
  5
4C
330
4A
100
AcDbEntity
  8
0
100
AcDbBlockBegin
  2
Back1
 70
     0
 10
-189.5000004768523
 20
-120.00000000008
 30
0.0
  3
Back1
  1

  0
INSERT
  5
4B
330
4A
100
AcDbEntity
  8
0
100
AcDbBlockReference
  2
EB_2_20-select__1
 10
-206.5000004957851
 20
-123.4999995794718
 30
0.0
  0
ENDBLK
  5
4D
330
4A
100
AcDbEntity
  8
0
100
AcDbBlockEnd
  0
BLOCK
  5
4F
330
4E
100
AcDbEntity
  8
0
100
AcDbBlockBegin
  2
EB_2_20-select__2
 70
     0
 10
-311.4999995042099
 20
-123.4999995794718
 30
0.0
  3
EB_2_20-select__2
  1

  0
LINE
  5
9D
330
4E
100
AcDbEntity
  8
0
  6
Continuous
 62
     7
100
AcDbLine
 10
-279.4999995042099
 20
-121.9999995794718
 30
0.0
 11
-277.4999995042099
 21
-121.9999995794718
 31
0.0
  0
LINE
  5
9E
330
4E
100
AcDbEntity
  8
0
  6
Continuous
 62
     7
100
AcDbLine
 10
-291.9999995042099
 20
-121.9999995794718
 30
0.0
 11
-279.4999995042099
 21
-121.9999995794718
 31
0.0
  0
LINE
  5
9F
330
4E
100
AcDbEntity
  8
0
  6
Continuous
 62
     2
100
AcDbLine
 10
-279.4999995042099
 20
-123.4999995794718
 30
0.0
 11
-279.4999995042099
 21
-121.9999995794718
 31
0.0
  0
LINE
  5
A0
330
4E
100
AcDbEntity
  8
0
  6
Continuous
 62
     7
100
AcDbLine
 10
-291.9999995042099
 20
-123.4999995794718
 30
0.0
 11
-291.9999995042099
 21
-121.9999995794718
 31
0.0
  0
LINE
  5
A1
330
4E
100
AcDbEntity
  8
0
  6
Continuous
 62
     7
100
AcDbLine
 10
-292.4999995042099
 20
-121.9999995794718
 30
0.0
 11
-291.9999995042099
 21
-121.9999995794718
 31
0.0
  0
LINE
  5
A2
330
4E
100
AcDbEntity
  8
0
  6
Continuous
 62
     7
100
AcDbLine
 10
-294.4999995042099
 20
-122.1213199230314
 30
0.0
 11
-295.5606596759897
 21
-123.1819800948112
 31
0.0
  0
LINE
  5
A3
330
4E
100
AcDbEntity
  8
0
  6
Continuous
 62
     7
100
AcDbLine
 10
-293.1213198477695
 20
-123.4999995794718
 30
0.0
 11
-293.7499995042099
 21
-122.8713199230314
 31
0.0
  0
LINE
  5
A4
330
4E
100
AcDbEntity
  8
0
  6
Continuous
 62
     7
100
AcDbLine
 10
-293.7499995042099
 20
-120.7499995794718
 30
0.0
 11
-292.4999995042099
 21
-121.9999995794718
 31
0.0
  0
LINE
  5
A5
330
4E
100
AcDbEntity
  8
0
  6
Continuous
 62
     7
100
AcDbLine
 10
-277.4999995042099
 20
-123.4999995794718
 30
0.0
 11
-277.4999995042099
 21
-121.9999995794718
 31
0.0
  0
LINE
  5
A6
330
4E
100
AcDbEntity
  8
0
  6
Continuous
 62
     7
100
AcDbLine
 10
-291.9999995042099
 20
-123.4999995794718
 30
0.0
 11
-293.1213198477695
 21
-123.4999995794718
 31
0.0
  0
LINE
  5
A7
330
4E
100
AcDbEntity
  8
0
  6
Continuous
 62
     7
100
AcDbLine
 10
-279.4999995042099
 20
-123.4999995794718
 30
0.0
 11
-277.4999995042099
 21
-123.4999995794718
 31
0.0
  0
LINE
  5
A8
330
4E
100
AcDbEntity
  8
0
  6
Continuous
 62
     7
100
AcDbLine
 10
-279.4999995042099
 20
-123.4999995794718
 30
0.0
 11
-291.9999995042099
 21
-123.4999995794718
 31
0.0
  0
LINE
  5
A9
330
4E
100
AcDbEntity
  8
0
  6
Continuous
 62
     7
100
AcDbLine
 10
-295.8786791606503
 20
-116.4999995794718
 30
0.0
 11
-294.4999995042099
 21
-117.8786792359121
 31
0.0
  0
LINE
  5
AA
330
4E
100
AcDbEntity
  8
0
  6
Continuous
 62
     7
100
AcDbLine
 10
-297.7426401913292
 20
-120.9999995794718
 30
0.0
 11
-311.4999995042099
 21
-120.9999995794718
 31
0.0
  0
LINE
  5
AB
330
4E
100
AcDbEntity
  8
0
  6
Continuous
 62
     7
100
AcDbLine
 10
-311.4999995042099
 20
-120.9999995794718
 30
0.0
 11
-311.4999995042099
 21
-116.4999995794718
 31
0.0
  0
LINE
  5
AC
330
4E
100
AcDbEntity
  8
0
  6
Continuous
 62
     7
100
AcDbLine
 10
-311.4999995042099
 20
-116.4999995794718
 30
0.0
 11
-295.8786791606503
 21
-116.4999995794718
 31
0.0
  0
LINE
  5
AD
330
4E
100
AcDbEntity
  8
0
  6
Continuous
 62
     7
100
AcDbLine
 10
-293.7499995042099
 20
-122.8713199230314
 30
0.0
 11
-294.4999995042099
 21
-122.1213199230314
 31
0.0
  0
LINE
  5
AE
330
4E
100
AcDbEntity
  8
0
  6
Continuous
 62
     7
100
AcDbLine
 10
-294.4999995042099
 20
-119.9999995794718
 30
0.0
 11
-294.4999995042099
 21
-122.1213199230314
 31
0.0
  0
LINE
  5
AF
330
4E
100
AcDbEntity
  8
0
  6
Continuous
 62
     7
100
AcDbLine
 10
-294.4999995042099
 20
-117.8786792359121
 30
0.0
 11
-294.4999995042099
 21
-119.9999995794718
 31
0.0
  0
LINE
  5
B0
330
4E
100
AcDbEntity
  8
0
  6
Continuous
 62
     7
100
AcDbLine
 10
-293.7499995042099
 20
-122.8713199230314
 30
0.0
 11
-293.7499995042099
 21
-120.7499995794718
 31
0.0
  0
LINE
  5
B1
330
4E
100
AcDbEntity
  8
0
  6
Continuous
 62
     7
100
AcDbLine
 10
-294.4999995042099
 20
-119.9999995794718
 30
0.0
 11
-293.7499995042099
 21
-120.7499995794718
 31
0.0
  0
LINE
  5
B2
330
4E
100
AcDbEntity
  8
0
  6
Continuous
 62
     7
100
AcDbLine
 10
-295.5606596759897
 20
-123.1819800948112
 30
0.0
 11
-297.7426401913292
 21
-120.9999995794718
 31
0.0
  0
ENDBLK
  5
50
330
4E
100
AcDbEntity
  8
0
100
AcDbBlockEnd
  0
BLOCK
  5
53
330
51
100
AcDbEntity
  8
0
100
AcDbBlockBegin
  2
Front1
 70
     0
 10
-294.4999995231427
 20
-120.00000000008
 30
0.0
  3
Front1
  1

  0
INSERT
  5
52
330
51
100
AcDbEntity
  8
0
100
AcDbBlockReference
  2
EB_2_20-select__2
 10
-311.4999995042099
 20
-123.4999995794718
 30
0.0
  0
DIMENSION
  5
BE
330
51
100
AcDbEntity
  8
1
100
AcDbDimension
  2
*D17
 10
-311.4999995042098
 20
-133.4999995794718
 30
0.0
 11
-295.1126603425383
 21
-130.2499995794718
 31
0.0
 70
    32
  1
<>
 71
     5
 42
-1.0
 53
0.00013888888889
  3
ME10_DIM_10
100
AcDbAlignedDimension
 13
-279.4999995042099
 23
-123.4999995794718
 33
0.0
 14
-311.4999995042099
 24
-120.9999995794718
 34
0.0
100
AcDbRotatedDimension
  0
DIMENSION
  5
CB
330
51
100
AcDbEntity
  8
1
100
AcDbDimension
  2
*D18
 10
-321.4999995042099
 20
-123.4999995794718
 30
0.0
 11
-324.7499995042099
 21
-119.555880362711
 31
0.0
 70
    32
  1
<>
 71
     5
 42
-1.0
 53
90.0
  3
ME10_DIM_11
100
AcDbAlignedDimension
 13
-311.4999995042099
 23
-116.4999995794718
 33
0.0
 14
-293.1213198477695
 24
-123.4999995794718
 34
0.0
 50
90.0
100
AcDbRotatedDimension
  0
ENDBLK
  5
54
330
51
100
AcDbEntity
  8
0
100
AcDbBlockEnd
  0
BLOCK
  5
56
330
55
100
AcDbEntity
  8
0
100
AcDbBlockBegin
  2
EB_2_20-select__3
 70
     0
 10
-211.9724318479167
 20
-186.3277219236586
 30
0.0
  3
EB_2_20-select__3
  1

  0
LINE
  5
CC
330
55
100
AcDbEntity
  8
0
  6
Continuous
 62
     7
100
AcDbLine
 10
-193.5849364741201
 20
-183.068747327443
 30
0.0
 11
-193.5849364741201
 21
-181.7697092217663
 31
0.0
  0
LINE
  5
CD
330
55
100
AcDbEntity
  8
0
  6
Continuous
 62
     7
100
AcDbLine
 10
-194.2679491760123
 20
-181.8612155727125
 30
0.0
 11
-193.5849364741201
 21
-181.7697092217663
 31
0.0
  0
LINE
  5
CE
330
55
100
AcDbEntity
  8
0
  6
Continuous
 62
     7
100
AcDbLine
 10
-193.5849364741201
 20
-181.7697092217663
 30
0.0
 11
-182.7596189268146
 21
-184.8947092217663
 31
0.0
  0
LINE
  5
CF
330
55
100
AcDbEntity
  8
0
  6
Continuous
 62
     7
100
AcDbLine
 10
-182.7596189268146
 20
-186.193747327443
 30
0.0
 11
-193.5849364741201
 21
-183.068747327443
 31
0.0
  0
LINE
  5
D0
330
55
100
AcDbEntity
  8
0
  6
Continuous
 62
     7
100
AcDbLine
 10
-172.2596189268147
 20
-177.1004805877064
 30
0.0
 11
-183.0849364741201
 21
-173.9754805877064
 31
0.0
  0
LINE
  5
D1
330
55
100
AcDbEntity
  8
0
  6
Continuous
 62
     7
100
AcDbLine
 10
-211.9724318479167
 20
-177.3277219236586
 30
0.0
 11
-211.9724318479167
 21
-173.4306076066286
 31
0.0
  0
LINE
  5
D2
330
55
100
AcDbEntity
  8
0
  6
Continuous
 62
     7
100
AcDbLine
 10
-211.9724318479167
 20
-173.4306076066286
 30
0.0
 11
-198.4439715897393
 21
-177.3359376925185
 31
0.0
  0
LINE
  5
D3
330
55
100
AcDbEntity
  8
0
  6
Continuous
 62
     7
100
AcDbLine
 10
-183.0849364741201
 20
-172.6764424820298
 30
0.0
 11
-172.2596189268147
 21
-175.8014424820298
 31
0.0
  0
LINE
  5
D4
330
55
100
AcDbEntity
  8
0
  6
Continuous
 62
     7
100
AcDbLine
 10
-193.5849364741201
 20
-183.068747327443
 30
0.0
 11
-195.1166885492029
 21
-183.2739631932046
 31
0.0
  0
LINE
  5
D5
330
55
100
AcDbEntity
  8
0
  6
Continuous
 62
     7
100
AcDbLine
 10
-197.2499999835812
 20
-182.5488138269615
 30
0.0
 11
-198.1685586371249
 21
-183.2022074375603
 31
0.0
  0
LINE
  5
D6
330
55
100
AcDbEntity
  8
0
  6
Continuous
 62
     7
100
AcDbLine
 10
-196.6249999835812
 20
-182.0075479495962
 30
0.0
 11
-197.2499999835812
 21
-182.5488138269615
 31
0.0
  0
LINE
  5
D7
330
55
100
AcDbEntity
  8
0
  6
Continuous
 62
     7
100
AcDbLine
 10
-195.9754809307429
 20
-182.8445670024346
 30
0.0
 11
-195.9754809307429
 21
-181.0074496953472
 31
0.0
  0
LINE
  5
D8
330
55
100
AcDbEntity
  8
0
  6
Continuous
 62
     7
100
AcDbLine
 10
-195.9754809307429
 20
-182.8445670024346
 30
0.0
 11
-196.6249999835812
 21
-182.0075479495962
 31
0.0
  0
LINE
  5
D9
330
55
100
AcDbEntity
  8
0
  6
Continuous
 62
     7
100
AcDbLine
 10
-195.1166885492029
 20
-183.2739631932046
 30
0.0
 11
-195.9754809307429
 21
-182.8445670024346
 31
0.0
  0
LINE
  5
DA
330
55
100
AcDbEntity
  8
0
  6
Continuous
 62
     7
100
AcDbLine
 10
-181.0849364741201
 20
-170.9443916744609
 30
0.0
 11
-181.2679491760123
 21
-170.6028853235148
 31
0.0
  0
LINE
  5
DB
330
55
100
AcDbEntity
  8
0
  6
Continuous
 62
     7
100
AcDbLine
 10
-181.7254809307429
 20
-168.6665876914189
 30
0.0
 11
-182.3749999835812
 21
-167.8295686385806
 31
0.0
  0
LINE
  5
DC
330
55
100
AcDbEntity
  8
0
  6
Continuous
 62
     7
100
AcDbLine
 10
-181.7254809307429
 20
-168.6665876914189
 30
0.0
 11
-181.2679491760123
 21
-170.6028853235148
 31
0.0
  0
LINE
  5
DD
330
55
100
AcDbEntity
  8
0
  6
Continuous
 62
     7
100
AcDbLine
 10
-183.7679491760123
 20
-172.7679488329759
 30
0.0
 11
-181.2679491760123
 21
-170.6028853235148
 31
0.0
  0
LINE
  5
DE
330
55
100
AcDbEntity
  8
0
  6
Continuous
 62
     7
100
AcDbLine
 10
-181.7499999835812
 20
-165.4511854541279
 30
0.0
 11
-181.7499999835812
 21
-168.6349905977024
 31
0.0
  0
LINE
  5
DF
330
55
100
AcDbEntity
  8
0
  6
Continuous
 62
     7
100
AcDbLine
 10
-182.3749999835812
 20
-167.8295686385806
 30
0.0
 11
-186.1249999835812
 21
-171.0771639027722
 31
0.0
  0
LINE
  5
E0
330
55
100
AcDbEntity
  8
0
  6
Continuous
 62
     7
100
AcDbLine
 10
-182.9439715897393
 20
-163.9125439338597
 30
0.0
 11
-181.7499999835812
 21
-165.4511854541279
 31
0.0
  0
LINE
  5
E1
330
55
100
AcDbEntity
  8
0
  6
Continuous
 62
     7
100
AcDbLine
 10
-188.0689715897393
 20
-168.350924128255
 30
0.0
 11
-182.9439715897393
 21
-163.9125439338597
 31
0.0
  0
LINE
  5
E2
330
55
100
AcDbEntity
  8
0
  6
Continuous
 62
     7
100
AcDbLine
 10
-179.7596189268147
 20
-185.3277219236586
 30
0.0
 11
-179.7596189268147
 21
-184.0286838179819
 31
0.0
  0
LINE
  5
E3
330
55
100
AcDbEntity
  8
0
  6
Continuous
 62
     7
100
AcDbLine
 10
-181.7499999835812
 20
-165.4511854541279
 30
0.0
 11
-186.8749999835812
 21
-169.8895656485232
 31
0.0
  0
LINE
  5
E4
330
55
100
AcDbEntity
  8
0
  6
Continuous
 62
     2
100
AcDbLine
 10
-172.2596189268147
 20
-177.1004805877064
 30
0.0
 11
-172.2596189268147
 21
-175.8014424820298
 31
0.0
  0
LINE
  5
E5
330
55
100
AcDbEntity
  8
0
  6
Continuous
 62
     7
100
AcDbLine
 10
-169.2596189268147
 20
-176.234455183922
 30
0.0
 11
-169.2596189268147
 21
-174.9354170782453
 31
0.0
  0
LINE
  5
E6
330
55
100
AcDbEntity
  8
0
  6
Continuous
 62
     2
100
AcDbLine
 10
-182.7596189268146
 20
-186.193747327443
 30
0.0
 11
-182.7596189268146
 21
-184.8947092217663
 31
0.0
  0
LINE
  5
E7
330
55
100
AcDbEntity
  8
0
  6
Continuous
 62
     7
100
AcDbLine
 10
-170.2596189268147
 20
-174.0693916744609
 30
0.0
 11
-181.0849364741201
 21
-170.9443916744609
 31
0.0
  0
LINE
  5
E8
330
55
100
AcDbEntity
  8
0
  6
Continuous
 62
     7
100
AcDbLine
 10
-198.1685586371249
 20
-183.2022074375603
 30
0.0
 11
-200.0582091939715
 21
-180.7670617518787
 31
0.0
  0
LINE
  5
E9
330
55
100
AcDbEntity
  8
0
  6
Continuous
 62
     7
100
AcDbLine
 10
-200.0582091939715
 20
-180.7670617518787
 30
0.0
 11
-211.9724318479167
 21
-177.3277219236586
 31
0.0
  0
LINE
  5
EA
330
55
100
AcDbEntity
  8
0
  6
Continuous
 62
     7
100
AcDbLine
 10
-183.0849364741201
 20
-173.9754805877064
 30
0.0
 11
-184.6166885492028
 21
-174.180696453468
 31
0.0
  0
LINE
  5
EB
330
55
100
AcDbEntity
  8
0
  6
Continuous
 62
     7
100
AcDbLine
 10
-185.4754809307428
 20
-173.751300262698
 30
0.0
 11
-185.4754809307428
 21
-171.9141829556106
 31
0.0
  0
LINE
  5
EC
330
55
100
AcDbEntity
  8
0
  6
Continuous
 62
     7
100
AcDbLine
 10
-185.4754809307428
 20
-173.751300262698
 30
0.0
 11
-186.1249999835812
 21
-172.9142812098596
 31
0.0
  0
LINE
  5
ED
330
55
100
AcDbEntity
  8
0
  6
Continuous
 62
     7
100
AcDbLine
 10
-183.0849364741201
 20
-173.9754805877064
 30
0.0
 11
-183.0849364741201
 21
-172.6764424820298
 31
0.0
  0
LINE
  5
EE
330
55
100
AcDbEntity
  8
0
  6
Continuous
 62
     7
100
AcDbLine
 10
-184.6166885492028
 20
-174.180696453468
 30
0.0
 11
-185.4754809307428
 21
-173.751300262698
 31
0.0
  0
LINE
  5
EF
330
55
100
AcDbEntity
  8
0
  6
Continuous
 62
     7
100
AcDbLine
 10
-191.2051270025034
 20
-171.342708359395
 30
0.0
 11
-193.1909751612065
 21
-173.0625033128905
 31
0.0
  0
LINE
  5
F0
330
55
100
AcDbEntity
  8
0
  6
Continuous
 62
     7
100
AcDbLine
 10
-192.1249999835812
 20
-174.4361990183915
 30
0.0
 11
-193.3189715897393
 21
-172.8975574981233
 31
0.0
  0
LINE
  5
F1
330
55
100
AcDbEntity
  8
0
  6
Continuous
 62
     7
100
AcDbLine
 10
-198.4439715897393
 20
-177.3359376925185
 30
0.0
 11
-193.3189715897393
 21
-172.8975574981233
 31
0.0
  0
LINE
  5
F2
330
55
100
AcDbEntity
  8
0
  6
Continuous
 62
     7
100
AcDbLine
 10
-191.2051270025034
 20
-167.445594042365
 30
0.0
 11
-188.0689715897393
 21
-168.350924128255
 31
0.0
  0
LINE
  5
F3
330
55
100
AcDbEntity
  8
0
  6
Continuous
 62
     7
100
AcDbLine
 10
-191.2051270025034
 20
-167.445594042365
 30
0.0
 11
-191.2051270025034
 21
-171.342708359395
 31
0.0
  0
LINE
  5
F4
330
55
100
AcDbEntity
  8
0
  6
Continuous
 62
     7
100
AcDbLine
 10
-186.8749999835812
 20
-173.563800262698
 30
0.0
 11
-186.8749999835812
 21
-169.8895656485232
 31
0.0
  0
LINE
  5
F5
330
55
100
AcDbEntity
  8
0
  6
Continuous
 62
     7
100
AcDbLine
 10
-188.0689715897393
 20
-168.350924128255
 30
0.0
 11
-186.8749999835812
 21
-169.8895656485232
 31
0.0
  0
LINE
  5
F6
330
55
100
AcDbEntity
  8
0
  6
Continuous
 62
     7
100
AcDbLine
 10
-186.1249999835812
 20
-171.0771639027722
 30
0.0
 11
-185.4754809307428
 21
-171.9141829556106
 31
0.0
  0
LINE
  5
F7
330
55
100
AcDbEntity
  8
0
  6
Continuous
 62
     7
100
AcDbLine
 10
-185.4754809307428
 20
-171.9141829556106
 30
0.0
 11
-183.7679491760123
 21
-172.7679488329759
 31
0.0
  0
LINE
  5
F8
330
55
100
AcDbEntity
  8
0
  6
Continuous
 62
     7
100
AcDbLine
 10
-183.7679491760123
 20
-172.7679488329759
 30
0.0
 11
-183.0849364741201
 21
-172.6764424820298
 31
0.0
  0
LINE
  5
F9
330
55
100
AcDbEntity
  8
0
  6
Continuous
 62
     7
100
AcDbLine
 10
-193.3189715897393
 20
-172.8975574981233
 30
0.0
 11
-196.4551270025034
 21
-171.9922274122334
 31
0.0
  0
LINE
  5
FA
330
55
100
AcDbEntity
  8
0
  6
Continuous
 62
     7
100
AcDbLine
 10
-196.4551270025034
 20
-171.9922274122334
 30
0.0
 11
-191.2051270025034
 21
-167.445594042365
 31
0.0
  0
LINE
  5
FB
330
55
100
AcDbEntity
  8
0
  6
Continuous
 62
     7
100
AcDbLine
 10
-186.8749999835812
 20
-173.563800262698
 30
0.0
 11
-187.7935586371249
 21
-174.2171938732967
 31
0.0
  0
LINE
  5
FC
330
55
100
AcDbEntity
  8
0
  6
Continuous
 62
     7
100
AcDbLine
 10
-186.1249999835812
 20
-171.0771639027722
 30
0.0
 11
-186.1249999835812
 21
-172.9142812098596
 31
0.0
  0
LINE
  5
FD
330
55
100
AcDbEntity
  8
0
  6
Continuous
 62
     7
100
AcDbLine
 10
-189.6832091939715
 20
-171.7820481876152
 30
0.0
 11
-191.2051270025034
 21
-171.342708359395
 31
0.0
  0
LINE
  5
FE
330
55
100
AcDbEntity
  8
0
  6
Continuous
 62
     7
100
AcDbLine
 10
-186.1249999835812
 20
-172.9142812098596
 30
0.0
 11
-186.8749999835812
 21
-173.563800262698
 31
0.0
  0
LINE
  5
FF
330
55
100
AcDbEntity
  8
0
  6
Continuous
 62
     7
100
AcDbLine
 10
-187.7935586371249
 20
-174.2171938732967
 30
0.0
 11
-189.6832091939715
 21
-171.7820481876152
 31
0.0
  0
LINE
  5
100
330
55
100
AcDbEntity
  8
0
  6
Continuous
 62
     7
100
AcDbLine
 10
-192.2254809307429
 20
-177.7598544311555
 30
0.0
 11
-192.8749999835812
 21
-176.9228353783172
 31
0.0
  0
LINE
  5
101
330
55
100
AcDbEntity
  8
0
  6
Continuous
 62
     7
100
AcDbLine
 10
-192.1249999835812
 20
-174.4361990183915
 30
0.0
 11
-192.1249999835812
 21
-178.1104336325663
 31
0.0
  0
LINE
  5
102
330
55
100
AcDbEntity
  8
0
  6
Continuous
 62
     7
100
AcDbLine
 10
-192.1249999835812
 20
-178.1104336325663
 30
0.0
 11
-192.1396449729997
 21
-178.1231165654409
 31
0.0
  0
LINE
  5
103
330
55
100
AcDbEntity
  8
0
  6
Continuous
 62
     7
100
AcDbLine
 10
-191.5849364741201
 20
-180.0376584141975
 30
0.0
 11
-191.7679491760123
 21
-179.6961520632514
 31
0.0
  0
LINE
  5
104
330
55
100
AcDbEntity
  8
0
  6
Continuous
 62
     7
100
AcDbLine
 10
-198.4439715897393
 20
-177.3359376925185
 30
0.0
 11
-197.2499999835812
 21
-178.8745792127867
 31
0.0
  0
LINE
  5
105
330
55
100
AcDbEntity
  8
0
  6
Continuous
 62
     7
100
AcDbLine
 10
-192.2254809307429
 20
-177.7598544311555
 30
0.0
 11
-191.7679491760123
 21
-179.6961520632514
 31
0.0
  0
LINE
  5
106
330
55
100
AcDbEntity
  8
0
  6
Continuous
 62
     7
100
AcDbLine
 10
-192.1249999835812
 20
-174.4361990183915
 30
0.0
 11
-197.2499999835812
 21
-178.8745792127867
 31
0.0
  0
LINE
  5
107
330
55
100
AcDbEntity
  8
0
  6
Continuous
 62
     7
100
AcDbLine
 10
-192.8749999835812
 20
-176.9228353783172
 30
0.0
 11
-196.6249999835812
 21
-180.1704306425089
 31
0.0
  0
LINE
  5
108
330
55
100
AcDbEntity
  8
0
  6
Continuous
 62
     7
100
AcDbLine
 10
-196.4724318479167
 20
-160.0072138479698
 30
0.0
 11
-182.9439715897393
 21
-163.9125439338597
 31
0.0
  0
LINE
  5
109
330
55
100
AcDbEntity
  8
0
  6
Continuous
 62
     7
100
AcDbLine
 10
-180.7596189268147
 20
-183.1626584141975
 30
0.0
 11
-191.5849364741201
 21
-180.0376584141975
 31
0.0
  0
LINE
  5
10A
330
55
100
AcDbEntity
  8
0
  6
Continuous
 62
     7
100
AcDbLine
 10
-195.9754809307429
 20
-181.0074496953472
 30
0.0
 11
-194.2679491760123
 21
-181.8612155727125
 31
0.0
  0
LINE
  5
10B
330
55
100
AcDbEntity
  8
0
  6
Continuous
 62
     7
100
AcDbLine
 10
-196.6249999835812
 20
-180.1704306425089
 30
0.0
 11
-195.9754809307429
 21
-181.0074496953472
 31
0.0
  0
LINE
  5
10C
330
55
100
AcDbEntity
  8
0
  6
Continuous
 62
     7
100
AcDbLine
 10
-196.6249999835812
 20
-180.1704306425089
 30
0.0
 11
-196.6249999835812
 21
-182.0075479495962
 31
0.0
  0
LINE
  5
10D
330
55
100
AcDbEntity
  8
0
  6
Continuous
 62
     7
100
AcDbLine
 10
-197.2499999835812
 20
-178.8745792127867
 30
0.0
 11
-197.2499999835812
 21
-182.5488138269615
 31
0.0
  0
LINE
  5
10E
330
55
100
AcDbEntity
  8
0
  6
Continuous
 62
     7
100
AcDbLine
 10
-194.2679491760123
 20
-181.8612155727125
 30
0.0
 11
-191.7679491760123
 21
-179.6961520632514
 31
0.0
  0
LINE
  5
10F
330
55
100
AcDbEntity
  8
0
  6
Continuous
 62
     7
100
AcDbLine
 10
-211.9724318479167
 20
-173.4306076066286
 30
0.0
 11
-196.4724318479167
 21
-160.0072138479698
 31
0.0
  0
SPLINE
  5
110
330
55
100
AcDbEntity
  8
0
  6
Continuous
 62
     7
100
AcDbSpline
210
0.0
220
0.0
230
1.0
 70
     8
 71
     3
 72
    15
 73
    11
 74
     9
 42
0.000000001
 43
0.0000000001
 44
0.00000001
 40
0.0
 40
0.0
 40
0.0
 40
0.0
 40
0.49259841390898
 40
1.011356658775566
 40
1.530114903365621
 40
2.02271330801791
 40
2.4663660459322
 40
2.845725895903075
 40
3.158916662454425
 40
3.426557327251138
 40
3.426557327251138
 40
3.426557327251138
 40
3.426557327251138
 10
-182.7596189268146
 20
-184.8947092217663
 30
0.0
 10
-182.5995954552038
 20
-184.9327148932292
 30
0.0
 10
-182.2710503370545
 20
-185.0107445517659
 30
0.0
 10
-181.7593688998583
 20
-185.0387696998221
 30
0.0
 10
-181.2491623530146
 20
-185.0072967827575
 30
0.0
 10
-180.7724280247779
 20
-184.9109344936387
 30
0.0
 10
-180.3577531988786
 20
-184.7578971594475
 30
0.0
 10
-180.0372415337142
 20
-184.556233369121
 30
0.0
 10
-179.8079313395978
 20
-184.3127786663796
 30
0.0
 10
-179.7748585122112
 20
-184.118298238822
 30
0.0
 10
-179.7596189268147
 20
-184.0286838179819
 30
0.0
 11
-182.7596189268146
 21
-184.8947092217663
 31
0.0
 11
-182.2772568790143
 21
-184.9946093867496
 31
0.0
 11
-181.7596189268146
 21
-185.0286838179819
 31
0.0
 11
-181.2419809746149
 21
-184.9946093867496
 31
0.0
 11
-180.7596189268147
 21
-184.8947092217664
 31
0.0
 11
-180.345405741479
 21
-184.7357904106498
 31
0.0
 11
-180.0275681192457
 21
-184.5286838179819
 31
0.0
 11
-179.8277677892793
 21
-184.2875027940818
 31
0.0
 11
-179.7596189268147
 21
-184.0286838179819
 31
0.0
  0
SPLINE
  5
111
330
55
100
AcDbEntity
  8
0
  6
Continuous
 62
     7
100
AcDbSpline
210
0.0
220
0.0
230
1.0
 70
     8
 71
     3
 72
    15
 73
    11
 74
     9
 42
0.000000001
 43
0.0000000001
 44
0.00000001
 40
0.0
 40
0.0
 40
0.0
 40
0.0
 40
0.4925984139090356
 40
1.011356658775737
 40
1.530114903365737
 40
2.022713308017988
 40
2.466366045932331
 40
2.845725895903205
 40
3.158916662454511
 40
3.42655732725117
 40
3.42655732725117
 40
3.42655732725117
 40
3.42655732725117
 10
-172.2596189268147
 20
-177.1004805877064
 30
0.0
 10
-172.0995954552039
 20
-177.1384862591693
 30
0.0
 10
-171.7710503370544
 20
-177.2165159177059
 30
0.0
 10
-171.2593688998583
 20
-177.2445410657622
 30
0.0
 10
-170.7491623530146
 20
-177.2130681486977
 30
0.0
 10
-170.2724280247779
 20
-177.1167058595786
 30
0.0
 10
-169.8577531988786
 20
-176.9636685253875
 30
0.0
 10
-169.5372415337143
 20
-176.762004735061
 30
0.0
 10
-169.3079313395978
 20
-176.5185500323196
 30
0.0
 10
-169.2748585122112
 20
-176.3240696047621
 30
0.0
 10
-169.2596189268147
 20
-176.234455183922
 30
0.0
 11
-172.2596189268147
 21
-177.1004805877064
 31
0.0
 11
-171.7772568790144
 21
-177.2003807526897
 31
0.0
 11
-171.2596189268145
 21
-177.234455183922
 31
0.0
 11
-170.7419809746149
 21
-177.2003807526897
 31
0.0
 11
-170.2596189268147
 21
-177.1004805877064
 31
0.0
 11
-169.845405741479
 21
-176.9415617765898
 31
0.0
 11
-169.5275681192457
 21
-176.7344551839219
 31
0.0
 11
-169.3277677892793
 21
-176.4932741600218
 31
0.0
 11
-169.2596189268147
 21
-176.234455183922
 31
0.0
  0
SPLINE
  5
112
330
55
100
AcDbEntity
  8
0
  6
Continuous
 62
     7
100
AcDbSpline
210
0.0
220
0.0
230
1.0
 70
     8
 71
     3
 72
    11
 73
     7
 74
     5
 42
0.000000001
 43
0.0000000001
 44
0.00000001
 40
0.0
 40
0.0
 40
0.0
 40
0.0
 40
0.2676406691781872
 40
0.5808314317956501
 40
0.9601912772600323
 40
1.403844020353798
 40
1.403844020353798
 40
1.403844020353798
 40
1.403844020353798
 10
-169.2596189268147
 20
-174.9354170782453
 30
0.0
 10
-169.2748512952798
 20
-174.8457736265155
 30
0.0
 10
-169.3079084619065
 20
-174.6512301982411
 30
0.0
 10
-169.5373613507743
 20
-174.4083494148762
 30
0.0
 10
-169.8571596565379
 20
-174.2038163196846
 30
0.0
 10
-170.1186565457173
 20
-174.1164742436328
 30
0.0
 10
-170.2596189268147
 20
-174.0693916744609
 30
0.0
 11
-169.2596189268147
 21
-174.9354170782453
 31
0.0
 11
-169.3277677892793
 21
-174.6765981021454
 31
0.0
 11
-169.5275681192457
 21
-174.4354170782453
 31
0.0
 11
-169.8454057414791
 21
-174.2283104855775
 31
0.0
 11
-170.2596189268147
 21
-174.0693916744609
 31
0.0
  0
SPLINE
  5
113
330
55
100
AcDbEntity
  8
0
  6
Continuous
 62
     7
100
AcDbSpline
210
0.0
220
0.0
230
1.0
 70
     8
 71
     3
 72
    15
 73
    11
 74
     9
 42
0.000000001
 43
0.0000000001
 44
0.00000001
 40
0.0
 40
0.0
 40
0.0
 40
0.0
 40
0.49259841390898
 40
1.011356658775567
 40
1.530114903365625
 40
2.022713308017925
 40
2.466366045932205
 40
2.84572589590308
 40
3.15891666245443
 40
3.426557327251088
 40
3.426557327251088
 40
3.426557327251088
 40
3.426557327251088
 10
-182.7596189268146
 20
-186.193747327443
 30
0.0
 10
-182.5995954552038
 20
-186.2317529989058
 30
0.0
 10
-182.2710503370545
 20
-186.3097826574426
 30
0.0
 10
-181.7593688998583
 20
-186.3378078054988
 30
0.0
 10
-181.2491623530146
 20
-186.3063348884343
 30
0.0
 10
-180.7724280247779
 20
-186.2099725993152
 30
0.0
 10
-180.3577531988786
 20
-186.0569352651242
 30
0.0
 10
-180.0372415337142
 20
-185.8552714747976
 30
0.0
 10
-179.8079313395979
 20
-185.6118167720563
 30
0.0
 10
-179.7748585122112
 20
-185.4173363444988
 30
0.0
 10
-179.7596189268147
 20
-185.3277219236586
 30
0.0
 11
-182.7596189268146
 21
-186.193747327443
 31
0.0
 11
-182.2772568790143
 21
-186.2936474924263
 31
0.0
 11
-181.7596189268146
 21
-186.3277219236586
 31
0.0
 11
-181.2419809746149
 21
-186.2936474924263
 31
0.0
 11
-180.7596189268147
 21
-186.193747327443
 31
0.0
 11
-180.345405741479
 21
-186.0348285163264
 31
0.0
 11
-180.0275681192457
 21
-185.8277219236586
 31
0.0
 11
-179.8277677892793
 21
-185.5865408997584
 31
0.0
 11
-179.7596189268147
 21
-185.3277219236586
 31
0.0
  0
SPLINE
  5
114
330
55
100
AcDbEntity
  8
0
  6
Continuous
 62
     7
100
AcDbSpline
210
0.0
220
0.0
230
1.0
 70
     8
 71
     3
 72
    15
 73
    11
 74
     9
 42
0.000000001
 43
0.0000000001
 44
0.00000001
 40
0.0
 40
0.0
 40
0.0
 40
0.0
 40
0.4925984139090183
 40
1.011356658775717
 40
1.530114903365716
 40
2.022713308017949
 40
2.466366045932302
 40
2.845725895903177
 40
3.158916662454483
 40
3.426557327251224
 40
3.426557327251224
 40
3.426557327251224
 40
3.426557327251224
 10
-172.2596189268147
 20
-175.8014424820298
 30
0.0
 10
-172.0995954552039
 20
-175.8394481534927
 30
0.0
 10
-171.7710503370545
 20
-175.9174778120292
 30
0.0
 10
-171.2593688998583
 20
-175.9455029600855
 30
0.0
 10
-170.7491623530146
 20
-175.914030043021
 30
0.0
 10
-170.272428024778
 20
-175.8176677539021
 30
0.0
 10
-169.8577531988786
 20
-175.6646304197108
 30
0.0
 10
-169.5372415337143
 20
-175.4629666293844
 30
0.0
 10
-169.3079313395978
 20
-175.219511926643
 30
0.0
 10
-169.2748585122112
 20
-175.0250314990855
 30
0.0
 10
-169.2596189268147
 20
-174.9354170782453
 30
0.0
 11
-172.2596189268147
 21
-175.8014424820298
 31
0.0
 11
-171.7772568790144
 21
-175.901342647013
 31
0.0
 11
-171.2596189268145
 21
-175.9354170782453
 31
0.0
 11
-170.7419809746149
 21
-175.901342647013
 31
0.0
 11
-170.2596189268147
 21
-175.8014424820298
 31
0.0
 11
-169.845405741479
 21
-175.6425236709132
 31
0.0
 11
-169.5275681192457
 21
-175.4354170782453
 31
0.0
 11
-169.3277677892793
 21
-175.1942360543452
 31
0.0
 11
-169.2596189268147
 21
-174.9354170782453
 31
0.0
  0
SPLINE
  5
115
330
55
100
AcDbEntity
  8
0
  6
Continuous
 62
     7
100
AcDbSpline
210
0.0
220
0.0
230
1.0
 70
     8
 71
     3
 72
    11
 73
     7
 74
     5
 42
0.000000001
 43
0.0000000001
 44
0.00000001
 40
0.0
 40
0.0
 40
0.0
 40
0.0
 40
0.2676406691781597
 40
0.5808314317956227
 40
0.9601912772599894
 40
1.403844020353765
 40
1.403844020353765
 40
1.403844020353765
 40
1.403844020353765
 10
-179.7596189268147
 20
-184.0286838179819
 30
0.0
 10
-179.7748512952798
 20
-183.939040366252
 30
0.0
 10
-179.8079084619065
 20
-183.7444969379777
 30
0.0
 10
-180.0373613507743
 20
-183.5016161546128
 30
0.0
 10
-180.357159656538
 20
-183.2970830594213
 30
0.0
 10
-180.6186565457172
 20
-183.2097409833694
 30
0.0
 10
-180.7596189268147
 20
-183.1626584141975
 30
0.0
 11
-179.7596189268147
 21
-184.0286838179819
 31
0.0
 11
-179.8277677892793
 21
-183.7698648418821
 31
0.0
 11
-180.0275681192457
 21
-183.5286838179819
 31
0.0
 11
-180.3454057414791
 21
-183.3215772253141
 31
0.0
 11
-180.7596189268147
 21
-183.1626584141975
 31
0.0
  0
ENDBLK
  5
57
330
55
100
AcDbEntity
  8
0
100
AcDbBlockEnd
  0
BLOCK
  5
5A
330
58
100
AcDbEntity
  8
0
100
AcDbBlockBegin
  2
Gen1
 70
     0
 10
-189.4999999999799
 20
-174.0000000000711
 30
0.0
  3
Gen1
  1

  0
INSERT
  5
59
330
58
100
AcDbEntity
  8
0
100
AcDbBlockReference
  2
EB_2_20-select__3
 10
-211.9724318479167
 20
-186.3277219236586
 30
0.0
  0
ENDBLK
  5
5B
330
58
100
AcDbEntity
  8
0
100
AcDbBlockEnd
  0
BLOCK
  5
5D
330
5C
100
AcDbEntity
  8
0
100
AcDbBlockBegin
  2
EB_2_20-select__4
 70
     0
 10
-257.50000000001
 20
-123.4999995794718
 30
0.0
  3
EB_2_20-select__4
  1

  0
LINE
  5
116
330
5C
100
AcDbEntity
  8
0
  6
Continuous
 62
     7
100
AcDbLine
 10
-236.75000000001
 20
-123.1819800948113
 30
0.0
 11
-226.50000000001
 21
-123.1819800948113
 31
0.0
  0
LINE
  5
117
330
5C
100
AcDbEntity
  8
0
  6
Continuous
 62
     7
100
AcDbLine
 10
-234.9393398282302
 20
-123.1819800948113
 30
0.0
 11
-234.6213203435697
 21
-123.4999995794718
 31
0.0
  0
LINE
  5
118
330
5C
100
AcDbEntity
  8
0
  6
Continuous
 62
     7
100
AcDbLine
 10
-228.3786796564504
 20
-123.4999995794718
 30
0.0
 11
-228.0606601717899
 21
-123.1819800948113
 31
0.0
  0
LINE
  5
119
330
5C
100
AcDbEntity
  8
0
  6
Continuous
 62
     7
100
AcDbLine
 10
-226.50000000001
 20
-120.9999995794718
 30
0.0
 11
-226.50000000001
 21
-116.4999995794718
 31
0.0
  0
LINE
  5
11A
330
5C
100
AcDbEntity
  8
0
  6
Continuous
 62
     7
100
AcDbLine
 10
-226.50000000001
 20
-120.9999995794718
 30
0.0
 11
-236.75000000001
 21
-120.9999995794718
 31
0.0
  0
LINE
  5
11B
330
5C
100
AcDbEntity
  8
0
  6
Continuous
 62
     7
100
AcDbLine
 10
-247.25000000001
 20
-120.9999995794718
 30
0.0
 11
-257.50000000001
 21
-120.9999995794718
 31
0.0
  0
LINE
  5
11C
330
5C
100
AcDbEntity
  8
0
  6
Continuous
 62
     7
100
AcDbLine
 10
-236.75000000001
 20
-120.9999995794718
 30
0.0
 11
-247.25000000001
 21
-120.9999995794718
 31
0.0
  0
LINE
  5
11D
330
5C
100
AcDbEntity
  8
0
  6
Continuous
 62
     7
100
AcDbLine
 10
-257.50000000001
 20
-120.9999995794718
 30
0.0
 11
-257.50000000001
 21
-116.4999995794718
 31
0.0
  0
LINE
  5
11E
330
5C
100
AcDbEntity
  8
0
  6
Continuous
 62
     7
100
AcDbLine
 10
-226.50000000001
 20
-116.4999995794718
 30
0.0
 11
-257.50000000001
 21
-116.4999995794718
 31
0.0
  0
LINE
  5
11F
330
5C
100
AcDbEntity
  8
0
  6
Continuous
 62
     7
100
AcDbLine
 10
-255.6213203435697
 20
-123.4999995794718
 30
0.0
 11
-249.3786796564504
 21
-123.4999995794718
 31
0.0
  0
LINE
  5
120
330
5C
100
AcDbEntity
  8
0
  6
Continuous
 62
     7
100
AcDbLine
 10
-234.6213203435697
 20
-123.4999995794718
 30
0.0
 11
-228.3786796564504
 21
-123.4999995794718
 31
0.0
  0
LINE
  5
121
330
5C
100
AcDbEntity
  8
0
  6
Continuous
 62
     7
100
AcDbLine
 10
-247.25000000001
 20
-123.1819800948113
 30
0.0
 11
-247.25000000001
 21
-120.9999995794718
 31
0.0
  0
LINE
  5
122
330
5C
100
AcDbEntity
  8
0
  6
Continuous
 62
     7
100
AcDbLine
 10
-257.50000000001
 20
-123.1819800948113
 30
0.0
 11
-247.25000000001
 21
-123.1819800948113
 31
0.0
  0
LINE
  5
123
330
5C
100
AcDbEntity
  8
0
  6
Continuous
 62
     7
100
AcDbLine
 10
-236.75000000001
 20
-120.9999995794718
 30
0.0
 11
-236.75000000001
 21
-123.1819800948113
 31
0.0
  0
LINE
  5
124
330
5C
100
AcDbEntity
  8
0
  6
Continuous
 62
     7
100
AcDbLine
 10
-226.50000000001
 20
-123.1819800948113
 30
0.0
 11
-226.50000000001
 21
-120.9999995794718
 31
0.0
  0
LINE
  5
125
330
5C
100
AcDbEntity
  8
0
  6
Continuous
 62
     7
100
AcDbLine
 10
-255.9393398282302
 20
-123.1819800948113
 30
0.0
 11
-255.6213203435697
 21
-123.4999995794718
 31
0.0
  0
LINE
  5
126
330
5C
100
AcDbEntity
  8
0
  6
Continuous
 62
     7
100
AcDbLine
 10
-257.50000000001
 20
-120.9999995794718
 30
0.0
 11
-257.50000000001
 21
-123.1819800948113
 31
0.0
  0
LINE
  5
127
330
5C
100
AcDbEntity
  8
0
  6
Continuous
 62
     7
100
AcDbLine
 10
-249.3786796564504
 20
-123.4999995794718
 30
0.0
 11
-249.0606601717899
 21
-123.1819800948113
 31
0.0
  0
ENDBLK
  5
5E
330
5C
100
AcDbEntity
  8
0
100
AcDbBlockEnd
  0
BLOCK
  5
61
330
5F
100
AcDbEntity
  8
0
100
AcDbBlockBegin
  2
Left1
 70
     0
 10
-242.000000000005
 20
-120.00000000008
 30
0.0
  3
Left1
  1

  0
INSERT
  5
60
330
5F
100
AcDbEntity
  8
0
100
AcDbBlockReference
  2
EB_2_20-select__4
 10
-257.50000000001
 20
-123.4999995794718
 30
0.0
  0
ENDBLK
  5
62
330
5F
100
AcDbEntity
  8
0
100
AcDbBlockEnd
  0
BLOCK
  5
64
330
63
100
AcDbEntity
  8
0
100
AcDbBlockBegin
  2
EB_2_20-select__5
 70
     0
 10
-375.4999990463108
 20
-123.4999995794718
 30
0.0
  3
EB_2_20-select__5
  1

  0
LINE
  5
128
330
63
100
AcDbEntity
  8
0
  6
Continuous
 62
     7
100
AcDbLine
 10
-372.4999990463107
 20
-123.4999995794718
 30
0.0
 11
-372.4999990463107
 21
-121.9999995794718
 31
0.0
  0
LINE
  5
129
330
63
100
AcDbEntity
  8
0
  6
Continuous
 62
     7
100
AcDbLine
 10
-354.7499990463108
 20
-122.1213199230314
 30
0.0
 11
-354.7499990463108
 21
-123.1819800948112
 31
0.0
  0
LINE
  5
12A
330
63
100
AcDbEntity
  8
0
  6
Continuous
 62
     7
100
AcDbLine
 10
-351.4999990463108
 20
-123.4999995794718
 30
0.0
 11
-351.4999990463108
 21
-121.9999995794718
 31
0.0
  0
LINE
  5
12B
330
63
100
AcDbEntity
  8
0
  6
Continuous
 62
     7
100
AcDbLine
 10
-347.4999990463108
 20
-123.4999995794718
 30
0.0
 11
-347.4999990463108
 21
-121.9999995794718
 31
0.0
  0
LINE
  5
12C
330
63
100
AcDbEntity
  8
0
  6
Continuous
 62
     7
100
AcDbLine
 10
-353.2499990463108
 20
-122.1213199230314
 30
0.0
 11
-353.2499990463108
 21
-120.7499995794718
 31
0.0
  0
LINE
  5
12D
330
63
100
AcDbEntity
  8
0
  6
Continuous
 62
     7
100
AcDbLine
 10
-345.7499990463108
 20
-120.7499995794718
 30
0.0
 11
-345.7499990463108
 21
-122.1213199230314
 31
0.0
  0
LINE
  5
12E
330
63
100
AcDbEntity
  8
0
  6
Continuous
 62
     7
100
AcDbLine
 10
-344.4999990463108
 20
-117.8786792359121
 30
0.0
 11
-344.4999990463108
 21
-122.1213199230314
 31
0.0
  0
LINE
  5
12F
330
63
100
AcDbEntity
  8
0
  6
Continuous
 62
     7
100
AcDbLine
 10
-353.2499990463108
 20
-119.9999995794718
 30
0.0
 11
-353.2499990463108
 21
-120.7499995794718
 31
0.0
  0
LINE
  5
130
330
63
100
AcDbEntity
  8
0
  6
Continuous
 62
     7
100
AcDbLine
 10
-345.7499990463108
 20
-120.7499995794718
 30
0.0
 11
-345.7499990463108
 21
-119.9999995794718
 31
0.0
  0
LINE
  5
131
330
63
100
AcDbEntity
  8
0
  6
Continuous
 62
     7
100
AcDbLine
 10
-354.7499990463108
 20
-122.1213199230314
 30
0.0
 11
-354.7499990463108
 21
-120.9999995794718
 31
0.0
  0
LINE
  5
132
330
63
100
AcDbEntity
  8
0
  6
Continuous
 62
     7
100
AcDbLine
 10
-354.7499990463108
 20
-120.9999995794718
 30
0.0
 11
-354.7499990463108
 21
-117.8786792359121
 31
0.0
  0
LINE
  5
133
330
63
100
AcDbEntity
  8
0
  6
Continuous
 62
     7
100
AcDbLine
 10
-366.7499990463108
 20
-120.7499995794718
 30
0.0
 11
-366.7499990463108
 21
-122.1213199230314
 31
0.0
  0
LINE
  5
134
330
63
100
AcDbEntity
  8
0
  6
Continuous
 62
     7
100
AcDbLine
 10
-365.2499990463108
 20
-122.1213199230314
 30
0.0
 11
-366.7499990463108
 21
-122.1213199230314
 31
0.0
  0
LINE
  5
135
330
63
100
AcDbEntity
  8
0
  6
Continuous
 62
     7
100
AcDbLine
 10
-366.7499990463108
 20
-120.7499995794718
 30
0.0
 11
-366.7499990463108
 21
-119.9999995794718
 31
0.0
  0
LINE
  5
136
330
63
100
AcDbEntity
  8
0
  6
Continuous
 62
     7
100
AcDbLine
 10
-354.7499990463108
 20
-120.9999995794718
 30
0.0
 11
-365.2499990463108
 21
-120.9999995794718
 31
0.0
  0
LINE
  5
137
330
63
100
AcDbEntity
  8
0
  6
Continuous
 62
     7
100
AcDbLine
 10
-353.2499990463108
 20
-120.7499995794718
 30
0.0
 11
-351.9999990463108
 21
-121.9999995794718
 31
0.0
  0
LINE
  5
138
330
63
100
AcDbEntity
  8
0
  6
Continuous
 62
     7
100
AcDbLine
 10
-346.3786787027512
 20
-123.4999995794718
 30
0.0
 11
-347.4999990463108
 21
-123.4999995794718
 31
0.0
  0
LINE
  5
139
330
63
100
AcDbEntity
  8
0
  6
Continuous
 62
     7
100
AcDbLine
 10
-351.4999990463108
 20
-123.4999995794718
 30
0.0
 11
-352.6213193898704
 21
-123.4999995794718
 31
0.0
  0
LINE
  5
13A
330
63
100
AcDbEntity
  8
0
  6
Continuous
 62
     7
100
AcDbLine
 10
-367.3786787027511
 20
-123.4999995794718
 30
0.0
 11
-368.4999990463108
 21
-123.4999995794718
 31
0.0
  0
LINE
  5
13B
330
63
100
AcDbEntity
  8
0
  6
Continuous
 62
     7
100
AcDbLine
 10
-372.4999990463107
 20
-123.4999995794718
 30
0.0
 11
-373.6213193898704
 21
-123.4999995794718
 31
0.0
  0
LINE
  5
13C
330
63
100
AcDbEntity
  8
0
  6
Continuous
 62
     7
100
AcDbLine
 10
-373.939338874531
 20
-123.1819800948112
 30
0.0
 11
-375.4999990463108
 21
-123.1819800948112
 31
0.0
  0
LINE
  5
13D
330
63
100
AcDbEntity
  8
0
  6
Continuous
 62
     7
100
AcDbLine
 10
-372.4999990463107
 20
-123.4999995794718
 30
0.0
 11
-368.4999990463108
 21
-123.4999995794718
 31
0.0
  0
LINE
  5
13E
330
63
100
AcDbEntity
  8
0
  6
Continuous
 62
     7
100
AcDbLine
 10
-365.2499990463108
 20
-123.1819800948112
 30
0.0
 11
-367.0606592180906
 21
-123.1819800948112
 31
0.0
  0
LINE
  5
13F
330
63
100
AcDbEntity
  8
0
  6
Continuous
 62
     7
100
AcDbLine
 10
-352.939338874531
 20
-123.1819800948112
 30
0.0
 11
-354.7499990463108
 21
-123.1819800948112
 31
0.0
  0
LINE
  5
140
330
63
100
AcDbEntity
  8
0
  6
Continuous
 62
     7
100
AcDbLine
 10
-351.4999990463108
 20
-123.4999995794718
 30
0.0
 11
-347.4999990463108
 21
-123.4999995794718
 31
0.0
  0
LINE
  5
141
330
63
100
AcDbEntity
  8
0
  6
Continuous
 62
     7
100
AcDbLine
 10
-345.7499990463108
 20
-122.8713199230314
 30
0.0
 11
-346.3786787027512
 21
-123.4999995794718
 31
0.0
  0
LINE
  5
142
330
63
100
AcDbEntity
  8
0
  6
Continuous
 62
     7
100
AcDbLine
 10
-352.6213193898704
 20
-123.4999995794718
 30
0.0
 11
-353.2499990463108
 21
-122.8713199230314
 31
0.0
  0
LINE
  5
143
330
63
100
AcDbEntity
  8
0
  6
Continuous
 62
     7
100
AcDbLine
 10
-366.7499990463108
 20
-119.9999995794718
 30
0.0
 11
-374.2499990463108
 21
-119.9999995794718
 31
0.0
  0
LINE
  5
144
330
63
100
AcDbEntity
  8
0
  6
Continuous
 62
     7
100
AcDbLine
 10
-345.7499990463108
 20
-119.9999995794718
 30
0.0
 11
-353.2499990463108
 21
-119.9999995794718
 31
0.0
  0
LINE
  5
145
330
63
100
AcDbEntity
  8
0
  6
Continuous
 62
     7
100
AcDbLine
 10
-375.4999990463108
 20
-117.8786792359121
 30
0.0
 11
-375.4999990463108
 21
-122.1213199230314
 31
0.0
  0
LINE
  5
146
330
63
100
AcDbEntity
  8
0
  6
Continuous
 62
     7
100
AcDbLine
 10
-375.4999990463108
 20
-122.1213199230314
 30
0.0
 11
-375.4999990463108
 21
-123.1819800948112
 31
0.0
  0
LINE
  5
147
330
63
100
AcDbEntity
  8
0
  6
Continuous
 62
     7
100
AcDbLine
 10
-374.2499990463108
 20
-122.8713199230314
 30
0.0
 11
-374.2499990463108
 21
-122.1213199230314
 31
0.0
  0
LINE
  5
148
330
63
100
AcDbEntity
  8
0
  6
Continuous
 62
     7
100
AcDbLine
 10
-365.2499990463108
 20
-123.1819800948112
 30
0.0
 11
-365.2499990463108
 21
-122.1213199230314
 31
0.0
  0
LINE
  5
149
330
63
100
AcDbEntity
  8
0
  6
Continuous
 62
     7
100
AcDbLine
 10
-365.2499990463108
 20
-120.9999995794718
 30
0.0
 11
-365.2499990463108
 21
-122.1213199230314
 31
0.0
  0
LINE
  5
14A
330
63
100
AcDbEntity
  8
0
  6
Continuous
 62
     7
100
AcDbLine
 10
-365.2499990463108
 20
-117.8786792359121
 30
0.0
 11
-365.2499990463108
 21
-120.9999995794718
 31
0.0
  0
LINE
  5
14B
330
63
100
AcDbEntity
  8
0
  6
Continuous
 62
     7
100
AcDbLine
 10
-353.2499990463108
 20
-122.8713199230314
 30
0.0
 11
-353.2499990463108
 21
-122.1213199230314
 31
0.0
  0
LINE
  5
14C
330
63
100
AcDbEntity
  8
0
  6
Continuous
 62
     7
100
AcDbLine
 10
-344.4999990463108
 20
-123.1819800948112
 30
0.0
 11
-346.0606592180906
 21
-123.1819800948112
 31
0.0
  0
LINE
  5
14D
330
63
100
AcDbEntity
  8
0
  6
Continuous
 62
     7
100
AcDbLine
 10
-345.7499990463108
 20
-122.1213199230314
 30
0.0
 11
-345.7499990463108
 21
-122.8713199230314
 31
0.0
  0
LINE
  5
14E
330
63
100
AcDbEntity
  8
0
  6
Continuous
 62
     7
100
AcDbLine
 10
-344.4999990463108
 20
-123.1819800948112
 30
0.0
 11
-344.4999990463108
 21
-122.1213199230314
 31
0.0
  0
LINE
  5
14F
330
63
100
AcDbEntity
  8
0
  6
Continuous
 62
     7
100
AcDbLine
 10
-344.4999990463108
 20
-122.1213199230314
 30
0.0
 11
-345.7499990463108
 21
-122.1213199230314
 31
0.0
  0
LINE
  5
150
330
63
100
AcDbEntity
  8
0
  6
Continuous
 62
     7
100
AcDbLine
 10
-351.9999990463108
 20
-121.9999995794718
 30
0.0
 11
-351.4999990463108
 21
-121.9999995794718
 31
0.0
  0
LINE
  5
151
330
63
100
AcDbEntity
  8
0
  6
Continuous
 62
     7
100
AcDbLine
 10
-347.4999990463108
 20
-121.9999995794718
 30
0.0
 11
-346.9999990463108
 21
-121.9999995794718
 31
0.0
  0
LINE
  5
152
330
63
100
AcDbEntity
  8
0
  6
Continuous
 62
     7
100
AcDbLine
 10
-368.4999990463108
 20
-121.9999995794718
 30
0.0
 11
-367.9999990463108
 21
-121.9999995794718
 31
0.0
  0
LINE
  5
153
330
63
100
AcDbEntity
  8
0
  6
Continuous
 62
     7
100
AcDbLine
 10
-372.4999990463107
 20
-121.9999995794718
 30
0.0
 11
-368.4999990463108
 21
-121.9999995794718
 31
0.0
  0
LINE
  5
154
330
63
100
AcDbEntity
  8
0
  6
Continuous
 62
     7
100
AcDbLine
 10
-353.2499990463108
 20
-122.1213199230314
 30
0.0
 11
-354.7499990463108
 21
-122.1213199230314
 31
0.0
  0
LINE
  5
155
330
63
100
AcDbEntity
  8
0
  6
Continuous
 62
     7
100
AcDbLine
 10
-351.4999990463108
 20
-121.9999995794718
 30
0.0
 11
-347.4999990463108
 21
-121.9999995794718
 31
0.0
  0
LINE
  5
156
330
63
100
AcDbEntity
  8
0
  6
Continuous
 62
     7
100
AcDbLine
 10
-375.4999990463108
 20
-116.4999995794718
 30
0.0
 11
-365.2499990463108
 21
-116.4999995794718
 31
0.0
  0
LINE
  5
157
330
63
100
AcDbEntity
  8
0
  6
Continuous
 62
     7
100
AcDbLine
 10
-375.4999990463108
 20
-116.4999995794718
 30
0.0
 11
-375.4999990463108
 21
-117.8786792359121
 31
0.0
  0
LINE
  5
158
330
63
100
AcDbEntity
  8
0
  6
Continuous
 62
     7
100
AcDbLine
 10
-344.4999990463108
 20
-116.4999995794718
 30
0.0
 11
-344.4999990463108
 21
-117.8786792359121
 31
0.0
  0
LINE
  5
159
330
63
100
AcDbEntity
  8
0
  6
Continuous
 62
     7
100
AcDbLine
 10
-365.2499990463108
 20
-117.8786792359121
 30
0.0
 11
-375.4999990463108
 21
-117.8786792359121
 31
0.0
  0
LINE
  5
15A
330
63
100
AcDbEntity
  8
0
  6
Continuous
 62
     7
100
AcDbLine
 10
-354.7499990463108
 20
-116.4999995794718
 30
0.0
 11
-344.4999990463108
 21
-116.4999995794718
 31
0.0
  0
LINE
  5
15B
330
63
100
AcDbEntity
  8
0
  6
Continuous
 62
     7
100
AcDbLine
 10
-354.7499990463108
 20
-116.4999995794718
 30
0.0
 11
-354.7499990463108
 21
-117.8786792359121
 31
0.0
  0
LINE
  5
15C
330
63
100
AcDbEntity
  8
0
  6
Continuous
 62
     7
100
AcDbLine
 10
-344.4999990463108
 20
-117.8786792359121
 30
0.0
 11
-354.7499990463108
 21
-117.8786792359121
 31
0.0
  0
LINE
  5
15D
330
63
100
AcDbEntity
  8
0
  6
Continuous
 62
     7
100
AcDbLine
 10
-365.2499990463108
 20
-117.8786792359121
 30
0.0
 11
-365.2499990463108
 21
-116.4999995794718
 31
0.0
  0
LINE
  5
15E
330
63
100
AcDbEntity
  8
0
  6
Continuous
 62
     7
100
AcDbLine
 10
-365.2499990463108
 20
-116.4999995794718
 30
0.0
 11
-354.7499990463108
 21
-116.4999995794718
 31
0.0
  0
LINE
  5
15F
330
63
100
AcDbEntity
  8
0
  6
Continuous
 62
     7
100
AcDbLine
 10
-372.9999990463108
 20
-121.9999995794718
 30
0.0
 11
-372.4999990463107
 21
-121.9999995794718
 31
0.0
  0
LINE
  5
160
330
63
100
AcDbEntity
  8
0
  6
Continuous
 62
     7
100
AcDbLine
 10
-374.2499990463108
 20
-122.1213199230314
 30
0.0
 11
-375.4999990463108
 21
-122.1213199230314
 31
0.0
  0
LINE
  5
161
330
63
100
AcDbEntity
  8
0
  6
Continuous
 62
     7
100
AcDbLine
 10
-374.2499990463108
 20
-119.9999995794718
 30
0.0
 11
-374.2499990463108
 21
-120.7499995794718
 31
0.0
  0
LINE
  5
162
330
63
100
AcDbEntity
  8
0
  6
Continuous
 62
     7
100
AcDbLine
 10
-374.2499990463108
 20
-120.7499995794718
 30
0.0
 11
-372.9999990463108
 21
-121.9999995794718
 31
0.0
  0
LINE
  5
163
330
63
100
AcDbEntity
  8
0
  6
Continuous
 62
     7
100
AcDbLine
 10
-374.2499990463108
 20
-122.1213199230314
 30
0.0
 11
-374.2499990463108
 21
-120.7499995794718
 31
0.0
  0
LINE
  5
164
330
63
100
AcDbEntity
  8
0
  6
Continuous
 62
     7
100
AcDbLine
 10
-373.6213193898704
 20
-123.4999995794718
 30
0.0
 11
-374.2499990463108
 21
-122.8713199230314
 31
0.0
  0
LINE
  5
165
330
63
100
AcDbEntity
  8
0
  6
Continuous
 62
     7
100
AcDbLine
 10
-366.7499990463108
 20
-122.1213199230314
 30
0.0
 11
-366.7499990463108
 21
-122.8713199230314
 31
0.0
  0
LINE
  5
166
330
63
100
AcDbEntity
  8
0
  6
Continuous
 62
     7
100
AcDbLine
 10
-368.4999990463108
 20
-123.4999995794718
 30
0.0
 11
-368.4999990463108
 21
-121.9999995794718
 31
0.0
  0
LINE
  5
167
330
63
100
AcDbEntity
  8
0
  6
Continuous
 62
     7
100
AcDbLine
 10
-366.7499990463108
 20
-120.7499995794718
 30
0.0
 11
-367.9999990463108
 21
-121.9999995794718
 31
0.0
  0
LINE
  5
168
330
63
100
AcDbEntity
  8
0
  6
Continuous
 62
     7
100
AcDbLine
 10
-366.7499990463108
 20
-122.8713199230314
 30
0.0
 11
-367.3786787027511
 21
-123.4999995794718
 31
0.0
  0
LINE
  5
169
330
63
100
AcDbEntity
  8
0
  6
Continuous
 62
     7
100
AcDbLine
 10
-345.7499990463108
 20
-120.7499995794718
 30
0.0
 11
-346.9999990463108
 21
-121.9999995794718
 31
0.0
  0
ENDBLK
  5
65
330
63
100
AcDbEntity
  8
0
100
AcDbBlockEnd
  0
BLOCK
  5
68
330
66
100
AcDbEntity
  8
0
100
AcDbBlockBegin
  2
Right1
 70
     0
 10
-359.9999990463158
 20
-120.00000000008
 30
0.0
  3
Right1
  1

  0
INSERT
  5
67
330
66
100
AcDbEntity
  8
0
100
AcDbBlockReference
  2
EB_2_20-select__5
 10
-375.4999990463108
 20
-123.4999995794718
 30
0.0
  0
ENDBLK
  5
69
330
66
100
AcDbEntity
  8
0
100
AcDbBlockEnd
  0
BLOCK
  5
6B
330
6A
100
AcDbEntity
  8
0
100
AcDbBlockBegin
  2
EB_2_20-select__6
 70
     0
 10
-311.49999950421
 20
-184.4999999999851
 30
0.0
  3
EB_2_20-select__6
  1

  0
LINE
  5
16A
330
6A
100
AcDbEntity
  8
0
  6
Continuous
 62
     7
100
AcDbLine
 10
-291.9999995042099
 20
-160.4999999999851
 30
0.0
 11
-279.4999995042099
 21
-160.499999999985
 31
0.0
  0
LINE
  5
16B
330
6A
100
AcDbEntity
  8
0
  6
Continuous
 62
     7
100
AcDbLine
 10
-292.4999995042099
 20
-160.9999999999851
 30
0.0
 11
-291.9999995042099
 21
-160.4999999999851
 31
0.0
  0
LINE
  5
16C
330
6A
100
AcDbEntity
  8
0
  6
Continuous
 62
     7
100
AcDbLine
 10
-291.9999995042099
 20
-156.4999999999851
 30
0.0
 11
-292.4999995042099
 21
-155.9999999999851
 31
0.0
  0
LINE
  5
16D
330
6A
100
AcDbEntity
  8
0
  6
Continuous
 62
     7
100
AcDbLine
 10
-279.4999995042099
 20
-156.499999999985
 30
0.0
 11
-291.9999995042099
 21
-156.4999999999851
 31
0.0
  0
LINE
  5
16E
330
6A
100
AcDbEntity
  8
0
  6
Continuous
 62
     7
100
AcDbLine
 10
-294.4999995042099
 20
-162.2499999999851
 30
0.0
 11
-293.7499995042099
 21
-162.2499999999851
 31
0.0
  0
LINE
  5
16F
330
6A
100
AcDbEntity
  8
0
  6
Continuous
 62
     7
100
AcDbLine
 10
-293.74999950421
 20
-154.7499999999851
 30
0.0
 11
-294.4999995042099
 21
-154.7499999999851
 31
0.0
  0
LINE
  5
170
330
6A
100
AcDbEntity
  8
0
  6
Continuous
 62
     7
100
AcDbLine
 10
-292.4999995042099
 20
-160.9999999999851
 30
0.0
 11
-292.4999995042099
 21
-155.9999999999851
 31
0.0
  0
LINE
  5
171
330
6A
100
AcDbEntity
  8
0
  6
Continuous
 62
     7
100
AcDbLine
 10
-294.4999995042099
 20
-162.2499999999851
 30
0.0
 11
-294.4999995042099
 21
-163.7499999999851
 31
0.0
  0
LINE
  5
172
330
6A
100
AcDbEntity
  8
0
  6
Continuous
 62
     7
100
AcDbLine
 10
-294.4999995042099
 20
-153.4999999999851
 30
0.0
 11
-294.4999995042099
 21
-154.7499999999851
 31
0.0
  0
LINE
  5
173
330
6A
100
AcDbEntity
  8
0
  6
Continuous
 62
     7
100
AcDbLine
 10
-295.8786791606503
 20
-163.7499999999851
 30
0.0
 11
-295.8786791606503
 21
-153.4999999999851
 31
0.0
  0
LINE
  5
174
330
6A
100
AcDbEntity
  8
0
  6
Continuous
 62
     7
100
AcDbLine
 10
-295.8786791606503
 20
-163.7499999999851
 30
0.0
 11
-294.4999995042099
 21
-163.7499999999851
 31
0.0
  0
LINE
  5
175
330
6A
100
AcDbEntity
  8
0
  6
Continuous
 62
     7
100
AcDbLine
 10
-294.4999995042099
 20
-154.7499999999851
 30
0.0
 11
-294.4999995042099
 21
-162.2499999999851
 31
0.0
  0
LINE
  5
176
330
6A
100
AcDbEntity
  8
0
  6
Continuous
 62
     7
100
AcDbLine
 10
-293.74999950421
 20
-154.7499999999851
 30
0.0
 11
-292.4999995042099
 21
-155.9999999999851
 31
0.0
  0
LINE
  5
177
330
6A
100
AcDbEntity
  8
0
  6
Continuous
 62
     7
100
AcDbLine
 10
-293.7499995042099
 20
-162.2499999999851
 30
0.0
 11
-292.4999995042099
 21
-160.9999999999851
 31
0.0
  0
LINE
  5
178
330
6A
100
AcDbEntity
  8
0
  6
Continuous
 62
     7
100
AcDbLine
 10
-311.49999950421
 20
-153.4999999999851
 30
0.0
 11
-295.8786791606503
 21
-153.4999999999851
 31
0.0
  0
LINE
  5
179
330
6A
100
AcDbEntity
  8
0
  6
Continuous
 62
     7
100
AcDbLine
 10
-295.8786791606503
 20
-153.4999999999851
 30
0.0
 11
-294.4999995042099
 21
-153.4999999999851
 31
0.0
  0
LINE
  5
17A
330
6A
100
AcDbEntity
  8
0
  6
Continuous
 62
     7
100
AcDbLine
 10
-311.4999995042099
 20
-184.4999999999851
 30
0.0
 11
-311.49999950421
 21
-153.4999999999851
 31
0.0
  0
LINE
  5
17B
330
6A
100
AcDbEntity
  8
0
  6
Continuous
 62
     7
100
AcDbLine
 10
-292.4999995042099
 20
-181.9999999999851
 30
0.0
 11
-292.4999995042099
 21
-176.9999999999851
 31
0.0
  0
LINE
  5
17C
330
6A
100
AcDbEntity
  8
0
  6
Continuous
 62
     7
100
AcDbLine
 10
-294.4999995042099
 20
-175.7499999999851
 30
0.0
 11
-294.4999995042099
 21
-183.2499999999851
 31
0.0
  0
LINE
  5
17D
330
6A
100
AcDbEntity
  8
0
  6
Continuous
 62
     7
100
AcDbLine
 10
-311.4999995042099
 20
-184.4999999999851
 30
0.0
 11
-295.8786791606503
 21
-184.4999999999851
 31
0.0
  0
LINE
  5
17E
330
6A
100
AcDbEntity
  8
0
  6
Continuous
 62
     7
100
AcDbLine
 10
-295.8786791606503
 20
-184.4999999999851
 30
0.0
 11
-294.4999995042099
 21
-184.4999999999851
 31
0.0
  0
LINE
  5
17F
330
6A
100
AcDbEntity
  8
0
  6
Continuous
 62
     7
100
AcDbLine
 10
-294.4999995042099
 20
-183.2499999999851
 30
0.0
 11
-293.7499995042099
 21
-183.2499999999851
 31
0.0
  0
LINE
  5
180
330
6A
100
AcDbEntity
  8
0
  6
Continuous
 62
     7
100
AcDbLine
 10
-292.4999995042099
 20
-181.9999999999851
 30
0.0
 11
-291.9999995042099
 21
-181.4999999999851
 31
0.0
  0
LINE
  5
181
330
6A
100
AcDbEntity
  8
0
  6
Continuous
 62
     7
100
AcDbLine
 10
-293.7499995042099
 20
-183.2499999999851
 30
0.0
 11
-292.4999995042099
 21
-181.9999999999851
 31
0.0
  0
LINE
  5
182
330
6A
100
AcDbEntity
  8
0
  6
Continuous
 62
     7
100
AcDbLine
 10
-294.4999995042099
 20
-183.2499999999851
 30
0.0
 11
-294.4999995042099
 21
-184.4999999999851
 31
0.0
  0
LINE
  5
183
330
6A
100
AcDbEntity
  8
0
  6
Continuous
 62
     7
100
AcDbLine
 10
-294.4999995042099
 20
-174.2499999999851
 30
0.0
 11
-294.4999995042099
 21
-175.7499999999851
 31
0.0
  0
LINE
  5
184
330
6A
100
AcDbEntity
  8
0
  6
Continuous
 62
     7
100
AcDbLine
 10
-294.4999995042099
 20
-174.2499999999851
 30
0.0
 11
-295.8786791606503
 21
-174.2499999999851
 31
0.0
  0
LINE
  5
185
330
6A
100
AcDbEntity
  8
0
  6
Continuous
 62
     7
100
AcDbLine
 10
-293.7499995042099
 20
-175.7499999999851
 30
0.0
 11
-294.4999995042099
 21
-175.7499999999851
 31
0.0
  0
LINE
  5
186
330
6A
100
AcDbEntity
  8
0
  6
Continuous
 62
     7
100
AcDbLine
 10
-295.8786791606503
 20
-174.2499999999851
 30
0.0
 11
-299.4999995042099
 21
-174.2499999999851
 31
0.0
  0
LINE
  5
187
330
6A
100
AcDbEntity
  8
0
  6
Continuous
 62
     7
100
AcDbLine
 10
-291.9999995042099
 20
-177.4999999999851
 30
0.0
 11
-292.4999995042099
 21
-176.9999999999851
 31
0.0
  0
LINE
  5
188
330
6A
100
AcDbEntity
  8
0
  6
Continuous
 62
     7
100
AcDbLine
 10
-293.7499995042099
 20
-175.7499999999851
 30
0.0
 11
-292.4999995042099
 21
-176.9999999999851
 31
0.0
  0
LINE
  5
189
330
6A
100
AcDbEntity
  8
0
  6
Continuous
 62
     7
100
AcDbLine
 10
-279.4999995042099
 20
-177.499999999985
 30
0.0
 11
-291.9999995042099
 21
-177.4999999999851
 31
0.0
  0
LINE
  5
18A
330
6A
100
AcDbEntity
  8
0
  6
Continuous
 62
     7
100
AcDbLine
 10
-299.4999995042099
 20
-163.7499999999851
 30
0.0
 11
-295.8786791606503
 21
-163.7499999999851
 31
0.0
  0
LINE
  5
18B
330
6A
100
AcDbEntity
  8
0
  6
Continuous
 62
     7
100
AcDbLine
 10
-295.8786791606503
 20
-184.4999999999851
 30
0.0
 11
-295.8786791606503
 21
-174.2499999999851
 31
0.0
  0
LINE
  5
18C
330
6A
100
AcDbEntity
  8
0
  6
Continuous
 62
     7
100
AcDbLine
 10
-299.4999995042099
 20
-174.2499999999851
 30
0.0
 11
-299.4999995042099
 21
-163.7499999999851
 31
0.0
  0
LINE
  5
18D
330
6A
100
AcDbEntity
  8
0
  6
Continuous
 62
     7
100
AcDbLine
 10
-291.9999995042099
 20
-181.4999999999851
 30
0.0
 11
-279.4999995042099
 21
-181.499999999985
 31
0.0
  0
ARC
  5
18E
330
6A
100
AcDbEntity
  8
0
  6
Continuous
 62
     7
100
AcDbCircle
 10
-279.4999995042099
 20
-158.499999999985
 30
0.0
 40
2.0
100
AcDbArc
 50
270.0
 51
90.0
  0
ARC
  5
18F
330
6A
100
AcDbEntity
  8
0
  6
Continuous
 62
     7
100
AcDbCircle
 10
-279.4999995042099
 20
-179.499999999985
 30
0.0
 40
2.0
100
AcDbArc
 50
270.0
 51
90.0
  0
ENDBLK
  5
6C
330
6A
100
AcDbEntity
  8
0
100
AcDbBlockEnd
  0
BLOCK
  5
6F
330
6D
100
AcDbEntity
  8
0
100
AcDbBlockBegin
  2
Top1
 70
     0
 10
-294.4999995231427
 20
-168.9999999999901
 30
0.0
  3
Top1
  1

  0
INSERT
  5
6E
330
6D
100
AcDbEntity
  8
0
100
AcDbBlockReference
  2
EB_2_20-select__6
 10
-311.49999950421
 20
-184.4999999999851
 30
0.0
  0
DIMENSION
  5
19A
330
6D
100
AcDbEntity
  8
1
100
AcDbDimension
  2
*D19
 10
-321.49999950421
 20
-153.4999999999851
 30
0.0
 11
-324.74999950421
 21
-168.9999999999851
 31
0.0
 70
    32
  1
<>
 71
     5
 42
-1.0
 53
90.0
  3
ME10_DIM_12
100
AcDbAlignedDimension
 13
-311.4999995042099
 23
-184.4999999999851
 33
0.0
 14
-311.49999950421
 24
-153.4999999999851
 34
0.0
 50
90.0
100
AcDbRotatedDimension
  0
ENDBLK
  5
70
330
6D
100
AcDbEntity
  8
0
100
AcDbBlockEnd
  0
BLOCK
  5
72
330
71
100
AcDbEntity
  8
0
100
AcDbBlockBegin
  2
_rahmen
 70
     0
 10
-128.5137835827782
 20
-253.0968734534574
 30
0.0
  3
_rahmen
  1

  0
LINE
  5
19B
330
71
100
AcDbEntity
  8
1
  6
Continuous
 62
     6
100
AcDbLine
 10
-258.0585881095283
 20
-222.5968734534573
 30
0.0
 11
-128.5137835827765
 21
-222.5968734534573
 31
0.0
  0
LINE
  5
19C
330
71
100
AcDbEntity
  8
1
  6
Continuous
 62
     7
100
AcDbLine
 10
-239.8585881095282
 20
-243.8468734534573
 30
0.0
 11
-221.6585881095283
 21
-243.8468734534573
 31
0.0
  0
LINE
  5
19D
330
71
100
AcDbEntity
  8
1
  6
Continuous
 62
     6
100
AcDbLine
 10
-239.8585881095282
 20
-248.0968734534573
 30
0.0
 11
-258.0585881095283
 21
-248.0968734534574
 31
0.0
  0
LINE
  5
19E
330
71
100
AcDbEntity
  8
1
  6
Continuous
 62
     7
100
AcDbLine
 10
-239.8585881095282
 20
-243.8468734534573
 30
0.0
 11
-239.8585881095282
 21
-248.0968734534573
 31
0.0
  0
LINE
  5
19F
330
71
100
AcDbEntity
  8
1
  6
Continuous
 62
     7
100
AcDbLine
 10
-221.6585881095283
 20
-243.8468734534573
 30
0.0
 11
-221.6585881095283
 21
-248.0968734534574
 31
0.0
  0
LINE
  5
1A0
330
71
100
AcDbEntity
  8
1
  6
Continuous
 62
     7
100
AcDbLine
 10
-258.0585881095283
 20
-243.8468734534574
 30
0.0
 11
-258.0585881095283
 21
-248.0968734534574
 31
0.0
  0
LINE
  5
1A1
330
71
100
AcDbEntity
  8
1
  6
Continuous
 62
     7
100
AcDbLine
 10
-258.0585881095283
 20
-243.8468734534574
 30
0.0
 11
-239.8585881095282
 21
-243.8468734534573
 31
0.0
  0
LINE
  5
1A2
330
71
100
AcDbEntity
  8
1
  6
Continuous
 62
     2
100
AcDbLine
 10
-248.8219332229656
 20
-224.4718734534574
 30
0.0
 11
-248.8219332229656
 21
-229.4718734534574
 31
0.0
  0
LINE
  5
1A3
330
71
100
AcDbEntity
  8
1
  6
Continuous
 62
     2
100
AcDbLine
 10
-248.8219332229656
 20
-229.4718734534574
 30
0.0
 11
-253.8219332229656
 21
-228.2218734534574
 31
0.0
  0
LINE
  5
1A4
330
71
100
AcDbEntity
  8
1
  6
Continuous
 62
     2
100
AcDbLine
 10
-253.8219332229656
 20
-228.2218734534574
 30
0.0
 11
-253.8219332229656
 21
-225.7218734534574
 31
0.0
  0
LINE
  5
1A5
330
71
100
AcDbEntity
  8
1
  6
Continuous
 62
     2
100
AcDbLine
 10
-253.8219332229656
 20
-225.7218734534574
 30
0.0
 11
-248.8219332229656
 21
-224.4718734534574
 31
0.0
  0
LINE
  5
1A6
330
71
100
AcDbEntity
  8
1
  6
Continuous
 62
     6
100
AcDbLine
 10
-380.5137835827765
 20
-248.0968734534573
 30
0.0
 11
-415.5137835827763
 21
-248.0968734534573
 31
0.0
  0
LINE
  5
1A7
330
71
100
AcDbEntity
  8
1
  6
Continuous
 62
     6
100
AcDbLine
 10
-128.5137835827765
 20
-231.0968734534573
 30
0.0
 11
-128.5137835827769
 21
-239.5968734534573
 31
0.0
  0
LINE
  5
1A8
330
71
100
AcDbEntity
  8
1
  6
Continuous
 62
     6
100
AcDbLine
 10
-221.6585881095283
 20
-248.0968734534574
 30
0.0
 11
-222.0137835827783
 21
-248.0968734534573
 31
0.0
  0
LINE
  5
1A9
330
71
100
AcDbEntity
  8
1
  6
Continuous
 62
     6
100
AcDbLine
 10
-374.3137835827785
 20
-248.0968734534574
 30
0.0
 11
-380.5137835827765
 21
-248.0968734534573
 31
0.0
  0
LINE
  5
1AA
330
71
100
AcDbEntity
  8
1
  6
Continuous
 62
     7
100
AcDbLine
 10
-221.6585881095283
 20
-231.0968734534573
 30
0.0
 11
-221.6585881095283
 21
-243.8468734534573
 31
0.0
  0
LINE
  5
1AB
330
71
100
AcDbEntity
  8
1
  6
Continuous
 62
     7
100
AcDbLine
 10
-258.0585881095283
 20
-231.0968734534573
 30
0.0
 11
-258.0585881095283
 21
-243.8468734534574
 31
0.0
  0
LINE
  5
1AC
330
71
100
AcDbEntity
  8
1
  6
Continuous
 62
     6
100
AcDbLine
 10
-272.0137835827782
 20
-248.0968734534573
 30
0.0
 11
-322.0137835827784
 21
-248.0968734534573
 31
0.0
  0
LINE
  5
1AD
330
71
100
AcDbEntity
  8
1
  6
Continuous
 62
     6
100
AcDbLine
 10
-374.3137835827785
 20
-248.0968734534574
 30
0.0
 11
-372.0137835827782
 21
-248.0968734534573
 31
0.0
  0
LINE
  5
1AE
330
71
100
AcDbEntity
  8
1
  6
Continuous
 62
     6
100
AcDbLine
 10
-221.6585881095283
 20
-248.0968734534574
 30
0.0
 11
-172.0137835827783
 21
-248.0968734534573
 31
0.0
  0
LINE
  5
1AF
330
71
100
AcDbEntity
  8
1
  6
Continuous
 62
     6
100
AcDbLine
 10
-128.5137835827782
 20
-248.0968734534573
 30
0.0
 11
-128.5137835827769
 21
-239.5968734534573
 31
0.0
  0
LINE
  5
1B0
330
71
100
AcDbEntity
  8
1
  6
Continuous
 62
     2
100
AcDbLine
 10
-420.5137835827773
 20
-248.0968734534573
 30
0.0
 11
-420.5137835827773
 21
-253.0968734534574
 31
0.0
  0
LINE
  5
1B1
330
71
100
AcDbEntity
  8
1
  6
Continuous
 62
     2
100
AcDbLine
 10
-415.5137835827763
 20
-248.0968734534573
 30
0.0
 11
-420.5137835827773
 21
-248.0968734534573
 31
0.0
  0
LINE
  5
1B2
330
71
100
AcDbEntity
  8
1
  6
Continuous
 62
     2
100
AcDbLine
 10
-415.5137835827763
 20
-253.0968734534574
 30
0.0
 11
-372.0137835827782
 21
-253.0968734534574
 31
0.0
  0
LINE
  5
1B3
330
71
100
AcDbEntity
  8
1
  6
Continuous
 62
     2
100
AcDbLine
 10
-415.5137835827763
 20
-248.0968734534573
 30
0.0
 11
-415.5137835827763
 21
-253.0968734534574
 31
0.0
  0
LINE
  5
1B4
330
71
100
AcDbEntity
  8
1
  6
Continuous
 62
     2
100
AcDbLine
 10
-172.0137835827783
 20
-253.0968734534574
 30
0.0
 11
-222.0137835827783
 21
-253.0968734534574
 31
0.0
  0
LINE
  5
1B5
330
71
100
AcDbEntity
  8
1
  6
Continuous
 62
     2
100
AcDbLine
 10
-172.0137835827783
 20
-253.0968734534574
 30
0.0
 11
-172.0137835827783
 21
-248.0968734534573
 31
0.0
  0
LINE
  5
1B6
330
71
100
AcDbEntity
  8
1
  6
Continuous
 62
     2
100
AcDbLine
 10
-222.0137835827783
 20
-253.0968734534574
 30
0.0
 11
-222.0137835827783
 21
-248.0968734534573
 31
0.0
  0
LINE
  5
1B7
330
71
100
AcDbEntity
  8
1
  6
Continuous
 62
     2
100
AcDbLine
 10
-272.0137835827782
 20
-253.0968734534574
 30
0.0
 11
-222.0137835827783
 21
-253.0968734534574
 31
0.0
  0
LINE
  5
1B8
330
71
100
AcDbEntity
  8
1
  6
Continuous
 62
     2
100
AcDbLine
 10
-272.0137835827782
 20
-253.0968734534574
 30
0.0
 11
-272.0137835827782
 21
-248.0968734534573
 31
0.0
  0
LINE
  5
1B9
330
71
100
AcDbEntity
  8
1
  6
Continuous
 62
     2
100
AcDbLine
 10
-322.0137835827784
 20
-253.0968734534574
 30
0.0
 11
-272.0137835827782
 21
-253.0968734534574
 31
0.0
  0
LINE
  5
1BA
330
71
100
AcDbEntity
  8
1
  6
Continuous
 62
     2
100
AcDbLine
 10
-322.0137835827784
 20
-253.0968734534574
 30
0.0
 11
-322.0137835827784
 21
-248.0968734534573
 31
0.0
  0
LINE
  5
1BB
330
71
100
AcDbEntity
  8
1
  6
Continuous
 62
     2
100
AcDbLine
 10
-372.0137835827782
 20
-253.0968734534574
 30
0.0
 11
-322.0137835827784
 21
-253.0968734534574
 31
0.0
  0
LINE
  5
1BC
330
71
100
AcDbEntity
  8
1
  6
Continuous
 62
     2
100
AcDbLine
 10
-372.0137835827782
 20
-253.0968734534574
 30
0.0
 11
-372.0137835827782
 21
-248.0968734534573
 31
0.0
  0
LINE
  5
1BD
330
71
100
AcDbEntity
  8
1
  6
Continuous
 62
     6
100
AcDbLine
 10
-415.5137835827765
 20
-198.0968734534572
 30
0.0
 11
-415.5137835827763
 21
-248.0968734534573
 31
0.0
  0
LINE
  5
1BE
330
71
100
AcDbEntity
  8
1
  6
Continuous
 62
     2
100
AcDbLine
 10
-420.5137835827773
 20
-198.0968734534572
 30
0.0
 11
-420.5137835827773
 21
-248.0968734534573
 31
0.0
  0
LINE
  5
1BF
330
71
100
AcDbEntity
  8
1
  6
Continuous
 62
     2
100
AcDbLine
 10
-420.5137835827773
 20
-198.0968734534572
 30
0.0
 11
-415.5137835827765
 21
-198.0968734534572
 31
0.0
  0
LINE
  5
1C0
330
71
100
AcDbEntity
  8
1
  6
Continuous
 62
     6
100
AcDbLine
 10
-415.5137835827767
 20
-148.0968734534574
 30
0.0
 11
-415.5137835827765
 21
-198.0968734534572
 31
0.0
  0
LINE
  5
1C1
330
71
100
AcDbEntity
  8
1
  6
Continuous
 62
     2
100
AcDbLine
 10
-420.5137835827773
 20
-148.0968734534574
 30
0.0
 11
-420.5137835827773
 21
-198.0968734534572
 31
0.0
  0
LINE
  5
1C2
330
71
100
AcDbEntity
  8
1
  6
Continuous
 62
     2
100
AcDbLine
 10
-420.5137835827773
 20
-148.0968734534574
 30
0.0
 11
-415.5137835827767
 21
-148.0968734534574
 31
0.0
  0
LINE
  5
1C3
330
71
100
AcDbEntity
  8
1
  6
Continuous
 62
     6
100
AcDbLine
 10
-415.5137835827773
 20
-98.0968734534573
 30
0.0
 11
-415.5137835827767
 21
-148.0968734534574
 31
0.0
  0
LINE
  5
1C4
330
71
100
AcDbEntity
  8
1
  6
Continuous
 62
     2
100
AcDbLine
 10
-420.5137835827773
 20
-98.0968734534573
 30
0.0
 11
-420.5137835827773
 21
-148.0968734534574
 31
0.0
  0
LINE
  5
1C5
330
71
100
AcDbEntity
  8
1
  6
Continuous
 62
     2
100
AcDbLine
 10
-420.5137835827773
 20
-98.0968734534573
 30
0.0
 11
-415.5137835827773
 21
-98.0968734534573
 31
0.0
  0
LINE
  5
1C6
330
71
100
AcDbEntity
  8
1
  6
Continuous
 62
     6
100
AcDbLine
 10
-415.5137835827773
 20
-63.09687345345731
 30
0.0
 11
-415.5137835827773
 21
-98.0968734534573
 31
0.0
  0
LINE
  5
1C7
330
71
100
AcDbEntity
  8
1
  6
Continuous
 62
     2
100
AcDbLine
 10
-420.5137835827773
 20
-43.09687345345731
 30
0.0
 11
-420.5137835827773
 21
-98.0968734534573
 31
0.0
  0
LINE
  5
1C8
330
71
100
AcDbEntity
  8
1
  6
Continuous
 62
     2
100
AcDbLine
 10
-420.5137835827773
 20
-253.0968734534574
 30
0.0
 11
-415.5137835827763
 21
-253.0968734534574
 31
0.0
  0
LINE
  5
1C9
330
71
100
AcDbEntity
  8
1
  6
Continuous
 62
     2
100
AcDbLine
 10
-272.0137835827782
 20
-43.09687345345731
 30
0.0
 11
-272.0137835827782
 21
-52.30556529815863
 31
0.0
  0
LINE
  5
1CA
330
71
100
AcDbEntity
  8
1
  6
Continuous
 62
     2
100
AcDbLine
 10
-272.0137835827782
 20
-43.09687345345731
 30
0.0
 11
-420.5137835827773
 21
-43.09687345345731
 31
0.0
  0
LINE
  5
1CB
330
71
100
AcDbEntity
  8
1
  6
Continuous
 62
     2
100
AcDbLine
 10
-123.5137835827792
 20
-248.0968734534573
 30
0.0
 11
-123.5137835827792
 21
-198.0968734534572
 31
0.0
  0
LINE
  5
1CC
330
71
100
AcDbEntity
  8
1
  6
Continuous
 62
     2
100
AcDbLine
 10
-123.5137835827792
 20
-98.0968734534573
 30
0.0
 11
-123.5137835827792
 21
-43.09687345345731
 31
0.0
  0
LINE
  5
1CD
330
71
100
AcDbEntity
  8
1
  6
Continuous
 62
     6
100
AcDbLine
 10
-128.513783582779
 20
-98.0968734534573
 30
0.0
 11
-128.5137835827792
 21
-63.09687345345731
 31
0.0
  0
LINE
  5
1CE
330
71
100
AcDbEntity
  8
1
  6
Continuous
 62
     2
100
AcDbLine
 10
-128.513783582779
 20
-98.0968734534573
 30
0.0
 11
-123.5137835827792
 21
-98.0968734534573
 31
0.0
  0
LINE
  5
1CF
330
71
100
AcDbEntity
  8
1
  6
Continuous
 62
     2
100
AcDbLine
 10
-123.5137835827792
 20
-148.0968734534574
 30
0.0
 11
-123.5137835827792
 21
-98.0968734534573
 31
0.0
  0
LINE
  5
1D0
330
71
100
AcDbEntity
  8
1
  6
Continuous
 62
     6
100
AcDbLine
 10
-128.5137835827778
 20
-148.0968734534574
 30
0.0
 11
-128.513783582779
 21
-98.0968734534573
 31
0.0
  0
LINE
  5
1D1
330
71
100
AcDbEntity
  8
1
  6
Continuous
 62
     2
100
AcDbLine
 10
-128.5137835827778
 20
-148.0968734534574
 30
0.0
 11
-123.5137835827792
 21
-148.0968734534574
 31
0.0
  0
LINE
  5
1D2
330
71
100
AcDbEntity
  8
1
  6
Continuous
 62
     2
100
AcDbLine
 10
-123.5137835827792
 20
-198.0968734534572
 30
0.0
 11
-123.5137835827792
 21
-148.0968734534574
 31
0.0
  0
LINE
  5
1D3
330
71
100
AcDbEntity
  8
1
  6
Continuous
 62
     6
100
AcDbLine
 10
-128.5137835827773
 20
-198.0968734534572
 30
0.0
 11
-128.5137835827778
 21
-148.0968734534574
 31
0.0
  0
LINE
  5
1D4
330
71
100
AcDbEntity
  8
1
  6
Continuous
 62
     2
100
AcDbLine
 10
-128.5137835827773
 20
-198.0968734534572
 30
0.0
 11
-123.5137835827792
 21
-198.0968734534572
 31
0.0
  0
LINE
  5
1D5
330
71
100
AcDbEntity
  8
1
  6
Continuous
 62
     6
100
AcDbLine
 10
-128.5137835827792
 20
-63.09687345345731
 30
0.0
 11
-415.5137835827773
 21
-63.09687345345731
 31
0.0
  0
LINE
  5
1D6
330
71
100
AcDbEntity
  8
1
  6
Continuous
 62
     2
100
AcDbLine
 10
-123.5137835827792
 20
-43.09687345345731
 30
0.0
 11
-272.0137835827782
 21
-43.09687345345731
 31
0.0
  0
LINE
  5
1D7
330
71
100
AcDbEntity
  8
1
  6
Continuous
 62
     6
100
AcDbLine
 10
-128.5137835827765
 20
-231.0968734534573
 30
0.0
 11
-128.5137835827773
 21
-198.0968734534572
 31
0.0
  0
LINE
  5
1D8
330
71
100
AcDbEntity
  8
1
  6
Continuous
 62
     2
100
AcDbLine
 10
-128.5137835827782
 20
-253.0968734534574
 30
0.0
 11
-172.0137835827783
 21
-253.0968734534574
 31
0.0
  0
LINE
  5
1D9
330
71
100
AcDbEntity
  8
1
  6
Continuous
 62
     2
100
AcDbLine
 10
-123.5137835827792
 20
-253.0968734534574
 30
0.0
 11
-128.5137835827782
 21
-253.0968734534574
 31
0.0
  0
LINE
  5
1DA
330
71
100
AcDbEntity
  8
1
  6
Continuous
 62
     2
100
AcDbLine
 10
-123.5137835827792
 20
-253.0968734534574
 30
0.0
 11
-123.5137835827792
 21
-248.0968734534573
 31
0.0
  0
LINE
  5
1DB
330
71
100
AcDbEntity
  8
1
  6
Continuous
 62
     6
100
AcDbLine
 10
-258.0585881095283
 20
-231.0968734534573
 30
0.0
 11
-221.6585881095283
 21
-231.0968734534573
 31
0.0
  0
LINE
  5
1DC
330
71
100
AcDbEntity
  8
1
  6
Continuous
 62
     2
100
AcDbLine
 10
-128.5137835827782
 20
-248.0968734534573
 30
0.0
 11
-128.5137835827782
 21
-253.0968734534574
 31
0.0
  0
LINE
  5
1DD
330
71
100
AcDbEntity
  8
1
  6
Continuous
 62
     2
100
AcDbLine
 10
-128.5137835827782
 20
-248.0968734534573
 30
0.0
 11
-123.5137835827792
 21
-248.0968734534573
 31
0.0
  0
LINE
  5
1DE
330
71
100
AcDbEntity
  8
1
  6
Continuous
 62
     6
100
AcDbLine
 10
-222.0137835827783
 20
-248.0968734534573
 30
0.0
 11
-239.8585881095282
 21
-248.0968734534573
 31
0.0
  0
LINE
  5
1DF
330
71
100
AcDbEntity
  8
1
  6
Continuous
 62
     6
100
AcDbLine
 10
-172.0137835827783
 20
-248.0968734534573
 30
0.0
 11
-128.5137835827782
 21
-248.0968734534573
 31
0.0
  0
LINE
  5
1E0
330
71
100
AcDbEntity
  8
1
  6
Continuous
 62
     6
100
AcDbLine
 10
-322.0137835827784
 20
-248.0968734534573
 30
0.0
 11
-327.0585881095282
 21
-248.0968734534573
 31
0.0
  0
LINE
  5
1E1
330
71
100
AcDbEntity
  8
1
  6
Continuous
 62
     6
100
AcDbLine
 10
-272.0137835827782
 20
-248.0968734534573
 30
0.0
 11
-258.0585881095283
 21
-248.0968734534574
 31
0.0
  0
LINE
  5
1E2
102
{ACAD_REACTORS
330
2CC
330
2CD
102
}
330
71
100
AcDbEntity
  8
0
  6
Continuous
 62
     2
100
AcDbLine
 10
-250.5439621673814
 20
-236.0243586972452
 30
0.0
 11
-250.5439621673814
 21
-235.4188234087384
 31
0.0
  0
LINE
  5
1E3
102
{ACAD_REACTORS
330
2CC
330
2CD
102
}
330
71
100
AcDbEntity
  8
0
  6
Continuous
 62
     2
100
AcDbLine
 10
-250.5439621673814
 20
-238.8244933038765
 30
0.0
 11
-250.5439621673814
 21
-238.2426418971814
 31
0.0
  0
LINE
  5
1E4
102
{ACAD_REACTORS
330
2CE
330
2CF
102
}
330
71
100
AcDbEntity
  8
0
  6
Continuous
 62
     2
100
AcDbLine
 10
-227.9144757319022
 20
-238.5348292357535
 30
0.0
 11
-227.9144757319022
 21
-240.803373453441
 31
0.0
  0
LINE
  5
1E5
102
{ACAD_REACTORS
330
2CE
330
2CF
102
}
330
71
100
AcDbEntity
  8
0
  6
Continuous
 62
     2
100
AcDbLine
 10
-229.2955295108898
 20
-237.7495639296304
 30
0.0
 11
-225.9105839922611
 21
-237.7495639296299
 31
0.0
  0
LINE
  5
1E6
102
{ACAD_REACTORS
330
2CE
330
2CF
102
}
330
71
100
AcDbEntity
  8
0
  6
Continuous
 62
     2
100
AcDbLine
 10
-225.9105839922611
 20
-238.5348292357535
 30
0.0
 11
-225.9105839922611
 21
-237.7495639296299
 31
0.0
  0
LINE
  5
1E7
102
{ACAD_REACTORS
330
2CE
330
2CF
102
}
330
71
100
AcDbEntity
  8
0
  6
Continuous
 62
     2
100
AcDbLine
 10
-226.7216830297345
 20
-238.5348292357535
 30
0.0
 11
-225.9105839922611
 21
-238.5348292357535
 31
0.0
  0
LINE
  5
1E8
102
{ACAD_REACTORS
330
2CE
330
2CF
102
}
330
71
100
AcDbEntity
  8
0
  6
Continuous
 62
     2
100
AcDbLine
 10
-226.7216830297345
 20
-240.803373453441
 30
0.0
 11
-226.7216830297345
 21
-238.5348292357535
 31
0.0
  0
LINE
  5
1E9
102
{ACAD_REACTORS
330
2CE
330
2CF
102
}
330
71
100
AcDbEntity
  8
0
  6
Continuous
 62
     2
100
AcDbLine
 10
-227.9144757319022
 20
-240.803373453441
 30
0.0
 11
-226.7216830297345
 21
-240.803373453441
 31
0.0
  0
LINE
  5
1EA
102
{ACAD_REACTORS
330
2C4
330
2C5
102
}
330
71
100
AcDbEntity
  8
0
  6
Continuous
 62
     2
100
AcDbLine
 10
-228.6110666699667
 20
-234.3903734534555
 30
0.0
 11
-230.013790887716
 21
-234.3903734534555
 31
0.0
  0
LINE
  5
1EB
102
{ACAD_REACTORS
330
2C4
330
2C5
102
}
330
71
100
AcDbEntity
  8
0
  6
Continuous
 62
     2
100
AcDbLine
 10
-228.6110666699667
 20
-234.3903734534555
 30
0.0
 11
-228.0098991480749
 21
-235.070196775011
 31
0.0
  0
LINE
  5
1EC
102
{ACAD_REACTORS
330
2C4
330
2C5
102
}
330
71
100
AcDbEntity
  8
0
  6
Continuous
 62
     2
100
AcDbLine
 10
-228.0098991480749
 20
-235.070196775011
 30
0.0
 11
-227.4087316261822
 21
-234.3903734534555
 31
0.0
  0
LINE
  5
1ED
102
{ACAD_REACTORS
330
2C4
330
2C5
102
}
330
71
100
AcDbEntity
  8
0
  6
Continuous
 62
     2
100
AcDbLine
 10
-227.3085370392014
 20
-235.8633239834917
 30
0.0
 11
-226.0060074084349
 21
-234.3903734534555
 31
0.0
  0
LINE
  5
1EE
102
{ACAD_REACTORS
330
2C4
330
2C5
102
}
330
71
100
AcDbEntity
  8
0
  6
Continuous
 62
     2
100
AcDbLine
 10
-227.3085370392014
 20
-235.8633239834917
 30
0.0
 11
-225.9105839922611
 21
-237.4441829772667
 31
0.0
  0
LINE
  5
1EF
102
{ACAD_REACTORS
330
2C4
330
2C5
102
}
330
71
100
AcDbEntity
  8
0
  6
Continuous
 62
     2
100
AcDbLine
 10
-227.3133082100094
 20
-237.4441829772667
 30
0.0
 11
-225.9105839922611
 21
-237.4441829772667
 31
0.0
  0
LINE
  5
1F0
102
{ACAD_REACTORS
330
2C4
330
2C5
102
}
330
71
100
AcDbEntity
  8
0
  6
Continuous
 62
     2
100
AcDbLine
 10
-228.0098991480749
 20
-236.656451191973
 30
0.0
 11
-227.3133082100094
 21
-237.4441829772667
 31
0.0
  0
LINE
  5
1F1
102
{ACAD_REACTORS
330
2C2
330
2C3
102
}
330
71
100
AcDbEntity
  8
0
  6
Continuous
 62
     2
100
AcDbLine
 10
-231.4689979843586
 20
-234.3903734534555
 30
0.0
 11
-230.2284935741057
 21
-234.3903734534555
 31
0.0
  0
LINE
  5
1F2
102
{ACAD_REACTORS
330
2C2
330
2C3
102
}
330
71
100
AcDbEntity
  8
0
  6
Continuous
 62
     2
100
AcDbLine
 10
-230.2284935741057
 20
-234.3903734534555
 30
0.0
 11
-230.2284935741057
 21
-237.4441829772667
 31
0.0
  0
LINE
  5
1F3
102
{ACAD_REACTORS
330
2C2
330
2C3
102
}
330
71
100
AcDbEntity
  8
0
  6
Continuous
 62
     2
100
AcDbLine
 10
-231.4689979843586
 20
-237.4441829772667
 30
0.0
 11
-231.4689979843586
 21
-234.3903734534555
 31
0.0
  0
LINE
  5
1F4
102
{ACAD_REACTORS
330
2C0
330
2C1
102
}
330
71
100
AcDbEntity
  8
0
  6
Continuous
 62
     2
100
AcDbLine
 10
-232.9373080668962
 20
-239.5818496439165
 30
0.0
 11
-232.6371428297038
 21
-238.8140346779298
 31
0.0
  0
LINE
  5
1F5
102
{ACAD_REACTORS
330
2C0
330
2C1
102
}
330
71
100
AcDbEntity
  8
0
  6
Continuous
 62
     2
100
AcDbLine
 10
-233.4148436715171
 20
-240.803373453441
 30
0.0
 11
-233.2033636180412
 21
-240.2624129092231
 31
0.0
  0
LINE
  5
1F6
102
{ACAD_REACTORS
330
2C0
330
2C1
102
}
330
71
100
AcDbEntity
  8
0
  6
Continuous
 62
     2
100
AcDbLine
 10
-233.2573950348307
 20
-237.7495639296299
 30
0.0
 11
-234.65534808177
 21
-240.803373453441
 31
0.0
  0
LINE
  5
1F7
102
{ACAD_REACTORS
330
2C0
330
2C1
102
}
330
71
100
AcDbEntity
  8
0
  6
Continuous
 62
     2
100
AcDbLine
 10
-230.6189375776377
 20
-240.803373453441
 30
0.0
 11
-231.8594419878916
 21
-240.803373453441
 31
0.0
  0
LINE
  5
1F8
102
{ACAD_REACTORS
330
2C0
330
2C1
102
}
330
71
100
AcDbEntity
  8
0
  6
Continuous
 62
     2
100
AcDbLine
 10
-233.2033636180412
 20
-240.2624129092231
 30
0.0
 11
-232.0709220413674
 21
-240.2624129092231
 31
0.0
  0
LINE
  5
1F9
102
{ACAD_REACTORS
330
2BE
330
2BF
102
}
330
71
100
AcDbEntity
  8
0
  6
Continuous
 62
     2
100
AcDbLine
 10
-236.8128602209523
 20
-238.5348292357535
 30
0.0
 11
-236.0017611834776
 21
-238.5348292357535
 31
0.0
  0
LINE
  5
1FA
102
{ACAD_REACTORS
330
2BE
330
2BF
102
}
330
71
100
AcDbEntity
  8
0
  6
Continuous
 62
     2
100
AcDbLine
 10
-233.9978694438386
 20
-237.7495639296299
 30
0.0
 11
-236.8128602209523
 21
-237.7495639296299
 31
0.0
  0
LINE
  5
1FB
102
{ACAD_REACTORS
330
2BE
330
2BF
102
}
330
71
100
AcDbEntity
  8
0
  6
Continuous
 62
     2
100
AcDbLine
 10
-233.9978694438386
 20
-238.5348292357535
 30
0.0
 11
-233.9978694438386
 21
-237.7495639296299
 31
0.0
  0
LINE
  5
1FC
102
{ACAD_REACTORS
330
2BE
330
2BF
102
}
330
71
100
AcDbEntity
  8
0
  6
Continuous
 62
     2
100
AcDbLine
 10
-234.8089684813111
 20
-238.5348292357535
 30
0.0
 11
-233.9978694438386
 21
-238.5348292357535
 31
0.0
  0
LINE
  5
1FD
102
{ACAD_REACTORS
330
2BE
330
2BF
102
}
330
71
100
AcDbEntity
  8
0
  6
Continuous
 62
     2
100
AcDbLine
 10
-234.8089684813111
 20
-240.803373453441
 30
0.0
 11
-234.8089684813111
 21
-238.5348292357535
 31
0.0
  0
LINE
  5
1FE
102
{ACAD_REACTORS
330
2BC
330
2BD
102
}
330
71
100
AcDbEntity
  8
0
  6
Continuous
 62
     2
100
AcDbLine
 10
-234.1408536372131
 20
-237.4441829772667
 30
0.0
 11
-234.1408536372131
 21
-236.135407467062
 31
0.0
  0
LINE
  5
1FF
102
{ACAD_REACTORS
330
2BC
330
2BD
102
}
330
71
100
AcDbEntity
  8
0
  6
Continuous
 62
     2
100
AcDbLine
 10
-235.3336463393796
 20
-234.3903734534555
 30
0.0
 11
-235.3336463393796
 21
-237.4441829772667
 31
0.0
  0
LINE
  5
200
102
{ACAD_REACTORS
330
2BC
330
2BD
102
}
330
71
100
AcDbEntity
  8
0
  6
Continuous
 62
     2
100
AcDbLine
 10
-234.1408536372131
 20
-234.3903734534555
 30
0.0
 11
-235.3336463393796
 21
-234.3903734534555
 31
0.0
  0
LINE
  5
201
102
{ACAD_REACTORS
330
2BC
330
2BD
102
}
330
71
100
AcDbEntity
  8
0
  6
Continuous
 62
     2
100
AcDbLine
 10
-232.9003492269591
 20
-234.3903734534555
 30
0.0
 11
-232.9003492269591
 21
-235.6991489636607
 31
0.0
  0
LINE
  5
202
102
{ACAD_REACTORS
330
2BA
330
2BB
102
}
330
71
100
AcDbEntity
  8
0
  6
Continuous
 62
     2
100
AcDbLine
 10
-240.5820851597993
 20
-237.7495639296299
 30
0.0
 11
-240.5820851597993
 21
-240.803373453441
 31
0.0
  0
LINE
  5
203
102
{ACAD_REACTORS
330
2BA
330
2BB
102
}
330
71
100
AcDbEntity
  8
0
  6
Continuous
 62
     2
100
AcDbLine
 10
-239.3892924576317
 20
-237.7495639296299
 30
0.0
 11
-240.5820851597993
 21
-237.7495639296299
 31
0.0
  0
LINE
  5
204
102
{ACAD_REACTORS
330
2BA
330
2BB
102
}
330
71
100
AcDbEntity
  8
0
  6
Continuous
 62
     2
100
AcDbLine
 10
-238.1487880473788
 20
-240.803373453441
 30
0.0
 11
-236.9559953452124
 21
-240.803373453441
 31
0.0
  0
LINE
  5
205
102
{ACAD_REACTORS
330
2BA
330
2BB
102
}
330
71
100
AcDbEntity
  8
0
  6
Continuous
 62
     2
100
AcDbLine
 10
-240.5820851597993
 20
-240.803373453441
 30
0.0
 11
-239.3892924576317
 21
-240.803373453441
 31
0.0
  0
LINE
  5
206
102
{ACAD_REACTORS
330
2CA
330
2CB
102
}
330
71
100
AcDbEntity
  8
0
  6
Continuous
 62
     2
100
AcDbLine
 10
-236.9081327062402
 20
-235.5682714126402
 30
0.0
 11
-236.9081327062402
 21
-235.0883870588985
 31
0.0
  0
LINE
  5
207
102
{ACAD_REACTORS
330
2CA
330
2CB
102
}
330
71
100
AcDbEntity
  8
0
  6
Continuous
 62
     2
100
AcDbLine
 10
-235.5722048798126
 20
-235.5682714126402
 30
0.0
 11
-236.9081327062402
 21
-235.5682714126402
 31
0.0
  0
LINE
  5
208
102
{ACAD_REACTORS
330
2CA
330
2CB
102
}
330
71
100
AcDbEntity
  8
0
  6
Continuous
 62
     2
100
AcDbLine
 10
-235.5722048798126
 20
-236.2662850180825
 30
0.0
 11
-235.5722048798126
 21
-235.5682714126402
 31
0.0
  0
LINE
  5
209
102
{ACAD_REACTORS
330
2CA
330
2CB
102
}
330
71
100
AcDbEntity
  8
0
  6
Continuous
 62
     2
100
AcDbLine
 10
-236.9081327062402
 20
-236.2662850180825
 30
0.0
 11
-235.5722048798126
 21
-236.2662850180825
 31
0.0
  0
LINE
  5
20A
102
{ACAD_REACTORS
330
2B8
330
2B9
102
}
330
71
100
AcDbEntity
  8
0
  6
Continuous
 62
     2
100
AcDbLine
 10
-240.3910873965671
 20
-234.3903734534555
 30
0.0
 11
-240.3910873965671
 21
-237.4441829772667
 31
0.0
  0
LINE
  5
20B
102
{ACAD_REACTORS
330
2B8
330
2B9
102
}
330
71
100
AcDbEntity
  8
0
  6
Continuous
 62
     2
100
AcDbLine
 10
-240.3910873965671
 20
-237.4441829772667
 30
0.0
 11
-241.5838800987335
 21
-237.4441829772667
 31
0.0
  0
LINE
  5
20C
102
{ACAD_REACTORS
330
2B8
330
2B9
102
}
330
71
100
AcDbEntity
  8
0
  6
Continuous
 62
     2
100
AcDbLine
 10
-241.5838800987335
 20
-237.4441829772667
 30
0.0
 11
-241.5838800987335
 21
-236.3099108684229
 31
0.0
  0
LINE
  5
20D
102
{ACAD_REACTORS
330
2B8
330
2B9
102
}
330
71
100
AcDbEntity
  8
0
  6
Continuous
 62
     2
100
AcDbLine
 10
-242.633537676641
 20
-237.4441829772667
 30
0.0
 11
-243.8263303788076
 21
-237.4441829772667
 31
0.0
  0
LINE
  5
20E
102
{ACAD_REACTORS
330
2B8
330
2B9
102
}
330
71
100
AcDbEntity
  8
0
  6
Continuous
 62
     2
100
AcDbLine
 10
-243.8263303788076
 20
-234.3903734534555
 30
0.0
 11
-242.633537676641
 21
-234.3903734534555
 31
0.0
  0
LINE
  5
20F
102
{ACAD_REACTORS
330
2B8
330
2B9
102
}
330
71
100
AcDbEntity
  8
0
  6
Continuous
 62
     2
100
AcDbLine
 10
-242.633537676641
 20
-234.3903734534555
 30
0.0
 11
-242.633537676641
 21
-235.4592067867901
 31
0.0
  0
LINE
  5
210
102
{ACAD_REACTORS
330
2B8
330
2B9
102
}
330
71
100
AcDbEntity
  8
0
  6
Continuous
 62
     2
100
AcDbLine
 10
-242.633537676641
 20
-235.4592067867901
 30
0.0
 11
-241.5838800987335
 21
-235.4592067867901
 31
0.0
  0
LINE
  5
211
102
{ACAD_REACTORS
330
2C6
330
2C7
102
}
330
71
100
AcDbEntity
  8
0
  6
Continuous
 62
     2
100
AcDbLine
 10
-245.7825104103612
 20
-235.0534792988956
 30
0.0
 11
-245.4652153488193
 21
-235.0534792988956
 31
0.0
  0
LINE
  5
212
102
{ACAD_REACTORS
330
2C6
330
2C7
102
}
330
71
100
AcDbEntity
  8
0
  6
Continuous
 62
     2
100
AcDbLine
 10
-245.7825104103612
 20
-235.7592069482378
 30
0.0
 11
-245.4652153488193
 21
-235.7592069482378
 31
0.0
  0
LINE
  5
213
102
{ACAD_REACTORS
330
2C6
330
2C7
102
}
330
71
100
AcDbEntity
  8
0
  6
Continuous
 62
     2
100
AcDbLine
 10
-247.0230148206153
 20
-234.3903734534555
 30
0.0
 11
-247.0230148206153
 21
-237.4441829772667
 31
0.0
  0
LINE
  5
214
102
{ACAD_REACTORS
330
2C6
330
2C7
102
}
330
71
100
AcDbEntity
  8
0
  6
Continuous
 62
     2
100
AcDbLine
 10
-247.0230148206153
 20
-234.3903734534555
 30
0.0
 11
-245.0237428225809
 21
-234.3903734534555
 31
0.0
  0
LINE
  5
215
102
{ACAD_REACTORS
330
2C6
330
2C7
102
}
330
71
100
AcDbEntity
  8
0
  6
Continuous
 62
     2
100
AcDbLine
 10
-245.7825104103612
 20
-236.5011047361229
 30
0.0
 11
-245.0237428225809
 21
-236.5011047361229
 31
0.0
  0
LINE
  5
216
102
{ACAD_REACTORS
330
2CC
330
2CD
102
}
330
71
100
AcDbEntity
  8
0
  6
Continuous
 62
     2
100
AcDbLine
 10
-253.119510853912
 20
-235.4186459320903
 30
0.0
 11
-253.119510853912
 21
-239.7751009748074
 31
0.0
  0
LINE
  5
217
102
{ACAD_REACTORS
330
2CC
330
2CD
102
}
330
71
100
AcDbEntity
  8
0
  6
Continuous
 62
     2
100
AcDbLine
 10
-252.8037939308364
 20
-235.1029290090141
 30
0.0
 11
-251.3279606698267
 21
-235.1029290090141
 31
0.0
  0
LINE
  5
218
102
{ACAD_REACTORS
330
2CC
330
2CD
102
}
330
71
100
AcDbEntity
  8
0
  6
Continuous
 62
     2
100
AcDbLine
 10
-251.0122437467501
 20
-236.0226705511508
 30
0.0
 11
-251.0122437467501
 21
-235.4186459320903
 31
0.0
  0
LINE
  5
219
102
{ACAD_REACTORS
330
2CC
330
2CD
102
}
330
71
100
AcDbEntity
  8
0
  6
Continuous
 62
     2
100
AcDbLine
 10
-251.0122437467501
 20
-239.7751009748074
 30
0.0
 11
-251.0122437467501
 21
-238.2443300432758
 31
0.0
  0
LINE
  5
21A
102
{ACAD_REACTORS
330
2CC
330
2CD
102
}
330
71
100
AcDbEntity
  8
0
  6
Continuous
 62
     2
100
AcDbLine
 10
-247.924376516866
 20
-240.803373453441
 30
0.0
 11
-253.3976886075828
 21
-240.803373453441
 31
0.0
  0
LINE
  5
21B
102
{ACAD_REACTORS
330
2CC
330
2CD
102
}
330
71
100
AcDbEntity
  8
0
  6
Continuous
 62
     2
100
AcDbLine
 10
-247.5001319014822
 20
-234.8146180688575
 30
0.0
 11
-247.5001319014822
 21
-240.3791288380577
 31
0.0
  0
LINE
  5
21C
102
{ACAD_REACTORS
330
2CC
330
2CD
102
}
330
71
100
AcDbEntity
  8
0
  6
Continuous
 62
     2
100
AcDbLine
 10
-253.3976886075828
 20
-234.3903734534737
 30
0.0
 11
-247.924376516866
 21
-234.3903734534737
 31
0.0
  0
LINE
  5
21D
102
{ACAD_REACTORS
330
2CC
330
2CD
102
}
330
71
100
AcDbEntity
  8
0
  6
Continuous
 62
     2
100
AcDbLine
 10
-253.8219332229656
 20
-234.8146180688575
 30
0.0
 11
-253.8219332229656
 21
-240.3791288380577
 31
0.0
  0
LINE
  5
21E
102
{ACAD_REACTORS
330
2CC
330
2CD
102
}
330
71
100
AcDbEntity
  8
0
  6
Continuous
 62
     2
100
AcDbLine
 10
-251.3279606698267
 20
-240.0908178978841
 30
0.0
 11
-252.8037939308364
 21
-240.0908178978841
 31
0.0
  0
LINE
  5
21F
102
{ACAD_REACTORS
330
2C6
330
2C7
102
}
330
71
100
AcDbEntity
  8
0
  6
Continuous
 62
     2
100
AcDbLine
 10
-245.7825104103612
 20
-237.4441829772667
 30
0.0
 11
-245.7825104103612
 21
-236.5011047361229
 31
0.0
  0
LINE
  5
220
102
{ACAD_REACTORS
330
2C6
330
2C7
102
}
330
71
100
AcDbEntity
  8
0
  6
Continuous
 62
     2
100
AcDbLine
 10
-247.0230148206153
 20
-237.4441829772667
 30
0.0
 11
-245.7825104103612
 21
-237.4441829772667
 31
0.0
  0
LINE
  5
221
102
{ACAD_REACTORS
330
2C6
330
2C7
102
}
330
71
100
AcDbEntity
  8
0
  6
Continuous
 62
     2
100
AcDbLine
 10
-245.7825104103612
 20
-235.7592069482378
 30
0.0
 11
-245.7825104103612
 21
-235.0534792988956
 31
0.0
  0
LINE
  5
222
102
{ACAD_REACTORS
330
2B8
330
2B9
102
}
330
71
100
AcDbEntity
  8
0
  6
Continuous
 62
     2
100
AcDbLine
 10
-243.8263303788076
 20
-234.3903734534555
 30
0.0
 11
-243.8263303788076
 21
-237.4441829772667
 31
0.0
  0
LINE
  5
223
102
{ACAD_REACTORS
330
2B8
330
2B9
102
}
330
71
100
AcDbEntity
  8
0
  6
Continuous
 62
     2
100
AcDbLine
 10
-242.633537676641
 20
-236.3099108684229
 30
0.0
 11
-242.633537676641
 21
-237.4441829772667
 31
0.0
  0
LINE
  5
224
102
{ACAD_REACTORS
330
2B8
330
2B9
102
}
330
71
100
AcDbEntity
  8
0
  6
Continuous
 62
     2
100
AcDbLine
 10
-241.5838800987335
 20
-236.3099108684229
 30
0.0
 11
-242.633537676641
 21
-236.3099108684229
 31
0.0
  0
LINE
  5
225
102
{ACAD_REACTORS
330
2B8
330
2B9
102
}
330
71
100
AcDbEntity
  8
0
  6
Continuous
 62
     2
100
AcDbLine
 10
-241.5838800987335
 20
-234.3903734534555
 30
0.0
 11
-240.3910873965671
 21
-234.3903734534555
 31
0.0
  0
LINE
  5
226
102
{ACAD_REACTORS
330
2B8
330
2B9
102
}
330
71
100
AcDbEntity
  8
0
  6
Continuous
 62
     2
100
AcDbLine
 10
-241.5838800987335
 20
-235.4592067867901
 30
0.0
 11
-241.5838800987335
 21
-234.3903734534555
 31
0.0
  0
LINE
  5
227
102
{ACAD_REACTORS
330
2CA
330
2CB
102
}
330
71
100
AcDbEntity
  8
0
  6
Continuous
 62
     2
100
AcDbLine
 10
-235.5722048798126
 20
-235.0883870588985
 30
0.0
 11
-235.5722048798126
 21
-234.3903734534555
 31
0.0
  0
LINE
  5
228
102
{ACAD_REACTORS
330
2CA
330
2CB
102
}
330
71
100
AcDbEntity
  8
0
  6
Continuous
 62
     2
100
AcDbLine
 10
-238.7225246035935
 20
-234.3903734534555
 30
0.0
 11
-235.5722048798126
 21
-234.3903734534555
 31
0.0
  0
LINE
  5
229
102
{ACAD_REACTORS
330
2CA
330
2CB
102
}
330
71
100
AcDbEntity
  8
0
  6
Continuous
 62
     2
100
AcDbLine
 10
-238.7225246035935
 20
-237.4441829772667
 30
0.0
 11
-235.5722048798126
 21
-237.4441829772667
 31
0.0
  0
LINE
  5
22A
102
{ACAD_REACTORS
330
2CA
330
2CB
102
}
330
71
100
AcDbEntity
  8
0
  6
Continuous
 62
     2
100
AcDbLine
 10
-235.5722048798126
 20
-237.4441829772667
 30
0.0
 11
-235.5722048798126
 21
-236.7461693718242
 31
0.0
  0
LINE
  5
22B
102
{ACAD_REACTORS
330
2CA
330
2CB
102
}
330
71
100
AcDbEntity
  8
0
  6
Continuous
 62
     2
100
AcDbLine
 10
-235.5722048798126
 20
-236.7461693718242
 30
0.0
 11
-236.9081327062402
 21
-236.7461693718242
 31
0.0
  0
LINE
  5
22C
102
{ACAD_REACTORS
330
2CA
330
2CB
102
}
330
71
100
AcDbEntity
  8
0
  6
Continuous
 62
     2
100
AcDbLine
 10
-236.9081327062402
 20
-236.7461693718242
 30
0.0
 11
-236.9081327062402
 21
-236.2662850180825
 31
0.0
  0
LINE
  5
22D
102
{ACAD_REACTORS
330
2CA
330
2CB
102
}
330
71
100
AcDbEntity
  8
0
  6
Continuous
 62
     2
100
AcDbLine
 10
-236.9081327062402
 20
-235.0883870588985
 30
0.0
 11
-235.5722048798126
 21
-235.0883870588985
 31
0.0
  0
LINE
  5
22E
102
{ACAD_REACTORS
330
2BA
330
2BB
102
}
330
71
100
AcDbEntity
  8
0
  6
Continuous
 62
     2
100
AcDbLine
 10
-239.3892924576317
 20
-240.803373453441
 30
0.0
 11
-239.3892924576317
 21
-239.4945979432364
 31
0.0
  0
LINE
  5
22F
102
{ACAD_REACTORS
330
2BA
330
2BB
102
}
330
71
100
AcDbEntity
  8
0
  6
Continuous
 62
     2
100
AcDbLine
 10
-239.3892924576317
 20
-239.4945979432364
 30
0.0
 11
-238.1487880473788
 21
-240.803373453441
 31
0.0
  0
LINE
  5
230
102
{ACAD_REACTORS
330
2BA
330
2BB
102
}
330
71
100
AcDbEntity
  8
0
  6
Continuous
 62
     2
100
AcDbLine
 10
-236.9559953452124
 20
-240.803373453441
 30
0.0
 11
-236.9559953452124
 21
-237.7495639296299
 31
0.0
  0
LINE
  5
231
102
{ACAD_REACTORS
330
2BA
330
2BB
102
}
330
71
100
AcDbEntity
  8
0
  6
Continuous
 62
     2
100
AcDbLine
 10
-236.9559953452124
 20
-237.7495639296299
 30
0.0
 11
-238.1487880473788
 21
-237.7495639296299
 31
0.0
  0
LINE
  5
232
102
{ACAD_REACTORS
330
2BA
330
2BB
102
}
330
71
100
AcDbEntity
  8
0
  6
Continuous
 62
     2
100
AcDbLine
 10
-238.1487880473788
 20
-237.7495639296299
 30
0.0
 11
-238.1487880473788
 21
-239.058339439835
 31
0.0
  0
LINE
  5
233
102
{ACAD_REACTORS
330
2BA
330
2BB
102
}
330
71
100
AcDbEntity
  8
0
  6
Continuous
 62
     2
100
AcDbLine
 10
-238.1487880473788
 20
-239.058339439835
 30
0.0
 11
-239.3892924576317
 21
-237.7495639296299
 31
0.0
  0
LINE
  5
234
102
{ACAD_REACTORS
330
2BC
330
2BD
102
}
330
71
100
AcDbEntity
  8
0
  6
Continuous
 62
     2
100
AcDbLine
 10
-234.1408536372131
 20
-236.135407467062
 30
0.0
 11
-232.9003492269591
 21
-237.4441829772667
 31
0.0
  0
LINE
  5
235
102
{ACAD_REACTORS
330
2BC
330
2BD
102
}
330
71
100
AcDbEntity
  8
0
  6
Continuous
 62
     2
100
AcDbLine
 10
-232.9003492269591
 20
-237.4441829772667
 30
0.0
 11
-231.7075565247925
 21
-237.4441829772667
 31
0.0
  0
LINE
  5
236
102
{ACAD_REACTORS
330
2BC
330
2BD
102
}
330
71
100
AcDbEntity
  8
0
  6
Continuous
 62
     2
100
AcDbLine
 10
-231.7075565247925
 20
-237.4441829772667
 30
0.0
 11
-231.7075565247925
 21
-234.3903734534555
 31
0.0
  0
LINE
  5
237
102
{ACAD_REACTORS
330
2BC
330
2BD
102
}
330
71
100
AcDbEntity
  8
0
  6
Continuous
 62
     2
100
AcDbLine
 10
-231.7075565247925
 20
-234.3903734534555
 30
0.0
 11
-232.9003492269591
 21
-234.3903734534555
 31
0.0
  0
LINE
  5
238
102
{ACAD_REACTORS
330
2BC
330
2BD
102
}
330
71
100
AcDbEntity
  8
0
  6
Continuous
 62
     2
100
AcDbLine
 10
-232.9003492269591
 20
-235.6991489636607
 30
0.0
 11
-234.1408536372131
 21
-234.3903734534555
 31
0.0
  0
LINE
  5
239
102
{ACAD_REACTORS
330
2BC
330
2BD
102
}
330
71
100
AcDbEntity
  8
0
  6
Continuous
 62
     2
100
AcDbLine
 10
-235.3336463393796
 20
-237.4441829772667
 30
0.0
 11
-234.1408536372131
 21
-237.4441829772667
 31
0.0
  0
LINE
  5
23A
102
{ACAD_REACTORS
330
2BE
330
2BF
102
}
330
71
100
AcDbEntity
  8
0
  6
Continuous
 62
     2
100
AcDbLine
 10
-236.8128602209523
 20
-237.7495639296299
 30
0.0
 11
-236.8128602209523
 21
-238.5348292357535
 31
0.0
  0
LINE
  5
23B
102
{ACAD_REACTORS
330
2BE
330
2BF
102
}
330
71
100
AcDbEntity
  8
0
  6
Continuous
 62
     2
100
AcDbLine
 10
-236.0017611834776
 20
-238.5348292357535
 30
0.0
 11
-236.0017611834776
 21
-240.803373453441
 31
0.0
  0
LINE
  5
23C
102
{ACAD_REACTORS
330
2BE
330
2BF
102
}
330
71
100
AcDbEntity
  8
0
  6
Continuous
 62
     2
100
AcDbLine
 10
-236.0017611834776
 20
-240.803373453441
 30
0.0
 11
-234.8089684813111
 21
-240.803373453441
 31
0.0
  0
LINE
  5
23D
102
{ACAD_REACTORS
330
2C0
330
2C1
102
}
330
71
100
AcDbEntity
  8
0
  6
Continuous
 62
     2
100
AcDbLine
 10
-231.8594419878916
 20
-240.803373453441
 30
0.0
 11
-232.0709220413674
 21
-240.2624129092231
 31
0.0
  0
LINE
  5
23E
102
{ACAD_REACTORS
330
2C0
330
2C1
102
}
330
71
100
AcDbEntity
  8
0
  6
Continuous
 62
     2
100
AcDbLine
 10
-232.016890624578
 20
-237.7495639296299
 30
0.0
 11
-230.6189375776377
 21
-240.803373453441
 31
0.0
  0
LINE
  5
23F
102
{ACAD_REACTORS
330
2C0
330
2C1
102
}
330
71
100
AcDbEntity
  8
0
  6
Continuous
 62
     2
100
AcDbLine
 10
-233.2573950348307
 20
-237.7495639296299
 30
0.0
 11
-232.016890624578
 21
-237.7495639296299
 31
0.0
  0
LINE
  5
240
102
{ACAD_REACTORS
330
2C0
330
2C1
102
}
330
71
100
AcDbEntity
  8
0
  6
Continuous
 62
     2
100
AcDbLine
 10
-234.65534808177
 20
-240.803373453441
 30
0.0
 11
-233.4148436715171
 21
-240.803373453441
 31
0.0
  0
LINE
  5
241
102
{ACAD_REACTORS
330
2C0
330
2C1
102
}
330
71
100
AcDbEntity
  8
0
  6
Continuous
 62
     2
100
AcDbLine
 10
-232.9373080668962
 20
-239.5818496439165
 30
0.0
 11
-232.3369775925137
 21
-239.5818496439165
 31
0.0
  0
LINE
  5
242
102
{ACAD_REACTORS
330
2C0
330
2C1
102
}
330
71
100
AcDbEntity
  8
0
  6
Continuous
 62
     2
100
AcDbLine
 10
-232.3369775925137
 20
-239.5818496439165
 30
0.0
 11
-232.6371428297038
 21
-238.8140346779298
 31
0.0
  0
LINE
  5
243
102
{ACAD_REACTORS
330
2C2
330
2C3
102
}
330
71
100
AcDbEntity
  8
0
  6
Continuous
 62
     2
100
AcDbLine
 10
-230.2284935741057
 20
-237.4441829772667
 30
0.0
 11
-231.4689979843586
 21
-237.4441829772667
 31
0.0
  0
LINE
  5
244
102
{ACAD_REACTORS
330
2C4
330
2C5
102
}
330
71
100
AcDbEntity
  8
0
  6
Continuous
 62
     2
100
AcDbLine
 10
-228.7064900861406
 20
-237.4441829772667
 30
0.0
 11
-230.1092143038889
 21
-237.4441829772667
 31
0.0
  0
LINE
  5
245
102
{ACAD_REACTORS
330
2C4
330
2C5
102
}
330
71
100
AcDbEntity
  8
0
  6
Continuous
 62
     2
100
AcDbLine
 10
-228.7064900861406
 20
-237.4441829772667
 30
0.0
 11
-228.0098991480749
 21
-236.656451191973
 31
0.0
  0
LINE
  5
246
102
{ACAD_REACTORS
330
2C4
330
2C5
102
}
330
71
100
AcDbEntity
  8
0
  6
Continuous
 62
     2
100
AcDbLine
 10
-227.4087316261822
 20
-234.3903734534555
 30
0.0
 11
-226.0060074084349
 21
-234.3903734534555
 31
0.0
  0
LINE
  5
247
102
{ACAD_REACTORS
330
2C4
330
2C5
102
}
330
71
100
AcDbEntity
  8
0
  6
Continuous
 62
     2
100
AcDbLine
 10
-230.013790887716
 20
-234.3903734534555
 30
0.0
 11
-228.7112612569486
 21
-235.8633239834917
 31
0.0
  0
LINE
  5
248
102
{ACAD_REACTORS
330
2C4
330
2C5
102
}
330
71
100
AcDbEntity
  8
0
  6
Continuous
 62
     2
100
AcDbLine
 10
-230.1092143038889
 20
-237.4441829772667
 30
0.0
 11
-228.7112612569486
 21
-235.8633239834917
 31
0.0
  0
LINE
  5
249
102
{ACAD_REACTORS
330
2CE
330
2CF
102
}
330
71
100
AcDbEntity
  8
0
  6
Continuous
 62
     2
100
AcDbLine
 10
-228.2484576885089
 20
-239.7563530452774
 30
0.0
 11
-228.2484576885089
 21
-240.6288700520807
 31
0.0
  0
LINE
  5
24A
102
{ACAD_REACTORS
330
2CE
330
2CF
102
}
330
71
100
AcDbEntity
  8
0
  6
Continuous
 62
     2
100
AcDbLine
 10
-229.0181150314703
 20
-238.5348292357535
 30
0.0
 11
-227.9144757319022
 21
-238.5348292357535
 31
0.0
  0
LINE
  5
24B
102
{ACAD_REACTORS
330
2D0
330
2D1
102
}
330
71
100
AcDbEntity
  8
0
  6
Continuous
 62
     2
100
AcDbLine
 10
-244.3511591677608
 20
-239.7563530452769
 30
0.0
 11
-244.3511591677608
 21
-240.6288700520801
 31
0.0
  0
LINE
  5
24C
102
{ACAD_REACTORS
330
2D0
330
2D1
102
}
330
71
100
AcDbEntity
  8
0
  6
Continuous
 62
     2
100
AcDbLine
 10
-244.3511591677608
 20
-238.796584337794
 30
0.0
 11
-244.3511591677608
 21
-237.9240673309907
 31
0.0
  0
LINE
  5
24D
330
71
100
AcDbEntity
  8
1
  6
Continuous
 62
     7
100
AcDbLine
 10
-128.5137835827769
 20
-239.5968734534573
 30
0.0
 11
-221.6585881095283
 21
-239.5968734534573
 31
0.0
  0
LINE
  5
24E
330
71
100
AcDbEntity
  8
1
  6
Continuous
 62
     6
100
AcDbLine
 10
-327.0585881095282
 20
-248.0968734534573
 30
0.0
 11
-372.0137835827782
 21
-248.0968734534573
 31
0.0
  0
LINE
  5
24F
330
71
100
AcDbEntity
  8
1
  6
Continuous
 62
     7
100
AcDbLine
 10
-137.4321918644558
 20
-222.5968734534573
 30
0.0
 11
-137.4321918644558
 21
-231.0968734534573
 31
0.0
  0
LINE
  5
250
330
71
100
AcDbEntity
  8
1
  6
Continuous
 62
     7
100
AcDbLine
 10
-163.9321918644554
 20
-222.5968734534573
 30
0.0
 11
-163.9321918644554
 21
-231.0968734534573
 31
0.0
  0
LINE
  5
251
330
71
100
AcDbEntity
  8
1
  6
Continuous
 62
     7
100
AcDbLine
 10
-221.6585881095283
 20
-231.0968734534573
 30
0.0
 11
-221.6585881095283
 21
-222.5968734534573
 31
0.0
  0
LINE
  5
252
330
71
100
AcDbEntity
  8
1
  6
Continuous
 62
     7
100
AcDbLine
 10
-258.0585881095283
 20
-231.0968734534573
 30
0.0
 11
-258.0585881095283
 21
-222.5968734534573
 31
0.0
  0
LINE
  5
253
330
71
100
AcDbEntity
  8
1
  6
Continuous
 62
     6
100
AcDbLine
 10
-221.6585881095283
 20
-231.0968734534573
 30
0.0
 11
-128.5137835827765
 21
-231.0968734534573
 31
0.0
  0
LINE
  5
254
330
71
100
AcDbEntity
  8
1
  6
Continuous
 62
     7
100
AcDbLine
 10
-193.7585881095282
 20
-239.5968734534574
 30
0.0
 11
-193.7585881095282
 21
-231.0968734534573
 31
0.0
  0
LINE
  5
255
330
71
100
AcDbEntity
  8
1
  6
PHANTOM
 62
     2
100
AcDbLine
 10
-242.5719332229656
 20
-226.9718734534574
 30
0.0
 11
-248.0719332229656
 21
-226.9718734534574
 31
0.0
  0
LINE
  5
256
330
71
100
AcDbEntity
  8
1
  6
PHANTOM
 62
     2
100
AcDbLine
 10
-245.3219332229656
 20
-224.2218734534574
 30
0.0
 11
-245.3219332229656
 21
-229.7218734534574
 31
0.0
  0
LINE
  5
257
330
71
100
AcDbEntity
  8
1
  6
DOT_CENTER
 62
     2
100
AcDbLine
 10
-254.0719332229656
 20
-226.9718734534574
 30
0.0
 11
-248.5719332229656
 21
-226.9718734534574
 31
0.0
  0
ARC
  5
258
102
{ACAD_REACTORS
330
2D0
330
2D1
102
}
330
71
100
AcDbEntity
  8
0
  6
Continuous
 62
     2
100
AcDbCircle
 10
-245.6870870848786
 20
-242.5891496367916
 30
0.0
 40
4.852596863498068
100
AcDbArc
 50
74.02000874164739
 51
84.84185523037605
  0
ARC
  5
259
102
{ACAD_REACTORS
330
2D0
330
2D1
102
}
330
71
100
AcDbEntity
  8
0
  6
Continuous
 62
     2
100
AcDbCircle
 10
-245.1110464761249
 20
-239.4333892809073
 30
0.0
 40
0.9059297849853228
100
AcDbArc
 50
71.55192388185917
 51
113.372277888129
  0
ARC
  5
25A
102
{ACAD_REACTORS
330
2D0
330
2D1
102
}
330
71
100
AcDbEntity
  8
0
  6
Continuous
 62
     2
100
AcDbCircle
 10
-245.267486508827
 20
-239.4815401208742
 30
0.0
 40
0.5115800601948034
100
AcDbArc
 50
208.5214732576956
 51
246.6277221118361
  0
ARC
  5
25B
102
{ACAD_REACTORS
330
2D0
330
2D1
102
}
330
71
100
AcDbEntity
  8
0
  6
Continuous
 62
     2
100
AcDbCircle
 10
-245.1110464761249
 20
-239.1195481021642
 30
0.0
 40
0.9059297849849192
100
AcDbArc
 50
246.627722111871
 51
288.4480761181533
  0
ARC
  5
25C
102
{ACAD_REACTORS
330
2D0
330
2D1
102
}
330
71
100
AcDbEntity
  8
0
  6
Continuous
 62
     2
100
AcDbCircle
 10
-245.5292142097857
 20
-237.866002326127
 30
0.0
 40
2.227384008972737
100
AcDbArc
 50
288.4480761181305
 51
301.9309089499589
  0
ARC
  5
25D
102
{ACAD_REACTORS
330
2CC
330
2CD
102
}
330
71
100
AcDbEntity
  8
0
  6
Continuous
 62
     2
100
AcDbCircle
 10
-250.7542879423925
 20
-237.133500297213
 30
0.0
 40
0.911848150144459
100
AcDbArc
 50
295.3740086781764
 51
64.62599132180748
  0
ARC
  5
25E
102
{ACAD_REACTORS
330
2CC
330
2CD
102
}
330
71
100
AcDbEntity
  8
0
  6
Continuous
 62
     2
100
AcDbCircle
 10
-250.2282452443047
 20
-235.4188234087384
 30
0.0
 40
0.3157169230760707
100
AcDbArc
 50
90.18896704253045
 51
180.0
  0
ARC
  5
25F
102
{ACAD_REACTORS
330
2CE
330
2CF
102
}
330
71
100
AcDbEntity
  8
0
  6
Continuous
 62
     2
100
AcDbCircle
 10
-229.0181150314703
 20
-239.4893522425796
 30
0.0
 40
0.9545230068260935
100
AcDbArc
 50
90.0
 51
109.3371432194314
  0
ARC
  5
260
102
{ACAD_REACTORS
330
2CE
330
2CF
102
}
330
71
100
AcDbEntity
  8
0
  6
Continuous
 62
     2
100
AcDbCircle
 10
-228.7874277714926
 20
-239.2764686915357
 30
0.0
 40
0.9410597353349173
100
AcDbArc
 50
151.4785267423633
 51
208.5214732576687
  0
ARC
  5
261
102
{ACAD_REACTORS
330
2CE
330
2CF
102
}
330
71
100
AcDbEntity
  8
0
  6
Continuous
 62
     2
100
AcDbCircle
 10
-229.0083449968709
 20
-239.1195481021642
 30
0.0
 40
0.9059297849852801
100
AcDbArc
 50
246.6277221118183
 51
288.4480761180817
  0
ARC
  5
262
102
{ACAD_REACTORS
330
2CE
330
2CF
102
}
330
71
100
AcDbEntity
  8
0
  6
Continuous
 62
     2
100
AcDbCircle
 10
-229.4265127305328
 20
-237.8660023261276
 30
0.0
 40
2.227384008972746
100
AcDbArc
 50
288.4480761181335
 51
301.9309089499397
  0
ARC
  5
263
102
{ACAD_REACTORS
330
2CE
330
2CF
102
}
330
71
100
AcDbEntity
  8
0
  6
Continuous
 62
     2
100
AcDbCircle
 10
-229.5843856056256
 20
-235.9637877462793
 30
0.0
 40
4.852596863498825
100
AcDbArc
 50
275.1581447696364
 51
285.9799912583387
  0
ARC
  5
264
102
{ACAD_REACTORS
330
2CE
330
2CF
102
}
330
71
100
AcDbEntity
  8
0
  6
Continuous
 62
     2
100
AcDbCircle
 10
-229.2955295108898
 20
-239.1636783295009
 30
0.0
 40
1.639695123940531
100
AcDbArc
 50
195.0618917771004
 51
275.1581447696762
  0
ARC
  5
265
102
{ACAD_REACTORS
330
2C6
330
2C7
102
}
330
71
100
AcDbEntity
  8
0
  6
Continuous
 62
     2
100
AcDbCircle
 10
-245.0237428225809
 20
-235.4457390947892
 30
0.0
 40
1.055365641333708
100
AcDbArc
 50
270.0
 51
90.0
  0
ARC
  5
266
102
{ACAD_REACTORS
330
2CC
330
2CD
102
}
330
71
100
AcDbEntity
  8
0
  6
Continuous
 62
     2
100
AcDbCircle
 10
-252.8037939308364
 20
-239.7751009748074
 30
0.0
 40
0.3157169230755983
100
AcDbArc
 50
180.0
 51
270.0
  0
ARC
  5
267
102
{ACAD_REACTORS
330
2CC
330
2CD
102
}
330
71
100
AcDbEntity
  8
0
  6
Continuous
 62
     2
100
AcDbCircle
 10
-251.3279606698267
 20
-235.4186459320903
 30
0.0
 40
0.315716923076593
100
AcDbArc
 50
0.0
 51
90.0
  0
ARC
  5
268
102
{ACAD_REACTORS
330
2CC
330
2CD
102
}
330
71
100
AcDbEntity
  8
0
  6
Continuous
 62
     2
100
AcDbCircle
 10
-251.3279606698267
 20
-236.0226705511508
 30
0.0
 40
0.3157169230761203
100
AcDbArc
 50
295.1944106485397
 51
0.0
  0
ARC
  5
269
102
{ACAD_REACTORS
330
2CC
330
2CD
102
}
330
71
100
AcDbEntity
  8
0
  6
Continuous
 62
     2
100
AcDbCircle
 10
-251.3279606698267
 20
-239.7751009748074
 30
0.0
 40
0.3157169230767067
100
AcDbArc
 50
270.0
 51
0.0
  0
ARC
  5
26A
102
{ACAD_REACTORS
330
2CC
330
2CD
102
}
330
71
100
AcDbEntity
  8
0
  6
Continuous
 62
     2
100
AcDbCircle
 10
-253.3976886075828
 20
-234.8146180688575
 30
0.0
 40
0.4242446153837989
100
AcDbArc
 50
90.0
 51
180.0
  0
ARC
  5
26B
102
{ACAD_REACTORS
330
2CC
330
2CD
102
}
330
71
100
AcDbEntity
  8
0
  6
Continuous
 62
     2
100
AcDbCircle
 10
-247.924376516866
 20
-234.8146180688575
 30
0.0
 40
0.4242446153837989
100
AcDbArc
 50
0.0
 51
90.0
  0
ARC
  5
26C
102
{ACAD_REACTORS
330
2CC
330
2CD
102
}
330
71
100
AcDbEntity
  8
0
  6
Continuous
 62
     2
100
AcDbCircle
 10
-247.924376516866
 20
-240.3791288380577
 30
0.0
 40
0.4242446153832873
100
AcDbArc
 50
270.0
 51
0.0
  0
ARC
  5
26D
102
{ACAD_REACTORS
330
2CA
330
2CB
102
}
330
71
100
AcDbEntity
  8
0
  6
Continuous
 62
     2
100
AcDbCircle
 10
-238.7059926297745
 20
-235.9172782153614
 30
0.0
 40
0.7717997786796198
100
AcDbArc
 50
321.8795802028454
 51
38.12041979715956
  0
ARC
  5
26E
102
{ACAD_REACTORS
330
2CA
330
2CB
102
}
330
71
100
AcDbEntity
  8
0
  6
Continuous
 62
     2
100
AcDbCircle
 10
-238.5062525934283
 20
-236.0740093934818
 30
0.0
 40
0.5179085730134595
100
AcDbArc
 50
218.1204197971492
 51
321.8795802028547
  0
ARC
  5
26F
102
{ACAD_REACTORS
330
2C8
330
2C9
102
}
330
71
100
AcDbEntity
  8
0
  6
Continuous
 62
     2
100
AcDbCircle
 10
-242.1862601823885
 20
-239.2764686915357
 30
0.0
 40
1.458034083652003
100
AcDbArc
 50
297.548148175701
 51
62.45185182429896
  0
ARC
  5
270
102
{ACAD_REACTORS
330
2C8
330
2C9
102
}
330
71
100
AcDbEntity
  8
0
  6
Continuous
 62
     2
100
AcDbCircle
 10
-242.7481399660551
 20
-239.2764686915357
 30
0.0
 40
1.45803408365149
100
AcDbArc
 50
117.5481481756624
 51
242.4518518243375
  0
ARC
  5
271
102
{ACAD_REACTORS
330
2C8
330
2C9
102
}
330
71
100
AcDbEntity
  8
0
  6
Continuous
 62
     2
100
AcDbCircle
 10
-242.4672000742218
 20
-239.8150437018385
 30
0.0
 40
2.065479772208568
100
AcDbArc
 50
62.45185182430637
 51
117.5481481756664
  0
ARC
  5
272
102
{ACAD_REACTORS
330
2C8
330
2C9
102
}
330
71
100
AcDbEntity
  8
0
  6
Continuous
 62
     2
100
AcDbCircle
 10
-242.4672000742218
 20
-238.7378936812324
 30
0.0
 40
2.065479772208509
100
AcDbArc
 50
242.4518518243402
 51
297.5481481756871
  0
ARC
  5
273
102
{ACAD_REACTORS
330
2CA
330
2CB
102
}
330
71
100
AcDbEntity
  8
0
  6
Continuous
 62
     2
100
AcDbCircle
 10
-238.306512557082
 20
-235.9172782153614
 30
0.0
 40
0.7717997786796947
100
AcDbArc
 50
141.8795802028417
 51
218.1204197971533
  0
ARC
  5
274
102
{ACAD_REACTORS
330
2CA
330
2CB
102
}
330
71
100
AcDbEntity
  8
0
  6
Continuous
 62
     2
100
AcDbCircle
 10
-238.5062525934283
 20
-235.7605470372409
 30
0.0
 40
0.5179085730135041
100
AcDbArc
 50
38.12041979714528
 51
141.8795802028508
  0
ARC
  5
275
102
{ACAD_REACTORS
330
2CC
330
2CD
102
}
330
71
100
AcDbEntity
  8
0
  6
Continuous
 62
     2
100
AcDbCircle
 10
-253.3976886075828
 20
-240.3791288380577
 30
0.0
 40
0.4242446153828041
100
AcDbArc
 50
180.0
 51
270.0
  0
ARC
  5
276
102
{ACAD_REACTORS
330
2CC
330
2CD
102
}
330
71
100
AcDbEntity
  8
0
  6
Continuous
 62
     2
100
AcDbCircle
 10
-251.3279606698267
 20
-238.2443300432758
 30
0.0
 40
0.315716923076593
100
AcDbArc
 50
0.0
 51
64.80558935146249
  0
ARC
  5
277
102
{ACAD_REACTORS
330
2CC
330
2CD
102
}
330
71
100
AcDbEntity
  8
0
  6
Continuous
 62
     2
100
AcDbCircle
 10
-250.8053762222517
 20
-237.133500297213
 30
0.0
 40
0.9118975235576147
100
AcDbArc
 50
115.1944106485282
 51
244.8055893514869
  0
ARC
  5
278
102
{ACAD_REACTORS
330
2CC
330
2CD
102
}
330
71
100
AcDbEntity
  8
0
  6
Continuous
 62
     2
100
AcDbCircle
 10
-252.8037939308364
 20
-235.4186459320903
 30
0.0
 40
0.3157169230761951
100
AcDbArc
 50
90.0
 51
180.0
  0
ARC
  5
279
102
{ACAD_REACTORS
330
2C6
330
2C7
102
}
330
71
100
AcDbEntity
  8
0
  6
Continuous
 62
     2
100
AcDbCircle
 10
-245.4652153488193
 20
-235.4063431235667
 30
0.0
 40
0.3528638246710898
100
AcDbArc
 50
270.0
 51
90.0
  0
ARC
  5
27A
102
{ACAD_REACTORS
330
2CA
330
2CB
102
}
330
71
100
AcDbEntity
  8
0
  6
Continuous
 62
     2
100
AcDbCircle
 10
-238.7225246035935
 20
-235.9172782153614
 30
0.0
 40
1.526904761905882
100
AcDbArc
 50
90.0
 51
270.0
  0
ARC
  5
27B
102
{ACAD_REACTORS
330
2CE
330
2CF
102
}
330
71
100
AcDbEntity
  8
0
  6
Continuous
 62
     2
100
AcDbCircle
 10
-229.2955295108898
 20
-239.3892590535706
 30
0.0
 40
1.639695123940214
100
AcDbArc
 50
90.0
 51
164.9381082228957
  0
ARC
  5
27C
102
{ACAD_REACTORS
330
2CE
330
2CF
102
}
330
71
100
AcDbEntity
  8
0
  6
Continuous
 62
     2
100
AcDbCircle
 10
-229.7146573543514
 20
-239.2764686915357
 30
0.0
 40
1.205656168393085
100
AcDbArc
 50
164.9381082229038
 51
195.0618917770948
  0
ARC
  5
27D
102
{ACAD_REACTORS
330
2CE
330
2CF
102
}
330
71
100
AcDbEntity
  8
0
  6
Continuous
 62
     2
100
AcDbCircle
 10
-229.164785029574
 20
-239.4815401208742
 30
0.0
 40
0.5115800601960215
100
AcDbArc
 50
208.5214732576866
 51
246.6277221118449
  0
ARC
  5
27E
102
{ACAD_REACTORS
330
2CE
330
2CF
102
}
330
71
100
AcDbEntity
  8
0
  6
Continuous
 62
     2
100
AcDbCircle
 10
-229.164785029574
 20
-239.0713972621967
 30
0.0
 40
0.5115800601944411
100
AcDbArc
 50
109.3371432194842
 51
151.4785267424225
  0
ARC
  5
27F
102
{ACAD_REACTORS
330
2CC
330
2CD
102
}
330
71
100
AcDbEntity
  8
0
  6
Continuous
 62
     2
100
AcDbCircle
 10
-250.2282452443047
 20
-238.8244933038765
 30
0.0
 40
0.3157169230767067
100
AcDbArc
 50
180.0
 51
269.8110329574695
  0
ARC
  5
280
102
{ACAD_REACTORS
330
2CC
330
2CD
102
}
330
71
100
AcDbEntity
  8
0
  6
Continuous
 62
     2
100
AcDbCircle
 10
-250.2226291089946
 20
-237.1216583563075
 30
0.0
 40
2.018561131933237
100
AcDbArc
 50
269.8110329575858
 51
90.18896704241416
  0
ARC
  5
281
102
{ACAD_REACTORS
330
2CC
330
2CD
102
}
330
71
100
AcDbEntity
  8
0
  6
Continuous
 62
     2
100
AcDbCircle
 10
-250.2282452443047
 20
-236.0243586972452
 30
0.0
 40
0.3157169230767067
100
AcDbArc
 50
180.0
 51
244.6259913216621
  0
ARC
  5
282
102
{ACAD_REACTORS
330
2CC
330
2CD
102
}
330
71
100
AcDbEntity
  8
0
  6
Continuous
 62
     2
100
AcDbCircle
 10
-250.2282452443047
 20
-238.2426418971814
 30
0.0
 40
0.3157169230764706
100
AcDbArc
 50
115.3740086783401
 51
180.0
  0
ARC
  5
283
102
{ACAD_REACTORS
330
2D0
330
2D1
102
}
330
71
100
AcDbEntity
  8
0
  6
Continuous
 62
     2
100
AcDbCircle
 10
-245.3982309901427
 20
-239.3892590535706
 30
0.0
 40
1.639695123940499
100
AcDbArc
 50
84.84185523036533
 51
164.9381082228864
  0
ARC
  5
284
102
{ACAD_REACTORS
330
2D0
330
2D1
102
}
330
71
100
AcDbEntity
  8
0
  6
Continuous
 62
     2
100
AcDbCircle
 10
-245.8173588336055
 20
-239.2764686915357
 30
0.0
 40
1.205656168390944
100
AcDbArc
 50
164.9381082228765
 51
195.0618917770948
  0
ARC
  5
285
102
{ACAD_REACTORS
330
2D0
330
2D1
102
}
330
71
100
AcDbEntity
  8
0
  6
Continuous
 62
     2
100
AcDbCircle
 10
-245.3982309901427
 20
-239.1636783295009
 30
0.0
 40
1.639695123939387
100
AcDbArc
 50
195.0618917770896
 51
275.1581447696365
  0
ARC
  5
286
102
{ACAD_REACTORS
330
2D0
330
2D1
102
}
330
71
100
AcDbEntity
  8
0
  6
Continuous
 62
     2
100
AcDbCircle
 10
-245.6870870848786
 20
-235.9637877462793
 30
0.0
 40
4.852596863498131
100
AcDbArc
 50
275.158144769624
 51
285.979991258353
  0
ARC
  5
287
102
{ACAD_REACTORS
330
2D0
330
2D1
102
}
330
71
100
AcDbEntity
  8
0
  6
Continuous
 62
     2
100
AcDbCircle
 10
-244.8901292507466
 20
-239.2764686915357
 30
0.0
 40
0.9410597353333294
100
AcDbArc
 50
151.4785267422693
 51
208.5214732577033
  0
ARC
  5
288
102
{ACAD_REACTORS
330
2D0
330
2D1
102
}
330
71
100
AcDbEntity
  8
0
  6
Continuous
 62
     2
100
AcDbCircle
 10
-245.267486508827
 20
-239.0713972621967
 30
0.0
 40
0.511580060194844
100
AcDbArc
 50
113.3722778881904
 51
151.4785267423044
  0
ARC
  5
289
102
{ACAD_REACTORS
330
2D0
330
2D1
102
}
330
71
100
AcDbEntity
  8
0
  6
Continuous
 62
     2
100
AcDbCircle
 10
-245.5292142097857
 20
-240.6869350569439
 30
0.0
 40
2.227384008973478
100
AcDbArc
 50
58.06909105004071
 51
71.55192388186953
  0
ARC
  5
28A
102
{ACAD_REACTORS
330
2C8
330
2C9
102
}
330
71
100
AcDbEntity
  8
0
  6
Continuous
 62
     2
100
AcDbCircle
 10
-242.4672000742218
 20
-239.1197375134152
 30
0.0
 40
0.5179085730133174
100
AcDbArc
 50
38.1204197971495
 51
141.8795802028563
  0
ARC
  5
28B
102
{ACAD_REACTORS
330
2C8
330
2C9
102
}
330
71
100
AcDbEntity
  8
0
  6
Continuous
 62
     2
100
AcDbCircle
 10
-242.2674600378757
 20
-239.2764686915357
 30
0.0
 40
0.7717997786794808
100
AcDbArc
 50
141.8795802028346
 51
218.1204197971687
  0
ARC
  5
28C
102
{ACAD_REACTORS
330
2C8
330
2C9
102
}
330
71
100
AcDbEntity
  8
0
  6
Continuous
 62
     2
100
AcDbCircle
 10
-242.4672000742218
 20
-239.4331998696557
 30
0.0
 40
0.5179085730137354
100
AcDbArc
 50
218.1204197971931
 51
321.879580202801
  0
ARC
  5
28D
102
{ACAD_REACTORS
330
2C8
330
2C9
102
}
330
71
100
AcDbEntity
  8
0
  6
Continuous
 62
     2
100
AcDbCircle
 10
-242.6669401105683
 20
-239.2764686915357
 30
0.0
 40
0.7717997786797618
100
AcDbArc
 50
321.8795802028456
 51
38.12041979715104
  0
CIRCLE
  5
28E
330
71
100
AcDbEntity
  8
1
  6
Continuous
 62
     2
100
AcDbCircle
 10
-245.3219332229656
 20
-226.9718734534574
 30
0.0
 40
2.5
  0
CIRCLE
  5
28F
330
71
100
AcDbEntity
  8
1
  6
Continuous
 62
     2
100
AcDbCircle
 10
-245.3219332229656
 20
-226.9718734534574
 30
0.0
 40
1.249999999999915
  0
CIRCLE
  5
290
102
{ACAD_REACTORS
330
2CC
330
2CD
102
}
330
71
100
AcDbEntity
  8
0
  6
Continuous
 62
     2
100
AcDbCircle
 10
-250.7781029570653
 20
-237.133500297213
 30
0.0
 40
0.4709789327785074
  0
MTEXT
  5
291
330
71
100
AcDbEntity
  8
1
 62
     3
100
AcDbMText
 10
-415.5087157967064
 20
-61.30556529815851
 30
0.0
 40
1.8
 41
0.0
 71
     7
 72
     1
  3
Weitergabe sowie Vervielf\U+00e4ltigung dieses Dokuments, Verwertung und \PMitteilung seines Inhalts sind verboten, soweit nicht ausdr\U+00fccklich gestattet. \PZuwiderhandlungen verpflichten zu Schadenersatz. Alle Rechte f\U+00fcr den Fall\Pder Pat
  1
ent-, Gebrauchsmuster- oder Designeintragung vorbehalten.
  7
CONVERTER_11
 73
     1
 44
0.99639855942377
  0
MTEXT
  5
292
330
71
100
AcDbEntity
  8
1
 62
     3
100
AcDbMText
 10
-232.6556059579183
 20
-61.30556529815851
 30
0.0
 40
1.8
 41
0.0
 71
     7
 72
     1
  3
Transfer or duplication of this document as well as the utilisation or\Pcommunication of its content are not permitted unless express consent\Pis granted. Violations give rise to claims for damages. All rights reserved\Pin case of patent, utility mo
  1
del or design patent registrations.
  7
CONVERTER_11
 73
     1
 44
0.99639855942377
  0
TEXT
  5
293
330
71
100
AcDbEntity
  8
1
 62
     2
100
AcDbText
 10
-238.8585881095284
 20
-246.8558906684489
 30
0.0
 40
1.8
  1
of
 41
0.9
  7
CONVERTER_11
100
AcDbText
  0
TEXT
  5
294
330
71
100
AcDbEntity
  8
1
 62
     2
100
AcDbText
 10
-257.0585881095283
 20
-246.855890668449
 30
0.0
 40
1.8
  1
page
 41
0.9
  7
CONVERTER_11
100
AcDbText
  0
TEXT
  5
295
330
71
100
AcDbEntity
  8
1
 62
     2
100
AcDbText
 10
-248.4123231391862
 20
-246.8961221072593
 30
0.0
 40
1.8
  1
1
 41
0.9
  7
CONVERTER_11
100
AcDbText
  0
TEXT
  5
296
330
71
100
AcDbEntity
  8
1
 62
     2
100
AcDbText
 10
-233.6232792997147
 20
-246.8468734534574
 30
0.0
 40
1.8
  1
1
 41
0.9
  7
CONVERTER_11
100
AcDbText
  0
MTEXT
  5
298
330
71
100
AcDbEntity
  8
1
 62
     7
100
AcDbMText
 10
-175.0861858461527
 20
-244.8468734534571
 30
0.0
 40
3.0
 41
0.0
 71
     5
 72
     1
  1
EB  2-20
  7
CONVERTER_12
 73
     1
 44
1.20048019207683
  0
MTEXT
  5
299
330
71
100
AcDbEntity
  8
1
 62
     2
100
AcDbMText
 10
-220.6585881095283
 20
-240.5968734534573
 30
0.0
 40
1.8
 41
0.0
 71
     1
 72
     1
  1
description
  7
CONVERTER_11
 73
     1
 44
1.20048019207683
  0
MTEXT
  5
29A
330
71
100
AcDbEntity
  8
1
 62
     3
100
AcDbMText
 10
-231.8585881095283
 20
-226.9718734534573
 30
0.0
 40
2.5
 41
0.0
 71
     5
 72
     1
  1
DIN A4
  7
CONVERTER_11
 73
     1
 44
1.20048019207683
  0
MTEXT
  5
29B
330
71
100
AcDbEntity
  8
1
 62
     7
100
AcDbMText
 10
-418.0137835827773
 20
-225.5968734534573
 30
0.0
 40
3.5
 41
0.0
 71
     5
 72
     1
  1
D
  7
CONVERTER_11
 73
     1
 44
1.20048019207683
  0
MTEXT
  5
29C
330
71
100
AcDbEntity
  8
1
 62
     7
100
AcDbMText
 10
-418.0137835827773
 20
-173.0968734534573
 30
0.0
 40
3.5
 41
0.0
 71
     5
 72
     1
  1
C
  7
CONVERTER_11
 73
     1
 44
1.20048019207683
  0
MTEXT
  5
29D
330
71
100
AcDbEntity
  8
1
 62
     7
100
AcDbMText
 10
-418.0137835827773
 20
-123.0968734534573
 30
0.0
 40
3.5
 41
0.0
 71
     5
 72
     1
  1
B
  7
CONVERTER_11
 73
     1
 44
1.20048019207683
  0
MTEXT
  5
29E
330
71
100
AcDbEntity
  8
1
 62
     7
100
AcDbMText
 10
-418.0137835827773
 20
-70.5968734534573
 30
0.0
 40
3.5
 41
0.0
 71
     5
 72
     1
  1
A
  7
CONVERTER_11
 73
     1
 44
1.20048019207683
  0
MTEXT
  5
29F
330
71
100
AcDbEntity
  8
1
 62
     7
100
AcDbMText
 10
-147.763783582779
 20
-250.5968734534574
 30
0.0
 40
3.5
 41
0.0
 71
     5
 72
     1
  1
6
  7
CONVERTER_11
 73
     1
 44
1.20048019207683
  0
MTEXT
  5
2A0
330
71
100
AcDbEntity
  8
1
 62
     7
100
AcDbMText
 10
-197.0137835827783
 20
-250.5968734534574
 30
0.0
 40
3.5
 41
0.0
 71
     5
 72
     1
  1
5
  7
CONVERTER_11
 73
     1
 44
1.20048019207683
  0
MTEXT
  5
2A1
330
71
100
AcDbEntity
  8
1
 62
     7
100
AcDbMText
 10
-247.0137835827783
 20
-250.5968734534574
 30
0.0
 40
3.5
 41
0.0
 71
     5
 72
     1
  1
4
  7
CONVERTER_11
 73
     1
 44
1.20048019207683
  0
MTEXT
  5
2A2
330
71
100
AcDbEntity
  8
1
 62
     7
100
AcDbMText
 10
-297.0137835827782
 20
-250.5968734534574
 30
0.0
 40
3.5
 41
0.0
 71
     5
 72
     1
  1
3
  7
CONVERTER_11
 73
     1
 44
1.20048019207683
  0
MTEXT
  5
2A3
330
71
100
AcDbEntity
  8
1
 62
     7
100
AcDbMText
 10
-347.0137835827782
 20
-250.5968734534574
 30
0.0
 40
3.5
 41
0.0
 71
     5
 72
     1
  1
2
  7
CONVERTER_11
 73
     1
 44
1.20048019207683
  0
MTEXT
  5
2A4
330
71
100
AcDbEntity
  8
1
 62
     7
100
AcDbMText
 10
-396.2637835827778
 20
-250.5968734534574
 30
0.0
 40
3.5
 41
0.0
 71
     5
 72
     1
  1
1
  7
CONVERTER_11
 73
     1
 44
1.20048019207683
  0
MTEXT
  5
2A5
330
71
100
AcDbEntity
  8
1
 62
     7
100
AcDbMText
 10
-126.0137835827792
 20
-225.5968734534573
 30
0.0
 40
3.5
 41
0.0
 71
     5
 72
     1
  1
D
  7
CONVERTER_11
 73
     1
 44
1.20048019207683
  0
MTEXT
  5
2A6
330
71
100
AcDbEntity
  8
1
 62
     7
100
AcDbMText
 10
-126.0137835827792
 20
-123.0968734534554
 30
0.0
 40
3.5
 41
0.0
 71
     5
 72
     1
  1
B
  7
CONVERTER_11
 73
     1
 44
1.20048019207683
  0
MTEXT
  5
2A7
330
71
100
AcDbEntity
  8
1
 62
     7
100
AcDbMText
 10
-126.0137835827792
 20
-70.5968734534573
 30
0.0
 40
3.5
 41
0.0
 71
     5
 72
     1
  1
A
  7
CONVERTER_11
 73
     1
 44
1.20048019207683
  0
MTEXT
  5
2A8
330
71
100
AcDbEntity
  8
1
 62
     7
100
AcDbMText
 10
-126.0137835827792
 20
-173.0968734534554
 30
0.0
 40
3.5
 41
0.0
 71
     5
 72
     1
  1
C
  7
CONVERTER_11
 73
     1
 44
1.20048019207683
  0
MTEXT
  5
2A9
330
71
100
AcDbEntity
  8
1
 62
     2
100
AcDbMText
 10
-292.4966028345758
 20
-235.3468734534574
 30
0.0
 40
2.0
 41
0.0
 71
     5
 72
     1
  1
General Information\P- Simplified representation\P- Document excluded from change process\P- Linear dimensions [mm]
  7
CONVERTER_11
 73
     1
 44
1.20048019207683
  0
TEXT
  5
2AA
330
71
100
AcDbEntity
  8
1
 62
     7
100
AcDbText
 10
-220.1585881095285
 20
-238.2968734534574
 30
0.0
 40
2.5
  1
0206150
 41
0.81
  7
CONVERTER_12
100
AcDbText
  0
MTEXT
  5
2AB
330
71
100
AcDbEntity
  8
1
 62
     2
100
AcDbMText
 10
-220.5585881095282
 20
-232.0968734534573
 30
0.0
 40
1.8
 41
0.0
 71
     1
 72
     1
  1
ident.-No.
  7
CONVERTER_11
 73
     1
 44
1.20048019207683
  0
MTEXT
  5
2AC
330
71
100
AcDbEntity
  8
1
 62
     2
100
AcDbMText
 10
-136.3321918644555
 20
-223.5968734534573
 30
0.0
 40
1.8
 41
0.0
 71
     1
 72
     1
  1
scale
  7
CONVERTER_11
 73
     1
 44
1.20048019207683
  0
MTEXT
  5
2AE
330
71
100
AcDbEntity
  8
1
 62
     3
100
AcDbMText
 10
-132.9729877236159
 20
-229.7968734534572
 30
0.0
 40
2.5
 41
0.0
 71
     8
 72
     1
  1
1:1
  7
CONVERTER_13
 73
     1
 44
1.32052821128451
  0
TEXT
  5
2AF
330
71
100
AcDbEntity
  8
1
 62
     7
100
AcDbText
 10
-220.5585881095282
 20
-229.7968734534574
 30
0.0
 40
2.5
  1
01116864
 41
0.81
  7
CONVERTER_12
100
AcDbText
  0
MTEXT
  5
2B1
330
71
100
AcDbEntity
  8
1
 62
     2
100
AcDbMText
 10
-220.5585881095282
 20
-223.5968734534573
 30
0.0
 40
1.8
 41
0.0
 71
     1
 72
     1
  1
document-No. / RI
  7
CONVERTER_14
 73
     1
 44
1.32052821128451
  0
TEXT
  5
2B2
330
71
100
AcDbEntity
  8
1
 62
     3
100
AcDbText
 10
-192.7585881095282
 20
-238.2968734534574
 30
0.0
 40
2.5
  1
TECDOC 2D_Productdrawing
 41
0.81
  7
CONVERTER_12
100
AcDbText
  0
MTEXT
  5
2B3
330
71
100
AcDbEntity
  8
1
 62
     2
100
AcDbMText
 10
-192.7585881095282
 20
-232.0968734534574
 30
0.0
 40
1.8
 41
0.0
 71
     1
 72
     1
  1
document-type
  7
CONVERTER_11
 73
     1
 44
1.20048019207683
  0
MTEXT
  5
2B4
330
71
100
AcDbEntity
  8
1
 62
     2
100
AcDbMText
 10
-162.9321918644554
 20
-223.5968734534574
 30
0.0
 40
1.8
 41
0.0
 71
     1
 72
     1
  1
date
  7
CONVERTER_11
 73
     1
 44
1.32052821128451
  0
TEXT
  5
2B5
330
71
100
AcDbEntity
  8
1
 62
     3
100
AcDbText
 10
-162.9321918644554
 20
-229.7968734534574
 30
0.0
 40
2.5
  1
23.02.2018
 41
0.81
  7
CONVERTER_12
100
AcDbText
  0
TEXT
  5
2B6
330
71
100
AcDbEntity
  8
1
 62
     7
100
AcDbText
 10
-200.5286758904724
 20
-229.7968734534574
 30
0.0
 40
2.5
  1
00
 41
0.81
  7
CONVERTER_12
100
AcDbText
  0
TEXT
  5
2B7
330
71
100
AcDbEntity
  8
1
 62
     7
100
AcDbText
 10
-202.6850403875145
 20
-229.7968734534574
 30
0.0
 40
2.5
  1
/
 41
0.9
  7
CONVERTER_11
100
AcDbText
  0
HATCH
  5
2B8
330
71
100
AcDbEntity
  8
1
  6
Continuous
 62
     2
100
AcDbHatch
 10
0.0
 20
0.0
 30
0.0
210
0.0
220
0.0
230
1.0
  2
_USER
 70
     0
 71
     1
 91
        1
 92
        1
 93
       12
 72
     1
 10
-240.3910873965671
 20
-237.4441829772667
 11
-241.5838800987335
 21
-237.4441829772667
 72
     1
 10
-241.5838800987335
 20
-237.4441829772667
 11
-241.5838800987335
 21
-236.3099108684229
 72
     1
 10
-241.5838800987335
 20
-236.3099108684229
 11
-242.633537676641
 21
-236.3099108684229
 72
     1
 10
-242.633537676641
 20
-236.3099108684229
 11
-242.633537676641
 21
-237.4441829772667
 72
     1
 10
-242.633537676641
 20
-237.4441829772667
 11
-243.8263303788076
 21
-237.4441829772667
 72
     1
 10
-243.8263303788076
 20
-237.4441829772667
 11
-243.8263303788076
 21
-234.3903734534555
 72
     1
 10
-243.8263303788076
 20
-234.3903734534555
 11
-242.633537676641
 21
-234.3903734534555
 72
     1
 10
-242.633537676641
 20
-234.3903734534555
 11
-242.633537676641
 21
-235.4592067867901
 72
     1
 10
-242.633537676641
 20
-235.4592067867901
 11
-241.5838800987335
 21
-235.4592067867901
 72
     1
 10
-241.5838800987335
 20
-235.4592067867901
 11
-241.5838800987335
 21
-234.3903734534555
 72
     1
 10
-241.5838800987335
 20
-234.3903734534555
 11
-240.3910873965671
 21
-234.3903734534555
 72
     1
 10
-240.3910873965671
 20
-234.3903734534555
 11
-240.3910873965671
 21
-237.4441829772667
 97
       12
330
225
330
226
330
210
330
20F
330
20E
330
222
330
20D
330
223
330
224
330
20C
330
20B
330
20A
 75
     1
 76
     0
 52
45.0
 41
0.1
 77
     0
 78
     1
 53
45.0
 43
0.0
 44
0.0
 45
-0.0707106781186548
 46
0.0707106781186548
 79
     0
 98
        1
 10
0.0
 20
0.0
  0
HATCH
  5
2B9
330
71
100
AcDbEntity
  8
1
  6
Continuous
 62
     2
100
AcDbHatch
 10
0.0
 20
0.0
 30
0.0
210
0.0
220
0.0
230
1.0
  2
_USER
 70
     0
 71
     1
 91
        1
 92
        1
 93
       12
 72
     1
 10
-240.3910873965671
 20
-237.4441829772667
 11
-241.5838800987335
 21
-237.4441829772667
 72
     1
 10
-241.5838800987335
 20
-237.4441829772667
 11
-241.5838800987335
 21
-236.3099108684229
 72
     1
 10
-241.5838800987335
 20
-236.3099108684229
 11
-242.633537676641
 21
-236.3099108684229
 72
     1
 10
-242.633537676641
 20
-236.3099108684229
 11
-242.633537676641
 21
-237.4441829772667
 72
     1
 10
-242.633537676641
 20
-237.4441829772667
 11
-243.8263303788076
 21
-237.4441829772667
 72
     1
 10
-243.8263303788076
 20
-237.4441829772667
 11
-243.8263303788076
 21
-234.3903734534555
 72
     1
 10
-243.8263303788076
 20
-234.3903734534555
 11
-242.633537676641
 21
-234.3903734534555
 72
     1
 10
-242.633537676641
 20
-234.3903734534555
 11
-242.633537676641
 21
-235.4592067867901
 72
     1
 10
-242.633537676641
 20
-235.4592067867901
 11
-241.5838800987335
 21
-235.4592067867901
 72
     1
 10
-241.5838800987335
 20
-235.4592067867901
 11
-241.5838800987335
 21
-234.3903734534555
 72
     1
 10
-241.5838800987335
 20
-234.3903734534555
 11
-240.3910873965671
 21
-234.3903734534555
 72
     1
 10
-240.3910873965671
 20
-234.3903734534555
 11
-240.3910873965671
 21
-237.4441829772667
 97
       12
330
225
330
226
330
210
330
20F
330
20E
330
222
330
20D
330
223
330
224
330
20C
330
20B
330
20A
 75
     1
 76
     0
 52
45.0
 41
0.1
 77
     0
 78
     1
 53
45.0
 43
0.0
 44
0.0
 45
-0.0707106781186548
 46
0.0707106781186548
 79
     0
 98
        1
 10
0.0
 20
0.0
  0
HATCH
  5
2BA
330
71
100
AcDbEntity
  8
1
  6
Continuous
 62
     2
100
AcDbHatch
 10
0.0
 20
0.0
 30
0.0
210
0.0
220
0.0
230
1.0
  2
_USER
 70
     0
 71
     1
 91
        1
 92
        1
 93
       10
 72
     1
 10
-238.1487880473788
 20
-239.058339439835
 11
-239.3892924576317
 21
-237.7495639296299
 72
     1
 10
-239.3892924576317
 20
-237.7495639296299
 11
-240.5820851597993
 21
-237.7495639296299
 72
     1
 10
-240.5820851597993
 20
-237.7495639296299
 11
-240.5820851597993
 21
-240.803373453441
 72
     1
 10
-240.5820851597993
 20
-240.803373453441
 11
-239.3892924576317
 21
-240.803373453441
 72
     1
 10
-239.3892924576317
 20
-240.803373453441
 11
-239.3892924576317
 21
-239.4945979432364
 72
     1
 10
-239.3892924576317
 20
-239.4945979432364
 11
-238.1487880473788
 21
-240.803373453441
 72
     1
 10
-238.1487880473788
 20
-240.803373453441
 11
-236.9559953452124
 21
-240.803373453441
 72
     1
 10
-236.9559953452124
 20
-240.803373453441
 11
-236.9559953452124
 21
-237.7495639296299
 72
     1
 10
-236.9559953452124
 20
-237.7495639296299
 11
-238.1487880473788
 21
-237.7495639296299
 72
     1
 10
-238.1487880473788
 20
-237.7495639296299
 11
-238.1487880473788
 21
-239.058339439835
 97
       10
330
233
330
203
330
202
330
205
330
22E
330
22F
330
204
330
230
330
231
330
232
 75
     1
 76
     0
 52
45.0
 41
0.1
 77
     0
 78
     1
 53
45.0
 43
0.0
 44
0.0
 45
-0.0707106781186548
 46
0.0707106781186548
 79
     0
 98
        1
 10
0.0
 20
0.0
  0
HATCH
  5
2BB
330
71
100
AcDbEntity
  8
1
  6
Continuous
 62
     2
100
AcDbHatch
 10
0.0
 20
0.0
 30
0.0
210
0.0
220
0.0
230
1.0
  2
_USER
 70
     0
 71
     1
 91
        1
 92
        1
 93
       10
 72
     1
 10
-238.1487880473788
 20
-239.058339439835
 11
-239.3892924576317
 21
-237.7495639296299
 72
     1
 10
-239.3892924576317
 20
-237.7495639296299
 11
-240.5820851597993
 21
-237.7495639296299
 72
     1
 10
-240.5820851597993
 20
-237.7495639296299
 11
-240.5820851597993
 21
-240.803373453441
 72
     1
 10
-240.5820851597993
 20
-240.803373453441
 11
-239.3892924576317
 21
-240.803373453441
 72
     1
 10
-239.3892924576317
 20
-240.803373453441
 11
-239.3892924576317
 21
-239.4945979432364
 72
     1
 10
-239.3892924576317
 20
-239.4945979432364
 11
-238.1487880473788
 21
-240.803373453441
 72
     1
 10
-238.1487880473788
 20
-240.803373453441
 11
-236.9559953452124
 21
-240.803373453441
 72
     1
 10
-236.9559953452124
 20
-240.803373453441
 11
-236.9559953452124
 21
-237.7495639296299
 72
     1
 10
-236.9559953452124
 20
-237.7495639296299
 11
-238.1487880473788
 21
-237.7495639296299
 72
     1
 10
-238.1487880473788
 20
-237.7495639296299
 11
-238.1487880473788
 21
-239.058339439835
 97
       10
330
233
330
203
330
202
330
205
330
22E
330
22F
330
204
330
230
330
231
330
232
 75
     1
 76
     0
 52
45.0
 41
0.1
 77
     0
 78
     1
 53
45.0
 43
0.0
 44
0.0
 45
-0.0707106781186548
 46
0.0707106781186548
 79
     0
 98
        1
 10
0.0
 20
0.0
  0
HATCH
  5
2BC
330
71
100
AcDbEntity
  8
1
  6
Continuous
 62
     2
100
AcDbHatch
 10
0.0
 20
0.0
 30
0.0
210
0.0
220
0.0
230
1.0
  2
_USER
 70
     0
 71
     1
 91
        1
 92
        1
 93
       10
 72
     1
 10
-232.9003492269591
 20
-235.6991489636607
 11
-234.1408536372131
 21
-234.3903734534555
 72
     1
 10
-234.1408536372131
 20
-234.3903734534555
 11
-235.3336463393796
 21
-234.3903734534555
 72
     1
 10
-235.3336463393796
 20
-234.3903734534555
 11
-235.3336463393796
 21
-237.4441829772667
 72
     1
 10
-235.3336463393796
 20
-237.4441829772667
 11
-234.1408536372131
 21
-237.4441829772667
 72
     1
 10
-234.1408536372131
 20
-237.4441829772667
 11
-234.1408536372131
 21
-236.135407467062
 72
     1
 10
-234.1408536372131
 20
-236.135407467062
 11
-232.9003492269591
 21
-237.4441829772667
 72
     1
 10
-232.9003492269591
 20
-237.4441829772667
 11
-231.7075565247925
 21
-237.4441829772667
 72
     1
 10
-231.7075565247925
 20
-237.4441829772667
 11
-231.7075565247925
 21
-234.3903734534555
 72
     1
 10
-231.7075565247925
 20
-234.3903734534555
 11
-232.9003492269591
 21
-234.3903734534555
 72
     1
 10
-232.9003492269591
 20
-234.3903734534555
 11
-232.9003492269591
 21
-235.6991489636607
 97
       10
330
238
330
200
330
1FF
330
239
330
1FE
330
234
330
235
330
236
330
237
330
201
 75
     1
 76
     0
 52
45.0
 41
0.1
 77
     0
 78
     1
 53
45.0
 43
0.0
 44
0.0
 45
-0.0707106781186548
 46
0.0707106781186548
 79
     0
 98
        1
 10
0.0
 20
0.0
  0
HATCH
  5
2BD
330
71
100
AcDbEntity
  8
1
  6
Continuous
 62
     2
100
AcDbHatch
 10
0.0
 20
0.0
 30
0.0
210
0.0
220
0.0
230
1.0
  2
_USER
 70
     0
 71
     1
 91
        1
 92
        1
 93
       10
 72
     1
 10
-232.9003492269591
 20
-235.6991489636607
 11
-234.1408536372131
 21
-234.3903734534555
 72
     1
 10
-234.1408536372131
 20
-234.3903734534555
 11
-235.3336463393796
 21
-234.3903734534555
 72
     1
 10
-235.3336463393796
 20
-234.3903734534555
 11
-235.3336463393796
 21
-237.4441829772667
 72
     1
 10
-235.3336463393796
 20
-237.4441829772667
 11
-234.1408536372131
 21
-237.4441829772667
 72
     1
 10
-234.1408536372131
 20
-237.4441829772667
 11
-234.1408536372131
 21
-236.135407467062
 72
     1
 10
-234.1408536372131
 20
-236.135407467062
 11
-232.9003492269591
 21
-237.4441829772667
 72
     1
 10
-232.9003492269591
 20
-237.4441829772667
 11
-231.7075565247925
 21
-237.4441829772667
 72
     1
 10
-231.7075565247925
 20
-237.4441829772667
 11
-231.7075565247925
 21
-234.3903734534555
 72
     1
 10
-231.7075565247925
 20
-234.3903734534555
 11
-232.9003492269591
 21
-234.3903734534555
 72
     1
 10
-232.9003492269591
 20
-234.3903734534555
 11
-232.9003492269591
 21
-235.6991489636607
 97
       10
330
238
330
200
330
1FF
330
239
330
1FE
330
234
330
235
330
236
330
237
330
201
 75
     1
 76
     0
 52
45.0
 41
0.1
 77
     0
 78
     1
 53
45.0
 43
0.0
 44
0.0
 45
-0.0707106781186548
 46
0.0707106781186548
 79
     0
 98
        1
 10
0.0
 20
0.0
  0
HATCH
  5
2BE
330
71
100
AcDbEntity
  8
1
  6
Continuous
 62
     2
100
AcDbHatch
 10
0.0
 20
0.0
 30
0.0
210
0.0
220
0.0
230
1.0
  2
_USER
 70
     0
 71
     1
 91
        1
 92
        1
 93
        8
 72
     1
 10
-233.9978694438386
 20
-237.7495639296299
 11
-236.8128602209523
 21
-237.7495639296299
 72
     1
 10
-236.8128602209523
 20
-237.7495639296299
 11
-236.8128602209523
 21
-238.5348292357535
 72
     1
 10
-236.8128602209523
 20
-238.5348292357535
 11
-236.0017611834776
 21
-238.5348292357535
 72
     1
 10
-236.0017611834776
 20
-238.5348292357535
 11
-236.0017611834776
 21
-240.803373453441
 72
     1
 10
-236.0017611834776
 20
-240.803373453441
 11
-234.8089684813111
 21
-240.803373453441
 72
     1
 10
-234.8089684813111
 20
-240.803373453441
 11
-234.8089684813111
 21
-238.5348292357535
 72
     1
 10
-234.8089684813111
 20
-238.5348292357535
 11
-233.9978694438386
 21
-238.5348292357535
 72
     1
 10
-233.9978694438386
 20
-238.5348292357535
 11
-233.9978694438386
 21
-237.7495639296299
 97
        8
330
1FA
330
23A
330
1F9
330
23B
330
23C
330
1FD
330
1FC
330
1FB
 75
     1
 76
     0
 52
45.0
 41
0.1
 77
     0
 78
     1
 53
45.0
 43
0.0
 44
0.0
 45
-0.0707106781186548
 46
0.0707106781186548
 79
     0
 98
        1
 10
0.0
 20
0.0
  0
HATCH
  5
2BF
330
71
100
AcDbEntity
  8
1
  6
Continuous
 62
     2
100
AcDbHatch
 10
0.0
 20
0.0
 30
0.0
210
0.0
220
0.0
230
1.0
  2
_USER
 70
     0
 71
     1
 91
        1
 92
        1
 93
        8
 72
     1
 10
-233.9978694438386
 20
-237.7495639296299
 11
-236.8128602209523
 21
-237.7495639296299
 72
     1
 10
-236.8128602209523
 20
-237.7495639296299
 11
-236.8128602209523
 21
-238.5348292357535
 72
     1
 10
-236.8128602209523
 20
-238.5348292357535
 11
-236.0017611834776
 21
-238.5348292357535
 72
     1
 10
-236.0017611834776
 20
-238.5348292357535
 11
-236.0017611834776
 21
-240.803373453441
 72
     1
 10
-236.0017611834776
 20
-240.803373453441
 11
-234.8089684813111
 21
-240.803373453441
 72
     1
 10
-234.8089684813111
 20
-240.803373453441
 11
-234.8089684813111
 21
-238.5348292357535
 72
     1
 10
-234.8089684813111
 20
-238.5348292357535
 11
-233.9978694438386
 21
-238.5348292357535
 72
     1
 10
-233.9978694438386
 20
-238.5348292357535
 11
-233.9978694438386
 21
-237.7495639296299
 97
        8
330
1FA
330
23A
330
1F9
330
23B
330
23C
330
1FD
330
1FC
330
1FB
 75
     1
 76
     0
 52
45.0
 41
0.1
 77
     0
 78
     1
 53
45.0
 43
0.0
 44
0.0
 45
-0.0707106781186548
 46
0.0707106781186548
 79
     0
 98
        1
 10
0.0
 20
0.0
  0
HATCH
  5
2C0
330
71
100
AcDbEntity
  8
1
  6
Continuous
 62
     2
100
AcDbHatch
 10
0.0
 20
0.0
 30
0.0
210
0.0
220
0.0
230
1.0
  2
_USER
 70
     0
 71
     1
 91
        2
 92
        1
 93
        8
 72
     1
 10
-231.8594419878916
 20
-240.803373453441
 11
-232.0709220413674
 21
-240.2624129092231
 72
     1
 10
-232.0709220413674
 20
-240.2624129092231
 11
-233.2033636180412
 21
-240.2624129092231
 72
     1
 10
-233.2033636180412
 20
-240.2624129092231
 11
-233.4148436715171
 21
-240.803373453441
 72
     1
 10
-233.4148436715171
 20
-240.803373453441
 11
-234.65534808177
 21
-240.803373453441
 72
     1
 10
-234.65534808177
 20
-240.803373453441
 11
-233.2573950348307
 21
-237.7495639296299
 72
     1
 10
-233.2573950348307
 20
-237.7495639296299
 11
-232.016890624578
 21
-237.7495639296299
 72
     1
 10
-232.016890624578
 20
-237.7495639296299
 11
-230.6189375776377
 21
-240.803373453441
 72
     1
 10
-230.6189375776377
 20
-240.803373453441
 11
-231.8594419878916
 21
-240.803373453441
 97
        8
330
23E
330
23F
330
1F6
330
240
330
1F5
330
1F8
330
23D
330
1F7
 92
       16
 93
        3
 72
     1
 10
-232.9373080668962
 20
-239.5818496439165
 11
-232.6371428297038
 21
-238.8140346779298
 72
     1
 10
-232.6371428297038
 20
-238.8140346779298
 11
-232.3369775925137
 21
-239.5818496439165
 72
     1
 10
-232.3369775925137
 20
-239.5818496439165
 11
-232.9373080668962
 21
-239.5818496439165
 97
        3
330
1F4
330
242
330
241
 75
     1
 76
     0
 52
45.0
 41
0.1
 77
     0
 78
     1
 53
45.0
 43
0.0
 44
0.0
 45
-0.0707106781186548
 46
0.0707106781186548
 79
     0
 98
        1
 10
0.0
 20
0.0
  0
HATCH
  5
2C1
330
71
100
AcDbEntity
  8
1
  6
Continuous
 62
     2
100
AcDbHatch
 10
0.0
 20
0.0
 30
0.0
210
0.0
220
0.0
230
1.0
  2
_USER
 70
     0
 71
     1
 91
        2
 92
        1
 93
        8
 72
     1
 10
-231.8594419878916
 20
-240.803373453441
 11
-232.0709220413674
 21
-240.2624129092231
 72
     1
 10
-232.0709220413674
 20
-240.2624129092231
 11
-233.2033636180412
 21
-240.2624129092231
 72
     1
 10
-233.2033636180412
 20
-240.2624129092231
 11
-233.4148436715171
 21
-240.803373453441
 72
     1
 10
-233.4148436715171
 20
-240.803373453441
 11
-234.65534808177
 21
-240.803373453441
 72
     1
 10
-234.65534808177
 20
-240.803373453441
 11
-233.2573950348307
 21
-237.7495639296299
 72
     1
 10
-233.2573950348307
 20
-237.7495639296299
 11
-232.016890624578
 21
-237.7495639296299
 72
     1
 10
-232.016890624578
 20
-237.7495639296299
 11
-230.6189375776377
 21
-240.803373453441
 72
     1
 10
-230.6189375776377
 20
-240.803373453441
 11
-231.8594419878916
 21
-240.803373453441
 97
        8
330
23E
330
23F
330
1F6
330
240
330
1F5
330
1F8
330
23D
330
1F7
 92
       16
 93
        3
 72
     1
 10
-232.9373080668962
 20
-239.5818496439165
 11
-232.6371428297038
 21
-238.8140346779298
 72
     1
 10
-232.6371428297038
 20
-238.8140346779298
 11
-232.3369775925137
 21
-239.5818496439165
 72
     1
 10
-232.3369775925137
 20
-239.5818496439165
 11
-232.9373080668962
 21
-239.5818496439165
 97
        3
330
1F4
330
242
330
241
 75
     1
 76
     0
 52
45.0
 41
0.1
 77
     0
 78
     1
 53
45.0
 43
0.0
 44
0.0
 45
-0.0707106781186548
 46
0.0707106781186548
 79
     0
 98
        1
 10
0.0
 20
0.0
  0
HATCH
  5
2C2
330
71
100
AcDbEntity
  8
1
  6
Continuous
 62
     2
100
AcDbHatch
 10
0.0
 20
0.0
 30
0.0
210
0.0
220
0.0
230
1.0
  2
_USER
 70
     0
 71
     1
 91
        1
 92
        1
 93
        4
 72
     1
 10
-230.2284935741057
 20
-237.4441829772667
 11
-231.4689979843586
 21
-237.4441829772667
 72
     1
 10
-231.4689979843586
 20
-237.4441829772667
 11
-231.4689979843586
 21
-234.3903734534555
 72
     1
 10
-231.4689979843586
 20
-234.3903734534555
 11
-230.2284935741057
 21
-234.3903734534555
 72
     1
 10
-230.2284935741057
 20
-234.3903734534555
 11
-230.2284935741057
 21
-237.4441829772667
 97
        4
330
1F1
330
1F3
330
243
330
1F2
 75
     1
 76
     0
 52
45.0
 41
0.1
 77
     0
 78
     1
 53
45.0
 43
0.0
 44
0.0
 45
-0.0707106781186548
 46
0.0707106781186548
 79
     0
 98
        1
 10
0.0
 20
0.0
  0
HATCH
  5
2C3
330
71
100
AcDbEntity
  8
1
  6
Continuous
 62
     2
100
AcDbHatch
 10
0.0
 20
0.0
 30
0.0
210
0.0
220
0.0
230
1.0
  2
_USER
 70
     0
 71
     1
 91
        1
 92
        1
 93
        4
 72
     1
 10
-230.2284935741057
 20
-237.4441829772667
 11
-231.4689979843586
 21
-237.4441829772667
 72
     1
 10
-231.4689979843586
 20
-237.4441829772667
 11
-231.4689979843586
 21
-234.3903734534555
 72
     1
 10
-231.4689979843586
 20
-234.3903734534555
 11
-230.2284935741057
 21
-234.3903734534555
 72
     1
 10
-230.2284935741057
 20
-234.3903734534555
 11
-230.2284935741057
 21
-237.4441829772667
 97
        4
330
1F1
330
1F3
330
243
330
1F2
 75
     1
 76
     0
 52
45.0
 41
0.1
 77
     0
 78
     1
 53
45.0
 43
0.0
 44
0.0
 45
-0.0707106781186548
 46
0.0707106781186548
 79
     0
 98
        1
 10
0.0
 20
0.0
  0
HATCH
  5
2C4
330
71
100
AcDbEntity
  8
1
  6
Continuous
 62
     2
100
AcDbHatch
 10
0.0
 20
0.0
 30
0.0
210
0.0
220
0.0
230
1.0
  2
_USER
 70
     0
 71
     1
 91
        1
 92
        1
 93
       12
 72
     1
 10
-226.0060074084349
 20
-234.3903734534555
 11
-227.3085370392014
 21
-235.8633239834917
 72
     1
 10
-227.3085370392014
 20
-235.8633239834917
 11
-225.9105839922611
 21
-237.4441829772667
 72
     1
 10
-225.9105839922611
 20
-237.4441829772667
 11
-227.3133082100094
 21
-237.4441829772667
 72
     1
 10
-227.3133082100094
 20
-237.4441829772667
 11
-228.0098991480749
 21
-236.656451191973
 72
     1
 10
-228.0098991480749
 20
-236.656451191973
 11
-228.7064900861406
 21
-237.4441829772667
 72
     1
 10
-228.7064900861406
 20
-237.4441829772667
 11
-230.1092143038889
 21
-237.4441829772667
 72
     1
 10
-230.1092143038889
 20
-237.4441829772667
 11
-228.7112612569486
 21
-235.8633239834917
 72
     1
 10
-228.7112612569486
 20
-235.8633239834917
 11
-230.013790887716
 21
-234.3903734534555
 72
     1
 10
-230.013790887716
 20
-234.3903734534555
 11
-228.6110666699667
 21
-234.3903734534555
 72
     1
 10
-228.6110666699667
 20
-234.3903734534555
 11
-228.0098991480749
 21
-235.070196775011
 72
     1
 10
-228.0098991480749
 20
-235.070196775011
 11
-227.4087316261822
 21
-234.3903734534555
 72
     1
 10
-227.4087316261822
 20
-234.3903734534555
 11
-226.0060074084349
 21
-234.3903734534555
 97
       12
330
1EC
330
1EB
330
1EA
330
247
330
248
330
244
330
245
330
1F0
330
1EF
330
1EE
330
1ED
330
246
 75
     1
 76
     0
 52
45.0
 41
0.1
 77
     0
 78
     1
 53
45.0
 43
0.0
 44
0.0
 45
-0.0707106781186548
 46
0.0707106781186548
 79
     0
 98
        1
 10
0.0
 20
0.0
  0
HATCH
  5
2C5
330
71
100
AcDbEntity
  8
1
  6
Continuous
 62
     2
100
AcDbHatch
 10
0.0
 20
0.0
 30
0.0
210
0.0
220
0.0
230
1.0
  2
_USER
 70
     0
 71
     1
 91
        1
 92
        1
 93
       12
 72
     1
 10
-226.0060074084349
 20
-234.3903734534555
 11
-227.3085370392014
 21
-235.8633239834917
 72
     1
 10
-227.3085370392014
 20
-235.8633239834917
 11
-225.9105839922611
 21
-237.4441829772667
 72
     1
 10
-225.9105839922611
 20
-237.4441829772667
 11
-227.3133082100094
 21
-237.4441829772667
 72
     1
 10
-227.3133082100094
 20
-237.4441829772667
 11
-228.0098991480749
 21
-236.656451191973
 72
     1
 10
-228.0098991480749
 20
-236.656451191973
 11
-228.7064900861406
 21
-237.4441829772667
 72
     1
 10
-228.7064900861406
 20
-237.4441829772667
 11
-230.1092143038889
 21
-237.4441829772667
 72
     1
 10
-230.1092143038889
 20
-237.4441829772667
 11
-228.7112612569486
 21
-235.8633239834917
 72
     1
 10
-228.7112612569486
 20
-235.8633239834917
 11
-230.013790887716
 21
-234.3903734534555
 72
     1
 10
-230.013790887716
 20
-234.3903734534555
 11
-228.6110666699667
 21
-234.3903734534555
 72
     1
 10
-228.6110666699667
 20
-234.3903734534555
 11
-228.0098991480749
 21
-235.070196775011
 72
     1
 10
-228.0098991480749
 20
-235.070196775011
 11
-227.4087316261822
 21
-234.3903734534555
 72
     1
 10
-227.4087316261822
 20
-234.3903734534555
 11
-226.0060074084349
 21
-234.3903734534555
 97
       12
330
1EC
330
1EB
330
1EA
330
247
330
248
330
244
330
245
330
1F0
330
1EF
330
1EE
330
1ED
330
246
 75
     1
 76
     0
 52
45.0
 41
0.1
 77
     0
 78
     1
 53
45.0
 43
0.0
 44
0.0
 45
-0.0707106781186548
 46
0.0707106781186548
 79
     0
 98
        1
 10
0.0
 20
0.0
  0
HATCH
  5
2C6
330
71
100
AcDbEntity
  8
1
  6
Continuous
 62
     2
100
AcDbHatch
 10
0.0
 20
0.0
 30
0.0
210
0.0
220
0.0
230
1.0
  2
_USER
 70
     0
 71
     1
 91
        2
 92
        1
 93
        6
 72
     1
 10
-245.0237428225809
 20
-236.5011047361229
 11
-245.7825104103612
 21
-236.5011047361229
 72
     1
 10
-245.7825104103612
 20
-236.5011047361229
 11
-245.7825104103612
 21
-237.4441829772667
 72
     1
 10
-245.7825104103612
 20
-237.4441829772667
 11
-247.0230148206153
 21
-237.4441829772667
 72
     1
 10
-247.0230148206153
 20
-237.4441829772667
 11
-247.0230148206153
 21
-234.3903734534555
 72
     1
 10
-247.0230148206153
 20
-234.3903734534555
 11
-245.0237428225809
 21
-234.3903734534555
 72
     2
 10
-245.0237428225809
 20
-235.4457390947892
 40
1.055365641333708
 50
270.0
 51
450.0
 73
     0
 97
        6
330
214
330
213
330
220
330
21F
330
215
330
265
 92
       16
 93
        4
 72
     2
 10
-245.4652153488193
 20
-235.4063431235667
 40
0.3528638246710898
 50
270.0
 51
450.0
 73
     1
 72
     1
 10
-245.4652153488193
 20
-235.0534792988956
 11
-245.7825104103612
 21
-235.0534792988956
 72
     1
 10
-245.7825104103612
 20
-235.0534792988956
 11
-245.7825104103612
 21
-235.7592069482378
 72
     1
 10
-245.7825104103612
 20
-235.7592069482378
 11
-245.4652153488193
 21
-235.7592069482378
 97
        4
330
279
330
211
330
221
330
212
 75
     1
 76
     0
 52
45.0
 41
0.1
 77
     0
 78
     1
 53
45.0
 43
0.0
 44
0.0
 45
-0.0707106781186548
 46
0.0707106781186548
 79
     0
 98
        1
 10
0.0
 20
0.0
  0
HATCH
  5
2C7
330
71
100
AcDbEntity
  8
1
  6
Continuous
 62
     2
100
AcDbHatch
 10
0.0
 20
0.0
 30
0.0
210
0.0
220
0.0
230
1.0
  2
_USER
 70
     0
 71
     1
 91
        2
 92
        1
 93
        6
 72
     1
 10
-245.0237428225809
 20
-236.5011047361229
 11
-245.7825104103612
 21
-236.5011047361229
 72
     1
 10
-245.7825104103612
 20
-236.5011047361229
 11
-245.7825104103612
 21
-237.4441829772667
 72
     1
 10
-245.7825104103612
 20
-237.4441829772667
 11
-247.0230148206153
 21
-237.4441829772667
 72
     1
 10
-247.0230148206153
 20
-237.4441829772667
 11
-247.0230148206153
 21
-234.3903734534555
 72
     1
 10
-247.0230148206153
 20
-234.3903734534555
 11
-245.0237428225809
 21
-234.3903734534555
 72
     2
 10
-245.0237428225809
 20
-235.4457390947892
 40
1.055365641333708
 50
270.0
 51
450.0
 73
     0
 97
        6
330
214
330
213
330
220
330
21F
330
215
330
265
 92
       16
 93
        4
 72
     2
 10
-245.4652153488193
 20
-235.4063431235667
 40
0.3528638246710898
 50
270.0
 51
450.0
 73
     1
 72
     1
 10
-245.4652153488193
 20
-235.0534792988956
 11
-245.7825104103612
 21
-235.0534792988956
 72
     1
 10
-245.7825104103612
 20
-235.0534792988956
 11
-245.7825104103612
 21
-235.7592069482378
 72
     1
 10
-245.7825104103612
 20
-235.7592069482378
 11
-245.4652153488193
 21
-235.7592069482378
 97
        4
330
279
330
211
330
221
330
212
 75
     1
 76
     0
 52
45.0
 41
0.1
 77
     0
 78
     1
 53
45.0
 43
0.0
 44
0.0
 45
-0.0707106781186548
 46
0.0707106781186548
 79
     0
 98
        1
 10
0.0
 20
0.0
  0
HATCH
  5
2C8
330
71
100
AcDbEntity
  8
1
  6
Continuous
 62
     2
100
AcDbHatch
 10
0.0
 20
0.0
 30
0.0
210
0.0
220
0.0
230
1.0
  2
_USER
 70
     0
 71
     1
 91
        2
 92
        1
 93
        4
 72
     2
 10
-242.4672000742218
 20
-239.8150437018385
 40
2.065479772208568
 50
62.45185182430637
 51
117.5481481756664
 73
     1
 72
     2
 10
-242.7481399660551
 20
-239.2764686915357
 40
1.45803408365149
 50
117.5481481756624
 51
242.4518518243375
 73
     1
 72
     2
 10
-242.4672000742218
 20
-238.7378936812324
 40
2.065479772208509
 50
242.4518518243402
 51
297.5481481756871
 73
     1
 72
     2
 10
-242.1862601823885
 20
-239.2764686915357
 40
1.458034083652003
 50
297.548148175701
 51
422.451851824299
 73
     1
 97
        4
330
271
330
270
330
272
330
26F
 92
       16
 93
        4
 72
     2
 10
-242.6669401105683
 20
-239.2764686915357
 40
0.7717997786797618
 50
321.8795802028456
 51
398.120419797151
 73
     1
 72
     2
 10
-242.4672000742218
 20
-239.1197375134152
 40
0.5179085730133174
 50
38.1204197971495
 51
141.8795802028563
 73
     1
 72
     2
 10
-242.2674600378757
 20
-239.2764686915357
 40
0.7717997786794808
 50
141.8795802028346
 51
218.1204197971687
 73
     1
 72
     2
 10
-242.4672000742218
 20
-239.4331998696557
 40
0.5179085730137354
 50
218.1204197971931
 51
321.879580202801
 73
     1
 97
        4
330
28D
330
28A
330
28B
330
28C
 75
     1
 76
     0
 52
45.0
 41
0.1
 77
     0
 78
     1
 53
45.0
 43
0.0
 44
0.0
 45
-0.0707106781186548
 46
0.0707106781186548
 79
     0
 98
        1
 10
0.0
 20
0.0
  0
HATCH
  5
2C9
330
71
100
AcDbEntity
  8
1
  6
Continuous
 62
     2
100
AcDbHatch
 10
0.0
 20
0.0
 30
0.0
210
0.0
220
0.0
230
1.0
  2
_USER
 70
     0
 71
     1
 91
        2
 92
        1
 93
        4
 72
     2
 10
-242.4672000742218
 20
-239.8150437018385
 40
2.065479772208568
 50
62.45185182430637
 51
117.5481481756664
 73
     1
 72
     2
 10
-242.7481399660551
 20
-239.2764686915357
 40
1.45803408365149
 50
117.5481481756624
 51
242.4518518243375
 73
     1
 72
     2
 10
-242.4672000742218
 20
-238.7378936812324
 40
2.065479772208509
 50
242.4518518243402
 51
297.5481481756871
 73
     1
 72
     2
 10
-242.1862601823885
 20
-239.2764686915357
 40
1.458034083652003
 50
297.548148175701
 51
422.451851824299
 73
     1
 97
        4
330
271
330
270
330
272
330
26F
 92
       16
 93
        4
 72
     2
 10
-242.6669401105683
 20
-239.2764686915357
 40
0.7717997786797618
 50
321.8795802028456
 51
398.120419797151
 73
     1
 72
     2
 10
-242.4672000742218
 20
-239.1197375134152
 40
0.5179085730133174
 50
38.1204197971495
 51
141.8795802028563
 73
     1
 72
     2
 10
-242.2674600378757
 20
-239.2764686915357
 40
0.7717997786794808
 50
141.8795802028346
 51
218.1204197971687
 73
     1
 72
     2
 10
-242.4672000742218
 20
-239.4331998696557
 40
0.5179085730137354
 50
218.1204197971931
 51
321.879580202801
 73
     1
 97
        4
330
28D
330
28A
330
28B
330
28C
 75
     1
 76
     0
 52
45.0
 41
0.1
 77
     0
 78
     1
 53
45.0
 43
0.0
 44
0.0
 45
-0.0707106781186548
 46
0.0707106781186548
 79
     0
 98
        1
 10
0.0
 20
0.0
  0
HATCH
  5
2CA
330
71
100
AcDbEntity
  8
1
  6
Continuous
 62
     2
100
AcDbHatch
 10
0.0
 20
0.0
 30
0.0
210
0.0
220
0.0
230
1.0
  2
_USER
 70
     0
 71
     1
 91
        2
 92
        1
 93
       12
 72
     1
 10
-235.5722048798126
 20
-235.0883870588985
 11
-236.9081327062402
 21
-235.0883870588985
 72
     1
 10
-236.9081327062402
 20
-235.0883870588985
 11
-236.9081327062402
 21
-235.5682714126402
 72
     1
 10
-236.9081327062402
 20
-235.5682714126402
 11
-235.5722048798126
 21
-235.5682714126402
 72
     1
 10
-235.5722048798126
 20
-235.5682714126402
 11
-235.5722048798126
 21
-236.2662850180825
 72
     1
 10
-235.5722048798126
 20
-236.2662850180825
 11
-236.9081327062402
 21
-236.2662850180825
 72
     1
 10
-236.9081327062402
 20
-236.2662850180825
 11
-236.9081327062402
 21
-236.7461693718242
 72
     1
 10
-236.9081327062402
 20
-236.7461693718242
 11
-235.5722048798126
 21
-236.7461693718242
 72
     1
 10
-235.5722048798126
 20
-236.7461693718242
 11
-235.5722048798126
 21
-237.4441829772667
 72
     1
 10
-235.5722048798126
 20
-237.4441829772667
 11
-238.7225246035935
 21
-237.4441829772667
 72
     2
 10
-238.7225246035935
 20
-235.9172782153614
 40
1.526904761905882
 50
90.0
 51
270.0
 73
     0
 72
     1
 10
-238.7225246035935
 20
-234.3903734534555
 11
-235.5722048798126
 21
-234.3903734534555
 72
     1
 10
-235.5722048798126
 20
-234.3903734534555
 11
-235.5722048798126
 21
-235.0883870588985
 97
       12
330
228
330
27A
330
229
330
22A
330
22B
330
22C
330
209
330
208
330
207
330
206
330
22D
330
227
 92
       16
 93
        4
 72
     2
 10
-238.5062525934283
 20
-235.7605470372409
 40
0.5179085730135041
 50
38.12041979714528
 51
141.8795802028508
 73
     1
 72
     2
 10
-238.306512557082
 20
-235.9172782153614
 40
0.7717997786796947
 50
141.8795802028417
 51
218.1204197971533
 73
     1
 72
     2
 10
-238.5062525934283
 20
-236.0740093934818
 40
0.5179085730134595
 50
218.1204197971492
 51
321.8795802028547
 73
     1
 72
     2
 10
-238.7059926297745
 20
-235.9172782153614
 40
0.7717997786796198
 50
321.8795802028454
 51
398.1204197971596
 73
     1
 97
        4
330
274
330
273
330
26E
330
26D
 75
     1
 76
     0
 52
45.0
 41
0.1
 77
     0
 78
     1
 53
45.0
 43
0.0
 44
0.0
 45
-0.0707106781186548
 46
0.0707106781186548
 79
     0
 98
        1
 10
0.0
 20
0.0
  0
HATCH
  5
2CB
330
71
100
AcDbEntity
  8
1
  6
Continuous
 62
     2
100
AcDbHatch
 10
0.0
 20
0.0
 30
0.0
210
0.0
220
0.0
230
1.0
  2
_USER
 70
     0
 71
     1
 91
        2
 92
        1
 93
       12
 72
     1
 10
-235.5722048798126
 20
-235.0883870588985
 11
-236.9081327062402
 21
-235.0883870588985
 72
     1
 10
-236.9081327062402
 20
-235.0883870588985
 11
-236.9081327062402
 21
-235.5682714126402
 72
     1
 10
-236.9081327062402
 20
-235.5682714126402
 11
-235.5722048798126
 21
-235.5682714126402
 72
     1
 10
-235.5722048798126
 20
-235.5682714126402
 11
-235.5722048798126
 21
-236.2662850180825
 72
     1
 10
-235.5722048798126
 20
-236.2662850180825
 11
-236.9081327062402
 21
-236.2662850180825
 72
     1
 10
-236.9081327062402
 20
-236.2662850180825
 11
-236.9081327062402
 21
-236.7461693718242
 72
     1
 10
-236.9081327062402
 20
-236.7461693718242
 11
-235.5722048798126
 21
-236.7461693718242
 72
     1
 10
-235.5722048798126
 20
-236.7461693718242
 11
-235.5722048798126
 21
-237.4441829772667
 72
     1
 10
-235.5722048798126
 20
-237.4441829772667
 11
-238.7225246035935
 21
-237.4441829772667
 72
     2
 10
-238.7225246035935
 20
-235.9172782153614
 40
1.526904761905882
 50
90.0
 51
270.0
 73
     0
 72
     1
 10
-238.7225246035935
 20
-234.3903734534555
 11
-235.5722048798126
 21
-234.3903734534555
 72
     1
 10
-235.5722048798126
 20
-234.3903734534555
 11
-235.5722048798126
 21
-235.0883870588985
 97
       12
330
228
330
27A
330
229
330
22A
330
22B
330
22C
330
209
330
208
330
207
330
206
330
22D
330
227
 92
       16
 93
        4
 72
     2
 10
-238.5062525934283
 20
-235.7605470372409
 40
0.5179085730135041
 50
38.12041979714528
 51
141.8795802028508
 73
     1
 72
     2
 10
-238.306512557082
 20
-235.9172782153614
 40
0.7717997786796947
 50
141.8795802028417
 51
218.1204197971533
 73
     1
 72
     2
 10
-238.5062525934283
 20
-236.0740093934818
 40
0.5179085730134595
 50
218.1204197971492
 51
321.8795802028547
 73
     1
 72
     2
 10
-238.7059926297745
 20
-235.9172782153614
 40
0.7717997786796198
 50
321.8795802028454
 51
398.1204197971596
 73
     1
 97
        4
330
274
330
273
330
26E
330
26D
 75
     1
 76
     0
 52
45.0
 41
0.1
 77
     0
 78
     1
 53
45.0
 43
0.0
 44
0.0
 45
-0.0707106781186548
 46
0.0707106781186548
 79
     0
 98
        1
 10
0.0
 20
0.0
  0
HATCH
  5
2CC
330
71
100
AcDbEntity
  8
1
  6
Continuous
 62
     2
100
AcDbHatch
 10
0.0
 20
0.0
 30
0.0
210
0.0
220
0.0
230
1.0
  2
_USER
 70
     0
 71
     1
 91
        4
 92
        1
 93
        8
 72
     1
 10
-247.5001319014822
 20
-234.8146180688575
 11
-247.5001319014822
 21
-240.3791288380577
 72
     2
 10
-247.924376516866
 20
-240.3791288380577
 40
0.4242446153832873
 50
0.0
 51
90.0
 73
     0
 72
     1
 10
-247.924376516866
 20
-240.803373453441
 11
-253.3976886075828
 21
-240.803373453441
 72
     2
 10
-253.3976886075828
 20
-240.3791288380577
 40
0.4242446153828041
 50
90.0
 51
180.0
 73
     0
 72
     1
 10
-253.8219332229656
 20
-240.3791288380577
 11
-253.8219332229656
 21
-234.8146180688575
 72
     2
 10
-253.3976886075828
 20
-234.8146180688575
 40
0.4242446153837989
 50
180.0
 51
270.0
 73
     0
 72
     1
 10
-253.3976886075828
 20
-234.3903734534737
 11
-247.924376516866
 21
-234.3903734534737
 72
     2
 10
-247.924376516866
 20
-234.8146180688575
 40
0.4242446153837989
 50
270.0
 51
360.0
 73
     0
 97
        8
330
21C
330
26A
330
21D
330
275
330
21A
330
26C
330
21B
330
26B
 92
       16
 93
        1
 72
     2
 10
-250.7781029570653
 20
-237.133500297213
 40
0.4709789327785074
 50
0.0
 51
360.0
 73
     1
 97
        1
330
290
 92
       16
 93
        8
 72
     2
 10
-250.2282452443047
 20
-238.2426418971814
 40
0.3157169230764706
 50
115.3740086783401
 51
180.0
 73
     1
 72
     1
 10
-250.5439621673814
 20
-238.2426418971814
 11
-250.5439621673814
 21
-238.8244933038765
 72
     2
 10
-250.2282452443047
 20
-238.8244933038765
 40
0.3157169230767067
 50
180.0
 51
269.8110329574695
 73
     1
 72
     2
 10
-250.2226291089946
 20
-237.1216583563075
 40
2.018561131933237
 50
269.8110329575858
 51
450.1889670424142
 73
     1
 72
     2
 10
-250.2282452443047
 20
-235.4188234087384
 40
0.3157169230760707
 50
90.18896704253045
 51
180.0
 73
     1
 72
     1
 10
-250.5439621673814
 20
-235.4188234087384
 11
-250.5439621673814
 21
-236.0243586972452
 72
     2
 10
-250.2282452443047
 20
-236.0243586972452
 40
0.3157169230767067
 50
180.0
 51
244.6259913216621
 73
     1
 72
     2
 10
-250.7542879423925
 20
-237.133500297213
 40
0.911848150144459
 50
295.3740086781925
 51
424.6259913218236
 73
     0
 97
        8
330
282
330
1E3
330
27F
330
280
330
25E
330
1E2
330
281
330
25D
 92
       16
 93
       12
 72
     2
 10
-252.8037939308364
 20
-239.7751009748074
 40
0.3157169230755983
 50
180.0
 51
270.0
 73
     1
 72
     1
 10
-252.8037939308364
 20
-240.0908178978841
 11
-251.3279606698267
 21
-240.0908178978841
 72
     2
 10
-251.3279606698267
 20
-239.7751009748074
 40
0.3157169230767067
 50
270.0
 51
360.0
 73
     1
 72
     1
 10
-251.0122437467501
 20
-239.7751009748074
 11
-251.0122437467501
 21
-238.2443300432758
 72
     2
 10
-251.3279606698267
 20
-238.2443300432758
 40
0.315716923076593
 50
0.0
 51
64.80558935146249
 73
     1
 72
     2
 10
-250.8053762222517
 20
-237.133500297213
 40
0.9118975235576147
 50
115.1944106485131
 51
244.8055893514718
 73
     0
 72
     2
 10
-251.3279606698267
 20
-236.0226705511508
 40
0.3157169230761203
 50
295.1944106485397
 51
360.0
 73
     1
 72
     1
 10
-251.0122437467501
 20
-236.0226705511508
 11
-251.0122437467501
 21
-235.4186459320903
 72
     2
 10
-251.3279606698267
 20
-235.4186459320903
 40
0.315716923076593
 50
0.0
 51
90.0
 73
     1
 72
     1
 10
-251.3279606698267
 20
-235.1029290090141
 11
-252.8037939308364
 21
-235.1029290090141
 72
     2
 10
-252.8037939308364
 20
-235.4186459320903
 40
0.3157169230761951
 50
90.0
 51
180.0
 73
     1
 72
     1
 10
-253.119510853912
 20
-235.4186459320903
 11
-253.119510853912
 21
-239.7751009748074
 97
       12
330
266
330
21E
330
269
330
219
330
276
330
277
330
268
330
218
330
267
330
217
330
278
330
216
 75
     1
 76
     0
 52
45.0
 41
0.1
 77
     0
 78
     1
 53
45.0
 43
0.0
 44
0.0
 45
-0.0707106781186548
 46
0.0707106781186548
 79
     0
 98
        1
 10
0.0
 20
0.0
  0
HATCH
  5
2CD
330
71
100
AcDbEntity
  8
1
  6
Continuous
 62
     2
100
AcDbHatch
 10
0.0
 20
0.0
 30
0.0
210
0.0
220
0.0
230
1.0
  2
_USER
 70
     0
 71
     1
 91
        4
 92
        1
 93
        8
 72
     1
 10
-247.5001319014822
 20
-234.8146180688575
 11
-247.5001319014822
 21
-240.3791288380577
 72
     2
 10
-247.924376516866
 20
-240.3791288380577
 40
0.4242446153832873
 50
0.0
 51
90.0
 73
     0
 72
     1
 10
-247.924376516866
 20
-240.803373453441
 11
-253.3976886075828
 21
-240.803373453441
 72
     2
 10
-253.3976886075828
 20
-240.3791288380577
 40
0.4242446153828041
 50
90.0
 51
180.0
 73
     0
 72
     1
 10
-253.8219332229656
 20
-240.3791288380577
 11
-253.8219332229656
 21
-234.8146180688575
 72
     2
 10
-253.3976886075828
 20
-234.8146180688575
 40
0.4242446153837989
 50
180.0
 51
270.0
 73
     0
 72
     1
 10
-253.3976886075828
 20
-234.3903734534737
 11
-247.924376516866
 21
-234.3903734534737
 72
     2
 10
-247.924376516866
 20
-234.8146180688575
 40
0.4242446153837989
 50
270.0
 51
360.0
 73
     0
 97
        8
330
21C
330
26A
330
21D
330
275
330
21A
330
26C
330
21B
330
26B
 92
       16
 93
        1
 72
     2
 10
-250.7781029570653
 20
-237.133500297213
 40
0.4709789327785074
 50
0.0
 51
360.0
 73
     1
 97
        1
330
290
 92
       16
 93
        8
 72
     2
 10
-250.2282452443047
 20
-238.2426418971814
 40
0.3157169230764706
 50
115.3740086783401
 51
180.0
 73
     1
 72
     1
 10
-250.5439621673814
 20
-238.2426418971814
 11
-250.5439621673814
 21
-238.8244933038765
 72
     2
 10
-250.2282452443047
 20
-238.8244933038765
 40
0.3157169230767067
 50
180.0
 51
269.8110329574695
 73
     1
 72
     2
 10
-250.2226291089946
 20
-237.1216583563075
 40
2.018561131933237
 50
269.8110329575858
 51
450.1889670424142
 73
     1
 72
     2
 10
-250.2282452443047
 20
-235.4188234087384
 40
0.3157169230760707
 50
90.18896704253045
 51
180.0
 73
     1
 72
     1
 10
-250.5439621673814
 20
-235.4188234087384
 11
-250.5439621673814
 21
-236.0243586972452
 72
     2
 10
-250.2282452443047
 20
-236.0243586972452
 40
0.3157169230767067
 50
180.0
 51
244.6259913216621
 73
     1
 72
     2
 10
-250.7542879423925
 20
-237.133500297213
 40
0.911848150144459
 50
295.3740086781925
 51
424.6259913218236
 73
     0
 97
        8
330
282
330
1E3
330
27F
330
280
330
25E
330
1E2
330
281
330
25D
 92
       16
 93
       12
 72
     2
 10
-252.8037939308364
 20
-239.7751009748074
 40
0.3157169230755983
 50
180.0
 51
270.0
 73
     1
 72
     1
 10
-252.8037939308364
 20
-240.0908178978841
 11
-251.3279606698267
 21
-240.0908178978841
 72
     2
 10
-251.3279606698267
 20
-239.7751009748074
 40
0.3157169230767067
 50
270.0
 51
360.0
 73
     1
 72
     1
 10
-251.0122437467501
 20
-239.7751009748074
 11
-251.0122437467501
 21
-238.2443300432758
 72
     2
 10
-251.3279606698267
 20
-238.2443300432758
 40
0.315716923076593
 50
0.0
 51
64.80558935146249
 73
     1
 72
     2
 10
-250.8053762222517
 20
-237.133500297213
 40
0.9118975235576147
 50
115.1944106485131
 51
244.8055893514718
 73
     0
 72
     2
 10
-251.3279606698267
 20
-236.0226705511508
 40
0.3157169230761203
 50
295.1944106485397
 51
360.0
 73
     1
 72
     1
 10
-251.0122437467501
 20
-236.0226705511508
 11
-251.0122437467501
 21
-235.4186459320903
 72
     2
 10
-251.3279606698267
 20
-235.4186459320903
 40
0.315716923076593
 50
0.0
 51
90.0
 73
     1
 72
     1
 10
-251.3279606698267
 20
-235.1029290090141
 11
-252.8037939308364
 21
-235.1029290090141
 72
     2
 10
-252.8037939308364
 20
-235.4186459320903
 40
0.3157169230761951
 50
90.0
 51
180.0
 73
     1
 72
     1
 10
-253.119510853912
 20
-235.4186459320903
 11
-253.119510853912
 21
-239.7751009748074
 97
       12
330
266
330
21E
330
269
330
219
330
276
330
277
330
268
330
218
330
267
330
217
330
278
330
216
 75
     1
 76
     0
 52
45.0
 41
0.1
 77
     0
 78
     1
 53
45.0
 43
0.0
 44
0.0
 45
-0.0707106781186548
 46
0.0707106781186548
 79
     0
 98
        1
 10
0.0
 20
0.0
  0
HATCH
  5
2CE
330
71
100
AcDbEntity
  8
1
  6
Continuous
 62
     2
100
AcDbHatch
 10
0.0
 20
0.0
 30
0.0
210
0.0
220
0.0
230
1.0
  2
_USER
 70
     0
 71
     1
 91
        1
 92
        1
 93
       18
 72
     1
 10
-225.9105839922611
 20
-238.5348292357535
 11
-226.7216830297345
 21
-238.5348292357535
 72
     1
 10
-226.7216830297345
 20
-238.5348292357535
 11
-226.7216830297345
 21
-240.803373453441
 72
     1
 10
-226.7216830297345
 20
-240.803373453441
 11
-227.9144757319022
 21
-240.803373453441
 72
     1
 10
-227.9144757319022
 20
-240.803373453441
 11
-227.9144757319022
 21
-238.5348292357535
 72
     1
 10
-227.9144757319022
 20
-238.5348292357535
 11
-229.0181150314703
 21
-238.5348292357535
 72
     2
 10
-229.0181150314703
 20
-239.4893522425796
 40
0.9545230068260935
 50
90.0
 51
109.3371432194314
 73
     1
 72
     2
 10
-229.164785029574
 20
-239.0713972621967
 40
0.5115800601944411
 50
109.3371432194842
 51
151.4785267424225
 73
     1
 72
     2
 10
-228.7874277714926
 20
-239.2764686915357
 40
0.9410597353349173
 50
151.4785267423633
 51
208.5214732576687
 73
     1
 72
     2
 10
-229.164785029574
 20
-239.4815401208742
 40
0.5115800601960215
 50
208.5214732576866
 51
246.6277221118449
 73
     1
 72
     2
 10
-229.0083449968709
 20
-239.1195481021642
 40
0.9059297849852801
 50
246.6277221118183
 51
288.4480761180817
 73
     1
 72
     2
 10
-229.4265127305328
 20
-237.8660023261276
 40
2.227384008972746
 50
288.4480761181335
 51
301.9309089499397
 73
     1
 72
     1
 10
-228.2484576885089
 20
-239.7563530452774
 11
-228.2484576885089
 21
-240.6288700520807
 72
     2
 10
-229.5843856056256
 20
-235.9637877462793
 40
4.852596863498825
 50
74.02000874166129
 51
84.84185523036365
 73
     0
 72
     2
 10
-229.2955295108898
 20
-239.1636783295009
 40
1.639695123940531
 50
84.8418552303238
 51
164.9381082228996
 73
     0
 72
     2
 10
-229.7146573543514
 20
-239.2764686915357
 40
1.205656168393085
 50
164.9381082229052
 51
195.0618917770962
 73
     0
 72
     2
 10
-229.2955295108898
 20
-239.3892590535706
 40
1.639695123940214
 50
195.0618917771043
 51
270.0
 73
     0
 72
     1
 10
-229.2955295108898
 20
-237.7495639296304
 11
-225.9105839922611
 21
-237.7495639296299
 72
     1
 10
-225.9105839922611
 20
-237.7495639296299
 11
-225.9105839922611
 21
-238.5348292357535
 97
       18
330
1E5
330
27B
330
27C
330
264
330
263
330
249
330
262
330
261
330
27D
330
260
330
27E
330
25F
330
24A
330
1E4
330
1E9
330
1E8
330
1E7
330
1E6
 75
     1
 76
     0
 52
45.0
 41
0.1
 77
     0
 78
     1
 53
45.0
 43
0.0
 44
0.0
 45
-0.0707106781186548
 46
0.0707106781186548
 79
     0
 98
        1
 10
0.0
 20
0.0
  0
HATCH
  5
2CF
330
71
100
AcDbEntity
  8
1
  6
Continuous
 62
     2
100
AcDbHatch
 10
0.0
 20
0.0
 30
0.0
210
0.0
220
0.0
230
1.0
  2
_USER
 70
     0
 71
     1
 91
        1
 92
        1
 93
       18
 72
     1
 10
-225.9105839922611
 20
-238.5348292357535
 11
-226.7216830297345
 21
-238.5348292357535
 72
     1
 10
-226.7216830297345
 20
-238.5348292357535
 11
-226.7216830297345
 21
-240.803373453441
 72
     1
 10
-226.7216830297345
 20
-240.803373453441
 11
-227.9144757319022
 21
-240.803373453441
 72
     1
 10
-227.9144757319022
 20
-240.803373453441
 11
-227.9144757319022
 21
-238.5348292357535
 72
     1
 10
-227.9144757319022
 20
-238.5348292357535
 11
-229.0181150314703
 21
-238.5348292357535
 72
     2
 10
-229.0181150314703
 20
-239.4893522425796
 40
0.9545230068260935
 50
90.0
 51
109.3371432194314
 73
     1
 72
     2
 10
-229.164785029574
 20
-239.0713972621967
 40
0.5115800601944411
 50
109.3371432194842
 51
151.4785267424225
 73
     1
 72
     2
 10
-228.7874277714926
 20
-239.2764686915357
 40
0.9410597353349173
 50
151.4785267423633
 51
208.5214732576687
 73
     1
 72
     2
 10
-229.164785029574
 20
-239.4815401208742
 40
0.5115800601960215
 50
208.5214732576866
 51
246.6277221118449
 73
     1
 72
     2
 10
-229.0083449968709
 20
-239.1195481021642
 40
0.9059297849852801
 50
246.6277221118183
 51
288.4480761180817
 73
     1
 72
     2
 10
-229.4265127305328
 20
-237.8660023261276
 40
2.227384008972746
 50
288.4480761181335
 51
301.9309089499397
 73
     1
 72
     1
 10
-228.2484576885089
 20
-239.7563530452774
 11
-228.2484576885089
 21
-240.6288700520807
 72
     2
 10
-229.5843856056256
 20
-235.9637877462793
 40
4.852596863498825
 50
74.02000874166129
 51
84.84185523036365
 73
     0
 72
     2
 10
-229.2955295108898
 20
-239.1636783295009
 40
1.639695123940531
 50
84.8418552303238
 51
164.9381082228996
 73
     0
 72
     2
 10
-229.7146573543514
 20
-239.2764686915357
 40
1.205656168393085
 50
164.9381082229052
 51
195.0618917770962
 73
     0
 72
     2
 10
-229.2955295108898
 20
-239.3892590535706
 40
1.639695123940214
 50
195.0618917771043
 51
270.0
 73
     0
 72
     1
 10
-229.2955295108898
 20
-237.7495639296304
 11
-225.9105839922611
 21
-237.7495639296299
 72
     1
 10
-225.9105839922611
 20
-237.7495639296299
 11
-225.9105839922611
 21
-238.5348292357535
 97
       18
330
1E5
330
27B
330
27C
330
264
330
263
330
249
330
262
330
261
330
27D
330
260
330
27E
330
25F
330
24A
330
1E4
330
1E9
330
1E8
330
1E7
330
1E6
 75
     1
 76
     0
 52
45.0
 41
0.1
 77
     0
 78
     1
 53
45.0
 43
0.0
 44
0.0
 45
-0.0707106781186548
 46
0.0707106781186548
 79
     0
 98
        1
 10
0.0
 20
0.0
  0
HATCH
  5
2D0
330
71
100
AcDbEntity
  8
1
  6
Continuous
 62
     2
100
AcDbHatch
 10
0.0
 20
0.0
 30
0.0
210
0.0
220
0.0
230
1.0
  2
_USER
 70
     0
 71
     1
 91
        1
 92
        1
 93
       14
 72
     2
 10
-245.3982309901427
 20
-239.3892590535706
 40
1.639695123940499
 50
84.84185523036533
 51
164.9381082228864
 73
     1
 72
     2
 10
-245.8173588336055
 20
-239.2764686915357
 40
1.205656168390944
 50
164.9381082228765
 51
195.0618917770948
 73
     1
 72
     2
 10
-245.3982309901427
 20
-239.1636783295009
 40
1.639695123939387
 50
195.0618917770896
 51
275.1581447696365
 73
     1
 72
     2
 10
-245.6870870848786
 20
-235.9637877462793
 40
4.852596863498131
 50
275.158144769624
 51
285.979991258353
 73
     1
 72
     1
 10
-244.3511591677608
 20
-240.6288700520801
 11
-244.3511591677608
 21
-239.7563530452769
 72
     2
 10
-245.5292142097857
 20
-237.866002326127
 40
2.227384008972737
 50
58.06909105004111
 51
71.55192388186951
 73
     0
 72
     2
 10
-245.1110464761249
 20
-239.1195481021642
 40
0.9059297849849192
 50
71.55192388184666
 51
113.372277888129
 73
     0
 72
     2
 10
-245.267486508827
 20
-239.4815401208742
 40
0.5115800601948034
 50
113.3722778881639
 51
151.4785267423044
 73
     0
 72
     2
 10
-244.8901292507466
 20
-239.2764686915357
 40
0.9410597353333294
 50
151.4785267422967
 51
208.5214732577306
 73
     0
 72
     2
 10
-245.267486508827
 20
-239.0713972621967
 40
0.511580060194844
 50
208.5214732576956
 51
246.6277221118096
 73
     0
 72
     2
 10
-245.1110464761249
 20
-239.4333892809073
 40
0.9059297849853228
 50
246.627722111871
 51
288.4480761181408
 73
     0
 72
     2
 10
-245.5292142097857
 20
-240.6869350569439
 40
2.227384008973478
 50
288.4480761181305
 51
301.9309089499593
 73
     0
 72
     1
 10
-244.3511591677608
 20
-238.796584337794
 11
-244.3511591677608
 21
-237.9240673309907
 72
     2
 10
-245.6870870848786
 20
-242.5891496367916
 40
4.852596863498068
 50
74.02000874164739
 51
84.84185523037605
 73
     1
 97
       14
330
283
330
284
330
285
330
286
330
24B
330
25C
330
25B
330
25A
330
287
330
288
330
259
330
289
330
24C
330
258
 75
     1
 76
     0
 52
45.0
 41
0.1
 77
     0
 78
     1
 53
45.0
 43
0.0
 44
0.0
 45
-0.0707106781186548
 46
0.0707106781186548
 79
     0
 98
        1
 10
0.0
 20
0.0
  0
HATCH
  5
2D1
330
71
100
AcDbEntity
  8
1
  6
Continuous
 62
     2
100
AcDbHatch
 10
0.0
 20
0.0
 30
0.0
210
0.0
220
0.0
230
1.0
  2
_USER
 70
     0
 71
     1
 91
        1
 92
        1
 93
       14
 72
     2
 10
-245.3982309901427
 20
-239.3892590535706
 40
1.639695123940499
 50
84.84185523036533
 51
164.9381082228864
 73
     1
 72
     2
 10
-245.8173588336055
 20
-239.2764686915357
 40
1.205656168390944
 50
164.9381082228765
 51
195.0618917770948
 73
     1
 72
     2
 10
-245.3982309901427
 20
-239.1636783295009
 40
1.639695123939387
 50
195.0618917770896
 51
275.1581447696365
 73
     1
 72
     2
 10
-245.6870870848786
 20
-235.9637877462793
 40
4.852596863498131
 50
275.158144769624
 51
285.979991258353
 73
     1
 72
     1
 10
-244.3511591677608
 20
-240.6288700520801
 11
-244.3511591677608
 21
-239.7563530452769
 72
     2
 10
-245.5292142097857
 20
-237.866002326127
 40
2.227384008972737
 50
58.06909105004111
 51
71.55192388186951
 73
     0
 72
     2
 10
-245.1110464761249
 20
-239.1195481021642
 40
0.9059297849849192
 50
71.55192388184666
 51
113.372277888129
 73
     0
 72
     2
 10
-245.267486508827
 20
-239.4815401208742
 40
0.5115800601948034
 50
113.3722778881639
 51
151.4785267423044
 73
     0
 72
     2
 10
-244.8901292507466
 20
-239.2764686915357
 40
0.9410597353333294
 50
151.4785267422967
 51
208.5214732577306
 73
     0
 72
     2
 10
-245.267486508827
 20
-239.0713972621967
 40
0.511580060194844
 50
208.5214732576956
 51
246.6277221118096
 73
     0
 72
     2
 10
-245.1110464761249
 20
-239.4333892809073
 40
0.9059297849853228
 50
246.627722111871
 51
288.4480761181408
 73
     0
 72
     2
 10
-245.5292142097857
 20
-240.6869350569439
 40
2.227384008973478
 50
288.4480761181305
 51
301.9309089499593
 73
     0
 72
     1
 10
-244.3511591677608
 20
-238.796584337794
 11
-244.3511591677608
 21
-237.9240673309907
 72
     2
 10
-245.6870870848786
 20
-242.5891496367916
 40
4.852596863498068
 50
74.02000874164739
 51
84.84185523037605
 73
     1
 97
       14
330
283
330
284
330
285
330
286
330
24B
330
25C
330
25B
330
25A
330
287
330
288
330
259
330
289
330
24C
330
258
 75
     1
 76
     0
 52
45.0
 41
0.1
 77
     0
 78
     1
 53
45.0
 43
0.0
 44
0.0
 45
-0.0707106781186548
 46
0.0707106781186548
 79
     0
 98
        1
 10
0.0
 20
0.0
  0
ENDBLK
  5
73
330
71
100
AcDbEntity
  8
0
100
AcDbBlockEnd
  0
BLOCK
  5
75
330
74
100
AcDbEntity
  8
0
100
AcDbBlockBegin
  2
_punkt
 70
     0
 10
-128.5137835827782
 20
-248.0968734534573
 30
0.0
  3
_punkt
  1

  0
LINE
  5
2D2
330
74
100
AcDbEntity
  8
1
  6
Continuous
 62
     2
100
AcDbLine
 10
-128.5137835827782
 20
-248.0968734534573
 30
0.0
 11
-123.5137835827792
 21
-248.0968734534573
 31
0.0
  0
LINE
  5
2D3
330
74
100
AcDbEntity
  8
1
  6
Continuous
 62
     2
100
AcDbLine
 10
-128.5137835827782
 20
-248.0968734534573
 30
0.0
 11
-128.5137835827782
 21
-253.0968734534574
 31
0.0
  0
ENDBLK
  5
76
330
74
100
AcDbEntity
  8
0
100
AcDbBlockEnd
  0
BLOCK
  5
7A
330
77
100
AcDbEntity
  8
0
100
AcDbBlockBegin
  2
A4I_CS
 70
     0
 10
-128.5137835827782
 20
-253.0968734534574
 30
0.0
  3
A4I_CS
  1

  0
INSERT
  5
78
330
77
100
AcDbEntity
  8
1
100
AcDbBlockReference
  2
_rahmen
 10
-128.5137835827782
 20
-253.0968734534574
 30
0.0
  0
INSERT
  5
79
330
77
100
AcDbEntity
  8
1
100
AcDbBlockReference
  2
_punkt
 10
-128.5137835827782
 20
-248.0968734534573
 30
0.0
  0
ENDBLK
  5
7B
330
77
100
AcDbEntity
  8
0
100
AcDbBlockEnd
  0
BLOCK
  5
84
330
7C
100
AcDbEntity
  8
0
100
AcDbBlockBegin
  2
1
 70
     0
 10
0.0
 20
0.0
 30
0.0
  3
1
  1

  0
INSERT
  5
7D
330
7C
100
AcDbEntity
  8
0
100
AcDbBlockReference
  2
Back1
 10
-189.5000004768523
 20
-120.00000000008
 30
0.0
  0
INSERT
  5
7E
330
7C
100
AcDbEntity
  8
0
100
AcDbBlockReference
  2
Front1
 10
-294.4999995231427
 20
-120.00000000008
 30
0.0
  0
INSERT
  5
7F
330
7C
100
AcDbEntity
  8
0
100
AcDbBlockReference
  2
Gen1
 10
-189.4999999999799
 20
-174.0000000000711
 30
0.0
  0
INSERT
  5
80
330
7C
100
AcDbEntity
  8
0
100
AcDbBlockReference
  2
Left1
 10
-242.000000000005
 20
-120.00000000008
 30
0.0
  0
INSERT
  5
81
330
7C
100
AcDbEntity
  8
0
100
AcDbBlockReference
  2
Right1
 10
-359.9999990463158
 20
-120.00000000008
 30
0.0
  0
INSERT
  5
82
330
7C
100
AcDbEntity
  8
0
100
AcDbBlockReference
  2
Top1
 10
-294.4999995231427
 20
-168.9999999999901
 30
0.0
  0
INSERT
  5
83
330
7C
100
AcDbEntity
  8
0
100
AcDbBlockReference
  2
A4I_CS
 10
-128.5137835827782
 20
-253.0968734534574
 30
0.0
  0
ENDBLK
  5
85
330
7C
100
AcDbEntity
  8
0
100
AcDbBlockEnd
  0
BLOCK
  5
BB
330
B3
100
AcDbEntity
  8
0
100
AcDbBlockBegin
  2
*D17
 70
     1
 10
0.0
 20
0.0
 30
0.0
  3
*D17
  1

  0
LINE
  5
B4
330
B3
100
AcDbEntity
  8
1
  6
Continuous
 62
     2
100
AcDbLine
 10
-311.4999995042098
 20
-133.4999995794718
 30
0.0
 11
-279.4999995042098
 21
-133.4999995794718
 31
0.0
  0
LINE
  5
B5
330
B3
100
AcDbEntity
  8
1
  6
Continuous
 62
     2
100
AcDbLine
 10
-311.4999995042098
 20
-120.9999995794717
 30
0.0
 11
-311.4999995042098
 21
-134.9999995794718
 31
0.0
  0
LINE
  5
B6
330
B3
100
AcDbEntity
  8
1
  6
Continuous
 62
     2
100
AcDbLine
 10
-279.4999995042098
 20
-123.4999995794718
 30
0.0
 11
-279.4999995042098
 21
-134.9999995794718
 31
0.0
  0
SOLID
  5
B7
330
B3
100
AcDbEntity
  8
1
 62
     2
100
AcDbTrace
 10
-307.9999995042098
 20
-133.0392158379159
 30
0.0
 11
-307.9999995042098
 21
-133.9607833210277
 31
0.0
 12
-311.4999995042098
 22
-133.4999995794718
 32
0.0
 13
-311.4999995042098
 23
-133.4999995794718
 33
0.0
  0
SOLID
  5
B8
330
B3
100
AcDbEntity
  8
1
 62
     2
100
AcDbTrace
 10
-282.9999995042098
 20
-133.9607833210277
 30
0.0
 11
-282.9999995042098
 21
-133.0392158379159
 31
0.0
 12
-279.4999995042098
 22
-133.4999995794718
 32
0.0
 13
-279.4999995042098
 23
-133.4999995794718
 33
0.0
  0
MTEXT
  5
BA
330
B3
100
AcDbEntity
  8
1
 62
     3
100
AcDbMText
 10
-297.7376603425383
 20
-131.9999995794718
 30
0.0
 40
3.5
 41
0.0
 71
     7
 72
     1
  1
32
  7
CONVERTER_11
 11
0.9999999999970619
 21
2.424068405545306E-6
 31
0.0
 73
     1
 44
0.60024009603842
  0
ENDBLK
  5
BC
330
B3
100
AcDbEntity
  8
0
100
AcDbBlockEnd
  0
BLOCK
  5
C8
330
BF
100
AcDbEntity
  8
0
100
AcDbBlockBegin
  2
*D18
 70
     1
 10
0.0
 20
0.0
 30
0.0
  3
*D18
  1

  0
LINE
  5
C0
330
BF
100
AcDbEntity
  8
1
  6
Continuous
 62
     2
100
AcDbLine
 10
-321.4999995042099
 20
-130.4999995794718
 30
0.0
 11
-321.4999995042099
 21
-123.4999995794718
 31
0.0
  0
LINE
  5
C1
330
BF
100
AcDbEntity
  8
1
  6
Continuous
 62
     2
100
AcDbLine
 10
-321.4999995042099
 20
-123.4999995794718
 30
0.0
 11
-321.4999995042099
 21
-116.4999995794718
 31
0.0
  0
LINE
  5
C2
330
BF
100
AcDbEntity
  8
1
  6
Continuous
 62
     2
100
AcDbLine
 10
-321.4999995042099
 20
-116.4999995794718
 30
0.0
 11
-321.4999995042099
 21
-109.4999995794718
 31
0.0
  0
LINE
  5
C3
330
BF
100
AcDbEntity
  8
1
  6
Continuous
 62
     2
100
AcDbLine
 10
-293.1213198477695
 20
-123.4999995794718
 30
0.0
 11
-322.9999995042099
 21
-123.4999995794718
 31
0.0
  0
LINE
  5
C4
330
BF
100
AcDbEntity
  8
1
  6
Continuous
 62
     2
100
AcDbLine
 10
-311.4999995042099
 20
-116.4999995794718
 30
0.0
 11
-322.9999995042099
 21
-116.4999995794718
 31
0.0
  0
SOLID
  5
C5
330
BF
100
AcDbEntity
  8
1
 62
     2
100
AcDbTrace
 10
-321.039215762654
 20
-126.9999995794718
 30
0.0
 11
-321.9607832457658
 21
-126.9999995794718
 31
0.0
 12
-321.4999995042099
 22
-123.4999995794718
 32
0.0
 13
-321.4999995042099
 23
-123.4999995794718
 33
0.0
  0
SOLID
  5
C6
330
BF
100
AcDbEntity
  8
1
 62
     2
100
AcDbTrace
 10
-321.9607832457658
 20
-112.9999995794718
 30
0.0
 11
-321.039215762654
 21
-112.9999995794718
 31
0.0
 12
-321.4999995042099
 22
-116.4999995794718
 32
0.0
 13
-321.4999995042099
 23
-116.4999995794718
 33
0.0
  0
MTEXT
  5
C7
330
BF
100
AcDbEntity
  8
1
 62
     3
100
AcDbMText
 10
-322.9999995042099
 20
-120.605880362711
 30
0.0
 40
3.5
 41
0.0
 71
     7
 72
     1
  1
7
  7
CONVERTER_11
 11
0.0
 21
1.0
 31
0.0
 73
     1
 44
0.60024009603842
  0
ENDBLK
  5
C9
330
BF
100
AcDbEntity
  8
0
100
AcDbBlockEnd
  0
BLOCK
  5
197
330
190
100
AcDbEntity
  8
0
100
AcDbBlockBegin
  2
*D19
 70
     1
 10
0.0
 20
0.0
 30
0.0
  3
*D19
  1

  0
LINE
  5
191
330
190
100
AcDbEntity
  8
1
  6
Continuous
 62
     2
100
AcDbLine
 10
-321.49999950421
 20
-153.4999999999851
 30
0.0
 11
-321.49999950421
 21
-184.4999999999851
 31
0.0
  0
LINE
  5
192
330
190
100
AcDbEntity
  8
1
  6
Continuous
 62
     2
100
AcDbLine
 10
-311.49999950421
 20
-153.4999999999851
 30
0.0
 11
-322.99999950421
 21
-153.4999999999851
 31
0.0
  0
LINE
  5
193
330
190
100
AcDbEntity
  8
1
  6
Continuous
 62
     2
100
AcDbLine
 10
-311.4999995042099
 20
-184.4999999999851
 30
0.0
 11
-322.99999950421
 21
-184.4999999999851
 31
0.0
  0
SOLID
  5
194
330
190
100
AcDbEntity
  8
1
 62
     2
100
AcDbTrace
 10
-321.0392157626541
 20
-156.9999999999851
 30
0.0
 11
-321.9607832457659
 21
-156.9999999999851
 31
0.0
 12
-321.49999950421
 22
-153.4999999999851
 32
0.0
 13
-321.49999950421
 23
-153.4999999999851
 33
0.0
  0
SOLID
  5
195
330
190
100
AcDbEntity
  8
1
 62
     2
100
AcDbTrace
 10
-321.9607832457659
 20
-180.9999999999851
 30
0.0
 11
-321.0392157626541
 21
-180.9999999999851
 31
0.0
 12
-321.49999950421
 22
-184.4999999999851
 32
0.0
 13
-321.49999950421
 23
-184.4999999999851
 33
0.0
  0
MTEXT
  5
196
330
190
100
AcDbEntity
  8
1
 62
     3
100
AcDbMText
 10
-322.99999950421
 20
-171.0999999999851
 30
0.0
 40
3.5
 41
0.0
 71
     7
 72
     1
  1
31
  7
CONVERTER_11
 11
0.0
 21
1.0
 31
0.0
 73
     1
 44
0.60024009603842
  0
ENDBLK
  5
198
330
190
100
AcDbEntity
  8
0
100
AcDbBlockEnd
  0
ENDSEC
  0
SECTION
  2
ENTITIES
  0
INSERT
  5
86
330
1F
100
AcDbEntity
  8
1
100
AcDbBlockReference
  2
1
 10
0.0
 20
0.0
 30
0.0
  0
ENDSEC
  0
SECTION
  2
OBJECTS
  0
DICTIONARY
  5
C
330
0
100
AcDbDictionary
281
     1
  3
ACAD_GROUP
350
D
  3
ACAD_LAYOUT
350
1A
  3
ACAD_MATERIAL
350
3B
  3
ACAD_MLEADERSTYLE
350
2FB
  3
ACAD_MLINESTYLE
350
17
  3
ACAD_PLOTSETTINGS
350
19
  3
ACAD_PLOTSTYLENAME
350
E
  3
ACAD_TABLESTYLE
350
2FA
  3
ACAD_VISUALSTYLE
350
2A
  0
DICTIONARY
  5
D
102
{ACAD_REACTORS
330
C
102
}
330
C
100
AcDbDictionary
281
     1
  0
DICTIONARY
  5
1A
102
{ACAD_REACTORS
330
C
102
}
330
C
100
AcDbDictionary
281
     1
  3
Layout1
350
1E
  3
Layout2
350
26
  3
Model
350
22
  0
DICTIONARY
  5
3B
102
{ACAD_REACTORS
330
C
102
}
330
C
100
AcDbDictionary
281
     1
  3
ByBlock
350
3D
  3
ByLayer
350
3C
  3
Global
350
3E
  0
DICTIONARY
  5
2FB
102
{ACAD_REACTORS
330
C
102
}
330
C
100
AcDbDictionary
281
     1
  0
DICTIONARY
  5
17
102
{ACAD_REACTORS
330
C
102
}
330
C
100
AcDbDictionary
281
     1
  3
Standard
350
18
  0
DICTIONARY
  5
19
102
{ACAD_REACTORS
330
C
102
}
330
C
100
AcDbDictionary
281
     1
  0
ACDBDICTIONARYWDFLT
  5
E
102
{ACAD_REACTORS
330
C
102
}
330
C
100
AcDbDictionary
281
     1
  3
Normal
350
F
100
AcDbDictionaryWithDefault
340
F
  0
DICTIONARY
  5
2FA
102
{ACAD_REACTORS
330
C
102
}
330
C
100
AcDbDictionary
281
     1
  0
DICTIONARY
  5
2A
102
{ACAD_REACTORS
330
C
102
}
330
C
100
AcDbDictionary
281
     1
  3
2dWireframe
350
2F
  3
3D Hidden
350
31
  3
3dWireframe
350
30
  3
Basic
350
32
  3
Brighten
350
36
  3
ColorChange
350
3A
  3
Conceptual
350
34
  3
Dim
350
35
  3
Facepattern
350
39
  3
Flat
350
2B
  3
FlatWithEdges
350
2C
  3
Gouraud
350
2D
  3
GouraudWithEdges
350
2E
  3
Linepattern
350
38
  3
Realistic
350
33
  3
Thicken
350
37
  0
LAYOUT
  5
1E
102
{ACAD_REACTORS
330
1A
102
}
330
1A
100
AcDbPlotSettings
  1

  2
none_device
  4

  6

 40
0.0
 41
0.0
 42
0.0
 43
0.0
 44
0.0
 45
0.0
 46
0.0
 47
0.0
 48
0.0
 49
0.0
140
0.0
141
0.0
142
1.0
143
1.0
 70
   688
 72
     0
 73
     0
 74
     5
  7

 75
    16
 76
     0
 77
     2
 78
   300
147
1.0
148
0.0
149
0.0
100
AcDbLayout
  1
Layout1
 70
     1
 71
     1
 10
0.0
 20
0.0
 11
12.0
 21
9.0
 12
0.0
 22
0.0
 32
0.0
 14
1.00000000000000E+20
 24
1.00000000000000E+20
 34
1.00000000000000E+20
 15
-1.00000000000000E+20
 25
-1.00000000000000E+20
 35
-1.00000000000000E+20
146
0.0
 13
0.0
 23
0.0
 33
0.0
 16
1.0
 26
0.0
 36
0.0
 17
0.0
 27
1.0
 37
0.0
 76
     0
330
1B
  0
LAYOUT
  5
26
102
{ACAD_REACTORS
330
1A
102
}
330
1A
100
AcDbPlotSettings
  1

  2
none_device
  4

  6

 40
0.0
 41
0.0
 42
0.0
 43
0.0
 44
0.0
 45
0.0
 46
0.0
 47
0.0
 48
0.0
 49
0.0
140
0.0
141
0.0
142
1.0
143
1.0
 70
   688
 72
     0
 73
     0
 74
     5
  7

 75
    16
 76
     0
 77
     2
 78
   300
147
1.0
148
0.0
149
0.0
100
AcDbLayout
  1
Layout2
 70
     1
 71
     2
 10
0.0
 20
0.0
 11
0.0
 21
0.0
 12
0.0
 22
0.0
 32
0.0
 14
0.0
 24
0.0
 34
0.0
 15
0.0
 25
0.0
 35
0.0
146
0.0
 13
0.0
 23
0.0
 33
0.0
 16
1.0
 26
0.0
 36
0.0
 17
0.0
 27
1.0
 37
0.0
 76
     0
330
23
  0
LAYOUT
  5
22
102
{ACAD_REACTORS
330
1A
102
}
330
1A
100
AcDbPlotSettings
  1

  2
none_device
  4

  6

 40
0.0
 41
0.0
 42
0.0
 43
0.0
 44
0.0
 45
0.0
 46
0.0
 47
0.0
 48
0.0
 49
0.0
140
0.0
141
0.0
142
1.0
143
1.0
 70
  1712
 72
     0
 73
     0
 74
     0
  7

 75
     0
 76
     0
 77
     2
 78
   300
147
1.0
148
0.0
149
0.0
100
AcDbLayout
  1
Model
 70
     1
 71
     0
 10
0.0
 20
0.0
 11
12.0
 21
9.0
 12
0.0
 22
0.0
 32
0.0
 14
-420.5137835827773
 24
-253.0968734534574
 34
0.0
 15
-123.5137835827792
 25
-43.09687345345731
 35
0.0
146
0.0
 13
0.0
 23
0.0
 33
0.0
 16
1.0
 26
0.0
 36
0.0
 17
0.0
 27
1.0
 37
0.0
 76
     0
330
1F
331
29
  0
MATERIAL
  5
3D
102
{ACAD_REACTORS
330
3B
102
}
102
{ACAD_XDICTIONARY
360
2F6
102
}
330
3B
100
AcDbMaterial
  1
ByBlock
  0
MATERIAL
  5
3C
102
{ACAD_REACTORS
330
3B
102
}
102
{ACAD_XDICTIONARY
360
2F4
102
}
330
3B
100
AcDbMaterial
  1
ByLayer
  0
MATERIAL
  5
3E
102
{ACAD_REACTORS
330
3B
102
}
102
{ACAD_XDICTIONARY
360
2F8
102
}
330
3B
100
AcDbMaterial
  1
Global
  0
MLINESTYLE
  5
18
102
{ACAD_REACTORS
330
17
102
}
330
17
100
AcDbMlineStyle
  2
Standard
 70
     0
  3

 62
   256
 51
90.0
 52
90.0
 71
     2
 49
0.5
 62
   256
  6
BYLAYER
 49
-0.5
 62
   256
  6
BYLAYER
  0
ACDBPLACEHOLDER
  5
F
102
{ACAD_REACTORS
330
E
102
}
330
E
  0
VISUALSTYLE
  5
2F
102
{ACAD_REACTORS
330
2A
102
}
102
{ACAD_XDICTIONARY
360
2DC
102
}
330
2A
100
AcDbVisualStyle
  2
2dWireframe
 70
     4
 71
     0
 72
     2
 73
     0
 90
        0
 40
-0.6
 41
-30.0
 62
     5
 63
     7
421
 16777215
 74
     1
 91
        4
 64
     7
 65
   257
 75
     1
175
     1
 42
1.0
 92
        0
 66
   257
 43
1.0
 76
     1
 77
     6
 78
     2
 67
     7
 79
     5
170
     0
171
     0
290
     0
174
     0
 93
        1
 44
0.0
173
     0
291
     0
 45
0.0
1001
ACAD
1000
AcDbSavedByObjectVersion
1070
     0
  0
VISUALSTYLE
  5
31
102
{ACAD_REACTORS
330
2A
102
}
102
{ACAD_XDICTIONARY
360
2E0
102
}
330
2A
100
AcDbVisualStyle
  2
3D Hidden
 70
     6
 71
     1
 72
     2
 73
     2
 90
        0
 40
-0.6
 41
-30.0
 62
     5
 63
     7
421
 16777215
 74
     2
 91
        2
 64
     7
 65
   257
 75
     2
175
     1
 42
40.0
 92
        0
 66
   257
 43
1.0
 76
     1
 77
     6
 78
     2
 67
     7
 79
     3
170
     0
171
     0
290
     0
174
     0
 93
        1
 44
0.0
173
     0
291
     0
 45
0.0
1001
ACAD
1000
AcDbSavedByObjectVersion
1070
     0
  0
VISUALSTYLE
  5
30
102
{ACAD_REACTORS
330
2A
102
}
102
{ACAD_XDICTIONARY
360
2DE
102
}
330
2A
100
AcDbVisualStyle
  2
3dWireframe
 70
     5
 71
     0
 72
     2
 73
     0
 90
        0
 40
-0.6
 41
-30.0
 62
     5
 63
     7
421
 16777215
 74
     1
 91
        4
 64
     7
 65
   257
 75
     1
175
     1
 42
1.0
 92
        0
 66
   257
 43
1.0
 76
     1
 77
     6
 78
     2
 67
     7
 79
     5
170
     0
171
     0
290
     0
174
     0
 93
        1
 44
0.0
173
     0
291
     0
 45
0.0
1001
ACAD
1000
AcDbSavedByObjectVersion
1070
     0
  0
VISUALSTYLE
  5
32
102
{ACAD_REACTORS
330
2A
102
}
102
{ACAD_XDICTIONARY
360
2E2
102
}
330
2A
100
AcDbVisualStyle
  2
Basic
 70
     7
 71
     1
 72
     0
 73
     1
 90
        0
 40
-0.6
 41
-30.0
 62
     5
 63
     7
421
 16777215
 74
     0
 91
        4
 64
     7
 65
   257
 75
     1
175
     1
 42
1.0
 92
        8
 66
     7
 43
1.0
 76
     1
 77
     6
 78
     2
 67
     7
 79
     5
170
     0
171
     0
290
     0
174
     0
 93
        1
 44
0.0
173
     0
291
     1
 45
0.0
1001
ACAD
1000
AcDbSavedByObjectVersion
1070
     0
  0
VISUALSTYLE
  5
36
102
{ACAD_REACTORS
330
2A
102
}
102
{ACAD_XDICTIONARY
360
2EA
102
}
330
2A
100
AcDbVisualStyle
  2
Brighten
 70
    12
 71
     2
 72
     2
 73
     0
 90
        0
 40
-0.6
 41
-30.0
 62
     5
 63
     7
421
 16777215
 74
     1
 91
        4
 64
     7
 65
   257
 75
     1
175
     1
 42
1.0
 92
        8
 66
     7
 43
1.0
 76
     1
 77
     6
 78
     2
 67
     7
 79
     5
170
     0
171
     0
290
     0
174
     0
 93
        1
 44
50.0
173
     0
291
     1
 45
0.0
1001
ACAD
1000
AcDbSavedByObjectVersion
1070
     0
  0
VISUALSTYLE
  5
3A
102
{ACAD_REACTORS
330
2A
102
}
102
{ACAD_XDICTIONARY
360
2F2
102
}
330
2A
100
AcDbVisualStyle
  2
ColorChange
 70
    16
 71
     2
 72
     2
 73
     3
 90
        0
 40
-0.6
 41
-30.0
 62
     5
 63
     8
421
  8421504
 74
     1
 91
        4
 64
     7
 65
   257
 75
     1
175
     1
 42
1.0
 92
        8
 66
     8
424
  8421504
 43
1.0
 76
     1
 77
     6
 78
     2
 67
     7
 79
     5
170
     0
171
     0
290
     0
174
     0
 93
        1
 44
0.0
173
     0
291
     1
 45
0.0
1001
ACAD
1000
AcDbSavedByObjectVersion
1070
     0
  0
VISUALSTYLE
  5
34
102
{ACAD_REACTORS
330
2A
102
}
102
{ACAD_XDICTIONARY
360
2E6
102
}
330
2A
100
AcDbVisualStyle
  2
Conceptual
 70
     9
 71
     3
 72
     2
 73
     0
 90
        0
 40
-0.6
 41
-30.0
 62
     5
 63
     7
421
 16777215
 74
     2
 91
        2
 64
     7
 65
   257
 75
     1
175
     1
 42
40.0
 92
        8
 66
     7
 43
1.0
 76
     1
 77
     6
 78
     2
 67
     7
 79
     3
170
     0
171
     0
290
     0
174
     0
 93
        1
 44
0.0
173
     0
291
     0
 45
0.0
1001
ACAD
1000
AcDbSavedByObjectVersion
1070
     0
  0
VISUALSTYLE
  5
35
102
{ACAD_REACTORS
330
2A
102
}
102
{ACAD_XDICTIONARY
360
2E8
102
}
330
2A
100
AcDbVisualStyle
  2
Dim
 70
    11
 71
     2
 72
     2
 73
     0
 90
        0
 40
-0.6
 41
-30.0
 62
     5
 63
     7
421
 16777215
 74
     1
 91
        4
 64
     7
 65
   257
 75
     1
175
     1
 42
1.0
 92
        8
 66
     7
 43
1.0
 76
     1
 77
     6
 78
     2
 67
     7
 79
     5
170
     0
171
     0
290
     0
174
     0
 93
        1
 44
-50.0
173
     0
291
     1
 45
0.0
1001
ACAD
1000
AcDbSavedByObjectVersion
1070
     0
  0
VISUALSTYLE
  5
39
102
{ACAD_REACTORS
330
2A
102
}
102
{ACAD_XDICTIONARY
360
2F0
102
}
330
2A
100
AcDbVisualStyle
  2
Facepattern
 70
    15
 71
     2
 72
     2
 73
     0
 90
        0
 40
-0.6
 41
-30.0
 62
     5
 63
     7
421
 16777215
 74
     1
 91
        4
 64
     7
 65
   257
 75
     1
175
     1
 42
1.0
 92
        8
 66
     7
 43
1.0
 76
     1
 77
     6
 78
     2
 67
     7
 79
     5
170
     0
171
     0
290
     0
174
     0
 93
        1
 44
0.0
173
     0
291
     1
 45
0.0
1001
ACAD
1000
AcDbSavedByObjectVersion
1070
     0
  0
VISUALSTYLE
  5
2B
102
{ACAD_REACTORS
330
2A
102
}
102
{ACAD_XDICTIONARY
360
2D4
102
}
330
2A
100
AcDbVisualStyle
  2
Flat
 70
     0
 71
     2
 72
     1
 73
     1
 90
        2
 40
-0.6
 41
30.0
 62
     5
 63
     7
421
 16777215
 74
     0
 91
        4
 64
     7
 65
   257
 75
     1
175
     1
 42
1.0
 92
        8
 66
     7
 43
1.0
 76
     1
 77
     6
 78
     2
 67
     7
 79
     5
170
     0
171
     0
290
     0
174
     0
 93
       13
 44
0.0
173
     0
291
     1
 45
0.0
1001
ACAD
1000
AcDbSavedByObjectVersion
1070
     0
  0
VISUALSTYLE
  5
2C
102
{ACAD_REACTORS
330
2A
102
}
102
{ACAD_XDICTIONARY
360
2D6
102
}
330
2A
100
AcDbVisualStyle
  2
FlatWithEdges
 70
     1
 71
     2
 72
     1
 73
     1
 90
        2
 40
-0.6
 41
30.0
 62
     5
 63
     7
421
 16777215
 74
     1
 91
        4
 64
     7
 65
   257
 75
     1
175
     1
 42
1.0
 92
        0
 66
   257
 43
1.0
 76
     1
 77
     6
 78
     2
 67
     7
 79
     5
170
     0
171
     0
290
     0
174
     0
 93
       13
 44
0.0
173
     0
291
     1
 45
0.0
1001
ACAD
1000
AcDbSavedByObjectVersion
1070
     0
  0
VISUALSTYLE
  5
2D
102
{ACAD_REACTORS
330
2A
102
}
102
{ACAD_XDICTIONARY
360
2D8
102
}
330
2A
100
AcDbVisualStyle
  2
Gouraud
 70
     2
 71
     2
 72
     2
 73
     1
 90
        2
 40
-0.6
 41
30.0
 62
     5
 63
     7
421
 16777215
 74
     0
 91
        4
 64
     7
 65
   257
 75
     1
175
     1
 42
1.0
 92
        0
 66
     7
 43
1.0
 76
     1
 77
     6
 78
     2
 67
     7
 79
     5
170
     0
171
     0
290
     0
174
     0
 93
       13
 44
0.0
173
     0
291
     1
 45
0.0
1001
ACAD
1000
AcDbSavedByObjectVersion
1070
     0
  0
VISUALSTYLE
  5
2E
102
{ACAD_REACTORS
330
2A
102
}
102
{ACAD_XDICTIONARY
360
2DA
102
}
330
2A
100
AcDbVisualStyle
  2
GouraudWithEdges
 70
     3
 71
     2
 72
     2
 73
     1
 90
        2
 40
-0.6
 41
30.0
 62
     5
 63
     7
421
 16777215
 74
     1
 91
        4
 64
     7
 65
   257
 75
     1
175
     1
 42
1.0
 92
        0
 66
   257
 43
1.0
 76
     1
 77
     6
 78
     2
 67
     7
 79
     5
170
     0
171
     0
290
     0
174
     0
 93
       13
 44
0.0
173
     0
291
     1
 45
0.0
1001
ACAD
1000
AcDbSavedByObjectVersion
1070
     0
  0
VISUALSTYLE
  5
38
102
{ACAD_REACTORS
330
2A
102
}
102
{ACAD_XDICTIONARY
360
2EE
102
}
330
2A
100
AcDbVisualStyle
  2
Linepattern
 70
    14
 71
     2
 72
     2
 73
     0
 90
        0
 40
-0.6
 41
-30.0
 62
     5
 63
     7
421
 16777215
 74
     1
 91
        4
 64
     7
 65
   257
 75
     7
175
     7
 42
1.0
 92
        8
 66
     7
 43
1.0
 76
     1
 77
     6
 78
     2
 67
     7
 79
     5
170
     0
171
     0
290
     0
174
     0
 93
        1
 44
0.0
173
     0
291
     1
 45
0.0
1001
ACAD
1000
AcDbSavedByObjectVersion
1070
     0
  0
VISUALSTYLE
  5
33
102
{ACAD_REACTORS
330
2A
102
}
102
{ACAD_XDICTIONARY
360
2E4
102
}
330
2A
100
AcDbVisualStyle
  2
Realistic
 70
     8
 71
     2
 72
     2
 73
     0
 90
        0
 40
-0.6
 41
-30.0
 62
     5
 63
     7
421
 16777215
 74
     1
 91
        0
 64
     7
 65
   257
 75
     1
175
     1
 42
1.0
 92
        8
 66
     8
424
  7895160
 43
1.0
 76
     1
 77
     6
 78
     2
 67
     7
 79
     5
170
     0
171
     0
290
     0
174
     0
 93
       13
 44
0.0
173
     0
291
     0
 45
0.0
1001
ACAD
1000
AcDbSavedByObjectVersion
1070
     0
  0
VISUALSTYLE
  5
37
102
{ACAD_REACTORS
330
2A
102
}
102
{ACAD_XDICTIONARY
360
2EC
102
}
330
2A
100
AcDbVisualStyle
  2
Thicken
 70
    13
 71
     2
 72
     2
 73
     0
 90
        0
 40
-0.6
 41
-30.0
 62
     5
 63
     7
421
 16777215
 74
     1
 91
        4
 64
     7
 65
   257
 75
     1
175
     1
 42
1.0
 92
       12
 66
     7
 43
1.0
 76
     1
 77
     6
 78
     2
 67
     7
 79
     5
170
     0
171
     0
290
     0
174
     0
 93
        1
 44
0.0
173
     0
291
     1
 45
0.0
1001
ACAD
1000
AcDbSavedByObjectVersion
1070
     0
  0
DICTIONARY
  5
2F6
330
3D
100
AcDbDictionary
280
     1
281
     1
  3
ACAD_XREC_ROUNDTRIP
360
2F7
  0
DICTIONARY
  5
2F4
330
3C
100
AcDbDictionary
280
     1
281
     1
  3
ACAD_XREC_ROUNDTRIP
360
2F5
  0
DICTIONARY
  5
2F8
330
3E
100
AcDbDictionary
280
     1
281
     1
  3
ACAD_XREC_ROUNDTRIP
360
2F9
  0
DICTIONARY
  5
2DC
330
2F
100
AcDbDictionary
280
     1
281
     1
  3
ACAD_XREC_ROUNDTRIP
360
2DD
  0
DICTIONARY
  5
2E0
330
31
100
AcDbDictionary
280
     1
281
     1
  3
ACAD_XREC_ROUNDTRIP
360
2E1
  0
DICTIONARY
  5
2DE
330
30
100
AcDbDictionary
280
     1
281
     1
  3
ACAD_XREC_ROUNDTRIP
360
2DF
  0
DICTIONARY
  5
2E2
330
32
100
AcDbDictionary
280
     1
281
     1
  3
ACAD_XREC_ROUNDTRIP
360
2E3
  0
DICTIONARY
  5
2EA
330
36
100
AcDbDictionary
280
     1
281
     1
  3
ACAD_XREC_ROUNDTRIP
360
2EB
  0
DICTIONARY
  5
2F2
330
3A
100
AcDbDictionary
280
     1
281
     1
  3
ACAD_XREC_ROUNDTRIP
360
2F3
  0
DICTIONARY
  5
2E6
330
34
100
AcDbDictionary
280
     1
281
     1
  3
ACAD_XREC_ROUNDTRIP
360
2E7
  0
DICTIONARY
  5
2E8
330
35
100
AcDbDictionary
280
     1
281
     1
  3
ACAD_XREC_ROUNDTRIP
360
2E9
  0
DICTIONARY
  5
2F0
330
39
100
AcDbDictionary
280
     1
281
     1
  3
ACAD_XREC_ROUNDTRIP
360
2F1
  0
DICTIONARY
  5
2D4
330
2B
100
AcDbDictionary
280
     1
281
     1
  3
ACAD_XREC_ROUNDTRIP
360
2D5
  0
DICTIONARY
  5
2D6
330
2C
100
AcDbDictionary
280
     1
281
     1
  3
ACAD_XREC_ROUNDTRIP
360
2D7
  0
DICTIONARY
  5
2D8
330
2D
100
AcDbDictionary
280
     1
281
     1
  3
ACAD_XREC_ROUNDTRIP
360
2D9
  0
DICTIONARY
  5
2DA
330
2E
100
AcDbDictionary
280
     1
281
     1
  3
ACAD_XREC_ROUNDTRIP
360
2DB
  0
DICTIONARY
  5
2EE
330
38
100
AcDbDictionary
280
     1
281
     1
  3
ACAD_XREC_ROUNDTRIP
360
2EF
  0
DICTIONARY
  5
2E4
330
33
100
AcDbDictionary
280
     1
281
     1
  3
ACAD_XREC_ROUNDTRIP
360
2E5
  0
DICTIONARY
  5
2EC
330
37
100
AcDbDictionary
280
     1
281
     1
  3
ACAD_XREC_ROUNDTRIP
360
2ED
  0
XRECORD
  5
2F7
102
{ACAD_REACTORS
330
2F6
102
}
330
2F6
100
AcDbXrecord
280
     1
102
MATERIAL
148
0.0
149
0.0
149
0.0
 93
        0
 94
      127
282
     0
 72
     1
 77
     1
171
     1
175
     1
179
     1
273
     0
  0
XRECORD
  5
2F5
102
{ACAD_REACTORS
330
2F4
102
}
330
2F4
100
AcDbXrecord
280
     1
102
MATERIAL
148
0.0
149
0.0
149
0.0
 93
        0
 94
      127
282
     0
 72
     1
 77
     1
171
     1
175
     1
179
     1
273
     0
  0
XRECORD
  5
2F9
102
{ACAD_REACTORS
330
2F8
102
}
330
2F8
100
AcDbXrecord
280
     1
102
MATERIAL
148
0.0
149
0.0
149
0.0
 93
        0
 94
      127
282
     0
 72
     1
 77
     1
171
     1
175
     1
179
     1
273
     0
  0
XRECORD
  5
2DD
102
{ACAD_REACTORS
330
2DC
102
}
330
2DC
100
AcDbXrecord
280
     1
102
RTVSPropertyOp0
 70
     1
102
RTVSPropertyOp1
 70
     1
102
RTVSPropertyOp2
 70
     1
102
RTVSPropertyOp3
 70
     1
102
RTVSPropertyOp4
 70
     1
102
RTVSPropertyOp5
 70
     1
102
RTVSPropertyOp6
 70
     1
102
RTVSPropertyOp7
 70
     1
102
RTVSPropertyOp8
 70
     1
102
RTVSPropertyOp9
 70
     1
102
RTVSPropertyOp10
 70
     1
102
RTVSPropertyOp11
 70
     1
102
RTVSPropertyOp12
 70
     1
102
RTVSPropertyOp13
 70
     1
102
RTVSPropertyOp14
 70
     1
102
RTVSPropertyOp15
 70
     1
102
RTVSPropertyOp16
 70
     1
102
RTVSPropertyOp17
 70
     1
102
RTVSPropertyOp18
 70
     1
102
RTVSPropertyOp19
 70
     1
102
RTVSPropertyOp20
 70
     1
102
RTVSPropertyOp21
 70
     1
102
RTVSPropertyOp22
 70
     1
102
RTVSPropertyOp23
 70
     1
102
RTVSPropertyOp24
 70
     1
102
RTVSPropertyOp25
 70
     1
102
RTVSPropertyOp26
 70
     1
102
RTVSPropertyOp27
 70
     1
102
RTVSPropertyOp28
 70
     1
102
RTVSPropertyOp29
 70
     1
102
RTVSPropertyOp30
 70
     1
102
RTVSPropertyOp31
 70
     1
102
RTVSPropertyOp32
 70
     1
  0
XRECORD
  5
2E1
102
{ACAD_REACTORS
330
2E0
102
}
330
2E0
100
AcDbXrecord
280
     1
102
RTVSPropertyOp0
 70
     1
102
RTVSPropertyOp1
 70
     1
102
RTVSPropertyOp2
 70
     1
102
RTVSPropertyOp3
 70
     1
102
RTVSPropertyOp4
 70
     1
102
RTVSPropertyOp5
 70
     1
102
RTVSPropertyOp6
 70
     1
102
RTVSPropertyOp7
 70
     1
102
RTVSPropertyOp8
 70
     1
102
RTVSPropertyOp9
 70
     1
102
RTVSPropertyOp10
 70
     1
102
RTVSPropertyOp11
 70
     1
102
RTVSPropertyOp12
 70
     1
102
RTVSPropertyOp13
 70
     1
102
RTVSPropertyOp14
 70
     1
102
RTVSPropertyOp15
 70
     1
102
RTVSPropertyOp16
 70
     1
102
RTVSPropertyOp17
 70
     1
102
RTVSPropertyOp18
 70
     1
102
RTVSPropertyOp19
 70
     1
102
RTVSPropertyOp20
 70
     1
102
RTVSPropertyOp21
 70
     1
102
RTVSPropertyOp22
 70
     1
102
RTVSPropertyOp23
 70
     1
102
RTVSPropertyOp24
 70
     1
102
RTVSPropertyOp25
 70
     1
102
RTVSPropertyOp26
 70
     1
102
RTVSPropertyOp27
 70
     1
102
RTVSPropertyOp28
 70
     1
102
RTVSPropertyOp29
 70
     1
102
RTVSPropertyOp30
 70
     1
102
RTVSPropertyOp31
 70
     1
102
RTVSPropertyOp32
 70
     1
  0
XRECORD
  5
2DF
102
{ACAD_REACTORS
330
2DE
102
}
330
2DE
100
AcDbXrecord
280
     1
102
RTVSPropertyOp0
 70
     1
102
RTVSPropertyOp1
 70
     1
102
RTVSPropertyOp2
 70
     1
102
RTVSPropertyOp3
 70
     1
102
RTVSPropertyOp4
 70
     1
102
RTVSPropertyOp5
 70
     1
102
RTVSPropertyOp6
 70
     1
102
RTVSPropertyOp7
 70
     1
102
RTVSPropertyOp8
 70
     1
102
RTVSPropertyOp9
 70
     1
102
RTVSPropertyOp10
 70
     1
102
RTVSPropertyOp11
 70
     1
102
RTVSPropertyOp12
 70
     1
102
RTVSPropertyOp13
 70
     1
102
RTVSPropertyOp14
 70
     1
102
RTVSPropertyOp15
 70
     1
102
RTVSPropertyOp16
 70
     1
102
RTVSPropertyOp17
 70
     1
102
RTVSPropertyOp18
 70
     1
102
RTVSPropertyOp19
 70
     1
102
RTVSPropertyOp20
 70
     1
102
RTVSPropertyOp21
 70
     1
102
RTVSPropertyOp22
 70
     1
102
RTVSPropertyOp23
 70
     1
102
RTVSPropertyOp24
 70
     1
102
RTVSPropertyOp25
 70
     1
102
RTVSPropertyOp26
 70
     1
102
RTVSPropertyOp27
 70
     1
102
RTVSPropertyOp28
 70
     1
102
RTVSPropertyOp29
 70
     1
102
RTVSPropertyOp30
 70
     1
102
RTVSPropertyOp31
 70
     1
102
RTVSPropertyOp32
 70
     1
  0
XRECORD
  5
2E3
102
{ACAD_REACTORS
330
2E2
102
}
330
2E2
100
AcDbXrecord
280
     1
102
RTVSPropertyOp0
 70
     1
102
RTVSPropertyOp1
 70
     1
102
RTVSPropertyOp2
 70
     1
102
RTVSPropertyOp3
 70
     1
102
RTVSPropertyOp4
 70
     1
102
RTVSPropertyOp5
 70
     1
102
RTVSPropertyOp6
 70
     1
102
RTVSPropertyOp7
 70
     1
102
RTVSPropertyOp8
 70
     1
102
RTVSPropertyOp9
 70
     1
102
RTVSPropertyOp10
 70
     1
102
RTVSPropertyOp11
 70
     1
102
RTVSPropertyOp12
 70
     1
102
RTVSPropertyOp13
 70
     1
102
RTVSPropertyOp14
 70
     1
102
RTVSPropertyOp15
 70
     1
102
RTVSPropertyOp16
 70
     1
102
RTVSPropertyOp17
 70
     1
102
RTVSPropertyOp18
 70
     1
102
RTVSPropertyOp19
 70
     1
102
RTVSPropertyOp20
 70
     1
102
RTVSPropertyOp21
 70
     1
102
RTVSPropertyOp22
 70
     1
102
RTVSPropertyOp23
 70
     1
102
RTVSPropertyOp24
 70
     1
102
RTVSPropertyOp25
 70
     1
102
RTVSPropertyOp26
 70
     1
102
RTVSPropertyOp27
 70
     1
102
RTVSPropertyOp28
 70
     1
102
RTVSPropertyOp29
 70
     1
102
RTVSPropertyOp30
 70
     1
102
RTVSPropertyOp31
 70
     1
102
RTVSPropertyOp32
 70
     1
  0
XRECORD
  5
2EB
102
{ACAD_REACTORS
330
2EA
102
}
330
2EA
100
AcDbXrecord
280
     1
102
RTVSPropertyOp0
 70
     1
102
RTVSPropertyOp1
 70
     1
102
RTVSPropertyOp2
 70
     1
102
RTVSPropertyOp3
 70
     1
102
RTVSPropertyOp4
 70
     1
102
RTVSPropertyOp5
 70
     1
102
RTVSPropertyOp6
 70
     1
102
RTVSPropertyOp7
 70
     1
102
RTVSPropertyOp8
 70
     1
102
RTVSPropertyOp9
 70
     1
102
RTVSPropertyOp10
 70
     1
102
RTVSPropertyOp11
 70
     1
102
RTVSPropertyOp12
 70
     1
102
RTVSPropertyOp13
 70
     1
102
RTVSPropertyOp14
 70
     1
102
RTVSPropertyOp15
 70
     1
102
RTVSPropertyOp16
 70
     1
102
RTVSPropertyOp17
 70
     1
102
RTVSPropertyOp18
 70
     1
102
RTVSPropertyOp19
 70
     1
102
RTVSPropertyOp20
 70
     1
102
RTVSPropertyOp21
 70
     1
102
RTVSPropertyOp22
 70
     1
102
RTVSPropertyOp23
 70
     1
102
RTVSPropertyOp24
 70
     1
102
RTVSPropertyOp25
 70
     1
102
RTVSPropertyOp26
 70
     1
102
RTVSPropertyOp27
 70
     1
102
RTVSPropertyOp28
 70
     1
102
RTVSPropertyOp29
 70
     1
102
RTVSPropertyOp30
 70
     1
102
RTVSPropertyOp31
 70
     1
102
RTVSPropertyOp32
 70
     1
  0
XRECORD
  5
2F3
102
{ACAD_REACTORS
330
2F2
102
}
330
2F2
100
AcDbXrecord
280
     1
102
RTVSPropertyOp0
 70
     1
102
RTVSPropertyOp1
 70
     1
102
RTVSPropertyOp2
 70
     1
102
RTVSPropertyOp3
 70
     1
102
RTVSPropertyOp4
 70
     1
102
RTVSPropertyOp5
 70
     1
102
RTVSPropertyOp6
 70
     1
102
RTVSPropertyOp7
 70
     1
102
RTVSPropertyOp8
 70
     1
102
RTVSPropertyOp9
 70
     1
102
RTVSPropertyOp10
 70
     1
102
RTVSPropertyOp11
 70
     1
102
RTVSPropertyOp12
 70
     1
102
RTVSPropertyOp13
 70
     1
102
RTVSPropertyOp14
 70
     1
102
RTVSPropertyOp15
 70
     1
102
RTVSPropertyOp16
 70
     1
102
RTVSPropertyOp17
 70
     1
102
RTVSPropertyOp18
 70
     1
102
RTVSPropertyOp19
 70
     1
102
RTVSPropertyOp20
 70
     1
102
RTVSPropertyOp21
 70
     1
102
RTVSPropertyOp22
 70
     1
102
RTVSPropertyOp23
 70
     1
102
RTVSPropertyOp24
 70
     1
102
RTVSPropertyOp25
 70
     1
102
RTVSPropertyOp26
 70
     1
102
RTVSPropertyOp27
 70
     1
102
RTVSPropertyOp28
 70
     1
102
RTVSPropertyOp29
 70
     1
102
RTVSPropertyOp30
 70
     1
102
RTVSPropertyOp31
 70
     1
102
RTVSPropertyOp32
 70
     1
  0
XRECORD
  5
2E7
102
{ACAD_REACTORS
330
2E6
102
}
330
2E6
100
AcDbXrecord
280
     1
102
RTVSPropertyOp0
 70
     1
102
RTVSPropertyOp1
 70
     1
102
RTVSPropertyOp2
 70
     1
102
RTVSPropertyOp3
 70
     1
102
RTVSPropertyOp4
 70
     1
102
RTVSPropertyOp5
 70
     1
102
RTVSPropertyOp6
 70
     1
102
RTVSPropertyOp7
 70
     1
102
RTVSPropertyOp8
 70
     1
102
RTVSPropertyOp9
 70
     1
102
RTVSPropertyOp10
 70
     1
102
RTVSPropertyOp11
 70
     1
102
RTVSPropertyOp12
 70
     1
102
RTVSPropertyOp13
 70
     1
102
RTVSPropertyOp14
 70
     1
102
RTVSPropertyOp15
 70
     1
102
RTVSPropertyOp16
 70
     1
102
RTVSPropertyOp17
 70
     1
102
RTVSPropertyOp18
 70
     1
102
RTVSPropertyOp19
 70
     1
102
RTVSPropertyOp20
 70
     1
102
RTVSPropertyOp21
 70
     1
102
RTVSPropertyOp22
 70
     1
102
RTVSPropertyOp23
 70
     1
102
RTVSPropertyOp24
 70
     1
102
RTVSPropertyOp25
 70
     1
102
RTVSPropertyOp26
 70
     1
102
RTVSPropertyOp27
 70
     1
102
RTVSPropertyOp28
 70
     1
102
RTVSPropertyOp29
 70
     1
102
RTVSPropertyOp30
 70
     1
102
RTVSPropertyOp31
 70
     1
102
RTVSPropertyOp32
 70
     1
  0
XRECORD
  5
2E9
102
{ACAD_REACTORS
330
2E8
102
}
330
2E8
100
AcDbXrecord
280
     1
102
RTVSPropertyOp0
 70
     1
102
RTVSPropertyOp1
 70
     1
102
RTVSPropertyOp2
 70
     1
102
RTVSPropertyOp3
 70
     1
102
RTVSPropertyOp4
 70
     1
102
RTVSPropertyOp5
 70
     1
102
RTVSPropertyOp6
 70
     1
102
RTVSPropertyOp7
 70
     1
102
RTVSPropertyOp8
 70
     1
102
RTVSPropertyOp9
 70
     1
102
RTVSPropertyOp10
 70
     1
102
RTVSPropertyOp11
 70
     1
102
RTVSPropertyOp12
 70
     1
102
RTVSPropertyOp13
 70
     1
102
RTVSPropertyOp14
 70
     1
102
RTVSPropertyOp15
 70
     1
102
RTVSPropertyOp16
 70
     1
102
RTVSPropertyOp17
 70
     1
102
RTVSPropertyOp18
 70
     1
102
RTVSPropertyOp19
 70
     1
102
RTVSPropertyOp20
 70
     1
102
RTVSPropertyOp21
 70
     1
102
RTVSPropertyOp22
 70
     1
102
RTVSPropertyOp23
 70
     1
102
RTVSPropertyOp24
 70
     1
102
RTVSPropertyOp25
 70
     1
102
RTVSPropertyOp26
 70
     1
102
RTVSPropertyOp27
 70
     1
102
RTVSPropertyOp28
 70
     1
102
RTVSPropertyOp29
 70
     1
102
RTVSPropertyOp30
 70
     1
102
RTVSPropertyOp31
 70
     1
102
RTVSPropertyOp32
 70
     1
  0
XRECORD
  5
2F1
102
{ACAD_REACTORS
330
2F0
102
}
330
2F0
100
AcDbXrecord
280
     1
102
RTVSPropertyOp0
 70
     1
102
RTVSPropertyOp1
 70
     1
102
RTVSPropertyOp2
 70
     1
102
RTVSPropertyOp3
 70
     1
102
RTVSPropertyOp4
 70
     1
102
RTVSPropertyOp5
 70
     1
102
RTVSPropertyOp6
 70
     1
102
RTVSPropertyOp7
 70
     1
102
RTVSPropertyOp8
 70
     1
102
RTVSPropertyOp9
 70
     1
102
RTVSPropertyOp10
 70
     1
102
RTVSPropertyOp11
 70
     1
102
RTVSPropertyOp12
 70
     1
102
RTVSPropertyOp13
 70
     1
102
RTVSPropertyOp14
 70
     1
102
RTVSPropertyOp15
 70
     1
102
RTVSPropertyOp16
 70
     1
102
RTVSPropertyOp17
 70
     1
102
RTVSPropertyOp18
 70
     1
102
RTVSPropertyOp19
 70
     1
102
RTVSPropertyOp20
 70
     1
102
RTVSPropertyOp21
 70
     1
102
RTVSPropertyOp22
 70
     1
102
RTVSPropertyOp23
 70
     1
102
RTVSPropertyOp24
 70
     1
102
RTVSPropertyOp25
 70
     1
102
RTVSPropertyOp26
 70
     1
102
RTVSPropertyOp27
 70
     1
102
RTVSPropertyOp28
 70
     1
102
RTVSPropertyOp29
 70
     1
102
RTVSPropertyOp30
 70
     1
102
RTVSPropertyOp31
 70
     1
102
RTVSPropertyOp32
 70
     1
  0
XRECORD
  5
2D5
102
{ACAD_REACTORS
330
2D4
102
}
330
2D4
100
AcDbXrecord
280
     1
102
RTVSPropertyOp0
 70
     1
102
RTVSPropertyOp1
 70
     1
102
RTVSPropertyOp2
 70
     1
102
RTVSPropertyOp3
 70
     1
102
RTVSPropertyOp4
 70
     1
102
RTVSPropertyOp5
 70
     1
102
RTVSPropertyOp6
 70
     1
102
RTVSPropertyOp7
 70
     1
102
RTVSPropertyOp8
 70
     1
102
RTVSPropertyOp9
 70
     1
102
RTVSPropertyOp10
 70
     1
102
RTVSPropertyOp11
 70
     1
102
RTVSPropertyOp12
 70
     1
102
RTVSPropertyOp13
 70
     1
102
RTVSPropertyOp14
 70
     1
102
RTVSPropertyOp15
 70
     1
102
RTVSPropertyOp16
 70
     1
102
RTVSPropertyOp17
 70
     1
102
RTVSPropertyOp18
 70
     1
102
RTVSPropertyOp19
 70
     1
102
RTVSPropertyOp20
 70
     1
102
RTVSPropertyOp21
 70
     1
102
RTVSPropertyOp22
 70
     1
102
RTVSPropertyOp23
 70
     1
102
RTVSPropertyOp24
 70
     1
102
RTVSPropertyOp25
 70
     1
102
RTVSPropertyOp26
 70
     1
102
RTVSPropertyOp27
 70
     1
102
RTVSPropertyOp28
 70
     1
102
RTVSPropertyOp29
 70
     1
102
RTVSPropertyOp30
 70
     1
102
RTVSPropertyOp31
 70
     1
102
RTVSPropertyOp32
 70
     1
  0
XRECORD
  5
2D7
102
{ACAD_REACTORS
330
2D6
102
}
330
2D6
100
AcDbXrecord
280
     1
102
RTVSPropertyOp0
 70
     1
102
RTVSPropertyOp1
 70
     1
102
RTVSPropertyOp2
 70
     1
102
RTVSPropertyOp3
 70
     1
102
RTVSPropertyOp4
 70
     1
102
RTVSPropertyOp5
 70
     1
102
RTVSPropertyOp6
 70
     1
102
RTVSPropertyOp7
 70
     1
102
RTVSPropertyOp8
 70
     1
102
RTVSPropertyOp9
 70
     1
102
RTVSPropertyOp10
 70
     1
102
RTVSPropertyOp11
 70
     1
102
RTVSPropertyOp12
 70
     1
102
RTVSPropertyOp13
 70
     1
102
RTVSPropertyOp14
 70
     1
102
RTVSPropertyOp15
 70
     1
102
RTVSPropertyOp16
 70
     1
102
RTVSPropertyOp17
 70
     1
102
RTVSPropertyOp18
 70
     1
102
RTVSPropertyOp19
 70
     1
102
RTVSPropertyOp20
 70
     1
102
RTVSPropertyOp21
 70
     1
102
RTVSPropertyOp22
 70
     1
102
RTVSPropertyOp23
 70
     1
102
RTVSPropertyOp24
 70
     1
102
RTVSPropertyOp25
 70
     1
102
RTVSPropertyOp26
 70
     1
102
RTVSPropertyOp27
 70
     1
102
RTVSPropertyOp28
 70
     1
102
RTVSPropertyOp29
 70
     1
102
RTVSPropertyOp30
 70
     1
102
RTVSPropertyOp31
 70
     1
102
RTVSPropertyOp32
 70
     1
  0
XRECORD
  5
2D9
102
{ACAD_REACTORS
330
2D8
102
}
330
2D8
100
AcDbXrecord
280
     1
102
RTVSPropertyOp0
 70
     1
102
RTVSPropertyOp1
 70
     1
102
RTVSPropertyOp2
 70
     1
102
RTVSPropertyOp3
 70
     1
102
RTVSPropertyOp4
 70
     1
102
RTVSPropertyOp5
 70
     1
102
RTVSPropertyOp6
 70
     1
102
RTVSPropertyOp7
 70
     1
102
RTVSPropertyOp8
 70
     1
102
RTVSPropertyOp9
 70
     1
102
RTVSPropertyOp10
 70
     1
102
RTVSPropertyOp11
 70
     1
102
RTVSPropertyOp12
 70
     1
102
RTVSPropertyOp13
 70
     1
102
RTVSPropertyOp14
 70
     1
102
RTVSPropertyOp15
 70
     1
102
RTVSPropertyOp16
 70
     1
102
RTVSPropertyOp17
 70
     1
102
RTVSPropertyOp18
 70
     1
102
RTVSPropertyOp19
 70
     1
102
RTVSPropertyOp20
 70
     1
102
RTVSPropertyOp21
 70
     1
102
RTVSPropertyOp22
 70
     1
102
RTVSPropertyOp23
 70
     1
102
RTVSPropertyOp24
 70
     1
102
RTVSPropertyOp25
 70
     1
102
RTVSPropertyOp26
 70
     1
102
RTVSPropertyOp27
 70
     1
102
RTVSPropertyOp28
 70
     1
102
RTVSPropertyOp29
 70
     1
102
RTVSPropertyOp30
 70
     1
102
RTVSPropertyOp31
 70
     1
102
RTVSPropertyOp32
 70
     1
  0
XRECORD
  5
2DB
102
{ACAD_REACTORS
330
2DA
102
}
330
2DA
100
AcDbXrecord
280
     1
102
RTVSPropertyOp0
 70
     1
102
RTVSPropertyOp1
 70
     1
102
RTVSPropertyOp2
 70
     1
102
RTVSPropertyOp3
 70
     1
102
RTVSPropertyOp4
 70
     1
102
RTVSPropertyOp5
 70
     1
102
RTVSPropertyOp6
 70
     1
102
RTVSPropertyOp7
 70
     1
102
RTVSPropertyOp8
 70
     1
102
RTVSPropertyOp9
 70
     1
102
RTVSPropertyOp10
 70
     1
102
RTVSPropertyOp11
 70
     1
102
RTVSPropertyOp12
 70
     1
102
RTVSPropertyOp13
 70
     1
102
RTVSPropertyOp14
 70
     1
102
RTVSPropertyOp15
 70
     1
102
RTVSPropertyOp16
 70
     1
102
RTVSPropertyOp17
 70
     1
102
RTVSPropertyOp18
 70
     1
102
RTVSPropertyOp19
 70
     1
102
RTVSPropertyOp20
 70
     1
102
RTVSPropertyOp21
 70
     1
102
RTVSPropertyOp22
 70
     1
102
RTVSPropertyOp23
 70
     1
102
RTVSPropertyOp24
 70
     1
102
RTVSPropertyOp25
 70
     1
102
RTVSPropertyOp26
 70
     1
102
RTVSPropertyOp27
 70
     1
102
RTVSPropertyOp28
 70
     1
102
RTVSPropertyOp29
 70
     1
102
RTVSPropertyOp30
 70
     1
102
RTVSPropertyOp31
 70
     1
102
RTVSPropertyOp32
 70
     1
  0
XRECORD
  5
2EF
102
{ACAD_REACTORS
330
2EE
102
}
330
2EE
100
AcDbXrecord
280
     1
102
RTVSPropertyOp0
 70
     1
102
RTVSPropertyOp1
 70
     1
102
RTVSPropertyOp2
 70
     1
102
RTVSPropertyOp3
 70
     1
102
RTVSPropertyOp4
 70
     1
102
RTVSPropertyOp5
 70
     1
102
RTVSPropertyOp6
 70
     1
102
RTVSPropertyOp7
 70
     1
102
RTVSPropertyOp8
 70
     1
102
RTVSPropertyOp9
 70
     1
102
RTVSPropertyOp10
 70
     1
102
RTVSPropertyOp11
 70
     1
102
RTVSPropertyOp12
 70
     1
102
RTVSPropertyOp13
 70
     1
102
RTVSPropertyOp14
 70
     1
102
RTVSPropertyOp15
 70
     1
102
RTVSPropertyOp16
 70
     1
102
RTVSPropertyOp17
 70
     1
102
RTVSPropertyOp18
 70
     1
102
RTVSPropertyOp19
 70
     1
102
RTVSPropertyOp20
 70
     1
102
RTVSPropertyOp21
 70
     1
102
RTVSPropertyOp22
 70
     1
102
RTVSPropertyOp23
 70
     1
102
RTVSPropertyOp24
 70
     1
102
RTVSPropertyOp25
 70
     1
102
RTVSPropertyOp26
 70
     1
102
RTVSPropertyOp27
 70
     1
102
RTVSPropertyOp28
 70
     1
102
RTVSPropertyOp29
 70
     1
102
RTVSPropertyOp30
 70
     1
102
RTVSPropertyOp31
 70
     1
102
RTVSPropertyOp32
 70
     1
  0
XRECORD
  5
2E5
102
{ACAD_REACTORS
330
2E4
102
}
330
2E4
100
AcDbXrecord
280
     1
102
RTVSPropertyOp0
 70
     1
102
RTVSPropertyOp1
 70
     1
102
RTVSPropertyOp2
 70
     1
102
RTVSPropertyOp3
 70
     1
102
RTVSPropertyOp4
 70
     1
102
RTVSPropertyOp5
 70
     1
102
RTVSPropertyOp6
 70
     1
102
RTVSPropertyOp7
 70
     1
102
RTVSPropertyOp8
 70
     1
102
RTVSPropertyOp9
 70
     1
102
RTVSPropertyOp10
 70
     1
102
RTVSPropertyOp11
 70
     1
102
RTVSPropertyOp12
 70
     1
102
RTVSPropertyOp13
 70
     1
102
RTVSPropertyOp14
 70
     1
102
RTVSPropertyOp15
 70
     1
102
RTVSPropertyOp16
 70
     1
102
RTVSPropertyOp17
 70
     1
102
RTVSPropertyOp18
 70
     1
102
RTVSPropertyOp19
 70
     1
102
RTVSPropertyOp20
 70
     1
102
RTVSPropertyOp21
 70
     1
102
RTVSPropertyOp22
 70
     1
102
RTVSPropertyOp23
 70
     1
102
RTVSPropertyOp24
 70
     1
102
RTVSPropertyOp25
 70
     1
102
RTVSPropertyOp26
 70
     1
102
RTVSPropertyOp27
 70
     1
102
RTVSPropertyOp28
 70
     1
102
RTVSPropertyOp29
 70
     1
102
RTVSPropertyOp30
 70
     1
102
RTVSPropertyOp31
 70
     1
102
RTVSPropertyOp32
 70
     1
  0
XRECORD
  5
2ED
102
{ACAD_REACTORS
330
2EC
102
}
330
2EC
100
AcDbXrecord
280
     1
102
RTVSPropertyOp0
 70
     1
102
RTVSPropertyOp1
 70
     1
102
RTVSPropertyOp2
 70
     1
102
RTVSPropertyOp3
 70
     1
102
RTVSPropertyOp4
 70
     1
102
RTVSPropertyOp5
 70
     1
102
RTVSPropertyOp6
 70
     1
102
RTVSPropertyOp7
 70
     1
102
RTVSPropertyOp8
 70
     1
102
RTVSPropertyOp9
 70
     1
102
RTVSPropertyOp10
 70
     1
102
RTVSPropertyOp11
 70
     1
102
RTVSPropertyOp12
 70
     1
102
RTVSPropertyOp13
 70
     1
102
RTVSPropertyOp14
 70
     1
102
RTVSPropertyOp15
 70
     1
102
RTVSPropertyOp16
 70
     1
102
RTVSPropertyOp17
 70
     1
102
RTVSPropertyOp18
 70
     1
102
RTVSPropertyOp19
 70
     1
102
RTVSPropertyOp20
 70
     1
102
RTVSPropertyOp21
 70
     1
102
RTVSPropertyOp22
 70
     1
102
RTVSPropertyOp23
 70
     1
102
RTVSPropertyOp24
 70
     1
102
RTVSPropertyOp25
 70
     1
102
RTVSPropertyOp26
 70
     1
102
RTVSPropertyOp27
 70
     1
102
RTVSPropertyOp28
 70
     1
102
RTVSPropertyOp29
 70
     1
102
RTVSPropertyOp30
 70
     1
102
RTVSPropertyOp31
 70
     1
102
RTVSPropertyOp32
 70
     1
  0
ENDSEC
  0
EOF
