  0
SECTION
  2
HEADER
  9
$ACADVER
  1
AC1018
  9
$ACADMAINTVER
 70
     0
  9
$DWGCODEPAGE
  3
ANSI_1252
  9
$INSBASE
 10
0.0
 20
0.0
 30
0.0
  9
$EXTMIN
 10
-238.6697846957776
 20
-1.37740077722981
 30
0.0
  9
$EXTMAX
 10
58.33021530422047
 20
208.6225992227703
 30
0.0
  9
$LIMMIN
 10
0.0
 20
0.0
  9
$LIMMAX
 10
12.0
 20
9.0
  9
$ORTHOMODE
 70
     0
  9
$REGENMODE
 70
     1
  9
$FILLMODE
 70
     1
  9
$QTEXTMODE
 70
     0
  9
$MIRRTEXT
 70
     1
  9
$LTSCALE
 40
1.0
  9
$ATTMODE
 70
     1
  9
$TEXTSIZE
 40
0.2
  9
$TRACEWID
 40
0.05
  9
$TEXTSTYLE
  7
Standard
  9
$CLAYER
  8
0
  9
$CELTYPE
  6
ByLayer
  9
$CECOLOR
 62
   256
  9
$CELTSCALE
 40
1.0
  9
$DISPSILH
 70
     0
  9
$DIMSCALE
 40
1.0
  9
$DIMASZ
 40
0.18
  9
$DIMEXO
 40
0.0625
  9
$DIMDLI
 40
0.38
  9
$DIMRND
 40
0.0
  9
$DIMDLE
 40
0.0
  9
$DIMEXE
 40
0.18
  9
$DIMTP
 40
0.0
  9
$DIMTM
 40
0.0
  9
$DIMTXT
 40
0.18
  9
$DIMCEN
 40
0.09
  9
$DIMTSZ
 40
0.0
  9
$DIMTOL
 70
     0
  9
$DIMLIM
 70
     0
  9
$DIMTIH
 70
     1
  9
$DIMTOH
 70
     1
  9
$DIMSE1
 70
     0
  9
$DIMSE2
 70
     0
  9
$DIMTAD
 70
     0
  9
$DIMZIN
 70
     0
  9
$DIMBLK
  1

  9
$DIMASO
 70
     1
  9
$DIMSHO
 70
     1
  9
$DIMPOST
  1

  9
$DIMAPOST
  1

  9
$DIMALT
 70
     0
  9
$DIMALTD
 70
     2
  9
$DIMALTF
 40
25.4
  9
$DIMLFAC
 40
1.0
  9
$DIMTOFL
 70
     0
  9
$DIMTVP
 40
0.0
  9
$DIMTIX
 70
     0
  9
$DIMSOXD
 70
     0
  9
$DIMSAH
 70
     0
  9
$DIMBLK1
  1

  9
$DIMBLK2
  1

  9
$DIMSTYLE
  2
Standard
  9
$DIMCLRD
 70
     0
  9
$DIMCLRE
 70
     0
  9
$DIMCLRT
 70
     0
  9
$DIMTFAC
 40
1.0
  9
$DIMGAP
 40
0.09
  9
$DIMJUST
 70
     0
  9
$DIMSD1
 70
     0
  9
$DIMSD2
 70
     0
  9
$DIMTOLJ
 70
     1
  9
$DIMTZIN
 70
     0
  9
$DIMALTZ
 70
     0
  9
$DIMALTTZ
 70
     0
  9
$DIMUPT
 70
     0
  9
$DIMDEC
 70
     4
  9
$DIMTDEC
 70
     4
  9
$DIMALTU
 70
     2
  9
$DIMALTTD
 70
     2
  9
$DIMTXSTY
  7
Standard
  9
$DIMAUNIT
 70
     0
  9
$DIMADEC
 70
     0
  9
$DIMALTRND
 40
0.0
  9
$DIMAZIN
 70
     0
  9
$DIMDSEP
 70
    46
  9
$DIMATFIT
 70
     3
  9
$DIMFRAC
 70
     0
  9
$DIMLDRBLK
  1

  9
$DIMLUNIT
 70
     2
  9
$DIMLWD
 70
    -2
  9
$DIMLWE
 70
    -2
  9
$DIMTMOVE
 70
     0
  9
$LUNITS
 70
     2
  9
$LUPREC
 70
     4
  9
$SKETCHINC
 40
0.1
  9
$FILLETRAD
 40
0.5
  9
$AUNITS
 70
     0
  9
$AUPREC
 70
     0
  9
$MENU
  1
.
  9
$ELEVATION
 40
0.0
  9
$PELEVATION
 40
0.0
  9
$THICKNESS
 40
0.0
  9
$LIMCHECK
 70
     0
  9
$CHAMFERA
 40
0.0
  9
$CHAMFERB
 40
0.0
  9
$CHAMFERC
 40
0.0
  9
$CHAMFERD
 40
0.0
  9
$SKPOLY
 70
     0
  9
$TDCREATE
 40
2458835.020645556
  9
$TDUCREATE
 40
2458834.978978889
  9
$TDUPDATE
 40
2458835.020645741
  9
$TDUUPDATE
 40
2458834.978979074
  9
$TDINDWG
 40
0.0000000116
  9
$TDUSRTIMER
 40
0.0000000116
  9
$USRTIMER
 70
     1
  9
$ANGBASE
 50
0.0
  9
$ANGDIR
 70
     0
  9
$PDMODE
 70
     0
  9
$PDSIZE
 40
0.0
  9
$PLINEWID
 40
0.0
  9
$SPLFRAME
 70
     0
  9
$SPLINETYPE
 70
     6
  9
$SPLINESEGS
 70
     8
  9
$HANDSEED
  5
346
  9
$SURFTAB1
 70
     6
  9
$SURFTAB2
 70
     6
  9
$SURFTYPE
 70
     6
  9
$SURFU
 70
     6
  9
$SURFV
 70
     6
  9
$UCSBASE
  2

  9
$UCSNAME
  2

  9
$UCSORG
 10
0.0
 20
0.0
 30
0.0
  9
$UCSXDIR
 10
1.0
 20
0.0
 30
0.0
  9
$UCSYDIR
 10
0.0
 20
1.0
 30
0.0
  9
$UCSORTHOREF
  2

  9
$UCSORTHOVIEW
 70
     0
  9
$UCSORGTOP
 10
0.0
 20
0.0
 30
0.0
  9
$UCSORGBOTTOM
 10
0.0
 20
0.0
 30
0.0
  9
$UCSORGLEFT
 10
0.0
 20
0.0
 30
0.0
  9
$UCSORGRIGHT
 10
0.0
 20
0.0
 30
0.0
  9
$UCSORGFRONT
 10
0.0
 20
0.0
 30
0.0
  9
$UCSORGBACK
 10
0.0
 20
0.0
 30
0.0
  9
$PUCSBASE
  2

  9
$PUCSNAME
  2

  9
$PUCSORG
 10
0.0
 20
0.0
 30
0.0
  9
$PUCSXDIR
 10
1.0
 20
0.0
 30
0.0
  9
$PUCSYDIR
 10
0.0
 20
1.0
 30
0.0
  9
$PUCSORTHOREF
  2

  9
$PUCSORTHOVIEW
 70
     0
  9
$PUCSORGTOP
 10
0.0
 20
0.0
 30
0.0
  9
$PUCSORGBOTTOM
 10
0.0
 20
0.0
 30
0.0
  9
$PUCSORGLEFT
 10
0.0
 20
0.0
 30
0.0
  9
$PUCSORGRIGHT
 10
0.0
 20
0.0
 30
0.0
  9
$PUCSORGFRONT
 10
0.0
 20
0.0
 30
0.0
  9
$PUCSORGBACK
 10
0.0
 20
0.0
 30
0.0
  9
$USERI1
 70
     0
  9
$USERI2
 70
     0
  9
$USERI3
 70
     0
  9
$USERI4
 70
     0
  9
$USERI5
 70
     0
  9
$USERR1
 40
20.1
  9
$USERR2
 40
0.0
  9
$USERR3
 40
0.0
  9
$USERR4
 40
0.0
  9
$USERR5
 40
0.0
  9
$WORLDVIEW
 70
     1
  9
$SHADEDGE
 70
     3
  9
$SHADEDIF
 70
    70
  9
$TILEMODE
 70
     1
  9
$MAXACTVP
 70
    64
  9
$PINSBASE
 10
0.0
 20
0.0
 30
0.0
  9
$PLIMCHECK
 70
     0
  9
$PEXTMIN
 10
1.00000000000000E+20
 20
1.00000000000000E+20
 30
1.00000000000000E+20
  9
$PEXTMAX
 10
-1.00000000000000E+20
 20
-1.00000000000000E+20
 30
-1.00000000000000E+20
  9
$PLIMMIN
 10
0.0
 20
0.0
  9
$PLIMMAX
 10
12.0
 20
9.0
  9
$UNITMODE
 70
     0
  9
$VISRETAIN
 70
     1
  9
$PLINEGEN
 70
     0
  9
$PSLTSCALE
 70
     1
  9
$TREEDEPTH
 70
  3020
  9
$CMLSTYLE
  2
Standard
  9
$CMLJUST
 70
     0
  9
$CMLSCALE
 40
1.0
  9
$PROXYGRAPHICS
 70
     1
  9
$MEASUREMENT
 70
     1
  9
$CELWEIGHT
370
    -1
  9
$ENDCAPS
280
     0
  9
$JOINSTYLE
280
     0
  9
$LWDISPLAY
290
     0
  9
$INSUNITS
 70
     4
  9
$HYPERLINKBASE
  1

  9
$STYLESHEET
  1

  9
$XEDIT
290
     1
  9
$CEPSNTYPE
380
     0
  9
$PSTYLEMODE
290
     1
  9
$FINGERPRINTGUID
  2
{237760bd-95fc-4284-a2f3-1ae83d669383}
  9
$VERSIONGUID
  2
{FAEB1C32-E019-11D5-929B-00C0DF256EC4}
  9
$EXTNAMES
290
     1
  9
$PSVPSCALE
 40
0.0
  9
$OLESTARTUP
290
     0
  9
$SORTENTS
280
   127
  9
$INDEXCTL
280
     0
  9
$HIDETEXT
280
     1
  9
$XCLIPFRAME
290
     0
  9
$HALOGAP
280
     0
  9
$OBSCOLOR
 70
   257
  9
$OBSLTYPE
280
     0
  9
$INTERSECTIONDISPLAY
280
     0
  9
$INTERSECTIONCOLOR
 70
   257
  9
$DIMASSOC
280
     2
  9
$PROJECTNAME
  1

  0
ENDSEC
  0
SECTION
  2
CLASSES
  0
CLASS
  1
ACDBDICTIONARYWDFLT
  2
AcDbDictionaryWithDefault
  3
ObjectDBX Classes
 90
        0
 91
        3
280
     0
281
     0
  0
CLASS
  1
VISUALSTYLE
  2
AcDbVisualStyle
  3
ObjectDBX Classes
 90
     4095
 91
        3
280
     0
281
     0
  0
CLASS
  1
MATERIAL
  2
AcDbMaterial
  3
ObjectDBX Classes
 90
     1153
 91
        3
280
     0
281
     0
  0
CLASS
  1
SCALE
  2
AcDbScale
  3
ObjectDBX Classes
 90
     1153
 91
        3
280
     0
281
     0
  0
CLASS
  1
TABLESTYLE
  2
AcDbTableStyle
  3
ObjectDBX Classes
 90
     4095
 91
        3
280
     0
281
     0
  0
CLASS
  1
MLEADERSTYLE
  2
AcDbMLeaderStyle
  3
ACDB_MLEADERSTYLE_CLASS
 90
     4095
 91
        3
280
     0
281
     0
  0
CLASS
  1
SUN
  2
AcDbSun
  3
SCENEOE
 90
     1153
 91
        3
280
     0
281
     0
  0
CLASS
  1
DICTIONARYVAR
  2
AcDbDictionaryVar
  3
ObjectDBX Classes
 90
        0
 91
        3
280
     0
281
     0
  0
CLASS
  1
CELLSTYLEMAP
  2
AcDbCellStyleMap
  3
ObjectDBX Classes
 90
     1152
 91
        3
280
     0
281
     0
  0
ENDSEC
  0
SECTION
  2
TABLES
  0
TABLE
  2
VPORT
  5
8
102
{ACAD_XDICTIONARY
360
2FF
102
}
330
0
100
AcDbSymbolTable
 70
     1
  0
VPORT
  5
29
330
8
100
AcDbSymbolTableRecord
100
AcDbViewportTableRecord
  2
*Active
 70
     0
 10
0.0
 20
0.0
 11
1.0
 21
1.0
 12
-90.16978469577856
 22
103.6225992227702
 13
0.0
 23
0.0
 14
0.5
 24
0.5
 15
0.5
 25
0.5
 16
0.0
 26
0.0
 36
1.0
 17
0.0
 27
0.0
 37
0.0
 40
231.0000000000001
 41
1.60267857142857
 42
50.0
 43
0.0
 44
0.0
 50
0.0
 51
0.0
 71
     0
 72
   100
 73
     1
 74
     3
 75
     0
 76
     0
 77
     0
 78
     0
281
     0
 65
     1
110
0.0
120
0.0
130
0.0
111
1.0
121
0.0
131
0.0
112
0.0
122
1.0
132
0.0
 79
     0
146
0.0
  0
ENDTAB
  0
TABLE
  2
LTYPE
  5
5
330
0
100
AcDbSymbolTable
 70
     8
  0
LTYPE
  5
14
330
5
100
AcDbSymbolTableRecord
100
AcDbLinetypeTableRecord
  2
ByBlock
 70
     0
  3

 72
    65
 73
     0
 40
0.0
  0
LTYPE
  5
15
330
5
100
AcDbSymbolTableRecord
100
AcDbLinetypeTableRecord
  2
ByLayer
 70
     0
  3

 72
    65
 73
     0
 40
0.0
  0
LTYPE
  5
16
330
5
100
AcDbSymbolTableRecord
100
AcDbLinetypeTableRecord
  2
Continuous
 70
     0
  3
Solid line
 72
    65
 73
     0
 40
0.0
  0
LTYPE
  5
6E
330
5
100
AcDbSymbolTableRecord
100
AcDbLinetypeTableRecord
  2
DASHED
 70
     0
  3
Dashed
 72
    65
 73
     2
 40
15.0
 49
7.0
 74
     0
 49
-8.0
 74
     0
  0
LTYPE
  5
6F
330
5
100
AcDbSymbolTableRecord
100
AcDbLinetypeTableRecord
  2
DOTTED
 70
     0
  3
Dotted
 72
    65
 73
     2
 40
1.0
 49
0.0
 74
     0
 49
-1.0
 74
     0
  0
LTYPE
  5
70
330
5
100
AcDbSymbolTableRecord
100
AcDbLinetypeTableRecord
  2
DOT_CENTER
 70
     0
  3
Dot_Center
 72
    65
 73
     4
 40
14.0
 49
12.0
 74
     0
 49
-1.0
 74
     0
 49
0.0
 74
     0
 49
-1.0
 74
     0
  0
LTYPE
  5
71
330
5
100
AcDbSymbolTableRecord
100
AcDbLinetypeTableRecord
  2
LONG_DASHED
 70
     0
  3
Long_Dashed
 72
    65
 73
     2
 40
15.0
 49
10.0
 74
     0
 49
-5.0
 74
     0
  0
LTYPE
  5
72
330
5
100
AcDbSymbolTableRecord
100
AcDbLinetypeTableRecord
  2
DASH_CENTER
 70
     0
  3
Dash_Center
 72
    65
 73
     4
 40
14.0
 49
11.0
 74
     0
 49
-1.0
 74
     0
 49
1.0
 74
     0
 49
-1.0
 74
     0
  0
LTYPE
  5
73
330
5
100
AcDbSymbolTableRecord
100
AcDbLinetypeTableRecord
  2
PHANTOM
 70
     0
  3
Phantom
 72
    65
 73
     6
 40
13.0
 49
10.0
 74
     0
 49
-1.0
 74
     0
 49
0.0
 74
     0
 49
-1.0
 74
     0
 49
0.0
 74
     0
 49
-1.0
 74
     0
  0
LTYPE
  5
74
330
5
100
AcDbSymbolTableRecord
100
AcDbLinetypeTableRecord
  2
CENTER_DASH_DASH
 70
     0
  3
Center_Dash_Dash
 72
    65
 73
     6
 40
14.0
 49
9.0
 74
     0
 49
-1.0
 74
     0
 49
1.0
 74
     0
 49
-1.0
 74
     0
 49
1.0
 74
     0
 49
-1.0
 74
     0
  0
ENDTAB
  0
TABLE
  2
LAYER
  5
2
330
0
100
AcDbSymbolTable
 70
     2
  0
LAYER
  5
10
330
2
100
AcDbSymbolTableRecord
100
AcDbLayerTableRecord
  2
0
 70
     0
 62
     7
  6
Continuous
370
    -3
390
F
  0
LAYER
  5
75
330
2
100
AcDbSymbolTableRecord
100
AcDbLayerTableRecord
  2
1
 70
     0
 62
     7
  6
Continuous
370
    -3
390
F
  0
ENDTAB
  0
TABLE
  2
STYLE
  5
3
330
0
100
AcDbSymbolTable
 70
     5
  0
STYLE
  5
11
330
3
100
AcDbSymbolTableRecord
100
AcDbTextStyleTableRecord
  2
Standard
 70
     0
 40
0.0
 41
1.0
 50
0.0
 71
     0
 42
0.2
  3
txt
  4

  0
STYLE
  5
E1
330
3
100
AcDbSymbolTableRecord
100
AcDbTextStyleTableRecord
  2
CONVERTER_11
 70
     0
 40
0.0
 41
0.9
 50
0.0
 71
     0
 42
0.2
  3
txt.shx
  4

  0
STYLE
  5
2BD
330
3
100
AcDbSymbolTableRecord
100
AcDbTextStyleTableRecord
  2
CONVERTER_12
 70
     0
 40
0.0
 41
0.81
 50
0.0
 71
     0
 42
0.2
  3
txt.shx
  4

  0
STYLE
  5
2C3
330
3
100
AcDbSymbolTableRecord
100
AcDbTextStyleTableRecord
  2
CONVERTER_13
 70
     0
 40
0.0
 41
0.855
 50
0.0
 71
     0
 42
0.2
  3
txt.shx
  4

  0
STYLE
  5
2C6
330
3
100
AcDbSymbolTableRecord
100
AcDbTextStyleTableRecord
  2
CONVERTER_14
 70
     0
 40
0.0
 41
0.72
 50
0.0
 71
     0
 42
0.2
  3
txt.shx
  4

  0
ENDTAB
  0
TABLE
  2
VIEW
  5
6
330
0
100
AcDbSymbolTable
 70
     0
  0
ENDTAB
  0
TABLE
  2
UCS
  5
7
330
0
100
AcDbSymbolTable
 70
     0
  0
ENDTAB
  0
TABLE
  2
APPID
  5
9
330
0
100
AcDbSymbolTable
 70
     2
  0
APPID
  5
12
330
9
100
AcDbSymbolTableRecord
100
AcDbRegAppTableRecord
  2
ACAD
 70
     0
  0
APPID
  5
33E
330
9
100
AcDbSymbolTableRecord
100
AcDbRegAppTableRecord
  2
ACAD_MLEADERVER
 70
     0
  0
ENDTAB
  0
TABLE
  2
DIMSTYLE
  5
A
330
0
100
AcDbSymbolTable
 70
     5
100
AcDbDimStyleTable
  0
DIMSTYLE
105
27
330
A
100
AcDbSymbolTableRecord
100
AcDbDimStyleTableRecord
  2
Standard
 70
     0
178
     0
340
11
  0
DIMSTYLE
105
115
102
{ACAD_REACTORS
330
116
102
}
330
A
100
AcDbSymbolTableRecord
100
AcDbDimStyleTableRecord
  2
ME10_DIM_10
 70
     0
 41
1.75
 42
0.25
 44
0.75
 73
     0
 74
     0
 77
     1
 78
     8
140
1.75
147
1.0
172
     1
173
     1
174
     1
175
     1
176
     2
177
     2
178
     3
340
E1
  0
DIMSTYLE
105
120
102
{ACAD_REACTORS
330
121
102
}
330
A
100
AcDbSymbolTableRecord
100
AcDbDimStyleTableRecord
  2
ME10_DIM_11
 70
     0
 41
1.75
 42
0.25
 44
0.75
 73
     0
 74
     0
 77
     1
 78
     8
140
1.75
147
1.0
172
     1
173
     1
174
     1
175
     1
176
     2
177
     2
178
     3
340
E1
  0
DIMSTYLE
105
178
102
{ACAD_REACTORS
330
179
102
}
330
A
100
AcDbSymbolTableRecord
100
AcDbDimStyleTableRecord
  2
ME10_DIM_12
 70
     0
 41
1.75
 42
0.25
 44
0.75
 73
     0
 74
     0
 77
     1
 78
     8
140
1.75
147
1.0
172
     1
173
     1
174
     1
175
     1
176
     2
177
     2
178
     3
340
E1
  0
DIMSTYLE
105
1C4
102
{ACAD_REACTORS
330
1C5
102
}
330
A
100
AcDbSymbolTableRecord
100
AcDbDimStyleTableRecord
  2
ME10_DIM_13
 70
     0
 41
1.75
 42
0.25
 44
0.75
 73
     0
 74
     0
 77
     1
 78
     8
140
1.75
147
1.0
172
     1
173
     1
174
     1
175
     1
176
     2
177
     2
178
     3
340
E1
  0
ENDTAB
  0
TABLE
  2
BLOCK_RECORD
  5
1
330
0
100
AcDbSymbolTable
 70
    23
  0
BLOCK_RECORD
  5
1F
330
1
100
AcDbSymbolTableRecord
100
AcDbBlockTableRecord
  2
*Model_Space
340
22
  0
BLOCK_RECORD
  5
1B
330
1
100
AcDbSymbolTableRecord
100
AcDbBlockTableRecord
  2
*Paper_Space
340
1E
  0
BLOCK_RECORD
  5
23
330
1
100
AcDbSymbolTableRecord
100
AcDbBlockTableRecord
  2
*Paper_Space0
340
26
  0
BLOCK_RECORD
  5
76
330
1
100
AcDbSymbolTableRecord
100
AcDbBlockTableRecord
  2
KBI_15-select__1
340
0
102
{BLKREFS
331
7A
102
}
  0
BLOCK_RECORD
  5
79
330
1
100
AcDbSymbolTableRecord
100
AcDbBlockTableRecord
  2
Back1
340
0
102
{BLKREFS
331
B4
102
}
  0
BLOCK_RECORD
  5
7D
330
1
100
AcDbSymbolTableRecord
100
AcDbBlockTableRecord
  2
KBI_15-select__2
340
0
102
{BLKREFS
331
81
102
}
  0
BLOCK_RECORD
  5
80
330
1
100
AcDbSymbolTableRecord
100
AcDbBlockTableRecord
  2
Front1
340
0
102
{BLKREFS
331
B5
102
}
  0
BLOCK_RECORD
  5
84
330
1
100
AcDbSymbolTableRecord
100
AcDbBlockTableRecord
  2
KBI_15-select__3
340
0
102
{BLKREFS
331
88
102
}
  0
BLOCK_RECORD
  5
87
330
1
100
AcDbSymbolTableRecord
100
AcDbBlockTableRecord
  2
Gen1
340
0
102
{BLKREFS
331
B6
102
}
  0
BLOCK_RECORD
  5
8B
330
1
100
AcDbSymbolTableRecord
100
AcDbBlockTableRecord
  2
KBI_15-select__4
340
0
102
{BLKREFS
331
8F
102
}
  0
BLOCK_RECORD
  5
8E
330
1
100
AcDbSymbolTableRecord
100
AcDbBlockTableRecord
  2
Left1
340
0
102
{BLKREFS
331
B7
102
}
  0
BLOCK_RECORD
  5
92
330
1
100
AcDbSymbolTableRecord
100
AcDbBlockTableRecord
  2
KBI_15-select__5
340
0
102
{BLKREFS
331
96
102
}
  0
BLOCK_RECORD
  5
95
330
1
100
AcDbSymbolTableRecord
100
AcDbBlockTableRecord
  2
Right1
340
0
102
{BLKREFS
331
B8
102
}
  0
BLOCK_RECORD
  5
99
330
1
100
AcDbSymbolTableRecord
100
AcDbBlockTableRecord
  2
PIN_PNT
340
0
102
{BLKREFS
331
9D
102
}
  0
BLOCK_RECORD
  5
9C
330
1
100
AcDbSymbolTableRecord
100
AcDbBlockTableRecord
  2
SLOT_CENTER
340
0
102
{BLKREFS
331
A1
102
}
  0
BLOCK_RECORD
  5
A0
330
1
100
AcDbSymbolTableRecord
100
AcDbBlockTableRecord
  2
KBI_15-select__6
340
0
102
{BLKREFS
331
A5
102
}
  0
BLOCK_RECORD
  5
A4
330
1
100
AcDbSymbolTableRecord
100
AcDbBlockTableRecord
  2
Top1
340
0
102
{BLKREFS
331
B9
102
}
  0
BLOCK_RECORD
  5
A8
330
1
100
AcDbSymbolTableRecord
100
AcDbBlockTableRecord
  2
_rahmen
340
0
102
{BLKREFS
331
AF
102
}
  0
BLOCK_RECORD
  5
AB
330
1
100
AcDbSymbolTableRecord
100
AcDbBlockTableRecord
  2
_punkt
340
0
102
{BLKREFS
331
B0
102
}
  0
BLOCK_RECORD
  5
AE
330
1
100
AcDbSymbolTableRecord
100
AcDbBlockTableRecord
  2
A4I_CS
340
0
102
{BLKREFS
331
BA
102
}
  0
BLOCK_RECORD
  5
B3
330
1
100
AcDbSymbolTableRecord
100
AcDbBlockTableRecord
  2
1
340
0
102
{BLKREFS
331
BD
102
}
  0
BLOCK_RECORD
  5
10C
330
1
100
AcDbSymbolTableRecord
100
AcDbBlockTableRecord
  2
*D19
340
0
  0
BLOCK_RECORD
  5
117
330
1
100
AcDbSymbolTableRecord
100
AcDbBlockTableRecord
  2
*D20
340
0
  0
BLOCK_RECORD
  5
16F
330
1
100
AcDbSymbolTableRecord
100
AcDbBlockTableRecord
  2
*D21
340
0
  0
BLOCK_RECORD
  5
1BB
330
1
100
AcDbSymbolTableRecord
100
AcDbBlockTableRecord
  2
*D22
340
0
  0
ENDTAB
  0
ENDSEC
  0
SECTION
  2
BLOCKS
  0
BLOCK
  5
20
330
1F
100
AcDbEntity
  8
0
100
AcDbBlockBegin
  2
*Model_Space
 70
     0
 10
0.0
 20
0.0
 30
0.0
  3
*Model_Space
  1

  0
ENDBLK
  5
21
330
1F
100
AcDbEntity
  8
0
100
AcDbBlockEnd
  0
BLOCK
  5
1C
330
1B
100
AcDbEntity
 67
     1
  8
0
100
AcDbBlockBegin
  2
*Paper_Space
 70
     0
 10
0.0
 20
0.0
 30
0.0
  3
*Paper_Space
  1

  0
ENDBLK
  5
1D
330
1B
100
AcDbEntity
 67
     1
  8
0
100
AcDbBlockEnd
  0
BLOCK
  5
24
330
23
100
AcDbEntity
  8
0
100
AcDbBlockBegin
  2
*Paper_Space0
 70
     0
 10
0.0
 20
0.0
 30
0.0
  3
*Paper_Space0
  1

  0
ENDBLK
  5
25
330
23
100
AcDbEntity
  8
0
100
AcDbBlockEnd
  0
BLOCK
  5
77
330
76
100
AcDbEntity
  8
0
100
AcDbBlockBegin
  2
KBI_15-select__1
 70
     0
 10
4.39999771119171
 20
61.50000000007002
 30
0.0
  3
KBI_15-select__1
  1

  0
LINE
  5
BE
330
76
100
AcDbEntity
  8
0
  6
Continuous
 62
     7
100
AcDbLine
 10
4.9499977111917
 20
80.00000000007002
 30
0.0
 11
4.9499977111917
 21
87.50000000007002
 31
0.0
  0
LINE
  5
BF
330
76
100
AcDbEntity
  8
0
  6
Continuous
 62
     7
100
AcDbLine
 10
15.39999771119172
 20
80.00000000007002
 30
0.0
 11
14.84999771119171
 21
80.00000000007002
 31
0.0
  0
LINE
  5
C0
330
76
100
AcDbEntity
  8
0
  6
Continuous
 62
     7
100
AcDbLine
 10
4.39999771119171
 20
80.00000000007002
 30
0.0
 11
4.9499977111917
 21
80.00000000007002
 31
0.0
  0
LINE
  5
C1
330
76
100
AcDbEntity
  8
0
  6
Continuous
 62
     7
100
AcDbLine
 10
4.9499977111917
 20
80.00000000007002
 30
0.0
 11
6.64999771119171
 21
80.00000000007002
 31
0.0
  0
LINE
  5
C2
330
76
100
AcDbEntity
  8
0
  6
Continuous
 62
     7
100
AcDbLine
 10
13.14999771119172
 20
80.00000000007002
 30
0.0
 11
6.64999771119171
 21
80.00000000007002
 31
0.0
  0
LINE
  5
C3
330
76
100
AcDbEntity
  8
0
  6
Continuous
 62
     7
100
AcDbLine
 10
14.84999771119171
 20
80.00000000007002
 30
0.0
 11
13.14999771119172
 21
80.00000000007002
 31
0.0
  0
LINE
  5
C4
330
76
100
AcDbEntity
  8
0
  6
Continuous
 62
     7
100
AcDbLine
 10
14.84999771119171
 20
87.50000000007002
 30
0.0
 11
4.9499977111917
 21
87.50000000007002
 31
0.0
  0
LINE
  5
C5
330
76
100
AcDbEntity
  8
0
  6
Continuous
 62
     7
100
AcDbLine
 10
6.44999771119172
 20
75.80000000007001
 30
0.0
 11
13.34999771119171
 21
75.80000000007001
 31
0.0
  0
LINE
  5
C6
330
76
100
AcDbEntity
  8
0
  6
Continuous
 62
     7
100
AcDbLine
 10
6.64999771119171
 20
77.80000000007003
 30
0.0
 11
6.64999771119171
 21
78.00000000007002
 31
0.0
  0
LINE
  5
C7
330
76
100
AcDbEntity
  8
0
  6
Continuous
 62
     7
100
AcDbLine
 10
6.44999771119172
 20
75.80000000007001
 30
0.0
 11
6.44999771119172
 21
68.80000000007001
 31
0.0
  0
LINE
  5
C8
330
76
100
AcDbEntity
  8
0
  6
Continuous
 62
     7
100
AcDbLine
 10
6.64999771119171
 20
78.00000000007002
 30
0.0
 11
6.64999771119171
 21
80.00000000007002
 31
0.0
  0
LINE
  5
C9
330
76
100
AcDbEntity
  8
0
  6
Continuous
 62
     7
100
AcDbLine
 10
6.89999771119171
 20
75.80000000007001
 30
0.0
 11
6.89999771119171
 21
61.50000000007002
 31
0.0
  0
LINE
  5
CA
330
76
100
AcDbEntity
  8
0
  6
Continuous
 62
     7
100
AcDbLine
 10
4.44999771119172
 20
68.80000000007001
 30
0.0
 11
4.44999771119172
 21
77.80000000007001
 31
0.0
  0
LINE
  5
CB
330
76
100
AcDbEntity
  8
0
  6
Continuous
 62
     7
100
AcDbLine
 10
15.34999771119171
 20
68.80000000007001
 30
0.0
 11
15.34999771119171
 21
77.80000000007001
 31
0.0
  0
LINE
  5
CC
330
76
100
AcDbEntity
  8
0
  6
Continuous
 62
     7
100
AcDbLine
 10
15.39999771119172
 20
80.00000000007002
 30
0.0
 11
15.39999771119172
 21
78.00000000007002
 31
0.0
  0
LINE
  5
CD
330
76
100
AcDbEntity
  8
0
  6
Continuous
 62
     7
100
AcDbLine
 10
14.84999771119171
 20
80.00000000007002
 30
0.0
 11
14.84999771119171
 21
87.50000000007002
 31
0.0
  0
LINE
  5
CE
330
76
100
AcDbEntity
  8
0
  6
Continuous
 62
     7
100
AcDbLine
 10
6.44999771119172
 20
68.80000000007001
 30
0.0
 11
4.44999771119172
 21
68.80000000007001
 31
0.0
  0
LINE
  5
CF
330
76
100
AcDbEntity
  8
0
  6
Continuous
 62
     7
100
AcDbLine
 10
12.89999771119171
 20
61.50000000007002
 30
0.0
 11
6.89999771119171
 21
61.50000000007002
 31
0.0
  0
LINE
  5
D0
330
76
100
AcDbEntity
  8
0
  6
Continuous
 62
     7
100
AcDbLine
 10
15.34999771119171
 20
68.80000000007001
 30
0.0
 11
13.34999771119171
 21
68.80000000007001
 31
0.0
  0
LINE
  5
D1
330
76
100
AcDbEntity
  8
0
  6
Continuous
 62
     7
100
AcDbLine
 10
6.64999771119171
 20
78.00000000007002
 30
0.0
 11
4.39999771119171
 21
78.00000000007002
 31
0.0
  0
LINE
  5
D2
330
76
100
AcDbEntity
  8
0
  6
Continuous
 62
     7
100
AcDbLine
 10
4.44999771119172
 20
77.80000000007001
 30
0.0
 11
6.64999771119171
 21
77.80000000007003
 31
0.0
  0
LINE
  5
D3
330
76
100
AcDbEntity
  8
0
  6
Continuous
 62
     7
100
AcDbLine
 10
13.14999771119172
 20
77.80000000007001
 30
0.0
 11
15.34999771119171
 21
77.80000000007001
 31
0.0
  0
LINE
  5
D4
330
76
100
AcDbEntity
  8
0
  6
Continuous
 62
     7
100
AcDbLine
 10
15.39999771119172
 20
78.00000000007002
 30
0.0
 11
13.14999771119172
 21
78.00000000007002
 31
0.0
  0
LINE
  5
D5
330
76
100
AcDbEntity
  8
0
  6
Continuous
 62
     7
100
AcDbLine
 10
6.64999771119171
 20
77.80000000007003
 30
0.0
 11
13.14999771119172
 21
77.80000000007001
 31
0.0
  0
LINE
  5
D6
330
76
100
AcDbEntity
  8
0
  6
Continuous
 62
     7
100
AcDbLine
 10
13.14999771119172
 20
78.00000000007002
 30
0.0
 11
13.14999771119172
 21
77.80000000007001
 31
0.0
  0
LINE
  5
D7
330
76
100
AcDbEntity
  8
0
  6
Continuous
 62
     7
100
AcDbLine
 10
13.34999771119171
 20
68.80000000007001
 30
0.0
 11
13.34999771119171
 21
75.80000000007001
 31
0.0
  0
LINE
  5
D8
330
76
100
AcDbEntity
  8
0
  6
Continuous
 62
     7
100
AcDbLine
 10
13.14999771119172
 20
80.00000000007002
 30
0.0
 11
13.14999771119172
 21
78.00000000007002
 31
0.0
  0
LINE
  5
D9
330
76
100
AcDbEntity
  8
0
  6
Continuous
 62
     7
100
AcDbLine
 10
4.39999771119171
 20
78.00000000007002
 30
0.0
 11
4.39999771119171
 21
80.00000000007002
 31
0.0
  0
LINE
  5
DA
330
76
100
AcDbEntity
  8
0
  6
Continuous
 62
     7
100
AcDbLine
 10
12.89999771119171
 20
75.80000000007001
 30
0.0
 11
12.89999771119171
 21
61.50000000007002
 31
0.0
  0
LINE
  5
DB
330
76
100
AcDbEntity
  8
1
  6
Continuous
 62
     2
100
AcDbLine
 10
7.51499771119171
 20
75.80000000007001
 30
0.0
 11
7.51499771119171
 21
61.50000000007002
 31
0.0
  0
LINE
  5
DC
330
76
100
AcDbEntity
  8
1
  6
Continuous
 62
     7
100
AcDbLine
 10
6.89999771119171
 20
61.50000000007002
 30
0.0
 11
7.51499771119171
 21
61.50000000007002
 31
0.0
  0
LINE
  5
DD
330
76
100
AcDbEntity
  8
1
  6
Continuous
 62
     2
100
AcDbLine
 10
12.28499771119171
 20
75.80000000007001
 30
0.0
 11
12.28499771119171
 21
61.50000000007002
 31
0.0
  0
LINE
  5
DE
330
76
100
AcDbEntity
  8
1
  6
Continuous
 62
     7
100
AcDbLine
 10
12.89999771119171
 20
61.50000000007002
 30
0.0
 11
12.28499771119171
 21
61.50000000007002
 31
0.0
  0
LINE
  5
DF
330
76
100
AcDbEntity
  8
1
  6
DOT_CENTER
 62
     2
100
AcDbLine
 10
9.8999977111917
 20
80.00000000007002
 30
0.0
 11
9.8999977111917
 21
87.50000000007002
 31
0.0
  0
LINE
  5
E0
330
76
100
AcDbEntity
  8
1
  6
DOT_CENTER
 62
     2
100
AcDbLine
 10
9.89999771119171
 20
75.80000000007001
 30
0.0
 11
9.89999771119171
 21
61.50000000007002
 31
0.0
  0
ENDBLK
  5
78
330
76
100
AcDbEntity
  8
0
100
AcDbBlockEnd
  0
BLOCK
  5
7B
330
79
100
AcDbEntity
  8
0
100
AcDbBlockBegin
  2
Back1
 70
     0
 10
9.8999977111867
 20
74.50000000003502
 30
0.0
  3
Back1
  1

  0
INSERT
  5
7A
330
79
100
AcDbEntity
  8
0
100
AcDbBlockReference
  2
KBI_15-select__1
 10
4.39999771119171
 20
61.50000000007002
 30
0.0
  0
MTEXT
  5
E2
330
79
100
AcDbEntity
  8
1
 62
     6
100
AcDbMText
 10
9.8999977111867
 20
59.00000000003502
 30
0.0
 40
2.5
 41
0.0
 71
     2
 72
     1
  1
 
  7
CONVERTER_11
 73
     1
 44
1.32052821128451
  0
ENDBLK
  5
7C
330
79
100
AcDbEntity
  8
0
100
AcDbBlockEnd
  0
BLOCK
  5
7E
330
7D
100
AcDbEntity
  8
0
100
AcDbBlockBegin
  2
KBI_15-select__2
 70
     0
 10
-62.00000000001002
 20
61.50000000006995
 30
0.0
  3
KBI_15-select__2
  1

  0
LINE
  5
E3
330
7D
100
AcDbEntity
  8
0
  6
Continuous
 62
     7
100
AcDbLine
 10
-56.50000000001001
 20
87.50000000006995
 30
0.0
 11
-61.45000000001001
 21
87.50000000006995
 31
0.0
  0
LINE
  5
E4
330
7D
100
AcDbEntity
  8
0
  6
Continuous
 62
     7
100
AcDbLine
 10
-62.00000000001002
 20
80.00000000006995
 30
0.0
 11
-62.00000000001002
 21
78.00000000006995
 31
0.0
  0
LINE
  5
E5
330
7D
100
AcDbEntity
  8
0
  6
Continuous
 62
     7
100
AcDbLine
 10
-61.45000000001001
 20
80.00000000006995
 30
0.0
 11
-61.45000000001001
 21
87.50000000006995
 31
0.0
  0
LINE
  5
E6
330
7D
100
AcDbEntity
  8
0
  6
Continuous
 62
     7
100
AcDbLine
 10
-59.95000000001001
 20
68.80000000006993
 30
0.0
 11
-61.95000000001002
 21
68.80000000006993
 31
0.0
  0
LINE
  5
E7
330
7D
100
AcDbEntity
  8
0
  6
Continuous
 62
     7
100
AcDbLine
 10
-51.05000000001002
 20
68.80000000006993
 30
0.0
 11
-53.05000000001002
 21
68.80000000006993
 31
0.0
  0
LINE
  5
E8
330
7D
100
AcDbEntity
  8
0
  6
Continuous
 62
     7
100
AcDbLine
 10
-53.50000000001001
 20
61.50000000006995
 30
0.0
 11
-58.62132034356966
 21
61.50000000006995
 31
0.0
  0
LINE
  5
E9
330
7D
100
AcDbEntity
  8
0
  6
Continuous
 62
     7
100
AcDbLine
 10
-59.75000000001002
 20
77.80000000006993
 30
0.0
 11
-59.75000000001002
 21
75.80000000006993
 31
0.0
  0
LINE
  5
EA
330
7D
100
AcDbEntity
  8
0
  6
Continuous
 62
     7
100
AcDbLine
 10
-58.62132034356966
 20
61.50000000006995
 30
0.0
 11
-59.50000000001001
 21
61.50000000006995
 31
0.0
  0
LINE
  5
EB
330
7D
100
AcDbEntity
  8
0
  6
Continuous
 62
     7
100
AcDbLine
 10
-61.95000000001002
 20
77.80000000006993
 30
0.0
 11
-59.75000000001002
 21
77.80000000006993
 31
0.0
  0
LINE
  5
EC
330
7D
100
AcDbEntity
  8
0
  6
Continuous
 62
     7
100
AcDbLine
 10
-59.75000000001002
 20
78.00000000006995
 30
0.0
 11
-62.00000000001002
 21
78.00000000006995
 31
0.0
  0
LINE
  5
ED
330
7D
100
AcDbEntity
  8
0
  6
Continuous
 62
     7
100
AcDbLine
 10
-59.95000000001001
 20
68.80000000006993
 30
0.0
 11
-59.95000000001001
 21
75.80000000006993
 31
0.0
  0
LINE
  5
EE
330
7D
100
AcDbEntity
  8
0
  6
Continuous
 62
     7
100
AcDbLine
 10
-51.55000000001
 20
87.50000000006995
 30
0.0
 11
-56.50000000001001
 21
87.50000000006995
 31
0.0
  0
LINE
  5
EF
330
7D
100
AcDbEntity
  8
0
  6
Continuous
 62
     7
100
AcDbLine
 10
-53.25000000001002
 20
78.00000000006995
 30
0.0
 11
-53.50000000001001
 21
78.00000000006995
 31
0.0
  0
LINE
  5
F0
330
7D
100
AcDbEntity
  8
0
  6
Continuous
 62
     7
100
AcDbLine
 10
-59.50000000001001
 20
78.00000000006995
 30
0.0
 11
-59.75000000001002
 21
78.00000000006995
 31
0.0
  0
LINE
  5
F1
330
7D
100
AcDbEntity
  8
0
  6
Continuous
 62
     7
100
AcDbLine
 10
-53.25000000001002
 20
78.00000000006995
 30
0.0
 11
-53.25000000001002
 21
77.80000000006996
 31
0.0
  0
LINE
  5
F2
330
7D
100
AcDbEntity
  8
0
  6
Continuous
 62
     7
100
AcDbLine
 10
-59.75000000001002
 20
78.00000000006995
 30
0.0
 11
-59.75000000001002
 21
77.80000000006993
 31
0.0
  0
LINE
  5
F3
330
7D
100
AcDbEntity
  8
0
  6
Continuous
 62
     7
100
AcDbLine
 10
-53.50000000001001
 20
78.00000000006995
 30
0.0
 11
-59.50000000001001
 21
78.00000000006995
 31
0.0
  0
LINE
  5
F4
330
7D
100
AcDbEntity
  8
0
  6
Continuous
 62
     7
100
AcDbLine
 10
-51.55000000001
 20
80.00000000006995
 30
0.0
 11
-51.55000000001
 21
87.50000000006995
 31
0.0
  0
LINE
  5
F5
330
7D
100
AcDbEntity
  8
0
  6
Continuous
 62
     7
100
AcDbLine
 10
-61.95000000001002
 20
68.80000000006993
 30
0.0
 11
-61.95000000001002
 21
77.80000000006993
 31
0.0
  0
LINE
  5
F6
330
7D
100
AcDbEntity
  8
0
  6
Continuous
 62
     7
100
AcDbLine
 10
-51.05000000001002
 20
77.80000000006993
 30
0.0
 11
-53.25000000001002
 21
77.80000000006996
 31
0.0
  0
LINE
  5
F7
330
7D
100
AcDbEntity
  8
0
  6
Continuous
 62
     7
100
AcDbLine
 10
-53.05000000001002
 20
75.80000000006993
 30
0.0
 11
-53.25000000001002
 21
75.80000000006993
 31
0.0
  0
LINE
  5
F8
330
7D
100
AcDbEntity
  8
0
  6
Continuous
 62
     7
100
AcDbLine
 10
-53.25000000001002
 20
77.80000000006996
 30
0.0
 11
-53.25000000001002
 21
75.80000000006993
 31
0.0
  0
LINE
  5
F9
330
7D
100
AcDbEntity
  8
0
  6
Continuous
 62
     7
100
AcDbLine
 10
-51.00000000001002
 20
80.00000000006995
 30
0.0
 11
-51.00000000001002
 21
78.00000000006995
 31
0.0
  0
LINE
  5
FA
330
7D
100
AcDbEntity
  8
0
  6
Continuous
 62
     7
100
AcDbLine
 10
-51.00000000001002
 20
78.00000000006995
 30
0.0
 11
-53.25000000001002
 21
78.00000000006995
 31
0.0
  0
LINE
  5
FB
330
7D
100
AcDbEntity
  8
0
  6
Continuous
 62
     7
100
AcDbLine
 10
-53.05000000001002
 20
68.80000000006993
 30
0.0
 11
-53.05000000001002
 21
75.80000000006993
 31
0.0
  0
LINE
  5
FC
330
7D
100
AcDbEntity
  8
0
  6
Continuous
 62
     7
100
AcDbLine
 10
-51.05000000001002
 20
77.80000000006993
 30
0.0
 11
-51.05000000001002
 21
68.80000000006993
 31
0.0
  0
LINE
  5
FD
330
7D
100
AcDbEntity
  8
0
  6
Continuous
 62
     7
100
AcDbLine
 10
-53.50000000001001
 20
78.00000000006995
 30
0.0
 11
-53.50000000001001
 21
61.50000000006995
 31
0.0
  0
LINE
  5
FE
330
7D
100
AcDbEntity
  8
0
  6
Continuous
 62
     7
100
AcDbLine
 10
-51.00000000001002
 20
80.00000000006995
 30
0.0
 11
-51.55000000001
 21
80.00000000006995
 31
0.0
  0
LINE
  5
FF
330
7D
100
AcDbEntity
  8
0
  6
Continuous
 62
     7
100
AcDbLine
 10
-61.45000000001001
 20
80.00000000006995
 30
0.0
 11
-62.00000000001002
 21
80.00000000006995
 31
0.0
  0
LINE
  5
100
330
7D
100
AcDbEntity
  8
0
  6
Continuous
 62
     7
100
AcDbLine
 10
-51.55000000001
 20
80.00000000006995
 30
0.0
 11
-61.45000000001001
 21
80.00000000006995
 31
0.0
  0
LINE
  5
101
330
7D
100
AcDbEntity
  8
0
  6
Continuous
 62
     7
100
AcDbLine
 10
-53.25000000001002
 20
75.80000000006993
 30
0.0
 11
-53.50000000001001
 21
75.80000000006993
 31
0.0
  0
LINE
  5
102
330
7D
100
AcDbEntity
  8
0
  6
Continuous
 62
     7
100
AcDbLine
 10
-59.50000000001001
 20
75.80000000006993
 30
0.0
 11
-59.75000000001002
 21
75.80000000006993
 31
0.0
  0
LINE
  5
103
330
7D
100
AcDbEntity
  8
0
  6
Continuous
 62
     7
100
AcDbLine
 10
-59.95000000001001
 20
75.80000000006993
 30
0.0
 11
-59.75000000001002
 21
75.80000000006993
 31
0.0
  0
LINE
  5
104
330
7D
100
AcDbEntity
  8
0
  6
Continuous
 62
     7
100
AcDbLine
 10
-59.50000000001001
 20
78.00000000006995
 30
0.0
 11
-59.50000000001001
 21
61.50000000006995
 31
0.0
  0
LINE
  5
105
330
7D
100
AcDbEntity
  8
1
  6
Continuous
 62
     2
100
AcDbLine
 10
-54.11500000001001
 20
78.00000000006995
 30
0.0
 11
-54.11500000001001
 21
61.50000000006995
 31
0.0
  0
LINE
  5
106
330
7D
100
AcDbEntity
  8
1
  6
Continuous
 62
     7
100
AcDbLine
 10
-53.50000000001001
 20
61.50000000006995
 30
0.0
 11
-54.11500000001001
 21
61.50000000006995
 31
0.0
  0
LINE
  5
107
330
7D
100
AcDbEntity
  8
1
  6
Continuous
 62
     2
100
AcDbLine
 10
-58.88500000001001
 20
78.00000000006995
 30
0.0
 11
-58.88500000001001
 21
61.50000000006995
 31
0.0
  0
LINE
  5
108
330
7D
100
AcDbEntity
  8
1
  6
Continuous
 62
     7
100
AcDbLine
 10
-59.50000000001001
 20
61.50000000006995
 30
0.0
 11
-58.88500000001001
 21
61.50000000006995
 31
0.0
  0
LINE
  5
109
330
7D
100
AcDbEntity
  8
1
  6
DOT_CENTER
 62
     2
100
AcDbLine
 10
-56.50000000001
 20
80.00000000006995
 30
0.0
 11
-56.50000000001001
 21
87.50000000006995
 31
0.0
  0
LINE
  5
10A
330
7D
100
AcDbEntity
  8
1
  6
DOT_CENTER
 62
     2
100
AcDbLine
 10
-56.50000000001001
 20
78.00000000006995
 30
0.0
 11
-56.50000000001001
 21
61.50000000006995
 31
0.0
  0
ENDBLK
  5
7F
330
7D
100
AcDbEntity
  8
0
100
AcDbBlockEnd
  0
BLOCK
  5
82
330
80
100
AcDbEntity
  8
0
100
AcDbBlockBegin
  2
Front1
 70
     0
 10
-56.500000000005
 20
74.50000000003496
 30
0.0
  3
Front1
  1

  0
INSERT
  5
81
330
80
100
AcDbEntity
  8
0
100
AcDbBlockReference
  2
KBI_15-select__2
 10
-62.00000000001002
 20
61.50000000006995
 30
0.0
  0
MTEXT
  5
10B
330
80
100
AcDbEntity
  8
1
 62
     6
100
AcDbMText
 10
-56.500000000005
 20
59.00000000003502
 30
0.0
 40
2.5
 41
0.0
 71
     2
 72
     1
  1
 
  7
CONVERTER_11
 73
     1
 44
1.32052821128451
  0
DIMENSION
  5
116
330
80
100
AcDbEntity
  8
1
100
AcDbDimension
  2
*D19
 10
-62.00000000001002
 20
55.64383558842093
 30
0.0
 11
-56.500000000005
 21
57.51883558842093
 31
0.0
 70
    33
  1
<>
 71
     5
 42
-1.0
 53
0.00013888888889
  3
ME10_DIM_10
100
AcDbAlignedDimension
 13
-51.00000000001002
 23
78.00000000006995
 33
0.0
 14
-62.00000000001002
 24
78.00000000006995
 34
0.0
  0
DIMENSION
  5
121
330
80
100
AcDbEntity
  8
1
100
AcDbDimension
  2
*D20
 10
-68.6799683523355
 20
87.50000000006995
 30
0.0
 11
-70.5549683523355
 21
75.62315390471043
 31
0.0
 70
    32
  1
<>
 71
     5
 42
-1.0
 53
90.0
  3
ME10_DIM_11
100
AcDbAlignedDimension
 13
-59.50000000001001
 23
61.50000000006995
 33
0.0
 14
-61.45000000001001
 24
87.50000000006995
 34
0.0
 50
90.0
100
AcDbRotatedDimension
  0
ENDBLK
  5
83
330
80
100
AcDbEntity
  8
0
100
AcDbBlockEnd
  0
BLOCK
  5
85
330
84
100
AcDbEntity
  8
0
100
AcDbBlockBegin
  2
KBI_15-select__3
 70
     0
 10
-2.73813959752994
 20
19.95378159787659
 30
0.0
  3
KBI_15-select__3
  1

  0
LINE
  5
122
330
84
100
AcDbEntity
  8
0
  6
Continuous
 62
     7
100
AcDbLine
 10
9.79032137155271
 20
43.07533491936949
 30
0.0
 11
9.67500012328446
 21
42.97546378877307
 31
0.0
  0
LINE
  5
123
330
84
100
AcDbEntity
  8
0
  6
Continuous
 62
     7
100
AcDbLine
 10
9.79032137155271
 20
41.34328411180061
 30
0.0
 11
9.67500012328446
 21
41.2434129812042
 31
0.0
  0
LINE
  5
124
330
84
100
AcDbEntity
  8
0
  6
Continuous
 62
     7
100
AcDbLine
 10
-0.22499987671554
 20
37.49389392836586
 30
0.0
 11
-0.22499987671552
 21
43.98908445674915
 31
0.0
  0
LINE
  5
125
330
84
100
AcDbEntity
  8
0
  6
Continuous
 62
     7
100
AcDbLine
 10
-2.73813959752994
 20
36.53062533814788
 30
0.0
 11
-2.73813959752994
 21
34.798574530579
 31
0.0
  0
LINE
  5
126
330
84
100
AcDbEntity
  8
0
  6
Continuous
 62
     7
100
AcDbLine
 10
-0.22499987671552
 20
38.70706817963289
 30
0.0
 11
-2.73813959752994
 21
36.53062533814788
 31
0.0
  0
LINE
  5
127
330
84
100
AcDbEntity
  8
0
  6
Continuous
 62
     7
100
AcDbLine
 10
19.69483857390964
 20
35.30866979477064
 30
0.0
 11
19.69483857390966
 21
43.10289842883059
 31
0.0
  0
LINE
  5
128
330
84
100
AcDbEntity
  8
0
  6
Continuous
 62
     7
100
AcDbLine
 10
14.85967887501622
 20
41.26552729823416
 30
0.0
 11
15.15967887501622
 21
41.52533491936949
 31
0.0
  0
LINE
  5
129
330
84
100
AcDbEntity
  8
0
  6
Continuous
 62
     7
100
AcDbLine
 10
12.28958268558389
 20
37.1577079004473
 30
0.0
 11
12.28958268558387
 21
38.88975870801617
 31
0.0
  0
LINE
  5
12A
330
84
100
AcDbEntity
  8
0
  6
Continuous
 62
     7
100
AcDbLine
 10
11.98721248022815
 20
40.4933737989721
 30
0.0
 11
11.98721248022815
 21
42.09897539479022
 31
0.0
  0
LINE
  5
12B
330
84
100
AcDbEntity
  8
0
  6
Continuous
 62
     7
100
AcDbLine
 10
14.19483857390966
 20
38.33975870801617
 30
0.0
 11
19.69483857390966
 21
43.10289842883059
 31
0.0
  0
LINE
  5
12C
330
84
100
AcDbEntity
  8
0
  6
Continuous
 62
     7
100
AcDbLine
 10
9.26745668989555
 20
44.97252082231273
 30
0.0
 11
10.25516167265928
 21
45.82789842883058
 31
0.0
  0
LINE
  5
12D
330
84
100
AcDbEntity
  8
0
  6
Continuous
 62
     2
100
AcDbLine
 10
9.79032137155271
 20
41.34328411180061
 30
0.0
 11
9.79032137155271
 21
43.07533491936949
 31
0.0
  0
LINE
  5
12E
330
84
100
AcDbEntity
  8
0
  6
Continuous
 62
     7
100
AcDbLine
 10
19.69483857390966
 20
43.10289842883059
 30
0.0
 11
10.25516167265928
 21
45.82789842883058
 31
0.0
  0
LINE
  5
12F
330
84
100
AcDbEntity
  8
0
  6
Continuous
 62
     7
100
AcDbLine
 10
14.19483857390966
 20
38.33975870801617
 30
0.0
 11
12.28958268558387
 21
38.88975870801617
 31
0.0
  0
LINE
  5
130
330
84
100
AcDbEntity
  8
0
  6
Continuous
 62
     7
100
AcDbLine
 10
12.46278776634077
 20
31.04553007395622
 30
0.0
 11
12.46278776634077
 21
37.1077079004473
 31
0.0
  0
LINE
  5
131
330
84
100
AcDbEntity
  8
0
  6
Continuous
 62
     7
100
AcDbLine
 10
12.46278776634077
 20
37.1077079004473
 30
0.0
 11
12.28958268558389
 21
37.1577079004473
 31
0.0
  0
LINE
  5
132
330
84
100
AcDbEntity
  8
0
  6
Continuous
 62
     7
100
AcDbLine
 10
14.19483857390966
 20
38.33975870801617
 30
0.0
 11
14.19483857390966
 21
30.54553007395623
 31
0.0
  0
LINE
  5
133
330
84
100
AcDbEntity
  8
0
  6
Continuous
 62
     7
100
AcDbLine
 10
12.18813984409888
 20
36.72511171101497
 30
0.0
 11
12.18813984409889
 21
38.45716251858384
 31
0.0
  0
LINE
  5
134
330
84
100
AcDbEntity
  8
0
  6
Continuous
 62
     7
100
AcDbLine
 10
12.18813984409888
 20
37.16413610125887
 30
0.0
 11
12.28958268558389
 21
37.1577079004473
 31
0.0
  0
LINE
  5
135
330
84
100
AcDbEntity
  8
0
  6
Continuous
 62
     7
100
AcDbLine
 10
12.18813984409889
 20
38.45716251858384
 30
0.0
 11
10.2395826855839
 21
39.01966251858384
 31
0.0
  0
LINE
  5
136
330
84
100
AcDbEntity
  8
0
  6
Continuous
 62
     7
100
AcDbLine
 10
14.19483857390966
 20
30.54553007395623
 30
0.0
 11
12.46278776634077
 21
31.04553007395622
 31
0.0
  0
LINE
  5
137
330
84
100
AcDbEntity
  8
0
  6
Continuous
 62
     7
100
AcDbLine
 10
19.69483857390964
 20
35.30866979477064
 30
0.0
 11
14.19483857390966
 21
30.54553007395623
 31
0.0
  0
LINE
  5
138
330
84
100
AcDbEntity
  8
0
  6
Continuous
 62
     7
100
AcDbLine
 10
7.72500012328447
 20
32.85991933215029
 30
0.0
 11
7.72500012328447
 21
21.47242395835374
 31
0.0
  0
LINE
  5
139
330
84
100
AcDbEntity
  8
0
  6
Continuous
 62
     7
100
AcDbLine
 10
1.72500012328447
 20
33.51017707095744
 30
0.0
 11
1.72500012328447
 21
21.47242395835375
 31
0.0
  0
LINE
  5
13A
330
84
100
AcDbEntity
  8
0
  6
Continuous
 62
     7
100
AcDbLine
 10
6.78813984409887
 20
33.78062533814788
 30
0.0
 11
6.78813984409887
 21
32.048574530579
 31
0.0
  0
LINE
  5
13B
330
84
100
AcDbEntity
  8
0
  6
Continuous
 62
     7
100
AcDbLine
 10
12.18813984409889
 20
38.45716251858384
 30
0.0
 11
6.78813984409887
 21
33.78062533814788
 31
0.0
  0
LINE
  5
13C
330
84
100
AcDbEntity
  8
0
  6
Continuous
 62
     7
100
AcDbLine
 10
6.78813984409887
 20
32.048574530579
 30
0.0
 11
12.18813984409888
 21
36.72511171101497
 31
0.0
  0
LINE
  5
13D
330
84
100
AcDbEntity
  8
0
  6
Continuous
 62
     7
100
AcDbLine
 10
6.78813984409887
 20
32.048574530579
 30
0.0
 11
-2.73813959752994
 21
34.798574530579
 31
0.0
  0
LINE
  5
13E
330
84
100
AcDbEntity
  8
0
  6
Continuous
 62
     7
100
AcDbLine
 10
9.67500012328448
 20
37.49389392836585
 30
0.0
 11
9.67500012328448
 21
43.98908445674914
 31
0.0
  0
LINE
  5
13F
330
84
100
AcDbEntity
  8
0
  6
Continuous
 62
     7
100
AcDbLine
 10
12.28958268558387
 20
38.88975870801617
 30
0.0
 11
9.67500012328446
 21
39.64452368109721
 31
0.0
  0
LINE
  5
140
330
84
100
AcDbEntity
  8
0
  6
Continuous
 62
     7
100
AcDbLine
 10
12.28958268558387
 20
38.88975870801617
 30
0.0
 11
10.2395826855839
 21
39.01966251858384
 31
0.0
  0
LINE
  5
141
330
84
100
AcDbEntity
  8
0
  6
Continuous
 62
     7
100
AcDbLine
 10
9.67500012328446
 20
39.18264346574551
 30
0.0
 11
10.2395826855839
 21
39.01966251858384
 31
0.0
  0
LINE
  5
142
330
84
100
AcDbEntity
  8
0
  6
Continuous
 62
     7
100
AcDbLine
 10
6.78813984409887
 20
33.78062533814788
 30
0.0
 11
-2.73813959752994
 21
36.53062533814788
 31
0.0
  0
SPLINE
  5
143
330
84
100
AcDbEntity
  8
0
  6
Continuous
 62
     7
100
AcDbSpline
210
0.0
220
0.0
230
1.0
 70
  1064
 71
     3
 72
    13
 73
     9
 74
     7
 42
0.000000001
 43
0.0000000001
 44
0.00000001
 40
0.0
 40
0.0
 40
0.0
 40
0.0
 40
0.7488639477181415
 40
1.431000373960924
 40
2.039130882919539
 40
2.573782891284901
 40
3.046570160618507
 40
3.482879091758625
 40
3.482879091758625
 40
3.482879091758625
 40
3.482879091758625
 10
2.250000123284472
 20
41.84567158238266
 30
0.0
 10
2.012005555617092
 20
41.92198160927059
 30
0.0
 10
1.557222929162327
 20
42.0678020667404
 30
0.0
 10
0.9465581235458189
 20
42.37197159661983
 30
0.0
 10
0.4439920660552831
 20
42.7209754643929
 30
0.0
 10
0.0710555966798588
 20
43.11259796789906
 30
0.0
 10
-0.1770057077287387
 20
43.53884438501959
 30
0.0
 10
-0.2094355846356335
 20
43.84307359278428
 30
0.0
 10
-0.2249998767155219
 20
43.98908445674915
 30
0.0
 11
2.250000123284472
 21
41.84567158238266
 31
0.0
 11
1.543201529769705
 21
42.09312450438294
 31
0.0
 11
0.9330801298455282
 21
42.39818512277496
 31
0.0
 11
0.4381744748356233
 21
42.75158448569869
 31
0.0
 11
0.0735216503942197
 21
43.14258460201812
 31
0.0
 11
-0.1497981400870563
 21
43.55930522707757
 31
0.0
 11
-0.2249998767155219
 21
43.98908445674915
 31
0.0
  0
SPLINE
  5
144
330
84
100
AcDbEntity
  8
0
  6
Continuous
 62
     7
100
AcDbSpline
210
0.0
220
0.0
230
1.0
 70
  1064
 71
     3
 72
    11
 73
     7
 74
     5
 42
0.000000001
 43
0.0000000001
 44
0.00000001
 40
0.0
 40
0.0
 40
0.0
 40
0.0
 40
0.7320270224257396
 40
1.357970769568776
 40
1.874735532407148
 40
2.31634263903625
 40
2.31634263903625
 40
2.31634263903625
 40
2.31634263903625
 10
3.075000123284468
 20
42.56014254050482
 30
0.0
 10
2.842412195642672
 20
42.63782877924803
 30
0.0
 10
2.410942326116277
 20
42.7819431979792
 30
0.0
 10
1.883275122667361
 20
43.11942280700337
 30
0.0
 10
1.504677847468568
 20
43.52017609891222
 30
0.0
 10
1.450133531393354
 20
43.84117276056256
 30
0.0
 10
1.425000123284463
 20
43.98908445674914
 30
0.0
 11
3.075000123284468
 21
42.56014254050482
 31
0.0
 11
2.391548367480731
 21
42.82235857884727
 31
0.0
 11
1.867116290795828
 21
43.16408445674914
 31
0.0
 11
1.537445746351152
 21
43.56203314618435
 31
0.0
 11
1.425000123284463
 21
43.98908445674914
 31
0.0
  0
SPLINE
  5
145
330
84
100
AcDbEntity
  8
0
  6
Continuous
 62
     7
100
AcDbSpline
210
0.0
220
0.0
230
1.0
 70
  1064
 71
     3
 72
    15
 73
    11
 74
     9
 42
0.000000001
 43
0.0000000001
 44
0.00000001
 40
0.0
 40
0.0
 40
0.0
 40
0.0
 40
0.596124304721221
 40
1.275730145400853
 40
2.014455176000694
 40
2.780404647069671
 40
3.538607094999118
 40
4.254946074369871
 40
4.900225913296941
 40
5.455164231678196
 40
5.455164231678196
 40
5.455164231678196
 40
5.455164231678196
 10
9.675000123284462
 20
41.12401215924298
 30
0.0
 10
9.847543454402423
 20
41.02424816574298
 30
0.0
 10
10.21679317658607
 20
40.81074919822501
 30
0.0
 10
10.86638379162242
 20
40.62069606311305
 30
0.0
 10
11.58572522992369
 20
40.50233123039335
 30
0.0
 10
12.34175678961827
 20
40.47758435922491
 30
0.0
 10
13.08816510307972
 20
40.54232464195942
 30
0.0
 10
13.77804433227467
 20
40.69853763636415
 30
0.0
 10
14.38371998014951
 20
40.92135842444451
 30
0.0
 10
14.70919210849878
 20
41.15670936148383
 30
0.0
 10
14.85967887501622
 20
41.26552729823416
 30
0.0
 11
9.675000123284462
 21
41.12401215924298
 31
0.0
 11
10.20182886494808
 21
40.84505757171875
 31
0.0
 11
10.84955442172117
 21
40.63934978519312
 31
0.0
 11
11.57849144177556
 21
40.51949363032371
 31
0.0
 11
12.34397673379311
 21
40.49283168013761
 31
0.0
 11
13.0991086497474
 21
40.56099868123292
 31
0.0
 11
13.79762014961116
 21
40.71981685966676
 31
0.0
 11
14.39671200027155
 21
40.95955636679815
 31
0.0
 11
14.85967887501622
 21
41.26552729823416
 31
0.0
  0
SPLINE
  5
146
330
84
100
AcDbEntity
  8
0
  6
Continuous
 62
     7
100
AcDbSpline
210
0.0
220
0.0
230
1.0
 70
  1064
 71
     3
 72
    17
 73
    13
 74
    11
 42
0.000000001
 43
0.0000000001
 44
0.00000001
 40
0.0
 40
0.0
 40
0.0
 40
0.0
 40
0.5258276274498854
 40
1.11269537426773
 40
1.797172409454252
 40
2.589208577888483
 40
3.479934625624608
 40
4.448441943695975
 40
5.466360678200668
 40
6.501192428306633
 40
7.519111056400995
 40
8.487618588520379
 40
8.487618588520379
 40
8.487618588520379
 40
8.487618588520379
 10
9.675000123284477
 20
43.98908445674914
 30
0.0
 10
9.651941049814065
 20
43.81298505399513
 30
0.0
 10
9.603146104980485
 20
43.44034394774967
 30
0.0
 10
9.242327668021588
 20
42.93767659743057
 30
0.0
 10
8.714768776663531
 20
42.49333493563744
 30
0.0
 10
8.015256848899702
 20
42.11649263198986
 30
0.0
 10
7.180447110359534
 20
41.81958998894804
 30
0.0
 10
6.241218015471523
 20
41.61451514881294
 30
0.0
 10
5.237583040144296
 20
41.50910527304337
 30
0.0
 10
4.212756181336158
 20
41.51115290431825
 30
0.0
 10
3.207158137078449
 20
41.60860183986212
 30
0.0
 10
2.563717736315331
 20
41.76796972479176
 30
0.0
 10
2.250000123284472
 20
41.84567158238266
 30
0.0
 11
9.675000123284477
 21
43.98908445674914
 31
0.0
 11
9.566830408639984
 21
43.47450305792668
 31
0.0
 11
9.24705013861535
 21
42.98241126513653
 31
0.0
 11
8.72963396565477
 21
42.53431605896338
 31
0.0
 11
8.037196624760828
 21
42.1498010136926
 31
0.0
 11
7.199999950367405
 21
41.84567173213324
 31
0.0
 11
6.254634245440464
 21
41.63521957891865
 31
0.0
 11
5.242415980309846
 21
41.52764293768248
 31
0.0
 11
4.207584230109585
 21
41.52764276571266
 31
0.0
 11
3.195366107997109
 21
41.63521974337254
 31
0.0
 11
2.250000123284472
 21
41.84567158238266
 31
0.0
  0
SPLINE
  5
147
330
84
100
AcDbEntity
  8
0
  6
Continuous
 62
     7
100
AcDbSpline
210
0.0
220
0.0
230
1.0
 70
  1064
 71
     3
 72
    15
 73
    11
 74
     9
 42
0.000000001
 43
0.0000000001
 44
0.00000001
 40
0.0
 40
0.0
 40
0.0
 40
0.0
 40
0.4416071022475843
 40
0.9583718690198417
 40
1.584315620669383
 40
2.316342637915688
 40
3.129130005496841
 40
3.985081109127586
 40
4.841032213034851
 40
5.653819589872624
 40
5.653819589872624
 40
5.653819589872624
 40
5.653819589872624
 10
8.025000123284478
 20
43.98908445674914
 30
0.0
 10
7.999854807076571
 20
43.84122066057715
 30
0.0
 10
7.945284649510694
 20
43.52032794925328
 30
0.0
 10
7.566922812549292
 20
43.11862769897924
 30
0.0
 10
7.038078568796421
 20
42.78588244283972
 30
0.0
 10
6.353865104741846
 20
42.53337084315964
 30
0.0
 10
5.567253463680306
 20
42.37437306583988
 30
0.0
 10
4.725412661473853
 20
42.32244275354736
 30
0.0
 10
3.881138291686393
 20
42.36868424316824
 30
0.0
 10
3.339038849456696
 20
42.49743318306261
 30
0.0
 10
3.075000123284468
 20
42.56014254050482
 30
0.0
 11
8.025000123284478
 21
43.98908445674914
 31
0.0
 11
7.912554500217786
 21
43.56203314618435
 31
0.0
 11
7.582883955773109
 21
43.16408445674914
 31
0.0
 11
7.058451879088206
 21
42.82235857884727
 31
0.0
 11
6.375000123284465
 21
42.56014254050481
 31
0.0
 11
5.579102744414036
 21
42.39530726828248
 31
0.0
 11
4.725000123284463
 21
42.33908445674915
 31
0.0
 11
3.870897502154891
 21
42.39530726828249
 31
0.0
 11
3.075000123284468
 21
42.56014254050482
 31
0.0
  0
SPLINE
  5
148
330
84
100
AcDbEntity
  8
0
  6
Continuous
 62
     7
100
AcDbSpline
210
0.0
220
0.0
230
1.0
 70
  1064
 71
     3
 72
    19
 73
    15
 74
    13
 42
0.000000001
 43
0.0000000001
 44
0.00000001
 40
0.0
 40
0.0
 40
0.0
 40
0.0
 40
0.4416071061279866
 40
0.9583718722838472
 40
1.584315625243357
 40
2.316342644452754
 40
3.129130014916177
 40
3.985081122305854
 40
4.841032229695531
 40
5.653819600158955
 40
6.385846619368349
 40
7.011790372327863
 40
7.528555138483725
 40
7.970162244611703
 40
7.970162244611703
 40
7.970162244611703
 40
7.970162244611703
 10
1.425000123284463
 20
43.98908445674914
 30
0.0
 10
1.450145375029474
 20
44.13694799118728
 30
0.0
 10
1.504715398297537
 20
44.45784013056483
 30
0.0
 10
1.883078505892299
 20
44.85954558845199
 30
0.0
 10
2.411916361051913
 20
45.19226484300517
 30
0.0
 10
3.09615972456647
 20
45.44489802716407
 30
0.0
 10
3.882642020049355
 20
45.60336981666894
 30
0.0
 10
4.725000123284477
 20
45.65740369093672
 30
0.0
 10
5.5673582265196
 20
45.60336981666894
 30
0.0
 10
6.35384052200248
 20
45.44489802716405
 30
0.0
 10
7.038083885517046
 20
45.19226484300516
 30
0.0
 10
7.566921740676656
 20
44.859545588452
 30
0.0
 10
7.945284848271409
 20
44.45784013056482
 30
0.0
 10
7.999854871539468
 20
44.13694799118727
 30
0.0
 10
8.025000123284478
 20
43.98908445674914
 30
0.0
 11
1.425000123284463
 21
43.98908445674914
 31
0.0
 11
1.537445746351152
 21
44.41613576731393
 31
0.0
 11
1.867116290795828
 21
44.81408445674914
 31
0.0
 11
2.391548367480732
 21
45.15581033465101
 31
0.0
 11
3.075000123284472
 21
45.41802637299347
 31
0.0
 11
3.870897502154903
 21
45.58286164521581
 31
0.0
 11
4.725000123284477
 21
45.63908445674915
 31
0.0
 11
5.579102744414051
 21
45.58286164521581
 31
0.0
 11
6.375000123284483
 21
45.41802637299347
 31
0.0
 11
7.058451879088222
 21
45.15581033465102
 31
0.0
 11
7.582883955773127
 21
44.81408445674914
 31
0.0
 11
7.912554500217795
 21
44.41613576731392
 31
0.0
 11
8.025000123284478
 21
43.98908445674914
 31
0.0
  0
SPLINE
  5
149
330
84
100
AcDbEntity
  8
0
  6
Continuous
 62
     7
100
AcDbSpline
210
0.0
220
0.0
230
1.0
 70
  1064
 71
     3
 72
    21
 73
    17
 74
    15
 42
0.000000001
 43
0.0000000001
 44
0.00000001
 40
0.0
 40
0.0
 40
0.0
 40
0.0
 40
0.5645496893436366
 40
1.203051457795011
 40
1.956709805273449
 40
2.833014849042383
 40
3.81679419381002
 40
4.878932072319788
 40
5.982157234640272
 40
7.085382396960757
 40
8.147520275470523
 40
9.131299620238163
 40
10.00760466400711
 40
10.76126301148554
 40
11.39976477993691
 40
11.96431446928056
 40
11.96431446928056
 40
11.96431446928056
 40
11.96431446928056
 10
-0.2249998767155219
 20
43.98908445674915
 30
0.0
 10
-0.1981859842318107
 20
44.17817826727488
 30
0.0
 10
-0.1410457485473183
 20
44.58113585476029
 30
0.0
 10
0.2744026112065387
 20
45.11434879934248
 30
0.0
 10
0.8741873239365294
 20
45.57742415294771
 30
0.0
 10
1.664085359934631
 20
45.95972755425453
 30
0.0
 10
2.597607066988899
 20
46.24635991078494
 30
0.0
 10
3.634914005434092
 20
46.42416015608229
 30
0.0
 10
4.725000123284469
 20
46.48442500465787
 30
0.0
 10
5.81508624113485
 20
46.42416015608227
 30
0.0
 10
6.852393179580043
 20
46.24635991078497
 30
0.0
 10
7.785914886634313
 20
45.95972755425451
 30
0.0
 10
8.575812922632412
 20
45.57742415294771
 30
0.0
 10
9.175597635362411
 20
45.11434879934249
 30
0.0
 10
9.59104599511626
 20
44.58113585476028
 30
0.0
 10
9.64818623080076
 20
44.17817826727487
 30
0.0
 10
9.675000123284477
 20
43.98908445674914
 30
0.0
 11
-0.2249998767155219
 21
43.98908445674915
 31
0.0
 11
-0.1008925319122871
 21
44.53982371007715
 31
0.0
 11
0.2652042271674979
 21
45.06294671106511
 31
0.0
 11
0.8549346941387849
 21
45.53222155323787
 31
0.0
 11
1.638725604083735
 21
45.92411737585752
 31
0.0
 11
2.577275841669866
 21
46.21898216910448
 31
0.0
 11
3.623521500200713
 21
46.40203103939916
 31
0.0
 11
4.72500012328447
 21
46.46408419513838
 31
0.0
 11
5.826478746368227
 21
46.40203103939916
 31
0.0
 11
6.872724404899074
 21
46.21898216910449
 31
0.0
 11
7.811274642485206
 21
45.92411737585752
 31
0.0
 11
8.595065552430164
 21
45.53222155323786
 31
0.0
 11
9.18479601940145
 21
45.06294671106511
 31
0.0
 11
9.550892778481229
 21
44.53982371007716
 31
0.0
 11
9.675000123284477
 21
43.98908445674914
 31
0.0
  0
SPLINE
  5
14A
330
84
100
AcDbEntity
  8
0
  6
Continuous
 62
     7
100
AcDbSpline
210
0.0
220
0.0
230
1.0
 70
  1064
 71
     3
 72
    13
 73
     9
 74
     7
 42
0.000000001
 43
0.0000000001
 44
0.00000001
 40
0.0
 40
0.0
 40
0.0
 40
0.0
 40
0.436308931140126
 40
0.9090962004737274
 40
1.443748208839095
 40
2.051878717797706
 40
2.734015144040494
 40
3.48287909175863
 40
3.48287909175863
 40
3.48287909175863
 40
3.48287909175863
 10
-0.2249998767155361
 20
37.49389392836586
 30
0.0
 10
-0.2094355846356473
 20
37.34788306440099
 30
0.0
 10
-0.1770057077287522
 20
37.0436538566363
 30
0.0
 10
0.071055596679857
 20
36.61740743951577
 30
0.0
 10
0.4439920660552706
 20
36.22578493600962
 30
0.0
 10
0.946558123545817
 20
35.87678106823653
 30
0.0
 10
1.557222929162318
 20
35.57261153835709
 30
0.0
 10
2.012005555617085
 20
35.4267910808873
 30
0.0
 10
2.250000123284465
 20
35.35048105399937
 30
0.0
 11
-0.2249998767155361
 21
37.49389392836586
 31
0.0
 11
-0.1497981400870669
 21
37.06411469869427
 31
0.0
 11
0.0735216503942126
 21
36.64739407363483
 31
0.0
 11
0.4381744748356162
 21
36.25639395731539
 31
0.0
 11
0.9330801298455212
 21
35.90299459439167
 31
0.0
 11
1.543201529769701
 21
35.59793397599964
 31
0.0
 11
2.250000123284465
 21
35.35048105399937
 31
0.0
  0
SPLINE
  5
14B
330
84
100
AcDbEntity
  8
0
  6
Continuous
 62
     7
100
AcDbSpline
210
0.0
220
0.0
230
1.0
 70
  1064
 71
     3
 72
     9
 73
     5
 74
     3
 42
0.000000001
 43
0.0000000001
 44
0.00000001
 40
0.0
 40
0.0
 40
0.0
 40
0.0
 40
0.4854456906795945
 40
0.9002887316768573
 40
0.9002887316768573
 40
0.9002887316768573
 40
0.9002887316768573
 10
15.15967887501622
 20
41.52533491936949
 30
0.0
 10
15.27963199011355
 20
41.6413523950726
 30
0.0
 10
15.50209236424089
 20
41.85651391175102
 30
0.0
 10
15.55200222333772
 20
42.16033673589681
 30
0.0
 10
15.57500012328446
 20
42.30033491936948
 30
0.0
 11
15.15967887501622
 21
41.52533491936949
 31
0.0
 11
15.46936938646424
 21
41.89916550641468
 31
0.0
 11
15.57500012328446
 21
42.30033491936948
 31
0.0
  0
SPLINE
  5
14C
330
84
100
AcDbEntity
  8
0
  6
Continuous
 62
     7
100
AcDbSpline
210
0.0
220
0.0
230
1.0
 70
  1064
 71
     3
 72
    15
 73
    11
 74
     9
 42
0.000000001
 43
0.0000000001
 44
0.00000001
 40
0.0
 40
0.0
 40
0.0
 40
0.0
 40
0.593631850146098
 40
1.277095657881535
 40
2.026027799490708
 40
2.807140696353478
 40
3.583318740744031
 40
4.318014361013198
 40
4.979737321474708
 40
5.547527862147231
 40
5.547527862147231
 40
5.547527862147231
 40
5.547527862147231
 10
15.05060617424208
 20
41.43087518963971
 30
0.0
 10
14.88241612249121
 20
41.53641134908795
 30
0.0
 10
14.52058447506118
 20
41.76345401904426
 30
0.0
 10
13.87052471377359
 20
41.96778063329324
 30
0.0
 10
13.14355784621614
 20
42.09908587775082
 30
0.0
 10
12.37323614443211
 20
42.13325230722759
 30
0.0
 10
11.60902026711935
 20
42.074192510819
 30
0.0
 10
10.90078004970558
 20
41.91938951563058
 30
0.0
 10
10.27844947245619
 20
41.69481843846125
 30
0.0
 10
9.944527062814798
 20
41.45433815246594
 30
0.0
 10
9.790321371552707
 20
41.34328411180061
 30
0.0
 11
15.05060617424208
 21
41.43087518963971
 31
0.0
 11
14.53567994560301
 21
41.7262558783928
 31
0.0
 11
13.88906232226618
 21
41.94763432996594
 31
0.0
 11
13.15207534648176
 21
42.08086178923917
 31
0.0
 11
12.37181867906818
 21
42.11742529238822
 31
0.0
 11
11.59815609238539
 21
42.05498686659778
 31
0.0
 11
10.88052977689371
 21
41.89753806745398
 31
0.0
 11
10.26480226953366
 21
41.65513980901675
 31
0.0
 11
9.790321371552707
 21
41.34328411180061
 31
0.0
  0
SPLINE
  5
14D
330
84
100
AcDbEntity
  8
0
  6
Continuous
 62
     7
100
AcDbSpline
210
0.0
220
0.0
230
1.0
 70
  1064
 71
     3
 72
    17
 73
    13
 74
    11
 42
0.000000001
 43
0.0000000001
 44
0.00000001
 40
0.0
 40
0.0
 40
0.0
 40
0.0
 40
0.4148430342068205
 40
0.9002887269431872
 40
1.488296493983965
 40
2.175958237832512
 40
2.939485765404705
 40
3.743561045095429
 40
4.54763632456312
 40
5.311163851226235
 40
5.998825595681968
 40
6.586833368396388
 40
6.586833368396388
 40
6.586833368396388
 40
6.586833368396388
 10
15.57500012328446
 20
42.30033491936948
 30
0.0
 10
15.55137880840376
 20
42.43923705760535
 30
0.0
 10
15.5001160263549
 20
42.74068125885732
 30
0.0
 10
15.14468436709892
 20
43.11804029899872
 30
0.0
 10
14.64789550799484
 20
43.43059789183832
 30
0.0
 10
14.00512978992261
 20
43.66790529106345
 30
0.0
 10
13.26627696596667
 20
43.81683624448969
 30
0.0
 10
12.47511534312362
 20
43.86734132497527
 30
0.0
 10
11.68327407275547
 20
43.81752319426518
 30
0.0
 10
10.94629492906019
 20
43.66542491519697
 30
0.0
 10
10.29767269664517
 20
43.43838523373358
 30
0.0
 10
9.950395500485573
 20
43.18988072312651
 30
0.0
 10
9.790321371552707
 20
43.07533491936949
 30
0.0
 11
15.57500012328446
 21
42.30033491936948
 31
0.0
 11
15.46936938646425
 21
42.70150433232428
 31
0.0
 11
15.15967887501624
 21
43.07533491936948
 31
0.0
 11
14.66703056055465
 21
43.39635013800457
 31
0.0
 11
14.02500012328447
 21
43.64267429523536
 31
0.0
 11
13.27733894919407
 21
43.79751955095937
 31
0.0
 11
12.47500012328447
 21
43.85033491936949
 31
0.0
 11
11.67266129737487
 21
43.79751955095938
 31
0.0
 11
10.92500012328447
 21
43.64267429523537
 31
0.0
 11
10.28296968601428
 21
43.39635013800459
 31
0.0
 11
9.790321371552707
 21
43.07533491936949
 31
0.0
  0
SPLINE
  5
14E
330
84
100
AcDbEntity
  8
0
  6
Continuous
 62
     7
100
AcDbSpline
210
0.0
220
0.0
230
1.0
 70
  1064
 71
     3
 72
    17
 73
    13
 74
    11
 42
0.000000001
 43
0.0000000001
 44
0.00000001
 40
0.0
 40
0.0
 40
0.0
 40
0.0
 40
0.9685075321193858
 40
1.986426160213748
 40
3.021257910319711
 40
4.039176644824397
 40
5.007683962895765
 40
5.898410010631888
 40
6.690446179066122
 40
7.374923214252647
 40
7.961790961070484
 40
8.487618588520379
 40
8.487618588520379
 40
8.487618588520379
 40
8.487618588520379
 10
2.250000123284465
 20
35.35048105399937
 30
0.0
 10
2.563717736315325
 20
35.27277919640849
 30
0.0
 10
3.207158137078445
 20
35.11341131147884
 30
0.0
 10
4.212756181336154
 20
35.01596237593496
 30
0.0
 10
5.237583040144287
 20
35.01391474466008
 30
0.0
 10
6.241218015471514
 20
35.11932462042962
 30
0.0
 10
7.180447110359521
 20
35.32439946056474
 30
0.0
 10
8.015256848899686
 20
35.62130210360657
 30
0.0
 10
8.714768776663517
 20
35.99814440725415
 30
0.0
 10
9.242327668021577
 20
36.44248606904728
 30
0.0
 10
9.603146104980471
 20
36.94515341936638
 30
0.0
 10
9.651941049814058
 20
37.31779452561183
 30
0.0
 10
9.675000123284477
 20
37.49389392836585
 30
0.0
 11
2.250000123284465
 21
35.35048105399937
 31
0.0
 11
3.195366107997105
 21
35.14002921498926
 31
0.0
 11
4.207584230109582
 21
35.03245223732937
 31
0.0
 11
5.24241598030984
 21
35.03245240929919
 31
0.0
 11
6.254634245440453
 21
35.14002905053535
 31
0.0
 11
7.199999950367394
 21
35.35048120374994
 31
0.0
 11
8.03719662476081
 21
35.65461048530931
 31
0.0
 11
8.729633965654756
 21
36.03912553058009
 31
0.0
 11
9.24705013861534
 21
36.48722073675324
 31
0.0
 11
9.566830408639971
 21
36.97931252954338
 31
0.0
 11
9.675000123284477
 21
37.49389392836585
 31
0.0
  0
SPLINE
  5
14F
330
84
100
AcDbEntity
  8
0
  6
Continuous
 62
     7
100
AcDbSpline
210
0.0
220
0.0
230
1.0
 70
  1064
 71
     3
 72
     9
 73
     5
 74
     3
 42
0.000000001
 43
0.0000000001
 44
0.00000001
 40
0.0
 40
0.0
 40
0.0
 40
0.0
 40
0.20710833999751
 40
0.4045726629128372
 40
0.4045726629128372
 40
0.4045726629128372
 40
0.4045726629128372
 10
1.827222644417269
 20
21.08419539069997
 30
0.0
 10
1.797468494009372
 20
21.14724014934042
 30
0.0
 10
1.739345716456267
 20
21.27039398828281
 30
0.0
 10
1.729705380734094
 20
21.40615940497684
 30
0.0
 10
1.725000123284474
 20
21.47242395835375
 30
0.0
 11
1.827222644417269
 21
21.08419539069997
 31
0.0
 11
1.750665551544621
 21
21.2766346708387
 31
0.0
 11
1.725000123284474
 21
21.47242395835375
 31
0.0
  0
SPLINE
  5
150
330
84
100
AcDbEntity
  8
0
  6
Continuous
 62
     7
100
AcDbSpline
210
0.0
220
0.0
230
1.0
 70
  1064
 71
     3
 72
    19
 73
    15
 74
    13
 42
0.000000001
 43
0.0000000001
 44
0.00000001
 40
0.0
 40
0.0
 40
0.0
 40
0.0
 40
0.3667483308780622
 40
0.7874202384121052
 40
1.289706537253869
 40
1.875761764842009
 40
2.53140796253035
 40
3.232832543011212
 40
3.951022375674694
 40
4.655219604153862
 40
5.316116713973195
 40
5.90926830855797
 40
6.419387758144818
 40
6.84678340228137
 40
6.84678340228137
 40
6.84678340228137
 40
6.84678340228137
 10
7.725000123284474
 20
21.47242395835374
 30
0.0
 10
7.706158351311303
 20
21.34958444847149
 30
0.0
 10
7.665704459503525
 20
21.0858441501846
 30
0.0
 10
7.377098813388457
 20
20.74439254754923
 30
0.0
 10
6.965991756115685
 20
20.4534960906098
 30
0.0
 10
6.428471062358763
 20
20.22083015416101
 30
0.0
 10
5.800135320148858
 20
20.05700656171329
 30
0.0
 10
5.111879189981625
 20
19.9707901839388
 30
0.0
 10
4.402247095011411
 20
19.96694021129915
 30
0.0
 10
3.710912350647563
 20
20.04603394164784
 30
0.0
 10
3.073989656530922
 20
20.20235692739593
 30
0.0
 10
2.532275208782567
 20
20.43159712508675
 30
0.0
 10
2.092928274081866
 20
20.71042395218995
 30
0.0
 10
1.910423266786856
 20
20.96715602268161
 30
0.0
 10
1.827222644417269
 20
21.08419539069997
 30
0.0
 11
7.725000123284474
 21
21.47242395835374
 31
0.0
 11
7.639025871867211
 21
21.11589517624999
 31
0.0
 11
7.38603262281913
 21
20.77980103850119
 31
0.0
 11
6.98051918900806
 21
20.48340539211824
 31
0.0
 11
6.445729432337597
 21
20.24369589192026
 31
0.0
 11
5.812314066175425
 21
20.07441237552694
 31
0.0
 11
5.116578699944622
 21
19.98525666629304
 31
0.0
 11
4.39839955038089
 21
19.98133968683723
 31
0.0
 11
3.698939693307466
 21
20.06288502717489
 31
0.0
 11
3.058289687818136
 21
20.22521973714694
 31
0.0
 11
2.513168112854107
 21
20.45903864693027
 31
0.0
 11
2.094820272128393
 21
20.75094091907817
 31
0.0
 11
1.827222644417269
 21
21.08419539069997
 31
0.0
  0
ENDBLK
  5
86
330
84
100
AcDbEntity
  8
0
100
AcDbBlockEnd
  0
BLOCK
  5
89
330
87
100
AcDbEntity
  8
0
100
AcDbBlockBegin
  2
Gen1
 70
     0
 10
8.49999999999095
 20
36.00000000002706
 30
0.0
  3
Gen1
  1

  0
INSERT
  5
88
330
87
100
AcDbEntity
  8
0
100
AcDbBlockReference
  2
KBI_15-select__3
 10
-2.73813959752994
 20
19.95378159787659
 30
0.0
  0
MTEXT
  5
151
330
87
100
AcDbEntity
  8
1
 62
     6
100
AcDbMText
 10
8.49999999999096
 20
15.25915575686895
 30
0.0
 40
2.5
 41
0.0
 71
     2
 72
     1
  1
 
  7
CONVERTER_11
 73
     1
 44
1.32052821128451
  0
ENDBLK
  5
8A
330
87
100
AcDbEntity
  8
0
100
AcDbBlockEnd
  0
BLOCK
  5
8C
330
8B
100
AcDbEntity
  8
0
100
AcDbBlockBegin
  2
KBI_15-select__4
 70
     0
 10
-33.00000139099486
 20
61.50000000006995
 30
0.0
  3
KBI_15-select__4
  1

  0
LINE
  5
152
330
8B
100
AcDbEntity
  8
0
  6
Continuous
 62
     7
100
AcDbLine
 10
-17.45000139099487
 20
80.00000000006995
 30
0.0
 11
-17.45000139099487
 21
87.50000000006995
 31
0.0
  0
LINE
  5
153
330
8B
100
AcDbEntity
  8
0
  6
Continuous
 62
     7
100
AcDbLine
 10
-7.55000139099486
 20
87.50000000006995
 30
0.0
 11
-17.45000139099487
 21
87.50000000006995
 31
0.0
  0
LINE
  5
154
330
8B
100
AcDbEntity
  8
0
  6
Continuous
 62
     7
100
AcDbLine
 10
-7.55000139099486
 20
80.00000000006995
 30
0.0
 11
-7.55000139099486
 21
87.50000000006995
 31
0.0
  0
LINE
  5
155
330
8B
100
AcDbEntity
  8
0
  6
Continuous
 62
     7
100
AcDbLine
 10
-7.55000139099486
 20
80.00000000006995
 30
0.0
 11
-7.10000139099488
 21
80.00000000006995
 31
0.0
  0
LINE
  5
156
330
8B
100
AcDbEntity
  8
0
  6
Continuous
 62
     7
100
AcDbLine
 10
-7.10000139099488
 20
80.00000000006995
 30
0.0
 11
-7.10000139099488
 21
78.00000000006995
 31
0.0
  0
LINE
  5
157
330
8B
100
AcDbEntity
  8
0
  6
Continuous
 62
     7
100
AcDbLine
 10
-9.50000139099488
 20
78.00000000006995
 30
0.0
 11
-7.10000139099488
 21
78.00000000006995
 31
0.0
  0
LINE
  5
158
330
8B
100
AcDbEntity
  8
0
  6
Continuous
 62
     7
100
AcDbLine
 10
-17.90000139099488
 20
78.00000000006995
 30
0.0
 11
-15.50000139099488
 21
78.00000000006995
 31
0.0
  0
LINE
  5
159
330
8B
100
AcDbEntity
  8
0
  6
Continuous
 62
     7
100
AcDbLine
 10
-15.50000139099488
 20
78.00000000006995
 30
0.0
 11
-9.50000139099488
 21
78.00000000006995
 31
0.0
  0
LINE
  5
15A
330
8B
100
AcDbEntity
  8
0
  6
Continuous
 62
     7
100
AcDbLine
 10
-17.90000139099487
 20
80.00000000006995
 30
0.0
 11
-17.45000139099487
 21
80.00000000006995
 31
0.0
  0
LINE
  5
15B
330
8B
100
AcDbEntity
  8
0
  6
Continuous
 62
     7
100
AcDbLine
 10
-17.45000139099487
 20
80.00000000006995
 30
0.0
 11
-7.55000139099486
 21
80.00000000006995
 31
0.0
  0
LINE
  5
15C
330
8B
100
AcDbEntity
  8
0
  6
Continuous
 62
     7
100
AcDbLine
 10
-9.50000139099488
 20
61.50000000006995
 30
0.0
 11
-10.37868104743524
 21
61.50000000006995
 31
0.0
  0
LINE
  5
15D
330
8B
100
AcDbEntity
  8
0
  6
Continuous
 62
     7
100
AcDbLine
 10
-15.50000139099488
 20
78.00000000006995
 30
0.0
 11
-15.50000139099488
 21
61.50000000006995
 31
0.0
  0
LINE
  5
15E
330
8B
100
AcDbEntity
  8
0
  6
Continuous
 62
     7
100
AcDbLine
 10
-10.37868104743524
 20
61.50000000006995
 30
0.0
 11
-15.50000139099488
 21
61.50000000006995
 31
0.0
  0
LINE
  5
15F
330
8B
100
AcDbEntity
  8
0
  6
Continuous
 62
     7
100
AcDbLine
 10
-9.50000139099488
 20
78.00000000006995
 30
0.0
 11
-9.50000139099488
 21
61.50000000006995
 31
0.0
  0
LINE
  5
160
330
8B
100
AcDbEntity
  8
0
  6
Continuous
 62
     7
100
AcDbLine
 10
-17.90000139099487
 20
80.00000000006995
 30
0.0
 11
-17.90000139099488
 21
78.00000000006995
 31
0.0
  0
LINE
  5
161
330
8B
100
AcDbEntity
  8
0
  6
Continuous
 62
     7
100
AcDbLine
 10
-17.90000139099487
 20
80.00000000006995
 30
0.0
 11
-22.00000139099486
 21
77.80000000006993
 31
0.0
  0
LINE
  5
162
330
8B
100
AcDbEntity
  8
0
  6
Continuous
 62
     7
100
AcDbLine
 10
-22.00000139099486
 20
68.80000000006993
 30
0.0
 11
-33.00000139099486
 21
68.80000000006993
 31
0.0
  0
LINE
  5
163
330
8B
100
AcDbEntity
  8
0
  6
Continuous
 62
     7
100
AcDbLine
 10
-22.00000139099486
 20
77.80000000006993
 30
0.0
 11
-33.00000139099486
 21
77.80000000006993
 31
0.0
  0
LINE
  5
164
330
8B
100
AcDbEntity
  8
0
  6
Continuous
 62
     7
100
AcDbLine
 10
-22.00000139099486
 20
75.80000000006993
 30
0.0
 11
-22.00000139099486
 21
77.80000000006993
 31
0.0
  0
LINE
  5
165
330
8B
100
AcDbEntity
  8
0
  6
Continuous
 62
     7
100
AcDbLine
 10
-22.00000139099486
 20
68.80000000006993
 30
0.0
 11
-22.00000139099486
 21
75.80000000006993
 31
0.0
  0
LINE
  5
166
330
8B
100
AcDbEntity
  8
0
  6
Continuous
 62
     7
100
AcDbLine
 10
-33.00000139099486
 20
68.80000000006993
 30
0.0
 11
-33.00000139099486
 21
77.80000000006993
 31
0.0
  0
LINE
  5
167
330
8B
100
AcDbEntity
  8
0
  6
Continuous
 62
     7
100
AcDbLine
 10
-17.90000139099488
 20
78.00000000006995
 30
0.0
 11
-22.00000139099486
 21
75.80000000006993
 31
0.0
  0
LINE
  5
168
330
8B
100
AcDbEntity
  8
1
  6
Continuous
 62
     2
100
AcDbLine
 10
-14.88500139099489
 20
78.00000000006995
 30
0.0
 11
-14.88500139099489
 21
61.50000000006995
 31
0.0
  0
LINE
  5
169
330
8B
100
AcDbEntity
  8
1
  6
Continuous
 62
     7
100
AcDbLine
 10
-15.50000139099488
 20
61.50000000006995
 30
0.0
 11
-14.88500139099489
 21
61.50000000006995
 31
0.0
  0
LINE
  5
16A
330
8B
100
AcDbEntity
  8
1
  6
Continuous
 62
     2
100
AcDbLine
 10
-10.11500139099488
 20
78.00000000006995
 30
0.0
 11
-10.11500139099488
 21
61.50000000006995
 31
0.0
  0
LINE
  5
16B
330
8B
100
AcDbEntity
  8
1
  6
Continuous
 62
     7
100
AcDbLine
 10
-9.50000139099488
 20
61.50000000006995
 30
0.0
 11
-10.11500139099488
 21
61.50000000006995
 31
0.0
  0
LINE
  5
16C
330
8B
100
AcDbEntity
  8
1
  6
DOT_CENTER
 62
     2
100
AcDbLine
 10
-12.50000139099487
 20
80.00000000006995
 30
0.0
 11
-12.50000139099487
 21
87.50000000006995
 31
0.0
  0
LINE
  5
16D
330
8B
100
AcDbEntity
  8
1
  6
DOT_CENTER
 62
     2
100
AcDbLine
 10
-12.50000139099488
 20
78.00000000006995
 30
0.0
 11
-12.50000139099488
 21
61.50000000006995
 31
0.0
  0
ENDBLK
  5
8D
330
8B
100
AcDbEntity
  8
0
100
AcDbBlockEnd
  0
BLOCK
  5
90
330
8E
100
AcDbEntity
  8
0
100
AcDbBlockBegin
  2
Left1
 70
     0
 10
-20.05000114439915
 20
74.50000000003496
 30
0.0
  3
Left1
  1

  0
INSERT
  5
8F
330
8E
100
AcDbEntity
  8
0
100
AcDbBlockReference
  2
KBI_15-select__4
 10
-33.00000139099486
 20
61.50000000006995
 30
0.0
  0
MTEXT
  5
16E
330
8E
100
AcDbEntity
  8
1
 62
     6
100
AcDbMText
 10
-20.05000114439912
 20
59.00000000003502
 30
0.0
 40
2.5
 41
0.0
 71
     2
 72
     1
  1
 
  7
CONVERTER_11
 73
     1
 44
1.32052821128451
  0
DIMENSION
  5
179
330
8E
100
AcDbEntity
  8
1
100
AcDbDimension
  2
*D21
 10
-39.12556698002478
 20
77.80000000006993
 30
0.0
 11
-41.08806698002478
 21
70.26609975772291
 31
0.0
 70
    32
  1
<>
 71
     5
 42
-1.0
 53
90.0
  3
ME10_DIM_12
100
AcDbAlignedDimension
 13
-15.50000139099488
 23
61.50000000006995
 33
0.0
 14
-33.00000139099486
 24
77.80000000006993
 34
0.0
 50
90.0
100
AcDbRotatedDimension
  0
ENDBLK
  5
91
330
8E
100
AcDbEntity
  8
0
100
AcDbBlockEnd
  0
BLOCK
  5
93
330
92
100
AcDbEntity
  8
0
100
AcDbBlockBegin
  2
KBI_15-select__5
 70
     0
 10
-107.399998609005
 20
61.50000000006995
 30
0.0
  3
KBI_15-select__5
  1

  0
LINE
  5
17A
330
92
100
AcDbEntity
  8
0
  6
Continuous
 62
     7
100
AcDbLine
 10
-107.399998609005
 20
80.00000000006995
 30
0.0
 11
-107.399998609005
 21
78.00000000006995
 31
0.0
  0
LINE
  5
17B
330
92
100
AcDbEntity
  8
0
  6
Continuous
 62
     7
100
AcDbLine
 10
-104.999998609005
 20
78.00000000006995
 30
0.0
 11
-104.999998609005
 21
61.50000000006995
 31
0.0
  0
LINE
  5
17C
330
92
100
AcDbEntity
  8
0
  6
Continuous
 62
     7
100
AcDbLine
 10
-98.99999860900498
 20
61.50000000006995
 30
0.0
 11
-104.999998609005
 21
61.50000000006995
 31
0.0
  0
LINE
  5
17D
330
92
100
AcDbEntity
  8
0
  6
Continuous
 62
     7
100
AcDbLine
 10
-92.49999860900499
 20
68.80000000006993
 30
0.0
 11
-92.49999860900499
 21
75.80000000006993
 31
0.0
  0
LINE
  5
17E
330
92
100
AcDbEntity
  8
0
  6
Continuous
 62
     7
100
AcDbLine
 10
-98.99999860900498
 20
78.00000000006995
 30
0.0
 11
-98.99999860900498
 21
61.50000000006995
 31
0.0
  0
LINE
  5
17F
330
92
100
AcDbEntity
  8
0
  6
Continuous
 62
     7
100
AcDbLine
 10
-92.49999860900502
 20
77.80000000006996
 30
0.0
 11
-92.49999860900499
 21
75.80000000006993
 31
0.0
  0
LINE
  5
180
330
92
100
AcDbEntity
  8
0
  6
Continuous
 62
     7
100
AcDbLine
 10
-92.49999860900502
 20
77.80000000006996
 30
0.0
 11
-96.59999860900498
 21
80.00000000006995
 31
0.0
  0
LINE
  5
181
330
92
100
AcDbEntity
  8
0
  6
Continuous
 62
     7
100
AcDbLine
 10
-96.59999860900498
 20
78.00000000006995
 30
0.0
 11
-96.59999860900498
 21
80.00000000006995
 31
0.0
  0
LINE
  5
182
330
92
100
AcDbEntity
  8
0
  6
Continuous
 62
     7
100
AcDbLine
 10
-81.49999860900499
 20
68.80000000006993
 30
0.0
 11
-81.49999860900499
 21
77.80000000006993
 31
0.0
  0
LINE
  5
183
330
92
100
AcDbEntity
  8
0
  6
Continuous
 62
     7
100
AcDbLine
 10
-92.49999860900502
 20
77.80000000006996
 30
0.0
 11
-81.49999860900499
 21
77.80000000006993
 31
0.0
  0
LINE
  5
184
330
92
100
AcDbEntity
  8
0
  6
Continuous
 62
     7
100
AcDbLine
 10
-107.399998609005
 20
78.00000000006995
 30
0.0
 11
-104.999998609005
 21
78.00000000006995
 31
0.0
  0
LINE
  5
185
330
92
100
AcDbEntity
  8
0
  6
Continuous
 62
     7
100
AcDbLine
 10
-98.99999860900498
 20
78.00000000006995
 30
0.0
 11
-96.59999860900498
 21
78.00000000006995
 31
0.0
  0
LINE
  5
186
330
92
100
AcDbEntity
  8
0
  6
Continuous
 62
     7
100
AcDbLine
 10
-104.999998609005
 20
78.00000000006995
 30
0.0
 11
-98.99999860900498
 21
78.00000000006995
 31
0.0
  0
LINE
  5
187
330
92
100
AcDbEntity
  8
0
  6
Continuous
 62
     7
100
AcDbLine
 10
-81.49999860900499
 20
68.80000000006993
 30
0.0
 11
-92.49999860900499
 21
68.80000000006993
 31
0.0
  0
LINE
  5
188
330
92
100
AcDbEntity
  8
0
  6
Continuous
 62
     7
100
AcDbLine
 10
-97.04999860900499
 20
80.00000000006995
 30
0.0
 11
-97.04999860900499
 21
87.50000000006995
 31
0.0
  0
LINE
  5
189
330
92
100
AcDbEntity
  8
0
  6
Continuous
 62
     7
100
AcDbLine
 10
-97.04999860900499
 20
87.50000000006995
 30
0.0
 11
-106.949998609005
 21
87.50000000006995
 31
0.0
  0
LINE
  5
18A
330
92
100
AcDbEntity
  8
0
  6
Continuous
 62
     7
100
AcDbLine
 10
-106.949998609005
 20
80.00000000006995
 30
0.0
 11
-106.949998609005
 21
87.50000000006995
 31
0.0
  0
LINE
  5
18B
330
92
100
AcDbEntity
  8
0
  6
Continuous
 62
     7
100
AcDbLine
 10
-106.949998609005
 20
80.00000000006995
 30
0.0
 11
-107.399998609005
 21
80.00000000006995
 31
0.0
  0
LINE
  5
18C
330
92
100
AcDbEntity
  8
0
  6
Continuous
 62
     7
100
AcDbLine
 10
-96.59999860900498
 20
80.00000000006995
 30
0.0
 11
-97.04999860900499
 21
80.00000000006995
 31
0.0
  0
LINE
  5
18D
330
92
100
AcDbEntity
  8
0
  6
Continuous
 62
     7
100
AcDbLine
 10
-97.04999860900499
 20
80.00000000006995
 30
0.0
 11
-106.949998609005
 21
80.00000000006995
 31
0.0
  0
LINE
  5
18E
330
92
100
AcDbEntity
  8
0
  6
Continuous
 62
     7
100
AcDbLine
 10
-96.59999860900498
 20
78.00000000006995
 30
0.0
 11
-92.49999860900499
 21
75.80000000006993
 31
0.0
  0
LINE
  5
18F
330
92
100
AcDbEntity
  8
1
  6
Continuous
 62
     2
100
AcDbLine
 10
-104.384998609005
 20
78.00000000006995
 30
0.0
 11
-104.384998609005
 21
61.50000000006995
 31
0.0
  0
LINE
  5
190
330
92
100
AcDbEntity
  8
1
  6
Continuous
 62
     7
100
AcDbLine
 10
-104.999998609005
 20
61.50000000006995
 30
0.0
 11
-104.384998609005
 21
61.50000000006995
 31
0.0
  0
LINE
  5
191
330
92
100
AcDbEntity
  8
1
  6
Continuous
 62
     2
100
AcDbLine
 10
-99.61499860900497
 20
78.00000000006995
 30
0.0
 11
-99.61499860900497
 21
61.50000000006995
 31
0.0
  0
LINE
  5
192
330
92
100
AcDbEntity
  8
1
  6
Continuous
 62
     7
100
AcDbLine
 10
-98.99999860900498
 20
61.50000000006995
 30
0.0
 11
-99.61499860900497
 21
61.50000000006995
 31
0.0
  0
LINE
  5
193
330
92
100
AcDbEntity
  8
1
  6
DOT_CENTER
 62
     2
100
AcDbLine
 10
-101.999998609005
 20
80.00000000006995
 30
0.0
 11
-101.999998609005
 21
87.50000000006995
 31
0.0
  0
LINE
  5
194
330
92
100
AcDbEntity
  8
1
  6
DOT_CENTER
 62
     2
100
AcDbLine
 10
-101.999998609005
 20
78.00000000006995
 30
0.0
 11
-101.999998609005
 21
61.50000000006995
 31
0.0
  0
ENDBLK
  5
94
330
92
100
AcDbEntity
  8
0
100
AcDbBlockEnd
  0
BLOCK
  5
97
330
95
100
AcDbEntity
  8
0
100
AcDbBlockBegin
  2
Right1
 70
     0
 10
-94.44999885560071
 20
74.50000000003496
 30
0.0
  3
Right1
  1

  0
INSERT
  5
96
330
95
100
AcDbEntity
  8
0
100
AcDbBlockReference
  2
KBI_15-select__5
 10
-107.399998609005
 20
61.50000000006995
 30
0.0
  0
MTEXT
  5
195
330
95
100
AcDbEntity
  8
1
 62
     6
100
AcDbMText
 10
-94.44999885560082
 20
59.00000000003502
 30
0.0
 40
2.5
 41
0.0
 71
     2
 72
     1
  1
 
  7
CONVERTER_11
 73
     1
 44
1.32052821128451
  0
ENDBLK
  5
98
330
95
100
AcDbEntity
  8
0
100
AcDbBlockEnd
  0
BLOCK
  5
9A
330
99
100
AcDbEntity
  8
0
100
AcDbBlockBegin
  2
PIN_PNT
 70
     0
 10
-113.00000000002
 20
82.4000027819898
 30
0.0
  3
PIN_PNT
  1

  0
POINT
  5
196
330
99
100
AcDbEntity
  8
1
 62
     7
 60
     1
100
AcDbPoint
 10
-113.00000000002
 20
82.4000027819898
 30
0.0
  0
LINE
  5
197
330
99
100
AcDbEntity
  8
1
  6
Continuous
 62
     7
 60
     1
100
AcDbLine
 10
-111.00000000002
 20
82.4000027819898
 30
0.0
 11
-115.00000000002
 21
82.4000027819898
 31
0.0
  0
LINE
  5
198
330
99
100
AcDbEntity
  8
1
  6
Continuous
 62
     7
 60
     1
100
AcDbLine
 10
-113.00000000002
 20
84.4000027819898
 30
0.0
 11
-113.00000000002
 21
80.4000027819898
 31
0.0
  0
CIRCLE
  5
199
330
99
100
AcDbEntity
  8
1
  6
Continuous
 62
     7
 60
     1
100
AcDbCircle
 10
-113.00000000002
 20
82.4000027819898
 30
0.0
 40
2.0
  0
CIRCLE
  5
19A
330
99
100
AcDbEntity
  8
1
  6
Continuous
 62
     7
 60
     1
100
AcDbCircle
 10
-113.00000000002
 20
82.4000027819898
 30
0.0
 40
1.0
  0
ENDBLK
  5
9B
330
99
100
AcDbEntity
  8
0
100
AcDbBlockEnd
  0
BLOCK
  5
9E
330
9C
100
AcDbEntity
  8
0
100
AcDbBlockBegin
  2
SLOT_CENTER
 70
     0
 10
0.0
 20
0.0
 30
0.0
  3
SLOT_CENTER
  1

  0
INSERT
  5
9D
330
9C
100
AcDbEntity
  8
1
100
AcDbBlockReference
  2
PIN_PNT
 10
-56.50000000001
 20
41.2000013909949
 30
0.0
 41
0.5
 42
0.5
 43
0.5
  0
POINT
  5
19B
330
9C
100
AcDbEntity
  8
1
 62
     7
100
AcDbPoint
 10
-56.50000000001
 20
41.2000013909949
 30
0.0
  0
ENDBLK
  5
9F
330
9C
100
AcDbEntity
  8
0
100
AcDbBlockEnd
  0
BLOCK
  5
A2
330
A0
100
AcDbEntity
  8
0
100
AcDbBlockBegin
  2
KBI_15-select__6
 70
     0
 10
-62.00000000001002
 20
20.60000139099491
 30
0.0
  3
KBI_15-select__6
  1

  0
INSERT
  5
A1
330
A0
100
AcDbEntity
  8
1
100
AcDbBlockReference
  2
SLOT_CENTER
 10
0.0
 20
0.0
 30
0.0
  0
LINE
  5
19C
330
A0
100
AcDbEntity
  8
0
  6
Continuous
 62
     7
100
AcDbLine
 10
-59.75000000001002
 20
31.40000139099491
 30
0.0
 11
-53.25000000001002
 21
31.40000139099491
 31
0.0
  0
LINE
  5
19D
330
A0
100
AcDbEntity
  8
0
  6
Continuous
 62
     7
100
AcDbLine
 10
-58.37029471241483
 20
28.71882424082359
 30
0.0
 11
-53.78117715018133
 21
24.12970667859008
 31
0.0
  0
LINE
  5
19E
330
A0
100
AcDbEntity
  8
0
  6
Continuous
 62
     7
100
AcDbLine
 10
-54.62970528760518
 20
23.28117854116622
 30
0.0
 11
-59.21882284983869
 21
27.87029610339973
 31
0.0
  0
LINE
  5
19F
330
A0
100
AcDbEntity
  8
0
  6
Continuous
 62
     7
100
AcDbLine
 10
-51.00000000001002
 20
20.60000139099491
 30
0.0
 11
-62.00000000001002
 21
20.60000139099491
 31
0.0
  0
LINE
  5
1A0
330
A0
100
AcDbEntity
  8
0
  6
Continuous
 62
     7
100
AcDbLine
 10
-51.00000000001002
 20
31.40000139099492
 30
0.0
 11
-51.00000000001002
 21
20.60000139099491
 31
0.0
  0
LINE
  5
1A1
330
A0
100
AcDbEntity
  8
0
  6
Continuous
 62
     7
100
AcDbLine
 10
-51.05000000001002
 20
35.5000013909949
 30
0.0
 11
-51.05000000001002
 21
46.5000013909949
 31
0.0
  0
LINE
  5
1A2
330
A0
100
AcDbEntity
  8
0
  6
Continuous
 62
     7
100
AcDbLine
 10
-59.75000000001002
 20
31.40000139099491
 30
0.0
 11
-59.75000000001002
 21
35.5000013909949
 31
0.0
  0
LINE
  5
1A3
330
A0
100
AcDbEntity
  8
0
  6
Continuous
 62
     7
100
AcDbLine
 10
-59.60000000001002
 20
41.5000013909949
 30
0.0
 11
-59.60000000001002
 21
40.90000139099491
 31
0.0
  0
LINE
  5
1A4
330
A0
100
AcDbEntity
  8
0
  6
Continuous
 62
     7
100
AcDbLine
 10
-53.25000000001002
 20
35.50000139099488
 30
0.0
 11
-53.25000000001002
 21
31.40000139099491
 31
0.0
  0
LINE
  5
1A5
330
A0
100
AcDbEntity
  8
0
  6
Continuous
 62
     7
100
AcDbLine
 10
-51.00000000001002
 20
31.40000139099492
 30
0.0
 11
-53.25000000001002
 21
31.40000139099491
 31
0.0
  0
LINE
  5
1A6
330
A0
100
AcDbEntity
  8
0
  6
Continuous
 62
     7
100
AcDbLine
 10
-62.00000000001002
 20
31.40000139099492
 30
0.0
 11
-62.00000000001002
 21
20.60000139099491
 31
0.0
  0
LINE
  5
1A7
330
A0
100
AcDbEntity
  8
0
  6
Continuous
 62
     7
100
AcDbLine
 10
-61.95000000001002
 20
35.5000013909949
 30
0.0
 11
-61.95000000001002
 21
46.5000013909949
 31
0.0
  0
LINE
  5
1A8
330
A0
100
AcDbEntity
  8
0
  6
Continuous
 62
     7
100
AcDbLine
 10
-53.40000000001002
 20
40.90000139099491
 30
0.0
 11
-53.40000000001002
 21
41.5000013909949
 31
0.0
  0
LINE
  5
1A9
330
A0
100
AcDbEntity
  8
0
  6
Continuous
 62
     7
100
AcDbLine
 10
-51.05000000001002
 20
46.5000013909949
 30
0.0
 11
-61.95000000001002
 21
46.5000013909949
 31
0.0
  0
LINE
  5
1AA
330
A0
100
AcDbEntity
  8
0
  6
Continuous
 62
     7
100
AcDbLine
 10
-53.25000000001002
 20
35.50000139099488
 30
0.0
 11
-59.75000000001002
 21
35.5000013909949
 31
0.0
  0
LINE
  5
1AB
330
A0
100
AcDbEntity
  8
0
  6
Continuous
 62
     7
100
AcDbLine
 10
-51.05000000001002
 20
35.5000013909949
 30
0.0
 11
-53.25000000001002
 21
35.50000139099488
 31
0.0
  0
LINE
  5
1AC
330
A0
100
AcDbEntity
  8
0
  6
Continuous
 62
     7
100
AcDbLine
 10
-61.95000000001002
 20
35.5000013909949
 30
0.0
 11
-59.75000000001002
 21
35.5000013909949
 31
0.0
  0
LINE
  5
1AD
330
A0
100
AcDbEntity
  8
0
  6
Continuous
 62
     7
100
AcDbLine
 10
-62.00000000001002
 20
31.40000139099492
 30
0.0
 11
-59.75000000001002
 21
31.40000139099491
 31
0.0
  0
LINE
  5
1AE
330
A0
100
AcDbEntity
  8
1
  6
DOT_CENTER
 62
     2
100
AcDbLine
 10
-56.50000000001002
 20
44.91000139099491
 30
0.0
 11
-56.50000000001002
 21
37.49000139099491
 31
0.0
  0
LINE
  5
1AF
330
A0
100
AcDbEntity
  8
1
  6
DOT_CENTER
 62
     2
100
AcDbLine
 10
-59.91000000001002
 20
41.20000139099491
 30
0.0
 11
-53.09000000001002
 21
41.20000139099491
 31
0.0
  0
LINE
  5
1B0
330
A0
100
AcDbEntity
  8
1
  6
DOT_CENTER
 62
     2
100
AcDbLine
 10
-51.05500000001002
 20
26.0000013909949
 30
0.0
 11
-61.94500000001001
 21
26.0000013909949
 31
0.0
  0
LINE
  5
1B1
330
A0
100
AcDbEntity
  8
1
  6
DOT_CENTER
 62
     2
100
AcDbLine
 10
-56.50000000001001
 20
31.4450013909949
 30
0.0
 11
-56.50000000001001
 21
20.5550013909949
 31
0.0
  0
ARC
  5
1B2
330
A0
100
AcDbEntity
  8
0
  6
Continuous
 62
     7
100
AcDbCircle
 10
-56.50000000001001
 20
26.0000013909949
 30
0.0
 40
3.299999999999999
100
AcDbArc
 50
145.4756816963898
 51
270.0
  0
ARC
  5
1B3
330
A0
100
AcDbEntity
  8
0
  6
Continuous
 62
     7
100
AcDbCircle
 10
-56.50000000001001
 20
26.0000013909949
 30
0.0
 40
3.300000000000004
100
AcDbArc
 50
304.5243183036102
 51
325.47568169639
  0
ARC
  5
1B4
330
A0
100
AcDbEntity
  8
0
  6
Continuous
 62
     7
100
AcDbCircle
 10
-56.50000000001001
 20
26.0000013909949
 30
0.0
 40
3.300000000000005
100
AcDbArc
 50
124.52431830361
 51
145.4756816963898
  0
ARC
  5
1B5
330
A0
100
AcDbEntity
  8
0
  6
Continuous
 62
     7
100
AcDbCircle
 10
-56.50000000001001
 20
26.0000013909949
 30
0.0
 40
3.299999999999999
100
AcDbArc
 50
325.47568169639
 51
124.52431830361
  0
ARC
  5
1B6
330
A0
100
AcDbEntity
  8
0
  6
Continuous
 62
     7
100
AcDbCircle
 10
-56.50000000001001
 20
26.0000013909949
 30
0.0
 40
3.29999999999999
100
AcDbArc
 50
270.0
 51
304.5243183036102
  0
ARC
  5
1B7
330
A0
100
AcDbEntity
  8
0
  6
Continuous
 62
     7
100
AcDbCircle
 10
-56.50000000001002
 20
41.5000013909949
 30
0.0
 40
3.100000000000001
100
AcDbArc
 50
0.0
 51
180.0
  0
ARC
  5
1B8
330
A0
100
AcDbEntity
  8
0
  6
Continuous
 62
     7
100
AcDbCircle
 10
-56.50000000001002
 20
40.90000139099491
 30
0.0
 40
3.100000000000001
100
AcDbArc
 50
180.0
 51
0.0
  0
CIRCLE
  5
1B9
330
A0
100
AcDbEntity
  8
0
  6
Continuous
 62
     7
100
AcDbCircle
 10
-56.50000000001001
 20
26.0000013909949
 30
0.0
 40
4.949999999999999
  0
ENDBLK
  5
A3
330
A0
100
AcDbEntity
  8
0
100
AcDbBlockEnd
  0
BLOCK
  5
A6
330
A4
100
AcDbEntity
  8
0
100
AcDbBlockBegin
  2
Top1
 70
     0
 10
-56.500000000005
 20
33.55000114439918
 30
0.0
  3
Top1
  1

  0
INSERT
  5
A5
330
A4
100
AcDbEntity
  8
0
100
AcDbBlockReference
  2
KBI_15-select__6
 10
-62.00000000001002
 20
20.60000139099491
 30
0.0
  0
MTEXT
  5
1BA
330
A4
100
AcDbEntity
  8
1
 62
     6
100
AcDbMText
 10
-56.500000000005
 20
18.10000228880836
 30
0.0
 40
2.5
 41
0.0
 71
     2
 72
     1
  1
 
  7
CONVERTER_11
 73
     1
 44
1.32052821128451
  0
DIMENSION
  5
1C5
330
A4
100
AcDbEntity
  8
1
100
AcDbDimension
  2
*D22
 10
-67.312622266717
 20
46.5000013909949
 30
0.0
 11
-69.275122266717
 21
34.2525724570226
 31
0.0
 70
    32
  1
<>
 71
     5
 42
-1.0
 53
90.0
  3
ME10_DIM_13
100
AcDbAlignedDimension
 13
-62.00000000001002
 23
20.60000139099491
 33
0.0
 14
-61.95000000001002
 24
46.5000013909949
 34
0.0
 50
90.0
100
AcDbRotatedDimension
  0
ENDBLK
  5
A7
330
A4
100
AcDbEntity
  8
0
100
AcDbBlockEnd
  0
BLOCK
  5
A9
330
A8
100
AcDbEntity
  8
0
100
AcDbBlockBegin
  2
_rahmen
 70
     0
 10
53.33021530422148
 20
-1.37740077722981
 30
0.0
  3
_rahmen
  1

  0
LINE
  5
1C6
330
A8
100
AcDbEntity
  8
1
  6
DOT_CENTER
 62
     2
100
AcDbLine
 10
-72.22793433596593
 20
24.74759922277022
 30
0.0
 11
-66.72793433596593
 21
24.74759922277022
 31
0.0
  0
LINE
  5
1C7
330
A8
100
AcDbEntity
  8
1
  6
PHANTOM
 62
     2
100
AcDbLine
 10
-63.47793433596593
 20
27.49759922277022
 30
0.0
 11
-63.47793433596593
 21
21.99759922277022
 31
0.0
  0
LINE
  5
1C8
330
A8
100
AcDbEntity
  8
1
  6
PHANTOM
 62
     2
100
AcDbLine
 10
-60.72793433596593
 20
24.74759922277022
 30
0.0
 11
-66.22793433596593
 21
24.74759922277022
 31
0.0
  0
LINE
  5
1C9
330
A8
100
AcDbEntity
  8
1
  6
Continuous
 62
     7
100
AcDbLine
 10
-11.91458922252852
 20
12.12259922277022
 30
0.0
 11
-11.91458922252852
 21
20.62259922277031
 31
0.0
  0
LINE
  5
1CA
330
A8
100
AcDbEntity
  8
1
  6
Continuous
 62
     6
100
AcDbLine
 10
-39.81458922252861
 20
20.62259922277031
 30
0.0
 11
53.33021530422317
 21
20.62259922277031
 31
0.0
  0
LINE
  5
1CB
330
A8
100
AcDbEntity
  8
1
  6
Continuous
 62
     7
100
AcDbLine
 10
-76.21458922252853
 20
20.62259922277031
 30
0.0
 11
-76.21458922252853
 21
29.12259922277031
 31
0.0
  0
LINE
  5
1CC
330
A8
100
AcDbEntity
  8
1
  6
Continuous
 62
     7
100
AcDbLine
 10
-39.81458922252861
 20
20.62259922277031
 30
0.0
 11
-39.81458922252861
 21
29.12259922277031
 31
0.0
  0
LINE
  5
1CD
330
A8
100
AcDbEntity
  8
1
  6
Continuous
 62
     7
100
AcDbLine
 10
17.91180702254437
 20
29.12259922277031
 30
0.0
 11
17.91180702254437
 21
20.62259922277031
 31
0.0
  0
LINE
  5
1CE
330
A8
100
AcDbEntity
  8
1
  6
Continuous
 62
     7
100
AcDbLine
 10
44.41180702254397
 20
29.12259922277031
 30
0.0
 11
44.41180702254397
 21
20.62259922277031
 31
0.0
  0
LINE
  5
1CF
330
A8
100
AcDbEntity
  8
1
  6
Continuous
 62
     6
100
AcDbLine
 10
-145.2145892225285
 20
3.6225992227703
 30
0.0
 11
-190.1697846957785
 21
3.6225992227703
 31
0.0
  0
LINE
  5
1D0
330
A8
100
AcDbEntity
  8
1
  6
Continuous
 62
     7
100
AcDbLine
 10
53.33021530422278
 20
12.12259922277031
 30
0.0
 11
-39.81458922252861
 21
12.12259922277031
 31
0.0
  0
LINE
  5
1D1
102
{ACAD_REACTORS
330
2E3
330
2E4
102
}
330
A8
100
AcDbEntity
  8
0
  6
Continuous
 62
     2
100
AcDbLine
 10
-62.50716028076113
 20
12.92288833843361
 30
0.0
 11
-62.50716028076113
 21
13.7954053452369
 31
0.0
  0
LINE
  5
1D2
102
{ACAD_REACTORS
330
2E3
330
2E4
102
}
330
A8
100
AcDbEntity
  8
0
  6
Continuous
 62
     2
100
AcDbLine
 10
-62.50716028076113
 20
11.9631196309507
 30
0.0
 11
-62.50716028076113
 21
11.09060262414749
 31
0.0
  0
LINE
  5
1D3
102
{ACAD_REACTORS
330
2E5
330
2E6
102
}
330
A8
100
AcDbEntity
  8
0
  6
Continuous
 62
     2
100
AcDbLine
 10
-47.17411614447062
 20
13.18464344047411
 30
0.0
 11
-46.07047684490252
 21
13.18464344047411
 31
0.0
  0
LINE
  5
1D4
102
{ACAD_REACTORS
330
2E5
330
2E6
102
}
330
A8
100
AcDbEntity
  8
0
  6
Continuous
 62
     2
100
AcDbLine
 10
-46.40445880150921
 20
11.96311963095022
 30
0.0
 11
-46.40445880150921
 21
11.0906026241469
 31
0.0
  0
LINE
  5
1D5
102
{ACAD_REACTORS
330
2EF
330
2F0
102
}
330
A8
100
AcDbEntity
  8
0
  6
Continuous
 62
     2
100
AcDbLine
 10
-48.26521541688913
 20
14.2752896989609
 30
0.0
 11
-46.86726236994883
 21
15.8561486927359
 31
0.0
  0
LINE
  5
1D6
102
{ACAD_REACTORS
330
2EF
330
2F0
102
}
330
A8
100
AcDbEntity
  8
0
  6
Continuous
 62
     2
100
AcDbLine
 10
-48.16979200071631
 20
17.3290992227721
 30
0.0
 11
-46.86726236994883
 21
15.8561486927359
 31
0.0
  0
LINE
  5
1D7
102
{ACAD_REACTORS
330
2EF
330
2F0
102
}
330
A8
100
AcDbEntity
  8
0
  6
Continuous
 62
     2
100
AcDbLine
 10
-45.56473273918243
 20
17.3290992227721
 30
0.0
 11
-44.16200852143521
 21
17.3290992227721
 31
0.0
  0
LINE
  5
1D8
102
{ACAD_REACTORS
330
2EF
330
2F0
102
}
330
A8
100
AcDbEntity
  8
0
  6
Continuous
 62
     2
100
AcDbLine
 10
-46.86249119914092
 20
14.2752896989609
 30
0.0
 11
-46.16590026107522
 21
15.06302148425462
 31
0.0
  0
LINE
  5
1D9
102
{ACAD_REACTORS
330
2EF
330
2F0
102
}
330
A8
100
AcDbEntity
  8
0
  6
Continuous
 62
     2
100
AcDbLine
 10
-46.86249119914092
 20
14.2752896989609
 30
0.0
 11
-48.26521541688913
 21
14.2752896989609
 31
0.0
  0
LINE
  5
1DA
102
{ACAD_REACTORS
330
2F1
330
2F2
102
}
330
A8
100
AcDbEntity
  8
0
  6
Continuous
 62
     2
100
AcDbLine
 10
-48.38449468710601
 20
14.2752896989609
 30
0.0
 11
-49.62499909735891
 21
14.2752896989609
 31
0.0
  0
LINE
  5
1DB
102
{ACAD_REACTORS
330
2F3
330
2F4
102
}
330
A8
100
AcDbEntity
  8
0
  6
Continuous
 62
     2
100
AcDbLine
 10
-50.49297870551402
 20
12.1376230323111
 30
0.0
 11
-50.79314394270412
 21
12.9054379982978
 31
0.0
  0
LINE
  5
1DC
102
{ACAD_REACTORS
330
2F3
330
2F4
102
}
330
A8
100
AcDbEntity
  8
0
  6
Continuous
 62
     2
100
AcDbLine
 10
-51.09330917989652
 20
12.1376230323111
 30
0.0
 11
-50.49297870551402
 21
12.1376230323111
 31
0.0
  0
LINE
  5
1DD
102
{ACAD_REACTORS
330
2F3
330
2F4
102
}
330
A8
100
AcDbEntity
  8
0
  6
Continuous
 62
     2
100
AcDbLine
 10
-52.81134919477032
 20
10.91609922278661
 30
0.0
 11
-51.57084478451733
 21
10.91609922278661
 31
0.0
  0
LINE
  5
1DE
102
{ACAD_REACTORS
330
2F3
330
2F4
102
}
330
A8
100
AcDbEntity
  8
0
  6
Continuous
 62
     2
100
AcDbLine
 10
-51.41339614783101
 20
13.9699087465977
 30
0.0
 11
-50.17289173757831
 21
13.9699087465977
 31
0.0
  0
LINE
  5
1DF
102
{ACAD_REACTORS
330
2F3
330
2F4
102
}
330
A8
100
AcDbEntity
  8
0
  6
Continuous
 62
     2
100
AcDbLine
 10
-50.17289173757831
 20
13.9699087465977
 30
0.0
 11
-48.77493869063801
 21
10.91609922278661
 31
0.0
  0
LINE
  5
1E0
102
{ACAD_REACTORS
330
2F3
330
2F4
102
}
330
A8
100
AcDbEntity
  8
0
  6
Continuous
 62
     2
100
AcDbLine
 10
-50.01544310089193
 20
10.91609922278661
 30
0.0
 11
-50.22692315436771
 21
11.4570597670045
 31
0.0
  0
LINE
  5
1E1
102
{ACAD_REACTORS
330
2F5
330
2F6
102
}
330
A8
100
AcDbEntity
  8
0
  6
Continuous
 62
     2
100
AcDbLine
 10
-54.15776229647793
 20
10.91609922278661
 30
0.0
 11
-52.96496959431141
 21
10.91609922278661
 31
0.0
  0
LINE
  5
1E2
102
{ACAD_REACTORS
330
2F5
330
2F6
102
}
330
A8
100
AcDbEntity
  8
0
  6
Continuous
 62
     2
100
AcDbLine
 10
-54.15776229647793
 20
13.18464344047411
 30
0.0
 11
-54.15776229647793
 21
10.91609922278661
 31
0.0
  0
LINE
  5
1E3
102
{ACAD_REACTORS
330
2F5
330
2F6
102
}
330
A8
100
AcDbEntity
  8
0
  6
Continuous
 62
     2
100
AcDbLine
 10
-54.96886133395253
 20
13.9699087465977
 30
0.0
 11
-54.96886133395253
 21
13.18464344047411
 31
0.0
  0
LINE
  5
1E4
102
{ACAD_REACTORS
330
2F7
330
2F8
102
}
330
A8
100
AcDbEntity
  8
0
  6
Continuous
 62
     2
100
AcDbLine
 10
-53.48964745237993
 20
14.2752896989609
 30
0.0
 11
-52.29685475021341
 21
14.2752896989609
 31
0.0
  0
LINE
  5
1E5
102
{ACAD_REACTORS
330
2F7
330
2F8
102
}
330
A8
100
AcDbEntity
  8
0
  6
Continuous
 62
     2
100
AcDbLine
 10
-51.05635033995941
 20
16.02032371256692
 30
0.0
 11
-52.29685475021341
 21
17.3290992227721
 31
0.0
  0
LINE
  5
1E6
102
{ACAD_REACTORS
330
2F7
330
2F8
102
}
330
A8
100
AcDbEntity
  8
0
  6
Continuous
 62
     2
100
AcDbLine
 10
-49.86355763779281
 20
17.3290992227721
 30
0.0
 11
-51.05635033995941
 21
17.3290992227721
 31
0.0
  0
LINE
  5
1E7
102
{ACAD_REACTORS
330
2F7
330
2F8
102
}
330
A8
100
AcDbEntity
  8
0
  6
Continuous
 62
     2
100
AcDbLine
 10
-49.86355763779281
 20
14.2752896989609
 30
0.0
 11
-49.86355763779281
 21
17.3290992227721
 31
0.0
  0
LINE
  5
1E8
102
{ACAD_REACTORS
330
2F7
330
2F8
102
}
330
A8
100
AcDbEntity
  8
0
  6
Continuous
 62
     2
100
AcDbLine
 10
-51.05635033995941
 20
14.2752896989609
 30
0.0
 11
-49.86355763779281
 21
14.2752896989609
 31
0.0
  0
LINE
  5
1E9
102
{ACAD_REACTORS
330
2F7
330
2F8
102
}
330
A8
100
AcDbEntity
  8
0
  6
Continuous
 62
     2
100
AcDbLine
 10
-52.29685475021341
 20
15.5840652091656
 30
0.0
 11
-51.05635033995941
 21
14.2752896989609
 31
0.0
  0
LINE
  5
1EA
102
{ACAD_REACTORS
330
2F9
330
2FA
102
}
330
A8
100
AcDbEntity
  8
0
  6
Continuous
 62
     2
100
AcDbLine
 10
-56.30478916037913
 20
12.6611332363926
 30
0.0
 11
-57.54529357063203
 21
13.9699087465977
 31
0.0
  0
LINE
  5
1EB
102
{ACAD_REACTORS
330
2F9
330
2FA
102
}
330
A8
100
AcDbEntity
  8
0
  6
Continuous
 62
     2
100
AcDbLine
 10
-56.30478916037913
 20
13.9699087465977
 30
0.0
 11
-56.30478916037913
 21
12.6611332363926
 31
0.0
  0
LINE
  5
1EC
102
{ACAD_REACTORS
330
2F9
330
2FA
102
}
330
A8
100
AcDbEntity
  8
0
  6
Continuous
 62
     2
100
AcDbLine
 10
-55.11199645821273
 20
13.9699087465977
 30
0.0
 11
-56.30478916037913
 21
13.9699087465977
 31
0.0
  0
LINE
  5
1ED
102
{ACAD_REACTORS
330
2F9
330
2FA
102
}
330
A8
100
AcDbEntity
  8
0
  6
Continuous
 62
     2
100
AcDbLine
 10
-55.11199645821273
 20
10.91609922278661
 30
0.0
 11
-55.11199645821273
 21
13.9699087465977
 31
0.0
  0
LINE
  5
1EE
102
{ACAD_REACTORS
330
2F9
330
2FA
102
}
330
A8
100
AcDbEntity
  8
0
  6
Continuous
 62
     2
100
AcDbLine
 10
-57.54529357063203
 20
12.2248747329912
 30
0.0
 11
-56.30478916037913
 21
10.91609922278661
 31
0.0
  0
LINE
  5
1EF
102
{ACAD_REACTORS
330
2F9
330
2FA
102
}
330
A8
100
AcDbEntity
  8
0
  6
Continuous
 62
     2
100
AcDbLine
 10
-57.54529357063203
 20
10.91609922278661
 30
0.0
 11
-57.54529357063203
 21
12.2248747329912
 31
0.0
  0
LINE
  5
1F0
102
{ACAD_REACTORS
330
2E9
330
2EA
102
}
330
A8
100
AcDbEntity
  8
0
  6
Continuous
 62
     2
100
AcDbLine
 10
-55.06413381924051
 20
16.63108561732912
 30
0.0
 11
-53.72820599281283
 21
16.63108561732912
 31
0.0
  0
LINE
  5
1F1
102
{ACAD_REACTORS
330
2E9
330
2EA
102
}
330
A8
100
AcDbEntity
  8
0
  6
Continuous
 62
     2
100
AcDbLine
 10
-55.06413381924051
 20
14.9733033044034
 30
0.0
 11
-55.06413381924051
 21
15.45318765814511
 31
0.0
  0
LINE
  5
1F2
102
{ACAD_REACTORS
330
2E9
330
2EA
102
}
330
A8
100
AcDbEntity
  8
0
  6
Continuous
 62
     2
100
AcDbLine
 10
-53.72820599281283
 20
14.9733033044034
 30
0.0
 11
-55.06413381924051
 21
14.9733033044034
 31
0.0
  0
LINE
  5
1F3
102
{ACAD_REACTORS
330
2E9
330
2EA
102
}
330
A8
100
AcDbEntity
  8
0
  6
Continuous
 62
     2
100
AcDbLine
 10
-53.72820599281283
 20
14.2752896989609
 30
0.0
 11
-53.72820599281283
 21
14.9733033044034
 31
0.0
  0
LINE
  5
1F4
102
{ACAD_REACTORS
330
2E9
330
2EA
102
}
330
A8
100
AcDbEntity
  8
0
  6
Continuous
 62
     2
100
AcDbLine
 10
-56.87852571659383
 20
14.2752896989609
 30
0.0
 11
-53.72820599281283
 21
14.2752896989609
 31
0.0
  0
LINE
  5
1F5
102
{ACAD_REACTORS
330
2E9
330
2EA
102
}
330
A8
100
AcDbEntity
  8
0
  6
Continuous
 62
     2
100
AcDbLine
 10
-56.87852571659383
 20
17.3290992227721
 30
0.0
 11
-53.72820599281283
 21
17.3290992227721
 31
0.0
  0
LINE
  5
1F6
102
{ACAD_REACTORS
330
2E9
330
2EA
102
}
330
A8
100
AcDbEntity
  8
0
  6
Continuous
 62
     2
100
AcDbLine
 10
-53.72820599281283
 20
16.63108561732912
 30
0.0
 11
-53.72820599281283
 21
17.3290992227721
 31
0.0
  0
LINE
  5
1F7
102
{ACAD_REACTORS
330
2FB
330
2FC
102
}
330
A8
100
AcDbEntity
  8
0
  6
Continuous
 62
     2
100
AcDbLine
 10
-59.73988121173383
 20
16.26026588943751
 30
0.0
 11
-59.73988121173383
 21
17.3290992227721
 31
0.0
  0
LINE
  5
1F8
102
{ACAD_REACTORS
330
2FB
330
2FC
102
}
330
A8
100
AcDbEntity
  8
0
  6
Continuous
 62
     2
100
AcDbLine
 10
-59.73988121173383
 20
17.3290992227721
 30
0.0
 11
-58.54708850956743
 21
17.3290992227721
 31
0.0
  0
LINE
  5
1F9
102
{ACAD_REACTORS
330
2FB
330
2FC
102
}
330
A8
100
AcDbEntity
  8
0
  6
Continuous
 62
     2
100
AcDbLine
 10
-59.73988121173383
 20
15.40956180780472
 30
0.0
 11
-60.78953878964131
 21
15.40956180780472
 31
0.0
  0
LINE
  5
1FA
102
{ACAD_REACTORS
330
2FB
330
2FC
102
}
330
A8
100
AcDbEntity
  8
0
  6
Continuous
 62
     2
100
AcDbLine
 10
-60.78953878964131
 20
15.40956180780472
 30
0.0
 11
-60.78953878964131
 21
14.2752896989609
 31
0.0
  0
LINE
  5
1FB
102
{ACAD_REACTORS
330
2FB
330
2FC
102
}
330
A8
100
AcDbEntity
  8
0
  6
Continuous
 62
     2
100
AcDbLine
 10
-61.98233149180791
 20
17.3290992227721
 30
0.0
 11
-61.98233149180791
 21
14.2752896989609
 31
0.0
  0
LINE
  5
1FC
102
{ACAD_REACTORS
330
2ED
330
2EE
102
}
330
A8
100
AcDbEntity
  8
0
  6
Continuous
 62
     2
100
AcDbLine
 10
-63.93851152336151
 20
15.96026572798979
 30
0.0
 11
-63.93851152336151
 21
16.665993377332
 31
0.0
  0
LINE
  5
1FD
102
{ACAD_REACTORS
330
2ED
330
2EE
102
}
330
A8
100
AcDbEntity
  8
0
  6
Continuous
 62
     2
100
AcDbLine
 10
-65.17901593361563
 20
14.2752896989609
 30
0.0
 11
-63.93851152336151
 21
14.2752896989609
 31
0.0
  0
LINE
  5
1FE
102
{ACAD_REACTORS
330
2ED
330
2EE
102
}
330
A8
100
AcDbEntity
  8
0
  6
Continuous
 62
     2
100
AcDbLine
 10
-63.93851152336151
 20
14.2752896989609
 30
0.0
 11
-63.93851152336151
 21
15.21836794010471
 31
0.0
  0
LINE
  5
1FF
102
{ACAD_REACTORS
330
2E7
330
2E8
102
}
330
A8
100
AcDbEntity
  8
0
  6
Continuous
 62
     2
100
AcDbLine
 10
-69.48396178282701
 20
11.6286547783435
 30
0.0
 11
-70.95979504383664
 21
11.6286547783435
 31
0.0
  0
LINE
  5
200
102
{ACAD_REACTORS
330
2E7
330
2E8
102
}
330
A8
100
AcDbEntity
  8
0
  6
Continuous
 62
     2
100
AcDbLine
 10
-71.97793433596593
 20
16.90485460737011
 30
0.0
 11
-71.97793433596593
 21
11.3403438381699
 31
0.0
  0
LINE
  5
201
102
{ACAD_REACTORS
330
2E7
330
2E8
102
}
330
A8
100
AcDbEntity
  8
0
  6
Continuous
 62
     2
100
AcDbLine
 10
-71.55368972058312
 20
17.32909922275391
 30
0.0
 11
-66.08037762986632
 21
17.32909922275391
 31
0.0
  0
LINE
  5
202
102
{ACAD_REACTORS
330
2E7
330
2E8
102
}
330
A8
100
AcDbEntity
  8
0
  6
Continuous
 62
     2
100
AcDbLine
 10
-65.65613301448244
 20
16.90485460737011
 30
0.0
 11
-65.65613301448244
 21
11.3403438381699
 31
0.0
  0
LINE
  5
203
102
{ACAD_REACTORS
330
2E7
330
2E8
102
}
330
A8
100
AcDbEntity
  8
0
  6
Continuous
 62
     2
100
AcDbLine
 10
-66.08037762986632
 20
10.91609922278661
 30
0.0
 11
-71.55368972058312
 21
10.91609922278661
 31
0.0
  0
LINE
  5
204
102
{ACAD_REACTORS
330
2E7
330
2E8
102
}
330
A8
100
AcDbEntity
  8
0
  6
Continuous
 62
     2
100
AcDbLine
 10
-69.16824485975042
 20
11.94437170142021
 30
0.0
 11
-69.16824485975042
 21
13.47514263295182
 31
0.0
  0
LINE
  5
205
102
{ACAD_REACTORS
330
2E7
330
2E8
102
}
330
A8
100
AcDbEntity
  8
0
  6
Continuous
 62
     2
100
AcDbLine
 10
-69.16824485975042
 20
15.6968021250768
 30
0.0
 11
-69.16824485975042
 21
16.30082674413731
 31
0.0
  0
LINE
  5
206
102
{ACAD_REACTORS
330
2E7
330
2E8
102
}
330
A8
100
AcDbEntity
  8
0
  6
Continuous
 62
     2
100
AcDbLine
 10
-70.95979504383664
 20
16.61654366721351
 30
0.0
 11
-69.48396178282701
 21
16.61654366721351
 31
0.0
  0
LINE
  5
207
102
{ACAD_REACTORS
330
2E7
330
2E8
102
}
330
A8
100
AcDbEntity
  8
0
  6
Continuous
 62
     2
100
AcDbLine
 10
-71.27551196691232
 20
16.30082674413731
 30
0.0
 11
-71.27551196691232
 21
11.94437170142021
 31
0.0
  0
LINE
  5
208
102
{ACAD_REACTORS
330
2ED
330
2EE
102
}
330
A8
100
AcDbEntity
  8
0
  6
Continuous
 62
     2
100
AcDbLine
 10
-63.93851152336151
 20
15.21836794010471
 30
0.0
 11
-63.17974393558123
 21
15.21836794010471
 31
0.0
  0
LINE
  5
209
102
{ACAD_REACTORS
330
2ED
330
2EE
102
}
330
A8
100
AcDbEntity
  8
0
  6
Continuous
 62
     2
100
AcDbLine
 10
-65.17901593361563
 20
17.3290992227721
 30
0.0
 11
-63.17974393558123
 21
17.3290992227721
 31
0.0
  0
LINE
  5
20A
102
{ACAD_REACTORS
330
2ED
330
2EE
102
}
330
A8
100
AcDbEntity
  8
0
  6
Continuous
 62
     2
100
AcDbLine
 10
-65.17901593361563
 20
17.3290992227721
 30
0.0
 11
-65.17901593361563
 21
14.2752896989609
 31
0.0
  0
LINE
  5
20B
102
{ACAD_REACTORS
330
2ED
330
2EE
102
}
330
A8
100
AcDbEntity
  8
0
  6
Continuous
 62
     2
100
AcDbLine
 10
-63.93851152336151
 20
15.96026572798979
 30
0.0
 11
-63.62121646181961
 21
15.96026572798979
 31
0.0
  0
LINE
  5
20C
102
{ACAD_REACTORS
330
2ED
330
2EE
102
}
330
A8
100
AcDbEntity
  8
0
  6
Continuous
 62
     2
100
AcDbLine
 10
-63.93851152336151
 20
16.665993377332
 30
0.0
 11
-63.62121646181961
 21
16.665993377332
 31
0.0
  0
LINE
  5
20D
102
{ACAD_REACTORS
330
2FB
330
2FC
102
}
330
A8
100
AcDbEntity
  8
0
  6
Continuous
 62
     2
100
AcDbLine
 10
-60.78953878964131
 20
16.26026588943751
 30
0.0
 11
-59.73988121173383
 21
16.26026588943751
 31
0.0
  0
LINE
  5
20E
102
{ACAD_REACTORS
330
2FB
330
2FC
102
}
330
A8
100
AcDbEntity
  8
0
  6
Continuous
 62
     2
100
AcDbLine
 10
-60.78953878964131
 20
17.3290992227721
 30
0.0
 11
-60.78953878964131
 21
16.26026588943751
 31
0.0
  0
LINE
  5
20F
102
{ACAD_REACTORS
330
2FB
330
2FC
102
}
330
A8
100
AcDbEntity
  8
0
  6
Continuous
 62
     2
100
AcDbLine
 10
-61.98233149180791
 20
17.3290992227721
 30
0.0
 11
-60.78953878964131
 21
17.3290992227721
 31
0.0
  0
LINE
  5
210
102
{ACAD_REACTORS
330
2FB
330
2FC
102
}
330
A8
100
AcDbEntity
  8
0
  6
Continuous
 62
     2
100
AcDbLine
 10
-60.78953878964131
 20
14.2752896989609
 30
0.0
 11
-61.98233149180791
 21
14.2752896989609
 31
0.0
  0
LINE
  5
211
102
{ACAD_REACTORS
330
2FB
330
2FC
102
}
330
A8
100
AcDbEntity
  8
0
  6
Continuous
 62
     2
100
AcDbLine
 10
-59.73988121173383
 20
14.2752896989609
 30
0.0
 11
-59.73988121173383
 21
15.40956180780472
 31
0.0
  0
LINE
  5
212
102
{ACAD_REACTORS
330
2FB
330
2FC
102
}
330
A8
100
AcDbEntity
  8
0
  6
Continuous
 62
     2
100
AcDbLine
 10
-58.54708850956743
 20
14.2752896989609
 30
0.0
 11
-59.73988121173383
 21
14.2752896989609
 31
0.0
  0
LINE
  5
213
102
{ACAD_REACTORS
330
2FB
330
2FC
102
}
330
A8
100
AcDbEntity
  8
0
  6
Continuous
 62
     2
100
AcDbLine
 10
-58.54708850956743
 20
17.3290992227721
 30
0.0
 11
-58.54708850956743
 21
14.2752896989609
 31
0.0
  0
LINE
  5
214
102
{ACAD_REACTORS
330
2E9
330
2EA
102
}
330
A8
100
AcDbEntity
  8
0
  6
Continuous
 62
     2
100
AcDbLine
 10
-55.06413381924051
 20
15.45318765814511
 30
0.0
 11
-53.72820599281283
 21
15.45318765814511
 31
0.0
  0
LINE
  5
215
102
{ACAD_REACTORS
330
2E9
330
2EA
102
}
330
A8
100
AcDbEntity
  8
0
  6
Continuous
 62
     2
100
AcDbLine
 10
-53.72820599281283
 20
15.45318765814511
 30
0.0
 11
-53.72820599281283
 21
16.15120126358741
 31
0.0
  0
LINE
  5
216
102
{ACAD_REACTORS
330
2E9
330
2EA
102
}
330
A8
100
AcDbEntity
  8
0
  6
Continuous
 62
     2
100
AcDbLine
 10
-53.72820599281283
 20
16.15120126358741
 30
0.0
 11
-55.06413381924051
 21
16.15120126358741
 31
0.0
  0
LINE
  5
217
102
{ACAD_REACTORS
330
2E9
330
2EA
102
}
330
A8
100
AcDbEntity
  8
0
  6
Continuous
 62
     2
100
AcDbLine
 10
-55.06413381924051
 20
16.15120126358741
 30
0.0
 11
-55.06413381924051
 21
16.63108561732912
 31
0.0
  0
LINE
  5
218
102
{ACAD_REACTORS
330
2F9
330
2FA
102
}
330
A8
100
AcDbEntity
  8
0
  6
Continuous
 62
     2
100
AcDbLine
 10
-58.73808627279962
 20
10.91609922278661
 30
0.0
 11
-57.54529357063203
 21
10.91609922278661
 31
0.0
  0
LINE
  5
219
102
{ACAD_REACTORS
330
2F9
330
2FA
102
}
330
A8
100
AcDbEntity
  8
0
  6
Continuous
 62
     2
100
AcDbLine
 10
-56.30478916037913
 20
10.91609922278661
 30
0.0
 11
-55.11199645821273
 21
10.91609922278661
 31
0.0
  0
LINE
  5
21A
102
{ACAD_REACTORS
330
2F9
330
2FA
102
}
330
A8
100
AcDbEntity
  8
0
  6
Continuous
 62
     2
100
AcDbLine
 10
-57.54529357063203
 20
13.9699087465977
 30
0.0
 11
-58.73808627279962
 21
13.9699087465977
 31
0.0
  0
LINE
  5
21B
102
{ACAD_REACTORS
330
2F9
330
2FA
102
}
330
A8
100
AcDbEntity
  8
0
  6
Continuous
 62
     2
100
AcDbLine
 10
-58.73808627279962
 20
13.9699087465977
 30
0.0
 11
-58.73808627279962
 21
10.91609922278661
 31
0.0
  0
LINE
  5
21C
102
{ACAD_REACTORS
330
2F7
330
2F8
102
}
330
A8
100
AcDbEntity
  8
0
  6
Continuous
 62
     2
100
AcDbLine
 10
-51.05635033995941
 20
17.3290992227721
 30
0.0
 11
-51.05635033995941
 21
16.02032371256692
 31
0.0
  0
LINE
  5
21D
102
{ACAD_REACTORS
330
2F7
330
2F8
102
}
330
A8
100
AcDbEntity
  8
0
  6
Continuous
 62
     2
100
AcDbLine
 10
-52.29685475021341
 20
17.3290992227721
 30
0.0
 11
-53.48964745237993
 21
17.3290992227721
 31
0.0
  0
LINE
  5
21E
102
{ACAD_REACTORS
330
2F7
330
2F8
102
}
330
A8
100
AcDbEntity
  8
0
  6
Continuous
 62
     2
100
AcDbLine
 10
-53.48964745237993
 20
17.3290992227721
 30
0.0
 11
-53.48964745237993
 21
14.2752896989609
 31
0.0
  0
LINE
  5
21F
102
{ACAD_REACTORS
330
2F7
330
2F8
102
}
330
A8
100
AcDbEntity
  8
0
  6
Continuous
 62
     2
100
AcDbLine
 10
-52.29685475021341
 20
14.2752896989609
 30
0.0
 11
-52.29685475021341
 21
15.5840652091656
 31
0.0
  0
LINE
  5
220
102
{ACAD_REACTORS
330
2F5
330
2F6
102
}
330
A8
100
AcDbEntity
  8
0
  6
Continuous
 62
     2
100
AcDbLine
 10
-52.96496959431141
 20
10.91609922278661
 30
0.0
 11
-52.96496959431141
 21
13.18464344047411
 31
0.0
  0
LINE
  5
221
102
{ACAD_REACTORS
330
2F5
330
2F6
102
}
330
A8
100
AcDbEntity
  8
0
  6
Continuous
 62
     2
100
AcDbLine
 10
-52.96496959431141
 20
13.18464344047411
 30
0.0
 11
-52.15387055683891
 21
13.18464344047411
 31
0.0
  0
LINE
  5
222
102
{ACAD_REACTORS
330
2F5
330
2F6
102
}
330
A8
100
AcDbEntity
  8
0
  6
Continuous
 62
     2
100
AcDbLine
 10
-52.15387055683891
 20
13.18464344047411
 30
0.0
 11
-52.15387055683891
 21
13.9699087465977
 31
0.0
  0
LINE
  5
223
102
{ACAD_REACTORS
330
2F5
330
2F6
102
}
330
A8
100
AcDbEntity
  8
0
  6
Continuous
 62
     2
100
AcDbLine
 10
-52.15387055683891
 20
13.9699087465977
 30
0.0
 11
-54.96886133395253
 21
13.9699087465977
 31
0.0
  0
LINE
  5
224
102
{ACAD_REACTORS
330
2F5
330
2F6
102
}
330
A8
100
AcDbEntity
  8
0
  6
Continuous
 62
     2
100
AcDbLine
 10
-54.96886133395253
 20
13.18464344047411
 30
0.0
 11
-54.15776229647793
 21
13.18464344047411
 31
0.0
  0
LINE
  5
225
102
{ACAD_REACTORS
330
2F3
330
2F4
102
}
330
A8
100
AcDbEntity
  8
0
  6
Continuous
 62
     2
100
AcDbLine
 10
-51.35936473104152
 20
11.4570597670045
 30
0.0
 11
-50.22692315436771
 21
11.4570597670045
 31
0.0
  0
LINE
  5
226
102
{ACAD_REACTORS
330
2F3
330
2F4
102
}
330
A8
100
AcDbEntity
  8
0
  6
Continuous
 62
     2
100
AcDbLine
 10
-48.77493869063801
 20
10.91609922278661
 30
0.0
 11
-50.01544310089193
 21
10.91609922278661
 31
0.0
  0
LINE
  5
227
102
{ACAD_REACTORS
330
2F3
330
2F4
102
}
330
A8
100
AcDbEntity
  8
0
  6
Continuous
 62
     2
100
AcDbLine
 10
-51.41339614783101
 20
13.9699087465977
 30
0.0
 11
-52.81134919477032
 21
10.91609922278661
 31
0.0
  0
LINE
  5
228
102
{ACAD_REACTORS
330
2F3
330
2F4
102
}
330
A8
100
AcDbEntity
  8
0
  6
Continuous
 62
     2
100
AcDbLine
 10
-51.57084478451733
 20
10.91609922278661
 30
0.0
 11
-51.35936473104152
 21
11.4570597670045
 31
0.0
  0
LINE
  5
229
102
{ACAD_REACTORS
330
2F3
330
2F4
102
}
330
A8
100
AcDbEntity
  8
0
  6
Continuous
 62
     2
100
AcDbLine
 10
-51.09330917989652
 20
12.1376230323111
 30
0.0
 11
-50.79314394270412
 21
12.9054379982978
 31
0.0
  0
LINE
  5
22A
102
{ACAD_REACTORS
330
2F1
330
2F2
102
}
330
A8
100
AcDbEntity
  8
0
  6
Continuous
 62
     2
100
AcDbLine
 10
-49.62499909735891
 20
14.2752896989609
 30
0.0
 11
-49.62499909735891
 21
17.3290992227721
 31
0.0
  0
LINE
  5
22B
102
{ACAD_REACTORS
330
2F1
330
2F2
102
}
330
A8
100
AcDbEntity
  8
0
  6
Continuous
 62
     2
100
AcDbLine
 10
-48.38449468710601
 20
17.3290992227721
 30
0.0
 11
-48.38449468710601
 21
14.2752896989609
 31
0.0
  0
LINE
  5
22C
102
{ACAD_REACTORS
330
2F1
330
2F2
102
}
330
A8
100
AcDbEntity
  8
0
  6
Continuous
 62
     2
100
AcDbLine
 10
-49.62499909735891
 20
17.3290992227721
 30
0.0
 11
-48.38449468710601
 21
17.3290992227721
 31
0.0
  0
LINE
  5
22D
102
{ACAD_REACTORS
330
2EF
330
2F0
102
}
330
A8
100
AcDbEntity
  8
0
  6
Continuous
 62
     2
100
AcDbLine
 10
-46.16590026107522
 20
15.06302148425462
 30
0.0
 11
-45.46930932300973
 21
14.2752896989609
 31
0.0
  0
LINE
  5
22E
102
{ACAD_REACTORS
330
2EF
330
2F0
102
}
330
A8
100
AcDbEntity
  8
0
  6
Continuous
 62
     2
100
AcDbLine
 10
-45.46930932300973
 20
14.2752896989609
 30
0.0
 11
-44.06658510526142
 21
14.2752896989609
 31
0.0
  0
LINE
  5
22F
102
{ACAD_REACTORS
330
2EF
330
2F0
102
}
330
A8
100
AcDbEntity
  8
0
  6
Continuous
 62
     2
100
AcDbLine
 10
-45.46453815220173
 20
15.8561486927359
 30
0.0
 11
-44.06658510526142
 21
14.2752896989609
 31
0.0
  0
LINE
  5
230
102
{ACAD_REACTORS
330
2EF
330
2F0
102
}
330
A8
100
AcDbEntity
  8
0
  6
Continuous
 62
     2
100
AcDbLine
 10
-45.46453815220173
 20
15.8561486927359
 30
0.0
 11
-44.16200852143521
 21
17.3290992227721
 31
0.0
  0
LINE
  5
231
102
{ACAD_REACTORS
330
2EF
330
2F0
102
}
330
A8
100
AcDbEntity
  8
0
  6
Continuous
 62
     2
100
AcDbLine
 10
-46.16590026107522
 20
16.64927590121661
 30
0.0
 11
-45.56473273918243
 21
17.3290992227721
 31
0.0
  0
LINE
  5
232
102
{ACAD_REACTORS
330
2EF
330
2F0
102
}
330
A8
100
AcDbEntity
  8
0
  6
Continuous
 62
     2
100
AcDbLine
 10
-46.76706778296702
 20
17.3290992227721
 30
0.0
 11
-46.16590026107522
 21
16.64927590121661
 31
0.0
  0
LINE
  5
233
102
{ACAD_REACTORS
330
2EF
330
2F0
102
}
330
A8
100
AcDbEntity
  8
0
  6
Continuous
 62
     2
100
AcDbLine
 10
-46.76706778296702
 20
17.3290992227721
 30
0.0
 11
-48.16979200071631
 21
17.3290992227721
 31
0.0
  0
LINE
  5
234
102
{ACAD_REACTORS
330
2E5
330
2E6
102
}
330
A8
100
AcDbEntity
  8
0
  6
Continuous
 62
     2
100
AcDbLine
 10
-46.07047684490252
 20
10.91609922278661
 30
0.0
 11
-44.87768414273481
 21
10.91609922278661
 31
0.0
  0
LINE
  5
235
102
{ACAD_REACTORS
330
2E5
330
2E6
102
}
330
A8
100
AcDbEntity
  8
0
  6
Continuous
 62
     2
100
AcDbLine
 10
-44.87768414273481
 20
10.91609922278661
 30
0.0
 11
-44.87768414273481
 21
13.18464344047411
 31
0.0
  0
LINE
  5
236
102
{ACAD_REACTORS
330
2E5
330
2E6
102
}
330
A8
100
AcDbEntity
  8
0
  6
Continuous
 62
     2
100
AcDbLine
 10
-44.87768414273481
 20
13.18464344047411
 30
0.0
 11
-44.06658510526142
 21
13.18464344047411
 31
0.0
  0
LINE
  5
237
102
{ACAD_REACTORS
330
2E5
330
2E6
102
}
330
A8
100
AcDbEntity
  8
0
  6
Continuous
 62
     2
100
AcDbLine
 10
-44.06658510526142
 20
13.18464344047411
 30
0.0
 11
-44.06658510526142
 21
13.9699087465977
 31
0.0
  0
LINE
  5
238
102
{ACAD_REACTORS
330
2E5
330
2E6
102
}
330
A8
100
AcDbEntity
  8
0
  6
Continuous
 62
     2
100
AcDbLine
 10
-47.45153062389011
 20
13.96990874659721
 30
0.0
 11
-44.06658510526142
 21
13.9699087465977
 31
0.0
  0
LINE
  5
239
102
{ACAD_REACTORS
330
2E5
330
2E6
102
}
330
A8
100
AcDbEntity
  8
0
  6
Continuous
 62
     2
100
AcDbLine
 10
-46.07047684490252
 20
13.18464344047411
 30
0.0
 11
-46.07047684490252
 21
10.91609922278661
 31
0.0
  0
LINE
  5
23A
102
{ACAD_REACTORS
330
2E7
330
2E8
102
}
330
A8
100
AcDbEntity
  8
0
  6
Continuous
 62
     2
100
AcDbLine
 10
-68.69996328038172
 20
12.89497937235112
 30
0.0
 11
-68.69996328038172
 21
13.4768307790462
 31
0.0
  0
LINE
  5
23B
102
{ACAD_REACTORS
330
2E7
330
2E8
102
}
330
A8
100
AcDbEntity
  8
0
  6
Continuous
 62
     2
100
AcDbLine
 10
-68.69996328038172
 20
15.69511397898242
 30
0.0
 11
-68.69996328038172
 21
16.30064926748921
 31
0.0
  0
LINE
  5
23C
330
A8
100
AcDbEntity
  8
1
  6
Continuous
 62
     6
100
AcDbLine
 10
-90.1697846957785
 20
3.6225992227703
 30
0.0
 11
-76.21458922252853
 21
3.62259922277019
 31
0.0
  0
LINE
  5
23D
330
A8
100
AcDbEntity
  8
1
  6
Continuous
 62
     6
100
AcDbLine
 10
-140.1697846957787
 20
3.6225992227703
 30
0.0
 11
-145.2145892225285
 21
3.6225992227703
 31
0.0
  0
LINE
  5
23E
330
A8
100
AcDbEntity
  8
1
  6
Continuous
 62
     6
100
AcDbLine
 10
9.83021530422147
 20
3.6225992227703
 30
0.0
 11
53.33021530422148
 21
3.6225992227703
 31
0.0
  0
LINE
  5
23F
330
A8
100
AcDbEntity
  8
1
  6
Continuous
 62
     6
100
AcDbLine
 10
-40.16978469577853
 20
3.6225992227703
 30
0.0
 11
-58.01458922252851
 21
3.6225992227703
 31
0.0
  0
LINE
  5
240
330
A8
100
AcDbEntity
  8
1
  6
Continuous
 62
     2
100
AcDbLine
 10
53.33021530422148
 20
3.6225992227703
 30
0.0
 11
58.33021530422047
 21
3.6225992227703
 31
0.0
  0
LINE
  5
241
330
A8
100
AcDbEntity
  8
1
  6
Continuous
 62
     2
100
AcDbLine
 10
53.33021530422148
 20
3.6225992227703
 30
0.0
 11
53.33021530422148
 21
-1.37740077722981
 31
0.0
  0
LINE
  5
242
330
A8
100
AcDbEntity
  8
1
  6
Continuous
 62
     6
100
AcDbLine
 10
-76.21458922252853
 20
20.62259922277031
 30
0.0
 11
-39.81458922252861
 21
20.62259922277031
 31
0.0
  0
LINE
  5
243
330
A8
100
AcDbEntity
  8
1
  6
Continuous
 62
     2
100
AcDbLine
 10
58.33021530422047
 20
-1.37740077722981
 30
0.0
 11
58.33021530422047
 21
3.6225992227703
 31
0.0
  0
LINE
  5
244
330
A8
100
AcDbEntity
  8
1
  6
Continuous
 62
     2
100
AcDbLine
 10
58.33021530422047
 20
-1.37740077722981
 30
0.0
 11
53.33021530422148
 21
-1.37740077722981
 31
0.0
  0
LINE
  5
245
330
A8
100
AcDbEntity
  8
1
  6
Continuous
 62
     2
100
AcDbLine
 10
53.33021530422148
 20
-1.37740077722981
 30
0.0
 11
9.83021530422147
 21
-1.37740077722981
 31
0.0
  0
LINE
  5
246
330
A8
100
AcDbEntity
  8
1
  6
Continuous
 62
     6
100
AcDbLine
 10
53.33021530422317
 20
20.62259922277031
 30
0.0
 11
53.33021530422238
 21
53.62259922277042
 31
0.0
  0
LINE
  5
247
330
A8
100
AcDbEntity
  8
1
  6
Continuous
 62
     2
100
AcDbLine
 10
58.33021530422047
 20
208.6225992227703
 30
0.0
 11
-90.1697846957785
 21
208.6225992227703
 31
0.0
  0
LINE
  5
248
330
A8
100
AcDbEntity
  8
1
  6
Continuous
 62
     6
100
AcDbLine
 10
53.33021530422047
 20
188.6225992227703
 30
0.0
 11
-233.6697846957776
 21
188.6225992227703
 31
0.0
  0
LINE
  5
249
330
A8
100
AcDbEntity
  8
1
  6
Continuous
 62
     2
100
AcDbLine
 10
53.33021530422238
 20
53.62259922277042
 30
0.0
 11
58.33021530422047
 21
53.62259922277042
 31
0.0
  0
LINE
  5
24A
330
A8
100
AcDbEntity
  8
1
  6
Continuous
 62
     6
100
AcDbLine
 10
53.33021530422238
 20
53.62259922277042
 30
0.0
 11
53.33021530422188
 21
103.6225992227702
 31
0.0
  0
LINE
  5
24B
330
A8
100
AcDbEntity
  8
1
  6
Continuous
 62
     2
100
AcDbLine
 10
58.33021530422047
 20
53.62259922277042
 30
0.0
 11
58.33021530422047
 21
103.6225992227702
 31
0.0
  0
LINE
  5
24C
330
A8
100
AcDbEntity
  8
1
  6
Continuous
 62
     2
100
AcDbLine
 10
53.33021530422188
 20
103.6225992227702
 30
0.0
 11
58.33021530422047
 21
103.6225992227702
 31
0.0
  0
LINE
  5
24D
330
A8
100
AcDbEntity
  8
1
  6
Continuous
 62
     6
100
AcDbLine
 10
53.33021530422188
 20
103.6225992227702
 30
0.0
 11
53.33021530422067
 21
153.6225992227703
 31
0.0
  0
LINE
  5
24E
330
A8
100
AcDbEntity
  8
1
  6
Continuous
 62
     2
100
AcDbLine
 10
58.33021530422047
 20
103.6225992227702
 30
0.0
 11
58.33021530422047
 21
153.6225992227703
 31
0.0
  0
LINE
  5
24F
330
A8
100
AcDbEntity
  8
1
  6
Continuous
 62
     2
100
AcDbLine
 10
53.33021530422067
 20
153.6225992227703
 30
0.0
 11
58.33021530422047
 21
153.6225992227703
 31
0.0
  0
LINE
  5
250
330
A8
100
AcDbEntity
  8
1
  6
Continuous
 62
     6
100
AcDbLine
 10
53.33021530422067
 20
153.6225992227703
 30
0.0
 11
53.33021530422047
 21
188.6225992227703
 31
0.0
  0
LINE
  5
251
330
A8
100
AcDbEntity
  8
1
  6
Continuous
 62
     2
100
AcDbLine
 10
58.33021530422047
 20
153.6225992227703
 30
0.0
 11
58.33021530422047
 21
208.6225992227703
 31
0.0
  0
LINE
  5
252
330
A8
100
AcDbEntity
  8
1
  6
Continuous
 62
     2
100
AcDbLine
 10
58.33021530422047
 20
3.6225992227703
 30
0.0
 11
58.33021530422047
 21
53.62259922277042
 31
0.0
  0
LINE
  5
253
330
A8
100
AcDbEntity
  8
1
  6
Continuous
 62
     2
100
AcDbLine
 10
-90.1697846957785
 20
208.6225992227703
 30
0.0
 11
-238.6697846957776
 21
208.6225992227703
 31
0.0
  0
LINE
  5
254
330
A8
100
AcDbEntity
  8
1
  6
Continuous
 62
     2
100
AcDbLine
 10
-90.1697846957785
 20
208.6225992227703
 30
0.0
 11
-90.1697846957785
 21
199.413907378069
 31
0.0
  0
LINE
  5
255
330
A8
100
AcDbEntity
  8
1
  6
Continuous
 62
     2
100
AcDbLine
 10
-238.6697846957776
 20
-1.37740077722981
 30
0.0
 11
-233.6697846957766
 21
-1.37740077722981
 31
0.0
  0
LINE
  5
256
330
A8
100
AcDbEntity
  8
1
  6
Continuous
 62
     2
100
AcDbLine
 10
-238.6697846957776
 20
208.6225992227703
 30
0.0
 11
-238.6697846957776
 21
153.6225992227703
 31
0.0
  0
LINE
  5
257
330
A8
100
AcDbEntity
  8
1
  6
Continuous
 62
     6
100
AcDbLine
 10
-233.6697846957776
 20
188.6225992227703
 30
0.0
 11
-233.6697846957775
 21
153.6225992227703
 31
0.0
  0
LINE
  5
258
330
A8
100
AcDbEntity
  8
1
  6
Continuous
 62
     2
100
AcDbLine
 10
-238.6697846957776
 20
153.6225992227703
 30
0.0
 11
-233.6697846957775
 21
153.6225992227703
 31
0.0
  0
LINE
  5
259
330
A8
100
AcDbEntity
  8
1
  6
Continuous
 62
     2
100
AcDbLine
 10
-238.6697846957776
 20
153.6225992227703
 30
0.0
 11
-238.6697846957776
 21
103.6225992227702
 31
0.0
  0
LINE
  5
25A
330
A8
100
AcDbEntity
  8
1
  6
Continuous
 62
     6
100
AcDbLine
 10
-233.6697846957775
 20
153.6225992227703
 30
0.0
 11
-233.669784695777
 21
103.6225992227702
 31
0.0
  0
LINE
  5
25B
330
A8
100
AcDbEntity
  8
1
  6
Continuous
 62
     2
100
AcDbLine
 10
-238.6697846957776
 20
103.6225992227702
 30
0.0
 11
-233.669784695777
 21
103.6225992227702
 31
0.0
  0
LINE
  5
25C
330
A8
100
AcDbEntity
  8
1
  6
Continuous
 62
     2
100
AcDbLine
 10
-238.6697846957776
 20
103.6225992227702
 30
0.0
 11
-238.6697846957776
 21
53.62259922277042
 31
0.0
  0
LINE
  5
25D
330
A8
100
AcDbEntity
  8
1
  6
Continuous
 62
     6
100
AcDbLine
 10
-233.669784695777
 20
103.6225992227702
 30
0.0
 11
-233.6697846957768
 21
53.62259922277042
 31
0.0
  0
LINE
  5
25E
330
A8
100
AcDbEntity
  8
1
  6
Continuous
 62
     2
100
AcDbLine
 10
-238.6697846957776
 20
53.62259922277042
 30
0.0
 11
-233.6697846957768
 21
53.62259922277042
 31
0.0
  0
LINE
  5
25F
330
A8
100
AcDbEntity
  8
1
  6
Continuous
 62
     2
100
AcDbLine
 10
-238.6697846957776
 20
53.62259922277042
 30
0.0
 11
-238.6697846957776
 21
3.6225992227703
 31
0.0
  0
LINE
  5
260
330
A8
100
AcDbEntity
  8
1
  6
Continuous
 62
     6
100
AcDbLine
 10
-233.6697846957768
 20
53.62259922277042
 30
0.0
 11
-233.6697846957766
 21
3.6225992227703
 31
0.0
  0
LINE
  5
261
330
A8
100
AcDbEntity
  8
1
  6
Continuous
 62
     2
100
AcDbLine
 10
-190.1697846957785
 20
-1.37740077722981
 30
0.0
 11
-190.1697846957785
 21
3.6225992227703
 31
0.0
  0
LINE
  5
262
330
A8
100
AcDbEntity
  8
1
  6
Continuous
 62
     2
100
AcDbLine
 10
-190.1697846957785
 20
-1.37740077722981
 30
0.0
 11
-140.1697846957787
 21
-1.37740077722981
 31
0.0
  0
LINE
  5
263
330
A8
100
AcDbEntity
  8
1
  6
Continuous
 62
     2
100
AcDbLine
 10
-140.1697846957787
 20
-1.37740077722981
 30
0.0
 11
-140.1697846957787
 21
3.6225992227703
 31
0.0
  0
LINE
  5
264
330
A8
100
AcDbEntity
  8
1
  6
Continuous
 62
     2
100
AcDbLine
 10
-140.1697846957787
 20
-1.37740077722981
 30
0.0
 11
-90.1697846957785
 21
-1.37740077722981
 31
0.0
  0
LINE
  5
265
330
A8
100
AcDbEntity
  8
1
  6
Continuous
 62
     2
100
AcDbLine
 10
-90.1697846957785
 20
-1.37740077722981
 30
0.0
 11
-90.1697846957785
 21
3.6225992227703
 31
0.0
  0
LINE
  5
266
330
A8
100
AcDbEntity
  8
1
  6
Continuous
 62
     2
100
AcDbLine
 10
-90.1697846957785
 20
-1.37740077722981
 30
0.0
 11
-40.16978469577853
 21
-1.37740077722981
 31
0.0
  0
LINE
  5
267
330
A8
100
AcDbEntity
  8
1
  6
Continuous
 62
     2
100
AcDbLine
 10
-40.16978469577853
 20
-1.37740077722981
 30
0.0
 11
-40.16978469577853
 21
3.6225992227703
 31
0.0
  0
LINE
  5
268
330
A8
100
AcDbEntity
  8
1
  6
Continuous
 62
     2
100
AcDbLine
 10
9.83021530422147
 20
-1.37740077722981
 30
0.0
 11
9.83021530422147
 21
3.6225992227703
 31
0.0
  0
LINE
  5
269
330
A8
100
AcDbEntity
  8
1
  6
Continuous
 62
     2
100
AcDbLine
 10
9.83021530422147
 20
-1.37740077722981
 30
0.0
 11
-40.16978469577853
 21
-1.37740077722981
 31
0.0
  0
LINE
  5
26A
330
A8
100
AcDbEntity
  8
1
  6
Continuous
 62
     2
100
AcDbLine
 10
-233.6697846957766
 20
3.6225992227703
 30
0.0
 11
-233.6697846957766
 21
-1.37740077722981
 31
0.0
  0
LINE
  5
26B
330
A8
100
AcDbEntity
  8
1
  6
Continuous
 62
     2
100
AcDbLine
 10
-233.6697846957766
 20
-1.37740077722981
 30
0.0
 11
-190.1697846957785
 21
-1.37740077722981
 31
0.0
  0
LINE
  5
26C
330
A8
100
AcDbEntity
  8
1
  6
Continuous
 62
     2
100
AcDbLine
 10
-233.6697846957766
 20
3.6225992227703
 30
0.0
 11
-238.6697846957776
 21
3.6225992227703
 31
0.0
  0
LINE
  5
26D
330
A8
100
AcDbEntity
  8
1
  6
Continuous
 62
     2
100
AcDbLine
 10
-238.6697846957776
 20
3.6225992227703
 30
0.0
 11
-238.6697846957776
 21
-1.37740077722981
 31
0.0
  0
LINE
  5
26E
330
A8
100
AcDbEntity
  8
1
  6
Continuous
 62
     6
100
AcDbLine
 10
53.33021530422148
 20
3.6225992227703
 30
0.0
 11
53.33021530422278
 21
12.12259922277031
 31
0.0
  0
LINE
  5
26F
330
A8
100
AcDbEntity
  8
1
  6
Continuous
 62
     6
100
AcDbLine
 10
-39.81458922252861
 20
3.62259922277019
 30
0.0
 11
9.83021530422147
 21
3.6225992227703
 31
0.0
  0
LINE
  5
270
330
A8
100
AcDbEntity
  8
1
  6
Continuous
 62
     6
100
AcDbLine
 10
-192.4697846957787
 20
3.62259922277019
 30
0.0
 11
-190.1697846957785
 21
3.6225992227703
 31
0.0
  0
LINE
  5
271
330
A8
100
AcDbEntity
  8
1
  6
Continuous
 62
     6
100
AcDbLine
 10
-90.1697846957785
 20
3.6225992227703
 30
0.0
 11
-140.1697846957787
 21
3.6225992227703
 31
0.0
  0
LINE
  5
272
330
A8
100
AcDbEntity
  8
1
  6
Continuous
 62
     7
100
AcDbLine
 10
-76.21458922252853
 20
20.62259922277031
 30
0.0
 11
-76.21458922252853
 21
7.87259922277019
 31
0.0
  0
LINE
  5
273
330
A8
100
AcDbEntity
  8
1
  6
Continuous
 62
     7
100
AcDbLine
 10
-39.81458922252861
 20
20.62259922277031
 30
0.0
 11
-39.81458922252861
 21
7.87259922277031
 31
0.0
  0
LINE
  5
274
330
A8
100
AcDbEntity
  8
1
  6
Continuous
 62
     6
100
AcDbLine
 10
-192.4697846957787
 20
3.62259922277019
 30
0.0
 11
-198.6697846957767
 21
3.6225992227703
 31
0.0
  0
LINE
  5
275
330
A8
100
AcDbEntity
  8
1
  6
Continuous
 62
     6
100
AcDbLine
 10
-39.81458922252861
 20
3.62259922277019
 30
0.0
 11
-40.16978469577853
 21
3.6225992227703
 31
0.0
  0
LINE
  5
276
330
A8
100
AcDbEntity
  8
1
  6
Continuous
 62
     6
100
AcDbLine
 10
53.33021530422317
 20
20.62259922277031
 30
0.0
 11
53.33021530422278
 21
12.12259922277031
 31
0.0
  0
LINE
  5
277
330
A8
100
AcDbEntity
  8
1
  6
Continuous
 62
     6
100
AcDbLine
 10
-198.6697846957767
 20
3.6225992227703
 30
0.0
 11
-233.6697846957766
 21
3.6225992227703
 31
0.0
  0
LINE
  5
278
330
A8
100
AcDbEntity
  8
1
  6
Continuous
 62
     2
100
AcDbLine
 10
-71.97793433596593
 20
25.99759922277022
 30
0.0
 11
-66.97793433596593
 21
27.24759922277022
 31
0.0
  0
LINE
  5
279
330
A8
100
AcDbEntity
  8
1
  6
Continuous
 62
     2
100
AcDbLine
 10
-71.97793433596593
 20
23.49759922277022
 30
0.0
 11
-71.97793433596593
 21
25.99759922277022
 31
0.0
  0
LINE
  5
27A
330
A8
100
AcDbEntity
  8
1
  6
Continuous
 62
     2
100
AcDbLine
 10
-66.97793433596593
 20
22.24759922277022
 30
0.0
 11
-71.97793433596593
 21
23.49759922277022
 31
0.0
  0
LINE
  5
27B
330
A8
100
AcDbEntity
  8
1
  6
Continuous
 62
     2
100
AcDbLine
 10
-66.97793433596593
 20
27.24759922277022
 30
0.0
 11
-66.97793433596593
 21
22.24759922277022
 31
0.0
  0
LINE
  5
27C
330
A8
100
AcDbEntity
  8
1
  6
Continuous
 62
     7
100
AcDbLine
 10
-76.21458922252853
 20
7.87259922277019
 30
0.0
 11
-58.01458922252851
 21
7.87259922277031
 31
0.0
  0
LINE
  5
27D
330
A8
100
AcDbEntity
  8
1
  6
Continuous
 62
     7
100
AcDbLine
 10
-76.21458922252853
 20
7.87259922277019
 30
0.0
 11
-76.21458922252853
 21
3.62259922277019
 31
0.0
  0
LINE
  5
27E
330
A8
100
AcDbEntity
  8
1
  6
Continuous
 62
     7
100
AcDbLine
 10
-39.81458922252861
 20
7.87259922277031
 30
0.0
 11
-39.81458922252861
 21
3.62259922277019
 31
0.0
  0
LINE
  5
27F
330
A8
100
AcDbEntity
  8
1
  6
Continuous
 62
     7
100
AcDbLine
 10
-58.01458922252851
 20
7.87259922277031
 30
0.0
 11
-58.01458922252851
 21
3.6225992227703
 31
0.0
  0
LINE
  5
280
330
A8
100
AcDbEntity
  8
1
  6
Continuous
 62
     6
100
AcDbLine
 10
-58.01458922252851
 20
3.6225992227703
 30
0.0
 11
-76.21458922252853
 21
3.62259922277019
 31
0.0
  0
LINE
  5
281
330
A8
100
AcDbEntity
  8
1
  6
Continuous
 62
     7
100
AcDbLine
 10
-58.01458922252851
 20
7.87259922277031
 30
0.0
 11
-39.81458922252861
 21
7.87259922277031
 31
0.0
  0
LINE
  5
282
330
A8
100
AcDbEntity
  8
1
  6
Continuous
 62
     6
100
AcDbLine
 10
-76.21458922252853
 20
29.12259922277031
 30
0.0
 11
53.33021530422317
 21
29.12259922277031
 31
0.0
  0
ARC
  5
283
102
{ACAD_REACTORS
330
2EB
330
2EC
102
}
330
A8
100
AcDbEntity
  8
0
  6
Continuous
 62
     2
100
AcDbCircle
 10
-60.82294122356853
 20
12.4430039846919
 30
0.0
 40
0.7717997786796846
100
AcDbArc
 50
321.8795802028409
 51
38.12041979715362
  0
ARC
  5
284
102
{ACAD_REACTORS
330
2EB
330
2EC
102
}
330
A8
100
AcDbEntity
  8
0
  6
Continuous
 62
     2
100
AcDbCircle
 10
-60.62320118722212
 20
12.2862728065719
 30
0.0
 40
0.5179085730137287
100
AcDbArc
 50
218.1204197971935
 51
321.8795802028007
  0
ARC
  5
285
102
{ACAD_REACTORS
330
2EB
330
2EC
102
}
330
A8
100
AcDbEntity
  8
0
  6
Continuous
 62
     2
100
AcDbCircle
 10
-60.42346115087602
 20
12.4430039846919
 30
0.0
 40
0.7717997786794544
100
AcDbArc
 50
141.8795802028363
 51
218.1204197971691
  0
ARC
  5
286
102
{ACAD_REACTORS
330
2EB
330
2EC
102
}
330
A8
100
AcDbEntity
  8
0
  6
Continuous
 62
     2
100
AcDbCircle
 10
-60.62320118722212
 20
12.59973516281241
 30
0.0
 40
0.517908573013291
100
AcDbArc
 50
38.12041979714706
 51
141.8795802028588
  0
ARC
  5
287
102
{ACAD_REACTORS
330
2E3
330
2E4
102
}
330
A8
100
AcDbEntity
  8
0
  6
Continuous
 62
     2
100
AcDbCircle
 10
-63.68521532278601
 20
11.03253761928372
 30
0.0
 40
2.227384008973474
100
AcDbArc
 50
58.06909105004068
 51
71.55192388186705
  0
ARC
  5
288
102
{ACAD_REACTORS
330
2E3
330
2E4
102
}
330
A8
100
AcDbEntity
  8
0
  6
Continuous
 62
     2
100
AcDbCircle
 10
-63.42348762182724
 20
12.6480754140309
 30
0.0
 40
0.5115800601948751
100
AcDbArc
 50
113.3722778881984
 51
151.4785267423041
  0
ARC
  5
289
102
{ACAD_REACTORS
330
2E3
330
2E4
102
}
330
A8
100
AcDbEntity
  8
0
  6
Continuous
 62
     2
100
AcDbCircle
 10
-63.04613036374693
 20
12.4430039846919
 30
0.0
 40
0.9410597353332483
100
AcDbArc
 50
151.4785267422667
 51
208.521473257706
  0
ARC
  5
28A
102
{ACAD_REACTORS
330
2E3
330
2E4
102
}
330
A8
100
AcDbEntity
  8
0
  6
Continuous
 62
     2
100
AcDbCircle
 10
-63.84308819787893
 20
15.7556849299483
 30
0.0
 40
4.852596863498134
100
AcDbArc
 50
275.1581447696249
 51
285.9799912583529
  0
ARC
  5
28B
102
{ACAD_REACTORS
330
2E3
330
2E4
102
}
330
A8
100
AcDbEntity
  8
0
  6
Continuous
 62
     2
100
AcDbCircle
 10
-63.55423210314302
 20
12.55579434672671
 30
0.0
 40
1.639695123939387
100
AcDbArc
 50
195.0618917770895
 51
275.1581447696393
  0
ARC
  5
28C
102
{ACAD_REACTORS
330
2E3
330
2E4
102
}
330
A8
100
AcDbEntity
  8
0
  6
Continuous
 62
     2
100
AcDbCircle
 10
-63.97335994660583
 20
12.4430039846919
 30
0.0
 40
1.205656168390937
100
AcDbArc
 50
164.9381082228765
 51
195.0618917770951
  0
ARC
  5
28D
102
{ACAD_REACTORS
330
2E3
330
2E4
102
}
330
A8
100
AcDbEntity
  8
0
  6
Continuous
 62
     2
100
AcDbCircle
 10
-63.55423210314302
 20
12.330213622657
 30
0.0
 40
1.639695123940504
100
AcDbArc
 50
84.8418552303626
 51
164.9381082228865
  0
ARC
  5
28E
102
{ACAD_REACTORS
330
2E7
330
2E8
102
}
330
A8
100
AcDbEntity
  8
0
  6
Continuous
 62
     2
100
AcDbCircle
 10
-68.38424635730493
 20
13.4768307790462
 30
0.0
 40
0.3157169230765344
100
AcDbArc
 50
115.3740086783517
 51
180.0
  0
ARC
  5
28F
102
{ACAD_REACTORS
330
2E7
330
2E8
102
}
330
A8
100
AcDbEntity
  8
0
  6
Continuous
 62
     2
100
AcDbCircle
 10
-68.38424635730493
 20
15.69511397898242
 30
0.0
 40
0.315716923076792
100
AcDbArc
 50
180.0
 51
244.6259913216483
  0
ARC
  5
290
102
{ACAD_REACTORS
330
2E7
330
2E8
102
}
330
A8
100
AcDbEntity
  8
0
  6
Continuous
 62
     2
100
AcDbCircle
 10
-68.37863022199491
 20
14.5978143199201
 30
0.0
 40
2.018561131933257
100
AcDbArc
 50
269.8110329575858
 51
90.18896704241416
  0
ARC
  5
291
102
{ACAD_REACTORS
330
2E7
330
2E8
102
}
330
A8
100
AcDbEntity
  8
0
  6
Continuous
 62
     2
100
AcDbCircle
 10
-68.38424635730493
 20
12.89497937235112
 30
0.0
 40
0.315716923076792
100
AcDbArc
 50
180.0
 51
269.8110329574542
  0
ARC
  5
292
102
{ACAD_REACTORS
330
2E5
330
2E6
102
}
330
A8
100
AcDbEntity
  8
0
  6
Continuous
 62
     2
100
AcDbCircle
 10
-47.32078614257432
 20
12.6480754140309
 30
0.0
 40
0.5115800601944093
100
AcDbArc
 50
109.3371432194855
 51
151.4785267424228
  0
ARC
  5
293
102
{ACAD_REACTORS
330
2E5
330
2E6
102
}
330
A8
100
AcDbEntity
  8
0
  6
Continuous
 62
     2
100
AcDbCircle
 10
-47.32078614257432
 20
12.23793255535341
 30
0.0
 40
0.5115800601960208
100
AcDbArc
 50
208.5214732576864
 51
246.6277221118454
  0
ARC
  5
294
102
{ACAD_REACTORS
330
2E5
330
2E6
102
}
330
A8
100
AcDbEntity
  8
0
  6
Continuous
 62
     2
100
AcDbCircle
 10
-47.87065846735172
 20
12.4430039846919
 30
0.0
 40
1.205656168393002
100
AcDbArc
 50
164.9381082229029
 51
195.0618917770958
  0
ARC
  5
295
102
{ACAD_REACTORS
330
2E5
330
2E6
102
}
330
A8
100
AcDbEntity
  8
0
  6
Continuous
 62
     2
100
AcDbCircle
 10
-47.45153062389011
 20
12.330213622657
 30
0.0
 40
1.639695123940209
100
AcDbArc
 50
90.0
 51
164.938108222895
  0
ARC
  5
296
102
{ACAD_REACTORS
330
2E9
330
2EA
102
}
330
A8
100
AcDbEntity
  8
0
  6
Continuous
 62
     2
100
AcDbCircle
 10
-56.87852571659383
 20
15.80219446086622
 30
0.0
 40
1.526904761905881
100
AcDbArc
 50
90.0
 51
270.0
  0
ARC
  5
297
102
{ACAD_REACTORS
330
2ED
330
2EE
102
}
330
A8
100
AcDbEntity
  8
0
  6
Continuous
 62
     2
100
AcDbCircle
 10
-63.62121646181961
 20
16.31312955266091
 30
0.0
 40
0.35286382467112
100
AcDbArc
 50
270.0
 51
90.0
  0
ARC
  5
298
102
{ACAD_REACTORS
330
2E7
330
2E8
102
}
330
A8
100
AcDbEntity
  8
0
  6
Continuous
 62
     2
100
AcDbCircle
 10
-70.95979504383664
 20
16.30082674413731
 30
0.0
 40
0.3157169230761987
100
AcDbArc
 50
90.0
 51
180.0
  0
ARC
  5
299
102
{ACAD_REACTORS
330
2E7
330
2E8
102
}
330
A8
100
AcDbEntity
  8
0
  6
Continuous
 62
     2
100
AcDbCircle
 10
-68.96137733525202
 20
14.58597237901461
 30
0.0
 40
0.9118975235576114
100
AcDbArc
 50
115.1944106485283
 51
244.8055893514877
  0
ARC
  5
29A
102
{ACAD_REACTORS
330
2E7
330
2E8
102
}
330
A8
100
AcDbEntity
  8
0
  6
Continuous
 62
     2
100
AcDbCircle
 10
-69.48396178282701
 20
13.47514263295182
 30
0.0
 40
0.315716923076593
100
AcDbArc
 50
0.0
 51
64.80558935146027
  0
ARC
  5
29B
102
{ACAD_REACTORS
330
2E7
330
2E8
102
}
330
A8
100
AcDbEntity
  8
0
  6
Continuous
 62
     2
100
AcDbCircle
 10
-71.55368972058312
 20
11.3403438381699
 30
0.0
 40
0.4242446153828041
100
AcDbArc
 50
180.0
 51
270.0
  0
ARC
  5
29C
102
{ACAD_REACTORS
330
2E9
330
2EA
102
}
330
A8
100
AcDbEntity
  8
0
  6
Continuous
 62
     2
100
AcDbCircle
 10
-56.66225370642863
 20
15.9589256389867
 30
0.0
 40
0.5179085730135277
100
AcDbArc
 50
38.12041979714349
 51
141.8795802028488
  0
ARC
  5
29D
102
{ACAD_REACTORS
330
2E9
330
2EA
102
}
330
A8
100
AcDbEntity
  8
0
  6
Continuous
 62
     2
100
AcDbCircle
 10
-56.46251367008233
 20
15.80219446086622
 30
0.0
 40
0.7717997786796735
100
AcDbArc
 50
141.8795802028403
 51
218.120419797156
  0
ARC
  5
29E
102
{ACAD_REACTORS
330
2EB
330
2EC
102
}
330
A8
100
AcDbEntity
  8
0
  6
Continuous
 62
     2
100
AcDbCircle
 10
-60.62320118722212
 20
12.9815789949952
 30
0.0
 40
2.065479772208505
100
AcDbArc
 50
242.4518518243401
 51
297.5481481756871
  0
ARC
  5
29F
102
{ACAD_REACTORS
330
2EB
330
2EC
102
}
330
A8
100
AcDbEntity
  8
0
  6
Continuous
 62
     2
100
AcDbCircle
 10
-60.62320118722212
 20
11.90442897438911
 30
0.0
 40
2.065479772208566
100
AcDbArc
 50
62.45185182430634
 51
117.5481481756664
  0
ARC
  5
2A0
102
{ACAD_REACTORS
330
2EB
330
2EC
102
}
330
A8
100
AcDbEntity
  8
0
  6
Continuous
 62
     2
100
AcDbCircle
 10
-60.90414107905542
 20
12.4430039846919
 30
0.0
 40
1.45803408365149
100
AcDbArc
 50
117.5481481756624
 51
242.4518518243376
  0
ARC
  5
2A1
102
{ACAD_REACTORS
330
2EB
330
2EC
102
}
330
A8
100
AcDbEntity
  8
0
  6
Continuous
 62
     2
100
AcDbCircle
 10
-60.34226129538882
 20
12.4430039846919
 30
0.0
 40
1.458034083652004
100
AcDbArc
 50
297.548148175701
 51
62.45185182429896
  0
ARC
  5
2A2
102
{ACAD_REACTORS
330
2E9
330
2EA
102
}
330
A8
100
AcDbEntity
  8
0
  6
Continuous
 62
     2
100
AcDbCircle
 10
-56.66225370642863
 20
15.64546328274579
 30
0.0
 40
0.5179085730134316
100
AcDbArc
 50
218.1204197971503
 51
321.8795802028574
  0
ARC
  5
2A3
102
{ACAD_REACTORS
330
2E9
330
2EA
102
}
330
A8
100
AcDbEntity
  8
0
  6
Continuous
 62
     2
100
AcDbCircle
 10
-56.86199374277481
 20
15.80219446086622
 30
0.0
 40
0.7717997786796296
100
AcDbArc
 50
321.8795802028436
 51
38.12041979716
  0
ARC
  5
2A4
102
{ACAD_REACTORS
330
2E7
330
2E8
102
}
330
A8
100
AcDbEntity
  8
0
  6
Continuous
 62
     2
100
AcDbCircle
 10
-66.08037762986632
 20
11.3403438381699
 30
0.0
 40
0.4242446153832908
100
AcDbArc
 50
270.0
 51
0.0
  0
ARC
  5
2A5
102
{ACAD_REACTORS
330
2E7
330
2E8
102
}
330
A8
100
AcDbEntity
  8
0
  6
Continuous
 62
     2
100
AcDbCircle
 10
-66.08037762986632
 20
16.90485460737011
 30
0.0
 40
0.4242446153838841
100
AcDbArc
 50
0.0
 51
90.0
  0
ARC
  5
2A6
102
{ACAD_REACTORS
330
2E7
330
2E8
102
}
330
A8
100
AcDbEntity
  8
0
  6
Continuous
 62
     2
100
AcDbCircle
 10
-71.55368972058312
 20
16.90485460737011
 30
0.0
 40
0.4242446153838024
100
AcDbArc
 50
90.0
 51
180.0
  0
ARC
  5
2A7
102
{ACAD_REACTORS
330
2E7
330
2E8
102
}
330
A8
100
AcDbEntity
  8
0
  6
Continuous
 62
     2
100
AcDbCircle
 10
-69.48396178282701
 20
11.94437170142021
 30
0.0
 40
0.3157169230767085
100
AcDbArc
 50
270.0
 51
0.0
  0
ARC
  5
2A8
102
{ACAD_REACTORS
330
2E7
330
2E8
102
}
330
A8
100
AcDbEntity
  8
0
  6
Continuous
 62
     2
100
AcDbCircle
 10
-69.48396178282701
 20
15.6968021250768
 30
0.0
 40
0.3157169230761203
100
AcDbArc
 50
295.1944106485397
 51
0.0
  0
ARC
  5
2A9
102
{ACAD_REACTORS
330
2E7
330
2E8
102
}
330
A8
100
AcDbEntity
  8
0
  6
Continuous
 62
     2
100
AcDbCircle
 10
-69.48396178282701
 20
16.30082674413731
 30
0.0
 40
0.315716923076593
100
AcDbArc
 50
0.0
 51
90.0
  0
ARC
  5
2AA
102
{ACAD_REACTORS
330
2E7
330
2E8
102
}
330
A8
100
AcDbEntity
  8
0
  6
Continuous
 62
     2
100
AcDbCircle
 10
-70.95979504383664
 20
11.94437170142021
 30
0.0
 40
0.3157169230756836
100
AcDbArc
 50
180.0
 51
270.0
  0
ARC
  5
2AB
102
{ACAD_REACTORS
330
2ED
330
2EE
102
}
330
A8
100
AcDbEntity
  8
0
  6
Continuous
 62
     2
100
AcDbCircle
 10
-63.17974393558123
 20
16.27373358143842
 30
0.0
 40
1.055365641333712
100
AcDbArc
 50
270.0
 51
90.0
  0
ARC
  5
2AC
102
{ACAD_REACTORS
330
2E5
330
2E6
102
}
330
A8
100
AcDbEntity
  8
0
  6
Continuous
 62
     2
100
AcDbCircle
 10
-47.45153062389011
 20
12.55579434672671
 30
0.0
 40
1.639695123940446
100
AcDbArc
 50
195.0618917771009
 51
275.1581447696762
  0
ARC
  5
2AD
102
{ACAD_REACTORS
330
2E5
330
2E6
102
}
330
A8
100
AcDbEntity
  8
0
  6
Continuous
 62
     2
100
AcDbCircle
 10
-47.74038671862593
 20
15.7556849299483
 30
0.0
 40
4.852596863498825
100
AcDbArc
 50
275.1581447696364
 51
285.9799912583387
  0
ARC
  5
2AE
102
{ACAD_REACTORS
330
2E5
330
2E6
102
}
330
A8
100
AcDbEntity
  8
0
  6
Continuous
 62
     2
100
AcDbCircle
 10
-47.58251384353312
 20
13.8534703501
 30
0.0
 40
2.227384008972746
100
AcDbArc
 50
288.4480761181335
 51
301.9309089499397
  0
ARC
  5
2AF
102
{ACAD_REACTORS
330
2E5
330
2E6
102
}
330
A8
100
AcDbEntity
  8
0
  6
Continuous
 62
     2
100
AcDbCircle
 10
-47.16434610987122
 20
12.59992457406341
 30
0.0
 40
0.905929784985274
100
AcDbArc
 50
246.6277221118186
 51
288.4480761180818
  0
ARC
  5
2B0
102
{ACAD_REACTORS
330
2E5
330
2E6
102
}
330
A8
100
AcDbEntity
  8
0
  6
Continuous
 62
     2
100
AcDbCircle
 10
-46.94342888449293
 20
12.4430039846919
 30
0.0
 40
0.9410597353348907
100
AcDbArc
 50
151.4785267423626
 51
208.5214732576695
  0
ARC
  5
2B1
102
{ACAD_REACTORS
330
2E5
330
2E6
102
}
330
A8
100
AcDbEntity
  8
0
  6
Continuous
 62
     2
100
AcDbCircle
 10
-47.17411614447062
 20
12.23012043364801
 30
0.0
 40
0.9545230068261006
100
AcDbArc
 50
90.0
 51
109.337143219432
  0
ARC
  5
2B2
102
{ACAD_REACTORS
330
2E7
330
2E8
102
}
330
A8
100
AcDbEntity
  8
0
  6
Continuous
 62
     2
100
AcDbCircle
 10
-68.38424635730493
 20
16.30064926748921
 30
0.0
 40
0.315716923076064
100
AcDbArc
 50
90.18896704254594
 51
180.0
  0
ARC
  5
2B3
102
{ACAD_REACTORS
330
2E7
330
2E8
102
}
330
A8
100
AcDbEntity
  8
0
  6
Continuous
 62
     2
100
AcDbCircle
 10
-68.91028905539281
 20
14.58597237901461
 30
0.0
 40
0.9118481501444573
100
AcDbArc
 50
295.3740086781765
 51
64.62599132180733
  0
ARC
  5
2B4
102
{ACAD_REACTORS
330
2E3
330
2E4
102
}
330
A8
100
AcDbEntity
  8
0
  6
Continuous
 62
     2
100
AcDbCircle
 10
-63.68521532278601
 20
13.85347035010059
 30
0.0
 40
2.227384008972739
100
AcDbArc
 50
288.448076118133
 51
301.9309089499593
  0
ARC
  5
2B5
102
{ACAD_REACTORS
330
2E3
330
2E4
102
}
330
A8
100
AcDbEntity
  8
0
  6
Continuous
 62
     2
100
AcDbCircle
 10
-63.26704758912521
 20
12.59992457406341
 30
0.0
 40
0.905929784984916
100
AcDbArc
 50
246.6277221118709
 51
288.4480761181588
  0
ARC
  5
2B6
102
{ACAD_REACTORS
330
2E3
330
2E4
102
}
330
A8
100
AcDbEntity
  8
0
  6
Continuous
 62
     2
100
AcDbCircle
 10
-63.42348762182724
 20
12.23793255535341
 30
0.0
 40
0.5115800601947972
100
AcDbArc
 50
208.5214732576959
 51
246.6277221118279
  0
ARC
  5
2B7
102
{ACAD_REACTORS
330
2E3
330
2E4
102
}
330
A8
100
AcDbEntity
  8
0
  6
Continuous
 62
     2
100
AcDbCircle
 10
-63.26704758912521
 20
12.2860833953203
 30
0.0
 40
0.9059297849853335
100
AcDbArc
 50
71.55192388185323
 51
113.3722778881288
  0
ARC
  5
2B8
102
{ACAD_REACTORS
330
2E3
330
2E4
102
}
330
A8
100
AcDbEntity
  8
0
  6
Continuous
 62
     2
100
AcDbCircle
 10
-63.84308819787893
 20
9.13032303943601
 30
0.0
 40
4.852596863498066
100
AcDbArc
 50
74.02000874164737
 51
84.84185523037515
  0
CIRCLE
  5
2B9
102
{ACAD_REACTORS
330
2E7
330
2E8
102
}
330
A8
100
AcDbEntity
  8
0
  6
Continuous
 62
     2
100
AcDbCircle
 10
-68.93410407006562
 20
14.58597237901461
 30
0.0
 40
0.4709789327785074
  0
CIRCLE
  5
2BA
330
A8
100
AcDbEntity
  8
1
  6
Continuous
 62
     2
100
AcDbCircle
 10
-63.47793433596593
 20
24.74759922277022
 30
0.0
 40
1.249999999999915
  0
CIRCLE
  5
2BB
330
A8
100
AcDbEntity
  8
1
  6
Continuous
 62
     2
100
AcDbCircle
 10
-63.47793433596593
 20
24.74759922277022
 30
0.0
 40
2.5
  0
TEXT
  5
2BC
330
A8
100
AcDbEntity
  8
1
 62
     7
100
AcDbText
 10
-20.84104150051473
 20
21.9225992227702
 30
0.0
 40
2.5
  1
/
 41
0.9
  7
CONVERTER_11
100
AcDbText
  0
TEXT
  5
2BE
330
A8
100
AcDbEntity
  8
1
 62
     7
100
AcDbText
 10
-18.68467700347273
 20
21.9225992227702
 30
0.0
 40
2.5
  1
01
 41
0.81
  7
CONVERTER_12
100
AcDbText
  0
TEXT
  5
2BF
330
A8
100
AcDbEntity
  8
1
 62
     3
100
AcDbText
 10
18.91180702254437
 20
21.9225992227702
 30
0.0
 40
2.5
  1
13.01.2018
 41
0.81
  7
CONVERTER_12
100
AcDbText
  0
MTEXT
  5
2C0
330
A8
100
AcDbEntity
  8
1
 62
     2
100
AcDbMText
 10
18.91180702254437
 20
28.12259922277022
 30
0.0
 40
1.8
 41
0.0
 71
     1
 72
     1
  1
date
  7
CONVERTER_11
 73
     1
 44
1.32052821128451
  0
MTEXT
  5
2C1
330
A8
100
AcDbEntity
  8
1
 62
     2
100
AcDbMText
 10
-10.91458922252852
 20
19.62259922277022
 30
0.0
 40
1.8
 41
0.0
 71
     1
 72
     1
  1
document-type
  7
CONVERTER_11
 73
     1
 44
1.20048019207683
  0
TEXT
  5
2C2
330
A8
100
AcDbEntity
  8
1
 62
     3
100
AcDbText
 10
-10.91458922252852
 20
13.4225992227702
 30
0.0
 40
2.5
  1
TECDOC 2D_Productdrawing
 41
0.81
  7
CONVERTER_12
100
AcDbText
  0
MTEXT
  5
2C4
330
A8
100
AcDbEntity
  8
1
 62
     2
100
AcDbMText
 10
-38.71458922252853
 20
28.12259922277031
 30
0.0
 40
1.8
 41
0.0
 71
     1
 72
     1
  1
document-No. / RI
  7
CONVERTER_13
 73
     1
 44
1.32052821128451
  0
TEXT
  5
2C5
330
A8
100
AcDbEntity
  8
1
 62
     7
100
AcDbText
 10
-38.71458922252853
 20
21.9225992227702
 30
0.0
 40
2.5
  1
00752103
 41
0.81
  7
CONVERTER_12
100
AcDbText
  0
MTEXT
  5
2C7
330
A8
100
AcDbEntity
  8
1
 62
     3
100
AcDbMText
 10
48.87101116338378
 20
21.9225992227704
 30
0.0
 40
2.5
 41
0.0
 71
     8
 72
     1
  1
2:1
  7
CONVERTER_14
 73
     1
 44
1.32052821128451
  0
MTEXT
  5
2C8
330
A8
100
AcDbEntity
  8
1
 62
     2
100
AcDbMText
 10
45.51180702254419
 20
28.12259922277031
 30
0.0
 40
1.8
 41
0.0
 71
     1
 72
     1
  1
scale
  7
CONVERTER_11
 73
     1
 44
1.20048019207683
  0
MTEXT
  5
2C9
330
A8
100
AcDbEntity
  8
1
 62
     2
100
AcDbMText
 10
-38.71458922252853
 20
19.62259922277031
 30
0.0
 40
1.8
 41
0.0
 71
     1
 72
     1
  1
ident.-No.
  7
CONVERTER_11
 73
     1
 44
1.20048019207683
  0
TEXT
  5
2CA
330
A8
100
AcDbEntity
  8
1
 62
     7
100
AcDbText
 10
-38.31458922252881
 20
13.4225992227702
 30
0.0
 40
2.5
  1
0205203
 41
0.81
  7
CONVERTER_12
100
AcDbText
  0
MTEXT
  5
2CB
330
A8
100
AcDbEntity
  8
1
 62
     2
100
AcDbMText
 10
-110.652603947576
 20
16.37259922277022
 30
0.0
 40
2.0
 41
0.0
 71
     5
 72
     1
  1
General Information\P- Simplified representation\P- Document excluded from change process\P- Linear dimensions [mm]
  7
CONVERTER_11
 73
     1
 44
1.20048019207683
  0
MTEXT
  5
2CC
330
A8
100
AcDbEntity
  8
1
 62
     7
100
AcDbMText
 10
55.83021530422047
 20
78.62259922277221
 30
0.0
 40
3.5
 41
0.0
 71
     5
 72
     1
  1
C
  7
CONVERTER_11
 73
     1
 44
1.20048019207683
  0
MTEXT
  5
2CD
330
A8
100
AcDbEntity
  8
1
 62
     7
100
AcDbMText
 10
55.83021530422047
 20
181.1225992227703
 30
0.0
 40
3.5
 41
0.0
 71
     5
 72
     1
  1
A
  7
CONVERTER_11
 73
     1
 44
1.20048019207683
  0
MTEXT
  5
2CE
330
A8
100
AcDbEntity
  8
1
 62
     7
100
AcDbMText
 10
55.83021530422047
 20
128.6225992227722
 30
0.0
 40
3.5
 41
0.0
 71
     5
 72
     1
  1
B
  7
CONVERTER_11
 73
     1
 44
1.20048019207683
  0
MTEXT
  5
2CF
330
A8
100
AcDbEntity
  8
1
 62
     7
100
AcDbMText
 10
55.83021530422047
 20
26.12259922277031
 30
0.0
 40
3.5
 41
0.0
 71
     5
 72
     1
  1
D
  7
CONVERTER_11
 73
     1
 44
1.20048019207683
  0
MTEXT
  5
2D0
330
A8
100
AcDbEntity
  8
1
 62
     7
100
AcDbMText
 10
-214.4197846957781
 20
1.12259922277019
 30
0.0
 40
3.5
 41
0.0
 71
     5
 72
     1
  1
1
  7
CONVERTER_11
 73
     1
 44
1.20048019207683
  0
MTEXT
  5
2D1
330
A8
100
AcDbEntity
  8
1
 62
     7
100
AcDbMText
 10
-165.1697846957785
 20
1.12259922277019
 30
0.0
 40
3.5
 41
0.0
 71
     5
 72
     1
  1
2
  7
CONVERTER_11
 73
     1
 44
1.20048019207683
  0
MTEXT
  5
2D2
330
A8
100
AcDbEntity
  8
1
 62
     7
100
AcDbMText
 10
-115.1697846957785
 20
1.12259922277019
 30
0.0
 40
3.5
 41
0.0
 71
     5
 72
     1
  1
3
  7
CONVERTER_11
 73
     1
 44
1.20048019207683
  0
MTEXT
  5
2D3
330
A8
100
AcDbEntity
  8
1
 62
     7
100
AcDbMText
 10
-65.16978469577862
 20
1.12259922277019
 30
0.0
 40
3.5
 41
0.0
 71
     5
 72
     1
  1
4
  7
CONVERTER_11
 73
     1
 44
1.20048019207683
  0
MTEXT
  5
2D4
330
A8
100
AcDbEntity
  8
1
 62
     7
100
AcDbMText
 10
-15.16978469577853
 20
1.12259922277019
 30
0.0
 40
3.5
 41
0.0
 71
     5
 72
     1
  1
5
  7
CONVERTER_11
 73
     1
 44
1.20048019207683
  0
MTEXT
  5
2D5
330
A8
100
AcDbEntity
  8
1
 62
     7
100
AcDbMText
 10
34.08021530422067
 20
1.12259922277019
 30
0.0
 40
3.5
 41
0.0
 71
     5
 72
     1
  1
6
  7
CONVERTER_11
 73
     1
 44
1.20048019207683
  0
MTEXT
  5
2D6
330
A8
100
AcDbEntity
  8
1
 62
     7
100
AcDbMText
 10
-236.1697846957776
 20
181.1225992227703
 30
0.0
 40
3.5
 41
0.0
 71
     5
 72
     1
  1
A
  7
CONVERTER_11
 73
     1
 44
1.20048019207683
  0
MTEXT
  5
2D7
330
A8
100
AcDbEntity
  8
1
 62
     7
100
AcDbMText
 10
-236.1697846957776
 20
128.6225992227703
 30
0.0
 40
3.5
 41
0.0
 71
     5
 72
     1
  1
B
  7
CONVERTER_11
 73
     1
 44
1.20048019207683
  0
MTEXT
  5
2D8
330
A8
100
AcDbEntity
  8
1
 62
     7
100
AcDbMText
 10
-236.1697846957776
 20
78.6225992227703
 30
0.0
 40
3.5
 41
0.0
 71
     5
 72
     1
  1
C
  7
CONVERTER_11
 73
     1
 44
1.20048019207683
  0
MTEXT
  5
2D9
330
A8
100
AcDbEntity
  8
1
 62
     7
100
AcDbMText
 10
-236.1697846957776
 20
26.12259922277031
 30
0.0
 40
3.5
 41
0.0
 71
     5
 72
     1
  1
D
  7
CONVERTER_11
 73
     1
 44
1.20048019207683
  0
MTEXT
  5
2DA
330
A8
100
AcDbEntity
  8
1
 62
     3
100
AcDbMText
 10
-50.01458922252863
 20
24.74759922277031
 30
0.0
 40
2.5
 41
0.0
 71
     5
 72
     1
  1
DIN A4
  7
CONVERTER_11
 73
     1
 44
1.20048019207683
  0
MTEXT
  5
2DB
330
A8
100
AcDbEntity
  8
1
 62
     2
100
AcDbMText
 10
-38.81458922252861
 20
11.12259922277031
 30
0.0
 40
1.8
 41
0.0
 71
     1
 72
     1
  1
description
  7
CONVERTER_11
 73
     1
 44
1.20048019207683
  0
MTEXT
  5
2DC
330
A8
100
AcDbEntity
  8
1
 62
     7
100
AcDbMText
 10
6.75781304084697
 20
6.87259922277053
 30
0.0
 40
3.0
 41
0.0
 71
     5
 72
     1
  1
KBI- 15
  7
CONVERTER_12
 73
     1
 44
1.20048019207683
  0
TEXT
  5
2DD
330
A8
100
AcDbEntity
  8
1
 62
     2
100
AcDbText
 10
-51.77928041271503
 20
4.87259922277019
 30
0.0
 40
1.8
  1
1
 41
0.9
  7
CONVERTER_11
100
AcDbText
  0
TEXT
  5
2DE
330
A8
100
AcDbEntity
  8
1
 62
     2
100
AcDbText
 10
-66.56832425218653
 20
4.82335056896829
 30
0.0
 40
1.8
  1
1
 41
0.9
  7
CONVERTER_11
100
AcDbText
  0
TEXT
  5
2DF
330
A8
100
AcDbEntity
  8
1
 62
     2
100
AcDbText
 10
-75.21458922252853
 20
4.86358200777863
 30
0.0
 40
1.8
  1
page
 41
0.9
  7
CONVERTER_11
100
AcDbText
  0
TEXT
  5
2E0
330
A8
100
AcDbEntity
  8
1
 62
     2
100
AcDbText
 10
-57.01458922252871
 20
4.86358200777869
 30
0.0
 40
1.8
  1
of
 41
0.9
  7
CONVERTER_11
100
AcDbText
  0
MTEXT
  5
2E1
330
A8
100
AcDbEntity
  8
1
 62
     3
100
AcDbMText
 10
-50.81160707091863
 20
190.4139073780691
 30
0.0
 40
1.8
 41
0.0
 71
     7
 72
     1
  3
Transfer or duplication of this document as well as the utilisation or\Pcommunication of its content are not permitted unless express consent\Pis granted. Violations give rise to claims for damages. All rights reserved\Pin case of patent, utility mo
  1
del or design patent registrations.
  7
CONVERTER_11
 73
     1
 44
0.99639855942377
  0
MTEXT
  5
2E2
330
A8
100
AcDbEntity
  8
1
 62
     3
100
AcDbMText
 10
-233.6647169097067
 20
190.4139073780691
 30
0.0
 40
1.8
 41
0.0
 71
     7
 72
     1
  3
Weitergabe sowie Vervielfältigung dieses Dokuments, Verwertung und \PMitteilung seines Inhalts sind verboten, soweit nicht ausdrücklich gestattet. \PZuwiderhandlungen verpflichten zu Schadenersatz. Alle Rechte für den Fall\Pder Patent-, Gebrauchsmus
  1
ter- oder Designeintragung vorbehalten.
  7
CONVERTER_11
 73
     1
 44
0.99639855942377
  0
HATCH
  5
2E3
330
A8
100
AcDbEntity
  8
1
  6
Continuous
 62
     2
100
AcDbHatch
 10
0.0
 20
0.0
 30
0.0
210
0.0
220
0.0
230
1.0
  2
_USER
 70
     0
 71
     1
 91
        1
 92
        1
 93
       14
 72
     2
 10
-63.97335994660583
 20
12.4430039846919
 40
1.205656168390937
 50
164.9381082228765
 51
195.0618917770951
 73
     1
 72
     2
 10
-63.55423210314302
 20
12.55579434672671
 40
1.639695123939387
 50
195.0618917770895
 51
275.1581447696393
 73
     1
 72
     2
 10
-63.84308819787893
 20
15.7556849299483
 40
4.852596863498134
 50
275.1581447696249
 51
285.9799912583529
 73
     1
 72
     1
 10
-62.50716028076113
 20
11.09060262414749
 11
-62.50716028076113
 21
11.9631196309507
 72
     2
 10
-63.68521532278601
 20
13.85347035010059
 40
2.227384008972739
 50
58.06909105004065
 51
71.55192388186703
 73
     0
 72
     2
 10
-63.26704758912521
 20
12.59992457406341
 40
0.905929784984916
 50
71.55192388184122
 51
113.3722778881291
 73
     0
 72
     2
 10
-63.42348762182724
 20
12.23793255535341
 40
0.5115800601947972
 50
113.3722778881721
 51
151.4785267423041
 73
     0
 72
     2
 10
-63.04613036374693
 20
12.4430039846919
 40
0.9410597353332483
 50
151.478526742294
 51
208.5214732577333
 73
     0
 72
     2
 10
-63.42348762182724
 20
12.6480754140309
 40
0.5115800601948751
 50
208.5214732576959
 51
246.6277221118016
 73
     0
 72
     2
 10
-63.26704758912521
 20
12.2860833953203
 40
0.9059297849853335
 50
246.6277221118712
 51
288.4480761181468
 73
     0
 72
     2
 10
-63.68521532278601
 20
11.03253761928372
 40
2.227384008973474
 50
288.448076118133
 51
301.9309089499593
 73
     0
 72
     1
 10
-62.50716028076113
 20
12.92288833843361
 11
-62.50716028076113
 21
13.7954053452369
 72
     2
 10
-63.84308819787893
 20
9.130323039436007
 40
4.852596863498066
 50
74.02000874164737
 51
84.84185523037515
 73
     1
 72
     2
 10
-63.55423210314302
 20
12.330213622657
 40
1.639695123940504
 50
84.8418552303626
 51
164.9381082228865
 73
     1
 97
       14
330
2B8
330
1D1
330
287
330
2B7
330
288
330
289
330
2B6
330
2B5
330
2B4
330
1D2
330
28A
330
28B
330
28C
330
28D
 75
     1
 76
     0
 52
45.0
 41
0.1
 77
     0
 78
     1
 53
45.0
 43
0.0
 44
0.0
 45
-0.0707106781186548
 46
0.0707106781186548
 79
     0
 98
        1
 10
0.0
 20
0.0
  0
HATCH
  5
2E4
330
A8
100
AcDbEntity
  8
1
  6
Continuous
 62
     2
100
AcDbHatch
 10
0.0
 20
0.0
 30
0.0
210
0.0
220
0.0
230
1.0
  2
_USER
 70
     0
 71
     1
 91
        1
 92
        1
 93
       14
 72
     2
 10
-63.97335994660583
 20
12.4430039846919
 40
1.205656168390937
 50
164.9381082228765
 51
195.0618917770951
 73
     1
 72
     2
 10
-63.55423210314302
 20
12.55579434672671
 40
1.639695123939387
 50
195.0618917770895
 51
275.1581447696393
 73
     1
 72
     2
 10
-63.84308819787893
 20
15.7556849299483
 40
4.852596863498134
 50
275.1581447696249
 51
285.9799912583529
 73
     1
 72
     1
 10
-62.50716028076113
 20
11.09060262414749
 11
-62.50716028076113
 21
11.9631196309507
 72
     2
 10
-63.68521532278601
 20
13.85347035010059
 40
2.227384008972739
 50
58.06909105004065
 51
71.55192388186703
 73
     0
 72
     2
 10
-63.26704758912521
 20
12.59992457406341
 40
0.905929784984916
 50
71.55192388184122
 51
113.3722778881291
 73
     0
 72
     2
 10
-63.42348762182724
 20
12.23793255535341
 40
0.5115800601947972
 50
113.3722778881721
 51
151.4785267423041
 73
     0
 72
     2
 10
-63.04613036374693
 20
12.4430039846919
 40
0.9410597353332483
 50
151.478526742294
 51
208.5214732577333
 73
     0
 72
     2
 10
-63.42348762182724
 20
12.6480754140309
 40
0.5115800601948751
 50
208.5214732576959
 51
246.6277221118016
 73
     0
 72
     2
 10
-63.26704758912521
 20
12.2860833953203
 40
0.9059297849853335
 50
246.6277221118712
 51
288.4480761181468
 73
     0
 72
     2
 10
-63.68521532278601
 20
11.03253761928372
 40
2.227384008973474
 50
288.448076118133
 51
301.9309089499593
 73
     0
 72
     1
 10
-62.50716028076113
 20
12.92288833843361
 11
-62.50716028076113
 21
13.7954053452369
 72
     2
 10
-63.84308819787893
 20
9.130323039436007
 40
4.852596863498066
 50
74.02000874164737
 51
84.84185523037515
 73
     1
 72
     2
 10
-63.55423210314302
 20
12.330213622657
 40
1.639695123940504
 50
84.8418552303626
 51
164.9381082228865
 73
     1
 97
       14
330
2B8
330
1D1
330
287
330
2B7
330
288
330
289
330
2B6
330
2B5
330
2B4
330
1D2
330
28A
330
28B
330
28C
330
28D
 75
     1
 76
     0
 52
45.0
 41
0.1
 77
     0
 78
     1
 53
45.0
 43
0.0
 44
0.0
 45
-0.0707106781186548
 46
0.0707106781186548
 79
     0
 98
        1
 10
0.0
 20
0.0
  0
HATCH
  5
2E5
330
A8
100
AcDbEntity
  8
1
  6
Continuous
 62
     2
100
AcDbHatch
 10
0.0
 20
0.0
 30
0.0
210
0.0
220
0.0
230
1.0
  2
_USER
 70
     0
 71
     1
 91
        1
 92
        1
 93
       18
 72
     2
 10
-47.45153062389011
 20
12.330213622657
 40
1.639695123940209
 50
90.0
 51
164.938108222895
 73
     1
 72
     2
 10
-47.87065846735172
 20
12.4430039846919
 40
1.205656168393002
 50
164.9381082229029
 51
195.0618917770958
 73
     1
 72
     2
 10
-47.45153062389011
 20
12.55579434672671
 40
1.639695123940446
 50
195.0618917771009
 51
275.1581447696762
 73
     1
 72
     2
 10
-47.74038671862593
 20
15.7556849299483
 40
4.852596863498825
 50
275.1581447696364
 51
285.9799912583387
 73
     1
 72
     1
 10
-46.40445880150921
 20
11.0906026241469
 11
-46.40445880150921
 21
11.96311963095022
 72
     2
 10
-47.58251384353312
 20
13.8534703501
 40
2.227384008972746
 50
58.06909105006029
 51
71.55192388186651
 73
     0
 72
     2
 10
-47.16434610987122
 20
12.59992457406341
 40
0.905929784985274
 50
71.55192388191821
 51
113.3722778881814
 73
     0
 72
     2
 10
-47.32078614257432
 20
12.23793255535341
 40
0.5115800601960208
 50
113.3722778881546
 51
151.4785267423136
 73
     0
 72
     2
 10
-46.94342888449293
 20
12.4430039846919
 40
0.9410597353348907
 50
151.4785267423305
 51
208.5214732576374
 73
     0
 72
     2
 10
-47.32078614257432
 20
12.6480754140309
 40
0.5115800601944093
 50
208.5214732575772
 51
250.6628567805145
 73
     0
 72
     2
 10
-47.17411614447062
 20
12.23012043364801
 40
0.9545230068261006
 50
250.6628567805679
 51
270.0
 73
     0
 72
     1
 10
-47.17411614447062
 20
13.18464344047411
 11
-46.07047684490252
 21
13.18464344047411
 72
     1
 10
-46.07047684490252
 20
13.18464344047411
 11
-46.07047684490252
 21
10.91609922278661
 72
     1
 10
-46.07047684490252
 20
10.91609922278661
 11
-44.87768414273481
 21
10.91609922278661
 72
     1
 10
-44.87768414273481
 20
10.91609922278661
 11
-44.87768414273481
 21
13.18464344047411
 72
     1
 10
-44.87768414273481
 20
13.18464344047411
 11
-44.06658510526142
 21
13.18464344047411
 72
     1
 10
-44.06658510526142
 20
13.18464344047411
 11
-44.06658510526142
 21
13.9699087465977
 72
     1
 10
-44.06658510526142
 20
13.9699087465977
 11
-47.45153062389011
 21
13.96990874659721
 97
       18
330
237
330
236
330
235
330
234
330
239
330
1D3
330
2B1
330
292
330
2B0
330
293
330
2AF
330
2AE
330
1D4
330
2AD
330
2AC
330
294
330
295
330
238
 75
     1
 76
     0
 52
45.0
 41
0.1
 77
     0
 78
     1
 53
45.0
 43
0.0
 44
0.0
 45
-0.0707106781186548
 46
0.0707106781186548
 79
     0
 98
        1
 10
0.0
 20
0.0
  0
HATCH
  5
2E6
330
A8
100
AcDbEntity
  8
1
  6
Continuous
 62
     2
100
AcDbHatch
 10
0.0
 20
0.0
 30
0.0
210
0.0
220
0.0
230
1.0
  2
_USER
 70
     0
 71
     1
 91
        1
 92
        1
 93
       18
 72
     2
 10
-47.45153062389011
 20
12.330213622657
 40
1.639695123940209
 50
90.0
 51
164.938108222895
 73
     1
 72
     2
 10
-47.87065846735172
 20
12.4430039846919
 40
1.205656168393002
 50
164.9381082229029
 51
195.0618917770958
 73
     1
 72
     2
 10
-47.45153062389011
 20
12.55579434672671
 40
1.639695123940446
 50
195.0618917771009
 51
275.1581447696762
 73
     1
 72
     2
 10
-47.74038671862593
 20
15.7556849299483
 40
4.852596863498825
 50
275.1581447696364
 51
285.9799912583387
 73
     1
 72
     1
 10
-46.40445880150921
 20
11.0906026241469
 11
-46.40445880150921
 21
11.96311963095022
 72
     2
 10
-47.58251384353312
 20
13.8534703501
 40
2.227384008972746
 50
58.06909105006029
 51
71.55192388186651
 73
     0
 72
     2
 10
-47.16434610987122
 20
12.59992457406341
 40
0.905929784985274
 50
71.55192388191821
 51
113.3722778881814
 73
     0
 72
     2
 10
-47.32078614257432
 20
12.23793255535341
 40
0.5115800601960208
 50
113.3722778881546
 51
151.4785267423136
 73
     0
 72
     2
 10
-46.94342888449293
 20
12.4430039846919
 40
0.9410597353348907
 50
151.4785267423305
 51
208.5214732576374
 73
     0
 72
     2
 10
-47.32078614257432
 20
12.6480754140309
 40
0.5115800601944093
 50
208.5214732575772
 51
250.6628567805145
 73
     0
 72
     2
 10
-47.17411614447062
 20
12.23012043364801
 40
0.9545230068261006
 50
250.6628567805679
 51
270.0
 73
     0
 72
     1
 10
-47.17411614447062
 20
13.18464344047411
 11
-46.07047684490252
 21
13.18464344047411
 72
     1
 10
-46.07047684490252
 20
13.18464344047411
 11
-46.07047684490252
 21
10.91609922278661
 72
     1
 10
-46.07047684490252
 20
10.91609922278661
 11
-44.87768414273481
 21
10.91609922278661
 72
     1
 10
-44.87768414273481
 20
10.91609922278661
 11
-44.87768414273481
 21
13.18464344047411
 72
     1
 10
-44.87768414273481
 20
13.18464344047411
 11
-44.06658510526142
 21
13.18464344047411
 72
     1
 10
-44.06658510526142
 20
13.18464344047411
 11
-44.06658510526142
 21
13.9699087465977
 72
     1
 10
-44.06658510526142
 20
13.9699087465977
 11
-47.45153062389011
 21
13.96990874659721
 97
       18
330
237
330
236
330
235
330
234
330
239
330
1D3
330
2B1
330
292
330
2B0
330
293
330
2AF
330
2AE
330
1D4
330
2AD
330
2AC
330
294
330
295
330
238
 75
     1
 76
     0
 52
45.0
 41
0.1
 77
     0
 78
     1
 53
45.0
 43
0.0
 44
0.0
 45
-0.0707106781186548
 46
0.0707106781186548
 79
     0
 98
        1
 10
0.0
 20
0.0
  0
HATCH
  5
2E7
330
A8
100
AcDbEntity
  8
1
  6
Continuous
 62
     2
100
AcDbHatch
 10
0.0
 20
0.0
 30
0.0
210
0.0
220
0.0
230
1.0
  2
_USER
 70
     0
 71
     1
 91
        4
 92
        1
 93
        8
 72
     2
 10
-71.55368972058312
 20
16.90485460737011
 40
0.4242446153838024
 50
90.0
 51
180.0
 73
     1
 72
     1
 10
-71.97793433596593
 20
16.90485460737011
 11
-71.97793433596593
 21
11.3403438381699
 72
     2
 10
-71.55368972058312
 20
11.3403438381699
 40
0.4242446153828041
 50
180.0
 51
270.0
 73
     1
 72
     1
 10
-71.55368972058312
 20
10.91609922278661
 11
-66.08037762986632
 21
10.91609922278661
 72
     2
 10
-66.08037762986632
 20
11.3403438381699
 40
0.4242446153832908
 50
270.0
 51
360.0
 73
     1
 72
     1
 10
-65.65613301448244
 20
11.3403438381699
 11
-65.65613301448244
 21
16.90485460737011
 72
     2
 10
-66.08037762986632
 20
16.90485460737011
 40
0.4242446153838841
 50
0.0
 51
90.0
 73
     1
 72
     1
 10
-66.08037762986632
 20
17.32909922275391
 11
-71.55368972058312
 21
17.32909922275391
 97
        8
330
2A5
330
202
330
2A4
330
203
330
29B
330
200
330
2A6
330
201
 92
       16
 93
        1
 72
     2
 10
-68.93410407006562
 20
14.58597237901461
 40
0.4709789327785074
 50
0.0
 51
360.0
 73
     1
 97
        1
330
2B9
 92
       16
 93
        8
 72
     2
 10
-68.91028905539281
 20
14.58597237901461
 40
0.9118481501444573
 50
295.3740086781765
 51
424.6259913218073
 73
     1
 72
     2
 10
-68.38424635730493
 20
15.69511397898242
 40
0.315716923076792
 50
115.3740086783517
 51
180.0
 73
     0
 72
     1
 10
-68.69996328038172
 20
15.69511397898242
 11
-68.69996328038172
 21
16.30064926748921
 72
     2
 10
-68.38424635730493
 20
16.30064926748921
 40
0.315716923076064
 50
180.0
 51
269.8110329574541
 73
     0
 72
     2
 10
-68.37863022199491
 20
14.5978143199201
 40
2.018561131933257
 50
269.8110329575858
 51
450.1889670424142
 73
     0
 72
     2
 10
-68.38424635730493
 20
12.89497937235112
 40
0.315716923076792
 50
90.18896704254585
 51
180.0
 73
     0
 72
     1
 10
-68.69996328038172
 20
12.89497937235112
 11
-68.69996328038172
 21
13.4768307790462
 72
     2
 10
-68.38424635730493
 20
13.4768307790462
 40
0.3157169230765344
 50
180.0
 51
244.6259913216483
 73
     0
 97
        8
330
2B3
330
28F
330
23B
330
2B2
330
290
330
291
330
23A
330
28E
 92
       16
 93
       12
 72
     1
 10
-70.95979504383664
 20
11.6286547783435
 11
-69.48396178282701
 21
11.6286547783435
 72
     2
 10
-69.48396178282701
 20
11.94437170142021
 40
0.3157169230767085
 50
270.0
 51
360.0
 73
     1
 72
     1
 10
-69.16824485975042
 20
11.94437170142021
 11
-69.16824485975042
 21
13.47514263295182
 72
     2
 10
-69.48396178282701
 20
13.47514263295182
 40
0.315716923076593
 50
0.0
 51
64.80558935146027
 73
     1
 72
     2
 10
-68.96137733525202
 20
14.58597237901461
 40
0.9118975235576114
 50
115.1944106485123
 51
244.8055893514717
 73
     0
 72
     2
 10
-69.48396178282701
 20
15.6968021250768
 40
0.3157169230761203
 50
295.1944106485397
 51
360.0
 73
     1
 72
     1
 10
-69.16824485975042
 20
15.6968021250768
 11
-69.16824485975042
 21
16.30082674413731
 72
     2
 10
-69.48396178282701
 20
16.30082674413731
 40
0.315716923076593
 50
0.0
 51
90.0
 73
     1
 72
     1
 10
-69.48396178282701
 20
16.61654366721351
 11
-70.95979504383664
 21
16.61654366721351
 72
     2
 10
-70.95979504383664
 20
16.30082674413731
 40
0.3157169230761987
 50
90.0
 51
180.0
 73
     1
 72
     1
 10
-71.27551196691232
 20
16.30082674413731
 11
-71.27551196691232
 21
11.94437170142021
 72
     2
 10
-70.95979504383664
 20
11.94437170142021
 40
0.3157169230756836
 50
180.0
 51
270.0
 73
     1
 97
       12
330
207
330
298
330
206
330
2A9
330
205
330
2A8
330
299
330
29A
330
204
330
2A7
330
1FF
330
2AA
 75
     1
 76
     0
 52
45.0
 41
0.1
 77
     0
 78
     1
 53
45.0
 43
0.0
 44
0.0
 45
-0.0707106781186548
 46
0.0707106781186548
 79
     0
 98
        1
 10
0.0
 20
0.0
  0
HATCH
  5
2E8
330
A8
100
AcDbEntity
  8
1
  6
Continuous
 62
     2
100
AcDbHatch
 10
0.0
 20
0.0
 30
0.0
210
0.0
220
0.0
230
1.0
  2
_USER
 70
     0
 71
     1
 91
        4
 92
        1
 93
        8
 72
     2
 10
-71.55368972058312
 20
16.90485460737011
 40
0.4242446153838024
 50
90.0
 51
180.0
 73
     1
 72
     1
 10
-71.97793433596593
 20
16.90485460737011
 11
-71.97793433596593
 21
11.3403438381699
 72
     2
 10
-71.55368972058312
 20
11.3403438381699
 40
0.4242446153828041
 50
180.0
 51
270.0
 73
     1
 72
     1
 10
-71.55368972058312
 20
10.91609922278661
 11
-66.08037762986632
 21
10.91609922278661
 72
     2
 10
-66.08037762986632
 20
11.3403438381699
 40
0.4242446153832908
 50
270.0
 51
360.0
 73
     1
 72
     1
 10
-65.65613301448244
 20
11.3403438381699
 11
-65.65613301448244
 21
16.90485460737011
 72
     2
 10
-66.08037762986632
 20
16.90485460737011
 40
0.4242446153838841
 50
0.0
 51
90.0
 73
     1
 72
     1
 10
-66.08037762986632
 20
17.32909922275391
 11
-71.55368972058312
 21
17.32909922275391
 97
        8
330
2A5
330
202
330
2A4
330
203
330
29B
330
200
330
2A6
330
201
 92
       16
 93
        1
 72
     2
 10
-68.93410407006562
 20
14.58597237901461
 40
0.4709789327785074
 50
0.0
 51
360.0
 73
     1
 97
        1
330
2B9
 92
       16
 93
        8
 72
     2
 10
-68.91028905539281
 20
14.58597237901461
 40
0.9118481501444573
 50
295.3740086781765
 51
424.6259913218073
 73
     1
 72
     2
 10
-68.38424635730493
 20
15.69511397898242
 40
0.315716923076792
 50
115.3740086783517
 51
180.0
 73
     0
 72
     1
 10
-68.69996328038172
 20
15.69511397898242
 11
-68.69996328038172
 21
16.30064926748921
 72
     2
 10
-68.38424635730493
 20
16.30064926748921
 40
0.315716923076064
 50
180.0
 51
269.8110329574541
 73
     0
 72
     2
 10
-68.37863022199491
 20
14.5978143199201
 40
2.018561131933257
 50
269.8110329575858
 51
450.1889670424142
 73
     0
 72
     2
 10
-68.38424635730493
 20
12.89497937235112
 40
0.315716923076792
 50
90.18896704254585
 51
180.0
 73
     0
 72
     1
 10
-68.69996328038172
 20
12.89497937235112
 11
-68.69996328038172
 21
13.4768307790462
 72
     2
 10
-68.38424635730493
 20
13.4768307790462
 40
0.3157169230765344
 50
180.0
 51
244.6259913216483
 73
     0
 97
        8
330
2B3
330
28F
330
23B
330
2B2
330
290
330
291
330
23A
330
28E
 92
       16
 93
       12
 72
     1
 10
-70.95979504383664
 20
11.6286547783435
 11
-69.48396178282701
 21
11.6286547783435
 72
     2
 10
-69.48396178282701
 20
11.94437170142021
 40
0.3157169230767085
 50
270.0
 51
360.0
 73
     1
 72
     1
 10
-69.16824485975042
 20
11.94437170142021
 11
-69.16824485975042
 21
13.47514263295182
 72
     2
 10
-69.48396178282701
 20
13.47514263295182
 40
0.315716923076593
 50
0.0
 51
64.80558935146027
 73
     1
 72
     2
 10
-68.96137733525202
 20
14.58597237901461
 40
0.9118975235576114
 50
115.1944106485123
 51
244.8055893514717
 73
     0
 72
     2
 10
-69.48396178282701
 20
15.6968021250768
 40
0.3157169230761203
 50
295.1944106485397
 51
360.0
 73
     1
 72
     1
 10
-69.16824485975042
 20
15.6968021250768
 11
-69.16824485975042
 21
16.30082674413731
 72
     2
 10
-69.48396178282701
 20
16.30082674413731
 40
0.315716923076593
 50
0.0
 51
90.0
 73
     1
 72
     1
 10
-69.48396178282701
 20
16.61654366721351
 11
-70.95979504383664
 21
16.61654366721351
 72
     2
 10
-70.95979504383664
 20
16.30082674413731
 40
0.3157169230761987
 50
90.0
 51
180.0
 73
     1
 72
     1
 10
-71.27551196691232
 20
16.30082674413731
 11
-71.27551196691232
 21
11.94437170142021
 72
     2
 10
-70.95979504383664
 20
11.94437170142021
 40
0.3157169230756836
 50
180.0
 51
270.0
 73
     1
 97
       12
330
207
330
298
330
206
330
2A9
330
205
330
2A8
330
299
330
29A
330
204
330
2A7
330
1FF
330
2AA
 75
     1
 76
     0
 52
45.0
 41
0.1
 77
     0
 78
     1
 53
45.0
 43
0.0
 44
0.0
 45
-0.0707106781186548
 46
0.0707106781186548
 79
     0
 98
        1
 10
0.0
 20
0.0
  0
HATCH
  5
2E9
330
A8
100
AcDbEntity
  8
1
  6
Continuous
 62
     2
100
AcDbHatch
 10
0.0
 20
0.0
 30
0.0
210
0.0
220
0.0
230
1.0
  2
_USER
 70
     0
 71
     1
 91
        2
 92
        1
 93
       12
 72
     2
 10
-56.87852571659383
 20
15.80219446086622
 40
1.526904761905881
 50
90.0
 51
270.0
 73
     1
 72
     1
 10
-56.87852571659383
 20
14.2752896989609
 11
-53.72820599281283
 21
14.2752896989609
 72
     1
 10
-53.72820599281283
 20
14.2752896989609
 11
-53.72820599281283
 21
14.9733033044034
 72
     1
 10
-53.72820599281283
 20
14.9733033044034
 11
-55.06413381924051
 21
14.9733033044034
 72
     1
 10
-55.06413381924051
 20
14.9733033044034
 11
-55.06413381924051
 21
15.45318765814511
 72
     1
 10
-55.06413381924051
 20
15.45318765814511
 11
-53.72820599281283
 21
15.45318765814511
 72
     1
 10
-53.72820599281283
 20
15.45318765814511
 11
-53.72820599281283
 21
16.15120126358741
 72
     1
 10
-53.72820599281283
 20
16.15120126358741
 11
-55.06413381924051
 21
16.15120126358741
 72
     1
 10
-55.06413381924051
 20
16.15120126358741
 11
-55.06413381924051
 21
16.63108561732912
 72
     1
 10
-55.06413381924051
 20
16.63108561732912
 11
-53.72820599281283
 21
16.63108561732912
 72
     1
 10
-53.72820599281283
 20
16.63108561732912
 11
-53.72820599281283
 21
17.3290992227721
 72
     1
 10
-53.72820599281283
 20
17.3290992227721
 11
-56.87852571659383
 21
17.3290992227721
 97
       12
330
1F6
330
1F0
330
217
330
216
330
215
330
214
330
1F1
330
1F2
330
1F3
330
1F4
330
296
330
1F5
 92
       16
 93
        4
 72
     2
 10
-56.46251367008233
 20
15.80219446086622
 40
0.7717997786796735
 50
141.8795802028403
 51
218.120419797156
 73
     1
 72
     2
 10
-56.66225370642863
 20
15.64546328274579
 40
0.5179085730134316
 50
218.1204197971503
 51
321.8795802028574
 73
     1
 72
     2
 10
-56.86199374277481
 20
15.80219446086622
 40
0.7717997786796296
 50
321.8795802028436
 51
398.12041979716
 73
     1
 72
     2
 10
-56.66225370642863
 20
15.9589256389867
 40
0.5179085730135277
 50
38.12041979714349
 51
141.8795802028488
 73
     1
 97
        4
330
2A3
330
2A2
330
29D
330
29C
 75
     1
 76
     0
 52
45.0
 41
0.1
 77
     0
 78
     1
 53
45.0
 43
0.0
 44
0.0
 45
-0.0707106781186548
 46
0.0707106781186548
 79
     0
 98
        1
 10
0.0
 20
0.0
  0
HATCH
  5
2EA
330
A8
100
AcDbEntity
  8
1
  6
Continuous
 62
     2
100
AcDbHatch
 10
0.0
 20
0.0
 30
0.0
210
0.0
220
0.0
230
1.0
  2
_USER
 70
     0
 71
     1
 91
        2
 92
        1
 93
       12
 72
     2
 10
-56.87852571659383
 20
15.80219446086622
 40
1.526904761905881
 50
90.0
 51
270.0
 73
     1
 72
     1
 10
-56.87852571659383
 20
14.2752896989609
 11
-53.72820599281283
 21
14.2752896989609
 72
     1
 10
-53.72820599281283
 20
14.2752896989609
 11
-53.72820599281283
 21
14.9733033044034
 72
     1
 10
-53.72820599281283
 20
14.9733033044034
 11
-55.06413381924051
 21
14.9733033044034
 72
     1
 10
-55.06413381924051
 20
14.9733033044034
 11
-55.06413381924051
 21
15.45318765814511
 72
     1
 10
-55.06413381924051
 20
15.45318765814511
 11
-53.72820599281283
 21
15.45318765814511
 72
     1
 10
-53.72820599281283
 20
15.45318765814511
 11
-53.72820599281283
 21
16.15120126358741
 72
     1
 10
-53.72820599281283
 20
16.15120126358741
 11
-55.06413381924051
 21
16.15120126358741
 72
     1
 10
-55.06413381924051
 20
16.15120126358741
 11
-55.06413381924051
 21
16.63108561732912
 72
     1
 10
-55.06413381924051
 20
16.63108561732912
 11
-53.72820599281283
 21
16.63108561732912
 72
     1
 10
-53.72820599281283
 20
16.63108561732912
 11
-53.72820599281283
 21
17.3290992227721
 72
     1
 10
-53.72820599281283
 20
17.3290992227721
 11
-56.87852571659383
 21
17.3290992227721
 97
       12
330
1F6
330
1F0
330
217
330
216
330
215
330
214
330
1F1
330
1F2
330
1F3
330
1F4
330
296
330
1F5
 92
       16
 93
        4
 72
     2
 10
-56.46251367008233
 20
15.80219446086622
 40
0.7717997786796735
 50
141.8795802028403
 51
218.120419797156
 73
     1
 72
     2
 10
-56.66225370642863
 20
15.64546328274579
 40
0.5179085730134316
 50
218.1204197971503
 51
321.8795802028574
 73
     1
 72
     2
 10
-56.86199374277481
 20
15.80219446086622
 40
0.7717997786796296
 50
321.8795802028436
 51
398.12041979716
 73
     1
 72
     2
 10
-56.66225370642863
 20
15.9589256389867
 40
0.5179085730135277
 50
38.12041979714349
 51
141.8795802028488
 73
     1
 97
        4
330
2A3
330
2A2
330
29D
330
29C
 75
     1
 76
     0
 52
45.0
 41
0.1
 77
     0
 78
     1
 53
45.0
 43
0.0
 44
0.0
 45
-0.0707106781186548
 46
0.0707106781186548
 79
     0
 98
        1
 10
0.0
 20
0.0
  0
HATCH
  5
2EB
330
A8
100
AcDbEntity
  8
1
  6
Continuous
 62
     2
100
AcDbHatch
 10
0.0
 20
0.0
 30
0.0
210
0.0
220
0.0
230
1.0
  2
_USER
 70
     0
 71
     1
 91
        2
 92
        1
 93
        4
 72
     2
 10
-60.90414107905542
 20
12.4430039846919
 40
1.45803408365149
 50
117.5481481756624
 51
242.4518518243376
 73
     1
 72
     2
 10
-60.62320118722212
 20
12.9815789949952
 40
2.065479772208505
 50
242.4518518243401
 51
297.5481481756871
 73
     1
 72
     2
 10
-60.34226129538882
 20
12.4430039846919
 40
1.458034083652004
 50
297.548148175701
 51
422.451851824299
 73
     1
 72
     2
 10
-60.62320118722212
 20
11.90442897438911
 40
2.065479772208566
 50
62.45185182430634
 51
117.5481481756664
 73
     1
 97
        4
330
2A1
330
29E
330
2A0
330
29F
 92
       16
 93
        4
 72
     2
 10
-60.62320118722212
 20
12.59973516281241
 40
0.517908573013291
 50
38.12041979714706
 51
141.8795802028588
 73
     1
 72
     2
 10
-60.42346115087602
 20
12.4430039846919
 40
0.7717997786794544
 50
141.8795802028363
 51
218.1204197971691
 73
     1
 72
     2
 10
-60.62320118722212
 20
12.2862728065719
 40
0.5179085730137287
 50
218.1204197971935
 51
321.8795802028007
 73
     1
 72
     2
 10
-60.82294122356853
 20
12.4430039846919
 40
0.7717997786796846
 50
321.8795802028409
 51
398.1204197971536
 73
     1
 97
        4
330
284
330
285
330
286
330
283
 75
     1
 76
     0
 52
45.0
 41
0.1
 77
     0
 78
     1
 53
45.0
 43
0.0
 44
0.0
 45
-0.0707106781186548
 46
0.0707106781186548
 79
     0
 98
        1
 10
0.0
 20
0.0
  0
HATCH
  5
2EC
330
A8
100
AcDbEntity
  8
1
  6
Continuous
 62
     2
100
AcDbHatch
 10
0.0
 20
0.0
 30
0.0
210
0.0
220
0.0
230
1.0
  2
_USER
 70
     0
 71
     1
 91
        2
 92
        1
 93
        4
 72
     2
 10
-60.90414107905542
 20
12.4430039846919
 40
1.45803408365149
 50
117.5481481756624
 51
242.4518518243376
 73
     1
 72
     2
 10
-60.62320118722212
 20
12.9815789949952
 40
2.065479772208505
 50
242.4518518243401
 51
297.5481481756871
 73
     1
 72
     2
 10
-60.34226129538882
 20
12.4430039846919
 40
1.458034083652004
 50
297.548148175701
 51
422.451851824299
 73
     1
 72
     2
 10
-60.62320118722212
 20
11.90442897438911
 40
2.065479772208566
 50
62.45185182430634
 51
117.5481481756664
 73
     1
 97
        4
330
2A1
330
29E
330
2A0
330
29F
 92
       16
 93
        4
 72
     2
 10
-60.62320118722212
 20
12.59973516281241
 40
0.517908573013291
 50
38.12041979714706
 51
141.8795802028588
 73
     1
 72
     2
 10
-60.42346115087602
 20
12.4430039846919
 40
0.7717997786794544
 50
141.8795802028363
 51
218.1204197971691
 73
     1
 72
     2
 10
-60.62320118722212
 20
12.2862728065719
 40
0.5179085730137287
 50
218.1204197971935
 51
321.8795802028007
 73
     1
 72
     2
 10
-60.82294122356853
 20
12.4430039846919
 40
0.7717997786796846
 50
321.8795802028409
 51
398.1204197971536
 73
     1
 97
        4
330
284
330
285
330
286
330
283
 75
     1
 76
     0
 52
45.0
 41
0.1
 77
     0
 78
     1
 53
45.0
 43
0.0
 44
0.0
 45
-0.0707106781186548
 46
0.0707106781186548
 79
     0
 98
        1
 10
0.0
 20
0.0
  0
HATCH
  5
2ED
330
A8
100
AcDbEntity
  8
1
  6
Continuous
 62
     2
100
AcDbHatch
 10
0.0
 20
0.0
 30
0.0
210
0.0
220
0.0
230
1.0
  2
_USER
 70
     0
 71
     1
 91
        2
 92
        1
 93
        6
 72
     1
 10
-65.17901593361563
 20
17.3290992227721
 11
-65.17901593361563
 21
14.2752896989609
 72
     1
 10
-65.17901593361563
 20
14.2752896989609
 11
-63.93851152336151
 21
14.2752896989609
 72
     1
 10
-63.93851152336151
 20
14.2752896989609
 11
-63.93851152336151
 21
15.21836794010471
 72
     1
 10
-63.93851152336151
 20
15.21836794010471
 11
-63.17974393558123
 21
15.21836794010471
 72
     2
 10
-63.17974393558123
 20
16.27373358143842
 40
1.055365641333712
 50
270.0
 51
450.0
 73
     1
 72
     1
 10
-63.17974393558123
 20
17.3290992227721
 11
-65.17901593361563
 21
17.3290992227721
 97
        6
330
2AB
330
208
330
1FE
330
1FD
330
20A
330
209
 92
       16
 93
        4
 72
     1
 10
-63.62121646181961
 20
16.665993377332
 11
-63.93851152336151
 21
16.665993377332
 72
     1
 10
-63.93851152336151
 20
16.665993377332
 11
-63.93851152336151
 21
15.96026572798979
 72
     1
 10
-63.93851152336151
 20
15.96026572798979
 11
-63.62121646181961
 21
15.96026572798979
 72
     2
 10
-63.62121646181961
 20
16.31312955266091
 40
0.35286382467112
 50
270.0
 51
450.0
 73
     1
 97
        4
330
20B
330
1FC
330
20C
330
297
 75
     1
 76
     0
 52
45.0
 41
0.1
 77
     0
 78
     1
 53
45.0
 43
0.0
 44
0.0
 45
-0.0707106781186548
 46
0.0707106781186548
 79
     0
 98
        1
 10
0.0
 20
0.0
  0
HATCH
  5
2EE
330
A8
100
AcDbEntity
  8
1
  6
Continuous
 62
     2
100
AcDbHatch
 10
0.0
 20
0.0
 30
0.0
210
0.0
220
0.0
230
1.0
  2
_USER
 70
     0
 71
     1
 91
        2
 92
        1
 93
        6
 72
     1
 10
-65.17901593361563
 20
17.3290992227721
 11
-65.17901593361563
 21
14.2752896989609
 72
     1
 10
-65.17901593361563
 20
14.2752896989609
 11
-63.93851152336151
 21
14.2752896989609
 72
     1
 10
-63.93851152336151
 20
14.2752896989609
 11
-63.93851152336151
 21
15.21836794010471
 72
     1
 10
-63.93851152336151
 20
15.21836794010471
 11
-63.17974393558123
 21
15.21836794010471
 72
     2
 10
-63.17974393558123
 20
16.27373358143842
 40
1.055365641333712
 50
270.0
 51
450.0
 73
     1
 72
     1
 10
-63.17974393558123
 20
17.3290992227721
 11
-65.17901593361563
 21
17.3290992227721
 97
        6
330
2AB
330
208
330
1FE
330
1FD
330
20A
330
209
 92
       16
 93
        4
 72
     1
 10
-63.62121646181961
 20
16.665993377332
 11
-63.93851152336151
 21
16.665993377332
 72
     1
 10
-63.93851152336151
 20
16.665993377332
 11
-63.93851152336151
 21
15.96026572798979
 72
     1
 10
-63.93851152336151
 20
15.96026572798979
 11
-63.62121646181961
 21
15.96026572798979
 72
     2
 10
-63.62121646181961
 20
16.31312955266091
 40
0.35286382467112
 50
270.0
 51
450.0
 73
     1
 97
        4
330
20B
330
1FC
330
20C
330
297
 75
     1
 76
     0
 52
45.0
 41
0.1
 77
     0
 78
     1
 53
45.0
 43
0.0
 44
0.0
 45
-0.0707106781186548
 46
0.0707106781186548
 79
     0
 98
        1
 10
0.0
 20
0.0
  0
HATCH
  5
2EF
330
A8
100
AcDbEntity
  8
1
  6
Continuous
 62
     2
100
AcDbHatch
 10
0.0
 20
0.0
 30
0.0
210
0.0
220
0.0
230
1.0
  2
_USER
 70
     0
 71
     1
 91
        1
 92
        1
 93
       12
 72
     1
 10
-45.56473273918243
 20
17.3290992227721
 11
-44.16200852143521
 21
17.3290992227721
 72
     1
 10
-44.16200852143521
 20
17.3290992227721
 11
-45.46453815220173
 21
15.8561486927359
 72
     1
 10
-45.46453815220173
 20
15.8561486927359
 11
-44.06658510526142
 21
14.2752896989609
 72
     1
 10
-44.06658510526142
 20
14.2752896989609
 11
-45.46930932300973
 21
14.2752896989609
 72
     1
 10
-45.46930932300973
 20
14.2752896989609
 11
-46.16590026107522
 21
15.06302148425462
 72
     1
 10
-46.16590026107522
 20
15.06302148425462
 11
-46.86249119914092
 21
14.2752896989609
 72
     1
 10
-46.86249119914092
 20
14.2752896989609
 11
-48.26521541688913
 21
14.2752896989609
 72
     1
 10
-48.26521541688913
 20
14.2752896989609
 11
-46.86726236994883
 21
15.8561486927359
 72
     1
 10
-46.86726236994883
 20
15.8561486927359
 11
-48.16979200071631
 21
17.3290992227721
 72
     1
 10
-48.16979200071631
 20
17.3290992227721
 11
-46.76706778296702
 21
17.3290992227721
 72
     1
 10
-46.76706778296702
 20
17.3290992227721
 11
-46.16590026107522
 21
16.64927590121661
 72
     1
 10
-46.16590026107522
 20
16.64927590121661
 11
-45.56473273918243
 21
17.3290992227721
 97
       12
330
1D7
330
230
330
22F
330
22E
330
22D
330
1D8
330
1D9
330
1D5
330
1D6
330
233
330
232
330
231
 75
     1
 76
     0
 52
45.0
 41
0.1
 77
     0
 78
     1
 53
45.0
 43
0.0
 44
0.0
 45
-0.0707106781186548
 46
0.0707106781186548
 79
     0
 98
        1
 10
0.0
 20
0.0
  0
HATCH
  5
2F0
330
A8
100
AcDbEntity
  8
1
  6
Continuous
 62
     2
100
AcDbHatch
 10
0.0
 20
0.0
 30
0.0
210
0.0
220
0.0
230
1.0
  2
_USER
 70
     0
 71
     1
 91
        1
 92
        1
 93
       12
 72
     1
 10
-45.56473273918243
 20
17.3290992227721
 11
-44.16200852143521
 21
17.3290992227721
 72
     1
 10
-44.16200852143521
 20
17.3290992227721
 11
-45.46453815220173
 21
15.8561486927359
 72
     1
 10
-45.46453815220173
 20
15.8561486927359
 11
-44.06658510526142
 21
14.2752896989609
 72
     1
 10
-44.06658510526142
 20
14.2752896989609
 11
-45.46930932300973
 21
14.2752896989609
 72
     1
 10
-45.46930932300973
 20
14.2752896989609
 11
-46.16590026107522
 21
15.06302148425462
 72
     1
 10
-46.16590026107522
 20
15.06302148425462
 11
-46.86249119914092
 21
14.2752896989609
 72
     1
 10
-46.86249119914092
 20
14.2752896989609
 11
-48.26521541688913
 21
14.2752896989609
 72
     1
 10
-48.26521541688913
 20
14.2752896989609
 11
-46.86726236994883
 21
15.8561486927359
 72
     1
 10
-46.86726236994883
 20
15.8561486927359
 11
-48.16979200071631
 21
17.3290992227721
 72
     1
 10
-48.16979200071631
 20
17.3290992227721
 11
-46.76706778296702
 21
17.3290992227721
 72
     1
 10
-46.76706778296702
 20
17.3290992227721
 11
-46.16590026107522
 21
16.64927590121661
 72
     1
 10
-46.16590026107522
 20
16.64927590121661
 11
-45.56473273918243
 21
17.3290992227721
 97
       12
330
1D7
330
230
330
22F
330
22E
330
22D
330
1D8
330
1D9
330
1D5
330
1D6
330
233
330
232
330
231
 75
     1
 76
     0
 52
45.0
 41
0.1
 77
     0
 78
     1
 53
45.0
 43
0.0
 44
0.0
 45
-0.0707106781186548
 46
0.0707106781186548
 79
     0
 98
        1
 10
0.0
 20
0.0
  0
HATCH
  5
2F1
330
A8
100
AcDbEntity
  8
1
  6
Continuous
 62
     2
100
AcDbHatch
 10
0.0
 20
0.0
 30
0.0
210
0.0
220
0.0
230
1.0
  2
_USER
 70
     0
 71
     1
 91
        1
 92
        1
 93
        4
 72
     1
 10
-48.38449468710601
 20
17.3290992227721
 11
-48.38449468710601
 21
14.2752896989609
 72
     1
 10
-48.38449468710601
 20
14.2752896989609
 11
-49.62499909735891
 21
14.2752896989609
 72
     1
 10
-49.62499909735891
 20
14.2752896989609
 11
-49.62499909735891
 21
17.3290992227721
 72
     1
 10
-49.62499909735891
 20
17.3290992227721
 11
-48.38449468710601
 21
17.3290992227721
 97
        4
330
22B
330
1DA
330
22A
330
22C
 75
     1
 76
     0
 52
45.0
 41
0.1
 77
     0
 78
     1
 53
45.0
 43
0.0
 44
0.0
 45
-0.0707106781186548
 46
0.0707106781186548
 79
     0
 98
        1
 10
0.0
 20
0.0
  0
HATCH
  5
2F2
330
A8
100
AcDbEntity
  8
1
  6
Continuous
 62
     2
100
AcDbHatch
 10
0.0
 20
0.0
 30
0.0
210
0.0
220
0.0
230
1.0
  2
_USER
 70
     0
 71
     1
 91
        1
 92
        1
 93
        4
 72
     1
 10
-48.38449468710601
 20
17.3290992227721
 11
-48.38449468710601
 21
14.2752896989609
 72
     1
 10
-48.38449468710601
 20
14.2752896989609
 11
-49.62499909735891
 21
14.2752896989609
 72
     1
 10
-49.62499909735891
 20
14.2752896989609
 11
-49.62499909735891
 21
17.3290992227721
 72
     1
 10
-49.62499909735891
 20
17.3290992227721
 11
-48.38449468710601
 21
17.3290992227721
 97
        4
330
22B
330
1DA
330
22A
330
22C
 75
     1
 76
     0
 52
45.0
 41
0.1
 77
     0
 78
     1
 53
45.0
 43
0.0
 44
0.0
 45
-0.0707106781186548
 46
0.0707106781186548
 79
     0
 98
        1
 10
0.0
 20
0.0
  0
HATCH
  5
2F3
330
A8
100
AcDbEntity
  8
1
  6
Continuous
 62
     2
100
AcDbHatch
 10
0.0
 20
0.0
 30
0.0
210
0.0
220
0.0
230
1.0
  2
_USER
 70
     0
 71
     1
 91
        2
 92
        1
 93
        8
 72
     1
 10
-48.77493869063801
 20
10.91609922278661
 11
-50.01544310089193
 21
10.91609922278661
 72
     1
 10
-50.01544310089193
 20
10.91609922278661
 11
-50.22692315436771
 21
11.4570597670045
 72
     1
 10
-50.22692315436771
 20
11.4570597670045
 11
-51.35936473104152
 21
11.4570597670045
 72
     1
 10
-51.35936473104152
 20
11.4570597670045
 11
-51.57084478451733
 21
10.91609922278661
 72
     1
 10
-51.57084478451733
 20
10.91609922278661
 11
-52.81134919477032
 21
10.91609922278661
 72
     1
 10
-52.81134919477032
 20
10.91609922278661
 11
-51.41339614783101
 21
13.9699087465977
 72
     1
 10
-51.41339614783101
 20
13.9699087465977
 11
-50.17289173757831
 21
13.9699087465977
 72
     1
 10
-50.17289173757831
 20
13.9699087465977
 11
-48.77493869063801
 21
10.91609922278661
 97
        8
330
226
330
1E0
330
225
330
228
330
1DD
330
227
330
1DE
330
1DF
 92
       16
 93
        3
 72
     1
 10
-51.09330917989652
 20
12.1376230323111
 11
-50.49297870551402
 21
12.1376230323111
 72
     1
 10
-50.49297870551402
 20
12.1376230323111
 11
-50.79314394270412
 21
12.9054379982978
 72
     1
 10
-50.79314394270412
 20
12.9054379982978
 11
-51.09330917989652
 21
12.1376230323111
 97
        3
330
1DC
330
1DB
330
229
 75
     1
 76
     0
 52
45.0
 41
0.1
 77
     0
 78
     1
 53
45.0
 43
0.0
 44
0.0
 45
-0.0707106781186548
 46
0.0707106781186548
 79
     0
 98
        1
 10
0.0
 20
0.0
  0
HATCH
  5
2F4
330
A8
100
AcDbEntity
  8
1
  6
Continuous
 62
     2
100
AcDbHatch
 10
0.0
 20
0.0
 30
0.0
210
0.0
220
0.0
230
1.0
  2
_USER
 70
     0
 71
     1
 91
        2
 92
        1
 93
        8
 72
     1
 10
-48.77493869063801
 20
10.91609922278661
 11
-50.01544310089193
 21
10.91609922278661
 72
     1
 10
-50.01544310089193
 20
10.91609922278661
 11
-50.22692315436771
 21
11.4570597670045
 72
     1
 10
-50.22692315436771
 20
11.4570597670045
 11
-51.35936473104152
 21
11.4570597670045
 72
     1
 10
-51.35936473104152
 20
11.4570597670045
 11
-51.57084478451733
 21
10.91609922278661
 72
     1
 10
-51.57084478451733
 20
10.91609922278661
 11
-52.81134919477032
 21
10.91609922278661
 72
     1
 10
-52.81134919477032
 20
10.91609922278661
 11
-51.41339614783101
 21
13.9699087465977
 72
     1
 10
-51.41339614783101
 20
13.9699087465977
 11
-50.17289173757831
 21
13.9699087465977
 72
     1
 10
-50.17289173757831
 20
13.9699087465977
 11
-48.77493869063801
 21
10.91609922278661
 97
        8
330
226
330
1E0
330
225
330
228
330
1DD
330
227
330
1DE
330
1DF
 92
       16
 93
        3
 72
     1
 10
-51.09330917989652
 20
12.1376230323111
 11
-50.49297870551402
 21
12.1376230323111
 72
     1
 10
-50.49297870551402
 20
12.1376230323111
 11
-50.79314394270412
 21
12.9054379982978
 72
     1
 10
-50.79314394270412
 20
12.9054379982978
 11
-51.09330917989652
 21
12.1376230323111
 97
        3
330
1DC
330
1DB
330
229
 75
     1
 76
     0
 52
45.0
 41
0.1
 77
     0
 78
     1
 53
45.0
 43
0.0
 44
0.0
 45
-0.0707106781186548
 46
0.0707106781186548
 79
     0
 98
        1
 10
0.0
 20
0.0
  0
HATCH
  5
2F5
330
A8
100
AcDbEntity
  8
1
  6
Continuous
 62
     2
100
AcDbHatch
 10
0.0
 20
0.0
 30
0.0
210
0.0
220
0.0
230
1.0
  2
_USER
 70
     0
 71
     1
 91
        1
 92
        1
 93
        8
 72
     1
 10
-54.96886133395253
 20
13.9699087465977
 11
-54.96886133395253
 21
13.18464344047411
 72
     1
 10
-54.96886133395253
 20
13.18464344047411
 11
-54.15776229647793
 21
13.18464344047411
 72
     1
 10
-54.15776229647793
 20
13.18464344047411
 11
-54.15776229647793
 21
10.91609922278661
 72
     1
 10
-54.15776229647793
 20
10.91609922278661
 11
-52.96496959431141
 21
10.91609922278661
 72
     1
 10
-52.96496959431141
 20
10.91609922278661
 11
-52.96496959431141
 21
13.18464344047411
 72
     1
 10
-52.96496959431141
 20
13.18464344047411
 11
-52.15387055683891
 21
13.18464344047411
 72
     1
 10
-52.15387055683891
 20
13.18464344047411
 11
-52.15387055683891
 21
13.9699087465977
 72
     1
 10
-52.15387055683891
 20
13.9699087465977
 11
-54.96886133395253
 21
13.9699087465977
 97
        8
330
222
330
221
330
220
330
1E1
330
1E2
330
224
330
1E3
330
223
 75
     1
 76
     0
 52
45.0
 41
0.1
 77
     0
 78
     1
 53
45.0
 43
0.0
 44
0.0
 45
-0.0707106781186548
 46
0.0707106781186548
 79
     0
 98
        1
 10
0.0
 20
0.0
  0
HATCH
  5
2F6
330
A8
100
AcDbEntity
  8
1
  6
Continuous
 62
     2
100
AcDbHatch
 10
0.0
 20
0.0
 30
0.0
210
0.0
220
0.0
230
1.0
  2
_USER
 70
     0
 71
     1
 91
        1
 92
        1
 93
        8
 72
     1
 10
-54.96886133395253
 20
13.9699087465977
 11
-54.96886133395253
 21
13.18464344047411
 72
     1
 10
-54.96886133395253
 20
13.18464344047411
 11
-54.15776229647793
 21
13.18464344047411
 72
     1
 10
-54.15776229647793
 20
13.18464344047411
 11
-54.15776229647793
 21
10.91609922278661
 72
     1
 10
-54.15776229647793
 20
10.91609922278661
 11
-52.96496959431141
 21
10.91609922278661
 72
     1
 10
-52.96496959431141
 20
10.91609922278661
 11
-52.96496959431141
 21
13.18464344047411
 72
     1
 10
-52.96496959431141
 20
13.18464344047411
 11
-52.15387055683891
 21
13.18464344047411
 72
     1
 10
-52.15387055683891
 20
13.18464344047411
 11
-52.15387055683891
 21
13.9699087465977
 72
     1
 10
-52.15387055683891
 20
13.9699087465977
 11
-54.96886133395253
 21
13.9699087465977
 97
        8
330
222
330
221
330
220
330
1E1
330
1E2
330
224
330
1E3
330
223
 75
     1
 76
     0
 52
45.0
 41
0.1
 77
     0
 78
     1
 53
45.0
 43
0.0
 44
0.0
 45
-0.0707106781186548
 46
0.0707106781186548
 79
     0
 98
        1
 10
0.0
 20
0.0
  0
HATCH
  5
2F7
330
A8
100
AcDbEntity
  8
1
  6
Continuous
 62
     2
100
AcDbHatch
 10
0.0
 20
0.0
 30
0.0
210
0.0
220
0.0
230
1.0
  2
_USER
 70
     0
 71
     1
 91
        1
 92
        1
 93
       10
 72
     1
 10
-52.29685475021341
 20
17.3290992227721
 11
-53.48964745237993
 21
17.3290992227721
 72
     1
 10
-53.48964745237993
 20
17.3290992227721
 11
-53.48964745237993
 21
14.2752896989609
 72
     1
 10
-53.48964745237993
 20
14.2752896989609
 11
-52.29685475021341
 21
14.2752896989609
 72
     1
 10
-52.29685475021341
 20
14.2752896989609
 11
-52.29685475021341
 21
15.5840652091656
 72
     1
 10
-52.29685475021341
 20
15.5840652091656
 11
-51.05635033995941
 21
14.2752896989609
 72
     1
 10
-51.05635033995941
 20
14.2752896989609
 11
-49.86355763779281
 21
14.2752896989609
 72
     1
 10
-49.86355763779281
 20
14.2752896989609
 11
-49.86355763779281
 21
17.3290992227721
 72
     1
 10
-49.86355763779281
 20
17.3290992227721
 11
-51.05635033995941
 21
17.3290992227721
 72
     1
 10
-51.05635033995941
 20
17.3290992227721
 11
-51.05635033995941
 21
16.02032371256692
 72
     1
 10
-51.05635033995941
 20
16.02032371256692
 11
-52.29685475021341
 21
17.3290992227721
 97
       10
330
21C
330
1E6
330
1E7
330
1E8
330
1E9
330
21F
330
1E4
330
21E
330
21D
330
1E5
 75
     1
 76
     0
 52
45.0
 41
0.1
 77
     0
 78
     1
 53
45.0
 43
0.0
 44
0.0
 45
-0.0707106781186548
 46
0.0707106781186548
 79
     0
 98
        1
 10
0.0
 20
0.0
  0
HATCH
  5
2F8
330
A8
100
AcDbEntity
  8
1
  6
Continuous
 62
     2
100
AcDbHatch
 10
0.0
 20
0.0
 30
0.0
210
0.0
220
0.0
230
1.0
  2
_USER
 70
     0
 71
     1
 91
        1
 92
        1
 93
       10
 72
     1
 10
-52.29685475021341
 20
17.3290992227721
 11
-53.48964745237993
 21
17.3290992227721
 72
     1
 10
-53.48964745237993
 20
17.3290992227721
 11
-53.48964745237993
 21
14.2752896989609
 72
     1
 10
-53.48964745237993
 20
14.2752896989609
 11
-52.29685475021341
 21
14.2752896989609
 72
     1
 10
-52.29685475021341
 20
14.2752896989609
 11
-52.29685475021341
 21
15.5840652091656
 72
     1
 10
-52.29685475021341
 20
15.5840652091656
 11
-51.05635033995941
 21
14.2752896989609
 72
     1
 10
-51.05635033995941
 20
14.2752896989609
 11
-49.86355763779281
 21
14.2752896989609
 72
     1
 10
-49.86355763779281
 20
14.2752896989609
 11
-49.86355763779281
 21
17.3290992227721
 72
     1
 10
-49.86355763779281
 20
17.3290992227721
 11
-51.05635033995941
 21
17.3290992227721
 72
     1
 10
-51.05635033995941
 20
17.3290992227721
 11
-51.05635033995941
 21
16.02032371256692
 72
     1
 10
-51.05635033995941
 20
16.02032371256692
 11
-52.29685475021341
 21
17.3290992227721
 97
       10
330
21C
330
1E6
330
1E7
330
1E8
330
1E9
330
21F
330
1E4
330
21E
330
21D
330
1E5
 75
     1
 76
     0
 52
45.0
 41
0.1
 77
     0
 78
     1
 53
45.0
 43
0.0
 44
0.0
 45
-0.0707106781186548
 46
0.0707106781186548
 79
     0
 98
        1
 10
0.0
 20
0.0
  0
HATCH
  5
2F9
330
A8
100
AcDbEntity
  8
1
  6
Continuous
 62
     2
100
AcDbHatch
 10
0.0
 20
0.0
 30
0.0
210
0.0
220
0.0
230
1.0
  2
_USER
 70
     0
 71
     1
 91
        1
 92
        1
 93
       10
 72
     1
 10
-57.54529357063203
 20
13.9699087465977
 11
-58.73808627279962
 21
13.9699087465977
 72
     1
 10
-58.73808627279962
 20
13.9699087465977
 11
-58.73808627279962
 21
10.91609922278661
 72
     1
 10
-58.73808627279962
 20
10.91609922278661
 11
-57.54529357063203
 21
10.91609922278661
 72
     1
 10
-57.54529357063203
 20
10.91609922278661
 11
-57.54529357063203
 21
12.2248747329912
 72
     1
 10
-57.54529357063203
 20
12.2248747329912
 11
-56.30478916037913
 21
10.91609922278661
 72
     1
 10
-56.30478916037913
 20
10.91609922278661
 11
-55.11199645821273
 21
10.91609922278661
 72
     1
 10
-55.11199645821273
 20
10.91609922278661
 11
-55.11199645821273
 21
13.9699087465977
 72
     1
 10
-55.11199645821273
 20
13.9699087465977
 11
-56.30478916037913
 21
13.9699087465977
 72
     1
 10
-56.30478916037913
 20
13.9699087465977
 11
-56.30478916037913
 21
12.6611332363926
 72
     1
 10
-56.30478916037913
 20
12.6611332363926
 11
-57.54529357063203
 21
13.9699087465977
 97
       10
330
1EB
330
1EC
330
1ED
330
219
330
1EE
330
1EF
330
218
330
21B
330
21A
330
1EA
 75
     1
 76
     0
 52
45.0
 41
0.1
 77
     0
 78
     1
 53
45.0
 43
0.0
 44
0.0
 45
-0.0707106781186548
 46
0.0707106781186548
 79
     0
 98
        1
 10
0.0
 20
0.0
  0
HATCH
  5
2FA
330
A8
100
AcDbEntity
  8
1
  6
Continuous
 62
     2
100
AcDbHatch
 10
0.0
 20
0.0
 30
0.0
210
0.0
220
0.0
230
1.0
  2
_USER
 70
     0
 71
     1
 91
        1
 92
        1
 93
       10
 72
     1
 10
-57.54529357063203
 20
13.9699087465977
 11
-58.73808627279962
 21
13.9699087465977
 72
     1
 10
-58.73808627279962
 20
13.9699087465977
 11
-58.73808627279962
 21
10.91609922278661
 72
     1
 10
-58.73808627279962
 20
10.91609922278661
 11
-57.54529357063203
 21
10.91609922278661
 72
     1
 10
-57.54529357063203
 20
10.91609922278661
 11
-57.54529357063203
 21
12.2248747329912
 72
     1
 10
-57.54529357063203
 20
12.2248747329912
 11
-56.30478916037913
 21
10.91609922278661
 72
     1
 10
-56.30478916037913
 20
10.91609922278661
 11
-55.11199645821273
 21
10.91609922278661
 72
     1
 10
-55.11199645821273
 20
10.91609922278661
 11
-55.11199645821273
 21
13.9699087465977
 72
     1
 10
-55.11199645821273
 20
13.9699087465977
 11
-56.30478916037913
 21
13.9699087465977
 72
     1
 10
-56.30478916037913
 20
13.9699087465977
 11
-56.30478916037913
 21
12.6611332363926
 72
     1
 10
-56.30478916037913
 20
12.6611332363926
 11
-57.54529357063203
 21
13.9699087465977
 97
       10
330
1EB
330
1EC
330
1ED
330
219
330
1EE
330
1EF
330
218
330
21B
330
21A
330
1EA
 75
     1
 76
     0
 52
45.0
 41
0.1
 77
     0
 78
     1
 53
45.0
 43
0.0
 44
0.0
 45
-0.0707106781186548
 46
0.0707106781186548
 79
     0
 98
        1
 10
0.0
 20
0.0
  0
HATCH
  5
2FB
330
A8
100
AcDbEntity
  8
1
  6
Continuous
 62
     2
100
AcDbHatch
 10
0.0
 20
0.0
 30
0.0
210
0.0
220
0.0
230
1.0
  2
_USER
 70
     0
 71
     1
 91
        1
 92
        1
 93
       12
 72
     1
 10
-58.54708850956743
 20
17.3290992227721
 11
-58.54708850956743
 21
14.2752896989609
 72
     1
 10
-58.54708850956743
 20
14.2752896989609
 11
-59.73988121173383
 21
14.2752896989609
 72
     1
 10
-59.73988121173383
 20
14.2752896989609
 11
-59.73988121173383
 21
15.40956180780472
 72
     1
 10
-59.73988121173383
 20
15.40956180780472
 11
-60.78953878964131
 21
15.40956180780472
 72
     1
 10
-60.78953878964131
 20
15.40956180780472
 11
-60.78953878964131
 21
14.2752896989609
 72
     1
 10
-60.78953878964131
 20
14.2752896989609
 11
-61.98233149180791
 21
14.2752896989609
 72
     1
 10
-61.98233149180791
 20
14.2752896989609
 11
-61.98233149180791
 21
17.3290992227721
 72
     1
 10
-61.98233149180791
 20
17.3290992227721
 11
-60.78953878964131
 21
17.3290992227721
 72
     1
 10
-60.78953878964131
 20
17.3290992227721
 11
-60.78953878964131
 21
16.26026588943751
 72
     1
 10
-60.78953878964131
 20
16.26026588943751
 11
-59.73988121173383
 21
16.26026588943751
 72
     1
 10
-59.73988121173383
 20
16.26026588943751
 11
-59.73988121173383
 21
17.3290992227721
 72
     1
 10
-59.73988121173383
 20
17.3290992227721
 11
-58.54708850956743
 21
17.3290992227721
 97
       12
330
213
330
212
330
211
330
1F9
330
1FA
330
210
330
1FB
330
20F
330
20E
330
20D
330
1F7
330
1F8
 75
     1
 76
     0
 52
45.0
 41
0.1
 77
     0
 78
     1
 53
45.0
 43
0.0
 44
0.0
 45
-0.0707106781186548
 46
0.0707106781186548
 79
     0
 98
        1
 10
0.0
 20
0.0
  0
HATCH
  5
2FC
330
A8
100
AcDbEntity
  8
1
  6
Continuous
 62
     2
100
AcDbHatch
 10
0.0
 20
0.0
 30
0.0
210
0.0
220
0.0
230
1.0
  2
_USER
 70
     0
 71
     1
 91
        1
 92
        1
 93
       12
 72
     1
 10
-58.54708850956743
 20
17.3290992227721
 11
-58.54708850956743
 21
14.2752896989609
 72
     1
 10
-58.54708850956743
 20
14.2752896989609
 11
-59.73988121173383
 21
14.2752896989609
 72
     1
 10
-59.73988121173383
 20
14.2752896989609
 11
-59.73988121173383
 21
15.40956180780472
 72
     1
 10
-59.73988121173383
 20
15.40956180780472
 11
-60.78953878964131
 21
15.40956180780472
 72
     1
 10
-60.78953878964131
 20
15.40956180780472
 11
-60.78953878964131
 21
14.2752896989609
 72
     1
 10
-60.78953878964131
 20
14.2752896989609
 11
-61.98233149180791
 21
14.2752896989609
 72
     1
 10
-61.98233149180791
 20
14.2752896989609
 11
-61.98233149180791
 21
17.3290992227721
 72
     1
 10
-61.98233149180791
 20
17.3290992227721
 11
-60.78953878964131
 21
17.3290992227721
 72
     1
 10
-60.78953878964131
 20
17.3290992227721
 11
-60.78953878964131
 21
16.26026588943751
 72
     1
 10
-60.78953878964131
 20
16.26026588943751
 11
-59.73988121173383
 21
16.26026588943751
 72
     1
 10
-59.73988121173383
 20
16.26026588943751
 11
-59.73988121173383
 21
17.3290992227721
 72
     1
 10
-59.73988121173383
 20
17.3290992227721
 11
-58.54708850956743
 21
17.3290992227721
 97
       12
330
213
330
212
330
211
330
1F9
330
1FA
330
210
330
1FB
330
20F
330
20E
330
20D
330
1F7
330
1F8
 75
     1
 76
     0
 52
45.0
 41
0.1
 77
     0
 78
     1
 53
45.0
 43
0.0
 44
0.0
 45
-0.0707106781186548
 46
0.0707106781186548
 79
     0
 98
        1
 10
0.0
 20
0.0
  0
ENDBLK
  5
AA
330
A8
100
AcDbEntity
  8
0
100
AcDbBlockEnd
  0
BLOCK
  5
AC
330
AB
100
AcDbEntity
  8
0
100
AcDbBlockBegin
  2
_punkt
 70
     0
 10
53.33021530422148
 20
3.6225992227703
 30
0.0
  3
_punkt
  1

  0
LINE
  5
2FD
330
AB
100
AcDbEntity
  8
1
  6
Continuous
 62
     2
100
AcDbLine
 10
53.33021530422148
 20
3.6225992227703
 30
0.0
 11
53.33021530422148
 21
-1.37740077722981
 31
0.0
  0
LINE
  5
2FE
330
AB
100
AcDbEntity
  8
1
  6
Continuous
 62
     2
100
AcDbLine
 10
53.33021530422148
 20
3.6225992227703
 30
0.0
 11
58.33021530422047
 21
3.6225992227703
 31
0.0
  0
ENDBLK
  5
AD
330
AB
100
AcDbEntity
  8
0
100
AcDbBlockEnd
  0
BLOCK
  5
B1
330
AE
100
AcDbEntity
  8
0
100
AcDbBlockBegin
  2
A4I_CS
 70
     0
 10
53.33021530422148
 20
-1.37740077722981
 30
0.0
  3
A4I_CS
  1

  0
INSERT
  5
AF
330
AE
100
AcDbEntity
  8
1
100
AcDbBlockReference
  2
_rahmen
 10
53.33021530422148
 20
-1.37740077722981
 30
0.0
  0
INSERT
  5
B0
330
AE
100
AcDbEntity
  8
1
100
AcDbBlockReference
  2
_punkt
 10
53.33021530422148
 20
3.6225992227703
 30
0.0
  0
ENDBLK
  5
B2
330
AE
100
AcDbEntity
  8
0
100
AcDbBlockEnd
  0
BLOCK
  5
BB
330
B3
100
AcDbEntity
  8
0
100
AcDbBlockBegin
  2
1
 70
     0
 10
0.0
 20
0.0
 30
0.0
  3
1
  1

  0
INSERT
  5
B4
330
B3
100
AcDbEntity
  8
0
100
AcDbBlockReference
  2
Back1
 10
19.7999954223734
 20
149.00000000007
 30
0.0
 41
2.0
 42
2.0
 43
2.0
  0
INSERT
  5
B5
330
B3
100
AcDbEntity
  8
0
100
AcDbBlockReference
  2
Front1
 10
-113.00000000001
 20
149.0000000000699
 30
0.0
 41
2.0
 42
2.0
 43
2.0
  0
INSERT
  5
B6
330
B3
100
AcDbEntity
  8
0
100
AcDbBlockReference
  2
Gen1
 10
16.9999999999819
 20
72.00000000005411
 30
0.0
 41
2.0
 42
2.0
 43
2.0
  0
INSERT
  5
B7
330
B3
100
AcDbEntity
  8
0
100
AcDbBlockReference
  2
Left1
 10
-40.1000022887983
 20
149.0000000000699
 30
0.0
 41
2.0
 42
2.0
 43
2.0
  0
INSERT
  5
B8
330
B3
100
AcDbEntity
  8
0
100
AcDbBlockReference
  2
Right1
 10
-188.8999977112014
 20
149.0000000000699
 30
0.0
 41
2.0
 42
2.0
 43
2.0
  0
INSERT
  5
B9
330
B3
100
AcDbEntity
  8
0
100
AcDbBlockReference
  2
Top1
 10
-113.00000000001
 20
67.10000228879836
 30
0.0
 41
2.0
 42
2.0
 43
2.0
  0
INSERT
  5
BA
330
B3
100
AcDbEntity
  8
0
100
AcDbBlockReference
  2
A4I_CS
 10
53.33021530422148
 20
-1.37740077722981
 30
0.0
  0
ENDBLK
  5
BC
330
B3
100
AcDbEntity
  8
0
100
AcDbBlockEnd
  0
BLOCK
  5
113
330
10C
100
AcDbEntity
  8
0
100
AcDbBlockBegin
  2
*D19
 70
     1
 10
0.0
 20
0.0
 30
0.0
  3
*D19
  1

  0
LINE
  5
10D
330
10C
100
AcDbEntity
  8
1
  6
Continuous
 62
     2
100
AcDbLine
 10
-62.00000000001002
 20
55.64383558842093
 30
0.0
 11
-51.00000000001002
 21
55.64383558842093
 31
0.0
  0
LINE
  5
10E
330
10C
100
AcDbEntity
  8
1
  6
Continuous
 62
     2
100
AcDbLine
 10
-62.00000000001002
 20
77.75000000006995
 30
0.0
 11
-62.00000000001002
 21
54.89383558842093
 31
0.0
  0
LINE
  5
10F
330
10C
100
AcDbEntity
  8
1
  6
Continuous
 62
     2
100
AcDbLine
 10
-51.00000000001002
 20
77.75000000006995
 30
0.0
 11
-51.00000000001002
 21
54.89383558842093
 31
0.0
  0
SOLID
  5
110
330
10C
100
AcDbEntity
  8
1
 62
     2
100
AcDbTrace
 10
-60.25000000001002
 20
55.87422745919887
 30
0.0
 11
-60.25000000001002
 21
55.41344371764298
 31
0.0
 12
-62.00000000001002
 22
55.64383558842093
 32
0.0
 13
-62.00000000001002
 23
55.64383558842093
 33
0.0
  0
SOLID
  5
111
330
10C
100
AcDbEntity
  8
1
 62
     2
100
AcDbTrace
 10
-52.75000000001002
 20
55.41344371764298
 30
0.0
 11
-52.75000000001002
 21
55.87422745919887
 31
0.0
 12
-51.00000000001002
 22
55.64383558842093
 32
0.0
 13
-51.00000000001002
 23
55.64383558842093
 33
0.0
  0
MTEXT
  5
112
330
10C
100
AcDbEntity
  8
1
 62
     3
100
AcDbMText
 10
-57.287500000005
 20
56.64383558842093
 30
0.0
 40
1.75
 41
0.0
 71
     7
 72
     1
  1
11
  7
CONVERTER_11
 11
0.9999999999970619
 21
2.424068405545306E-6
 31
0.0
 73
     1
 44
0.60024009603842
  0
ENDBLK
  5
114
330
10C
100
AcDbEntity
  8
0
100
AcDbBlockEnd
  0
BLOCK
  5
11E
330
117
100
AcDbEntity
  8
0
100
AcDbBlockBegin
  2
*D20
 70
     1
 10
0.0
 20
0.0
 30
0.0
  3
*D20
  1

  0
LINE
  5
118
330
117
100
AcDbEntity
  8
1
  6
Continuous
 62
     2
100
AcDbLine
 10
-68.6799683523355
 20
87.50000000006995
 30
0.0
 11
-68.6799683523355
 21
61.50000000006995
 31
0.0
  0
LINE
  5
119
330
117
100
AcDbEntity
  8
1
  6
Continuous
 62
     2
100
AcDbLine
 10
-61.70000000001001
 20
87.50000000006995
 30
0.0
 11
-69.4299683523355
 21
87.50000000006995
 31
0.0
  0
LINE
  5
11A
330
117
100
AcDbEntity
  8
1
  6
Continuous
 62
     2
100
AcDbLine
 10
-59.75000000001001
 20
61.50000000006995
 30
0.0
 11
-69.4299683523355
 21
61.50000000006995
 31
0.0
  0
SOLID
  5
11B
330
117
100
AcDbEntity
  8
1
 62
     2
100
AcDbTrace
 10
-68.44957648155756
 20
85.75000000006995
 30
0.0
 11
-68.91036022311343
 21
85.75000000006995
 31
0.0
 12
-68.6799683523355
 22
87.50000000006995
 32
0.0
 13
-68.6799683523355
 23
87.50000000006995
 33
0.0
  0
SOLID
  5
11C
330
117
100
AcDbEntity
  8
1
 62
     2
100
AcDbTrace
 10
-68.91036022311343
 20
63.25000000006995
 30
0.0
 11
-68.44957648155756
 21
63.25000000006995
 31
0.0
 12
-68.6799683523355
 22
61.50000000006995
 32
0.0
 13
-68.6799683523355
 23
61.50000000006995
 33
0.0
  0
MTEXT
  5
11D
330
117
100
AcDbEntity
  8
1
 62
     3
100
AcDbMText
 10
-69.6799683523355
 20
74.31065390471043
 30
0.0
 40
1.75
 41
0.0
 71
     7
 72
     1
  1
26
  7
CONVERTER_11
 11
0.0
 21
1.0
 31
0.0
 73
     1
 44
0.60024009603842
  0
ENDBLK
  5
11F
330
117
100
AcDbEntity
  8
0
100
AcDbBlockEnd
  0
BLOCK
  5
176
330
16F
100
AcDbEntity
  8
0
100
AcDbBlockBegin
  2
*D21
 70
     1
 10
0.0
 20
0.0
 30
0.0
  3
*D21
  1

  0
LINE
  5
170
330
16F
100
AcDbEntity
  8
1
  6
Continuous
 62
     2
100
AcDbLine
 10
-39.12556698002478
 20
77.80000000006993
 30
0.0
 11
-39.12556698002478
 21
61.50000000006995
 31
0.0
  0
LINE
  5
171
330
16F
100
AcDbEntity
  8
1
  6
Continuous
 62
     2
100
AcDbLine
 10
-33.25000139099486
 20
77.80000000006993
 30
0.0
 11
-39.87556698002478
 21
77.80000000006993
 31
0.0
  0
LINE
  5
172
330
16F
100
AcDbEntity
  8
1
  6
Continuous
 62
     2
100
AcDbLine
 10
-15.75000139099488
 20
61.50000000006995
 30
0.0
 11
-39.87556698002478
 21
61.50000000006995
 31
0.0
  0
SOLID
  5
173
330
16F
100
AcDbEntity
  8
1
 62
     2
100
AcDbTrace
 10
-38.89517510924684
 20
76.05000000006993
 30
0.0
 11
-39.35595885080272
 21
76.05000000006993
 31
0.0
 12
-39.12556698002478
 22
77.80000000006993
 32
0.0
 13
-39.12556698002478
 23
77.80000000006993
 33
0.0
  0
SOLID
  5
174
330
16F
100
AcDbEntity
  8
1
 62
     2
100
AcDbTrace
 10
-39.35595885080272
 20
63.25000000006995
 30
0.0
 11
-38.89517510924684
 21
63.25000000006995
 31
0.0
 12
-39.12556698002478
 22
61.50000000006995
 32
0.0
 13
-39.12556698002478
 23
61.50000000006995
 33
0.0
  0
MTEXT
  5
175
330
16F
100
AcDbEntity
  8
1
 62
     3
100
AcDbMText
 10
-40.30056698002478
 20
68.12234975772292
 30
0.0
 40
1.75
 41
0.0
 71
     7
 72
     1
  1
16,3
  7
CONVERTER_11
 11
0.0
 21
1.0
 31
0.0
 73
     1
 44
0.60024009603842
  0
ENDBLK
  5
177
330
16F
100
AcDbEntity
  8
0
100
AcDbBlockEnd
  0
BLOCK
  5
1C2
330
1BB
100
AcDbEntity
  8
0
100
AcDbBlockBegin
  2
*D22
 70
     1
 10
0.0
 20
0.0
 30
0.0
  3
*D22
  1

  0
LINE
  5
1BC
330
1BB
100
AcDbEntity
  8
1
  6
Continuous
 62
     2
100
AcDbLine
 10
-67.312622266717
 20
46.5000013909949
 30
0.0
 11
-67.312622266717
 21
20.6000013909949
 31
0.0
  0
LINE
  5
1BD
330
1BB
100
AcDbEntity
  8
1
  6
Continuous
 62
     2
100
AcDbLine
 10
-62.20000000001002
 20
46.5000013909949
 30
0.0
 11
-68.062622266717
 21
46.5000013909949
 31
0.0
  0
LINE
  5
1BE
330
1BB
100
AcDbEntity
  8
1
  6
Continuous
 62
     2
100
AcDbLine
 10
-62.25000000001002
 20
20.6000013909949
 30
0.0
 11
-68.062622266717
 21
20.6000013909949
 31
0.0
  0
SOLID
  5
1BF
330
1BB
100
AcDbEntity
  8
1
 62
     2
100
AcDbTrace
 10
-67.08223039593906
 20
44.7500013909949
 30
0.0
 11
-67.54301413749494
 21
44.7500013909949
 31
0.0
 12
-67.312622266717
 22
46.5000013909949
 32
0.0
 13
-67.312622266717
 23
46.5000013909949
 33
0.0
  0
SOLID
  5
1C0
330
1BB
100
AcDbEntity
  8
1
 62
     2
100
AcDbTrace
 10
-67.54301413749494
 20
22.3500013909949
 30
0.0
 11
-67.08223039593906
 21
22.3500013909949
 31
0.0
 12
-67.312622266717
 22
20.6000013909949
 32
0.0
 13
-67.312622266717
 23
20.6000013909949
 33
0.0
  0
MTEXT
  5
1C1
330
1BB
100
AcDbEntity
  8
1
 62
     3
100
AcDbMText
 10
-68.48762226671701
 20
31.8463224570226
 30
0.0
 40
1.75
 41
0.0
 71
     7
 72
     1
  1
25,9
  7
CONVERTER_11
 11
0.0
 21
1.0
 31
0.0
 73
     1
 44
0.60024009603842
  0
ENDBLK
  5
1C3
330
1BB
100
AcDbEntity
  8
0
100
AcDbBlockEnd
  0
ENDSEC
  0
SECTION
  2
ENTITIES
  0
INSERT
  5
BD
330
1F
100
AcDbEntity
  8
1
100
AcDbBlockReference
  2
1
 10
0.0
 20
0.0
 30
0.0
  0
ENDSEC
  0
SECTION
  2
OBJECTS
  0
DICTIONARY
  5
C
330
0
100
AcDbDictionary
281
     1
  3
ACAD_DETAILVIEWSTYLE
350
344
  3
ACAD_GROUP
350
D
  3
ACAD_LAYOUT
350
1A
  3
ACAD_MATERIAL
350
43
  3
ACAD_MLEADERSTYLE
350
6B
  3
ACAD_MLINESTYLE
350
17
  3
ACAD_PLOTSETTINGS
350
19
  3
ACAD_PLOTSTYLENAME
350
E
  3
ACAD_SCALELIST
350
47
  3
ACAD_SECTIONVIEWSTYLE
350
345
  3
ACAD_TABLESTYLE
350
69
  3
ACAD_VISUALSTYLE
350
2A
  3
ACDB_RECOMPOSE_DATA
350
341
  3
AcDbVariableDictionary
350
301
  0
DICTIONARY
  5
2FF
330
8
100
AcDbDictionary
280
     1
281
     1
  3
ACAD_XREC_ROUNDTRIP
360
300
  0
DICTIONARY
  5
344
102
{ACAD_REACTORS
330
C
102
}
330
C
100
AcDbDictionary
281
     1
  0
DICTIONARY
  5
D
102
{ACAD_REACTORS
330
C
102
}
330
C
100
AcDbDictionary
281
     1
  0
DICTIONARY
  5
1A
102
{ACAD_REACTORS
330
C
102
}
330
C
100
AcDbDictionary
281
     1
  3
Layout1
350
1E
  3
Layout2
350
26
  3
Model
350
22
  0
DICTIONARY
  5
43
102
{ACAD_REACTORS
330
C
102
}
330
C
100
AcDbDictionary
281
     1
  3
ByBlock
350
45
  3
ByLayer
350
44
  3
Global
350
46
  0
DICTIONARY
  5
6B
102
{ACAD_REACTORS
330
C
102
}
330
C
100
AcDbDictionary
281
     1
  3
Standard
350
6C
  0
DICTIONARY
  5
17
102
{ACAD_REACTORS
330
C
102
}
330
C
100
AcDbDictionary
281
     1
  3
Standard
350
18
  0
DICTIONARY
  5
19
102
{ACAD_REACTORS
330
C
102
}
330
C
100
AcDbDictionary
281
     1
  0
ACDBDICTIONARYWDFLT
  5
E
102
{ACAD_REACTORS
330
C
102
}
330
C
100
AcDbDictionary
281
     1
  3
Normal
350
F
100
AcDbDictionaryWithDefault
340
F
  0
DICTIONARY
  5
47
102
{ACAD_REACTORS
330
C
102
}
330
C
100
AcDbDictionary
281
     1
  3
A0
350
48
  3
A1
350
49
  3
A2
350
4A
  3
A3
350
4B
  3
A4
350
4C
  3
A5
350
4D
  3
A6
350
4E
  3
A7
350
4F
  3
A8
350
50
  3
A9
350
51
  3
B0
350
52
  3
B1
350
53
  3
B2
350
54
  3
B3
350
55
  3
B4
350
56
  3
B5
350
57
  3
B6
350
58
  3
B7
350
59
  3
B8
350
5A
  3
B9
350
5B
  3
C0
350
5C
  3
C1
350
5D
  3
C2
350
5E
  3
C3
350
5F
  3
C4
350
60
  3
C5
350
61
  3
C6
350
62
  3
C7
350
63
  3
C8
350
64
  3
C9
350
65
  3
D0
350
66
  3
D1
350
67
  3
D2
350
68
  0
DICTIONARY
  5
345
102
{ACAD_REACTORS
330
C
102
}
330
C
100
AcDbDictionary
281
     1
  0
DICTIONARY
  5
69
102
{ACAD_REACTORS
330
C
102
}
330
C
100
AcDbDictionary
281
     1
  3
Standard
350
6A
  0
DICTIONARY
  5
2A
102
{ACAD_REACTORS
330
C
102
}
330
C
100
AcDbDictionary
281
     1
  3
2dWireframe
350
2F
  3
Basic
350
32
  3
Brighten
350
36
  3
ColorChange
350
3A
  3
Conceptual
350
34
  3
Dim
350
35
  3
EdgeColorOff
350
3D
  3
Facepattern
350
39
  3
Flat
350
2B
  3
FlatWithEdges
350
2C
  3
Gouraud
350
2D
  3
GouraudWithEdges
350
2E
  3
Hidden
350
31
  3
JitterOff
350
3B
  3
Linepattern
350
38
  3
OverhangOff
350
3C
  3
Realistic
350
33
  3
Shaded
350
42
  3
Shaded with edges
350
41
  3
Shades of Gray
350
3E
  3
Sketchy
350
3F
  3
Thicken
350
37
  3
Wireframe
350
30
  3
X-Ray
350
40
  0
XRECORD
  5
341
102
{ACAD_REACTORS
330
C
102
}
330
C
100
AcDbXrecord
280
     1
 90
        1
330
6A
  0
DICTIONARY
  5
301
102
{ACAD_REACTORS
330
C
102
}
330
C
100
AcDbDictionary
281
     1
  3
CANNOSCALE
350
302
  3
CMLEADERSTYLE
350
343
  3
CTABLESTYLE
350
342
  3
MSLTSCALE
350
303
  3
XCLIPFRAME
350
304
  0
XRECORD
  5
300
102
{ACAD_REACTORS
330
2FF
102
}
330
2FF
100
AcDbXrecord
280
     1
102
VTR_0.000_0.000_1.000_1.000_VISUALSTYLE
340
2F
102
VTR_0.000_0.000_1.000_1.000_GRIDDISPLAY
 70
     3
102
VTR_0.000_0.000_1.000_1.000_GRIDMAJOR
 70
     5
102
VTR_0.000_0.000_1.000_1.000_DEFAULTLIGHTING
280
     1
102
VTR_0.000_0.000_1.000_1.000_DEFAULTLIGHTINGTYPE
 70
     1
102
VTR_0.000_0.000_1.000_1.000_BRIGHTNESS
141
0.0
102
VTR_0.000_0.000_1.000_1.000_CONTRAST
142
0.0
  0
LAYOUT
  5
1E
102
{ACAD_REACTORS
330
1A
102
}
330
1A
100
AcDbPlotSettings
  1

  2
none_device
  4

  6

 40
0.0
 41
0.0
 42
0.0
 43
0.0
 44
0.0
 45
0.0
 46
0.0
 47
0.0
 48
0.0
 49
0.0
140
0.0
141
0.0
142
1.0
143
1.0
 70
   688
 72
     0
 73
     0
 74
     5
  7

 75
    16
 76
     0
 77
     2
 78
   300
147
1.0
148
0.0
149
0.0
100
AcDbLayout
  1
Layout1
 70
     1
 71
     1
 10
0.0
 20
0.0
 11
12.0
 21
9.0
 12
0.0
 22
0.0
 32
0.0
 14
1.00000000000000E+20
 24
1.00000000000000E+20
 34
1.00000000000000E+20
 15
-1.00000000000000E+20
 25
-1.00000000000000E+20
 35
-1.00000000000000E+20
146
0.0
 13
0.0
 23
0.0
 33
0.0
 16
1.0
 26
0.0
 36
0.0
 17
0.0
 27
1.0
 37
0.0
 76
     0
330
1B
  0
LAYOUT
  5
26
102
{ACAD_REACTORS
330
1A
102
}
330
1A
100
AcDbPlotSettings
  1

  2
none_device
  4

  6

 40
0.0
 41
0.0
 42
0.0
 43
0.0
 44
0.0
 45
0.0
 46
0.0
 47
0.0
 48
0.0
 49
0.0
140
0.0
141
0.0
142
1.0
143
1.0
 70
   688
 72
     0
 73
     0
 74
     5
  7

 75
    16
 76
     0
 77
     2
 78
   300
147
1.0
148
0.0
149
0.0
100
AcDbLayout
  1
Layout2
 70
     1
 71
     2
 10
0.0
 20
0.0
 11
0.0
 21
0.0
 12
0.0
 22
0.0
 32
0.0
 14
0.0
 24
0.0
 34
0.0
 15
0.0
 25
0.0
 35
0.0
146
0.0
 13
0.0
 23
0.0
 33
0.0
 16
1.0
 26
0.0
 36
0.0
 17
0.0
 27
1.0
 37
0.0
 76
     0
330
23
  0
LAYOUT
  5
22
102
{ACAD_REACTORS
330
1A
102
}
330
1A
100
AcDbPlotSettings
  1

  2
none_device
  4
Letter_(8.50_x_11.00_Inches)
  6

 40
6.35
 41
6.35
 42
6.35000508
 43
6.35000508
 44
215.9
 45
279.4
 46
0.0
 47
0.0
 48
0.0
 49
0.0
140
0.0
141
0.0
142
1.0
143
1.0
 70
  1712
 72
     0
 73
     0
 74
     0
  7

 75
     0
 76
     0
 77
     2
 78
   300
147
1.0
148
0.0
149
0.0
100
AcDbLayout
  1
Model
 70
     1
 71
     0
 10
0.0
 20
0.0
 11
12.0
 21
9.0
 12
0.0
 22
0.0
 32
0.0
 14
-238.6697846957776
 24
-1.37740077722981
 34
0.0
 15
58.33021530422047
 25
208.6225992227703
 35
0.0
146
0.0
 13
0.0
 23
0.0
 33
0.0
 16
1.0
 26
0.0
 36
0.0
 17
0.0
 27
1.0
 37
0.0
 76
     0
330
1F
331
29
  0
MATERIAL
  5
45
102
{ACAD_REACTORS
330
43
102
}
102
{ACAD_XDICTIONARY
360
337
102
}
330
43
100
AcDbMaterial
  1
ByBlock
  0
MATERIAL
  5
44
102
{ACAD_REACTORS
330
43
102
}
102
{ACAD_XDICTIONARY
360
335
102
}
330
43
100
AcDbMaterial
  1
ByLayer
  0
MATERIAL
  5
46
102
{ACAD_REACTORS
330
43
102
}
102
{ACAD_XDICTIONARY
360
339
102
}
330
43
100
AcDbMaterial
  1
Global
  0
MLEADERSTYLE
  5
6C
102
{ACAD_REACTORS
330
6B
102
}
102
{ACAD_XDICTIONARY
360
33F
102
}
330
6B
100
AcDbMLeaderStyle
170
     2
171
     1
172
     0
 90
        2
 40
0.0
 41
0.0
173
     1
 91
-1056964608
340
14
 92
       -2
290
     1
 42
0.09
291
     1
 43
0.36
  3
Standard
341
0
 44
0.18
300

342
11
174
     1
178
     6
175
     1
176
     0
 93
-1056964608
 45
0.18
292
     0
297
     0
 46
0.18
343
0
 94
-1056964608
 47
1.0
 49
1.0
140
1.0
293
     1
141
0.0
294
     1
177
     0
142
1.0
295
     0
296
     0
143
0.125
1001
ACAD_MLEADERVER
1070
     2
  0
MLINESTYLE
  5
18
102
{ACAD_REACTORS
330
17
102
}
330
17
100
AcDbMlineStyle
  2
Standard
 70
     0
  3

 62
   256
 51
90.0
 52
90.0
 71
     2
 49
0.5
 62
   256
  6
BYLAYER
 49
-0.5
 62
   256
  6
BYLAYER
  0
ACDBPLACEHOLDER
  5
F
102
{ACAD_REACTORS
330
E
102
}
330
E
  0
SCALE
  5
48
102
{ACAD_REACTORS
330
47
102
}
330
47
100
AcDbScale
 70
     0
300
1:1
140
1.0
141
1.0
290
     1
  0
SCALE
  5
49
102
{ACAD_REACTORS
330
47
102
}
330
47
100
AcDbScale
 70
     0
300
1:2
140
1.0
141
2.0
290
     0
  0
SCALE
  5
4A
102
{ACAD_REACTORS
330
47
102
}
330
47
100
AcDbScale
 70
     0
300
1:4
140
1.0
141
4.0
290
     0
  0
SCALE
  5
4B
102
{ACAD_REACTORS
330
47
102
}
330
47
100
AcDbScale
 70
     0
300
1:5
140
1.0
141
5.0
290
     0
  0
SCALE
  5
4C
102
{ACAD_REACTORS
330
47
102
}
330
47
100
AcDbScale
 70
     0
300
1:8
140
1.0
141
8.0
290
     0
  0
SCALE
  5
4D
102
{ACAD_REACTORS
330
47
102
}
330
47
100
AcDbScale
 70
     0
300
1:10
140
1.0
141
10.0
290
     0
  0
SCALE
  5
4E
102
{ACAD_REACTORS
330
47
102
}
330
47
100
AcDbScale
 70
     0
300
1:16
140
1.0
141
16.0
290
     0
  0
SCALE
  5
4F
102
{ACAD_REACTORS
330
47
102
}
330
47
100
AcDbScale
 70
     0
300
1:20
140
1.0
141
20.0
290
     0
  0
SCALE
  5
50
102
{ACAD_REACTORS
330
47
102
}
330
47
100
AcDbScale
 70
     0
300
1:30
140
1.0
141
30.0
290
     0
  0
SCALE
  5
51
102
{ACAD_REACTORS
330
47
102
}
330
47
100
AcDbScale
 70
     0
300
1:40
140
1.0
141
40.0
290
     0
  0
SCALE
  5
52
102
{ACAD_REACTORS
330
47
102
}
330
47
100
AcDbScale
 70
     0
300
1:50
140
1.0
141
50.0
290
     0
  0
SCALE
  5
53
102
{ACAD_REACTORS
330
47
102
}
330
47
100
AcDbScale
 70
     0
300
1:100
140
1.0
141
100.0
290
     0
  0
SCALE
  5
54
102
{ACAD_REACTORS
330
47
102
}
330
47
100
AcDbScale
 70
     0
300
2:1
140
2.0
141
1.0
290
     0
  0
SCALE
  5
55
102
{ACAD_REACTORS
330
47
102
}
330
47
100
AcDbScale
 70
     0
300
4:1
140
4.0
141
1.0
290
     0
  0
SCALE
  5
56
102
{ACAD_REACTORS
330
47
102
}
330
47
100
AcDbScale
 70
     0
300
8:1
140
8.0
141
1.0
290
     0
  0
SCALE
  5
57
102
{ACAD_REACTORS
330
47
102
}
330
47
100
AcDbScale
 70
     0
300
10:1
140
10.0
141
1.0
290
     0
  0
SCALE
  5
58
102
{ACAD_REACTORS
330
47
102
}
330
47
100
AcDbScale
 70
     0
300
100:1
140
100.0
141
1.0
290
     0
  0
SCALE
  5
59
102
{ACAD_REACTORS
330
47
102
}
330
47
100
AcDbScale
 70
     0
300
1/128" = 1'-0"
140
0.0078125
141
12.0
290
     0
  0
SCALE
  5
5A
102
{ACAD_REACTORS
330
47
102
}
330
47
100
AcDbScale
 70
     0
300
1/64" = 1'-0"
140
0.015625
141
12.0
290
     0
  0
SCALE
  5
5B
102
{ACAD_REACTORS
330
47
102
}
330
47
100
AcDbScale
 70
     0
300
1/32" = 1'-0"
140
0.03125
141
12.0
290
     0
  0
SCALE
  5
5C
102
{ACAD_REACTORS
330
47
102
}
330
47
100
AcDbScale
 70
     0
300
1/16" = 1'-0"
140
0.0625
141
12.0
290
     0
  0
SCALE
  5
5D
102
{ACAD_REACTORS
330
47
102
}
330
47
100
AcDbScale
 70
     0
300
3/32" = 1'-0"
140
0.09375
141
12.0
290
     0
  0
SCALE
  5
5E
102
{ACAD_REACTORS
330
47
102
}
330
47
100
AcDbScale
 70
     0
300
1/8" = 1'-0"
140
0.125
141
12.0
290
     0
  0
SCALE
  5
5F
102
{ACAD_REACTORS
330
47
102
}
330
47
100
AcDbScale
 70
     0
300
3/16" = 1'-0"
140
0.1875
141
12.0
290
     0
  0
SCALE
  5
60
102
{ACAD_REACTORS
330
47
102
}
330
47
100
AcDbScale
 70
     0
300
1/4" = 1'-0"
140
0.25
141
12.0
290
     0
  0
SCALE
  5
61
102
{ACAD_REACTORS
330
47
102
}
330
47
100
AcDbScale
 70
     0
300
3/8" = 1'-0"
140
0.375
141
12.0
290
     0
  0
SCALE
  5
62
102
{ACAD_REACTORS
330
47
102
}
330
47
100
AcDbScale
 70
     0
300
1/2" = 1'-0"
140
0.5
141
12.0
290
     0
  0
SCALE
  5
63
102
{ACAD_REACTORS
330
47
102
}
330
47
100
AcDbScale
 70
     0
300
3/4" = 1'-0"
140
0.75
141
12.0
290
     0
  0
SCALE
  5
64
102
{ACAD_REACTORS
330
47
102
}
330
47
100
AcDbScale
 70
     0
300
1" = 1'-0"
140
1.0
141
12.0
290
     0
  0
SCALE
  5
65
102
{ACAD_REACTORS
330
47
102
}
330
47
100
AcDbScale
 70
     0
300
1-1/2" = 1'-0"
140
1.5
141
12.0
290
     0
  0
SCALE
  5
66
102
{ACAD_REACTORS
330
47
102
}
330
47
100
AcDbScale
 70
     0
300
3" = 1'-0"
140
3.0
141
12.0
290
     0
  0
SCALE
  5
67
102
{ACAD_REACTORS
330
47
102
}
330
47
100
AcDbScale
 70
     0
300
6" = 1'-0"
140
6.0
141
12.0
290
     0
  0
SCALE
  5
68
102
{ACAD_REACTORS
330
47
102
}
330
47
100
AcDbScale
 70
     0
300
1'-0" = 1'-0"
140
12.0
141
12.0
290
     0
  0
TABLESTYLE
  5
6A
102
{ACAD_REACTORS
330
69
102
}
102
{ACAD_XDICTIONARY
360
33B
102
}
330
69
100
AcDbTableStyle
  3
Standard
 70
     0
 71
     0
 40
0.06
 41
0.06
280
     0
281
     0
  7
Standard
140
0.18
170
     2
 62
     0
 63
   257
283
     0
274
    -2
284
     1
 64
     0
275
    -2
285
     1
 65
     0
276
    -2
286
     1
 66
     0
277
    -2
287
     1
 67
     0
278
    -2
288
     1
 68
     0
279
    -2
289
     1
 69
     0
  7
Standard
140
0.25
170
     5
 62
     0
 63
   257
283
     0
274
    -2
284
     1
 64
     0
275
    -2
285
     1
 65
     0
276
    -2
286
     1
 66
     0
277
    -2
287
     1
 67
     0
278
    -2
288
     1
 68
     0
279
    -2
289
     1
 69
     0
  7
Standard
140
0.18
170
     5
 62
     0
 63
   257
283
     0
274
    -2
284
     1
 64
     0
275
    -2
285
     1
 65
     0
276
    -2
286
     1
 66
     0
277
    -2
287
     1
 67
     0
278
    -2
288
     1
 68
     0
279
    -2
289
     1
 69
     0
  0
VISUALSTYLE
  5
2F
102
{ACAD_REACTORS
330
2A
102
}
102
{ACAD_XDICTIONARY
360
30D
102
}
330
2A
100
AcDbVisualStyle
  2
2dWireframe
 70
     4
 71
     0
 72
     2
 73
     0
 90
        0
 40
0.6
 41
30.0
 62
     5
 63
     7
421
 16777215
 74
     1
 91
        4
 64
     7
 65
   257
 75
     1
175
     1
 42
1.0
 92
        0
 66
   257
 43
1.0
 76
     1
 77
     6
 78
     2
 67
     7
 79
     5
170
     0
171
     0
290
     0
174
     0
 93
        1
 44
0.0
173
     0
291
     0
 45
0.0
1001
ACAD
1000
AcDbSavedByObjectVersion
1070
     0
  0
VISUALSTYLE
  5
32
102
{ACAD_REACTORS
330
2A
102
}
102
{ACAD_XDICTIONARY
360
313
102
}
330
2A
100
AcDbVisualStyle
  2
Basic
 70
     7
 71
     1
 72
     0
 73
     1
 90
        0
 40
0.6
 41
30.0
 62
     5
 63
     7
421
 16777215
 74
     0
 91
        4
 64
     7
 65
   257
 75
     1
175
     1
 42
1.0
 92
        8
 66
     7
 43
1.0
 76
     1
 77
     6
 78
     2
 67
     7
 79
     5
170
     0
171
     0
290
     0
174
     0
 93
        1
 44
0.0
173
     0
291
     1
 45
0.0
1001
ACAD
1000
AcDbSavedByObjectVersion
1070
     0
  0
VISUALSTYLE
  5
36
102
{ACAD_REACTORS
330
2A
102
}
102
{ACAD_XDICTIONARY
360
31B
102
}
330
2A
100
AcDbVisualStyle
  2
Brighten
 70
    12
 71
     2
 72
     2
 73
     0
 90
        0
 40
0.6
 41
30.0
 62
     5
 63
     7
421
 16777215
 74
     1
 91
        4
 64
     7
 65
   257
 75
     1
175
     1
 42
1.0
 92
        8
 66
     7
 43
1.0
 76
     1
 77
     6
 78
     2
 67
     7
 79
     5
170
     0
171
     0
290
     0
174
     0
 93
        1
 44
50.0
173
     0
291
     1
 45
0.0
1001
ACAD
1000
AcDbSavedByObjectVersion
1070
     0
  0
VISUALSTYLE
  5
3A
102
{ACAD_REACTORS
330
2A
102
}
102
{ACAD_XDICTIONARY
360
323
102
}
330
2A
100
AcDbVisualStyle
  2
ColorChange
 70
    16
 71
     2
 72
     2
 73
     3
 90
        0
 40
0.6
 41
30.0
 62
     5
 63
     8
421
  8421504
 74
     1
 91
        4
 64
     7
 65
   257
 75
     1
175
     1
 42
1.0
 92
        8
 66
     8
424
  8421504
 43
1.0
 76
     1
 77
     6
 78
     2
 67
     7
 79
     5
170
     0
171
     0
290
     0
174
     0
 93
        1
 44
0.0
173
     0
291
     1
 45
0.0
1001
ACAD
1000
AcDbSavedByObjectVersion
1070
     0
  0
VISUALSTYLE
  5
34
102
{ACAD_REACTORS
330
2A
102
}
102
{ACAD_XDICTIONARY
360
317
102
}
330
2A
100
AcDbVisualStyle
  2
Conceptual
 70
     9
 71
     3
 72
     2
 73
     0
 90
        0
 40
0.6
 41
30.0
 62
     5
 63
     7
421
 16777215
 74
     2
 91
        2
 64
     7
 65
   257
 75
     1
175
     1
 42
179.0
 92
        8
 66
     7
 43
1.0
 76
     1
 77
     6
 78
     2
 67
     7
 79
     3
170
     0
171
     0
290
     0
174
     0
 93
        1
 44
0.0
173
     0
291
     0
 45
0.0
1001
ACAD
1000
AcDbSavedByObjectVersion
1070
     0
  0
VISUALSTYLE
  5
35
102
{ACAD_REACTORS
330
2A
102
}
102
{ACAD_XDICTIONARY
360
319
102
}
330
2A
100
AcDbVisualStyle
  2
Dim
 70
    11
 71
     2
 72
     2
 73
     0
 90
        0
 40
0.6
 41
30.0
 62
     5
 63
     7
421
 16777215
 74
     1
 91
        4
 64
     7
 65
   257
 75
     1
175
     1
 42
1.0
 92
        8
 66
     7
 43
1.0
 76
     1
 77
     6
 78
     2
 67
     7
 79
     5
170
     0
171
     0
290
     0
174
     0
 93
        1
 44
-50.0
173
     0
291
     1
 45
0.0
1001
ACAD
1000
AcDbSavedByObjectVersion
1070
     0
  0
VISUALSTYLE
  5
3D
102
{ACAD_REACTORS
330
2A
102
}
102
{ACAD_XDICTIONARY
360
329
102
}
330
2A
100
AcDbVisualStyle
  2
EdgeColorOff
 70
    22
 71
     2
 72
     2
 73
     0
 90
        0
 40
0.6
 41
30.0
 62
     5
 63
     7
421
 16777215
 74
     1
 91
        4
 64
     7
 65
   257
 75
     1
175
     1
 42
1.0
 92
        8
 66
     7
 43
1.0
 76
     1
 77
     6
 78
     2
 67
     7
 79
     5
170
     0
171
     0
290
     0
174
     0
 93
        1
 44
0.0
173
     0
291
     1
 45
0.0
1001
ACAD
1000
AcDbSavedByObjectVersion
1070
     0
  0
VISUALSTYLE
  5
39
102
{ACAD_REACTORS
330
2A
102
}
102
{ACAD_XDICTIONARY
360
321
102
}
330
2A
100
AcDbVisualStyle
  2
Facepattern
 70
    15
 71
     2
 72
     2
 73
     0
 90
        0
 40
0.6
 41
30.0
 62
     5
 63
     7
421
 16777215
 74
     1
 91
        4
 64
     7
 65
   257
 75
     1
175
     1
 42
1.0
 92
        8
 66
     7
 43
1.0
 76
     1
 77
     6
 78
     2
 67
     7
 79
     5
170
     0
171
     0
290
     0
174
     0
 93
        1
 44
0.0
173
     0
291
     1
 45
0.0
1001
ACAD
1000
AcDbSavedByObjectVersion
1070
     0
  0
VISUALSTYLE
  5
2B
102
{ACAD_REACTORS
330
2A
102
}
102
{ACAD_XDICTIONARY
360
305
102
}
330
2A
100
AcDbVisualStyle
  2
Flat
 70
     0
 71
     2
 72
     1
 73
     1
 90
        2
 40
0.6
 41
30.0
 62
     5
 63
     7
421
 16777215
 74
     0
 91
        0
 64
     7
 65
   257
 75
     1
175
     1
 42
1.0
 92
        8
 66
     7
 43
1.0
 76
     1
 77
     6
 78
     2
 67
     7
 79
     5
170
     0
171
     0
290
     0
174
     0
 93
       13
 44
0.0
173
     0
291
     1
 45
0.0
1001
ACAD
1000
AcDbSavedByObjectVersion
1070
     0
  0
VISUALSTYLE
  5
2C
102
{ACAD_REACTORS
330
2A
102
}
102
{ACAD_XDICTIONARY
360
307
102
}
330
2A
100
AcDbVisualStyle
  2
FlatWithEdges
 70
     1
 71
     2
 72
     1
 73
     1
 90
        2
 40
0.6
 41
30.0
 62
     5
 63
     7
421
 16777215
 74
     1
 91
        0
 64
     7
 65
   257
 75
     1
175
     1
 42
1.0
 92
        0
 66
   257
 43
1.0
 76
     1
 77
     6
 78
     2
 67
     7
 79
     5
170
     0
171
     0
290
     0
174
     0
 93
       13
 44
0.0
173
     0
291
     1
 45
0.0
1001
ACAD
1000
AcDbSavedByObjectVersion
1070
     0
  0
VISUALSTYLE
  5
2D
102
{ACAD_REACTORS
330
2A
102
}
102
{ACAD_XDICTIONARY
360
309
102
}
330
2A
100
AcDbVisualStyle
  2
Gouraud
 70
     2
 71
     2
 72
     2
 73
     1
 90
        2
 40
0.6
 41
30.0
 62
     5
 63
     7
421
 16777215
 74
     0
 91
        0
 64
     7
 65
   257
 75
     1
175
     1
 42
1.0
 92
        0
 66
     7
 43
1.0
 76
     1
 77
     6
 78
     2
 67
     7
 79
     5
170
     0
171
     0
290
     0
174
     0
 93
       13
 44
0.0
173
     0
291
     1
 45
0.0
1001
ACAD
1000
AcDbSavedByObjectVersion
1070
     0
  0
VISUALSTYLE
  5
2E
102
{ACAD_REACTORS
330
2A
102
}
102
{ACAD_XDICTIONARY
360
30B
102
}
330
2A
100
AcDbVisualStyle
  2
GouraudWithEdges
 70
     3
 71
     2
 72
     2
 73
     1
 90
        2
 40
0.6
 41
30.0
 62
     5
 63
     7
421
 16777215
 74
     1
 91
        0
 64
     7
 65
   257
 75
     1
175
     1
 42
1.0
 92
        0
 66
   257
 43
1.0
 76
     1
 77
     6
 78
     2
 67
     7
 79
     5
170
     0
171
     0
290
     0
174
     0
 93
       13
 44
0.0
173
     0
291
     1
 45
0.0
1001
ACAD
1000
AcDbSavedByObjectVersion
1070
     0
  0
VISUALSTYLE
  5
31
102
{ACAD_REACTORS
330
2A
102
}
102
{ACAD_XDICTIONARY
360
311
102
}
330
2A
100
AcDbVisualStyle
  2
Hidden
 70
     6
 71
     1
 72
     2
 73
     2
 90
        0
 40
0.6
 41
30.0
 62
     5
 63
     7
421
 16777215
 74
     2
 91
        2
 64
     7
 65
   257
 75
     2
175
     1
 42
40.0
 92
        0
 66
   257
 43
1.0
 76
     1
 77
     6
 78
     2
 67
     7
 79
     3
170
     0
171
     0
290
     0
174
     0
 93
        1
 44
0.0
173
     0
291
     0
 45
0.0
1001
ACAD
1000
AcDbSavedByObjectVersion
1070
     0
  0
VISUALSTYLE
  5
3B
102
{ACAD_REACTORS
330
2A
102
}
102
{ACAD_XDICTIONARY
360
325
102
}
330
2A
100
AcDbVisualStyle
  2
JitterOff
 70
    20
 71
     2
 72
     2
 73
     0
 90
        0
 40
0.6
 41
30.0
 62
     5
 63
     7
421
 16777215
 74
     1
 91
        4
 64
     7
 65
   257
 75
     1
175
     1
 42
1.0
 92
       10
 66
     7
 43
1.0
 76
     1
 77
     6
 78
     2
 67
     7
 79
     5
170
     0
171
     0
290
     0
174
     0
 93
        1
 44
0.0
173
     0
291
     1
 45
0.0
1001
ACAD
1000
AcDbSavedByObjectVersion
1070
     0
  0
VISUALSTYLE
  5
38
102
{ACAD_REACTORS
330
2A
102
}
102
{ACAD_XDICTIONARY
360
31F
102
}
330
2A
100
AcDbVisualStyle
  2
Linepattern
 70
    14
 71
     2
 72
     2
 73
     0
 90
        0
 40
0.6
 41
30.0
 62
     5
 63
     7
421
 16777215
 74
     1
 91
        4
 64
     7
 65
   257
 75
     7
175
     7
 42
1.0
 92
        8
 66
     7
 43
1.0
 76
     1
 77
     6
 78
     2
 67
     7
 79
     5
170
     0
171
     0
290
     0
174
     0
 93
        1
 44
0.0
173
     0
291
     1
 45
0.0
1001
ACAD
1000
AcDbSavedByObjectVersion
1070
     0
  0
VISUALSTYLE
  5
3C
102
{ACAD_REACTORS
330
2A
102
}
102
{ACAD_XDICTIONARY
360
327
102
}
330
2A
100
AcDbVisualStyle
  2
OverhangOff
 70
    21
 71
     2
 72
     2
 73
     0
 90
        0
 40
0.6
 41
30.0
 62
     5
 63
     7
421
 16777215
 74
     1
 91
        4
 64
     7
 65
   257
 75
     1
175
     1
 42
1.0
 92
        9
 66
     7
 43
1.0
 76
     1
 77
     6
 78
     2
 67
     7
 79
     5
170
     0
171
     0
290
     0
174
     0
 93
        1
 44
0.0
173
     0
291
     1
 45
0.0
1001
ACAD
1000
AcDbSavedByObjectVersion
1070
     0
  0
VISUALSTYLE
  5
33
102
{ACAD_REACTORS
330
2A
102
}
102
{ACAD_XDICTIONARY
360
315
102
}
330
2A
100
AcDbVisualStyle
  2
Realistic
 70
     8
 71
     2
 72
     3
 73
     0
 90
        2
 40
0.6
 41
30.0
 62
     5
 63
     7
421
 16777215
 74
     0
 91
        0
 64
     7
 65
   257
 75
     1
175
     1
 42
1.0
 92
        8
 66
   257
 43
1.0
 76
     1
 77
     6
 78
     2
 67
     7
 79
     3
170
     0
171
     0
290
     0
174
     0
 93
       13
 44
0.0
173
     0
291
     0
 45
0.0
1001
ACAD
1000
AcDbSavedByObjectVersion
1070
     0
  0
VISUALSTYLE
  5
42
102
{ACAD_REACTORS
330
2A
102
}
102
{ACAD_XDICTIONARY
360
333
102
}
330
2A
100
AcDbVisualStyle
  2
Shaded
 70
    27
 71
     2
 72
     2
 73
     1
 90
        2
 40
0.6
 41
30.0
 62
     5
 63
     7
421
 16777215
 74
     0
 91
        4
 64
     7
 65
   257
 75
     1
175
     1
 42
1.0
 92
        8
 66
   257
 43
1.0
 76
     1
 77
     6
 78
     2
 67
     8
425
  7895160
 79
     3
170
     0
171
     0
290
     0
174
     0
 93
        5
 44
0.0
173
     0
291
     0
 45
0.0
1001
ACAD
1000
AcDbSavedByObjectVersion
1070
     0
  0
VISUALSTYLE
  5
41
102
{ACAD_REACTORS
330
2A
102
}
102
{ACAD_XDICTIONARY
360
331
102
}
330
2A
100
AcDbVisualStyle
  2
Shaded with edges
 70
    26
 71
     2
 72
     2
 73
     1
 90
        2
 40
0.6
 41
30.0
 62
     5
 63
     7
421
 16777215
 74
     1
 91
       10
 64
     7
 65
   257
 75
     2
175
     1
 42
1.0
 92
        8
 66
   257
 43
1.0
 76
     1
 77
     6
 78
     2
 67
     7
 79
     3
170
     0
171
     0
290
     0
174
     0
 93
        5
 44
0.0
173
     0
291
     0
 45
0.0
1001
ACAD
1000
AcDbSavedByObjectVersion
1070
     0
  0
VISUALSTYLE
  5
3E
102
{ACAD_REACTORS
330
2A
102
}
102
{ACAD_XDICTIONARY
360
32B
102
}
330
2A
100
AcDbVisualStyle
  2
Shades of Gray
 70
    23
 71
     2
 72
     2
 73
     3
 90
        0
 40
0.6
 41
30.0
 62
     5
 63
     7
421
 16777215
 74
     2
 91
        2
 64
     7
 65
     7
 75
     1
175
     1
 42
40.0
 92
        8
 66
     7
 43
1.0
 76
     1
 77
     6
 78
     2
 67
     7
 79
     3
170
     0
171
     0
290
     0
174
     0
 93
        1
 44
0.0
173
     0
291
     0
 45
0.0
1001
ACAD
1000
AcDbSavedByObjectVersion
1070
     0
  0
VISUALSTYLE
  5
3F
102
{ACAD_REACTORS
330
2A
102
}
102
{ACAD_XDICTIONARY
360
32D
102
}
330
2A
100
AcDbVisualStyle
  2
Sketchy
 70
    24
 71
     1
 72
     2
 73
     2
 90
        0
 40
0.6
 41
30.0
 62
     5
 63
     7
421
 16777215
 74
     2
 91
        2
 64
     7
 65
     7
 75
     1
175
     1
 42
40.0
 92
       11
 66
     7
 43
1.0
 76
     1
 77
     6
 78
     2
 67
     7
 79
     6
170
     0
171
     0
290
     0
174
     0
 93
        1
 44
0.0
173
     0
291
     0
 45
0.0
1001
ACAD
1000
AcDbSavedByObjectVersion
1070
     0
  0
VISUALSTYLE
  5
37
102
{ACAD_REACTORS
330
2A
102
}
102
{ACAD_XDICTIONARY
360
31D
102
}
330
2A
100
AcDbVisualStyle
  2
Thicken
 70
    13
 71
     2
 72
     2
 73
     0
 90
        0
 40
0.6
 41
30.0
 62
     5
 63
     7
421
 16777215
 74
     1
 91
        4
 64
     7
 65
   257
 75
     1
175
     1
 42
1.0
 92
       12
 66
     7
 43
1.0
 76
     1
 77
     6
 78
     2
 67
     7
 79
     5
170
     0
171
     0
290
     0
174
     0
 93
        1
 44
0.0
173
     0
291
     1
 45
0.0
1001
ACAD
1000
AcDbSavedByObjectVersion
1070
     0
  0
VISUALSTYLE
  5
30
102
{ACAD_REACTORS
330
2A
102
}
102
{ACAD_XDICTIONARY
360
30F
102
}
330
2A
100
AcDbVisualStyle
  2
Wireframe
 70
     5
 71
     0
 72
     2
 73
     0
 90
        0
 40
0.6
 41
30.0
 62
     5
 63
     7
421
 16777215
 74
     1
 91
        4
 64
     7
 65
   257
 75
     1
175
     1
 42
1.0
 92
        0
 66
   257
 43
1.0
 76
     1
 77
     6
 78
     2
 67
     7
 79
     3
170
     0
171
     0
290
     0
174
     0
 93
        1
 44
0.0
173
     0
291
     0
 45
0.0
1001
ACAD
1000
AcDbSavedByObjectVersion
1070
     0
  0
VISUALSTYLE
  5
40
102
{ACAD_REACTORS
330
2A
102
}
102
{ACAD_XDICTIONARY
360
32F
102
}
330
2A
100
AcDbVisualStyle
  2
X-Ray
 70
    25
 71
     2
 72
     2
 73
     1
 90
        1
 40
0.5
 41
30.0
 62
     5
 63
     7
421
 16777215
 74
     1
 91
        0
 64
     7
 65
   257
 75
     1
175
     1
 42
1.0
 92
        8
 66
     7
 43
1.0
 76
     1
 77
     6
 78
     2
 67
     7
 79
     3
170
     0
171
     0
290
     0
174
     0
 93
       13
 44
0.0
173
     0
291
     0
 45
0.0
1001
ACAD
1000
AcDbSavedByObjectVersion
1070
     0
  0
DICTIONARYVAR
  5
302
102
{ACAD_REACTORS
330
301
102
}
330
301
100
DictionaryVariables
280
     0
  1
1:1
  0
DICTIONARYVAR
  5
343
102
{ACAD_REACTORS
330
301
102
}
330
301
100
DictionaryVariables
280
     0
  1
Standard
  0
DICTIONARYVAR
  5
342
102
{ACAD_REACTORS
330
301
102
}
330
301
100
DictionaryVariables
280
     0
  1
Standard
  0
DICTIONARYVAR
  5
303
102
{ACAD_REACTORS
330
301
102
}
330
301
100
DictionaryVariables
280
     0
  1
1
  0
DICTIONARYVAR
  5
304
102
{ACAD_REACTORS
330
301
102
}
330
301
100
DictionaryVariables
280
     0
  1
2
  0
DICTIONARY
  5
337
330
45
100
AcDbDictionary
280
     1
281
     1
  3
ACAD_XREC_ROUNDTRIP
360
338
  0
DICTIONARY
  5
335
330
44
100
AcDbDictionary
280
     1
281
     1
  3
ACAD_XREC_ROUNDTRIP
360
336
  0
DICTIONARY
  5
339
330
46
100
AcDbDictionary
280
     1
281
     1
  3
ACAD_XREC_ROUNDTRIP
360
33A
  0
DICTIONARY
  5
33F
330
6C
100
AcDbDictionary
280
     1
281
     1
  3
ACAD_XREC_ROUNDTRIP
360
340
  0
DICTIONARY
  5
33B
330
6A
100
AcDbDictionary
280
     1
281
     1
  3
ACAD_ROUNDTRIP_2008_TABLESTYLE_CELLSTYLEMAP
360
33D
  3
ACAD_XREC_ROUNDTRIP
360
33C
  0
DICTIONARY
  5
30D
330
2F
100
AcDbDictionary
280
     1
281
     1
  3
ACAD_XREC_ROUNDTRIP
360
30E
  0
DICTIONARY
  5
313
330
32
100
AcDbDictionary
280
     1
281
     1
  3
ACAD_XREC_ROUNDTRIP
360
314
  0
DICTIONARY
  5
31B
330
36
100
AcDbDictionary
280
     1
281
     1
  3
ACAD_XREC_ROUNDTRIP
360
31C
  0
DICTIONARY
  5
323
330
3A
100
AcDbDictionary
280
     1
281
     1
  3
ACAD_XREC_ROUNDTRIP
360
324
  0
DICTIONARY
  5
317
330
34
100
AcDbDictionary
280
     1
281
     1
  3
ACAD_XREC_ROUNDTRIP
360
318
  0
DICTIONARY
  5
319
330
35
100
AcDbDictionary
280
     1
281
     1
  3
ACAD_XREC_ROUNDTRIP
360
31A
  0
DICTIONARY
  5
329
330
3D
100
AcDbDictionary
280
     1
281
     1
  3
ACAD_XREC_ROUNDTRIP
360
32A
  0
DICTIONARY
  5
321
330
39
100
AcDbDictionary
280
     1
281
     1
  3
ACAD_XREC_ROUNDTRIP
360
322
  0
DICTIONARY
  5
305
330
2B
100
AcDbDictionary
280
     1
281
     1
  3
ACAD_XREC_ROUNDTRIP
360
306
  0
DICTIONARY
  5
307
330
2C
100
AcDbDictionary
280
     1
281
     1
  3
ACAD_XREC_ROUNDTRIP
360
308
  0
DICTIONARY
  5
309
330
2D
100
AcDbDictionary
280
     1
281
     1
  3
ACAD_XREC_ROUNDTRIP
360
30A
  0
DICTIONARY
  5
30B
330
2E
100
AcDbDictionary
280
     1
281
     1
  3
ACAD_XREC_ROUNDTRIP
360
30C
  0
DICTIONARY
  5
311
330
31
100
AcDbDictionary
280
     1
281
     1
  3
ACAD_XREC_ROUNDTRIP
360
312
  0
DICTIONARY
  5
325
330
3B
100
AcDbDictionary
280
     1
281
     1
  3
ACAD_XREC_ROUNDTRIP
360
326
  0
DICTIONARY
  5
31F
330
38
100
AcDbDictionary
280
     1
281
     1
  3
ACAD_XREC_ROUNDTRIP
360
320
  0
DICTIONARY
  5
327
330
3C
100
AcDbDictionary
280
     1
281
     1
  3
ACAD_XREC_ROUNDTRIP
360
328
  0
DICTIONARY
  5
315
330
33
100
AcDbDictionary
280
     1
281
     1
  3
ACAD_XREC_ROUNDTRIP
360
316
  0
DICTIONARY
  5
333
330
42
100
AcDbDictionary
280
     1
281
     1
  3
ACAD_XREC_ROUNDTRIP
360
334
  0
DICTIONARY
  5
331
330
41
100
AcDbDictionary
280
     1
281
     1
  3
ACAD_XREC_ROUNDTRIP
360
332
  0
DICTIONARY
  5
32B
330
3E
100
AcDbDictionary
280
     1
281
     1
  3
ACAD_XREC_ROUNDTRIP
360
32C
  0
DICTIONARY
  5
32D
330
3F
100
AcDbDictionary
280
     1
281
     1
  3
ACAD_XREC_ROUNDTRIP
360
32E
  0
DICTIONARY
  5
31D
330
37
100
AcDbDictionary
280
     1
281
     1
  3
ACAD_XREC_ROUNDTRIP
360
31E
  0
DICTIONARY
  5
30F
330
30
100
AcDbDictionary
280
     1
281
     1
  3
ACAD_XREC_ROUNDTRIP
360
310
  0
DICTIONARY
  5
32F
330
40
100
AcDbDictionary
280
     1
281
     1
  3
ACAD_XREC_ROUNDTRIP
360
330
  0
XRECORD
  5
338
102
{ACAD_REACTORS
330
337
102
}
330
337
100
AcDbXrecord
280
     1
102
MATERIAL
148
0.0
149
0.0
149
0.0
 93
        0
 94
      127
282
     0
 72
     1
 77
     1
171
     1
175
     1
179
     1
273
     0
  0
XRECORD
  5
336
102
{ACAD_REACTORS
330
335
102
}
330
335
100
AcDbXrecord
280
     1
102
MATERIAL
148
0.0
149
0.0
149
0.0
 93
        0
 94
      127
282
     0
 72
     1
 77
     1
171
     1
175
     1
179
     1
273
     0
  0
XRECORD
  5
33A
102
{ACAD_REACTORS
330
339
102
}
330
339
100
AcDbXrecord
280
     1
102
MATERIAL
148
0.0
149
0.0
149
0.0
 93
        0
 94
      127
282
     0
 72
     1
 77
     1
171
     1
175
     1
179
     1
273
     0
  0
XRECORD
  5
340
102
{ACAD_REACTORS
330
33F
102
}
330
33F
100
AcDbXrecord
280
     1
102
ACAD_ROUNDTRIP_2010_MLEADER_STYLE
  0
CELLSTYLEMAP
  5
33D
102
{ACAD_REACTORS
330
33B
102
}
330
33B
100
AcDbCellStyleMap
 90
        3
300
CELLSTYLE
  1
TABLEFORMAT_BEGIN
 90
        5
170
     1
 91
        0
 92
    32768
 62
   257
 93
        1
300
CONTENTFORMAT
  1
CONTENTFORMAT_BEGIN
 90
        0
 91
        0
 92
        4
 93
        0
300

 40
0.0
140
1.0
 94
        5
 62
     0
340
11
144
0.25
309
CONTENTFORMAT_END
171
     1
301
MARGIN
  1
CELLMARGIN_BEGIN
 40
0.06
 40
0.06
 40
0.06
 40
0.06
 40
0.06
 40
0.06
309
CELLMARGIN_END
 94
        6
 95
        1
302
GRIDFORMAT
  1
GRIDFORMAT_BEGIN
 90
        0
 91
        1
 62
     0
 92
       -2
340
14
 93
        0
 40
0.045
309
GRIDFORMAT_END
 95
        2
302
GRIDFORMAT
  1
GRIDFORMAT_BEGIN
 90
        0
 91
        1
 62
     0
 92
       -2
340
14
 93
        0
 40
0.045
309
GRIDFORMAT_END
 95
        4
302
GRIDFORMAT
  1
GRIDFORMAT_BEGIN
 90
        0
 91
        1
 62
     0
 92
       -2
340
14
 93
        0
 40
0.045
309
GRIDFORMAT_END
 95
        8
302
GRIDFORMAT
  1
GRIDFORMAT_BEGIN
 90
        0
 91
        1
 62
     0
 92
       -2
340
14
 93
        0
 40
0.045
309
GRIDFORMAT_END
 95
       16
302
GRIDFORMAT
  1
GRIDFORMAT_BEGIN
 90
        0
 91
        1
 62
     0
 92
       -2
340
14
 93
        0
 40
0.045
309
GRIDFORMAT_END
 95
       32
302
GRIDFORMAT
  1
GRIDFORMAT_BEGIN
 90
        0
 91
        1
 62
     0
 92
       -2
340
14
 93
        0
 40
0.045
309
GRIDFORMAT_END
309
TABLEFORMAT_END
  1
CELLSTYLE_BEGIN
 90
        1
 91
        1
300
_TITLE
309
CELLSTYLE_END
300
CELLSTYLE
  1
TABLEFORMAT_BEGIN
 90
        5
170
     1
 91
        0
 92
        0
 62
   257
 93
        1
300
CONTENTFORMAT
  1
CONTENTFORMAT_BEGIN
 90
        0
 91
        0
 92
        4
 93
        0
300

 40
0.0
140
1.0
 94
        5
 62
     0
340
11
144
0.18
309
CONTENTFORMAT_END
171
     1
301
MARGIN
  1
CELLMARGIN_BEGIN
 40
0.06
 40
0.06
 40
0.06
 40
0.06
 40
0.06
 40
0.06
309
CELLMARGIN_END
 94
        6
 95
        1
302
GRIDFORMAT
  1
GRIDFORMAT_BEGIN
 90
        0
 91
        1
 62
     0
 92
       -2
340
14
 93
        0
 40
0.045
309
GRIDFORMAT_END
 95
        2
302
GRIDFORMAT
  1
GRIDFORMAT_BEGIN
 90
        0
 91
        1
 62
     0
 92
       -2
340
14
 93
        0
 40
0.045
309
GRIDFORMAT_END
 95
        4
302
GRIDFORMAT
  1
GRIDFORMAT_BEGIN
 90
        0
 91
        1
 62
     0
 92
       -2
340
14
 93
        0
 40
0.045
309
GRIDFORMAT_END
 95
        8
302
GRIDFORMAT
  1
GRIDFORMAT_BEGIN
 90
        0
 91
        1
 62
     0
 92
       -2
340
14
 93
        0
 40
0.045
309
GRIDFORMAT_END
 95
       16
302
GRIDFORMAT
  1
GRIDFORMAT_BEGIN
 90
        0
 91
        1
 62
     0
 92
       -2
340
14
 93
        0
 40
0.045
309
GRIDFORMAT_END
 95
       32
302
GRIDFORMAT
  1
GRIDFORMAT_BEGIN
 90
        0
 91
        1
 62
     0
 92
       -2
340
14
 93
        0
 40
0.045
309
GRIDFORMAT_END
309
TABLEFORMAT_END
  1
CELLSTYLE_BEGIN
 90
        2
 91
        1
300
_HEADER
309
CELLSTYLE_END
300
CELLSTYLE
  1
TABLEFORMAT_BEGIN
 90
        5
170
     1
 91
        0
 92
        0
 62
   257
 93
        1
300
CONTENTFORMAT
  1
CONTENTFORMAT_BEGIN
 90
        0
 91
        0
 92
        4
 93
        0
300

 40
0.0
140
1.0
 94
        2
 62
     0
340
11
144
0.18
309
CONTENTFORMAT_END
171
     1
301
MARGIN
  1
CELLMARGIN_BEGIN
 40
0.06
 40
0.06
 40
0.06
 40
0.06
 40
0.06
 40
0.06
309
CELLMARGIN_END
 94
        6
 95
        1
302
GRIDFORMAT
  1
GRIDFORMAT_BEGIN
 90
        0
 91
        1
 62
     0
 92
       -2
340
14
 93
        0
 40
0.045
309
GRIDFORMAT_END
 95
        2
302
GRIDFORMAT
  1
GRIDFORMAT_BEGIN
 90
        0
 91
        1
 62
     0
 92
       -2
340
14
 93
        0
 40
0.045
309
GRIDFORMAT_END
 95
        4
302
GRIDFORMAT
  1
GRIDFORMAT_BEGIN
 90
        0
 91
        1
 62
     0
 92
       -2
340
14
 93
        0
 40
0.045
309
GRIDFORMAT_END
 95
        8
302
GRIDFORMAT
  1
GRIDFORMAT_BEGIN
 90
        0
 91
        1
 62
     0
 92
       -2
340
14
 93
        0
 40
0.045
309
GRIDFORMAT_END
 95
       16
302
GRIDFORMAT
  1
GRIDFORMAT_BEGIN
 90
        0
 91
        1
 62
     0
 92
       -2
340
14
 93
        0
 40
0.045
309
GRIDFORMAT_END
 95
       32
302
GRIDFORMAT
  1
GRIDFORMAT_BEGIN
 90
        0
 91
        1
 62
     0
 92
       -2
340
14
 93
        0
 40
0.045
309
GRIDFORMAT_END
309
TABLEFORMAT_END
  1
CELLSTYLE_BEGIN
 90
        3
 91
        2
300
_DATA
309
CELLSTYLE_END
  0
XRECORD
  5
33C
102
{ACAD_REACTORS
330
33B
102
}
330
33B
100
AcDbXrecord
280
     1
102
ACAD_ROUNDTRIP_PRE2007_TABLESTYLE
 90
        4
 91
        0
  1

 92
        4
 93
        0
  2

 94
        4
 95
        0
  3

  0
XRECORD
  5
30E
102
{ACAD_REACTORS
330
30D
102
}
330
30D
100
AcDbXrecord
280
     1
102
RTVSPropertyOp0
 70
     1
102
RTVSPropertyOp1
 70
     1
102
RTVSPropertyOp2
 70
     1
102
RTVSPropertyOp3
 70
     1
102
RTVSPropertyOp4
 70
     1
102
RTVSPropertyOp5
 70
     1
102
RTVSPropertyOp6
 70
     1
102
RTVSPropertyOp7
 70
     1
102
RTVSPropertyOp8
 70
     1
102
RTVSPropertyOp9
 70
     1
102
RTVSPropertyOp10
 70
     1
102
RTVSPropertyOp11
 70
     1
102
RTVSPropertyOp12
 70
     1
102
RTVSPropertyOp13
 70
     1
102
RTVSPropertyOp14
 70
     1
102
RTVSPropertyOp15
 70
     1
102
RTVSPropertyOp16
 70
     1
102
RTVSPropertyOp17
 70
     1
102
RTVSPropertyOp18
 70
     1
102
RTVSPropertyOp19
 70
     1
102
RTVSPropertyOp20
 70
     1
102
RTVSPropertyOp21
 70
     1
102
RTVSPropertyOp22
 70
     1
102
RTVSPropertyOp23
 70
     1
102
RTVSPropertyOp24
 70
     1
102
RTVSPropertyOp25
 70
     1
102
RTVSPropertyOp26
 70
     1
102
RTVSPropertyOp27
 70
     1
102
RTVSPropertyOp28
 70
     1
102
RTVSPropertyOp29
 70
     1
102
RTVSPropertyOp30
 70
     1
102
RTVSPropertyOp31
 70
     1
102
RTVSPropertyOp32
 70
     1
102
RTVSPropertyOp33
 70
     1
102
RTVSPropertyOp34
 70
     1
102
RTVSPropertyOp35
 70
     1
102
RTVSPropertyOp36
 70
     1
102
RTVSPropertyOp37
 70
     1
102
RTVSPropertyOp38
 70
     1
102
RTVSPropertyOp39
 70
     1
102
RTVSPropertyOp40
 70
     1
102
RTVSPropertyOp41
 70
     1
102
RTVSPropertyOp42
 70
     1
102
RTVSPropertyOp43
 70
     1
102
RTVSPropertyOp44
 70
     1
102
RTVSPropertyOp45
 70
     1
102
RTVSPropertyOp46
 70
     1
102
RTVSPropertyOp47
 70
     1
102
RTVSPropertyOp48
 70
     1
102
RTVSPropertyOp49
 70
     1
102
RTVSPropertyOp50
 70
     1
102
RTVSPropertyOp51
 70
     0
102
RTVSPropertyOp52
 70
     0
102
RTVSPropertyOp53
 70
     1
102
RTVSPropertyOp54
 70
     1
102
RTVSPropertyOp55
 70
     1
102
RTVSPropertyOp56
 70
     1
102
RTVSPropertyOp57
 70
     1
102
RTVSPost2010Prop28
280
     1
102
RTVSPost2010PropOp28
 70
     1
102
RTVSPost2010Prop29
280
     1
102
RTVSPost2010PropOp29
 70
     1
102
RTVSPost2010Prop30
280
     0
102
RTVSPost2010PropOp30
 70
     1
102
RTVSPost2010Prop31
280
     0
102
RTVSPost2010PropOp31
 70
     1
102
RTVSPost2010Prop32
280
     0
102
RTVSPost2010PropOp32
 70
     1
102
RTVSPost2010Prop33
280
     0
102
RTVSPost2010PropOp33
 70
     1
102
RTVSPost2010Prop34
280
     0
102
RTVSPost2010PropOp34
 70
     1
102
RTVSPost2010Prop35
280
     0
102
RTVSPost2010PropOp35
 70
     1
102
RTVSPost2010Prop36
280
     0
102
RTVSPost2010PropOp36
 70
     1
102
RTVSPost2010Prop37
 90
       50
102
RTVSPost2010PropOp37
 70
     1
102
RTVSPost2010Prop38
140
0.0
102
RTVSPost2010PropOp38
 70
     1
102
RTVSPost2010Prop39
140
1.0
102
RTVSPost2010PropOp39
 70
     1
102
RTVSPost2010Prop40
 90
        0
102
RTVSPost2010PropOp40
 70
     1
102
RTVSPost2010Prop41ColorIndex
 90
       18
102
RTVSPost2010Prop41ColorRGB
 90
        0
102
RTVSPost2010PropOp41
 70
     1
102
RTVSPost2010Prop42
 90
       50
102
RTVSPost2010PropOp42
 70
     1
102
RTVSPost2010Prop43
 90
        3
102
RTVSPost2010PropOp43
 70
     1
102
RTVSPost2010Prop44ColorIndex
 90
        5
102
RTVSPost2010Prop44ColorRGB
 90
      255
102
RTVSPost2010PropOp44
 70
     1
102
RTVSPost2010Prop45
280
     0
102
RTVSPost2010PropOp45
 70
     1
102
RTVSPost2010Prop46
 90
       50
102
RTVSPost2010PropOp46
 70
     1
102
RTVSPost2010Prop47
 90
       50
102
RTVSPost2010PropOp47
 70
     1
102
RTVSPost2010Prop48
 90
       50
102
RTVSPost2010PropOp48
 70
     1
102
RTVSPost2010Prop49
280
     0
102
RTVSPost2010PropOp49
 70
     1
102
RTVSPost2010Prop50
 90
       50
102
RTVSPost2010PropOp50
 70
     1
102
RTVSPost2010Prop51ColorIndex
 90
      256
102
RTVSPost2010Prop51ColorRGB
 90
-16777216
102
RTVSPost2010PropOp51
 70
     0
102
RTVSPost2010Prop52
140
1.0
102
RTVSPost2010PropOp52
 70
     0
102
RTVSPost2010Prop53
 90
        2
102
RTVSPost2010PropOp53
 70
     1
102
RTVSPost2010Prop54
  1
strokes_ogs.tif
102
RTVSPost2010PropOp54
 70
     1
102
RTVSPost2010Prop55
280
     0
102
RTVSPost2010PropOp55
 70
     1
102
RTVSPost2010Prop56
140
1.0
102
RTVSPost2010PropOp56
 70
     1
102
RTVSPost2010Prop57
140
1.0
102
RTVSPost2010PropOp57
 70
     1
  0
XRECORD
  5
314
102
{ACAD_REACTORS
330
313
102
}
330
313
100
AcDbXrecord
280
     1
102
RTVSPropertyOp0
 70
     1
102
RTVSPropertyOp1
 70
     1
102
RTVSPropertyOp2
 70
     1
102
RTVSPropertyOp3
 70
     1
102
RTVSPropertyOp4
 70
     1
102
RTVSPropertyOp5
 70
     1
102
RTVSPropertyOp6
 70
     1
102
RTVSPropertyOp7
 70
     1
102
RTVSPropertyOp8
 70
     1
102
RTVSPropertyOp9
 70
     1
102
RTVSPropertyOp10
 70
     1
102
RTVSPropertyOp11
 70
     1
102
RTVSPropertyOp12
 70
     1
102
RTVSPropertyOp13
 70
     1
102
RTVSPropertyOp14
 70
     1
102
RTVSPropertyOp15
 70
     1
102
RTVSPropertyOp16
 70
     1
102
RTVSPropertyOp17
 70
     1
102
RTVSPropertyOp18
 70
     1
102
RTVSPropertyOp19
 70
     1
102
RTVSPropertyOp20
 70
     1
102
RTVSPropertyOp21
 70
     1
102
RTVSPropertyOp22
 70
     1
102
RTVSPropertyOp23
 70
     1
102
RTVSPropertyOp24
 70
     1
102
RTVSPropertyOp25
 70
     1
102
RTVSPropertyOp26
 70
     1
102
RTVSPropertyOp27
 70
     1
102
RTVSPropertyOp28
 70
     1
102
RTVSPropertyOp29
 70
     1
102
RTVSPropertyOp30
 70
     1
102
RTVSPropertyOp31
 70
     1
102
RTVSPropertyOp32
 70
     1
102
RTVSPropertyOp33
 70
     1
102
RTVSPropertyOp34
 70
     1
102
RTVSPropertyOp35
 70
     1
102
RTVSPropertyOp36
 70
     1
102
RTVSPropertyOp37
 70
     1
102
RTVSPropertyOp38
 70
     1
102
RTVSPropertyOp39
 70
     1
102
RTVSPropertyOp40
 70
     1
102
RTVSPropertyOp41
 70
     1
102
RTVSPropertyOp42
 70
     1
102
RTVSPropertyOp43
 70
     1
102
RTVSPropertyOp44
 70
     1
102
RTVSPropertyOp45
 70
     1
102
RTVSPropertyOp46
 70
     1
102
RTVSPropertyOp47
 70
     1
102
RTVSPropertyOp48
 70
     1
102
RTVSPropertyOp49
 70
     1
102
RTVSPropertyOp50
 70
     1
102
RTVSPropertyOp51
 70
     0
102
RTVSPropertyOp52
 70
     0
102
RTVSPropertyOp53
 70
     1
102
RTVSPropertyOp54
 70
     1
102
RTVSPropertyOp55
 70
     1
102
RTVSPropertyOp56
 70
     1
102
RTVSPropertyOp57
 70
     1
102
RTVSPost2010Prop28
280
     0
102
RTVSPost2010PropOp28
 70
     1
102
RTVSPost2010Prop29
280
     1
102
RTVSPost2010PropOp29
 70
     1
102
RTVSPost2010Prop30
280
     1
102
RTVSPost2010PropOp30
 70
     1
102
RTVSPost2010Prop31
280
     0
102
RTVSPost2010PropOp31
 70
     1
102
RTVSPost2010Prop32
280
     0
102
RTVSPost2010PropOp32
 70
     1
102
RTVSPost2010Prop33
280
     0
102
RTVSPost2010PropOp33
 70
     1
102
RTVSPost2010Prop34
280
     0
102
RTVSPost2010PropOp34
 70
     1
102
RTVSPost2010Prop35
280
     0
102
RTVSPost2010PropOp35
 70
     1
102
RTVSPost2010Prop36
280
     0
102
RTVSPost2010PropOp36
 70
     1
102
RTVSPost2010Prop37
 90
       50
102
RTVSPost2010PropOp37
 70
     1
102
RTVSPost2010Prop38
140
0.0
102
RTVSPost2010PropOp38
 70
     1
102
RTVSPost2010Prop39
140
1.0
102
RTVSPost2010PropOp39
 70
     1
102
RTVSPost2010Prop40
 90
        0
102
RTVSPost2010PropOp40
 70
     1
102
RTVSPost2010Prop41ColorIndex
 90
       18
102
RTVSPost2010Prop41ColorRGB
 90
        0
102
RTVSPost2010PropOp41
 70
     1
102
RTVSPost2010Prop42
 90
       50
102
RTVSPost2010PropOp42
 70
     1
102
RTVSPost2010Prop43
 90
        3
102
RTVSPost2010PropOp43
 70
     1
102
RTVSPost2010Prop44ColorIndex
 90
        5
102
RTVSPost2010Prop44ColorRGB
 90
      255
102
RTVSPost2010PropOp44
 70
     1
102
RTVSPost2010Prop45
280
     0
102
RTVSPost2010PropOp45
 70
     1
102
RTVSPost2010Prop46
 90
       50
102
RTVSPost2010PropOp46
 70
     1
102
RTVSPost2010Prop47
 90
       50
102
RTVSPost2010PropOp47
 70
     1
102
RTVSPost2010Prop48
 90
       50
102
RTVSPost2010PropOp48
 70
     1
102
RTVSPost2010Prop49
280
     0
102
RTVSPost2010PropOp49
 70
     1
102
RTVSPost2010Prop50
 90
       50
102
RTVSPost2010PropOp50
 70
     1
102
RTVSPost2010Prop51ColorIndex
 90
      256
102
RTVSPost2010Prop51ColorRGB
 90
-16777216
102
RTVSPost2010PropOp51
 70
     0
102
RTVSPost2010Prop52
140
1.0
102
RTVSPost2010PropOp52
 70
     0
102
RTVSPost2010Prop53
 90
        2
102
RTVSPost2010PropOp53
 70
     1
102
RTVSPost2010Prop54
  1
strokes_ogs.tif
102
RTVSPost2010PropOp54
 70
     1
102
RTVSPost2010Prop55
280
     0
102
RTVSPost2010PropOp55
 70
     1
102
RTVSPost2010Prop56
140
1.0
102
RTVSPost2010PropOp56
 70
     1
102
RTVSPost2010Prop57
140
1.0
102
RTVSPost2010PropOp57
 70
     1
  0
XRECORD
  5
31C
102
{ACAD_REACTORS
330
31B
102
}
330
31B
100
AcDbXrecord
280
     1
102
RTVSPropertyOp0
 70
     1
102
RTVSPropertyOp1
 70
     1
102
RTVSPropertyOp2
 70
     1
102
RTVSPropertyOp3
 70
     1
102
RTVSPropertyOp4
 70
     1
102
RTVSPropertyOp5
 70
     1
102
RTVSPropertyOp6
 70
     1
102
RTVSPropertyOp7
 70
     1
102
RTVSPropertyOp8
 70
     1
102
RTVSPropertyOp9
 70
     1
102
RTVSPropertyOp10
 70
     1
102
RTVSPropertyOp11
 70
     1
102
RTVSPropertyOp12
 70
     1
102
RTVSPropertyOp13
 70
     1
102
RTVSPropertyOp14
 70
     1
102
RTVSPropertyOp15
 70
     1
102
RTVSPropertyOp16
 70
     1
102
RTVSPropertyOp17
 70
     1
102
RTVSPropertyOp18
 70
     1
102
RTVSPropertyOp19
 70
     1
102
RTVSPropertyOp20
 70
     1
102
RTVSPropertyOp21
 70
     1
102
RTVSPropertyOp22
 70
     1
102
RTVSPropertyOp23
 70
     1
102
RTVSPropertyOp24
 70
     1
102
RTVSPropertyOp25
 70
     1
102
RTVSPropertyOp26
 70
     1
102
RTVSPropertyOp27
 70
     1
102
RTVSPropertyOp28
 70
     1
102
RTVSPropertyOp29
 70
     1
102
RTVSPropertyOp30
 70
     1
102
RTVSPropertyOp31
 70
     1
102
RTVSPropertyOp32
 70
     1
102
RTVSPropertyOp33
 70
     1
102
RTVSPropertyOp34
 70
     1
102
RTVSPropertyOp35
 70
     1
102
RTVSPropertyOp36
 70
     1
102
RTVSPropertyOp37
 70
     1
102
RTVSPropertyOp38
 70
     1
102
RTVSPropertyOp39
 70
     1
102
RTVSPropertyOp40
 70
     1
102
RTVSPropertyOp41
 70
     1
102
RTVSPropertyOp42
 70
     1
102
RTVSPropertyOp43
 70
     1
102
RTVSPropertyOp44
 70
     1
102
RTVSPropertyOp45
 70
     1
102
RTVSPropertyOp46
 70
     1
102
RTVSPropertyOp47
 70
     1
102
RTVSPropertyOp48
 70
     1
102
RTVSPropertyOp49
 70
     1
102
RTVSPropertyOp50
 70
     1
102
RTVSPropertyOp51
 70
     0
102
RTVSPropertyOp52
 70
     0
102
RTVSPropertyOp53
 70
     1
102
RTVSPropertyOp54
 70
     1
102
RTVSPropertyOp55
 70
     1
102
RTVSPropertyOp56
 70
     1
102
RTVSPropertyOp57
 70
     1
102
RTVSPost2010Prop28
280
     0
102
RTVSPost2010PropOp28
 70
     1
102
RTVSPost2010Prop29
280
     1
102
RTVSPost2010PropOp29
 70
     1
102
RTVSPost2010Prop30
280
     1
102
RTVSPost2010PropOp30
 70
     1
102
RTVSPost2010Prop31
280
     0
102
RTVSPost2010PropOp31
 70
     1
102
RTVSPost2010Prop32
280
     0
102
RTVSPost2010PropOp32
 70
     1
102
RTVSPost2010Prop33
280
     0
102
RTVSPost2010PropOp33
 70
     1
102
RTVSPost2010Prop34
280
     0
102
RTVSPost2010PropOp34
 70
     1
102
RTVSPost2010Prop35
280
     0
102
RTVSPost2010PropOp35
 70
     1
102
RTVSPost2010Prop36
280
     0
102
RTVSPost2010PropOp36
 70
     1
102
RTVSPost2010Prop37
 90
       50
102
RTVSPost2010PropOp37
 70
     1
102
RTVSPost2010Prop38
140
0.0
102
RTVSPost2010PropOp38
 70
     1
102
RTVSPost2010Prop39
140
1.0
102
RTVSPost2010PropOp39
 70
     1
102
RTVSPost2010Prop40
 90
        0
102
RTVSPost2010PropOp40
 70
     1
102
RTVSPost2010Prop41ColorIndex
 90
       18
102
RTVSPost2010Prop41ColorRGB
 90
        0
102
RTVSPost2010PropOp41
 70
     1
102
RTVSPost2010Prop42
 90
       50
102
RTVSPost2010PropOp42
 70
     1
102
RTVSPost2010Prop43
 90
        3
102
RTVSPost2010PropOp43
 70
     1
102
RTVSPost2010Prop44ColorIndex
 90
        5
102
RTVSPost2010Prop44ColorRGB
 90
      255
102
RTVSPost2010PropOp44
 70
     1
102
RTVSPost2010Prop45
280
     0
102
RTVSPost2010PropOp45
 70
     1
102
RTVSPost2010Prop46
 90
       50
102
RTVSPost2010PropOp46
 70
     1
102
RTVSPost2010Prop47
 90
       50
102
RTVSPost2010PropOp47
 70
     1
102
RTVSPost2010Prop48
 90
       50
102
RTVSPost2010PropOp48
 70
     1
102
RTVSPost2010Prop49
280
     0
102
RTVSPost2010PropOp49
 70
     1
102
RTVSPost2010Prop50
 90
       50
102
RTVSPost2010PropOp50
 70
     1
102
RTVSPost2010Prop51ColorIndex
 90
      256
102
RTVSPost2010Prop51ColorRGB
 90
-16777216
102
RTVSPost2010PropOp51
 70
     0
102
RTVSPost2010Prop52
140
1.0
102
RTVSPost2010PropOp52
 70
     0
102
RTVSPost2010Prop53
 90
        2
102
RTVSPost2010PropOp53
 70
     1
102
RTVSPost2010Prop54
  1
strokes_ogs.tif
102
RTVSPost2010PropOp54
 70
     1
102
RTVSPost2010Prop55
280
     0
102
RTVSPost2010PropOp55
 70
     1
102
RTVSPost2010Prop56
140
1.0
102
RTVSPost2010PropOp56
 70
     1
102
RTVSPost2010Prop57
140
1.0
102
RTVSPost2010PropOp57
 70
     1
  0
XRECORD
  5
324
102
{ACAD_REACTORS
330
323
102
}
330
323
100
AcDbXrecord
280
     1
102
RTVSPropertyOp0
 70
     1
102
RTVSPropertyOp1
 70
     1
102
RTVSPropertyOp2
 70
     1
102
RTVSPropertyOp3
 70
     1
102
RTVSPropertyOp4
 70
     1
102
RTVSPropertyOp5
 70
     1
102
RTVSPropertyOp6
 70
     1
102
RTVSPropertyOp7
 70
     1
102
RTVSPropertyOp8
 70
     1
102
RTVSPropertyOp9
 70
     1
102
RTVSPropertyOp10
 70
     1
102
RTVSPropertyOp11
 70
     1
102
RTVSPropertyOp12
 70
     1
102
RTVSPropertyOp13
 70
     1
102
RTVSPropertyOp14
 70
     1
102
RTVSPropertyOp15
 70
     1
102
RTVSPropertyOp16
 70
     1
102
RTVSPropertyOp17
 70
     1
102
RTVSPropertyOp18
 70
     1
102
RTVSPropertyOp19
 70
     1
102
RTVSPropertyOp20
 70
     1
102
RTVSPropertyOp21
 70
     1
102
RTVSPropertyOp22
 70
     1
102
RTVSPropertyOp23
 70
     1
102
RTVSPropertyOp24
 70
     1
102
RTVSPropertyOp25
 70
     1
102
RTVSPropertyOp26
 70
     1
102
RTVSPropertyOp27
 70
     1
102
RTVSPropertyOp28
 70
     1
102
RTVSPropertyOp29
 70
     1
102
RTVSPropertyOp30
 70
     1
102
RTVSPropertyOp31
 70
     1
102
RTVSPropertyOp32
 70
     1
102
RTVSPropertyOp33
 70
     1
102
RTVSPropertyOp34
 70
     1
102
RTVSPropertyOp35
 70
     1
102
RTVSPropertyOp36
 70
     1
102
RTVSPropertyOp37
 70
     1
102
RTVSPropertyOp38
 70
     1
102
RTVSPropertyOp39
 70
     1
102
RTVSPropertyOp40
 70
     1
102
RTVSPropertyOp41
 70
     1
102
RTVSPropertyOp42
 70
     1
102
RTVSPropertyOp43
 70
     1
102
RTVSPropertyOp44
 70
     1
102
RTVSPropertyOp45
 70
     1
102
RTVSPropertyOp46
 70
     1
102
RTVSPropertyOp47
 70
     1
102
RTVSPropertyOp48
 70
     1
102
RTVSPropertyOp49
 70
     1
102
RTVSPropertyOp50
 70
     1
102
RTVSPropertyOp51
 70
     0
102
RTVSPropertyOp52
 70
     0
102
RTVSPropertyOp53
 70
     1
102
RTVSPropertyOp54
 70
     1
102
RTVSPropertyOp55
 70
     1
102
RTVSPropertyOp56
 70
     1
102
RTVSPropertyOp57
 70
     1
102
RTVSPost2010Prop28
280
     0
102
RTVSPost2010PropOp28
 70
     1
102
RTVSPost2010Prop29
280
     1
102
RTVSPost2010PropOp29
 70
     1
102
RTVSPost2010Prop30
280
     1
102
RTVSPost2010PropOp30
 70
     1
102
RTVSPost2010Prop31
280
     0
102
RTVSPost2010PropOp31
 70
     1
102
RTVSPost2010Prop32
280
     0
102
RTVSPost2010PropOp32
 70
     1
102
RTVSPost2010Prop33
280
     0
102
RTVSPost2010PropOp33
 70
     1
102
RTVSPost2010Prop34
280
     0
102
RTVSPost2010PropOp34
 70
     1
102
RTVSPost2010Prop35
280
     0
102
RTVSPost2010PropOp35
 70
     1
102
RTVSPost2010Prop36
280
     0
102
RTVSPost2010PropOp36
 70
     1
102
RTVSPost2010Prop37
 90
       50
102
RTVSPost2010PropOp37
 70
     1
102
RTVSPost2010Prop38
140
0.0
102
RTVSPost2010PropOp38
 70
     1
102
RTVSPost2010Prop39
140
1.0
102
RTVSPost2010PropOp39
 70
     1
102
RTVSPost2010Prop40
 90
        0
102
RTVSPost2010PropOp40
 70
     1
102
RTVSPost2010Prop41ColorIndex
 90
       18
102
RTVSPost2010Prop41ColorRGB
 90
        0
102
RTVSPost2010PropOp41
 70
     1
102
RTVSPost2010Prop42
 90
       50
102
RTVSPost2010PropOp42
 70
     1
102
RTVSPost2010Prop43
 90
        3
102
RTVSPost2010PropOp43
 70
     1
102
RTVSPost2010Prop44ColorIndex
 90
        5
102
RTVSPost2010Prop44ColorRGB
 90
      255
102
RTVSPost2010PropOp44
 70
     1
102
RTVSPost2010Prop45
280
     0
102
RTVSPost2010PropOp45
 70
     1
102
RTVSPost2010Prop46
 90
       50
102
RTVSPost2010PropOp46
 70
     1
102
RTVSPost2010Prop47
 90
       50
102
RTVSPost2010PropOp47
 70
     1
102
RTVSPost2010Prop48
 90
       50
102
RTVSPost2010PropOp48
 70
     1
102
RTVSPost2010Prop49
280
     0
102
RTVSPost2010PropOp49
 70
     1
102
RTVSPost2010Prop50
 90
       50
102
RTVSPost2010PropOp50
 70
     1
102
RTVSPost2010Prop51ColorIndex
 90
      256
102
RTVSPost2010Prop51ColorRGB
 90
-16777216
102
RTVSPost2010PropOp51
 70
     0
102
RTVSPost2010Prop52
140
1.0
102
RTVSPost2010PropOp52
 70
     0
102
RTVSPost2010Prop53
 90
        2
102
RTVSPost2010PropOp53
 70
     1
102
RTVSPost2010Prop54
  1
strokes_ogs.tif
102
RTVSPost2010PropOp54
 70
     1
102
RTVSPost2010Prop55
280
     0
102
RTVSPost2010PropOp55
 70
     1
102
RTVSPost2010Prop56
140
1.0
102
RTVSPost2010PropOp56
 70
     1
102
RTVSPost2010Prop57
140
1.0
102
RTVSPost2010PropOp57
 70
     1
  0
XRECORD
  5
318
102
{ACAD_REACTORS
330
317
102
}
330
317
100
AcDbXrecord
280
     1
102
RTVSPropertyOp0
 70
     1
102
RTVSPropertyOp1
 70
     1
102
RTVSPropertyOp2
 70
     1
102
RTVSPropertyOp3
 70
     1
102
RTVSPropertyOp4
 70
     1
102
RTVSPropertyOp5
 70
     1
102
RTVSPropertyOp6
 70
     1
102
RTVSPropertyOp7
 70
     1
102
RTVSPropertyOp8
 70
     1
102
RTVSPropertyOp9
 70
     1
102
RTVSPropertyOp10
 70
     1
102
RTVSPropertyOp11
 70
     1
102
RTVSPropertyOp12
 70
     1
102
RTVSPropertyOp13
 70
     1
102
RTVSPropertyOp14
 70
     1
102
RTVSPropertyOp15
 70
     1
102
RTVSPropertyOp16
 70
     1
102
RTVSPropertyOp17
 70
     1
102
RTVSPropertyOp18
 70
     1
102
RTVSPropertyOp19
 70
     1
102
RTVSPropertyOp20
 70
     1
102
RTVSPropertyOp21
 70
     1
102
RTVSPropertyOp22
 70
     1
102
RTVSPropertyOp23
 70
     1
102
RTVSPropertyOp24
 70
     1
102
RTVSPropertyOp25
 70
     1
102
RTVSPropertyOp26
 70
     1
102
RTVSPropertyOp27
 70
     1
102
RTVSPropertyOp28
 70
     1
102
RTVSPropertyOp29
 70
     1
102
RTVSPropertyOp30
 70
     1
102
RTVSPropertyOp31
 70
     1
102
RTVSPropertyOp32
 70
     1
102
RTVSPropertyOp33
 70
     1
102
RTVSPropertyOp34
 70
     1
102
RTVSPropertyOp35
 70
     1
102
RTVSPropertyOp36
 70
     1
102
RTVSPropertyOp37
 70
     1
102
RTVSPropertyOp38
 70
     1
102
RTVSPropertyOp39
 70
     1
102
RTVSPropertyOp40
 70
     1
102
RTVSPropertyOp41
 70
     1
102
RTVSPropertyOp42
 70
     1
102
RTVSPropertyOp43
 70
     1
102
RTVSPropertyOp44
 70
     1
102
RTVSPropertyOp45
 70
     1
102
RTVSPropertyOp46
 70
     1
102
RTVSPropertyOp47
 70
     1
102
RTVSPropertyOp48
 70
     1
102
RTVSPropertyOp49
 70
     1
102
RTVSPropertyOp50
 70
     1
102
RTVSPropertyOp51
 70
     0
102
RTVSPropertyOp52
 70
     0
102
RTVSPropertyOp53
 70
     1
102
RTVSPropertyOp54
 70
     1
102
RTVSPropertyOp55
 70
     1
102
RTVSPropertyOp56
 70
     1
102
RTVSPropertyOp57
 70
     1
102
RTVSPost2010Prop28
280
     0
102
RTVSPost2010PropOp28
 70
     1
102
RTVSPost2010Prop29
280
     1
102
RTVSPost2010PropOp29
 70
     1
102
RTVSPost2010Prop30
280
     1
102
RTVSPost2010PropOp30
 70
     1
102
RTVSPost2010Prop31
280
     0
102
RTVSPost2010PropOp31
 70
     1
102
RTVSPost2010Prop32
280
     0
102
RTVSPost2010PropOp32
 70
     1
102
RTVSPost2010Prop33
280
     0
102
RTVSPost2010PropOp33
 70
     1
102
RTVSPost2010Prop34
280
     0
102
RTVSPost2010PropOp34
 70
     1
102
RTVSPost2010Prop35
280
     0
102
RTVSPost2010PropOp35
 70
     1
102
RTVSPost2010Prop36
280
     0
102
RTVSPost2010PropOp36
 70
     1
102
RTVSPost2010Prop37
 90
       50
102
RTVSPost2010PropOp37
 70
     1
102
RTVSPost2010Prop38
140
0.0
102
RTVSPost2010PropOp38
 70
     1
102
RTVSPost2010Prop39
140
1.0
102
RTVSPost2010PropOp39
 70
     1
102
RTVSPost2010Prop40
 90
        0
102
RTVSPost2010PropOp40
 70
     1
102
RTVSPost2010Prop41ColorIndex
 90
       18
102
RTVSPost2010Prop41ColorRGB
 90
        0
102
RTVSPost2010PropOp41
 70
     1
102
RTVSPost2010Prop42
 90
       50
102
RTVSPost2010PropOp42
 70
     1
102
RTVSPost2010Prop43
 90
        3
102
RTVSPost2010PropOp43
 70
     1
102
RTVSPost2010Prop44ColorIndex
 90
        5
102
RTVSPost2010Prop44ColorRGB
 90
      255
102
RTVSPost2010PropOp44
 70
     1
102
RTVSPost2010Prop45
280
     0
102
RTVSPost2010PropOp45
 70
     1
102
RTVSPost2010Prop46
 90
       50
102
RTVSPost2010PropOp46
 70
     1
102
RTVSPost2010Prop47
 90
       50
102
RTVSPost2010PropOp47
 70
     1
102
RTVSPost2010Prop48
 90
       50
102
RTVSPost2010PropOp48
 70
     1
102
RTVSPost2010Prop49
280
     0
102
RTVSPost2010PropOp49
 70
     1
102
RTVSPost2010Prop50
 90
       50
102
RTVSPost2010PropOp50
 70
     1
102
RTVSPost2010Prop51ColorIndex
 90
      256
102
RTVSPost2010Prop51ColorRGB
 90
-16777216
102
RTVSPost2010PropOp51
 70
     0
102
RTVSPost2010Prop52
140
1.0
102
RTVSPost2010PropOp52
 70
     0
102
RTVSPost2010Prop53
 90
        2
102
RTVSPost2010PropOp53
 70
     1
102
RTVSPost2010Prop54
  1
strokes_ogs.tif
102
RTVSPost2010PropOp54
 70
     1
102
RTVSPost2010Prop55
280
     0
102
RTVSPost2010PropOp55
 70
     1
102
RTVSPost2010Prop56
140
1.0
102
RTVSPost2010PropOp56
 70
     1
102
RTVSPost2010Prop57
140
1.0
102
RTVSPost2010PropOp57
 70
     1
  0
XRECORD
  5
31A
102
{ACAD_REACTORS
330
319
102
}
330
319
100
AcDbXrecord
280
     1
102
RTVSPropertyOp0
 70
     1
102
RTVSPropertyOp1
 70
     1
102
RTVSPropertyOp2
 70
     1
102
RTVSPropertyOp3
 70
     1
102
RTVSPropertyOp4
 70
     1
102
RTVSPropertyOp5
 70
     1
102
RTVSPropertyOp6
 70
     1
102
RTVSPropertyOp7
 70
     1
102
RTVSPropertyOp8
 70
     1
102
RTVSPropertyOp9
 70
     1
102
RTVSPropertyOp10
 70
     1
102
RTVSPropertyOp11
 70
     1
102
RTVSPropertyOp12
 70
     1
102
RTVSPropertyOp13
 70
     1
102
RTVSPropertyOp14
 70
     1
102
RTVSPropertyOp15
 70
     1
102
RTVSPropertyOp16
 70
     1
102
RTVSPropertyOp17
 70
     1
102
RTVSPropertyOp18
 70
     1
102
RTVSPropertyOp19
 70
     1
102
RTVSPropertyOp20
 70
     1
102
RTVSPropertyOp21
 70
     1
102
RTVSPropertyOp22
 70
     1
102
RTVSPropertyOp23
 70
     1
102
RTVSPropertyOp24
 70
     1
102
RTVSPropertyOp25
 70
     1
102
RTVSPropertyOp26
 70
     1
102
RTVSPropertyOp27
 70
     1
102
RTVSPropertyOp28
 70
     1
102
RTVSPropertyOp29
 70
     1
102
RTVSPropertyOp30
 70
     1
102
RTVSPropertyOp31
 70
     1
102
RTVSPropertyOp32
 70
     1
102
RTVSPropertyOp33
 70
     1
102
RTVSPropertyOp34
 70
     1
102
RTVSPropertyOp35
 70
     1
102
RTVSPropertyOp36
 70
     1
102
RTVSPropertyOp37
 70
     1
102
RTVSPropertyOp38
 70
     1
102
RTVSPropertyOp39
 70
     1
102
RTVSPropertyOp40
 70
     1
102
RTVSPropertyOp41
 70
     1
102
RTVSPropertyOp42
 70
     1
102
RTVSPropertyOp43
 70
     1
102
RTVSPropertyOp44
 70
     1
102
RTVSPropertyOp45
 70
     1
102
RTVSPropertyOp46
 70
     1
102
RTVSPropertyOp47
 70
     1
102
RTVSPropertyOp48
 70
     1
102
RTVSPropertyOp49
 70
     1
102
RTVSPropertyOp50
 70
     1
102
RTVSPropertyOp51
 70
     0
102
RTVSPropertyOp52
 70
     0
102
RTVSPropertyOp53
 70
     1
102
RTVSPropertyOp54
 70
     1
102
RTVSPropertyOp55
 70
     1
102
RTVSPropertyOp56
 70
     1
102
RTVSPropertyOp57
 70
     1
102
RTVSPost2010Prop28
280
     0
102
RTVSPost2010PropOp28
 70
     1
102
RTVSPost2010Prop29
280
     1
102
RTVSPost2010PropOp29
 70
     1
102
RTVSPost2010Prop30
280
     1
102
RTVSPost2010PropOp30
 70
     1
102
RTVSPost2010Prop31
280
     0
102
RTVSPost2010PropOp31
 70
     1
102
RTVSPost2010Prop32
280
     0
102
RTVSPost2010PropOp32
 70
     1
102
RTVSPost2010Prop33
280
     0
102
RTVSPost2010PropOp33
 70
     1
102
RTVSPost2010Prop34
280
     0
102
RTVSPost2010PropOp34
 70
     1
102
RTVSPost2010Prop35
280
     0
102
RTVSPost2010PropOp35
 70
     1
102
RTVSPost2010Prop36
280
     0
102
RTVSPost2010PropOp36
 70
     1
102
RTVSPost2010Prop37
 90
       50
102
RTVSPost2010PropOp37
 70
     1
102
RTVSPost2010Prop38
140
0.0
102
RTVSPost2010PropOp38
 70
     1
102
RTVSPost2010Prop39
140
1.0
102
RTVSPost2010PropOp39
 70
     1
102
RTVSPost2010Prop40
 90
        0
102
RTVSPost2010PropOp40
 70
     1
102
RTVSPost2010Prop41ColorIndex
 90
       18
102
RTVSPost2010Prop41ColorRGB
 90
        0
102
RTVSPost2010PropOp41
 70
     1
102
RTVSPost2010Prop42
 90
       50
102
RTVSPost2010PropOp42
 70
     1
102
RTVSPost2010Prop43
 90
        3
102
RTVSPost2010PropOp43
 70
     1
102
RTVSPost2010Prop44ColorIndex
 90
        5
102
RTVSPost2010Prop44ColorRGB
 90
      255
102
RTVSPost2010PropOp44
 70
     1
102
RTVSPost2010Prop45
280
     0
102
RTVSPost2010PropOp45
 70
     1
102
RTVSPost2010Prop46
 90
       50
102
RTVSPost2010PropOp46
 70
     1
102
RTVSPost2010Prop47
 90
       50
102
RTVSPost2010PropOp47
 70
     1
102
RTVSPost2010Prop48
 90
       50
102
RTVSPost2010PropOp48
 70
     1
102
RTVSPost2010Prop49
280
     0
102
RTVSPost2010PropOp49
 70
     1
102
RTVSPost2010Prop50
 90
       50
102
RTVSPost2010PropOp50
 70
     1
102
RTVSPost2010Prop51ColorIndex
 90
      256
102
RTVSPost2010Prop51ColorRGB
 90
-16777216
102
RTVSPost2010PropOp51
 70
     0
102
RTVSPost2010Prop52
140
1.0
102
RTVSPost2010PropOp52
 70
     0
102
RTVSPost2010Prop53
 90
        2
102
RTVSPost2010PropOp53
 70
     1
102
RTVSPost2010Prop54
  1
strokes_ogs.tif
102
RTVSPost2010PropOp54
 70
     1
102
RTVSPost2010Prop55
280
     0
102
RTVSPost2010PropOp55
 70
     1
102
RTVSPost2010Prop56
140
1.0
102
RTVSPost2010PropOp56
 70
     1
102
RTVSPost2010Prop57
140
1.0
102
RTVSPost2010PropOp57
 70
     1
  0
XRECORD
  5
32A
102
{ACAD_REACTORS
330
329
102
}
330
329
100
AcDbXrecord
280
     1
102
RTVSPropertyOp0
 70
     0
102
RTVSPropertyOp1
 70
     0
102
RTVSPropertyOp2
 70
     0
102
RTVSPropertyOp3
 70
     0
102
RTVSPropertyOp4
 70
     0
102
RTVSPropertyOp5
 70
     0
102
RTVSPropertyOp6
 70
     0
102
RTVSPropertyOp7
 70
     0
102
RTVSPropertyOp8
 70
     0
102
RTVSPropertyOp9
 70
     0
102
RTVSPropertyOp10
 70
     0
102
RTVSPropertyOp11
 70
     0
102
RTVSPropertyOp12
 70
     0
102
RTVSPropertyOp13
 70
     0
102
RTVSPropertyOp14
 70
     2
102
RTVSPropertyOp15
 70
     0
102
RTVSPropertyOp16
 70
     0
102
RTVSPropertyOp17
 70
     0
102
RTVSPropertyOp18
 70
     0
102
RTVSPropertyOp19
 70
     0
102
RTVSPropertyOp20
 70
     0
102
RTVSPropertyOp21
 70
     0
102
RTVSPropertyOp22
 70
     0
102
RTVSPropertyOp23
 70
     0
102
RTVSPropertyOp24
 70
     0
102
RTVSPropertyOp25
 70
     0
102
RTVSPropertyOp26
 70
     0
102
RTVSPropertyOp27
 70
     0
102
RTVSPropertyOp28
 70
     0
102
RTVSPropertyOp29
 70
     0
102
RTVSPropertyOp30
 70
     0
102
RTVSPropertyOp31
 70
     0
102
RTVSPropertyOp32
 70
     0
102
RTVSPropertyOp33
 70
     0
102
RTVSPropertyOp34
 70
     0
102
RTVSPropertyOp35
 70
     0
102
RTVSPropertyOp36
 70
     0
102
RTVSPropertyOp37
 70
     0
102
RTVSPropertyOp38
 70
     0
102
RTVSPropertyOp39
 70
     0
102
RTVSPropertyOp40
 70
     0
102
RTVSPropertyOp41
 70
     0
102
RTVSPropertyOp42
 70
     0
102
RTVSPropertyOp43
 70
     0
102
RTVSPropertyOp44
 70
     0
102
RTVSPropertyOp45
 70
     0
102
RTVSPropertyOp46
 70
     0
102
RTVSPropertyOp47
 70
     0
102
RTVSPropertyOp48
 70
     0
102
RTVSPropertyOp49
 70
     0
102
RTVSPropertyOp50
 70
     0
102
RTVSPropertyOp51
 70
     0
102
RTVSPropertyOp52
 70
     0
102
RTVSPropertyOp53
 70
     0
102
RTVSPropertyOp54
 70
     0
102
RTVSPropertyOp55
 70
     0
102
RTVSPropertyOp56
 70
     0
102
RTVSPropertyOp57
 70
     0
102
RTVSPost2010Prop28
280
     0
102
RTVSPost2010PropOp28
 70
     0
102
RTVSPost2010Prop29
280
     1
102
RTVSPost2010PropOp29
 70
     0
102
RTVSPost2010Prop30
280
     1
102
RTVSPost2010PropOp30
 70
     0
102
RTVSPost2010Prop31
280
     0
102
RTVSPost2010PropOp31
 70
     0
102
RTVSPost2010Prop32
280
     0
102
RTVSPost2010PropOp32
 70
     0
102
RTVSPost2010Prop33
280
     0
102
RTVSPost2010PropOp33
 70
     0
102
RTVSPost2010Prop34
280
     0
102
RTVSPost2010PropOp34
 70
     0
102
RTVSPost2010Prop35
280
     0
102
RTVSPost2010PropOp35
 70
     0
102
RTVSPost2010Prop36
280
     0
102
RTVSPost2010PropOp36
 70
     0
102
RTVSPost2010Prop37
 90
       50
102
RTVSPost2010PropOp37
 70
     0
102
RTVSPost2010Prop38
140
0.0
102
RTVSPost2010PropOp38
 70
     0
102
RTVSPost2010Prop39
140
1.0
102
RTVSPost2010PropOp39
 70
     0
102
RTVSPost2010Prop40
 90
        0
102
RTVSPost2010PropOp40
 70
     0
102
RTVSPost2010Prop41ColorIndex
 90
       18
102
RTVSPost2010Prop41ColorRGB
 90
        0
102
RTVSPost2010PropOp41
 70
     0
102
RTVSPost2010Prop42
 90
       50
102
RTVSPost2010PropOp42
 70
     0
102
RTVSPost2010Prop43
 90
        3
102
RTVSPost2010PropOp43
 70
     0
102
RTVSPost2010Prop44ColorIndex
 90
        5
102
RTVSPost2010Prop44ColorRGB
 90
      255
102
RTVSPost2010PropOp44
 70
     0
102
RTVSPost2010Prop45
280
     0
102
RTVSPost2010PropOp45
 70
     0
102
RTVSPost2010Prop46
 90
       50
102
RTVSPost2010PropOp46
 70
     0
102
RTVSPost2010Prop47
 90
       50
102
RTVSPost2010PropOp47
 70
     0
102
RTVSPost2010Prop48
 90
       50
102
RTVSPost2010PropOp48
 70
     0
102
RTVSPost2010Prop49
280
     0
102
RTVSPost2010PropOp49
 70
     0
102
RTVSPost2010Prop50
 90
       50
102
RTVSPost2010PropOp50
 70
     0
102
RTVSPost2010Prop51ColorIndex
 90
      256
102
RTVSPost2010Prop51ColorRGB
 90
-16777216
102
RTVSPost2010PropOp51
 70
     0
102
RTVSPost2010Prop52
140
1.0
102
RTVSPost2010PropOp52
 70
     0
102
RTVSPost2010Prop53
 90
        2
102
RTVSPost2010PropOp53
 70
     0
102
RTVSPost2010Prop54
  1
strokes_ogs.tif
102
RTVSPost2010PropOp54
 70
     0
102
RTVSPost2010Prop55
280
     0
102
RTVSPost2010PropOp55
 70
     0
102
RTVSPost2010Prop56
140
1.0
102
RTVSPost2010PropOp56
 70
     0
102
RTVSPost2010Prop57
140
1.0
102
RTVSPost2010PropOp57
 70
     0
  0
XRECORD
  5
322
102
{ACAD_REACTORS
330
321
102
}
330
321
100
AcDbXrecord
280
     1
102
RTVSPropertyOp0
 70
     1
102
RTVSPropertyOp1
 70
     1
102
RTVSPropertyOp2
 70
     1
102
RTVSPropertyOp3
 70
     1
102
RTVSPropertyOp4
 70
     1
102
RTVSPropertyOp5
 70
     1
102
RTVSPropertyOp6
 70
     1
102
RTVSPropertyOp7
 70
     1
102
RTVSPropertyOp8
 70
     1
102
RTVSPropertyOp9
 70
     1
102
RTVSPropertyOp10
 70
     1
102
RTVSPropertyOp11
 70
     1
102
RTVSPropertyOp12
 70
     1
102
RTVSPropertyOp13
 70
     1
102
RTVSPropertyOp14
 70
     1
102
RTVSPropertyOp15
 70
     1
102
RTVSPropertyOp16
 70
     1
102
RTVSPropertyOp17
 70
     1
102
RTVSPropertyOp18
 70
     1
102
RTVSPropertyOp19
 70
     1
102
RTVSPropertyOp20
 70
     1
102
RTVSPropertyOp21
 70
     1
102
RTVSPropertyOp22
 70
     1
102
RTVSPropertyOp23
 70
     1
102
RTVSPropertyOp24
 70
     1
102
RTVSPropertyOp25
 70
     1
102
RTVSPropertyOp26
 70
     1
102
RTVSPropertyOp27
 70
     1
102
RTVSPropertyOp28
 70
     1
102
RTVSPropertyOp29
 70
     1
102
RTVSPropertyOp30
 70
     1
102
RTVSPropertyOp31
 70
     1
102
RTVSPropertyOp32
 70
     1
102
RTVSPropertyOp33
 70
     1
102
RTVSPropertyOp34
 70
     1
102
RTVSPropertyOp35
 70
     1
102
RTVSPropertyOp36
 70
     1
102
RTVSPropertyOp37
 70
     1
102
RTVSPropertyOp38
 70
     1
102
RTVSPropertyOp39
 70
     1
102
RTVSPropertyOp40
 70
     1
102
RTVSPropertyOp41
 70
     1
102
RTVSPropertyOp42
 70
     1
102
RTVSPropertyOp43
 70
     1
102
RTVSPropertyOp44
 70
     1
102
RTVSPropertyOp45
 70
     1
102
RTVSPropertyOp46
 70
     1
102
RTVSPropertyOp47
 70
     1
102
RTVSPropertyOp48
 70
     1
102
RTVSPropertyOp49
 70
     1
102
RTVSPropertyOp50
 70
     1
102
RTVSPropertyOp51
 70
     0
102
RTVSPropertyOp52
 70
     0
102
RTVSPropertyOp53
 70
     1
102
RTVSPropertyOp54
 70
     1
102
RTVSPropertyOp55
 70
     1
102
RTVSPropertyOp56
 70
     1
102
RTVSPropertyOp57
 70
     1
102
RTVSPost2010Prop28
280
     0
102
RTVSPost2010PropOp28
 70
     1
102
RTVSPost2010Prop29
280
     1
102
RTVSPost2010PropOp29
 70
     1
102
RTVSPost2010Prop30
280
     1
102
RTVSPost2010PropOp30
 70
     1
102
RTVSPost2010Prop31
280
     0
102
RTVSPost2010PropOp31
 70
     1
102
RTVSPost2010Prop32
280
     0
102
RTVSPost2010PropOp32
 70
     1
102
RTVSPost2010Prop33
280
     0
102
RTVSPost2010PropOp33
 70
     1
102
RTVSPost2010Prop34
280
     0
102
RTVSPost2010PropOp34
 70
     1
102
RTVSPost2010Prop35
280
     0
102
RTVSPost2010PropOp35
 70
     1
102
RTVSPost2010Prop36
280
     0
102
RTVSPost2010PropOp36
 70
     1
102
RTVSPost2010Prop37
 90
       50
102
RTVSPost2010PropOp37
 70
     1
102
RTVSPost2010Prop38
140
0.0
102
RTVSPost2010PropOp38
 70
     1
102
RTVSPost2010Prop39
140
1.0
102
RTVSPost2010PropOp39
 70
     1
102
RTVSPost2010Prop40
 90
        0
102
RTVSPost2010PropOp40
 70
     1
102
RTVSPost2010Prop41ColorIndex
 90
       18
102
RTVSPost2010Prop41ColorRGB
 90
        0
102
RTVSPost2010PropOp41
 70
     1
102
RTVSPost2010Prop42
 90
       50
102
RTVSPost2010PropOp42
 70
     1
102
RTVSPost2010Prop43
 90
        3
102
RTVSPost2010PropOp43
 70
     1
102
RTVSPost2010Prop44ColorIndex
 90
        5
102
RTVSPost2010Prop44ColorRGB
 90
      255
102
RTVSPost2010PropOp44
 70
     1
102
RTVSPost2010Prop45
280
     0
102
RTVSPost2010PropOp45
 70
     1
102
RTVSPost2010Prop46
 90
       50
102
RTVSPost2010PropOp46
 70
     1
102
RTVSPost2010Prop47
 90
       50
102
RTVSPost2010PropOp47
 70
     1
102
RTVSPost2010Prop48
 90
       50
102
RTVSPost2010PropOp48
 70
     1
102
RTVSPost2010Prop49
280
     0
102
RTVSPost2010PropOp49
 70
     1
102
RTVSPost2010Prop50
 90
       50
102
RTVSPost2010PropOp50
 70
     1
102
RTVSPost2010Prop51ColorIndex
 90
      256
102
RTVSPost2010Prop51ColorRGB
 90
-16777216
102
RTVSPost2010PropOp51
 70
     0
102
RTVSPost2010Prop52
140
1.0
102
RTVSPost2010PropOp52
 70
     0
102
RTVSPost2010Prop53
 90
        2
102
RTVSPost2010PropOp53
 70
     1
102
RTVSPost2010Prop54
  1
strokes_ogs.tif
102
RTVSPost2010PropOp54
 70
     1
102
RTVSPost2010Prop55
280
     0
102
RTVSPost2010PropOp55
 70
     1
102
RTVSPost2010Prop56
140
1.0
102
RTVSPost2010PropOp56
 70
     1
102
RTVSPost2010Prop57
140
1.0
102
RTVSPost2010PropOp57
 70
     1
  0
XRECORD
  5
306
102
{ACAD_REACTORS
330
305
102
}
330
305
100
AcDbXrecord
280
     1
102
RTVSPropertyOp0
 70
     1
102
RTVSPropertyOp1
 70
     1
102
RTVSPropertyOp2
 70
     1
102
RTVSPropertyOp3
 70
     1
102
RTVSPropertyOp4
 70
     1
102
RTVSPropertyOp5
 70
     1
102
RTVSPropertyOp6
 70
     1
102
RTVSPropertyOp7
 70
     1
102
RTVSPropertyOp8
 70
     1
102
RTVSPropertyOp9
 70
     1
102
RTVSPropertyOp10
 70
     1
102
RTVSPropertyOp11
 70
     1
102
RTVSPropertyOp12
 70
     1
102
RTVSPropertyOp13
 70
     1
102
RTVSPropertyOp14
 70
     1
102
RTVSPropertyOp15
 70
     1
102
RTVSPropertyOp16
 70
     1
102
RTVSPropertyOp17
 70
     1
102
RTVSPropertyOp18
 70
     1
102
RTVSPropertyOp19
 70
     1
102
RTVSPropertyOp20
 70
     1
102
RTVSPropertyOp21
 70
     1
102
RTVSPropertyOp22
 70
     1
102
RTVSPropertyOp23
 70
     1
102
RTVSPropertyOp24
 70
     1
102
RTVSPropertyOp25
 70
     1
102
RTVSPropertyOp26
 70
     1
102
RTVSPropertyOp27
 70
     1
102
RTVSPropertyOp28
 70
     1
102
RTVSPropertyOp29
 70
     1
102
RTVSPropertyOp30
 70
     1
102
RTVSPropertyOp31
 70
     1
102
RTVSPropertyOp32
 70
     1
102
RTVSPropertyOp33
 70
     1
102
RTVSPropertyOp34
 70
     1
102
RTVSPropertyOp35
 70
     1
102
RTVSPropertyOp36
 70
     1
102
RTVSPropertyOp37
 70
     1
102
RTVSPropertyOp38
 70
     1
102
RTVSPropertyOp39
 70
     1
102
RTVSPropertyOp40
 70
     1
102
RTVSPropertyOp41
 70
     1
102
RTVSPropertyOp42
 70
     1
102
RTVSPropertyOp43
 70
     1
102
RTVSPropertyOp44
 70
     1
102
RTVSPropertyOp45
 70
     1
102
RTVSPropertyOp46
 70
     1
102
RTVSPropertyOp47
 70
     1
102
RTVSPropertyOp48
 70
     1
102
RTVSPropertyOp49
 70
     1
102
RTVSPropertyOp50
 70
     1
102
RTVSPropertyOp51
 70
     0
102
RTVSPropertyOp52
 70
     0
102
RTVSPropertyOp53
 70
     1
102
RTVSPropertyOp54
 70
     1
102
RTVSPropertyOp55
 70
     1
102
RTVSPropertyOp56
 70
     1
102
RTVSPropertyOp57
 70
     1
102
RTVSPost2010Prop28
280
     0
102
RTVSPost2010PropOp28
 70
     1
102
RTVSPost2010Prop29
280
     1
102
RTVSPost2010PropOp29
 70
     1
102
RTVSPost2010Prop30
280
     1
102
RTVSPost2010PropOp30
 70
     1
102
RTVSPost2010Prop31
280
     0
102
RTVSPost2010PropOp31
 70
     1
102
RTVSPost2010Prop32
280
     0
102
RTVSPost2010PropOp32
 70
     1
102
RTVSPost2010Prop33
280
     0
102
RTVSPost2010PropOp33
 70
     1
102
RTVSPost2010Prop34
280
     0
102
RTVSPost2010PropOp34
 70
     1
102
RTVSPost2010Prop35
280
     0
102
RTVSPost2010PropOp35
 70
     1
102
RTVSPost2010Prop36
280
     0
102
RTVSPost2010PropOp36
 70
     1
102
RTVSPost2010Prop37
 90
       50
102
RTVSPost2010PropOp37
 70
     1
102
RTVSPost2010Prop38
140
0.0
102
RTVSPost2010PropOp38
 70
     1
102
RTVSPost2010Prop39
140
1.0
102
RTVSPost2010PropOp39
 70
     1
102
RTVSPost2010Prop40
 90
        0
102
RTVSPost2010PropOp40
 70
     1
102
RTVSPost2010Prop41ColorIndex
 90
       18
102
RTVSPost2010Prop41ColorRGB
 90
        0
102
RTVSPost2010PropOp41
 70
     1
102
RTVSPost2010Prop42
 90
       50
102
RTVSPost2010PropOp42
 70
     1
102
RTVSPost2010Prop43
 90
        3
102
RTVSPost2010PropOp43
 70
     1
102
RTVSPost2010Prop44ColorIndex
 90
        5
102
RTVSPost2010Prop44ColorRGB
 90
      255
102
RTVSPost2010PropOp44
 70
     1
102
RTVSPost2010Prop45
280
     0
102
RTVSPost2010PropOp45
 70
     1
102
RTVSPost2010Prop46
 90
       50
102
RTVSPost2010PropOp46
 70
     1
102
RTVSPost2010Prop47
 90
       50
102
RTVSPost2010PropOp47
 70
     1
102
RTVSPost2010Prop48
 90
       50
102
RTVSPost2010PropOp48
 70
     1
102
RTVSPost2010Prop49
280
     0
102
RTVSPost2010PropOp49
 70
     1
102
RTVSPost2010Prop50
 90
       50
102
RTVSPost2010PropOp50
 70
     1
102
RTVSPost2010Prop51ColorIndex
 90
      256
102
RTVSPost2010Prop51ColorRGB
 90
-16777216
102
RTVSPost2010PropOp51
 70
     0
102
RTVSPost2010Prop52
140
1.0
102
RTVSPost2010PropOp52
 70
     0
102
RTVSPost2010Prop53
 90
        2
102
RTVSPost2010PropOp53
 70
     1
102
RTVSPost2010Prop54
  1
strokes_ogs.tif
102
RTVSPost2010PropOp54
 70
     1
102
RTVSPost2010Prop55
280
     0
102
RTVSPost2010PropOp55
 70
     1
102
RTVSPost2010Prop56
140
1.0
102
RTVSPost2010PropOp56
 70
     1
102
RTVSPost2010Prop57
140
1.0
102
RTVSPost2010PropOp57
 70
     1
  0
XRECORD
  5
308
102
{ACAD_REACTORS
330
307
102
}
330
307
100
AcDbXrecord
280
     1
102
RTVSPropertyOp0
 70
     1
102
RTVSPropertyOp1
 70
     1
102
RTVSPropertyOp2
 70
     1
102
RTVSPropertyOp3
 70
     1
102
RTVSPropertyOp4
 70
     1
102
RTVSPropertyOp5
 70
     1
102
RTVSPropertyOp6
 70
     1
102
RTVSPropertyOp7
 70
     1
102
RTVSPropertyOp8
 70
     1
102
RTVSPropertyOp9
 70
     1
102
RTVSPropertyOp10
 70
     1
102
RTVSPropertyOp11
 70
     1
102
RTVSPropertyOp12
 70
     1
102
RTVSPropertyOp13
 70
     1
102
RTVSPropertyOp14
 70
     1
102
RTVSPropertyOp15
 70
     1
102
RTVSPropertyOp16
 70
     1
102
RTVSPropertyOp17
 70
     1
102
RTVSPropertyOp18
 70
     1
102
RTVSPropertyOp19
 70
     1
102
RTVSPropertyOp20
 70
     1
102
RTVSPropertyOp21
 70
     1
102
RTVSPropertyOp22
 70
     1
102
RTVSPropertyOp23
 70
     1
102
RTVSPropertyOp24
 70
     1
102
RTVSPropertyOp25
 70
     1
102
RTVSPropertyOp26
 70
     1
102
RTVSPropertyOp27
 70
     1
102
RTVSPropertyOp28
 70
     1
102
RTVSPropertyOp29
 70
     1
102
RTVSPropertyOp30
 70
     1
102
RTVSPropertyOp31
 70
     1
102
RTVSPropertyOp32
 70
     1
102
RTVSPropertyOp33
 70
     1
102
RTVSPropertyOp34
 70
     1
102
RTVSPropertyOp35
 70
     1
102
RTVSPropertyOp36
 70
     1
102
RTVSPropertyOp37
 70
     1
102
RTVSPropertyOp38
 70
     1
102
RTVSPropertyOp39
 70
     1
102
RTVSPropertyOp40
 70
     1
102
RTVSPropertyOp41
 70
     1
102
RTVSPropertyOp42
 70
     1
102
RTVSPropertyOp43
 70
     1
102
RTVSPropertyOp44
 70
     1
102
RTVSPropertyOp45
 70
     1
102
RTVSPropertyOp46
 70
     1
102
RTVSPropertyOp47
 70
     1
102
RTVSPropertyOp48
 70
     1
102
RTVSPropertyOp49
 70
     1
102
RTVSPropertyOp50
 70
     1
102
RTVSPropertyOp51
 70
     0
102
RTVSPropertyOp52
 70
     0
102
RTVSPropertyOp53
 70
     1
102
RTVSPropertyOp54
 70
     1
102
RTVSPropertyOp55
 70
     1
102
RTVSPropertyOp56
 70
     1
102
RTVSPropertyOp57
 70
     1
102
RTVSPost2010Prop28
280
     0
102
RTVSPost2010PropOp28
 70
     1
102
RTVSPost2010Prop29
280
     1
102
RTVSPost2010PropOp29
 70
     1
102
RTVSPost2010Prop30
280
     1
102
RTVSPost2010PropOp30
 70
     1
102
RTVSPost2010Prop31
280
     0
102
RTVSPost2010PropOp31
 70
     1
102
RTVSPost2010Prop32
280
     0
102
RTVSPost2010PropOp32
 70
     1
102
RTVSPost2010Prop33
280
     0
102
RTVSPost2010PropOp33
 70
     1
102
RTVSPost2010Prop34
280
     0
102
RTVSPost2010PropOp34
 70
     1
102
RTVSPost2010Prop35
280
     0
102
RTVSPost2010PropOp35
 70
     1
102
RTVSPost2010Prop36
280
     0
102
RTVSPost2010PropOp36
 70
     1
102
RTVSPost2010Prop37
 90
       50
102
RTVSPost2010PropOp37
 70
     1
102
RTVSPost2010Prop38
140
0.0
102
RTVSPost2010PropOp38
 70
     1
102
RTVSPost2010Prop39
140
1.0
102
RTVSPost2010PropOp39
 70
     1
102
RTVSPost2010Prop40
 90
        0
102
RTVSPost2010PropOp40
 70
     1
102
RTVSPost2010Prop41ColorIndex
 90
       18
102
RTVSPost2010Prop41ColorRGB
 90
        0
102
RTVSPost2010PropOp41
 70
     1
102
RTVSPost2010Prop42
 90
       50
102
RTVSPost2010PropOp42
 70
     1
102
RTVSPost2010Prop43
 90
        3
102
RTVSPost2010PropOp43
 70
     1
102
RTVSPost2010Prop44ColorIndex
 90
        5
102
RTVSPost2010Prop44ColorRGB
 90
      255
102
RTVSPost2010PropOp44
 70
     1
102
RTVSPost2010Prop45
280
     0
102
RTVSPost2010PropOp45
 70
     1
102
RTVSPost2010Prop46
 90
       50
102
RTVSPost2010PropOp46
 70
     1
102
RTVSPost2010Prop47
 90
       50
102
RTVSPost2010PropOp47
 70
     1
102
RTVSPost2010Prop48
 90
       50
102
RTVSPost2010PropOp48
 70
     1
102
RTVSPost2010Prop49
280
     0
102
RTVSPost2010PropOp49
 70
     1
102
RTVSPost2010Prop50
 90
       50
102
RTVSPost2010PropOp50
 70
     1
102
RTVSPost2010Prop51ColorIndex
 90
      256
102
RTVSPost2010Prop51ColorRGB
 90
-16777216
102
RTVSPost2010PropOp51
 70
     0
102
RTVSPost2010Prop52
140
1.0
102
RTVSPost2010PropOp52
 70
     0
102
RTVSPost2010Prop53
 90
        2
102
RTVSPost2010PropOp53
 70
     1
102
RTVSPost2010Prop54
  1
strokes_ogs.tif
102
RTVSPost2010PropOp54
 70
     1
102
RTVSPost2010Prop55
280
     0
102
RTVSPost2010PropOp55
 70
     1
102
RTVSPost2010Prop56
140
1.0
102
RTVSPost2010PropOp56
 70
     1
102
RTVSPost2010Prop57
140
1.0
102
RTVSPost2010PropOp57
 70
     1
  0
XRECORD
  5
30A
102
{ACAD_REACTORS
330
309
102
}
330
309
100
AcDbXrecord
280
     1
102
RTVSPropertyOp0
 70
     1
102
RTVSPropertyOp1
 70
     1
102
RTVSPropertyOp2
 70
     1
102
RTVSPropertyOp3
 70
     1
102
RTVSPropertyOp4
 70
     1
102
RTVSPropertyOp5
 70
     1
102
RTVSPropertyOp6
 70
     1
102
RTVSPropertyOp7
 70
     1
102
RTVSPropertyOp8
 70
     1
102
RTVSPropertyOp9
 70
     1
102
RTVSPropertyOp10
 70
     1
102
RTVSPropertyOp11
 70
     1
102
RTVSPropertyOp12
 70
     1
102
RTVSPropertyOp13
 70
     1
102
RTVSPropertyOp14
 70
     1
102
RTVSPropertyOp15
 70
     1
102
RTVSPropertyOp16
 70
     1
102
RTVSPropertyOp17
 70
     1
102
RTVSPropertyOp18
 70
     1
102
RTVSPropertyOp19
 70
     1
102
RTVSPropertyOp20
 70
     1
102
RTVSPropertyOp21
 70
     1
102
RTVSPropertyOp22
 70
     1
102
RTVSPropertyOp23
 70
     1
102
RTVSPropertyOp24
 70
     1
102
RTVSPropertyOp25
 70
     1
102
RTVSPropertyOp26
 70
     1
102
RTVSPropertyOp27
 70
     1
102
RTVSPropertyOp28
 70
     1
102
RTVSPropertyOp29
 70
     1
102
RTVSPropertyOp30
 70
     1
102
RTVSPropertyOp31
 70
     1
102
RTVSPropertyOp32
 70
     1
102
RTVSPropertyOp33
 70
     1
102
RTVSPropertyOp34
 70
     1
102
RTVSPropertyOp35
 70
     1
102
RTVSPropertyOp36
 70
     1
102
RTVSPropertyOp37
 70
     1
102
RTVSPropertyOp38
 70
     1
102
RTVSPropertyOp39
 70
     1
102
RTVSPropertyOp40
 70
     1
102
RTVSPropertyOp41
 70
     1
102
RTVSPropertyOp42
 70
     1
102
RTVSPropertyOp43
 70
     1
102
RTVSPropertyOp44
 70
     1
102
RTVSPropertyOp45
 70
     1
102
RTVSPropertyOp46
 70
     1
102
RTVSPropertyOp47
 70
     1
102
RTVSPropertyOp48
 70
     1
102
RTVSPropertyOp49
 70
     1
102
RTVSPropertyOp50
 70
     1
102
RTVSPropertyOp51
 70
     0
102
RTVSPropertyOp52
 70
     0
102
RTVSPropertyOp53
 70
     1
102
RTVSPropertyOp54
 70
     1
102
RTVSPropertyOp55
 70
     1
102
RTVSPropertyOp56
 70
     1
102
RTVSPropertyOp57
 70
     1
102
RTVSPost2010Prop28
280
     0
102
RTVSPost2010PropOp28
 70
     1
102
RTVSPost2010Prop29
280
     1
102
RTVSPost2010PropOp29
 70
     1
102
RTVSPost2010Prop30
280
     1
102
RTVSPost2010PropOp30
 70
     1
102
RTVSPost2010Prop31
280
     0
102
RTVSPost2010PropOp31
 70
     1
102
RTVSPost2010Prop32
280
     0
102
RTVSPost2010PropOp32
 70
     1
102
RTVSPost2010Prop33
280
     0
102
RTVSPost2010PropOp33
 70
     1
102
RTVSPost2010Prop34
280
     0
102
RTVSPost2010PropOp34
 70
     1
102
RTVSPost2010Prop35
280
     0
102
RTVSPost2010PropOp35
 70
     1
102
RTVSPost2010Prop36
280
     0
102
RTVSPost2010PropOp36
 70
     1
102
RTVSPost2010Prop37
 90
       50
102
RTVSPost2010PropOp37
 70
     1
102
RTVSPost2010Prop38
140
0.0
102
RTVSPost2010PropOp38
 70
     1
102
RTVSPost2010Prop39
140
1.0
102
RTVSPost2010PropOp39
 70
     1
102
RTVSPost2010Prop40
 90
        0
102
RTVSPost2010PropOp40
 70
     1
102
RTVSPost2010Prop41ColorIndex
 90
       18
102
RTVSPost2010Prop41ColorRGB
 90
        0
102
RTVSPost2010PropOp41
 70
     1
102
RTVSPost2010Prop42
 90
       50
102
RTVSPost2010PropOp42
 70
     1
102
RTVSPost2010Prop43
 90
        3
102
RTVSPost2010PropOp43
 70
     1
102
RTVSPost2010Prop44ColorIndex
 90
        5
102
RTVSPost2010Prop44ColorRGB
 90
      255
102
RTVSPost2010PropOp44
 70
     1
102
RTVSPost2010Prop45
280
     0
102
RTVSPost2010PropOp45
 70
     1
102
RTVSPost2010Prop46
 90
       50
102
RTVSPost2010PropOp46
 70
     1
102
RTVSPost2010Prop47
 90
       50
102
RTVSPost2010PropOp47
 70
     1
102
RTVSPost2010Prop48
 90
       50
102
RTVSPost2010PropOp48
 70
     1
102
RTVSPost2010Prop49
280
     0
102
RTVSPost2010PropOp49
 70
     1
102
RTVSPost2010Prop50
 90
       50
102
RTVSPost2010PropOp50
 70
     1
102
RTVSPost2010Prop51ColorIndex
 90
      256
102
RTVSPost2010Prop51ColorRGB
 90
-16777216
102
RTVSPost2010PropOp51
 70
     0
102
RTVSPost2010Prop52
140
1.0
102
RTVSPost2010PropOp52
 70
     0
102
RTVSPost2010Prop53
 90
        2
102
RTVSPost2010PropOp53
 70
     1
102
RTVSPost2010Prop54
  1
strokes_ogs.tif
102
RTVSPost2010PropOp54
 70
     1
102
RTVSPost2010Prop55
280
     0
102
RTVSPost2010PropOp55
 70
     1
102
RTVSPost2010Prop56
140
1.0
102
RTVSPost2010PropOp56
 70
     1
102
RTVSPost2010Prop57
140
1.0
102
RTVSPost2010PropOp57
 70
     1
  0
XRECORD
  5
30C
102
{ACAD_REACTORS
330
30B
102
}
330
30B
100
AcDbXrecord
280
     1
102
RTVSPropertyOp0
 70
     1
102
RTVSPropertyOp1
 70
     1
102
RTVSPropertyOp2
 70
     1
102
RTVSPropertyOp3
 70
     1
102
RTVSPropertyOp4
 70
     1
102
RTVSPropertyOp5
 70
     1
102
RTVSPropertyOp6
 70
     1
102
RTVSPropertyOp7
 70
     1
102
RTVSPropertyOp8
 70
     1
102
RTVSPropertyOp9
 70
     1
102
RTVSPropertyOp10
 70
     1
102
RTVSPropertyOp11
 70
     1
102
RTVSPropertyOp12
 70
     1
102
RTVSPropertyOp13
 70
     1
102
RTVSPropertyOp14
 70
     1
102
RTVSPropertyOp15
 70
     1
102
RTVSPropertyOp16
 70
     1
102
RTVSPropertyOp17
 70
     1
102
RTVSPropertyOp18
 70
     1
102
RTVSPropertyOp19
 70
     1
102
RTVSPropertyOp20
 70
     1
102
RTVSPropertyOp21
 70
     1
102
RTVSPropertyOp22
 70
     1
102
RTVSPropertyOp23
 70
     1
102
RTVSPropertyOp24
 70
     1
102
RTVSPropertyOp25
 70
     1
102
RTVSPropertyOp26
 70
     1
102
RTVSPropertyOp27
 70
     1
102
RTVSPropertyOp28
 70
     1
102
RTVSPropertyOp29
 70
     1
102
RTVSPropertyOp30
 70
     1
102
RTVSPropertyOp31
 70
     1
102
RTVSPropertyOp32
 70
     1
102
RTVSPropertyOp33
 70
     1
102
RTVSPropertyOp34
 70
     1
102
RTVSPropertyOp35
 70
     1
102
RTVSPropertyOp36
 70
     1
102
RTVSPropertyOp37
 70
     1
102
RTVSPropertyOp38
 70
     1
102
RTVSPropertyOp39
 70
     1
102
RTVSPropertyOp40
 70
     1
102
RTVSPropertyOp41
 70
     1
102
RTVSPropertyOp42
 70
     1
102
RTVSPropertyOp43
 70
     1
102
RTVSPropertyOp44
 70
     1
102
RTVSPropertyOp45
 70
     1
102
RTVSPropertyOp46
 70
     1
102
RTVSPropertyOp47
 70
     1
102
RTVSPropertyOp48
 70
     1
102
RTVSPropertyOp49
 70
     1
102
RTVSPropertyOp50
 70
     1
102
RTVSPropertyOp51
 70
     0
102
RTVSPropertyOp52
 70
     0
102
RTVSPropertyOp53
 70
     1
102
RTVSPropertyOp54
 70
     1
102
RTVSPropertyOp55
 70
     1
102
RTVSPropertyOp56
 70
     1
102
RTVSPropertyOp57
 70
     1
102
RTVSPost2010Prop28
280
     0
102
RTVSPost2010PropOp28
 70
     1
102
RTVSPost2010Prop29
280
     1
102
RTVSPost2010PropOp29
 70
     1
102
RTVSPost2010Prop30
280
     1
102
RTVSPost2010PropOp30
 70
     1
102
RTVSPost2010Prop31
280
     0
102
RTVSPost2010PropOp31
 70
     1
102
RTVSPost2010Prop32
280
     0
102
RTVSPost2010PropOp32
 70
     1
102
RTVSPost2010Prop33
280
     0
102
RTVSPost2010PropOp33
 70
     1
102
RTVSPost2010Prop34
280
     0
102
RTVSPost2010PropOp34
 70
     1
102
RTVSPost2010Prop35
280
     0
102
RTVSPost2010PropOp35
 70
     1
102
RTVSPost2010Prop36
280
     0
102
RTVSPost2010PropOp36
 70
     1
102
RTVSPost2010Prop37
 90
       50
102
RTVSPost2010PropOp37
 70
     1
102
RTVSPost2010Prop38
140
0.0
102
RTVSPost2010PropOp38
 70
     1
102
RTVSPost2010Prop39
140
1.0
102
RTVSPost2010PropOp39
 70
     1
102
RTVSPost2010Prop40
 90
        0
102
RTVSPost2010PropOp40
 70
     1
102
RTVSPost2010Prop41ColorIndex
 90
       18
102
RTVSPost2010Prop41ColorRGB
 90
        0
102
RTVSPost2010PropOp41
 70
     1
102
RTVSPost2010Prop42
 90
       50
102
RTVSPost2010PropOp42
 70
     1
102
RTVSPost2010Prop43
 90
        3
102
RTVSPost2010PropOp43
 70
     1
102
RTVSPost2010Prop44ColorIndex
 90
        5
102
RTVSPost2010Prop44ColorRGB
 90
      255
102
RTVSPost2010PropOp44
 70
     1
102
RTVSPost2010Prop45
280
     0
102
RTVSPost2010PropOp45
 70
     1
102
RTVSPost2010Prop46
 90
       50
102
RTVSPost2010PropOp46
 70
     1
102
RTVSPost2010Prop47
 90
       50
102
RTVSPost2010PropOp47
 70
     1
102
RTVSPost2010Prop48
 90
       50
102
RTVSPost2010PropOp48
 70
     1
102
RTVSPost2010Prop49
280
     0
102
RTVSPost2010PropOp49
 70
     1
102
RTVSPost2010Prop50
 90
       50
102
RTVSPost2010PropOp50
 70
     1
102
RTVSPost2010Prop51ColorIndex
 90
      256
102
RTVSPost2010Prop51ColorRGB
 90
-16777216
102
RTVSPost2010PropOp51
 70
     0
102
RTVSPost2010Prop52
140
1.0
102
RTVSPost2010PropOp52
 70
     0
102
RTVSPost2010Prop53
 90
        2
102
RTVSPost2010PropOp53
 70
     1
102
RTVSPost2010Prop54
  1
strokes_ogs.tif
102
RTVSPost2010PropOp54
 70
     1
102
RTVSPost2010Prop55
280
     0
102
RTVSPost2010PropOp55
 70
     1
102
RTVSPost2010Prop56
140
1.0
102
RTVSPost2010PropOp56
 70
     1
102
RTVSPost2010Prop57
140
1.0
102
RTVSPost2010PropOp57
 70
     1
  0
XRECORD
  5
312
102
{ACAD_REACTORS
330
311
102
}
330
311
100
AcDbXrecord
280
     1
102
RTVSPropertyOp0
 70
     1
102
RTVSPropertyOp1
 70
     1
102
RTVSPropertyOp2
 70
     1
102
RTVSPropertyOp3
 70
     1
102
RTVSPropertyOp4
 70
     1
102
RTVSPropertyOp5
 70
     1
102
RTVSPropertyOp6
 70
     1
102
RTVSPropertyOp7
 70
     1
102
RTVSPropertyOp8
 70
     1
102
RTVSPropertyOp9
 70
     1
102
RTVSPropertyOp10
 70
     1
102
RTVSPropertyOp11
 70
     1
102
RTVSPropertyOp12
 70
     1
102
RTVSPropertyOp13
 70
     1
102
RTVSPropertyOp14
 70
     1
102
RTVSPropertyOp15
 70
     1
102
RTVSPropertyOp16
 70
     1
102
RTVSPropertyOp17
 70
     1
102
RTVSPropertyOp18
 70
     1
102
RTVSPropertyOp19
 70
     1
102
RTVSPropertyOp20
 70
     1
102
RTVSPropertyOp21
 70
     1
102
RTVSPropertyOp22
 70
     1
102
RTVSPropertyOp23
 70
     1
102
RTVSPropertyOp24
 70
     1
102
RTVSPropertyOp25
 70
     1
102
RTVSPropertyOp26
 70
     1
102
RTVSPropertyOp27
 70
     1
102
RTVSPropertyOp28
 70
     1
102
RTVSPropertyOp29
 70
     1
102
RTVSPropertyOp30
 70
     1
102
RTVSPropertyOp31
 70
     1
102
RTVSPropertyOp32
 70
     1
102
RTVSPropertyOp33
 70
     1
102
RTVSPropertyOp34
 70
     1
102
RTVSPropertyOp35
 70
     1
102
RTVSPropertyOp36
 70
     1
102
RTVSPropertyOp37
 70
     1
102
RTVSPropertyOp38
 70
     1
102
RTVSPropertyOp39
 70
     1
102
RTVSPropertyOp40
 70
     1
102
RTVSPropertyOp41
 70
     1
102
RTVSPropertyOp42
 70
     1
102
RTVSPropertyOp43
 70
     1
102
RTVSPropertyOp44
 70
     1
102
RTVSPropertyOp45
 70
     1
102
RTVSPropertyOp46
 70
     1
102
RTVSPropertyOp47
 70
     1
102
RTVSPropertyOp48
 70
     1
102
RTVSPropertyOp49
 70
     1
102
RTVSPropertyOp50
 70
     1
102
RTVSPropertyOp51
 70
     0
102
RTVSPropertyOp52
 70
     0
102
RTVSPropertyOp53
 70
     1
102
RTVSPropertyOp54
 70
     1
102
RTVSPropertyOp55
 70
     1
102
RTVSPropertyOp56
 70
     1
102
RTVSPropertyOp57
 70
     1
102
RTVSPost2010Prop28
280
     0
102
RTVSPost2010PropOp28
 70
     1
102
RTVSPost2010Prop29
280
     1
102
RTVSPost2010PropOp29
 70
     1
102
RTVSPost2010Prop30
280
     1
102
RTVSPost2010PropOp30
 70
     1
102
RTVSPost2010Prop31
280
     0
102
RTVSPost2010PropOp31
 70
     1
102
RTVSPost2010Prop32
280
     0
102
RTVSPost2010PropOp32
 70
     1
102
RTVSPost2010Prop33
280
     0
102
RTVSPost2010PropOp33
 70
     1
102
RTVSPost2010Prop34
280
     0
102
RTVSPost2010PropOp34
 70
     1
102
RTVSPost2010Prop35
280
     0
102
RTVSPost2010PropOp35
 70
     1
102
RTVSPost2010Prop36
280
     0
102
RTVSPost2010PropOp36
 70
     1
102
RTVSPost2010Prop37
 90
       50
102
RTVSPost2010PropOp37
 70
     1
102
RTVSPost2010Prop38
140
0.0
102
RTVSPost2010PropOp38
 70
     1
102
RTVSPost2010Prop39
140
1.0
102
RTVSPost2010PropOp39
 70
     1
102
RTVSPost2010Prop40
 90
        0
102
RTVSPost2010PropOp40
 70
     1
102
RTVSPost2010Prop41ColorIndex
 90
       18
102
RTVSPost2010Prop41ColorRGB
 90
        0
102
RTVSPost2010PropOp41
 70
     1
102
RTVSPost2010Prop42
 90
       50
102
RTVSPost2010PropOp42
 70
     1
102
RTVSPost2010Prop43
 90
        3
102
RTVSPost2010PropOp43
 70
     1
102
RTVSPost2010Prop44ColorIndex
 90
        5
102
RTVSPost2010Prop44ColorRGB
 90
      255
102
RTVSPost2010PropOp44
 70
     1
102
RTVSPost2010Prop45
280
     0
102
RTVSPost2010PropOp45
 70
     1
102
RTVSPost2010Prop46
 90
       50
102
RTVSPost2010PropOp46
 70
     1
102
RTVSPost2010Prop47
 90
       50
102
RTVSPost2010PropOp47
 70
     1
102
RTVSPost2010Prop48
 90
       50
102
RTVSPost2010PropOp48
 70
     1
102
RTVSPost2010Prop49
280
     0
102
RTVSPost2010PropOp49
 70
     1
102
RTVSPost2010Prop50
 90
       50
102
RTVSPost2010PropOp50
 70
     1
102
RTVSPost2010Prop51ColorIndex
 90
      256
102
RTVSPost2010Prop51ColorRGB
 90
-16777216
102
RTVSPost2010PropOp51
 70
     0
102
RTVSPost2010Prop52
140
1.0
102
RTVSPost2010PropOp52
 70
     0
102
RTVSPost2010Prop53
 90
        2
102
RTVSPost2010PropOp53
 70
     1
102
RTVSPost2010Prop54
  1
strokes_ogs.tif
102
RTVSPost2010PropOp54
 70
     1
102
RTVSPost2010Prop55
280
     0
102
RTVSPost2010PropOp55
 70
     1
102
RTVSPost2010Prop56
140
1.0
102
RTVSPost2010PropOp56
 70
     1
102
RTVSPost2010Prop57
140
1.0
102
RTVSPost2010PropOp57
 70
     1
  0
XRECORD
  5
326
102
{ACAD_REACTORS
330
325
102
}
330
325
100
AcDbXrecord
280
     1
102
RTVSPropertyOp0
 70
     0
102
RTVSPropertyOp1
 70
     0
102
RTVSPropertyOp2
 70
     0
102
RTVSPropertyOp3
 70
     0
102
RTVSPropertyOp4
 70
     0
102
RTVSPropertyOp5
 70
     0
102
RTVSPropertyOp6
 70
     0
102
RTVSPropertyOp7
 70
     0
102
RTVSPropertyOp8
 70
     0
102
RTVSPropertyOp9
 70
     0
102
RTVSPropertyOp10
 70
     0
102
RTVSPropertyOp11
 70
     0
102
RTVSPropertyOp12
 70
     0
102
RTVSPropertyOp13
 70
     0
102
RTVSPropertyOp14
 70
     2
102
RTVSPropertyOp15
 70
     0
102
RTVSPropertyOp16
 70
     0
102
RTVSPropertyOp17
 70
     0
102
RTVSPropertyOp18
 70
     0
102
RTVSPropertyOp19
 70
     0
102
RTVSPropertyOp20
 70
     0
102
RTVSPropertyOp21
 70
     0
102
RTVSPropertyOp22
 70
     0
102
RTVSPropertyOp23
 70
     0
102
RTVSPropertyOp24
 70
     0
102
RTVSPropertyOp25
 70
     0
102
RTVSPropertyOp26
 70
     0
102
RTVSPropertyOp27
 70
     0
102
RTVSPropertyOp28
 70
     0
102
RTVSPropertyOp29
 70
     0
102
RTVSPropertyOp30
 70
     0
102
RTVSPropertyOp31
 70
     0
102
RTVSPropertyOp32
 70
     0
102
RTVSPropertyOp33
 70
     0
102
RTVSPropertyOp34
 70
     0
102
RTVSPropertyOp35
 70
     0
102
RTVSPropertyOp36
 70
     0
102
RTVSPropertyOp37
 70
     0
102
RTVSPropertyOp38
 70
     0
102
RTVSPropertyOp39
 70
     0
102
RTVSPropertyOp40
 70
     0
102
RTVSPropertyOp41
 70
     0
102
RTVSPropertyOp42
 70
     0
102
RTVSPropertyOp43
 70
     0
102
RTVSPropertyOp44
 70
     0
102
RTVSPropertyOp45
 70
     0
102
RTVSPropertyOp46
 70
     0
102
RTVSPropertyOp47
 70
     0
102
RTVSPropertyOp48
 70
     0
102
RTVSPropertyOp49
 70
     0
102
RTVSPropertyOp50
 70
     0
102
RTVSPropertyOp51
 70
     0
102
RTVSPropertyOp52
 70
     0
102
RTVSPropertyOp53
 70
     0
102
RTVSPropertyOp54
 70
     0
102
RTVSPropertyOp55
 70
     0
102
RTVSPropertyOp56
 70
     0
102
RTVSPropertyOp57
 70
     0
102
RTVSPost2010Prop28
280
     0
102
RTVSPost2010PropOp28
 70
     0
102
RTVSPost2010Prop29
280
     1
102
RTVSPost2010PropOp29
 70
     0
102
RTVSPost2010Prop30
280
     1
102
RTVSPost2010PropOp30
 70
     0
102
RTVSPost2010Prop31
280
     0
102
RTVSPost2010PropOp31
 70
     0
102
RTVSPost2010Prop32
280
     0
102
RTVSPost2010PropOp32
 70
     0
102
RTVSPost2010Prop33
280
     0
102
RTVSPost2010PropOp33
 70
     0
102
RTVSPost2010Prop34
280
     0
102
RTVSPost2010PropOp34
 70
     0
102
RTVSPost2010Prop35
280
     0
102
RTVSPost2010PropOp35
 70
     0
102
RTVSPost2010Prop36
280
     0
102
RTVSPost2010PropOp36
 70
     0
102
RTVSPost2010Prop37
 90
       50
102
RTVSPost2010PropOp37
 70
     0
102
RTVSPost2010Prop38
140
0.0
102
RTVSPost2010PropOp38
 70
     0
102
RTVSPost2010Prop39
140
1.0
102
RTVSPost2010PropOp39
 70
     0
102
RTVSPost2010Prop40
 90
        0
102
RTVSPost2010PropOp40
 70
     0
102
RTVSPost2010Prop41ColorIndex
 90
       18
102
RTVSPost2010Prop41ColorRGB
 90
        0
102
RTVSPost2010PropOp41
 70
     0
102
RTVSPost2010Prop42
 90
       50
102
RTVSPost2010PropOp42
 70
     0
102
RTVSPost2010Prop43
 90
        3
102
RTVSPost2010PropOp43
 70
     0
102
RTVSPost2010Prop44ColorIndex
 90
        5
102
RTVSPost2010Prop44ColorRGB
 90
      255
102
RTVSPost2010PropOp44
 70
     0
102
RTVSPost2010Prop45
280
     0
102
RTVSPost2010PropOp45
 70
     0
102
RTVSPost2010Prop46
 90
       50
102
RTVSPost2010PropOp46
 70
     0
102
RTVSPost2010Prop47
 90
       50
102
RTVSPost2010PropOp47
 70
     0
102
RTVSPost2010Prop48
 90
       50
102
RTVSPost2010PropOp48
 70
     0
102
RTVSPost2010Prop49
280
     0
102
RTVSPost2010PropOp49
 70
     0
102
RTVSPost2010Prop50
 90
       50
102
RTVSPost2010PropOp50
 70
     0
102
RTVSPost2010Prop51ColorIndex
 90
      256
102
RTVSPost2010Prop51ColorRGB
 90
-16777216
102
RTVSPost2010PropOp51
 70
     0
102
RTVSPost2010Prop52
140
1.0
102
RTVSPost2010PropOp52
 70
     0
102
RTVSPost2010Prop53
 90
        2
102
RTVSPost2010PropOp53
 70
     0
102
RTVSPost2010Prop54
  1
strokes_ogs.tif
102
RTVSPost2010PropOp54
 70
     0
102
RTVSPost2010Prop55
280
     0
102
RTVSPost2010PropOp55
 70
     0
102
RTVSPost2010Prop56
140
1.0
102
RTVSPost2010PropOp56
 70
     0
102
RTVSPost2010Prop57
140
1.0
102
RTVSPost2010PropOp57
 70
     0
  0
XRECORD
  5
320
102
{ACAD_REACTORS
330
31F
102
}
330
31F
100
AcDbXrecord
280
     1
102
RTVSPropertyOp0
 70
     1
102
RTVSPropertyOp1
 70
     1
102
RTVSPropertyOp2
 70
     1
102
RTVSPropertyOp3
 70
     1
102
RTVSPropertyOp4
 70
     1
102
RTVSPropertyOp5
 70
     1
102
RTVSPropertyOp6
 70
     1
102
RTVSPropertyOp7
 70
     1
102
RTVSPropertyOp8
 70
     1
102
RTVSPropertyOp9
 70
     1
102
RTVSPropertyOp10
 70
     1
102
RTVSPropertyOp11
 70
     1
102
RTVSPropertyOp12
 70
     1
102
RTVSPropertyOp13
 70
     1
102
RTVSPropertyOp14
 70
     1
102
RTVSPropertyOp15
 70
     1
102
RTVSPropertyOp16
 70
     1
102
RTVSPropertyOp17
 70
     1
102
RTVSPropertyOp18
 70
     1
102
RTVSPropertyOp19
 70
     1
102
RTVSPropertyOp20
 70
     1
102
RTVSPropertyOp21
 70
     1
102
RTVSPropertyOp22
 70
     1
102
RTVSPropertyOp23
 70
     1
102
RTVSPropertyOp24
 70
     1
102
RTVSPropertyOp25
 70
     1
102
RTVSPropertyOp26
 70
     1
102
RTVSPropertyOp27
 70
     1
102
RTVSPropertyOp28
 70
     1
102
RTVSPropertyOp29
 70
     1
102
RTVSPropertyOp30
 70
     1
102
RTVSPropertyOp31
 70
     1
102
RTVSPropertyOp32
 70
     1
102
RTVSPropertyOp33
 70
     1
102
RTVSPropertyOp34
 70
     1
102
RTVSPropertyOp35
 70
     1
102
RTVSPropertyOp36
 70
     1
102
RTVSPropertyOp37
 70
     1
102
RTVSPropertyOp38
 70
     1
102
RTVSPropertyOp39
 70
     1
102
RTVSPropertyOp40
 70
     1
102
RTVSPropertyOp41
 70
     1
102
RTVSPropertyOp42
 70
     1
102
RTVSPropertyOp43
 70
     1
102
RTVSPropertyOp44
 70
     1
102
RTVSPropertyOp45
 70
     1
102
RTVSPropertyOp46
 70
     1
102
RTVSPropertyOp47
 70
     1
102
RTVSPropertyOp48
 70
     1
102
RTVSPropertyOp49
 70
     1
102
RTVSPropertyOp50
 70
     1
102
RTVSPropertyOp51
 70
     0
102
RTVSPropertyOp52
 70
     0
102
RTVSPropertyOp53
 70
     1
102
RTVSPropertyOp54
 70
     1
102
RTVSPropertyOp55
 70
     1
102
RTVSPropertyOp56
 70
     1
102
RTVSPropertyOp57
 70
     1
102
RTVSPost2010Prop28
280
     0
102
RTVSPost2010PropOp28
 70
     1
102
RTVSPost2010Prop29
280
     1
102
RTVSPost2010PropOp29
 70
     1
102
RTVSPost2010Prop30
280
     1
102
RTVSPost2010PropOp30
 70
     1
102
RTVSPost2010Prop31
280
     0
102
RTVSPost2010PropOp31
 70
     1
102
RTVSPost2010Prop32
280
     0
102
RTVSPost2010PropOp32
 70
     1
102
RTVSPost2010Prop33
280
     0
102
RTVSPost2010PropOp33
 70
     1
102
RTVSPost2010Prop34
280
     0
102
RTVSPost2010PropOp34
 70
     1
102
RTVSPost2010Prop35
280
     0
102
RTVSPost2010PropOp35
 70
     1
102
RTVSPost2010Prop36
280
     0
102
RTVSPost2010PropOp36
 70
     1
102
RTVSPost2010Prop37
 90
       50
102
RTVSPost2010PropOp37
 70
     1
102
RTVSPost2010Prop38
140
0.0
102
RTVSPost2010PropOp38
 70
     1
102
RTVSPost2010Prop39
140
1.0
102
RTVSPost2010PropOp39
 70
     1
102
RTVSPost2010Prop40
 90
        0
102
RTVSPost2010PropOp40
 70
     1
102
RTVSPost2010Prop41ColorIndex
 90
       18
102
RTVSPost2010Prop41ColorRGB
 90
        0
102
RTVSPost2010PropOp41
 70
     1
102
RTVSPost2010Prop42
 90
       50
102
RTVSPost2010PropOp42
 70
     1
102
RTVSPost2010Prop43
 90
        3
102
RTVSPost2010PropOp43
 70
     1
102
RTVSPost2010Prop44ColorIndex
 90
        5
102
RTVSPost2010Prop44ColorRGB
 90
      255
102
RTVSPost2010PropOp44
 70
     1
102
RTVSPost2010Prop45
280
     0
102
RTVSPost2010PropOp45
 70
     1
102
RTVSPost2010Prop46
 90
       50
102
RTVSPost2010PropOp46
 70
     1
102
RTVSPost2010Prop47
 90
       50
102
RTVSPost2010PropOp47
 70
     1
102
RTVSPost2010Prop48
 90
       50
102
RTVSPost2010PropOp48
 70
     1
102
RTVSPost2010Prop49
280
     0
102
RTVSPost2010PropOp49
 70
     1
102
RTVSPost2010Prop50
 90
       50
102
RTVSPost2010PropOp50
 70
     1
102
RTVSPost2010Prop51ColorIndex
 90
      256
102
RTVSPost2010Prop51ColorRGB
 90
-16777216
102
RTVSPost2010PropOp51
 70
     0
102
RTVSPost2010Prop52
140
1.0
102
RTVSPost2010PropOp52
 70
     0
102
RTVSPost2010Prop53
 90
        2
102
RTVSPost2010PropOp53
 70
     1
102
RTVSPost2010Prop54
  1
strokes_ogs.tif
102
RTVSPost2010PropOp54
 70
     1
102
RTVSPost2010Prop55
280
     0
102
RTVSPost2010PropOp55
 70
     1
102
RTVSPost2010Prop56
140
1.0
102
RTVSPost2010PropOp56
 70
     1
102
RTVSPost2010Prop57
140
1.0
102
RTVSPost2010PropOp57
 70
     1
  0
XRECORD
  5
328
102
{ACAD_REACTORS
330
327
102
}
330
327
100
AcDbXrecord
280
     1
102
RTVSPropertyOp0
 70
     0
102
RTVSPropertyOp1
 70
     0
102
RTVSPropertyOp2
 70
     0
102
RTVSPropertyOp3
 70
     0
102
RTVSPropertyOp4
 70
     0
102
RTVSPropertyOp5
 70
     0
102
RTVSPropertyOp6
 70
     0
102
RTVSPropertyOp7
 70
     0
102
RTVSPropertyOp8
 70
     0
102
RTVSPropertyOp9
 70
     0
102
RTVSPropertyOp10
 70
     0
102
RTVSPropertyOp11
 70
     0
102
RTVSPropertyOp12
 70
     0
102
RTVSPropertyOp13
 70
     0
102
RTVSPropertyOp14
 70
     2
102
RTVSPropertyOp15
 70
     0
102
RTVSPropertyOp16
 70
     0
102
RTVSPropertyOp17
 70
     0
102
RTVSPropertyOp18
 70
     0
102
RTVSPropertyOp19
 70
     0
102
RTVSPropertyOp20
 70
     0
102
RTVSPropertyOp21
 70
     0
102
RTVSPropertyOp22
 70
     0
102
RTVSPropertyOp23
 70
     0
102
RTVSPropertyOp24
 70
     0
102
RTVSPropertyOp25
 70
     0
102
RTVSPropertyOp26
 70
     0
102
RTVSPropertyOp27
 70
     0
102
RTVSPropertyOp28
 70
     0
102
RTVSPropertyOp29
 70
     0
102
RTVSPropertyOp30
 70
     0
102
RTVSPropertyOp31
 70
     0
102
RTVSPropertyOp32
 70
     0
102
RTVSPropertyOp33
 70
     0
102
RTVSPropertyOp34
 70
     0
102
RTVSPropertyOp35
 70
     0
102
RTVSPropertyOp36
 70
     0
102
RTVSPropertyOp37
 70
     0
102
RTVSPropertyOp38
 70
     0
102
RTVSPropertyOp39
 70
     0
102
RTVSPropertyOp40
 70
     0
102
RTVSPropertyOp41
 70
     0
102
RTVSPropertyOp42
 70
     0
102
RTVSPropertyOp43
 70
     0
102
RTVSPropertyOp44
 70
     0
102
RTVSPropertyOp45
 70
     0
102
RTVSPropertyOp46
 70
     0
102
RTVSPropertyOp47
 70
     0
102
RTVSPropertyOp48
 70
     0
102
RTVSPropertyOp49
 70
     0
102
RTVSPropertyOp50
 70
     0
102
RTVSPropertyOp51
 70
     0
102
RTVSPropertyOp52
 70
     0
102
RTVSPropertyOp53
 70
     0
102
RTVSPropertyOp54
 70
     0
102
RTVSPropertyOp55
 70
     0
102
RTVSPropertyOp56
 70
     0
102
RTVSPropertyOp57
 70
     0
102
RTVSPost2010Prop28
280
     0
102
RTVSPost2010PropOp28
 70
     0
102
RTVSPost2010Prop29
280
     1
102
RTVSPost2010PropOp29
 70
     0
102
RTVSPost2010Prop30
280
     1
102
RTVSPost2010PropOp30
 70
     0
102
RTVSPost2010Prop31
280
     0
102
RTVSPost2010PropOp31
 70
     0
102
RTVSPost2010Prop32
280
     0
102
RTVSPost2010PropOp32
 70
     0
102
RTVSPost2010Prop33
280
     0
102
RTVSPost2010PropOp33
 70
     0
102
RTVSPost2010Prop34
280
     0
102
RTVSPost2010PropOp34
 70
     0
102
RTVSPost2010Prop35
280
     0
102
RTVSPost2010PropOp35
 70
     0
102
RTVSPost2010Prop36
280
     0
102
RTVSPost2010PropOp36
 70
     0
102
RTVSPost2010Prop37
 90
       50
102
RTVSPost2010PropOp37
 70
     0
102
RTVSPost2010Prop38
140
0.0
102
RTVSPost2010PropOp38
 70
     0
102
RTVSPost2010Prop39
140
1.0
102
RTVSPost2010PropOp39
 70
     0
102
RTVSPost2010Prop40
 90
        0
102
RTVSPost2010PropOp40
 70
     0
102
RTVSPost2010Prop41ColorIndex
 90
       18
102
RTVSPost2010Prop41ColorRGB
 90
        0
102
RTVSPost2010PropOp41
 70
     0
102
RTVSPost2010Prop42
 90
       50
102
RTVSPost2010PropOp42
 70
     0
102
RTVSPost2010Prop43
 90
        3
102
RTVSPost2010PropOp43
 70
     0
102
RTVSPost2010Prop44ColorIndex
 90
        5
102
RTVSPost2010Prop44ColorRGB
 90
      255
102
RTVSPost2010PropOp44
 70
     0
102
RTVSPost2010Prop45
280
     0
102
RTVSPost2010PropOp45
 70
     0
102
RTVSPost2010Prop46
 90
       50
102
RTVSPost2010PropOp46
 70
     0
102
RTVSPost2010Prop47
 90
       50
102
RTVSPost2010PropOp47
 70
     0
102
RTVSPost2010Prop48
 90
       50
102
RTVSPost2010PropOp48
 70
     0
102
RTVSPost2010Prop49
280
     0
102
RTVSPost2010PropOp49
 70
     0
102
RTVSPost2010Prop50
 90
       50
102
RTVSPost2010PropOp50
 70
     0
102
RTVSPost2010Prop51ColorIndex
 90
      256
102
RTVSPost2010Prop51ColorRGB
 90
-16777216
102
RTVSPost2010PropOp51
 70
     0
102
RTVSPost2010Prop52
140
1.0
102
RTVSPost2010PropOp52
 70
     0
102
RTVSPost2010Prop53
 90
        2
102
RTVSPost2010PropOp53
 70
     0
102
RTVSPost2010Prop54
  1
strokes_ogs.tif
102
RTVSPost2010PropOp54
 70
     0
102
RTVSPost2010Prop55
280
     0
102
RTVSPost2010PropOp55
 70
     0
102
RTVSPost2010Prop56
140
1.0
102
RTVSPost2010PropOp56
 70
     0
102
RTVSPost2010Prop57
140
1.0
102
RTVSPost2010PropOp57
 70
     0
  0
XRECORD
  5
316
102
{ACAD_REACTORS
330
315
102
}
330
315
100
AcDbXrecord
280
     1
102
RTVSPropertyOp0
 70
     1
102
RTVSPropertyOp1
 70
     1
102
RTVSPropertyOp2
 70
     1
102
RTVSPropertyOp3
 70
     1
102
RTVSPropertyOp4
 70
     1
102
RTVSPropertyOp5
 70
     1
102
RTVSPropertyOp6
 70
     1
102
RTVSPropertyOp7
 70
     1
102
RTVSPropertyOp8
 70
     1
102
RTVSPropertyOp9
 70
     1
102
RTVSPropertyOp10
 70
     1
102
RTVSPropertyOp11
 70
     1
102
RTVSPropertyOp12
 70
     1
102
RTVSPropertyOp13
 70
     1
102
RTVSPropertyOp14
 70
     1
102
RTVSPropertyOp15
 70
     1
102
RTVSPropertyOp16
 70
     1
102
RTVSPropertyOp17
 70
     1
102
RTVSPropertyOp18
 70
     1
102
RTVSPropertyOp19
 70
     1
102
RTVSPropertyOp20
 70
     1
102
RTVSPropertyOp21
 70
     1
102
RTVSPropertyOp22
 70
     1
102
RTVSPropertyOp23
 70
     1
102
RTVSPropertyOp24
 70
     1
102
RTVSPropertyOp25
 70
     1
102
RTVSPropertyOp26
 70
     1
102
RTVSPropertyOp27
 70
     1
102
RTVSPropertyOp28
 70
     1
102
RTVSPropertyOp29
 70
     1
102
RTVSPropertyOp30
 70
     1
102
RTVSPropertyOp31
 70
     1
102
RTVSPropertyOp32
 70
     1
102
RTVSPropertyOp33
 70
     1
102
RTVSPropertyOp34
 70
     1
102
RTVSPropertyOp35
 70
     1
102
RTVSPropertyOp36
 70
     1
102
RTVSPropertyOp37
 70
     1
102
RTVSPropertyOp38
 70
     1
102
RTVSPropertyOp39
 70
     1
102
RTVSPropertyOp40
 70
     1
102
RTVSPropertyOp41
 70
     1
102
RTVSPropertyOp42
 70
     1
102
RTVSPropertyOp43
 70
     1
102
RTVSPropertyOp44
 70
     1
102
RTVSPropertyOp45
 70
     1
102
RTVSPropertyOp46
 70
     1
102
RTVSPropertyOp47
 70
     1
102
RTVSPropertyOp48
 70
     1
102
RTVSPropertyOp49
 70
     1
102
RTVSPropertyOp50
 70
     1
102
RTVSPropertyOp51
 70
     0
102
RTVSPropertyOp52
 70
     0
102
RTVSPropertyOp53
 70
     1
102
RTVSPropertyOp54
 70
     1
102
RTVSPropertyOp55
 70
     1
102
RTVSPropertyOp56
 70
     1
102
RTVSPropertyOp57
 70
     1
102
RTVSPost2010Prop28
280
     0
102
RTVSPost2010PropOp28
 70
     1
102
RTVSPost2010Prop29
280
     1
102
RTVSPost2010PropOp29
 70
     1
102
RTVSPost2010Prop30
280
     1
102
RTVSPost2010PropOp30
 70
     1
102
RTVSPost2010Prop31
280
     0
102
RTVSPost2010PropOp31
 70
     1
102
RTVSPost2010Prop32
280
     0
102
RTVSPost2010PropOp32
 70
     1
102
RTVSPost2010Prop33
280
     0
102
RTVSPost2010PropOp33
 70
     1
102
RTVSPost2010Prop34
280
     0
102
RTVSPost2010PropOp34
 70
     1
102
RTVSPost2010Prop35
280
     0
102
RTVSPost2010PropOp35
 70
     1
102
RTVSPost2010Prop36
280
     0
102
RTVSPost2010PropOp36
 70
     1
102
RTVSPost2010Prop37
 90
       50
102
RTVSPost2010PropOp37
 70
     1
102
RTVSPost2010Prop38
140
0.0
102
RTVSPost2010PropOp38
 70
     1
102
RTVSPost2010Prop39
140
1.0
102
RTVSPost2010PropOp39
 70
     1
102
RTVSPost2010Prop40
 90
        0
102
RTVSPost2010PropOp40
 70
     1
102
RTVSPost2010Prop41ColorIndex
 90
       18
102
RTVSPost2010Prop41ColorRGB
 90
        0
102
RTVSPost2010PropOp41
 70
     1
102
RTVSPost2010Prop42
 90
       50
102
RTVSPost2010PropOp42
 70
     1
102
RTVSPost2010Prop43
 90
        3
102
RTVSPost2010PropOp43
 70
     1
102
RTVSPost2010Prop44ColorIndex
 90
        5
102
RTVSPost2010Prop44ColorRGB
 90
      255
102
RTVSPost2010PropOp44
 70
     1
102
RTVSPost2010Prop45
280
     0
102
RTVSPost2010PropOp45
 70
     1
102
RTVSPost2010Prop46
 90
       50
102
RTVSPost2010PropOp46
 70
     1
102
RTVSPost2010Prop47
 90
       50
102
RTVSPost2010PropOp47
 70
     1
102
RTVSPost2010Prop48
 90
       50
102
RTVSPost2010PropOp48
 70
     1
102
RTVSPost2010Prop49
280
     0
102
RTVSPost2010PropOp49
 70
     1
102
RTVSPost2010Prop50
 90
       50
102
RTVSPost2010PropOp50
 70
     1
102
RTVSPost2010Prop51ColorIndex
 90
      256
102
RTVSPost2010Prop51ColorRGB
 90
-16777216
102
RTVSPost2010PropOp51
 70
     0
102
RTVSPost2010Prop52
140
1.0
102
RTVSPost2010PropOp52
 70
     0
102
RTVSPost2010Prop53
 90
        2
102
RTVSPost2010PropOp53
 70
     1
102
RTVSPost2010Prop54
  1
strokes_ogs.tif
102
RTVSPost2010PropOp54
 70
     1
102
RTVSPost2010Prop55
280
     0
102
RTVSPost2010PropOp55
 70
     1
102
RTVSPost2010Prop56
140
1.0
102
RTVSPost2010PropOp56
 70
     1
102
RTVSPost2010Prop57
140
1.0
102
RTVSPost2010PropOp57
 70
     1
  0
XRECORD
  5
334
102
{ACAD_REACTORS
330
333
102
}
330
333
100
AcDbXrecord
280
     1
102
RTVSPropertyOp0
 70
     1
102
RTVSPropertyOp1
 70
     1
102
RTVSPropertyOp2
 70
     1
102
RTVSPropertyOp3
 70
     1
102
RTVSPropertyOp4
 70
     1
102
RTVSPropertyOp5
 70
     1
102
RTVSPropertyOp6
 70
     1
102
RTVSPropertyOp7
 70
     1
102
RTVSPropertyOp8
 70
     1
102
RTVSPropertyOp9
 70
     1
102
RTVSPropertyOp10
 70
     1
102
RTVSPropertyOp11
 70
     1
102
RTVSPropertyOp12
 70
     1
102
RTVSPropertyOp13
 70
     1
102
RTVSPropertyOp14
 70
     1
102
RTVSPropertyOp15
 70
     1
102
RTVSPropertyOp16
 70
     1
102
RTVSPropertyOp17
 70
     1
102
RTVSPropertyOp18
 70
     1
102
RTVSPropertyOp19
 70
     1
102
RTVSPropertyOp20
 70
     1
102
RTVSPropertyOp21
 70
     1
102
RTVSPropertyOp22
 70
     1
102
RTVSPropertyOp23
 70
     1
102
RTVSPropertyOp24
 70
     1
102
RTVSPropertyOp25
 70
     1
102
RTVSPropertyOp26
 70
     1
102
RTVSPropertyOp27
 70
     1
102
RTVSPropertyOp28
 70
     1
102
RTVSPropertyOp29
 70
     1
102
RTVSPropertyOp30
 70
     1
102
RTVSPropertyOp31
 70
     1
102
RTVSPropertyOp32
 70
     1
102
RTVSPropertyOp33
 70
     1
102
RTVSPropertyOp34
 70
     1
102
RTVSPropertyOp35
 70
     1
102
RTVSPropertyOp36
 70
     1
102
RTVSPropertyOp37
 70
     1
102
RTVSPropertyOp38
 70
     1
102
RTVSPropertyOp39
 70
     1
102
RTVSPropertyOp40
 70
     1
102
RTVSPropertyOp41
 70
     1
102
RTVSPropertyOp42
 70
     1
102
RTVSPropertyOp43
 70
     1
102
RTVSPropertyOp44
 70
     1
102
RTVSPropertyOp45
 70
     1
102
RTVSPropertyOp46
 70
     1
102
RTVSPropertyOp47
 70
     1
102
RTVSPropertyOp48
 70
     1
102
RTVSPropertyOp49
 70
     1
102
RTVSPropertyOp50
 70
     1
102
RTVSPropertyOp51
 70
     0
102
RTVSPropertyOp52
 70
     0
102
RTVSPropertyOp53
 70
     1
102
RTVSPropertyOp54
 70
     1
102
RTVSPropertyOp55
 70
     1
102
RTVSPropertyOp56
 70
     1
102
RTVSPropertyOp57
 70
     1
102
RTVSPost2010Prop28
280
     0
102
RTVSPost2010PropOp28
 70
     1
102
RTVSPost2010Prop29
280
     1
102
RTVSPost2010PropOp29
 70
     1
102
RTVSPost2010Prop30
280
     1
102
RTVSPost2010PropOp30
 70
     1
102
RTVSPost2010Prop31
280
     0
102
RTVSPost2010PropOp31
 70
     1
102
RTVSPost2010Prop32
280
     0
102
RTVSPost2010PropOp32
 70
     1
102
RTVSPost2010Prop33
280
     0
102
RTVSPost2010PropOp33
 70
     1
102
RTVSPost2010Prop34
280
     0
102
RTVSPost2010PropOp34
 70
     1
102
RTVSPost2010Prop35
280
     0
102
RTVSPost2010PropOp35
 70
     1
102
RTVSPost2010Prop36
280
     0
102
RTVSPost2010PropOp36
 70
     1
102
RTVSPost2010Prop37
 90
       50
102
RTVSPost2010PropOp37
 70
     1
102
RTVSPost2010Prop38
140
0.0
102
RTVSPost2010PropOp38
 70
     1
102
RTVSPost2010Prop39
140
1.0
102
RTVSPost2010PropOp39
 70
     1
102
RTVSPost2010Prop40
 90
        0
102
RTVSPost2010PropOp40
 70
     1
102
RTVSPost2010Prop41ColorIndex
 90
       18
102
RTVSPost2010Prop41ColorRGB
 90
        0
102
RTVSPost2010PropOp41
 70
     1
102
RTVSPost2010Prop42
 90
       50
102
RTVSPost2010PropOp42
 70
     1
102
RTVSPost2010Prop43
 90
        3
102
RTVSPost2010PropOp43
 70
     1
102
RTVSPost2010Prop44ColorIndex
 90
        5
102
RTVSPost2010Prop44ColorRGB
 90
      255
102
RTVSPost2010PropOp44
 70
     1
102
RTVSPost2010Prop45
280
     0
102
RTVSPost2010PropOp45
 70
     1
102
RTVSPost2010Prop46
 90
       50
102
RTVSPost2010PropOp46
 70
     1
102
RTVSPost2010Prop47
 90
       50
102
RTVSPost2010PropOp47
 70
     1
102
RTVSPost2010Prop48
 90
       50
102
RTVSPost2010PropOp48
 70
     1
102
RTVSPost2010Prop49
280
     0
102
RTVSPost2010PropOp49
 70
     1
102
RTVSPost2010Prop50
 90
       50
102
RTVSPost2010PropOp50
 70
     1
102
RTVSPost2010Prop51ColorIndex
 90
      256
102
RTVSPost2010Prop51ColorRGB
 90
-16777216
102
RTVSPost2010PropOp51
 70
     0
102
RTVSPost2010Prop52
140
1.0
102
RTVSPost2010PropOp52
 70
     0
102
RTVSPost2010Prop53
 90
        2
102
RTVSPost2010PropOp53
 70
     1
102
RTVSPost2010Prop54
  1
strokes_ogs.tif
102
RTVSPost2010PropOp54
 70
     1
102
RTVSPost2010Prop55
280
     0
102
RTVSPost2010PropOp55
 70
     1
102
RTVSPost2010Prop56
140
1.0
102
RTVSPost2010PropOp56
 70
     1
102
RTVSPost2010Prop57
140
1.0
102
RTVSPost2010PropOp57
 70
     1
  0
XRECORD
  5
332
102
{ACAD_REACTORS
330
331
102
}
330
331
100
AcDbXrecord
280
     1
102
RTVSPropertyOp0
 70
     1
102
RTVSPropertyOp1
 70
     1
102
RTVSPropertyOp2
 70
     1
102
RTVSPropertyOp3
 70
     1
102
RTVSPropertyOp4
 70
     1
102
RTVSPropertyOp5
 70
     1
102
RTVSPropertyOp6
 70
     1
102
RTVSPropertyOp7
 70
     1
102
RTVSPropertyOp8
 70
     1
102
RTVSPropertyOp9
 70
     1
102
RTVSPropertyOp10
 70
     1
102
RTVSPropertyOp11
 70
     1
102
RTVSPropertyOp12
 70
     1
102
RTVSPropertyOp13
 70
     1
102
RTVSPropertyOp14
 70
     1
102
RTVSPropertyOp15
 70
     1
102
RTVSPropertyOp16
 70
     1
102
RTVSPropertyOp17
 70
     1
102
RTVSPropertyOp18
 70
     1
102
RTVSPropertyOp19
 70
     1
102
RTVSPropertyOp20
 70
     1
102
RTVSPropertyOp21
 70
     1
102
RTVSPropertyOp22
 70
     1
102
RTVSPropertyOp23
 70
     1
102
RTVSPropertyOp24
 70
     1
102
RTVSPropertyOp25
 70
     1
102
RTVSPropertyOp26
 70
     1
102
RTVSPropertyOp27
 70
     1
102
RTVSPropertyOp28
 70
     1
102
RTVSPropertyOp29
 70
     1
102
RTVSPropertyOp30
 70
     1
102
RTVSPropertyOp31
 70
     1
102
RTVSPropertyOp32
 70
     1
102
RTVSPropertyOp33
 70
     1
102
RTVSPropertyOp34
 70
     1
102
RTVSPropertyOp35
 70
     1
102
RTVSPropertyOp36
 70
     1
102
RTVSPropertyOp37
 70
     1
102
RTVSPropertyOp38
 70
     1
102
RTVSPropertyOp39
 70
     1
102
RTVSPropertyOp40
 70
     1
102
RTVSPropertyOp41
 70
     1
102
RTVSPropertyOp42
 70
     1
102
RTVSPropertyOp43
 70
     1
102
RTVSPropertyOp44
 70
     1
102
RTVSPropertyOp45
 70
     1
102
RTVSPropertyOp46
 70
     1
102
RTVSPropertyOp47
 70
     1
102
RTVSPropertyOp48
 70
     1
102
RTVSPropertyOp49
 70
     1
102
RTVSPropertyOp50
 70
     1
102
RTVSPropertyOp51
 70
     0
102
RTVSPropertyOp52
 70
     0
102
RTVSPropertyOp53
 70
     1
102
RTVSPropertyOp54
 70
     1
102
RTVSPropertyOp55
 70
     1
102
RTVSPropertyOp56
 70
     1
102
RTVSPropertyOp57
 70
     1
102
RTVSPost2010Prop28
280
     0
102
RTVSPost2010PropOp28
 70
     1
102
RTVSPost2010Prop29
280
     1
102
RTVSPost2010PropOp29
 70
     1
102
RTVSPost2010Prop30
280
     1
102
RTVSPost2010PropOp30
 70
     1
102
RTVSPost2010Prop31
280
     0
102
RTVSPost2010PropOp31
 70
     1
102
RTVSPost2010Prop32
280
     0
102
RTVSPost2010PropOp32
 70
     1
102
RTVSPost2010Prop33
280
     0
102
RTVSPost2010PropOp33
 70
     1
102
RTVSPost2010Prop34
280
     0
102
RTVSPost2010PropOp34
 70
     1
102
RTVSPost2010Prop35
280
     0
102
RTVSPost2010PropOp35
 70
     1
102
RTVSPost2010Prop36
280
     0
102
RTVSPost2010PropOp36
 70
     1
102
RTVSPost2010Prop37
 90
       50
102
RTVSPost2010PropOp37
 70
     1
102
RTVSPost2010Prop38
140
0.0
102
RTVSPost2010PropOp38
 70
     1
102
RTVSPost2010Prop39
140
1.0
102
RTVSPost2010PropOp39
 70
     1
102
RTVSPost2010Prop40
 90
        0
102
RTVSPost2010PropOp40
 70
     1
102
RTVSPost2010Prop41ColorIndex
 90
       18
102
RTVSPost2010Prop41ColorRGB
 90
        0
102
RTVSPost2010PropOp41
 70
     1
102
RTVSPost2010Prop42
 90
       50
102
RTVSPost2010PropOp42
 70
     1
102
RTVSPost2010Prop43
 90
        3
102
RTVSPost2010PropOp43
 70
     1
102
RTVSPost2010Prop44ColorIndex
 90
        5
102
RTVSPost2010Prop44ColorRGB
 90
      255
102
RTVSPost2010PropOp44
 70
     1
102
RTVSPost2010Prop45
280
     0
102
RTVSPost2010PropOp45
 70
     1
102
RTVSPost2010Prop46
 90
       50
102
RTVSPost2010PropOp46
 70
     1
102
RTVSPost2010Prop47
 90
       50
102
RTVSPost2010PropOp47
 70
     1
102
RTVSPost2010Prop48
 90
       50
102
RTVSPost2010PropOp48
 70
     1
102
RTVSPost2010Prop49
280
     0
102
RTVSPost2010PropOp49
 70
     1
102
RTVSPost2010Prop50
 90
       50
102
RTVSPost2010PropOp50
 70
     1
102
RTVSPost2010Prop51ColorIndex
 90
      256
102
RTVSPost2010Prop51ColorRGB
 90
-16777216
102
RTVSPost2010PropOp51
 70
     0
102
RTVSPost2010Prop52
140
1.0
102
RTVSPost2010PropOp52
 70
     0
102
RTVSPost2010Prop53
 90
        2
102
RTVSPost2010PropOp53
 70
     1
102
RTVSPost2010Prop54
  1
strokes_ogs.tif
102
RTVSPost2010PropOp54
 70
     1
102
RTVSPost2010Prop55
280
     0
102
RTVSPost2010PropOp55
 70
     1
102
RTVSPost2010Prop56
140
1.0
102
RTVSPost2010PropOp56
 70
     1
102
RTVSPost2010Prop57
140
1.0
102
RTVSPost2010PropOp57
 70
     1
  0
XRECORD
  5
32C
102
{ACAD_REACTORS
330
32B
102
}
330
32B
100
AcDbXrecord
280
     1
102
RTVSPropertyOp0
 70
     1
102
RTVSPropertyOp1
 70
     1
102
RTVSPropertyOp2
 70
     1
102
RTVSPropertyOp3
 70
     1
102
RTVSPropertyOp4
 70
     1
102
RTVSPropertyOp5
 70
     1
102
RTVSPropertyOp6
 70
     1
102
RTVSPropertyOp7
 70
     1
102
RTVSPropertyOp8
 70
     1
102
RTVSPropertyOp9
 70
     1
102
RTVSPropertyOp10
 70
     1
102
RTVSPropertyOp11
 70
     1
102
RTVSPropertyOp12
 70
     1
102
RTVSPropertyOp13
 70
     1
102
RTVSPropertyOp14
 70
     1
102
RTVSPropertyOp15
 70
     1
102
RTVSPropertyOp16
 70
     1
102
RTVSPropertyOp17
 70
     1
102
RTVSPropertyOp18
 70
     1
102
RTVSPropertyOp19
 70
     1
102
RTVSPropertyOp20
 70
     1
102
RTVSPropertyOp21
 70
     1
102
RTVSPropertyOp22
 70
     1
102
RTVSPropertyOp23
 70
     1
102
RTVSPropertyOp24
 70
     1
102
RTVSPropertyOp25
 70
     1
102
RTVSPropertyOp26
 70
     1
102
RTVSPropertyOp27
 70
     1
102
RTVSPropertyOp28
 70
     1
102
RTVSPropertyOp29
 70
     1
102
RTVSPropertyOp30
 70
     1
102
RTVSPropertyOp31
 70
     1
102
RTVSPropertyOp32
 70
     1
102
RTVSPropertyOp33
 70
     1
102
RTVSPropertyOp34
 70
     1
102
RTVSPropertyOp35
 70
     1
102
RTVSPropertyOp36
 70
     1
102
RTVSPropertyOp37
 70
     1
102
RTVSPropertyOp38
 70
     1
102
RTVSPropertyOp39
 70
     1
102
RTVSPropertyOp40
 70
     1
102
RTVSPropertyOp41
 70
     1
102
RTVSPropertyOp42
 70
     1
102
RTVSPropertyOp43
 70
     1
102
RTVSPropertyOp44
 70
     1
102
RTVSPropertyOp45
 70
     1
102
RTVSPropertyOp46
 70
     1
102
RTVSPropertyOp47
 70
     1
102
RTVSPropertyOp48
 70
     1
102
RTVSPropertyOp49
 70
     1
102
RTVSPropertyOp50
 70
     1
102
RTVSPropertyOp51
 70
     0
102
RTVSPropertyOp52
 70
     0
102
RTVSPropertyOp53
 70
     1
102
RTVSPropertyOp54
 70
     1
102
RTVSPropertyOp55
 70
     1
102
RTVSPropertyOp56
 70
     1
102
RTVSPropertyOp57
 70
     1
102
RTVSPost2010Prop28
280
     0
102
RTVSPost2010PropOp28
 70
     1
102
RTVSPost2010Prop29
280
     1
102
RTVSPost2010PropOp29
 70
     1
102
RTVSPost2010Prop30
280
     1
102
RTVSPost2010PropOp30
 70
     1
102
RTVSPost2010Prop31
280
     0
102
RTVSPost2010PropOp31
 70
     1
102
RTVSPost2010Prop32
280
     0
102
RTVSPost2010PropOp32
 70
     1
102
RTVSPost2010Prop33
280
     0
102
RTVSPost2010PropOp33
 70
     1
102
RTVSPost2010Prop34
280
     0
102
RTVSPost2010PropOp34
 70
     1
102
RTVSPost2010Prop35
280
     0
102
RTVSPost2010PropOp35
 70
     1
102
RTVSPost2010Prop36
280
     0
102
RTVSPost2010PropOp36
 70
     1
102
RTVSPost2010Prop37
 90
       50
102
RTVSPost2010PropOp37
 70
     1
102
RTVSPost2010Prop38
140
0.0
102
RTVSPost2010PropOp38
 70
     1
102
RTVSPost2010Prop39
140
1.0
102
RTVSPost2010PropOp39
 70
     1
102
RTVSPost2010Prop40
 90
        0
102
RTVSPost2010PropOp40
 70
     1
102
RTVSPost2010Prop41ColorIndex
 90
       18
102
RTVSPost2010Prop41ColorRGB
 90
        0
102
RTVSPost2010PropOp41
 70
     1
102
RTVSPost2010Prop42
 90
       50
102
RTVSPost2010PropOp42
 70
     1
102
RTVSPost2010Prop43
 90
        3
102
RTVSPost2010PropOp43
 70
     1
102
RTVSPost2010Prop44ColorIndex
 90
        5
102
RTVSPost2010Prop44ColorRGB
 90
      255
102
RTVSPost2010PropOp44
 70
     1
102
RTVSPost2010Prop45
280
     0
102
RTVSPost2010PropOp45
 70
     1
102
RTVSPost2010Prop46
 90
       50
102
RTVSPost2010PropOp46
 70
     1
102
RTVSPost2010Prop47
 90
       50
102
RTVSPost2010PropOp47
 70
     1
102
RTVSPost2010Prop48
 90
       50
102
RTVSPost2010PropOp48
 70
     1
102
RTVSPost2010Prop49
280
     0
102
RTVSPost2010PropOp49
 70
     1
102
RTVSPost2010Prop50
 90
       50
102
RTVSPost2010PropOp50
 70
     1
102
RTVSPost2010Prop51ColorIndex
 90
      256
102
RTVSPost2010Prop51ColorRGB
 90
-16777216
102
RTVSPost2010PropOp51
 70
     0
102
RTVSPost2010Prop52
140
1.0
102
RTVSPost2010PropOp52
 70
     0
102
RTVSPost2010Prop53
 90
        2
102
RTVSPost2010PropOp53
 70
     1
102
RTVSPost2010Prop54
  1
strokes_ogs.tif
102
RTVSPost2010PropOp54
 70
     1
102
RTVSPost2010Prop55
280
     0
102
RTVSPost2010PropOp55
 70
     1
102
RTVSPost2010Prop56
140
1.0
102
RTVSPost2010PropOp56
 70
     1
102
RTVSPost2010Prop57
140
1.0
102
RTVSPost2010PropOp57
 70
     1
  0
XRECORD
  5
32E
102
{ACAD_REACTORS
330
32D
102
}
330
32D
100
AcDbXrecord
280
     1
102
RTVSPropertyOp0
 70
     1
102
RTVSPropertyOp1
 70
     1
102
RTVSPropertyOp2
 70
     1
102
RTVSPropertyOp3
 70
     1
102
RTVSPropertyOp4
 70
     1
102
RTVSPropertyOp5
 70
     1
102
RTVSPropertyOp6
 70
     1
102
RTVSPropertyOp7
 70
     1
102
RTVSPropertyOp8
 70
     1
102
RTVSPropertyOp9
 70
     1
102
RTVSPropertyOp10
 70
     1
102
RTVSPropertyOp11
 70
     1
102
RTVSPropertyOp12
 70
     1
102
RTVSPropertyOp13
 70
     1
102
RTVSPropertyOp14
 70
     1
102
RTVSPropertyOp15
 70
     1
102
RTVSPropertyOp16
 70
     1
102
RTVSPropertyOp17
 70
     1
102
RTVSPropertyOp18
 70
     1
102
RTVSPropertyOp19
 70
     1
102
RTVSPropertyOp20
 70
     1
102
RTVSPropertyOp21
 70
     1
102
RTVSPropertyOp22
 70
     1
102
RTVSPropertyOp23
 70
     1
102
RTVSPropertyOp24
 70
     1
102
RTVSPropertyOp25
 70
     1
102
RTVSPropertyOp26
 70
     1
102
RTVSPropertyOp27
 70
     1
102
RTVSPropertyOp28
 70
     1
102
RTVSPropertyOp29
 70
     1
102
RTVSPropertyOp30
 70
     1
102
RTVSPropertyOp31
 70
     1
102
RTVSPropertyOp32
 70
     1
102
RTVSPropertyOp33
 70
     1
102
RTVSPropertyOp34
 70
     1
102
RTVSPropertyOp35
 70
     1
102
RTVSPropertyOp36
 70
     1
102
RTVSPropertyOp37
 70
     1
102
RTVSPropertyOp38
 70
     1
102
RTVSPropertyOp39
 70
     1
102
RTVSPropertyOp40
 70
     1
102
RTVSPropertyOp41
 70
     1
102
RTVSPropertyOp42
 70
     1
102
RTVSPropertyOp43
 70
     1
102
RTVSPropertyOp44
 70
     1
102
RTVSPropertyOp45
 70
     1
102
RTVSPropertyOp46
 70
     1
102
RTVSPropertyOp47
 70
     1
102
RTVSPropertyOp48
 70
     1
102
RTVSPropertyOp49
 70
     1
102
RTVSPropertyOp50
 70
     1
102
RTVSPropertyOp51
 70
     0
102
RTVSPropertyOp52
 70
     0
102
RTVSPropertyOp53
 70
     1
102
RTVSPropertyOp54
 70
     1
102
RTVSPropertyOp55
 70
     1
102
RTVSPropertyOp56
 70
     1
102
RTVSPropertyOp57
 70
     1
102
RTVSPost2010Prop28
280
     0
102
RTVSPost2010PropOp28
 70
     1
102
RTVSPost2010Prop29
280
     1
102
RTVSPost2010PropOp29
 70
     1
102
RTVSPost2010Prop30
280
     1
102
RTVSPost2010PropOp30
 70
     1
102
RTVSPost2010Prop31
280
     0
102
RTVSPost2010PropOp31
 70
     1
102
RTVSPost2010Prop32
280
     0
102
RTVSPost2010PropOp32
 70
     1
102
RTVSPost2010Prop33
280
     0
102
RTVSPost2010PropOp33
 70
     1
102
RTVSPost2010Prop34
280
     0
102
RTVSPost2010PropOp34
 70
     1
102
RTVSPost2010Prop35
280
     0
102
RTVSPost2010PropOp35
 70
     1
102
RTVSPost2010Prop36
280
     0
102
RTVSPost2010PropOp36
 70
     1
102
RTVSPost2010Prop37
 90
       50
102
RTVSPost2010PropOp37
 70
     1
102
RTVSPost2010Prop38
140
0.0
102
RTVSPost2010PropOp38
 70
     1
102
RTVSPost2010Prop39
140
1.0
102
RTVSPost2010PropOp39
 70
     1
102
RTVSPost2010Prop40
 90
        0
102
RTVSPost2010PropOp40
 70
     1
102
RTVSPost2010Prop41ColorIndex
 90
       18
102
RTVSPost2010Prop41ColorRGB
 90
        0
102
RTVSPost2010PropOp41
 70
     1
102
RTVSPost2010Prop42
 90
       50
102
RTVSPost2010PropOp42
 70
     1
102
RTVSPost2010Prop43
 90
        3
102
RTVSPost2010PropOp43
 70
     1
102
RTVSPost2010Prop44ColorIndex
 90
        5
102
RTVSPost2010Prop44ColorRGB
 90
      255
102
RTVSPost2010PropOp44
 70
     1
102
RTVSPost2010Prop45
280
     0
102
RTVSPost2010PropOp45
 70
     1
102
RTVSPost2010Prop46
 90
       50
102
RTVSPost2010PropOp46
 70
     1
102
RTVSPost2010Prop47
 90
       50
102
RTVSPost2010PropOp47
 70
     1
102
RTVSPost2010Prop48
 90
       50
102
RTVSPost2010PropOp48
 70
     1
102
RTVSPost2010Prop49
280
     0
102
RTVSPost2010PropOp49
 70
     1
102
RTVSPost2010Prop50
 90
       50
102
RTVSPost2010PropOp50
 70
     1
102
RTVSPost2010Prop51ColorIndex
 90
      256
102
RTVSPost2010Prop51ColorRGB
 90
-16777216
102
RTVSPost2010PropOp51
 70
     0
102
RTVSPost2010Prop52
140
1.0
102
RTVSPost2010PropOp52
 70
     0
102
RTVSPost2010Prop53
 90
        2
102
RTVSPost2010PropOp53
 70
     1
102
RTVSPost2010Prop54
  1
strokes_ogs.tif
102
RTVSPost2010PropOp54
 70
     1
102
RTVSPost2010Prop55
280
     0
102
RTVSPost2010PropOp55
 70
     1
102
RTVSPost2010Prop56
140
1.0
102
RTVSPost2010PropOp56
 70
     1
102
RTVSPost2010Prop57
140
1.0
102
RTVSPost2010PropOp57
 70
     1
  0
XRECORD
  5
31E
102
{ACAD_REACTORS
330
31D
102
}
330
31D
100
AcDbXrecord
280
     1
102
RTVSPropertyOp0
 70
     1
102
RTVSPropertyOp1
 70
     1
102
RTVSPropertyOp2
 70
     1
102
RTVSPropertyOp3
 70
     1
102
RTVSPropertyOp4
 70
     1
102
RTVSPropertyOp5
 70
     1
102
RTVSPropertyOp6
 70
     1
102
RTVSPropertyOp7
 70
     1
102
RTVSPropertyOp8
 70
     1
102
RTVSPropertyOp9
 70
     1
102
RTVSPropertyOp10
 70
     1
102
RTVSPropertyOp11
 70
     1
102
RTVSPropertyOp12
 70
     1
102
RTVSPropertyOp13
 70
     1
102
RTVSPropertyOp14
 70
     1
102
RTVSPropertyOp15
 70
     1
102
RTVSPropertyOp16
 70
     1
102
RTVSPropertyOp17
 70
     1
102
RTVSPropertyOp18
 70
     1
102
RTVSPropertyOp19
 70
     1
102
RTVSPropertyOp20
 70
     1
102
RTVSPropertyOp21
 70
     1
102
RTVSPropertyOp22
 70
     1
102
RTVSPropertyOp23
 70
     1
102
RTVSPropertyOp24
 70
     1
102
RTVSPropertyOp25
 70
     1
102
RTVSPropertyOp26
 70
     1
102
RTVSPropertyOp27
 70
     1
102
RTVSPropertyOp28
 70
     1
102
RTVSPropertyOp29
 70
     1
102
RTVSPropertyOp30
 70
     1
102
RTVSPropertyOp31
 70
     1
102
RTVSPropertyOp32
 70
     1
102
RTVSPropertyOp33
 70
     1
102
RTVSPropertyOp34
 70
     1
102
RTVSPropertyOp35
 70
     1
102
RTVSPropertyOp36
 70
     1
102
RTVSPropertyOp37
 70
     1
102
RTVSPropertyOp38
 70
     1
102
RTVSPropertyOp39
 70
     1
102
RTVSPropertyOp40
 70
     1
102
RTVSPropertyOp41
 70
     1
102
RTVSPropertyOp42
 70
     1
102
RTVSPropertyOp43
 70
     1
102
RTVSPropertyOp44
 70
     1
102
RTVSPropertyOp45
 70
     1
102
RTVSPropertyOp46
 70
     1
102
RTVSPropertyOp47
 70
     1
102
RTVSPropertyOp48
 70
     1
102
RTVSPropertyOp49
 70
     1
102
RTVSPropertyOp50
 70
     1
102
RTVSPropertyOp51
 70
     0
102
RTVSPropertyOp52
 70
     0
102
RTVSPropertyOp53
 70
     1
102
RTVSPropertyOp54
 70
     1
102
RTVSPropertyOp55
 70
     1
102
RTVSPropertyOp56
 70
     1
102
RTVSPropertyOp57
 70
     1
102
RTVSPost2010Prop28
280
     0
102
RTVSPost2010PropOp28
 70
     1
102
RTVSPost2010Prop29
280
     1
102
RTVSPost2010PropOp29
 70
     1
102
RTVSPost2010Prop30
280
     1
102
RTVSPost2010PropOp30
 70
     1
102
RTVSPost2010Prop31
280
     0
102
RTVSPost2010PropOp31
 70
     1
102
RTVSPost2010Prop32
280
     0
102
RTVSPost2010PropOp32
 70
     1
102
RTVSPost2010Prop33
280
     0
102
RTVSPost2010PropOp33
 70
     1
102
RTVSPost2010Prop34
280
     0
102
RTVSPost2010PropOp34
 70
     1
102
RTVSPost2010Prop35
280
     0
102
RTVSPost2010PropOp35
 70
     1
102
RTVSPost2010Prop36
280
     0
102
RTVSPost2010PropOp36
 70
     1
102
RTVSPost2010Prop37
 90
       50
102
RTVSPost2010PropOp37
 70
     1
102
RTVSPost2010Prop38
140
0.0
102
RTVSPost2010PropOp38
 70
     1
102
RTVSPost2010Prop39
140
1.0
102
RTVSPost2010PropOp39
 70
     1
102
RTVSPost2010Prop40
 90
        0
102
RTVSPost2010PropOp40
 70
     1
102
RTVSPost2010Prop41ColorIndex
 90
       18
102
RTVSPost2010Prop41ColorRGB
 90
        0
102
RTVSPost2010PropOp41
 70
     1
102
RTVSPost2010Prop42
 90
       50
102
RTVSPost2010PropOp42
 70
     1
102
RTVSPost2010Prop43
 90
        3
102
RTVSPost2010PropOp43
 70
     1
102
RTVSPost2010Prop44ColorIndex
 90
        5
102
RTVSPost2010Prop44ColorRGB
 90
      255
102
RTVSPost2010PropOp44
 70
     1
102
RTVSPost2010Prop45
280
     0
102
RTVSPost2010PropOp45
 70
     1
102
RTVSPost2010Prop46
 90
       50
102
RTVSPost2010PropOp46
 70
     1
102
RTVSPost2010Prop47
 90
       50
102
RTVSPost2010PropOp47
 70
     1
102
RTVSPost2010Prop48
 90
       50
102
RTVSPost2010PropOp48
 70
     1
102
RTVSPost2010Prop49
280
     0
102
RTVSPost2010PropOp49
 70
     1
102
RTVSPost2010Prop50
 90
       50
102
RTVSPost2010PropOp50
 70
     1
102
RTVSPost2010Prop51ColorIndex
 90
      256
102
RTVSPost2010Prop51ColorRGB
 90
-16777216
102
RTVSPost2010PropOp51
 70
     0
102
RTVSPost2010Prop52
140
1.0
102
RTVSPost2010PropOp52
 70
     0
102
RTVSPost2010Prop53
 90
        2
102
RTVSPost2010PropOp53
 70
     1
102
RTVSPost2010Prop54
  1
strokes_ogs.tif
102
RTVSPost2010PropOp54
 70
     1
102
RTVSPost2010Prop55
280
     0
102
RTVSPost2010PropOp55
 70
     1
102
RTVSPost2010Prop56
140
1.0
102
RTVSPost2010PropOp56
 70
     1
102
RTVSPost2010Prop57
140
1.0
102
RTVSPost2010PropOp57
 70
     1
  0
XRECORD
  5
310
102
{ACAD_REACTORS
330
30F
102
}
330
30F
100
AcDbXrecord
280
     1
102
RTVSPropertyOp0
 70
     1
102
RTVSPropertyOp1
 70
     1
102
RTVSPropertyOp2
 70
     1
102
RTVSPropertyOp3
 70
     1
102
RTVSPropertyOp4
 70
     1
102
RTVSPropertyOp5
 70
     1
102
RTVSPropertyOp6
 70
     1
102
RTVSPropertyOp7
 70
     1
102
RTVSPropertyOp8
 70
     1
102
RTVSPropertyOp9
 70
     1
102
RTVSPropertyOp10
 70
     1
102
RTVSPropertyOp11
 70
     1
102
RTVSPropertyOp12
 70
     1
102
RTVSPropertyOp13
 70
     1
102
RTVSPropertyOp14
 70
     1
102
RTVSPropertyOp15
 70
     1
102
RTVSPropertyOp16
 70
     1
102
RTVSPropertyOp17
 70
     1
102
RTVSPropertyOp18
 70
     1
102
RTVSPropertyOp19
 70
     1
102
RTVSPropertyOp20
 70
     1
102
RTVSPropertyOp21
 70
     1
102
RTVSPropertyOp22
 70
     1
102
RTVSPropertyOp23
 70
     1
102
RTVSPropertyOp24
 70
     1
102
RTVSPropertyOp25
 70
     1
102
RTVSPropertyOp26
 70
     1
102
RTVSPropertyOp27
 70
     1
102
RTVSPropertyOp28
 70
     1
102
RTVSPropertyOp29
 70
     1
102
RTVSPropertyOp30
 70
     1
102
RTVSPropertyOp31
 70
     1
102
RTVSPropertyOp32
 70
     1
102
RTVSPropertyOp33
 70
     1
102
RTVSPropertyOp34
 70
     1
102
RTVSPropertyOp35
 70
     1
102
RTVSPropertyOp36
 70
     1
102
RTVSPropertyOp37
 70
     1
102
RTVSPropertyOp38
 70
     1
102
RTVSPropertyOp39
 70
     1
102
RTVSPropertyOp40
 70
     1
102
RTVSPropertyOp41
 70
     1
102
RTVSPropertyOp42
 70
     1
102
RTVSPropertyOp43
 70
     1
102
RTVSPropertyOp44
 70
     1
102
RTVSPropertyOp45
 70
     1
102
RTVSPropertyOp46
 70
     1
102
RTVSPropertyOp47
 70
     1
102
RTVSPropertyOp48
 70
     1
102
RTVSPropertyOp49
 70
     1
102
RTVSPropertyOp50
 70
     1
102
RTVSPropertyOp51
 70
     0
102
RTVSPropertyOp52
 70
     0
102
RTVSPropertyOp53
 70
     1
102
RTVSPropertyOp54
 70
     1
102
RTVSPropertyOp55
 70
     1
102
RTVSPropertyOp56
 70
     1
102
RTVSPropertyOp57
 70
     1
102
RTVSPost2010Prop28
280
     0
102
RTVSPost2010PropOp28
 70
     1
102
RTVSPost2010Prop29
280
     1
102
RTVSPost2010PropOp29
 70
     1
102
RTVSPost2010Prop30
280
     1
102
RTVSPost2010PropOp30
 70
     1
102
RTVSPost2010Prop31
280
     0
102
RTVSPost2010PropOp31
 70
     1
102
RTVSPost2010Prop32
280
     0
102
RTVSPost2010PropOp32
 70
     1
102
RTVSPost2010Prop33
280
     0
102
RTVSPost2010PropOp33
 70
     1
102
RTVSPost2010Prop34
280
     0
102
RTVSPost2010PropOp34
 70
     1
102
RTVSPost2010Prop35
280
     0
102
RTVSPost2010PropOp35
 70
     1
102
RTVSPost2010Prop36
280
     0
102
RTVSPost2010PropOp36
 70
     1
102
RTVSPost2010Prop37
 90
       50
102
RTVSPost2010PropOp37
 70
     1
102
RTVSPost2010Prop38
140
0.0
102
RTVSPost2010PropOp38
 70
     1
102
RTVSPost2010Prop39
140
1.0
102
RTVSPost2010PropOp39
 70
     1
102
RTVSPost2010Prop40
 90
        0
102
RTVSPost2010PropOp40
 70
     1
102
RTVSPost2010Prop41ColorIndex
 90
       18
102
RTVSPost2010Prop41ColorRGB
 90
        0
102
RTVSPost2010PropOp41
 70
     1
102
RTVSPost2010Prop42
 90
       50
102
RTVSPost2010PropOp42
 70
     1
102
RTVSPost2010Prop43
 90
        3
102
RTVSPost2010PropOp43
 70
     1
102
RTVSPost2010Prop44ColorIndex
 90
        5
102
RTVSPost2010Prop44ColorRGB
 90
      255
102
RTVSPost2010PropOp44
 70
     1
102
RTVSPost2010Prop45
280
     0
102
RTVSPost2010PropOp45
 70
     1
102
RTVSPost2010Prop46
 90
       50
102
RTVSPost2010PropOp46
 70
     1
102
RTVSPost2010Prop47
 90
       50
102
RTVSPost2010PropOp47
 70
     1
102
RTVSPost2010Prop48
 90
       50
102
RTVSPost2010PropOp48
 70
     1
102
RTVSPost2010Prop49
280
     0
102
RTVSPost2010PropOp49
 70
     1
102
RTVSPost2010Prop50
 90
       50
102
RTVSPost2010PropOp50
 70
     1
102
RTVSPost2010Prop51ColorIndex
 90
      256
102
RTVSPost2010Prop51ColorRGB
 90
-16777216
102
RTVSPost2010PropOp51
 70
     0
102
RTVSPost2010Prop52
140
1.0
102
RTVSPost2010PropOp52
 70
     0
102
RTVSPost2010Prop53
 90
        2
102
RTVSPost2010PropOp53
 70
     1
102
RTVSPost2010Prop54
  1
strokes_ogs.tif
102
RTVSPost2010PropOp54
 70
     1
102
RTVSPost2010Prop55
280
     0
102
RTVSPost2010PropOp55
 70
     1
102
RTVSPost2010Prop56
140
1.0
102
RTVSPost2010PropOp56
 70
     1
102
RTVSPost2010Prop57
140
1.0
102
RTVSPost2010PropOp57
 70
     1
  0
XRECORD
  5
330
102
{ACAD_REACTORS
330
32F
102
}
330
32F
100
AcDbXrecord
280
     1
102
RTVSPropertyOp0
 70
     1
102
RTVSPropertyOp1
 70
     1
102
RTVSPropertyOp2
 70
     1
102
RTVSPropertyOp3
 70
     1
102
RTVSPropertyOp4
 70
     1
102
RTVSPropertyOp5
 70
     1
102
RTVSPropertyOp6
 70
     1
102
RTVSPropertyOp7
 70
     1
102
RTVSPropertyOp8
 70
     1
102
RTVSPropertyOp9
 70
     1
102
RTVSPropertyOp10
 70
     1
102
RTVSPropertyOp11
 70
     1
102
RTVSPropertyOp12
 70
     1
102
RTVSPropertyOp13
 70
     1
102
RTVSPropertyOp14
 70
     1
102
RTVSPropertyOp15
 70
     1
102
RTVSPropertyOp16
 70
     1
102
RTVSPropertyOp17
 70
     1
102
RTVSPropertyOp18
 70
     1
102
RTVSPropertyOp19
 70
     1
102
RTVSPropertyOp20
 70
     1
102
RTVSPropertyOp21
 70
     1
102
RTVSPropertyOp22
 70
     1
102
RTVSPropertyOp23
 70
     1
102
RTVSPropertyOp24
 70
     1
102
RTVSPropertyOp25
 70
     1
102
RTVSPropertyOp26
 70
     1
102
RTVSPropertyOp27
 70
     1
102
RTVSPropertyOp28
 70
     1
102
RTVSPropertyOp29
 70
     1
102
RTVSPropertyOp30
 70
     1
102
RTVSPropertyOp31
 70
     1
102
RTVSPropertyOp32
 70
     1
102
RTVSPropertyOp33
 70
     1
102
RTVSPropertyOp34
 70
     1
102
RTVSPropertyOp35
 70
     1
102
RTVSPropertyOp36
 70
     1
102
RTVSPropertyOp37
 70
     1
102
RTVSPropertyOp38
 70
     1
102
RTVSPropertyOp39
 70
     1
102
RTVSPropertyOp40
 70
     1
102
RTVSPropertyOp41
 70
     1
102
RTVSPropertyOp42
 70
     1
102
RTVSPropertyOp43
 70
     1
102
RTVSPropertyOp44
 70
     1
102
RTVSPropertyOp45
 70
     1
102
RTVSPropertyOp46
 70
     1
102
RTVSPropertyOp47
 70
     1
102
RTVSPropertyOp48
 70
     1
102
RTVSPropertyOp49
 70
     1
102
RTVSPropertyOp50
 70
     1
102
RTVSPropertyOp51
 70
     0
102
RTVSPropertyOp52
 70
     0
102
RTVSPropertyOp53
 70
     1
102
RTVSPropertyOp54
 70
     1
102
RTVSPropertyOp55
 70
     1
102
RTVSPropertyOp56
 70
     1
102
RTVSPropertyOp57
 70
     1
102
RTVSPost2010Prop28
280
     0
102
RTVSPost2010PropOp28
 70
     1
102
RTVSPost2010Prop29
280
     1
102
RTVSPost2010PropOp29
 70
     1
102
RTVSPost2010Prop30
280
     1
102
RTVSPost2010PropOp30
 70
     1
102
RTVSPost2010Prop31
280
     0
102
RTVSPost2010PropOp31
 70
     1
102
RTVSPost2010Prop32
280
     0
102
RTVSPost2010PropOp32
 70
     1
102
RTVSPost2010Prop33
280
     0
102
RTVSPost2010PropOp33
 70
     1
102
RTVSPost2010Prop34
280
     0
102
RTVSPost2010PropOp34
 70
     1
102
RTVSPost2010Prop35
280
     0
102
RTVSPost2010PropOp35
 70
     1
102
RTVSPost2010Prop36
280
     0
102
RTVSPost2010PropOp36
 70
     1
102
RTVSPost2010Prop37
 90
       50
102
RTVSPost2010PropOp37
 70
     1
102
RTVSPost2010Prop38
140
0.0
102
RTVSPost2010PropOp38
 70
     1
102
RTVSPost2010Prop39
140
1.0
102
RTVSPost2010PropOp39
 70
     1
102
RTVSPost2010Prop40
 90
        0
102
RTVSPost2010PropOp40
 70
     1
102
RTVSPost2010Prop41ColorIndex
 90
       18
102
RTVSPost2010Prop41ColorRGB
 90
        0
102
RTVSPost2010PropOp41
 70
     1
102
RTVSPost2010Prop42
 90
       50
102
RTVSPost2010PropOp42
 70
     1
102
RTVSPost2010Prop43
 90
        3
102
RTVSPost2010PropOp43
 70
     1
102
RTVSPost2010Prop44ColorIndex
 90
        5
102
RTVSPost2010Prop44ColorRGB
 90
      255
102
RTVSPost2010PropOp44
 70
     1
102
RTVSPost2010Prop45
280
     0
102
RTVSPost2010PropOp45
 70
     1
102
RTVSPost2010Prop46
 90
       50
102
RTVSPost2010PropOp46
 70
     1
102
RTVSPost2010Prop47
 90
       50
102
RTVSPost2010PropOp47
 70
     1
102
RTVSPost2010Prop48
 90
       50
102
RTVSPost2010PropOp48
 70
     1
102
RTVSPost2010Prop49
280
     0
102
RTVSPost2010PropOp49
 70
     1
102
RTVSPost2010Prop50
 90
       50
102
RTVSPost2010PropOp50
 70
     1
102
RTVSPost2010Prop51ColorIndex
 90
      256
102
RTVSPost2010Prop51ColorRGB
 90
-16777216
102
RTVSPost2010PropOp51
 70
     0
102
RTVSPost2010Prop52
140
1.0
102
RTVSPost2010PropOp52
 70
     0
102
RTVSPost2010Prop53
 90
        2
102
RTVSPost2010PropOp53
 70
     1
102
RTVSPost2010Prop54
  1
strokes_ogs.tif
102
RTVSPost2010PropOp54
 70
     1
102
RTVSPost2010Prop55
280
     0
102
RTVSPost2010PropOp55
 70
     1
102
RTVSPost2010Prop56
140
1.0
102
RTVSPost2010PropOp56
 70
     1
102
RTVSPost2010Prop57
140
1.0
102
RTVSPost2010PropOp57
 70
     1
  0
ENDSEC
  0
EOF
