  0
SECTION
  2
HEADER
  9
$ACADVER
  1
AC1018
  9
$ACADMAINTVER
 70
     0
  9
$DWGCODEPAGE
  3
ANSI_1252
  9
$INSBASE
 10
0.0
 20
0.0
 30
0.0
  9
$EXTMIN
 10
-238.7171057136901
 20
3.43613650703946
 30
0.0
  9
$EXTMAX
 10
58.28289428630797
 20
213.4361365070396
 30
0.0
  9
$LIMMIN
 10
0.0
 20
0.0
  9
$LIMMAX
 10
12.0
 20
9.0
  9
$ORTHOMODE
 70
     0
  9
$REGENMODE
 70
     1
  9
$FILLMODE
 70
     1
  9
$QTEXTMODE
 70
     0
  9
$MIRRTEXT
 70
     1
  9
$LTSCALE
 40
1.0
  9
$ATTMODE
 70
     1
  9
$TEXTSIZE
 40
0.2
  9
$TRACEWID
 40
0.05
  9
$TEXTSTYLE
  7
Standard
  9
$CLAYER
  8
0
  9
$CELTYPE
  6
ByLayer
  9
$CECOLOR
 62
   256
  9
$CELTSCALE
 40
1.0
  9
$DISPSILH
 70
     0
  9
$DIMSCALE
 40
1.0
  9
$DIMASZ
 40
0.18
  9
$DIMEXO
 40
0.0625
  9
$DIMDLI
 40
0.38
  9
$DIMRND
 40
0.0
  9
$DIMDLE
 40
0.0
  9
$DIMEXE
 40
0.18
  9
$DIMTP
 40
0.0
  9
$DIMTM
 40
0.0
  9
$DIMTXT
 40
0.18
  9
$DIMCEN
 40
0.09
  9
$DIMTSZ
 40
0.0
  9
$DIMTOL
 70
     0
  9
$DIMLIM
 70
     0
  9
$DIMTIH
 70
     1
  9
$DIMTOH
 70
     1
  9
$DIMSE1
 70
     0
  9
$DIMSE2
 70
     0
  9
$DIMTAD
 70
     0
  9
$DIMZIN
 70
     0
  9
$DIMBLK
  1

  9
$DIMASO
 70
     1
  9
$DIMSHO
 70
     1
  9
$DIMPOST
  1

  9
$DIMAPOST
  1

  9
$DIMALT
 70
     0
  9
$DIMALTD
 70
     2
  9
$DIMALTF
 40
25.4
  9
$DIMLFAC
 40
1.0
  9
$DIMTOFL
 70
     0
  9
$DIMTVP
 40
0.0
  9
$DIMTIX
 70
     0
  9
$DIMSOXD
 70
     0
  9
$DIMSAH
 70
     0
  9
$DIMBLK1
  1

  9
$DIMBLK2
  1

  9
$DIMSTYLE
  2
Standard
  9
$DIMCLRD
 70
     0
  9
$DIMCLRE
 70
     0
  9
$DIMCLRT
 70
     0
  9
$DIMTFAC
 40
1.0
  9
$DIMGAP
 40
0.09
  9
$DIMJUST
 70
     0
  9
$DIMSD1
 70
     0
  9
$DIMSD2
 70
     0
  9
$DIMTOLJ
 70
     1
  9
$DIMTZIN
 70
     0
  9
$DIMALTZ
 70
     0
  9
$DIMALTTZ
 70
     0
  9
$DIMUPT
 70
     0
  9
$DIMDEC
 70
     4
  9
$DIMTDEC
 70
     4
  9
$DIMALTU
 70
     2
  9
$DIMALTTD
 70
     2
  9
$DIMTXSTY
  7
Standard
  9
$DIMAUNIT
 70
     0
  9
$DIMADEC
 70
     0
  9
$DIMALTRND
 40
0.0
  9
$DIMAZIN
 70
     0
  9
$DIMDSEP
 70
    46
  9
$DIMATFIT
 70
     3
  9
$DIMFRAC
 70
     0
  9
$DIMLDRBLK
  1

  9
$DIMLUNIT
 70
     2
  9
$DIMLWD
 70
    -2
  9
$DIMLWE
 70
    -2
  9
$DIMTMOVE
 70
     0
  9
$LUNITS
 70
     2
  9
$LUPREC
 70
     4
  9
$SKETCHINC
 40
0.1
  9
$FILLETRAD
 40
0.5
  9
$AUNITS
 70
     0
  9
$AUPREC
 70
     0
  9
$MENU
  1
.
  9
$ELEVATION
 40
0.0
  9
$PELEVATION
 40
0.0
  9
$THICKNESS
 40
0.0
  9
$LIMCHECK
 70
     0
  9
$CHAMFERA
 40
0.5
  9
$CHAMFERB
 40
0.5
  9
$CHAMFERC
 40
1.0
  9
$CHAMFERD
 40
0.0
  9
$SKPOLY
 70
     0
  9
$TDCREATE
 40
2458157.949106007
  9
$TDUCREATE
 40
2458157.90743934
  9
$TDUPDATE
 40
2458157.949106366
  9
$TDUUPDATE
 40
2458157.907439699
  9
$TDINDWG
 40
0.0000000116
  9
$TDUSRTIMER
 40
0.0000000116
  9
$USRTIMER
 70
     1
  9
$ANGBASE
 50
0.0
  9
$ANGDIR
 70
     0
  9
$PDMODE
 70
     0
  9
$PDSIZE
 40
0.0
  9
$PLINEWID
 40
0.0
  9
$SPLFRAME
 70
     0
  9
$SPLINETYPE
 70
     6
  9
$SPLINESEGS
 70
     8
  9
$HANDSEED
  5
2DF
  9
$SURFTAB1
 70
     6
  9
$SURFTAB2
 70
     6
  9
$SURFTYPE
 70
     6
  9
$SURFU
 70
     6
  9
$SURFV
 70
     6
  9
$UCSBASE
  2

  9
$UCSNAME
  2

  9
$UCSORG
 10
0.0
 20
0.0
 30
0.0
  9
$UCSXDIR
 10
1.0
 20
0.0
 30
0.0
  9
$UCSYDIR
 10
0.0
 20
1.0
 30
0.0
  9
$UCSORTHOREF
  2

  9
$UCSORTHOVIEW
 70
     0
  9
$UCSORGTOP
 10
0.0
 20
0.0
 30
0.0
  9
$UCSORGBOTTOM
 10
0.0
 20
0.0
 30
0.0
  9
$UCSORGLEFT
 10
0.0
 20
0.0
 30
0.0
  9
$UCSORGRIGHT
 10
0.0
 20
0.0
 30
0.0
  9
$UCSORGFRONT
 10
0.0
 20
0.0
 30
0.0
  9
$UCSORGBACK
 10
0.0
 20
0.0
 30
0.0
  9
$PUCSBASE
  2

  9
$PUCSNAME
  2

  9
$PUCSORG
 10
0.0
 20
0.0
 30
0.0
  9
$PUCSXDIR
 10
1.0
 20
0.0
 30
0.0
  9
$PUCSYDIR
 10
0.0
 20
1.0
 30
0.0
  9
$PUCSORTHOREF
  2

  9
$PUCSORTHOVIEW
 70
     0
  9
$PUCSORGTOP
 10
0.0
 20
0.0
 30
0.0
  9
$PUCSORGBOTTOM
 10
0.0
 20
0.0
 30
0.0
  9
$PUCSORGLEFT
 10
0.0
 20
0.0
 30
0.0
  9
$PUCSORGRIGHT
 10
0.0
 20
0.0
 30
0.0
  9
$PUCSORGFRONT
 10
0.0
 20
0.0
 30
0.0
  9
$PUCSORGBACK
 10
0.0
 20
0.0
 30
0.0
  9
$USERI1
 70
     0
  9
$USERI2
 70
     0
  9
$USERI3
 70
     0
  9
$USERI4
 70
     0
  9
$USERI5
 70
     0
  9
$USERR1
 40
18.1
  9
$USERR2
 40
0.0
  9
$USERR3
 40
0.0
  9
$USERR4
 40
0.0
  9
$USERR5
 40
0.0
  9
$WORLDVIEW
 70
     1
  9
$SHADEDGE
 70
     3
  9
$SHADEDIF
 70
    70
  9
$TILEMODE
 70
     1
  9
$MAXACTVP
 70
    64
  9
$PINSBASE
 10
0.0
 20
0.0
 30
0.0
  9
$PLIMCHECK
 70
     0
  9
$PEXTMIN
 10
1.00000000000000E+20
 20
1.00000000000000E+20
 30
1.00000000000000E+20
  9
$PEXTMAX
 10
-1.00000000000000E+20
 20
-1.00000000000000E+20
 30
-1.00000000000000E+20
  9
$PLIMMIN
 10
0.0
 20
0.0
  9
$PLIMMAX
 10
12.0
 20
9.0
  9
$UNITMODE
 70
     0
  9
$VISRETAIN
 70
     1
  9
$PLINEGEN
 70
     0
  9
$PSLTSCALE
 70
     1
  9
$TREEDEPTH
 70
  3020
  9
$CMLSTYLE
  2
Standard
  9
$CMLJUST
 70
     0
  9
$CMLSCALE
 40
1.0
  9
$PROXYGRAPHICS
 70
     1
  9
$MEASUREMENT
 70
     1
  9
$CELWEIGHT
370
    -1
  9
$ENDCAPS
280
     0
  9
$JOINSTYLE
280
     0
  9
$LWDISPLAY
290
     0
  9
$INSUNITS
 70
     4
  9
$HYPERLINKBASE
  1

  9
$STYLESHEET
  1

  9
$XEDIT
290
     1
  9
$CEPSNTYPE
380
     0
  9
$PSTYLEMODE
290
     1
  9
$FINGERPRINTGUID
  2
{91B83ED0-829C-49D4-B252-BF52E55CDBE6}
  9
$VERSIONGUID
  2
{FAEB1C32-E019-11D5-929B-00C0DF256EC4}
  9
$EXTNAMES
290
     1
  9
$PSVPSCALE
 40
0.0
  9
$OLESTARTUP
290
     0
  9
$SORTENTS
280
   127
  9
$INDEXCTL
280
     0
  9
$HIDETEXT
280
     1
  9
$XCLIPFRAME
290
     0
  9
$HALOGAP
280
     0
  9
$OBSCOLOR
 70
   257
  9
$OBSLTYPE
280
     0
  9
$INTERSECTIONDISPLAY
280
     0
  9
$INTERSECTIONCOLOR
 70
   257
  9
$DIMASSOC
280
     2
  9
$PROJECTNAME
  1

  0
ENDSEC
  0
SECTION
  2
CLASSES
  0
CLASS
  1
ACDBDICTIONARYWDFLT
  2
AcDbDictionaryWithDefault
  3
ObjectDBX Classes
 90
        0
 91
        4
280
     0
281
     0
  0
CLASS
  1
VISUALSTYLE
  2
AcDbVisualStyle
  3
ObjectDBX Classes
 90
     4095
 91
        4
280
     0
281
     0
  0
CLASS
  1
MATERIAL
  2
AcDbMaterial
  3
ObjectDBX Classes
 90
     1153
 91
        4
280
     0
281
     0
  0
ENDSEC
  0
SECTION
  2
TABLES
  0
TABLE
  2
VPORT
  5
8
330
0
100
AcDbSymbolTable
 70
     1
  0
VPORT
  5
29
330
8
100
AcDbSymbolTableRecord
100
AcDbViewportTableRecord
  2
*Active
 70
     0
 10
0.0
 20
0.0
 11
1.0
 21
1.0
 12
-90.21710571369107
 22
108.4361365070395
 13
0.0
 23
0.0
 14
0.5
 24
0.5
 15
0.5
 25
0.5
 16
0.0
 26
0.0
 36
1.0
 17
0.0
 27
0.0
 37
0.0
 40
231.0000000000002
 41
1.60267857142857
 42
50.0
 43
0.0
 44
0.0
 50
0.0
 51
0.0
 71
     0
 72
   100
 73
     1
 74
     3
 75
     0
 76
     0
 77
     0
 78
     0
281
     0
 65
     1
110
0.0
120
0.0
130
0.0
111
1.0
121
0.0
131
0.0
112
0.0
122
1.0
132
0.0
 79
     0
146
0.0
  0
ENDTAB
  0
TABLE
  2
LTYPE
  5
5
330
0
100
AcDbSymbolTable
 70
     8
  0
LTYPE
  5
14
330
5
100
AcDbSymbolTableRecord
100
AcDbLinetypeTableRecord
  2
ByBlock
 70
     0
  3

 72
    65
 73
     0
 40
0.0
  0
LTYPE
  5
15
330
5
100
AcDbSymbolTableRecord
100
AcDbLinetypeTableRecord
  2
ByLayer
 70
     0
  3

 72
    65
 73
     0
 40
0.0
  0
LTYPE
  5
16
330
5
100
AcDbSymbolTableRecord
100
AcDbLinetypeTableRecord
  2
Continuous
 70
     0
  3
Solid line
 72
    65
 73
     0
 40
0.0
  0
LTYPE
  5
3F
330
5
100
AcDbSymbolTableRecord
100
AcDbLinetypeTableRecord
  2
DASHED
 70
     0
  3
Dashed
 72
    65
 73
     2
 40
15.0
 49
7.0
 74
     0
 49
-8.0
 74
     0
  0
LTYPE
  5
40
330
5
100
AcDbSymbolTableRecord
100
AcDbLinetypeTableRecord
  2
DOTTED
 70
     0
  3
Dotted
 72
    65
 73
     2
 40
1.0
 49
0.0
 74
     0
 49
-1.0
 74
     0
  0
LTYPE
  5
41
330
5
100
AcDbSymbolTableRecord
100
AcDbLinetypeTableRecord
  2
DOT_CENTER
 70
     0
  3
Dot_Center
 72
    65
 73
     4
 40
14.0
 49
12.0
 74
     0
 49
-1.0
 74
     0
 49
0.0
 74
     0
 49
-1.0
 74
     0
  0
LTYPE
  5
42
330
5
100
AcDbSymbolTableRecord
100
AcDbLinetypeTableRecord
  2
LONG_DASHED
 70
     0
  3
Long_Dashed
 72
    65
 73
     2
 40
15.0
 49
10.0
 74
     0
 49
-5.0
 74
     0
  0
LTYPE
  5
43
330
5
100
AcDbSymbolTableRecord
100
AcDbLinetypeTableRecord
  2
DASH_CENTER
 70
     0
  3
Dash_Center
 72
    65
 73
     4
 40
14.0
 49
11.0
 74
     0
 49
-1.0
 74
     0
 49
1.0
 74
     0
 49
-1.0
 74
     0
  0
LTYPE
  5
44
330
5
100
AcDbSymbolTableRecord
100
AcDbLinetypeTableRecord
  2
PHANTOM
 70
     0
  3
Phantom
 72
    65
 73
     6
 40
13.0
 49
10.0
 74
     0
 49
-1.0
 74
     0
 49
0.0
 74
     0
 49
-1.0
 74
     0
 49
0.0
 74
     0
 49
-1.0
 74
     0
  0
LTYPE
  5
45
330
5
100
AcDbSymbolTableRecord
100
AcDbLinetypeTableRecord
  2
CENTER_DASH_DASH
 70
     0
  3
Center_Dash_Dash
 72
    65
 73
     6
 40
14.0
 49
9.0
 74
     0
 49
-1.0
 74
     0
 49
1.0
 74
     0
 49
-1.0
 74
     0
 49
1.0
 74
     0
 49
-1.0
 74
     0
  0
ENDTAB
  0
TABLE
  2
LAYER
  5
2
330
0
100
AcDbSymbolTable
 70
     2
  0
LAYER
  5
10
330
2
100
AcDbSymbolTableRecord
100
AcDbLayerTableRecord
  2
0
 70
     0
 62
     7
  6
Continuous
370
    -3
390
F
  0
LAYER
  5
46
330
2
100
AcDbSymbolTableRecord
100
AcDbLayerTableRecord
  2
1
 70
     0
 62
     7
  6
Continuous
370
    -3
390
F
  0
ENDTAB
  0
TABLE
  2
STYLE
  5
3
330
0
100
AcDbSymbolTable
 70
     5
  0
STYLE
  5
11
330
3
100
AcDbSymbolTableRecord
100
AcDbTextStyleTableRecord
  2
Standard
 70
     0
 40
0.0
 41
1.0
 50
0.0
 71
     0
 42
0.2
  3
txt
  4

  0
STYLE
  5
96
330
3
100
AcDbSymbolTableRecord
100
AcDbTextStyleTableRecord
  2
CONVERTER_11
 70
     0
 40
0.0
 41
0.9
 50
0.0
 71
     0
 42
0.2
  3
txt.shx
  4

  0
STYLE
  5
275
330
3
100
AcDbSymbolTableRecord
100
AcDbTextStyleTableRecord
  2
CONVERTER_12
 70
     0
 40
0.0
 41
0.81
 50
0.0
 71
     0
 42
0.2
  3
txt.shx
  4

  0
STYLE
  5
27B
330
3
100
AcDbSymbolTableRecord
100
AcDbTextStyleTableRecord
  2
CONVERTER_13
 70
     0
 40
0.0
 41
0.855
 50
0.0
 71
     0
 42
0.2
  3
txt.shx
  4

  0
STYLE
  5
27E
330
3
100
AcDbSymbolTableRecord
100
AcDbTextStyleTableRecord
  2
CONVERTER_14
 70
     0
 40
0.0
 41
0.72
 50
0.0
 71
     0
 42
0.2
  3
txt.shx
  4

  0
ENDTAB
  0
TABLE
  2
VIEW
  5
6
330
0
100
AcDbSymbolTable
 70
     0
  0
ENDTAB
  0
TABLE
  2
UCS
  5
7
330
0
100
AcDbSymbolTable
 70
     0
  0
ENDTAB
  0
TABLE
  2
APPID
  5
9
330
0
100
AcDbSymbolTable
 70
     1
  0
APPID
  5
12
330
9
100
AcDbSymbolTableRecord
100
AcDbRegAppTableRecord
  2
ACAD
 70
     0
  0
ENDTAB
  0
TABLE
  2
DIMSTYLE
  5
A
330
0
100
AcDbSymbolTable
 70
     4
100
AcDbDimStyleTable
  0
DIMSTYLE
105
27
330
A
100
AcDbSymbolTableRecord
100
AcDbDimStyleTableRecord
  2
Standard
 70
     0
178
     0
340
11
  0
DIMSTYLE
105
B1
102
{ACAD_REACTORS
330
B2
102
}
330
A
100
AcDbSymbolTableRecord
100
AcDbDimStyleTableRecord
  2
ME10_DIM_10
 70
     0
 41
3.5
 42
0.0
 44
1.5
 73
     0
 74
     0
 77
     1
 78
     8
140
3.5
147
1.5
172
     1
173
     1
174
     1
175
     1
176
     2
177
     2
271
     2
178
     3
271
     2
340
96
  0
DIMSTYLE
105
BE
102
{ACAD_REACTORS
330
BF
102
}
330
A
100
AcDbSymbolTableRecord
100
AcDbDimStyleTableRecord
  2
ME10_DIM_11
 70
     0
 41
3.5
 42
0.0
 44
1.5
 73
     0
 74
     0
 77
     1
 78
     8
140
3.5
147
1.5
172
     1
173
     1
174
     1
175
     1
176
     2
177
     2
271
     2
178
     3
271
     2
340
96
  0
DIMSTYLE
105
17C
102
{ACAD_REACTORS
330
17D
102
}
330
A
100
AcDbSymbolTableRecord
100
AcDbDimStyleTableRecord
  2
ME10_DIM_12
 70
     0
 41
3.5
 42
0.0
 44
1.5
 73
     0
 74
     0
 77
     1
 78
     8
140
3.5
147
1.5
172
     1
173
     1
174
     1
175
     1
176
     2
177
     2
178
     3
340
96
  0
ENDTAB
  0
TABLE
  2
BLOCK_RECORD
  5
1
330
0
100
AcDbSymbolTable
 70
    20
  0
BLOCK_RECORD
  5
1F
330
1
100
AcDbSymbolTableRecord
100
AcDbBlockTableRecord
  2
*Model_Space
340
22
  0
BLOCK_RECORD
  5
1B
330
1
100
AcDbSymbolTableRecord
100
AcDbBlockTableRecord
  2
*Paper_Space
340
1E
  0
BLOCK_RECORD
  5
23
330
1
100
AcDbSymbolTableRecord
100
AcDbBlockTableRecord
  2
*Paper_Space0
340
26
  0
BLOCK_RECORD
  5
47
330
1
100
AcDbSymbolTableRecord
100
AcDbBlockTableRecord
  2
EB_3_15_K_UK_35-select__1
340
0
102
{BLKREFS
331
4B
102
}
  0
BLOCK_RECORD
  5
4A
330
1
100
AcDbSymbolTableRecord
100
AcDbBlockTableRecord
  2
Back1
340
0
102
{BLKREFS
331
7D
102
}
  0
BLOCK_RECORD
  5
4E
330
1
100
AcDbSymbolTableRecord
100
AcDbBlockTableRecord
  2
EB_3_15_K_UK_35-select__2
340
0
102
{BLKREFS
331
52
102
}
  0
BLOCK_RECORD
  5
51
330
1
100
AcDbSymbolTableRecord
100
AcDbBlockTableRecord
  2
Front1
340
0
102
{BLKREFS
331
7E
102
}
  0
BLOCK_RECORD
  5
55
330
1
100
AcDbSymbolTableRecord
100
AcDbBlockTableRecord
  2
EB_3_15_K_UK_35-select__3
340
0
102
{BLKREFS
331
59
102
}
  0
BLOCK_RECORD
  5
58
330
1
100
AcDbSymbolTableRecord
100
AcDbBlockTableRecord
  2
Gen1
340
0
102
{BLKREFS
331
7F
102
}
  0
BLOCK_RECORD
  5
5C
330
1
100
AcDbSymbolTableRecord
100
AcDbBlockTableRecord
  2
EB_3_15_K_UK_35-select__4
340
0
102
{BLKREFS
331
60
102
}
  0
BLOCK_RECORD
  5
5F
330
1
100
AcDbSymbolTableRecord
100
AcDbBlockTableRecord
  2
Left1
340
0
102
{BLKREFS
331
80
102
}
  0
BLOCK_RECORD
  5
63
330
1
100
AcDbSymbolTableRecord
100
AcDbBlockTableRecord
  2
EB_3_15_K_UK_35-select__5
340
0
102
{BLKREFS
331
67
102
}
  0
BLOCK_RECORD
  5
66
330
1
100
AcDbSymbolTableRecord
100
AcDbBlockTableRecord
  2
Right1
340
0
102
{BLKREFS
331
81
102
}
  0
BLOCK_RECORD
  5
6A
330
1
100
AcDbSymbolTableRecord
100
AcDbBlockTableRecord
  2
EB_3_15_K_UK_35-select__6
340
0
102
{BLKREFS
331
6E
102
}
  0
BLOCK_RECORD
  5
6D
330
1
100
AcDbSymbolTableRecord
100
AcDbBlockTableRecord
  2
Top1
340
0
102
{BLKREFS
331
82
102
}
  0
BLOCK_RECORD
  5
71
330
1
100
AcDbSymbolTableRecord
100
AcDbBlockTableRecord
  2
_rahmen
340
0
102
{BLKREFS
331
78
102
}
  0
BLOCK_RECORD
  5
74
330
1
100
AcDbSymbolTableRecord
100
AcDbBlockTableRecord
  2
_punkt
340
0
102
{BLKREFS
331
79
102
}
  0
BLOCK_RECORD
  5
77
330
1
100
AcDbSymbolTableRecord
100
AcDbBlockTableRecord
  2
A4I_CS
340
0
102
{BLKREFS
331
83
102
}
  0
BLOCK_RECORD
  5
7C
330
1
100
AcDbSymbolTableRecord
100
AcDbBlockTableRecord
  2
1
340
0
102
{BLKREFS
331
86
102
}
  0
BLOCK_RECORD
  5
A8
330
1
100
AcDbSymbolTableRecord
100
AcDbBlockTableRecord
  2
*D17
340
0
  0
BLOCK_RECORD
  5
B3
330
1
100
AcDbSymbolTableRecord
100
AcDbBlockTableRecord
  2
*D18
340
0
  0
BLOCK_RECORD
  5
173
330
1
100
AcDbSymbolTableRecord
100
AcDbBlockTableRecord
  2
*D19
340
0
  0
ENDTAB
  0
ENDSEC
  0
SECTION
  2
BLOCKS
  0
BLOCK
  5
20
330
1F
100
AcDbEntity
  8
0
100
AcDbBlockBegin
  2
*Model_Space
 70
     0
 10
0.0
 20
0.0
 30
0.0
  3
*Model_Space
  1

  0
ENDBLK
  5
21
330
1F
100
AcDbEntity
  8
0
100
AcDbBlockEnd
  0
BLOCK
  5
1C
330
1B
100
AcDbEntity
 67
     1
  8
0
100
AcDbBlockBegin
  2
*Paper_Space
 70
     0
 10
0.0
 20
0.0
 30
0.0
  3
*Paper_Space
  1

  0
ENDBLK
  5
1D
330
1B
100
AcDbEntity
 67
     1
  8
0
100
AcDbBlockEnd
  0
BLOCK
  5
24
330
23
100
AcDbEntity
  8
0
100
AcDbBlockBegin
  2
*Paper_Space0
 70
     0
 10
0.0
 20
0.0
 30
0.0
  3
*Paper_Space0
  1

  0
ENDBLK
  5
25
330
23
100
AcDbEntity
  8
0
100
AcDbBlockEnd
  0
BLOCK
  5
48
330
47
100
AcDbEntity
  8
0
100
AcDbBlockBegin
  2
EB_3_15_K_UK_35-select__1
 70
     0
 10
-10.88976707395137
 20
148.2977268443885
 30
0.0
  3
EB_3_15_K_UK_35-select__1
  1

  0
LINE
  5
87
330
47
100
AcDbEntity
  8
0
  6
Continuous
 62
     7
100
AcDbLine
 10
-10.88976707395137
 20
148.4542141872715
 30
0.0
 11
5.80771167242993
 21
148.4542141872715
 31
0.0
  0
LINE
  5
88
330
47
100
AcDbEntity
  8
0
  6
Continuous
 62
     7
100
AcDbLine
 10
16.08848148325864
 20
149.7300248650026
 30
0.0
 11
15.95907196070738
 21
150.2129877781472
 31
0.0
  0
LINE
  5
89
330
47
100
AcDbEntity
  8
0
  6
Continuous
 62
     7
100
AcDbLine
 10
26.23070265929386
 20
152.4476248385791
 30
0.0
 11
25.06601695633252
 21
156.7942910568799
 31
0.0
  0
LINE
  5
8A
330
47
100
AcDbEntity
  8
0
  6
Continuous
 62
     7
100
AcDbLine
 10
25.06601695633252
 20
156.7942910568799
 30
0.0
 11
14.9237957802973
 21
154.0766910833034
 31
0.0
  0
LINE
  5
8B
330
47
100
AcDbEntity
  8
0
  6
Continuous
 62
     7
100
AcDbLine
 10
15.05320530284856
 20
153.5937281701589
 30
0.0
 11
14.9237957802973
 21
154.0766910833034
 31
0.0
  0
LINE
  5
8C
330
47
100
AcDbEntity
  8
0
  6
Continuous
 62
     7
100
AcDbLine
 10
7.90535418830945
 20
151.6784672364002
 30
0.0
 11
15.05320530284856
 21
153.5937281701589
 31
0.0
  0
LINE
  5
8D
330
47
100
AcDbEntity
  8
0
  6
Continuous
 62
     7
100
AcDbLine
 10
8.57090204605685
 20
149.1946088164183
 30
0.0
 11
8.18267347840307
 21
150.6434975558519
 31
0.0
  0
LINE
  5
8E
330
47
100
AcDbEntity
  8
0
  6
Continuous
 62
     7
100
AcDbLine
 10
8.81122084616828
 20
148.2977268443885
 30
0.0
 11
8.57090204605685
 21
149.1946088164183
 31
0.0
  0
LINE
  5
8F
330
47
100
AcDbEntity
  8
0
  6
Continuous
 62
     7
100
AcDbLine
 10
8.18267347840307
 20
150.6434975558519
 30
0.0
 11
7.90535418830945
 21
151.6784672364002
 31
0.0
  0
LINE
  5
90
330
47
100
AcDbEntity
  8
0
  6
Continuous
 62
     7
100
AcDbLine
 10
8.81122084616828
 20
148.2977268443885
 30
0.0
 11
15.95907196070738
 21
150.2129877781472
 31
0.0
  0
LINE
  5
91
330
47
100
AcDbEntity
  8
0
  6
Continuous
 62
     7
100
AcDbLine
 10
26.23070265929386
 20
152.4476248385791
 30
0.0
 11
16.08848148325864
 21
149.7300248650026
 31
0.0
  0
LINE
  5
92
330
47
100
AcDbEntity
  8
0
  6
Continuous
 62
     7
100
AcDbLine
 10
8.57090204605685
 20
149.1946088164183
 30
0.0
 11
5.80771167242993
 21
148.4542141872715
 31
0.0
  0
LINE
  5
93
330
47
100
AcDbEntity
  8
0
  6
Continuous
 62
     7
100
AcDbLine
 10
8.18267347840307
 20
150.6434975558519
 30
0.0
 11
5.61023292604879
 21
149.9542141872715
 31
0.0
  0
LINE
  5
94
330
47
100
AcDbEntity
  8
0
  6
Continuous
 62
     7
100
AcDbLine
 10
5.61023292604879
 20
149.9542141872715
 30
0.0
 11
-10.88976707395128
 21
149.9542141872715
 31
0.0
  0
LINE
  5
95
330
47
100
AcDbEntity
  8
0
  6
Continuous
 62
     7
100
AcDbLine
 10
-10.88976707395137
 20
148.4542141872715
 30
0.0
 11
-10.88976707395128
 21
149.9542141872715
 31
0.0
  0
ENDBLK
  5
49
330
47
100
AcDbEntity
  8
0
100
AcDbBlockEnd
  0
BLOCK
  5
4C
330
4A
100
AcDbEntity
  8
0
100
AcDbBlockBegin
  2
Back1
 70
     0
 10
7.670468
 20
152.546009
 30
0.0
  3
Back1
  1

  0
INSERT
  5
4B
330
4A
100
AcDbEntity
  8
0
100
AcDbBlockReference
  2
EB_3_15_K_UK_35-select__1
 10
-10.88976707395137
 20
148.2977268443885
 30
0.0
  0
MTEXT
  5
97
330
4A
100
AcDbEntity
  8
1
 62
     6
100
AcDbMText
 10
7.48296852990472
 20
137.8999996708313
 30
0.0
 40
5.0
 41
0.0
 71
     2
 72
     1
  1
 
  7
CONVERTER_11
 73
     1
 44
1.32052821128451
  0
ENDBLK
  5
4D
330
4A
100
AcDbEntity
  8
0
100
AcDbBlockEnd
  0
BLOCK
  5
4F
330
4E
100
AcDbEntity
  8
0
100
AcDbBlockBegin
  2
EB_3_15_K_UK_35-select__2
 70
     0
 10
-130.5602346592939
 20
148.2977268443885
 30
0.0
  3
EB_3_15_K_UK_35-select__2
  1

  0
LINE
  5
98
330
4E
100
AcDbEntity
  8
0
  6
Continuous
 62
     7
100
AcDbLine
 10
-110.13724367243
 20
148.4542141872715
 30
0.0
 11
-93.4397649260487
 21
148.4542141872715
 31
0.0
  0
LINE
  5
99
330
4E
100
AcDbEntity
  8
0
  6
Continuous
 62
     7
100
AcDbLine
 10
-120.2886039607074
 20
150.2129877781471
 30
0.0
 11
-120.4180134832587
 21
149.7300248650026
 31
0.0
  0
LINE
  5
9A
330
4E
100
AcDbEntity
  8
0
  6
Continuous
 62
     7
100
AcDbLine
 10
-112.9004340460569
 20
149.1946088164183
 30
0.0
 11
-112.5122054784031
 21
150.6434975558519
 31
0.0
  0
LINE
  5
9B
330
4E
100
AcDbEntity
  8
0
  6
Continuous
 62
     7
100
AcDbLine
 10
-112.5122054784031
 20
150.6434975558519
 30
0.0
 11
-112.2348861883095
 21
151.6784672364002
 31
0.0
  0
LINE
  5
9C
330
4E
100
AcDbEntity
  8
0
  6
Continuous
 62
     7
100
AcDbLine
 10
-113.1407528461683
 20
148.2977268443885
 30
0.0
 11
-112.9004340460569
 21
149.1946088164183
 31
0.0
  0
LINE
  5
9D
330
4E
100
AcDbEntity
  8
0
  6
Continuous
 62
     7
100
AcDbLine
 10
-119.3827373028486
 20
153.5937281701589
 30
0.0
 11
-112.2348861883095
 21
151.6784672364002
 31
0.0
  0
LINE
  5
9E
330
4E
100
AcDbEntity
  8
0
  6
Continuous
 62
     7
100
AcDbLine
 10
-119.2533277802974
 20
154.0766910833034
 30
0.0
 11
-119.3827373028486
 21
153.5937281701589
 31
0.0
  0
LINE
  5
9F
330
4E
100
AcDbEntity
  8
0
  6
Continuous
 62
     7
100
AcDbLine
 10
-120.2886039607074
 20
150.2129877781471
 30
0.0
 11
-113.1407528461683
 21
148.2977268443885
 31
0.0
  0
LINE
  5
A0
330
4E
100
AcDbEntity
  8
0
  6
Continuous
 62
     7
100
AcDbLine
 10
-130.5602346592939
 20
152.4476248385791
 30
0.0
 11
-129.3955489563326
 21
156.7942910568799
 31
0.0
  0
LINE
  5
A1
330
4E
100
AcDbEntity
  8
0
  6
Continuous
 62
     7
100
AcDbLine
 10
-119.2533277802974
 20
154.0766910833034
 30
0.0
 11
-129.3955489563326
 21
156.7942910568799
 31
0.0
  0
LINE
  5
A2
330
4E
100
AcDbEntity
  8
0
  6
Continuous
 62
     7
100
AcDbLine
 10
-120.4180134832587
 20
149.7300248650026
 30
0.0
 11
-130.5602346592939
 21
152.4476248385791
 31
0.0
  0
LINE
  5
A3
330
4E
100
AcDbEntity
  8
0
  6
Continuous
 62
     7
100
AcDbLine
 10
-112.9004340460569
 20
149.1946088164183
 30
0.0
 11
-110.13724367243
 21
148.4542141872715
 31
0.0
  0
LINE
  5
A4
330
4E
100
AcDbEntity
  8
0
  6
Continuous
 62
     7
100
AcDbLine
 10
-109.9397649260488
 20
149.9542141872715
 30
0.0
 11
-112.5122054784031
 21
150.6434975558519
 31
0.0
  0
LINE
  5
A5
330
4E
100
AcDbEntity
  8
0
  6
Continuous
 62
     7
100
AcDbLine
 10
-93.43976492604877
 20
149.9542141872715
 30
0.0
 11
-109.9397649260488
 21
149.9542141872715
 31
0.0
  0
LINE
  5
A6
330
4E
100
AcDbEntity
  8
0
  6
Continuous
 62
     7
100
AcDbLine
 10
-93.43976492604877
 20
149.9542141872715
 30
0.0
 11
-93.4397649260487
 21
148.4542141872715
 31
0.0
  0
ENDBLK
  5
50
330
4E
100
AcDbEntity
  8
0
100
AcDbBlockEnd
  0
BLOCK
  5
53
330
51
100
AcDbEntity
  8
0
100
AcDbBlockBegin
  2
Front1
 70
     0
 10
-112.0000000000001
 20
152.546009
 30
0.0
  3
Front1
  1

  0
INSERT
  5
52
330
51
100
AcDbEntity
  8
0
100
AcDbBlockReference
  2
EB_3_15_K_UK_35-select__2
 10
-130.5602346592939
 20
148.2977268443885
 30
0.0
  0
MTEXT
  5
A7
330
51
100
AcDbEntity
  8
1
 62
     6
100
AcDbMText
 10
-111.81250002574
 20
137.8999996708313
 30
0.0
 40
5.0
 41
0.0
 71
     2
 72
     1
  1
 
  7
CONVERTER_11
 73
     1
 44
1.32052821128451
  0
DIMENSION
  5
B2
330
51
100
AcDbEntity
  8
1
100
AcDbDimension
  2
*D17
 10
-130.560234659294
 20
134.4749996708314
 30
0.0
 11
-111.8125000257401
 21
137.8999996708314
 31
0.0
 70
    32
  1
<>
 71
     5
 42
-1.0
 53
0.00013888888889
  3
ME10_DIM_10
100
AcDbAlignedDimension
 13
-93.4397649260487
 23
148.4542141872715
 33
0.0
 14
-130.5602346592939
 24
152.4476248385791
 34
0.0
100
AcDbRotatedDimension
  0
DIMENSION
  5
BF
330
51
100
AcDbEntity
  8
1
100
AcDbDimension
  2
*D18
 10
-139.3955489563326
 20
148.2977268443885
 30
0.0
 11
-142.8205489563326
 21
168.024026381149
 31
0.0
 70
    32
  1
<>
 71
     5
 42
-1.0
 53
90.0
  3
ME10_DIM_11
100
AcDbAlignedDimension
 13
-129.3955489563326
 23
156.7942910568799
 33
0.0
 14
-113.1407528461683
 24
148.2977268443885
 34
0.0
 50
90.0
100
AcDbRotatedDimension
  0
ENDBLK
  5
54
330
51
100
AcDbEntity
  8
0
100
AcDbBlockEnd
  0
BLOCK
  5
56
330
55
100
AcDbEntity
  8
0
100
AcDbBlockBegin
  2
EB_3_15_K_UK_35-select__3
 70
     0
 10
-50.56731112409955
 20
79.04897909175617
 30
0.0
  3
EB_3_15_K_UK_35-select__3
  1

  0
LINE
  5
C0
330
55
100
AcDbEntity
  8
0
  6
Continuous
 62
     7
100
AcDbLine
 10
-19.71525575284738
 20
108.2691614123831
 30
0.0
 11
-40.79471435066569
 21
90.12851949643598
 31
0.0
  0
LINE
  5
C1
330
55
100
AcDbEntity
  8
0
  6
Continuous
 62
     7
100
AcDbLine
 10
-18.00556160507898
 20
79.04897909175617
 30
0.0
 11
-32.42408708662889
 21
83.3722068817447
 31
0.0
  0
LINE
  5
C2
330
55
100
AcDbEntity
  8
0
  6
Continuous
 62
     7
100
AcDbLine
 10
-32.24535560278969
 20
84.61544596558441
 30
0.0
 11
-17.99735600601629
 21
80.34334838616573
 31
0.0
  0
LINE
  5
C3
330
55
100
AcDbEntity
  8
0
  6
Continuous
 62
     7
100
AcDbLine
 10
-34.74730310971039
 20
86.24188145216351
 30
0.0
 11
-28.79664254860379
 21
91.36292390690457
 31
0.0
  0
LINE
  5
C4
330
55
100
AcDbEntity
  8
0
  6
Continuous
 62
     7
100
AcDbLine
 10
-28.79664254860379
 20
91.36292390690457
 30
0.0
 11
-29.23487220915048
 21
89.89468052340251
 31
0.0
  0
LINE
  5
C5
330
55
100
AcDbEntity
  8
0
  6
Continuous
 62
     7
100
AcDbLine
 10
-29.57128157940869
 20
90.08595140099405
 30
0.0
 11
-34.46292627794549
 21
85.87628090853742
 31
0.0
  0
LINE
  5
C6
330
55
100
AcDbEntity
  8
0
  6
Continuous
 62
     7
100
AcDbLine
 10
-34.46292627794549
 20
85.87628090853742
 30
0.0
 11
-34.80609351893303
 21
84.72653437977445
 31
0.0
  0
LINE
  5
C7
330
55
100
AcDbEntity
  8
0
  6
Continuous
 62
     7
100
AcDbLine
 10
-35.54802667201466
 20
83.55913955171657
 30
0.0
 11
-34.4360139351619
 21
84.51611976881313
 31
0.0
  0
LINE
  5
C8
330
55
100
AcDbEntity
  8
0
  6
Continuous
 62
     7
100
AcDbLine
 10
-32.42408708662889
 20
83.3722068817447
 30
0.0
 11
-34.80609351893303
 21
84.72653437977445
 31
0.0
  0
LINE
  5
C9
330
55
100
AcDbEntity
  8
0
  6
Continuous
 62
     7
100
AcDbLine
 10
-27.35371090425289
 20
88.82511645804104
 30
0.0
 11
-32.24535560278969
 21
84.61544596558441
 31
0.0
  0
LINE
  5
CA
330
55
100
AcDbEntity
  8
0
  6
Continuous
 62
     7
100
AcDbLine
 10
-29.57128157940869
 20
90.08595140099405
 30
0.0
 11
-27.35371090425289
 21
88.82511645804104
 31
0.0
  0
LINE
  5
CB
330
55
100
AcDbEntity
  8
0
  6
Continuous
 62
     7
100
AcDbLine
 10
-29.00887525825509
 20
90.65186005212237
 30
0.0
 11
-27.98362765365879
 21
90.0689392823196
 31
0.0
  0
LINE
  5
CC
330
55
100
AcDbEntity
  8
0
  6
Continuous
 62
     7
100
AcDbLine
 10
-24.85968806827299
 20
89.88200661234774
 30
0.0
 11
-27.24169450057718
 21
91.23633411037748
 31
0.0
  0
LINE
  5
CD
330
55
100
AcDbEntity
  8
0
  6
Continuous
 62
     7
100
AcDbLine
 10
-27.98362765365879
 20
90.0689392823196
 30
0.0
 11
-26.87161491680608
 21
91.02591949941618
 31
0.0
  0
LINE
  5
CE
330
55
100
AcDbEntity
  8
0
  6
Continuous
 62
     7
100
AcDbLine
 10
-19.82964483317659
 20
107.8859125694621
 30
0.0
 11
-19.71525575284738
 21
108.2691614123831
 31
0.0
  0
LINE
  5
CF
330
55
100
AcDbEntity
  8
0
  6
Continuous
 62
     7
100
AcDbLine
 10
-12.22491286754119
 20
101.8447159192471
 30
0.0
 11
2.02308672923221
 21
97.57261833982844
 31
0.0
  0
LINE
  5
D0
330
55
100
AcDbEntity
  8
0
  6
Continuous
 62
     7
100
AcDbLine
 10
-14.10607417243878
 20
102.9142799846086
 30
0.0
 11
-13.66784451189209
 21
104.3825233681106
 31
0.0
  0
LINE
  5
D1
330
55
100
AcDbEntity
  8
0
  6
Continuous
 62
     7
100
AcDbLine
 10
-14.44248354269699
 20
103.1055508622001
 30
0.0
 11
-12.22491286754119
 21
101.8447159192471
 31
0.0
  0
LINE
  5
D2
330
55
100
AcDbEntity
  8
0
  6
Continuous
 62
     7
100
AcDbLine
 10
-10.4411625867232
 20
85.55877882235922
 30
0.0
 11
-24.85968806827299
 21
89.88200661234774
 31
0.0
  0
LINE
  5
D3
330
55
100
AcDbEntity
  8
0
  6
Continuous
 62
     7
100
AcDbLine
 10
-10.4411625867232
 20
85.55877882235922
 30
0.0
 11
-5.54951788818639
 21
89.76844931481584
 31
0.0
  0
LINE
  5
D4
330
55
100
AcDbEntity
  8
0
  6
Continuous
 62
     7
100
AcDbLine
 10
-10.43295698766039
 20
86.85314811676876
 30
0.0
 11
-5.54131228912358
 21
91.06281860922539
 31
0.0
  0
LINE
  5
D5
330
55
100
AcDbEntity
  8
0
  6
Continuous
 62
     7
100
AcDbLine
 10
-40.90910343099488
 20
89.74527065351499
 30
0.0
 11
-34.74730310971039
 21
86.24188145216351
 31
0.0
  0
LINE
  5
D6
330
55
100
AcDbEntity
  8
0
  6
Continuous
 62
     7
100
AcDbLine
 10
-13.11391690654229
 20
83.2586495842128
 30
0.0
 11
-13.10571130747948
 21
84.55301887862237
 31
0.0
  0
LINE
  5
D7
330
55
100
AcDbEntity
  8
0
  6
Continuous
 62
     7
100
AcDbLine
 10
-34.46292627794549
 20
85.87628090853742
 30
0.0
 11
-32.24535560278969
 21
84.61544596558441
 31
0.0
  0
LINE
  5
D8
330
55
100
AcDbEntity
  8
0
  6
Continuous
 62
     7
100
AcDbLine
 10
-41.70982699329915
 20
87.06252875306805
 30
0.0
 11
-35.54802667201466
 21
83.55913955171657
 31
0.0
  0
LINE
  5
D9
330
55
100
AcDbEntity
  8
0
  6
Continuous
 62
     7
100
AcDbLine
 10
-41.70982699329915
 20
87.06252875306805
 30
0.0
 11
-41.82421607362832
 21
86.67927991014706
 31
0.0
  0
LINE
  5
DA
330
55
100
AcDbEntity
  8
0
  6
Continuous
 62
     7
100
AcDbLine
 10
-35.54802667201466
 20
83.55913955171657
 30
0.0
 11
-34.74730310971039
 21
86.24188145216351
 31
0.0
  0
LINE
  5
DB
330
55
100
AcDbEntity
  8
0
  6
Continuous
 62
     7
100
AcDbLine
 10
-10.4411625867232
 20
85.55877882235922
 30
0.0
 11
-10.43295698766039
 21
86.85314811676876
 31
0.0
  0
LINE
  5
DC
330
55
100
AcDbEntity
  8
0
  6
Continuous
 62
     7
100
AcDbLine
 10
-27.35371090425289
 20
88.82511645804104
 30
0.0
 11
-13.10571130747948
 21
84.55301887862237
 31
0.0
  0
LINE
  5
DD
330
55
100
AcDbEntity
  8
0
  6
Continuous
 62
     7
100
AcDbLine
 10
-49.53780940113691
 20
95.09954471456984
 30
0.0
 11
-28.45835080331858
 21
113.240186630517
 31
0.0
  0
LINE
  5
DE
330
55
100
AcDbEntity
  8
0
  6
Continuous
 62
     7
100
AcDbLine
 10
-40.79471435066569
 20
90.12851949643598
 30
0.0
 11
-49.53780940113691
 21
95.09954471456984
 31
0.0
  0
LINE
  5
DF
330
55
100
AcDbEntity
  8
0
  6
Continuous
 62
     7
100
AcDbLine
 10
-40.79471435066569
 20
90.12851949643598
 30
0.0
 11
-40.90910343099488
 21
89.74527065351499
 31
0.0
  0
LINE
  5
E0
330
55
100
AcDbEntity
  8
0
  6
Continuous
 62
     7
100
AcDbLine
 10
-50.56731112409955
 20
91.65030512828092
 30
0.0
 11
-49.53780940113691
 21
95.09954471456984
 31
0.0
  0
LINE
  5
E1
330
55
100
AcDbEntity
  8
0
  6
Continuous
 62
     7
100
AcDbLine
 10
-28.45835080331858
 20
113.240186630517
 30
0.0
 11
-19.71525575284738
 21
108.2691614123831
 31
0.0
  0
LINE
  5
E2
330
55
100
AcDbEntity
  8
0
  6
Continuous
 62
     7
100
AcDbLine
 10
-19.82964483317659
 20
107.8859125694621
 30
0.0
 11
-25.78030539428319
 21
102.7648701147211
 31
0.0
  0
LINE
  5
E3
330
55
100
AcDbEntity
  8
0
  6
Continuous
 62
     7
100
AcDbLine
 10
-25.78030539428319
 20
102.7648701147211
 30
0.0
 11
-26.36879624693609
 21
100.7931920690563
 31
0.0
  0
LINE
  5
E4
330
55
100
AcDbEntity
  8
0
  6
Continuous
 62
     7
100
AcDbLine
 10
-21.23224353024789
 20
97.8727236375076
 30
0.0
 11
-21.67047319079468
 21
96.40448025400556
 31
0.0
  0
LINE
  5
E5
330
55
100
AcDbEntity
  8
0
  6
Continuous
 62
     7
100
AcDbLine
 10
-33.34470441263903
 20
96.25507038411803
 30
0.0
 11
-27.18290409135459
 21
92.75168118276655
 31
0.0
  0
LINE
  5
E6
330
55
100
AcDbEntity
  8
0
  6
Continuous
 62
     7
100
AcDbLine
 10
-33.93319526529196
 20
94.28339233845327
 30
0.0
 11
-33.34470441263903
 21
96.25507038411803
 31
0.0
  0
LINE
  5
E7
330
55
100
AcDbEntity
  8
0
  6
Continuous
 62
     7
100
AcDbLine
 10
-27.39404385153239
 20
101.3761128388591
 30
0.0
 11
-33.34470441263903
 21
96.25507038411803
 31
0.0
  0
LINE
  5
E8
330
55
100
AcDbEntity
  8
0
  6
Continuous
 62
     7
100
AcDbLine
 10
-34.95844286988827
 20
94.86631310825605
 30
0.0
 11
-28.79664254860379
 21
91.36292390690457
 31
0.0
  0
LINE
  5
E9
330
55
100
AcDbEntity
  8
0
  6
Continuous
 62
     7
100
AcDbLine
 10
-26.89852725958959
 20
92.38608063914046
 30
0.0
 11
-27.24169450057718
 21
91.23633411037748
 31
0.0
  0
LINE
  5
EA
330
55
100
AcDbEntity
  8
0
  6
Continuous
 62
     7
100
AcDbLine
 10
-27.39404385153239
 20
101.3761128388591
 30
0.0
 11
-21.23224353024789
 21
97.8727236375076
 31
0.0
  0
LINE
  5
EB
330
55
100
AcDbEntity
  8
0
  6
Continuous
 62
     7
100
AcDbLine
 10
-19.78931188589699
 20
95.33491618864407
 30
0.0
 11
-24.68095658443379
 21
91.12524569618745
 31
0.0
  0
LINE
  5
EC
330
55
100
AcDbEntity
  8
0
  6
Continuous
 62
     7
100
AcDbLine
 10
-20.41922863530299
 20
96.57873901292264
 30
0.0
 11
-21.44447623989929
 21
97.16165978272542
 31
0.0
  0
LINE
  5
ED
330
55
100
AcDbEntity
  8
0
  6
Continuous
 62
     7
100
AcDbLine
 10
-27.98362765365879
 20
90.0689392823196
 30
0.0
 11
-27.18290409135459
 21
92.75168118276655
 31
0.0
  0
LINE
  5
EE
330
55
100
AcDbEntity
  8
0
  6
Continuous
 62
     7
100
AcDbLine
 10
-22.00688256105289
 20
96.5957511315971
 30
0.0
 11
-26.89852725958959
 21
92.38608063914046
 31
0.0
  0
LINE
  5
EF
330
55
100
AcDbEntity
  8
0
  6
Continuous
 62
     7
100
AcDbLine
 10
-27.18290409135459
 20
92.75168118276655
 30
0.0
 11
-21.23224353024789
 21
97.8727236375076
 31
0.0
  0
LINE
  5
F0
330
55
100
AcDbEntity
  8
0
  6
Continuous
 62
     7
100
AcDbLine
 10
-26.89852725958959
 20
92.38608063914046
 30
0.0
 11
-24.68095658443379
 21
91.12524569618745
 31
0.0
  0
LINE
  5
F1
330
55
100
AcDbEntity
  8
0
  6
Continuous
 62
     7
100
AcDbLine
 10
-22.00688256105289
 20
96.5957511315971
 30
0.0
 11
-19.78931188589699
 21
95.33491618864407
 31
0.0
  0
LINE
  5
F2
330
55
100
AcDbEntity
  8
0
  6
Continuous
 62
     7
100
AcDbLine
 10
-19.67729548222128
 20
97.74613384098053
 30
0.0
 11
-17.29528904991719
 21
96.39180634295077
 31
0.0
  0
LINE
  5
F3
330
55
100
AcDbEntity
  8
0
  6
Continuous
 62
     7
100
AcDbLine
 10
-19.61850507299869
 20
99.26148091336958
 30
0.0
 11
-25.78030539428319
 21
102.7648701147211
 31
0.0
  0
LINE
  5
F4
330
55
100
AcDbEntity
  8
0
  6
Continuous
 62
     7
100
AcDbLine
 10
-18.00556160507898
 20
79.04897909175617
 30
0.0
 11
-13.11391690654229
 21
83.2586495842128
 31
0.0
  0
LINE
  5
F5
330
55
100
AcDbEntity
  8
0
  6
Continuous
 62
     7
100
AcDbLine
 10
-17.99735600601629
 20
80.34334838616573
 30
0.0
 11
-13.10571130747948
 21
84.55301887862237
 31
0.0
  0
LINE
  5
F6
330
55
100
AcDbEntity
  8
0
  6
Continuous
 62
     7
100
AcDbLine
 10
-18.00556160507898
 20
79.04897909175617
 30
0.0
 11
-17.99735600601629
 21
80.34334838616573
 31
0.0
  0
LINE
  5
F7
330
55
100
AcDbEntity
  8
0
  6
Continuous
 62
     7
100
AcDbLine
 10
-13.66784451189209
 20
104.3825233681106
 30
0.0
 11
-19.82964483317659
 21
107.8859125694621
 31
0.0
  0
LINE
  5
F8
330
55
100
AcDbEntity
  8
0
  6
Continuous
 62
     7
100
AcDbLine
 10
-19.78931188589699
 20
95.33491618864407
 30
0.0
 11
-5.54131228912358
 21
91.06281860922539
 31
0.0
  0
LINE
  5
F9
330
55
100
AcDbEntity
  8
0
  6
Continuous
 62
     7
100
AcDbLine
 10
-5.54951788818639
 20
89.76844931481584
 30
0.0
 11
-5.54131228912358
 21
91.06281860922539
 31
0.0
  0
LINE
  5
FA
330
55
100
AcDbEntity
  8
0
  6
Continuous
 62
     7
100
AcDbLine
 10
-17.29528904991719
 20
96.39180634295077
 30
0.0
 11
-2.87676356836738
 21
92.06857855296225
 31
0.0
  0
LINE
  5
FB
330
55
100
AcDbEntity
  8
0
  6
Continuous
 62
     7
100
AcDbLine
 10
-2.86855796930448
 20
93.3629478473718
 30
0.0
 11
-17.11655756607799
 21
97.63504542679048
 31
0.0
  0
LINE
  5
FC
330
55
100
AcDbEntity
  8
0
  6
Continuous
 62
     7
100
AcDbLine
 10
-2.86855796930448
 20
93.3629478473718
 30
0.0
 11
-2.87676356836738
 21
92.06857855296225
 31
0.0
  0
LINE
  5
FD
330
55
100
AcDbEntity
  8
0
  6
Continuous
 62
     7
100
AcDbLine
 10
2.01488113016941
 20
96.27824904541889
 30
0.0
 11
2.02308672923221
 21
97.57261833982844
 31
0.0
  0
LINE
  5
FE
330
55
100
AcDbEntity
  8
0
  6
Continuous
 62
     7
100
AcDbLine
 10
-2.87676356836738
 20
92.06857855296225
 30
0.0
 11
2.01488113016941
 21
96.27824904541889
 31
0.0
  0
LINE
  5
FF
330
55
100
AcDbEntity
  8
0
  6
Continuous
 62
     7
100
AcDbLine
 10
-2.86855796930448
 20
93.3629478473718
 30
0.0
 11
2.02308672923221
 21
97.57261833982844
 31
0.0
  0
LINE
  5
100
330
55
100
AcDbEntity
  8
0
  6
Continuous
 62
     7
100
AcDbLine
 10
-34.95844286988827
 20
94.86631310825605
 30
0.0
 11
-40.90910343099488
 21
89.74527065351499
 31
0.0
  0
LINE
  5
101
330
55
100
AcDbEntity
  8
0
  6
Continuous
 62
     7
100
AcDbLine
 10
-41.82421607362832
 20
86.67927991014706
 30
0.0
 11
-50.56731112409955
 21
91.65030512828092
 31
0.0
  0
LINE
  5
102
330
55
100
AcDbEntity
  8
0
  6
Continuous
 62
     7
100
AcDbLine
 10
-41.51054245035208
 20
86.94922236867495
 30
0.0
 11
-41.82421607362832
 21
86.67927991014706
 31
0.0
  0
LINE
  5
103
330
55
100
AcDbEntity
  8
0
  6
Continuous
 62
     7
100
AcDbLine
 10
-24.68095658443379
 20
91.12524569618745
 30
0.0
 11
-10.43295698766039
 21
86.85314811676876
 31
0.0
  0
LINE
  5
104
330
55
100
AcDbEntity
  8
0
  6
Continuous
 62
     7
100
AcDbLine
 10
-17.11655756607799
 20
97.63504542679048
 30
0.0
 11
-12.22491286754119
 21
101.8447159192471
 31
0.0
  0
LINE
  5
105
330
55
100
AcDbEntity
  8
0
  6
Continuous
 62
     7
100
AcDbLine
 10
-14.44248354269699
 20
103.1055508622001
 30
0.0
 11
-19.33412824123379
 21
98.89588036974351
 31
0.0
  0
LINE
  5
106
330
55
100
AcDbEntity
  8
0
  6
Continuous
 62
     7
100
AcDbLine
 10
-19.61850507299869
 20
99.26148091336958
 30
0.0
 11
-13.66784451189209
 21
104.3825233681106
 31
0.0
  0
LINE
  5
107
330
55
100
AcDbEntity
  8
0
  6
Continuous
 62
     7
100
AcDbLine
 10
-19.67729548222128
 20
97.74613384098053
 30
0.0
 11
-19.33412824123379
 21
98.89588036974351
 31
0.0
  0
LINE
  5
108
330
55
100
AcDbEntity
  8
0
  6
Continuous
 62
     7
100
AcDbLine
 10
-17.11655756607799
 20
97.63504542679048
 30
0.0
 11
-19.33412824123379
 21
98.89588036974351
 31
0.0
  0
LINE
  5
109
330
55
100
AcDbEntity
  8
0
  6
Continuous
 62
     7
100
AcDbLine
 10
-20.41922863530299
 20
96.57873901292264
 30
0.0
 11
-19.30721589845018
 21
97.5357192300192
 31
0.0
  0
LINE
  5
10A
330
55
100
AcDbEntity
  8
0
  6
Continuous
 62
     7
100
AcDbLine
 10
-20.41922863530299
 20
96.57873901292264
 30
0.0
 11
-19.61850507299869
 21
99.26148091336958
 31
0.0
  0
ENDBLK
  5
57
330
55
100
AcDbEntity
  8
0
100
AcDbBlockEnd
  0
BLOCK
  5
5A
330
58
100
AcDbEntity
  8
0
100
AcDbBlockBegin
  2
Gen1
 70
     0
 10
-23.99999999999879
 20
96.0
 30
0.0
  3
Gen1
  1

  0
INSERT
  5
59
330
58
100
AcDbEntity
  8
0
100
AcDbBlockReference
  2
EB_3_15_K_UK_35-select__3
 10
-50.56731112409955
 20
79.04897909175617
 30
0.0
  0
MTEXT
  5
10B
330
58
100
AcDbEntity
  8
1
 62
     6
100
AcDbMText
 10
-23.8457239479701
 20
69.18582005569442
 30
0.0
 40
5.0
 41
0.0
 71
     2
 72
     1
  1
 
  7
CONVERTER_11
 73
     1
 44
1.32052821128451
  0
ENDBLK
  5
5B
330
58
100
AcDbEntity
  8
0
100
AcDbBlockEnd
  0
BLOCK
  5
5D
330
5C
100
AcDbEntity
  8
0
100
AcDbBlockBegin
  2
EB_3_15_K_UK_35-select__4
 70
     0
 10
-73.06476553571777
 20
148.2977268443885
 30
0.0
  3
EB_3_15_K_UK_35-select__4
  1

  0
LINE
  5
10C
330
5C
100
AcDbEntity
  8
0
  6
Continuous
 62
     7
100
AcDbLine
 10
-31.2647655357178
 20
152.4476248385791
 30
0.0
 11
-73.06476553571777
 21
152.4476248385791
 31
0.0
  0
LINE
  5
10D
330
5C
100
AcDbEntity
  8
0
  6
Continuous
 62
     7
100
AcDbLine
 10
-46.26476553571779
 20
148.2977268443885
 30
0.0
 11
-58.06476553571778
 21
148.2977268443885
 31
0.0
  0
LINE
  5
10E
330
5C
100
AcDbEntity
  8
0
  6
Continuous
 62
     7
100
AcDbLine
 10
-31.2647655357178
 20
148.2977268443885
 30
0.0
 11
-43.06476553571778
 21
148.2977268443885
 31
0.0
  0
LINE
  5
10F
330
5C
100
AcDbEntity
  8
0
  6
Continuous
 62
     7
100
AcDbLine
 10
-61.26476553571776
 20
148.2977268443885
 30
0.0
 11
-73.06476553571777
 21
148.2977268443885
 31
0.0
  0
LINE
  5
110
330
5C
100
AcDbEntity
  8
0
  6
Continuous
 62
     7
100
AcDbLine
 10
-73.06476553571777
 20
149.7300248650026
 30
0.0
 11
-31.2647655357178
 21
149.7300248650026
 31
0.0
  0
LINE
  5
111
330
5C
100
AcDbEntity
  8
0
  6
Continuous
 62
     7
100
AcDbLine
 10
-46.26476553571779
 20
149.7300248650026
 30
0.0
 11
-46.26476553571779
 21
148.2977268443885
 31
0.0
  0
LINE
  5
112
330
5C
100
AcDbEntity
  8
0
  6
Continuous
 62
     7
100
AcDbLine
 10
-43.06476553571778
 20
149.7300248650026
 30
0.0
 11
-43.06476553571778
 21
148.2977268443885
 31
0.0
  0
LINE
  5
113
330
5C
100
AcDbEntity
  8
0
  6
Continuous
 62
     7
100
AcDbLine
 10
-31.2647655357178
 20
149.7300248650026
 30
0.0
 11
-31.2647655357178
 21
148.2977268443885
 31
0.0
  0
LINE
  5
114
330
5C
100
AcDbEntity
  8
0
  6
Continuous
 62
     7
100
AcDbLine
 10
-31.2647655357178
 20
149.7300248650026
 30
0.0
 11
-31.2647655357178
 21
152.4476248385791
 31
0.0
  0
LINE
  5
115
330
5C
100
AcDbEntity
  8
0
  6
Continuous
 62
     7
100
AcDbLine
 10
-61.26476553571776
 20
148.2977268443885
 30
0.0
 11
-61.26476553571777
 21
149.7300248650026
 31
0.0
  0
LINE
  5
116
330
5C
100
AcDbEntity
  8
0
  6
Continuous
 62
     7
100
AcDbLine
 10
-73.06476553571777
 20
148.2977268443885
 30
0.0
 11
-73.06476553571777
 21
149.7300248650026
 31
0.0
  0
LINE
  5
117
330
5C
100
AcDbEntity
  8
0
  6
Continuous
 62
     7
100
AcDbLine
 10
-31.2647655357178
 20
156.7942910568799
 30
0.0
 11
-73.06476553571777
 21
156.7942910568799
 31
0.0
  0
LINE
  5
118
330
5C
100
AcDbEntity
  8
0
  6
Continuous
 62
     7
100
AcDbLine
 10
-73.06476553571777
 20
152.4476248385791
 30
0.0
 11
-73.06476553571777
 21
149.7300248650026
 31
0.0
  0
LINE
  5
119
330
5C
100
AcDbEntity
  8
0
  6
Continuous
 62
     7
100
AcDbLine
 10
-73.06476553571777
 20
152.4476248385791
 30
0.0
 11
-73.06476553571777
 21
156.7942910568799
 31
0.0
  0
LINE
  5
11A
330
5C
100
AcDbEntity
  8
0
  6
Continuous
 62
     7
100
AcDbLine
 10
-31.2647655357178
 20
152.4476248385791
 30
0.0
 11
-31.2647655357178
 21
156.7942910568799
 31
0.0
  0
LINE
  5
11B
330
5C
100
AcDbEntity
  8
0
  6
Continuous
 62
     7
100
AcDbLine
 10
-58.06476553571778
 20
149.7300248650026
 30
0.0
 11
-58.06476553571778
 21
148.2977268443885
 31
0.0
  0
ENDBLK
  5
5E
330
5C
100
AcDbEntity
  8
0
100
AcDbBlockEnd
  0
BLOCK
  5
61
330
5F
100
AcDbEntity
  8
0
100
AcDbBlockBegin
  2
Left1
 70
     0
 10
-52.16476599999939
 20
152.546009
 30
0.0
  3
Left1
  1

  0
INSERT
  5
60
330
5F
100
AcDbEntity
  8
0
100
AcDbBlockReference
  2
EB_3_15_K_UK_35-select__4
 10
-73.06476553571777
 20
148.2977268443885
 30
0.0
  0
MTEXT
  5
11C
330
5F
100
AcDbEntity
  8
1
 62
     6
100
AcDbMText
 10
-52.16476574792455
 20
137.8999996708313
 30
0.0
 40
5.0
 41
0.0
 71
     2
 72
     1
  1
 
  7
CONVERTER_11
 73
     1
 44
1.32052821128451
  0
ENDBLK
  5
62
330
5F
100
AcDbEntity
  8
0
100
AcDbBlockEnd
  0
BLOCK
  5
64
330
63
100
AcDbEntity
  8
0
100
AcDbBlockBegin
  2
EB_3_15_K_UK_35-select__5
 70
     0
 10
-215.3602344642815
 20
148.2977268443885
 30
0.0
  3
EB_3_15_K_UK_35-select__5
  1

  0
LINE
  5
11D
330
63
100
AcDbEntity
  8
0
  6
Continuous
 62
     7
100
AcDbLine
 10
-215.3602344642815
 20
156.7942910568799
 30
0.0
 11
-173.5602344642815
 21
156.7942910568799
 31
0.0
  0
LINE
  5
11E
330
63
100
AcDbEntity
  8
0
  6
Continuous
 62
     7
100
AcDbLine
 10
-200.3602344642816
 20
148.2977268443885
 30
0.0
 11
-188.5602344642815
 21
148.2977268443885
 31
0.0
  0
LINE
  5
11F
330
63
100
AcDbEntity
  8
0
  6
Continuous
 62
     7
100
AcDbLine
 10
-200.3602344642816
 20
151.6784672364002
 30
0.0
 11
-188.5602344642815
 21
151.6784672364002
 31
0.0
  0
LINE
  5
120
330
63
100
AcDbEntity
  8
0
  6
Continuous
 62
     7
100
AcDbLine
 10
-184.3102344642815
 20
149.9542141872715
 30
0.0
 11
-184.3102344642815
 21
148.4542141872715
 31
0.0
  0
LINE
  5
121
330
63
100
AcDbEntity
  8
0
  6
Continuous
 62
     7
100
AcDbLine
 10
-185.3602344642816
 20
148.2977268443885
 30
0.0
 11
-185.3602344642816
 21
151.6784672364002
 31
0.0
  0
LINE
  5
122
330
63
100
AcDbEntity
  8
0
  6
Continuous
 62
     7
100
AcDbLine
 10
-184.3102344642815
 20
149.9542141872715
 30
0.0
 11
-184.3102344642815
 21
150.6434975558519
 31
0.0
  0
LINE
  5
123
330
63
100
AcDbEntity
  8
0
  6
Continuous
 62
     7
100
AcDbLine
 10
-199.3102344642815
 20
150.6434975558519
 30
0.0
 11
-199.3102344642815
 21
149.9542141872715
 31
0.0
  0
LINE
  5
124
330
63
100
AcDbEntity
  8
0
  6
Continuous
 62
     7
100
AcDbLine
 10
-199.3102344642815
 20
148.4542141872715
 30
0.0
 11
-199.3102344642815
 21
149.9542141872715
 31
0.0
  0
LINE
  5
125
330
63
100
AcDbEntity
  8
0
  6
Continuous
 62
     7
100
AcDbLine
 10
-199.3102344642815
 20
148.4542141872715
 30
0.0
 11
-189.6102344642816
 21
148.4542141872715
 31
0.0
  0
LINE
  5
126
330
63
100
AcDbEntity
  8
0
  6
Continuous
 62
     7
100
AcDbLine
 10
-199.3102344642815
 20
149.9542141872715
 30
0.0
 11
-189.6102344642816
 21
149.9542141872715
 31
0.0
  0
LINE
  5
127
330
63
100
AcDbEntity
  8
0
  6
Continuous
 62
     7
100
AcDbLine
 10
-203.5602344642815
 20
151.6784672364002
 30
0.0
 11
-203.5602344642815
 21
148.2977268443885
 31
0.0
  0
LINE
  5
128
330
63
100
AcDbEntity
  8
0
  6
Continuous
 62
     7
100
AcDbLine
 10
-185.3602344642816
 20
149.7300248650026
 30
0.0
 11
-188.5602344642815
 21
149.7300248650026
 31
0.0
  0
LINE
  5
129
330
63
100
AcDbEntity
  8
0
  6
Continuous
 62
     7
100
AcDbLine
 10
-200.3602344642816
 20
149.7300248650026
 30
0.0
 11
-203.5602344642815
 21
149.7300248650026
 31
0.0
  0
LINE
  5
12A
330
63
100
AcDbEntity
  8
0
  6
Continuous
 62
     7
100
AcDbLine
 10
-200.3602344642816
 20
148.2977268443885
 30
0.0
 11
-200.3602344642816
 21
151.6784672364002
 31
0.0
  0
LINE
  5
12B
330
63
100
AcDbEntity
  8
0
  6
Continuous
 62
     7
100
AcDbLine
 10
-189.6102344642816
 20
150.6434975558519
 30
0.0
 11
-199.3102344642815
 21
150.6434975558519
 31
0.0
  0
LINE
  5
12C
330
63
100
AcDbEntity
  8
0
  6
Continuous
 62
     7
100
AcDbLine
 10
-188.5602344642815
 20
151.6784672364002
 30
0.0
 11
-188.5602344642815
 21
148.2977268443885
 31
0.0
  0
LINE
  5
12D
330
63
100
AcDbEntity
  8
0
  6
Continuous
 62
     7
100
AcDbLine
 10
-189.6102344642816
 20
150.6434975558519
 30
0.0
 11
-189.6102344642816
 21
149.9542141872715
 31
0.0
  0
LINE
  5
12E
330
63
100
AcDbEntity
  8
0
  6
Continuous
 62
     7
100
AcDbLine
 10
-189.6102344642816
 20
148.4542141872715
 30
0.0
 11
-189.6102344642816
 21
149.9542141872715
 31
0.0
  0
LINE
  5
12F
330
63
100
AcDbEntity
  8
0
  6
Continuous
 62
     7
100
AcDbLine
 10
-215.3602344642815
 20
148.2977268443885
 30
0.0
 11
-215.3602344642815
 21
151.6784672364002
 31
0.0
  0
LINE
  5
130
330
63
100
AcDbEntity
  8
0
  6
Continuous
 62
     7
100
AcDbLine
 10
-204.6102344642815
 20
148.4542141872715
 30
0.0
 11
-204.6102344642815
 21
149.9542141872715
 31
0.0
  0
LINE
  5
131
330
63
100
AcDbEntity
  8
0
  6
Continuous
 62
     7
100
AcDbLine
 10
-214.3102344642815
 20
149.9542141872715
 30
0.0
 11
-204.6102344642815
 21
149.9542141872715
 31
0.0
  0
LINE
  5
132
330
63
100
AcDbEntity
  8
0
  6
Continuous
 62
     7
100
AcDbLine
 10
-214.3102344642815
 20
148.4542141872715
 30
0.0
 11
-214.3102344642815
 21
149.9542141872715
 31
0.0
  0
LINE
  5
133
330
63
100
AcDbEntity
  8
0
  6
Continuous
 62
     7
100
AcDbLine
 10
-214.3102344642815
 20
148.4542141872715
 30
0.0
 11
-204.6102344642815
 21
148.4542141872715
 31
0.0
  0
LINE
  5
134
330
63
100
AcDbEntity
  8
0
  6
Continuous
 62
     7
100
AcDbLine
 10
-214.3102344642815
 20
150.6434975558519
 30
0.0
 11
-214.3102344642815
 21
149.9542141872715
 31
0.0
  0
LINE
  5
135
330
63
100
AcDbEntity
  8
0
  6
Continuous
 62
     7
100
AcDbLine
 10
-204.6102344642815
 20
150.6434975558519
 30
0.0
 11
-204.6102344642815
 21
149.9542141872715
 31
0.0
  0
LINE
  5
136
330
63
100
AcDbEntity
  8
0
  6
Continuous
 62
     7
100
AcDbLine
 10
-215.3602344642815
 20
148.2977268443885
 30
0.0
 11
-203.5602344642815
 21
148.2977268443885
 31
0.0
  0
LINE
  5
137
330
63
100
AcDbEntity
  8
0
  6
Continuous
 62
     7
100
AcDbLine
 10
-185.3602344642816
 20
148.2977268443885
 30
0.0
 11
-173.5602344642815
 21
148.2977268443885
 31
0.0
  0
LINE
  5
138
330
63
100
AcDbEntity
  8
0
  6
Continuous
 62
     7
100
AcDbLine
 10
-184.3102344642815
 20
148.4542141872715
 30
0.0
 11
-174.6102344642815
 21
148.4542141872715
 31
0.0
  0
LINE
  5
139
330
63
100
AcDbEntity
  8
0
  6
Continuous
 62
     7
100
AcDbLine
 10
-173.5602344642815
 20
156.7942910568799
 30
0.0
 11
-173.5602344642815
 21
154.0766910833034
 31
0.0
  0
LINE
  5
13A
330
63
100
AcDbEntity
  8
0
  6
Continuous
 62
     7
100
AcDbLine
 10
-173.5602344642815
 20
151.6784672364002
 30
0.0
 11
-173.5602344642815
 21
153.5937281701589
 31
0.0
  0
LINE
  5
13B
330
63
100
AcDbEntity
  8
0
  6
Continuous
 62
     7
100
AcDbLine
 10
-173.5602344642815
 20
153.5937281701589
 30
0.0
 11
-173.5602344642815
 21
154.0766910833034
 31
0.0
  0
LINE
  5
13C
330
63
100
AcDbEntity
  8
0
  6
Continuous
 62
     7
100
AcDbLine
 10
-188.5602344642815
 20
153.5937281701589
 30
0.0
 11
-200.3602344642816
 21
153.5937281701589
 31
0.0
  0
LINE
  5
13D
330
63
100
AcDbEntity
  8
0
  6
Continuous
 62
     7
100
AcDbLine
 10
-173.5602344642815
 20
154.0766910833034
 30
0.0
 11
-215.3602344642815
 21
154.0766910833034
 31
0.0
  0
LINE
  5
13E
330
63
100
AcDbEntity
  8
0
  6
Continuous
 62
     7
100
AcDbLine
 10
-173.5602344642815
 20
153.5937281701589
 30
0.0
 11
-185.3602344642816
 21
153.5937281701589
 31
0.0
  0
LINE
  5
13F
330
63
100
AcDbEntity
  8
0
  6
Continuous
 62
     7
100
AcDbLine
 10
-215.3602344642815
 20
154.0766910833034
 30
0.0
 11
-215.3602344642815
 21
156.7942910568799
 31
0.0
  0
LINE
  5
140
330
63
100
AcDbEntity
  8
0
  6
Continuous
 62
     7
100
AcDbLine
 10
-174.6102344642815
 20
150.6434975558519
 30
0.0
 11
-174.6102344642815
 21
149.9542141872715
 31
0.0
  0
LINE
  5
141
330
63
100
AcDbEntity
  8
0
  6
Continuous
 62
     7
100
AcDbLine
 10
-174.6102344642815
 20
148.4542141872715
 30
0.0
 11
-174.6102344642815
 21
149.9542141872715
 31
0.0
  0
LINE
  5
142
330
63
100
AcDbEntity
  8
0
  6
Continuous
 62
     7
100
AcDbLine
 10
-215.3602344642815
 20
151.6784672364002
 30
0.0
 11
-203.5602344642815
 21
151.6784672364002
 31
0.0
  0
LINE
  5
143
330
63
100
AcDbEntity
  8
0
  6
Continuous
 62
     7
100
AcDbLine
 10
-185.3602344642816
 20
151.6784672364002
 30
0.0
 11
-173.5602344642815
 21
151.6784672364002
 31
0.0
  0
LINE
  5
144
330
63
100
AcDbEntity
  8
0
  6
Continuous
 62
     7
100
AcDbLine
 10
-173.5602344642815
 20
148.2977268443885
 30
0.0
 11
-173.5602344642815
 21
151.6784672364002
 31
0.0
  0
LINE
  5
145
330
63
100
AcDbEntity
  8
0
  6
Continuous
 62
     7
100
AcDbLine
 10
-184.3102344642815
 20
149.9542141872715
 30
0.0
 11
-174.6102344642815
 21
149.9542141872715
 31
0.0
  0
LINE
  5
146
330
63
100
AcDbEntity
  8
0
  6
Continuous
 62
     7
100
AcDbLine
 10
-204.6102344642815
 20
150.6434975558519
 30
0.0
 11
-214.3102344642815
 21
150.6434975558519
 31
0.0
  0
LINE
  5
147
330
63
100
AcDbEntity
  8
0
  6
Continuous
 62
     7
100
AcDbLine
 10
-174.6102344642815
 20
150.6434975558519
 30
0.0
 11
-184.3102344642815
 21
150.6434975558519
 31
0.0
  0
LINE
  5
148
330
63
100
AcDbEntity
  8
0
  6
Continuous
 62
     7
100
AcDbLine
 10
-200.3602344642816
 20
153.5937281701589
 30
0.0
 11
-200.3602344642816
 21
151.6784672364002
 31
0.0
  0
LINE
  5
149
330
63
100
AcDbEntity
  8
0
  6
Continuous
 62
     7
100
AcDbLine
 10
-215.3602344642815
 20
153.5937281701589
 30
0.0
 11
-215.3602344642815
 21
151.6784672364002
 31
0.0
  0
LINE
  5
14A
330
63
100
AcDbEntity
  8
0
  6
Continuous
 62
     7
100
AcDbLine
 10
-203.5602344642815
 20
153.5937281701589
 30
0.0
 11
-215.3602344642815
 21
153.5937281701589
 31
0.0
  0
LINE
  5
14B
330
63
100
AcDbEntity
  8
0
  6
Continuous
 62
     7
100
AcDbLine
 10
-185.3602344642816
 20
151.6784672364002
 30
0.0
 11
-185.3602344642816
 21
153.5937281701589
 31
0.0
  0
LINE
  5
14C
330
63
100
AcDbEntity
  8
0
  6
Continuous
 62
     7
100
AcDbLine
 10
-188.5602344642815
 20
153.5937281701589
 30
0.0
 11
-188.5602344642815
 21
151.6784672364002
 31
0.0
  0
LINE
  5
14D
330
63
100
AcDbEntity
  8
0
  6
Continuous
 62
     7
100
AcDbLine
 10
-203.5602344642815
 20
153.5937281701589
 30
0.0
 11
-203.5602344642815
 21
151.6784672364002
 31
0.0
  0
LINE
  5
14E
330
63
100
AcDbEntity
  8
0
  6
Continuous
 62
     7
100
AcDbLine
 10
-215.3602344642815
 20
154.0766910833034
 30
0.0
 11
-215.3602344642815
 21
153.5937281701589
 31
0.0
  0
ENDBLK
  5
65
330
63
100
AcDbEntity
  8
0
100
AcDbBlockEnd
  0
BLOCK
  5
68
330
66
100
AcDbEntity
  8
0
100
AcDbBlockBegin
  2
Right1
 70
     0
 10
-194.4602339999999
 20
152.546009
 30
0.0
  3
Right1
  1

  0
INSERT
  5
67
330
66
100
AcDbEntity
  8
0
100
AcDbBlockReference
  2
EB_3_15_K_UK_35-select__5
 10
-215.3602344642815
 20
148.2977268443885
 30
0.0
  0
MTEXT
  5
14F
330
66
100
AcDbEntity
  8
1
 62
     6
100
AcDbMText
 10
-194.4602342520702
 20
137.8999996708313
 30
0.0
 40
5.0
 41
0.0
 71
     2
 72
     1
  1
 
  7
CONVERTER_11
 73
     1
 44
1.32052821128451
  0
ENDBLK
  5
69
330
66
100
AcDbEntity
  8
0
100
AcDbBlockEnd
  0
BLOCK
  5
6B
330
6A
100
AcDbEntity
  8
0
100
AcDbBlockBegin
  2
EB_3_15_K_UK_35-select__6
 70
     0
 10
-130.5602346592939
 20
71.09999953571838
 30
0.0
  3
EB_3_15_K_UK_35-select__6
  1

  0
LINE
  5
150
330
6A
100
AcDbEntity
  8
0
  6
Continuous
 62
     7
100
AcDbLine
 10
-129.3955489563325
 20
71.09999953571838
 30
0.0
 11
-129.3955489563325
 21
112.8999995357184
 31
0.0
  0
LINE
  5
151
330
6A
100
AcDbEntity
  8
0
  6
Continuous
 62
     7
100
AcDbLine
 10
-112.2348861883095
 20
86.09999953571837
 30
0.0
 11
-112.2348861883095
 21
97.89999953571836
 31
0.0
  0
LINE
  5
152
330
6A
100
AcDbEntity
  8
0
  6
Continuous
 62
     7
100
AcDbLine
 10
-112.2348861883095
 20
101.0999995357184
 30
0.0
 11
-119.2533277802973
 21
101.0999995357184
 31
0.0
  0
LINE
  5
153
330
6A
100
AcDbEntity
  8
0
  6
Continuous
 62
     7
100
AcDbLine
 10
-119.2533277802973
 20
82.89999953571836
 30
0.0
 11
-112.2348861883095
 21
82.89999953571836
 31
0.0
  0
LINE
  5
154
330
6A
100
AcDbEntity
  8
0
  6
Continuous
 62
     7
100
AcDbLine
 10
-119.2533277802973
 20
86.09999953571837
 30
0.0
 11
-112.2348861883095
 21
86.09999953571837
 31
0.0
  0
LINE
  5
155
330
6A
100
AcDbEntity
  8
0
  6
Continuous
 62
     7
100
AcDbLine
 10
-119.2533277802973
 20
97.89999953571836
 30
0.0
 11
-112.2348861883095
 21
97.89999953571836
 31
0.0
  0
LINE
  5
156
330
6A
100
AcDbEntity
  8
0
  6
Continuous
 62
     7
100
AcDbLine
 10
-112.2348861883095
 20
112.8999995357184
 30
0.0
 11
-119.2533277802973
 21
112.8999995357184
 31
0.0
  0
LINE
  5
157
330
6A
100
AcDbEntity
  8
0
  6
Continuous
 62
     7
100
AcDbLine
 10
-109.9397649260488
 20
72.1499995357184
 30
0.0
 11
-93.43976492604872
 21
72.1499995357184
 31
0.0
  0
LINE
  5
158
330
6A
100
AcDbEntity
  8
0
  6
Continuous
 62
     7
100
AcDbLine
 10
-112.2348861883095
 20
72.1499995357184
 30
0.0
 11
-109.9397649260488
 21
72.1499995357184
 31
0.0
  0
LINE
  5
159
330
6A
100
AcDbEntity
  8
0
  6
Continuous
 62
     7
100
AcDbLine
 10
-119.2533277802973
 20
71.09999953571838
 30
0.0
 11
-112.2348861883095
 21
71.09999953571838
 31
0.0
  0
LINE
  5
15A
330
6A
100
AcDbEntity
  8
0
  6
Continuous
 62
     7
100
AcDbLine
 10
-119.2533277802973
 20
71.09999953571838
 30
0.0
 11
-129.3955489563325
 21
71.09999953571838
 31
0.0
  0
LINE
  5
15B
330
6A
100
AcDbEntity
  8
0
  6
Continuous
 62
     7
100
AcDbLine
 10
-93.43976492604872
 20
72.1499995357184
 30
0.0
 11
-93.43976492604872
 21
81.84999953571838
 31
0.0
  0
LINE
  5
15C
330
6A
100
AcDbEntity
  8
0
  6
Continuous
 62
     7
100
AcDbLine
 10
-93.43976492604872
 20
102.1499995357184
 30
0.0
 11
-93.43976492604872
 21
111.8499995357184
 31
0.0
  0
LINE
  5
15D
330
6A
100
AcDbEntity
  8
0
  6
Continuous
 62
     7
100
AcDbLine
 10
-93.43976492604872
 20
87.14999953571836
 30
0.0
 11
-93.43976492604872
 21
96.84999953571837
 31
0.0
  0
LINE
  5
15E
330
6A
100
AcDbEntity
  8
0
  6
Continuous
 62
     7
100
AcDbLine
 10
-109.9397649260488
 20
96.84999953571837
 30
0.0
 11
-93.43976492604872
 21
96.84999953571837
 31
0.0
  0
LINE
  5
15F
330
6A
100
AcDbEntity
  8
0
  6
Continuous
 62
     7
100
AcDbLine
 10
-93.43976492604872
 20
102.1499995357184
 30
0.0
 11
-109.9397649260488
 21
102.1499995357184
 31
0.0
  0
LINE
  5
160
330
6A
100
AcDbEntity
  8
0
  6
Continuous
 62
     7
100
AcDbLine
 10
-109.9397649260488
 20
81.84999953571838
 30
0.0
 11
-93.43976492604872
 21
81.84999953571838
 31
0.0
  0
LINE
  5
161
330
6A
100
AcDbEntity
  8
0
  6
Continuous
 62
     7
100
AcDbLine
 10
-109.9397649260488
 20
96.84999953571837
 30
0.0
 11
-109.9397649260488
 21
87.14999953571836
 31
0.0
  0
LINE
  5
162
330
6A
100
AcDbEntity
  8
0
  6
Continuous
 62
     7
100
AcDbLine
 10
-109.9397649260488
 20
87.14999953571836
 30
0.0
 11
-93.43976492604872
 21
87.14999953571836
 31
0.0
  0
LINE
  5
163
330
6A
100
AcDbEntity
  8
0
  6
Continuous
 62
     7
100
AcDbLine
 10
-112.2348861883095
 20
87.14999953571836
 30
0.0
 11
-109.9397649260488
 21
87.14999953571836
 31
0.0
  0
LINE
  5
164
330
6A
100
AcDbEntity
  8
0
  6
Continuous
 62
     7
100
AcDbLine
 10
-109.9397649260488
 20
102.1499995357184
 30
0.0
 11
-112.2348861883095
 21
102.1499995357184
 31
0.0
  0
LINE
  5
165
330
6A
100
AcDbEntity
  8
0
  6
Continuous
 62
     7
100
AcDbLine
 10
-112.2348861883095
 20
81.84999953571838
 30
0.0
 11
-109.9397649260488
 21
81.84999953571838
 31
0.0
  0
LINE
  5
166
330
6A
100
AcDbEntity
  8
0
  6
Continuous
 62
     7
100
AcDbLine
 10
-112.2348861883095
 20
96.84999953571837
 30
0.0
 11
-109.9397649260488
 21
96.84999953571837
 31
0.0
  0
LINE
  5
167
330
6A
100
AcDbEntity
  8
0
  6
Continuous
 62
     7
100
AcDbLine
 10
-109.9397649260488
 20
81.84999953571838
 30
0.0
 11
-109.9397649260488
 21
72.1499995357184
 31
0.0
  0
LINE
  5
168
330
6A
100
AcDbEntity
  8
0
  6
Continuous
 62
     7
100
AcDbLine
 10
-109.9397649260488
 20
102.1499995357184
 30
0.0
 11
-109.9397649260488
 21
111.8499995357184
 31
0.0
  0
LINE
  5
169
330
6A
100
AcDbEntity
  8
0
  6
Continuous
 62
     7
100
AcDbLine
 10
-109.9397649260488
 20
111.8499995357184
 30
0.0
 11
-93.43976492604872
 21
111.8499995357184
 31
0.0
  0
LINE
  5
16A
330
6A
100
AcDbEntity
  8
0
  6
Continuous
 62
     7
100
AcDbLine
 10
-112.2348861883095
 20
111.8499995357184
 30
0.0
 11
-109.9397649260488
 21
111.8499995357184
 31
0.0
  0
LINE
  5
16B
330
6A
100
AcDbEntity
  8
0
  6
Continuous
 62
     7
100
AcDbLine
 10
-119.2533277802973
 20
112.8999995357184
 30
0.0
 11
-119.2533277802973
 21
71.09999953571838
 31
0.0
  0
LINE
  5
16C
330
6A
100
AcDbEntity
  8
0
  6
Continuous
 62
     7
100
AcDbLine
 10
-112.2348861883095
 20
101.0999995357184
 30
0.0
 11
-112.2348861883095
 21
112.8999995357184
 31
0.0
  0
LINE
  5
16D
330
6A
100
AcDbEntity
  8
0
  6
Continuous
 62
     7
100
AcDbLine
 10
-112.2348861883095
 20
71.09999953571838
 30
0.0
 11
-112.2348861883095
 21
82.89999953571836
 31
0.0
  0
LINE
  5
16E
330
6A
100
AcDbEntity
  8
0
  6
Continuous
 62
     7
100
AcDbLine
 10
-130.5602346592939
 20
71.09999953571838
 30
0.0
 11
-130.5602346592939
 21
112.8999995357184
 31
0.0
  0
LINE
  5
16F
330
6A
100
AcDbEntity
  8
0
  6
Continuous
 62
     7
100
AcDbLine
 10
-130.5602346592939
 20
112.8999995357184
 30
0.0
 11
-129.3955489563325
 21
112.8999995357184
 31
0.0
  0
LINE
  5
170
330
6A
100
AcDbEntity
  8
0
  6
Continuous
 62
     7
100
AcDbLine
 10
-129.3955489563325
 20
112.8999995357184
 30
0.0
 11
-119.2533277802973
 21
112.8999995357184
 31
0.0
  0
LINE
  5
171
330
6A
100
AcDbEntity
  8
0
  6
Continuous
 62
     7
100
AcDbLine
 10
-130.5602346592939
 20
71.09999953571838
 30
0.0
 11
-129.3955489563325
 21
71.09999953571838
 31
0.0
  0
ENDBLK
  5
6C
330
6A
100
AcDbEntity
  8
0
100
AcDbBlockEnd
  0
BLOCK
  5
6F
330
6D
100
AcDbEntity
  8
0
100
AcDbBlockBegin
  2
Top1
 70
     0
 10
-112.0
 20
92.0
 30
0.0
  3
Top1
  1

  0
INSERT
  5
6E
330
6D
100
AcDbEntity
  8
0
100
AcDbBlockReference
  2
EB_3_15_K_UK_35-select__6
 10
-130.5602346592939
 20
71.09999953571838
 30
0.0
  0
MTEXT
  5
172
330
6D
100
AcDbEntity
  8
1
 62
     6
100
AcDbMText
 10
-111.81250002574
 20
66.10000038147973
 30
0.0
 40
5.0
 41
0.0
 71
     2
 72
     1
  1
 
  7
CONVERTER_11
 73
     1
 44
1.32052821128451
  0
DIMENSION
  5
17D
330
6D
100
AcDbEntity
  8
1
100
AcDbDimension
  2
*D19
 10
-139.979502418669
 20
71.09999953571838
 30
0.0
 11
-143.404502418669
 21
92.02889422987387
 31
0.0
 70
    32
  1
<>
 71
     5
 42
-1.0
 53
90.0
  3
ME10_DIM_12
100
AcDbAlignedDimension
 13
-119.2533277802973
 23
112.8999995357184
 33
0.0
 14
-119.2533277802973
 24
71.09999953571838
 34
0.0
 50
90.0
100
AcDbRotatedDimension
  0
ENDBLK
  5
70
330
6D
100
AcDbEntity
  8
0
100
AcDbBlockEnd
  0
BLOCK
  5
72
330
71
100
AcDbEntity
  8
0
100
AcDbBlockBegin
  2
_rahmen
 70
     0
 10
53.28289428630897
 20
3.43613650703946
 30
0.0
  3
_rahmen
  1

  0
LINE
  5
17E
330
71
100
AcDbEntity
  8
1
  6
DOT_CENTER
 62
     2
100
AcDbLine
 10
-72.27525535387844
 20
29.56113650703949
 30
0.0
 11
-66.77525535387844
 21
29.56113650703949
 31
0.0
  0
LINE
  5
17F
330
71
100
AcDbEntity
  8
1
  6
PHANTOM
 62
     2
100
AcDbLine
 10
-63.52525535387844
 20
32.31113650703949
 30
0.0
 11
-63.52525535387844
 21
26.81113650703949
 31
0.0
  0
LINE
  5
180
330
71
100
AcDbEntity
  8
1
  6
PHANTOM
 62
     2
100
AcDbLine
 10
-60.77525535387844
 20
29.56113650703949
 30
0.0
 11
-66.27525535387844
 21
29.56113650703949
 31
0.0
  0
LINE
  5
181
330
71
100
AcDbEntity
  8
1
  6
Continuous
 62
     7
100
AcDbLine
 10
-11.96191024044103
 20
16.93613650703949
 30
0.0
 11
-11.96191024044103
 21
25.43613650703958
 31
0.0
  0
LINE
  5
182
330
71
100
AcDbEntity
  8
1
  6
Continuous
 62
     6
100
AcDbLine
 10
-39.86191024044112
 20
25.43613650703958
 30
0.0
 11
53.28289428631067
 21
25.43613650703958
 31
0.0
  0
LINE
  5
183
330
71
100
AcDbEntity
  8
1
  6
Continuous
 62
     7
100
AcDbLine
 10
-76.26191024044104
 20
25.43613650703958
 30
0.0
 11
-76.26191024044104
 21
33.93613650703958
 31
0.0
  0
LINE
  5
184
330
71
100
AcDbEntity
  8
1
  6
Continuous
 62
     7
100
AcDbLine
 10
-39.86191024044112
 20
25.43613650703958
 30
0.0
 11
-39.86191024044112
 21
33.93613650703958
 31
0.0
  0
LINE
  5
185
330
71
100
AcDbEntity
  8
1
  6
Continuous
 62
     7
100
AcDbLine
 10
17.86448600463186
 20
33.93613650703958
 30
0.0
 11
17.86448600463186
 21
25.43613650703958
 31
0.0
  0
LINE
  5
186
330
71
100
AcDbEntity
  8
1
  6
Continuous
 62
     7
100
AcDbLine
 10
44.36448600463146
 20
33.93613650703958
 30
0.0
 11
44.36448600463146
 21
25.43613650703958
 31
0.0
  0
LINE
  5
187
330
71
100
AcDbEntity
  8
1
  6
Continuous
 62
     6
100
AcDbLine
 10
-145.261910240441
 20
8.43613650703958
 30
0.0
 11
-190.217105713691
 21
8.43613650703958
 31
0.0
  0
LINE
  5
188
330
71
100
AcDbEntity
  8
1
  6
Continuous
 62
     7
100
AcDbLine
 10
53.28289428631027
 20
16.93613650703958
 30
0.0
 11
-39.86191024044112
 21
16.93613650703958
 31
0.0
  0
LINE
  5
189
102
{ACAD_REACTORS
330
29B
330
29C
102
}
330
71
100
AcDbEntity
  8
0
  6
Continuous
 62
     2
100
AcDbLine
 10
-62.55448129867364
 20
17.73642562270288
 30
0.0
 11
-62.55448129867364
 21
18.60894262950617
 31
0.0
  0
LINE
  5
18A
102
{ACAD_REACTORS
330
29B
330
29C
102
}
330
71
100
AcDbEntity
  8
0
  6
Continuous
 62
     2
100
AcDbLine
 10
-62.55448129867364
 20
16.77665691521997
 30
0.0
 11
-62.55448129867364
 21
15.90413990841677
 31
0.0
  0
LINE
  5
18B
102
{ACAD_REACTORS
330
29D
330
29E
102
}
330
71
100
AcDbEntity
  8
0
  6
Continuous
 62
     2
100
AcDbLine
 10
-47.22143716238313
 20
17.99818072474338
 30
0.0
 11
-46.11779786281502
 21
17.99818072474338
 31
0.0
  0
LINE
  5
18C
102
{ACAD_REACTORS
330
29D
330
29E
102
}
330
71
100
AcDbEntity
  8
0
  6
Continuous
 62
     2
100
AcDbLine
 10
-46.45177981942172
 20
16.77665691521949
 30
0.0
 11
-46.45177981942172
 21
15.90413990841617
 31
0.0
  0
LINE
  5
18D
102
{ACAD_REACTORS
330
2A7
330
2A8
102
}
330
71
100
AcDbEntity
  8
0
  6
Continuous
 62
     2
100
AcDbLine
 10
-48.31253643480164
 20
19.08882698323018
 30
0.0
 11
-46.91458338786134
 21
20.66968597700517
 31
0.0
  0
LINE
  5
18E
102
{ACAD_REACTORS
330
2A7
330
2A8
102
}
330
71
100
AcDbEntity
  8
0
  6
Continuous
 62
     2
100
AcDbLine
 10
-48.21711301862882
 20
22.14263650704137
 30
0.0
 11
-46.91458338786134
 21
20.66968597700517
 31
0.0
  0
LINE
  5
18F
102
{ACAD_REACTORS
330
2A7
330
2A8
102
}
330
71
100
AcDbEntity
  8
0
  6
Continuous
 62
     2
100
AcDbLine
 10
-45.61205375709494
 20
22.14263650704137
 30
0.0
 11
-44.20932953934772
 21
22.14263650704137
 31
0.0
  0
LINE
  5
190
102
{ACAD_REACTORS
330
2A7
330
2A8
102
}
330
71
100
AcDbEntity
  8
0
  6
Continuous
 62
     2
100
AcDbLine
 10
-46.90981221705343
 20
19.08882698323018
 30
0.0
 11
-46.21322127898773
 21
19.87655876852389
 31
0.0
  0
LINE
  5
191
102
{ACAD_REACTORS
330
2A7
330
2A8
102
}
330
71
100
AcDbEntity
  8
0
  6
Continuous
 62
     2
100
AcDbLine
 10
-46.90981221705343
 20
19.08882698323018
 30
0.0
 11
-48.31253643480164
 21
19.08882698323018
 31
0.0
  0
LINE
  5
192
102
{ACAD_REACTORS
330
2A9
330
2AA
102
}
330
71
100
AcDbEntity
  8
0
  6
Continuous
 62
     2
100
AcDbLine
 10
-48.43181570501852
 20
19.08882698323018
 30
0.0
 11
-49.67232011527142
 21
19.08882698323018
 31
0.0
  0
LINE
  5
193
102
{ACAD_REACTORS
330
2AB
330
2AC
102
}
330
71
100
AcDbEntity
  8
0
  6
Continuous
 62
     2
100
AcDbLine
 10
-50.54029972342653
 20
16.95116031658037
 30
0.0
 11
-50.84046496061663
 21
17.71897528256707
 31
0.0
  0
LINE
  5
194
102
{ACAD_REACTORS
330
2AB
330
2AC
102
}
330
71
100
AcDbEntity
  8
0
  6
Continuous
 62
     2
100
AcDbLine
 10
-51.14063019780903
 20
16.95116031658037
 30
0.0
 11
-50.54029972342653
 21
16.95116031658037
 31
0.0
  0
LINE
  5
195
102
{ACAD_REACTORS
330
2AB
330
2AC
102
}
330
71
100
AcDbEntity
  8
0
  6
Continuous
 62
     2
100
AcDbLine
 10
-52.85867021268282
 20
15.72963650705589
 30
0.0
 11
-51.61816580242984
 21
15.72963650705589
 31
0.0
  0
LINE
  5
196
102
{ACAD_REACTORS
330
2AB
330
2AC
102
}
330
71
100
AcDbEntity
  8
0
  6
Continuous
 62
     2
100
AcDbLine
 10
-51.46071716574352
 20
18.78344603086697
 30
0.0
 11
-50.22021275549082
 21
18.78344603086697
 31
0.0
  0
LINE
  5
197
102
{ACAD_REACTORS
330
2AB
330
2AC
102
}
330
71
100
AcDbEntity
  8
0
  6
Continuous
 62
     2
100
AcDbLine
 10
-50.22021275549082
 20
18.78344603086697
 30
0.0
 11
-48.82225970855052
 21
15.72963650705589
 31
0.0
  0
LINE
  5
198
102
{ACAD_REACTORS
330
2AB
330
2AC
102
}
330
71
100
AcDbEntity
  8
0
  6
Continuous
 62
     2
100
AcDbLine
 10
-50.06276411880444
 20
15.72963650705589
 30
0.0
 11
-50.27424417228022
 21
16.27059705127377
 31
0.0
  0
LINE
  5
199
102
{ACAD_REACTORS
330
2AD
330
2AE
102
}
330
71
100
AcDbEntity
  8
0
  6
Continuous
 62
     2
100
AcDbLine
 10
-54.20508331439044
 20
15.72963650705589
 30
0.0
 11
-53.01229061222392
 21
15.72963650705589
 31
0.0
  0
LINE
  5
19A
102
{ACAD_REACTORS
330
2AD
330
2AE
102
}
330
71
100
AcDbEntity
  8
0
  6
Continuous
 62
     2
100
AcDbLine
 10
-54.20508331439044
 20
17.99818072474338
 30
0.0
 11
-54.20508331439044
 21
15.72963650705589
 31
0.0
  0
LINE
  5
19B
102
{ACAD_REACTORS
330
2AD
330
2AE
102
}
330
71
100
AcDbEntity
  8
0
  6
Continuous
 62
     2
100
AcDbLine
 10
-55.01618235186504
 20
18.78344603086697
 30
0.0
 11
-55.01618235186504
 21
17.99818072474338
 31
0.0
  0
LINE
  5
19C
102
{ACAD_REACTORS
330
2AF
330
2B0
102
}
330
71
100
AcDbEntity
  8
0
  6
Continuous
 62
     2
100
AcDbLine
 10
-53.53696847029244
 20
19.08882698323018
 30
0.0
 11
-52.34417576812592
 21
19.08882698323018
 31
0.0
  0
LINE
  5
19D
102
{ACAD_REACTORS
330
2AF
330
2B0
102
}
330
71
100
AcDbEntity
  8
0
  6
Continuous
 62
     2
100
AcDbLine
 10
-51.10367135787192
 20
20.83386099683619
 30
0.0
 11
-52.34417576812592
 21
22.14263650704137
 31
0.0
  0
LINE
  5
19E
102
{ACAD_REACTORS
330
2AF
330
2B0
102
}
330
71
100
AcDbEntity
  8
0
  6
Continuous
 62
     2
100
AcDbLine
 10
-49.91087865570532
 20
22.14263650704137
 30
0.0
 11
-51.10367135787192
 21
22.14263650704137
 31
0.0
  0
LINE
  5
19F
102
{ACAD_REACTORS
330
2AF
330
2B0
102
}
330
71
100
AcDbEntity
  8
0
  6
Continuous
 62
     2
100
AcDbLine
 10
-49.91087865570532
 20
19.08882698323018
 30
0.0
 11
-49.91087865570532
 21
22.14263650704137
 31
0.0
  0
LINE
  5
1A0
102
{ACAD_REACTORS
330
2AF
330
2B0
102
}
330
71
100
AcDbEntity
  8
0
  6
Continuous
 62
     2
100
AcDbLine
 10
-51.10367135787192
 20
19.08882698323018
 30
0.0
 11
-49.91087865570532
 21
19.08882698323018
 31
0.0
  0
LINE
  5
1A1
102
{ACAD_REACTORS
330
2AF
330
2B0
102
}
330
71
100
AcDbEntity
  8
0
  6
Continuous
 62
     2
100
AcDbLine
 10
-52.34417576812592
 20
20.39760249343487
 30
0.0
 11
-51.10367135787192
 21
19.08882698323018
 31
0.0
  0
LINE
  5
1A2
102
{ACAD_REACTORS
330
2B1
330
2B2
102
}
330
71
100
AcDbEntity
  8
0
  6
Continuous
 62
     2
100
AcDbLine
 10
-56.35211017829164
 20
17.47467052066187
 30
0.0
 11
-57.59261458854454
 21
18.78344603086697
 31
0.0
  0
LINE
  5
1A3
102
{ACAD_REACTORS
330
2B1
330
2B2
102
}
330
71
100
AcDbEntity
  8
0
  6
Continuous
 62
     2
100
AcDbLine
 10
-56.35211017829164
 20
18.78344603086697
 30
0.0
 11
-56.35211017829164
 21
17.47467052066187
 31
0.0
  0
LINE
  5
1A4
102
{ACAD_REACTORS
330
2B1
330
2B2
102
}
330
71
100
AcDbEntity
  8
0
  6
Continuous
 62
     2
100
AcDbLine
 10
-55.15931747612524
 20
18.78344603086697
 30
0.0
 11
-56.35211017829164
 21
18.78344603086697
 31
0.0
  0
LINE
  5
1A5
102
{ACAD_REACTORS
330
2B1
330
2B2
102
}
330
71
100
AcDbEntity
  8
0
  6
Continuous
 62
     2
100
AcDbLine
 10
-55.15931747612524
 20
15.72963650705589
 30
0.0
 11
-55.15931747612524
 21
18.78344603086697
 31
0.0
  0
LINE
  5
1A6
102
{ACAD_REACTORS
330
2B1
330
2B2
102
}
330
71
100
AcDbEntity
  8
0
  6
Continuous
 62
     2
100
AcDbLine
 10
-57.59261458854454
 20
17.03841201726047
 30
0.0
 11
-56.35211017829164
 21
15.72963650705589
 31
0.0
  0
LINE
  5
1A7
102
{ACAD_REACTORS
330
2B1
330
2B2
102
}
330
71
100
AcDbEntity
  8
0
  6
Continuous
 62
     2
100
AcDbLine
 10
-57.59261458854454
 20
15.72963650705589
 30
0.0
 11
-57.59261458854454
 21
17.03841201726047
 31
0.0
  0
LINE
  5
1A8
102
{ACAD_REACTORS
330
2A1
330
2A2
102
}
330
71
100
AcDbEntity
  8
0
  6
Continuous
 62
     2
100
AcDbLine
 10
-55.11145483715302
 20
21.44462290159839
 30
0.0
 11
-53.77552701072534
 21
21.44462290159839
 31
0.0
  0
LINE
  5
1A9
102
{ACAD_REACTORS
330
2A1
330
2A2
102
}
330
71
100
AcDbEntity
  8
0
  6
Continuous
 62
     2
100
AcDbLine
 10
-55.11145483715302
 20
19.78684058867268
 30
0.0
 11
-55.11145483715302
 21
20.26672494241439
 31
0.0
  0
LINE
  5
1AA
102
{ACAD_REACTORS
330
2A1
330
2A2
102
}
330
71
100
AcDbEntity
  8
0
  6
Continuous
 62
     2
100
AcDbLine
 10
-53.77552701072534
 20
19.78684058867268
 30
0.0
 11
-55.11145483715302
 21
19.78684058867268
 31
0.0
  0
LINE
  5
1AB
102
{ACAD_REACTORS
330
2A1
330
2A2
102
}
330
71
100
AcDbEntity
  8
0
  6
Continuous
 62
     2
100
AcDbLine
 10
-53.77552701072534
 20
19.08882698323018
 30
0.0
 11
-53.77552701072534
 21
19.78684058867268
 31
0.0
  0
LINE
  5
1AC
102
{ACAD_REACTORS
330
2A1
330
2A2
102
}
330
71
100
AcDbEntity
  8
0
  6
Continuous
 62
     2
100
AcDbLine
 10
-56.92584673450634
 20
19.08882698323018
 30
0.0
 11
-53.77552701072534
 21
19.08882698323018
 31
0.0
  0
LINE
  5
1AD
102
{ACAD_REACTORS
330
2A1
330
2A2
102
}
330
71
100
AcDbEntity
  8
0
  6
Continuous
 62
     2
100
AcDbLine
 10
-56.92584673450634
 20
22.14263650704137
 30
0.0
 11
-53.77552701072534
 21
22.14263650704137
 31
0.0
  0
LINE
  5
1AE
102
{ACAD_REACTORS
330
2A1
330
2A2
102
}
330
71
100
AcDbEntity
  8
0
  6
Continuous
 62
     2
100
AcDbLine
 10
-53.77552701072534
 20
21.44462290159839
 30
0.0
 11
-53.77552701072534
 21
22.14263650704137
 31
0.0
  0
LINE
  5
1AF
102
{ACAD_REACTORS
330
2B3
330
2B4
102
}
330
71
100
AcDbEntity
  8
0
  6
Continuous
 62
     2
100
AcDbLine
 10
-59.78720222964634
 20
21.07380317370678
 30
0.0
 11
-59.78720222964634
 21
22.14263650704137
 31
0.0
  0
LINE
  5
1B0
102
{ACAD_REACTORS
330
2B3
330
2B4
102
}
330
71
100
AcDbEntity
  8
0
  6
Continuous
 62
     2
100
AcDbLine
 10
-59.78720222964634
 20
22.14263650704137
 30
0.0
 11
-58.59440952747994
 21
22.14263650704137
 31
0.0
  0
LINE
  5
1B1
102
{ACAD_REACTORS
330
2B3
330
2B4
102
}
330
71
100
AcDbEntity
  8
0
  6
Continuous
 62
     2
100
AcDbLine
 10
-59.78720222964634
 20
20.22309909207399
 30
0.0
 11
-60.83685980755382
 21
20.22309909207399
 31
0.0
  0
LINE
  5
1B2
102
{ACAD_REACTORS
330
2B3
330
2B4
102
}
330
71
100
AcDbEntity
  8
0
  6
Continuous
 62
     2
100
AcDbLine
 10
-60.83685980755382
 20
20.22309909207399
 30
0.0
 11
-60.83685980755382
 21
19.08882698323018
 31
0.0
  0
LINE
  5
1B3
102
{ACAD_REACTORS
330
2B3
330
2B4
102
}
330
71
100
AcDbEntity
  8
0
  6
Continuous
 62
     2
100
AcDbLine
 10
-62.02965250972042
 20
22.14263650704137
 30
0.0
 11
-62.02965250972042
 21
19.08882698323018
 31
0.0
  0
LINE
  5
1B4
102
{ACAD_REACTORS
330
2A5
330
2A6
102
}
330
71
100
AcDbEntity
  8
0
  6
Continuous
 62
     2
100
AcDbLine
 10
-63.98583254127402
 20
20.77380301225907
 30
0.0
 11
-63.98583254127402
 21
21.47953066160127
 31
0.0
  0
LINE
  5
1B5
102
{ACAD_REACTORS
330
2A5
330
2A6
102
}
330
71
100
AcDbEntity
  8
0
  6
Continuous
 62
     2
100
AcDbLine
 10
-65.22633695152814
 20
19.08882698323018
 30
0.0
 11
-63.98583254127402
 21
19.08882698323018
 31
0.0
  0
LINE
  5
1B6
102
{ACAD_REACTORS
330
2A5
330
2A6
102
}
330
71
100
AcDbEntity
  8
0
  6
Continuous
 62
     2
100
AcDbLine
 10
-63.98583254127402
 20
19.08882698323018
 30
0.0
 11
-63.98583254127402
 21
20.03190522437399
 31
0.0
  0
LINE
  5
1B7
102
{ACAD_REACTORS
330
29F
330
2A0
102
}
330
71
100
AcDbEntity
  8
0
  6
Continuous
 62
     2
100
AcDbLine
 10
-69.53128280073952
 20
16.44219206261278
 30
0.0
 11
-71.00711606174914
 21
16.44219206261278
 31
0.0
  0
LINE
  5
1B8
102
{ACAD_REACTORS
330
29F
330
2A0
102
}
330
71
100
AcDbEntity
  8
0
  6
Continuous
 62
     2
100
AcDbLine
 10
-72.02525535387844
 20
21.71839189163939
 30
0.0
 11
-72.02525535387844
 21
16.15388112243917
 31
0.0
  0
LINE
  5
1B9
102
{ACAD_REACTORS
330
29F
330
2A0
102
}
330
71
100
AcDbEntity
  8
0
  6
Continuous
 62
     2
100
AcDbLine
 10
-71.60101073849563
 20
22.14263650702318
 30
0.0
 11
-66.12769864777883
 21
22.14263650702318
 31
0.0
  0
LINE
  5
1BA
102
{ACAD_REACTORS
330
29F
330
2A0
102
}
330
71
100
AcDbEntity
  8
0
  6
Continuous
 62
     2
100
AcDbLine
 10
-65.70345403239494
 20
21.71839189163939
 30
0.0
 11
-65.70345403239494
 21
16.15388112243917
 31
0.0
  0
LINE
  5
1BB
102
{ACAD_REACTORS
330
29F
330
2A0
102
}
330
71
100
AcDbEntity
  8
0
  6
Continuous
 62
     2
100
AcDbLine
 10
-66.12769864777883
 20
15.72963650705589
 30
0.0
 11
-71.60101073849563
 21
15.72963650705589
 31
0.0
  0
LINE
  5
1BC
102
{ACAD_REACTORS
330
29F
330
2A0
102
}
330
71
100
AcDbEntity
  8
0
  6
Continuous
 62
     2
100
AcDbLine
 10
-69.21556587766293
 20
16.75790898568948
 30
0.0
 11
-69.21556587766293
 21
18.28867991722109
 31
0.0
  0
LINE
  5
1BD
102
{ACAD_REACTORS
330
29F
330
2A0
102
}
330
71
100
AcDbEntity
  8
0
  6
Continuous
 62
     2
100
AcDbLine
 10
-69.21556587766293
 20
20.51033940934607
 30
0.0
 11
-69.21556587766293
 21
21.11436402840658
 31
0.0
  0
LINE
  5
1BE
102
{ACAD_REACTORS
330
29F
330
2A0
102
}
330
71
100
AcDbEntity
  8
0
  6
Continuous
 62
     2
100
AcDbLine
 10
-71.00711606174914
 20
21.43008095148278
 30
0.0
 11
-69.53128280073952
 21
21.43008095148278
 31
0.0
  0
LINE
  5
1BF
102
{ACAD_REACTORS
330
29F
330
2A0
102
}
330
71
100
AcDbEntity
  8
0
  6
Continuous
 62
     2
100
AcDbLine
 10
-71.32283298482483
 20
21.11436402840658
 30
0.0
 11
-71.32283298482483
 21
16.75790898568948
 31
0.0
  0
LINE
  5
1C0
102
{ACAD_REACTORS
330
2A5
330
2A6
102
}
330
71
100
AcDbEntity
  8
0
  6
Continuous
 62
     2
100
AcDbLine
 10
-63.98583254127402
 20
20.03190522437399
 30
0.0
 11
-63.22706495349374
 21
20.03190522437399
 31
0.0
  0
LINE
  5
1C1
102
{ACAD_REACTORS
330
2A5
330
2A6
102
}
330
71
100
AcDbEntity
  8
0
  6
Continuous
 62
     2
100
AcDbLine
 10
-65.22633695152814
 20
22.14263650704137
 30
0.0
 11
-63.22706495349374
 21
22.14263650704137
 31
0.0
  0
LINE
  5
1C2
102
{ACAD_REACTORS
330
2A5
330
2A6
102
}
330
71
100
AcDbEntity
  8
0
  6
Continuous
 62
     2
100
AcDbLine
 10
-65.22633695152814
 20
22.14263650704137
 30
0.0
 11
-65.22633695152814
 21
19.08882698323018
 31
0.0
  0
LINE
  5
1C3
102
{ACAD_REACTORS
330
2A5
330
2A6
102
}
330
71
100
AcDbEntity
  8
0
  6
Continuous
 62
     2
100
AcDbLine
 10
-63.98583254127402
 20
20.77380301225907
 30
0.0
 11
-63.66853747973212
 21
20.77380301225907
 31
0.0
  0
LINE
  5
1C4
102
{ACAD_REACTORS
330
2A5
330
2A6
102
}
330
71
100
AcDbEntity
  8
0
  6
Continuous
 62
     2
100
AcDbLine
 10
-63.98583254127402
 20
21.47953066160127
 30
0.0
 11
-63.66853747973212
 21
21.47953066160127
 31
0.0
  0
LINE
  5
1C5
102
{ACAD_REACTORS
330
2B3
330
2B4
102
}
330
71
100
AcDbEntity
  8
0
  6
Continuous
 62
     2
100
AcDbLine
 10
-60.83685980755382
 20
21.07380317370678
 30
0.0
 11
-59.78720222964634
 21
21.07380317370678
 31
0.0
  0
LINE
  5
1C6
102
{ACAD_REACTORS
330
2B3
330
2B4
102
}
330
71
100
AcDbEntity
  8
0
  6
Continuous
 62
     2
100
AcDbLine
 10
-60.83685980755382
 20
22.14263650704137
 30
0.0
 11
-60.83685980755382
 21
21.07380317370678
 31
0.0
  0
LINE
  5
1C7
102
{ACAD_REACTORS
330
2B3
330
2B4
102
}
330
71
100
AcDbEntity
  8
0
  6
Continuous
 62
     2
100
AcDbLine
 10
-62.02965250972042
 20
22.14263650704137
 30
0.0
 11
-60.83685980755382
 21
22.14263650704137
 31
0.0
  0
LINE
  5
1C8
102
{ACAD_REACTORS
330
2B3
330
2B4
102
}
330
71
100
AcDbEntity
  8
0
  6
Continuous
 62
     2
100
AcDbLine
 10
-60.83685980755382
 20
19.08882698323018
 30
0.0
 11
-62.02965250972042
 21
19.08882698323018
 31
0.0
  0
LINE
  5
1C9
102
{ACAD_REACTORS
330
2B3
330
2B4
102
}
330
71
100
AcDbEntity
  8
0
  6
Continuous
 62
     2
100
AcDbLine
 10
-59.78720222964634
 20
19.08882698323018
 30
0.0
 11
-59.78720222964634
 21
20.22309909207399
 31
0.0
  0
LINE
  5
1CA
102
{ACAD_REACTORS
330
2B3
330
2B4
102
}
330
71
100
AcDbEntity
  8
0
  6
Continuous
 62
     2
100
AcDbLine
 10
-58.59440952747994
 20
19.08882698323018
 30
0.0
 11
-59.78720222964634
 21
19.08882698323018
 31
0.0
  0
LINE
  5
1CB
102
{ACAD_REACTORS
330
2B3
330
2B4
102
}
330
71
100
AcDbEntity
  8
0
  6
Continuous
 62
     2
100
AcDbLine
 10
-58.59440952747994
 20
22.14263650704137
 30
0.0
 11
-58.59440952747994
 21
19.08882698323018
 31
0.0
  0
LINE
  5
1CC
102
{ACAD_REACTORS
330
2A1
330
2A2
102
}
330
71
100
AcDbEntity
  8
0
  6
Continuous
 62
     2
100
AcDbLine
 10
-55.11145483715302
 20
20.26672494241439
 30
0.0
 11
-53.77552701072534
 21
20.26672494241439
 31
0.0
  0
LINE
  5
1CD
102
{ACAD_REACTORS
330
2A1
330
2A2
102
}
330
71
100
AcDbEntity
  8
0
  6
Continuous
 62
     2
100
AcDbLine
 10
-53.77552701072534
 20
20.26672494241439
 30
0.0
 11
-53.77552701072534
 21
20.96473854785668
 31
0.0
  0
LINE
  5
1CE
102
{ACAD_REACTORS
330
2A1
330
2A2
102
}
330
71
100
AcDbEntity
  8
0
  6
Continuous
 62
     2
100
AcDbLine
 10
-53.77552701072534
 20
20.96473854785668
 30
0.0
 11
-55.11145483715302
 21
20.96473854785668
 31
0.0
  0
LINE
  5
1CF
102
{ACAD_REACTORS
330
2A1
330
2A2
102
}
330
71
100
AcDbEntity
  8
0
  6
Continuous
 62
     2
100
AcDbLine
 10
-55.11145483715302
 20
20.96473854785668
 30
0.0
 11
-55.11145483715302
 21
21.44462290159839
 31
0.0
  0
LINE
  5
1D0
102
{ACAD_REACTORS
330
2B1
330
2B2
102
}
330
71
100
AcDbEntity
  8
0
  6
Continuous
 62
     2
100
AcDbLine
 10
-58.78540729071213
 20
15.72963650705589
 30
0.0
 11
-57.59261458854454
 21
15.72963650705589
 31
0.0
  0
LINE
  5
1D1
102
{ACAD_REACTORS
330
2B1
330
2B2
102
}
330
71
100
AcDbEntity
  8
0
  6
Continuous
 62
     2
100
AcDbLine
 10
-56.35211017829164
 20
15.72963650705589
 30
0.0
 11
-55.15931747612524
 21
15.72963650705589
 31
0.0
  0
LINE
  5
1D2
102
{ACAD_REACTORS
330
2B1
330
2B2
102
}
330
71
100
AcDbEntity
  8
0
  6
Continuous
 62
     2
100
AcDbLine
 10
-57.59261458854454
 20
18.78344603086697
 30
0.0
 11
-58.78540729071213
 21
18.78344603086697
 31
0.0
  0
LINE
  5
1D3
102
{ACAD_REACTORS
330
2B1
330
2B2
102
}
330
71
100
AcDbEntity
  8
0
  6
Continuous
 62
     2
100
AcDbLine
 10
-58.78540729071213
 20
18.78344603086697
 30
0.0
 11
-58.78540729071213
 21
15.72963650705589
 31
0.0
  0
LINE
  5
1D4
102
{ACAD_REACTORS
330
2AF
330
2B0
102
}
330
71
100
AcDbEntity
  8
0
  6
Continuous
 62
     2
100
AcDbLine
 10
-51.10367135787192
 20
22.14263650704137
 30
0.0
 11
-51.10367135787192
 21
20.83386099683619
 31
0.0
  0
LINE
  5
1D5
102
{ACAD_REACTORS
330
2AF
330
2B0
102
}
330
71
100
AcDbEntity
  8
0
  6
Continuous
 62
     2
100
AcDbLine
 10
-52.34417576812592
 20
22.14263650704137
 30
0.0
 11
-53.53696847029244
 21
22.14263650704137
 31
0.0
  0
LINE
  5
1D6
102
{ACAD_REACTORS
330
2AF
330
2B0
102
}
330
71
100
AcDbEntity
  8
0
  6
Continuous
 62
     2
100
AcDbLine
 10
-53.53696847029244
 20
22.14263650704137
 30
0.0
 11
-53.53696847029244
 21
19.08882698323018
 31
0.0
  0
LINE
  5
1D7
102
{ACAD_REACTORS
330
2AF
330
2B0
102
}
330
71
100
AcDbEntity
  8
0
  6
Continuous
 62
     2
100
AcDbLine
 10
-52.34417576812592
 20
19.08882698323018
 30
0.0
 11
-52.34417576812592
 21
20.39760249343487
 31
0.0
  0
LINE
  5
1D8
102
{ACAD_REACTORS
330
2AD
330
2AE
102
}
330
71
100
AcDbEntity
  8
0
  6
Continuous
 62
     2
100
AcDbLine
 10
-53.01229061222392
 20
15.72963650705589
 30
0.0
 11
-53.01229061222392
 21
17.99818072474338
 31
0.0
  0
LINE
  5
1D9
102
{ACAD_REACTORS
330
2AD
330
2AE
102
}
330
71
100
AcDbEntity
  8
0
  6
Continuous
 62
     2
100
AcDbLine
 10
-53.01229061222392
 20
17.99818072474338
 30
0.0
 11
-52.20119157475142
 21
17.99818072474338
 31
0.0
  0
LINE
  5
1DA
102
{ACAD_REACTORS
330
2AD
330
2AE
102
}
330
71
100
AcDbEntity
  8
0
  6
Continuous
 62
     2
100
AcDbLine
 10
-52.20119157475142
 20
17.99818072474338
 30
0.0
 11
-52.20119157475142
 21
18.78344603086697
 31
0.0
  0
LINE
  5
1DB
102
{ACAD_REACTORS
330
2AD
330
2AE
102
}
330
71
100
AcDbEntity
  8
0
  6
Continuous
 62
     2
100
AcDbLine
 10
-52.20119157475142
 20
18.78344603086697
 30
0.0
 11
-55.01618235186504
 21
18.78344603086697
 31
0.0
  0
LINE
  5
1DC
102
{ACAD_REACTORS
330
2AD
330
2AE
102
}
330
71
100
AcDbEntity
  8
0
  6
Continuous
 62
     2
100
AcDbLine
 10
-55.01618235186504
 20
17.99818072474338
 30
0.0
 11
-54.20508331439044
 21
17.99818072474338
 31
0.0
  0
LINE
  5
1DD
102
{ACAD_REACTORS
330
2AB
330
2AC
102
}
330
71
100
AcDbEntity
  8
0
  6
Continuous
 62
     2
100
AcDbLine
 10
-51.40668574895403
 20
16.27059705127377
 30
0.0
 11
-50.27424417228022
 21
16.27059705127377
 31
0.0
  0
LINE
  5
1DE
102
{ACAD_REACTORS
330
2AB
330
2AC
102
}
330
71
100
AcDbEntity
  8
0
  6
Continuous
 62
     2
100
AcDbLine
 10
-48.82225970855052
 20
15.72963650705589
 30
0.0
 11
-50.06276411880444
 21
15.72963650705589
 31
0.0
  0
LINE
  5
1DF
102
{ACAD_REACTORS
330
2AB
330
2AC
102
}
330
71
100
AcDbEntity
  8
0
  6
Continuous
 62
     2
100
AcDbLine
 10
-51.46071716574352
 20
18.78344603086697
 30
0.0
 11
-52.85867021268282
 21
15.72963650705589
 31
0.0
  0
LINE
  5
1E0
102
{ACAD_REACTORS
330
2AB
330
2AC
102
}
330
71
100
AcDbEntity
  8
0
  6
Continuous
 62
     2
100
AcDbLine
 10
-51.61816580242984
 20
15.72963650705589
 30
0.0
 11
-51.40668574895403
 21
16.27059705127377
 31
0.0
  0
LINE
  5
1E1
102
{ACAD_REACTORS
330
2AB
330
2AC
102
}
330
71
100
AcDbEntity
  8
0
  6
Continuous
 62
     2
100
AcDbLine
 10
-51.14063019780903
 20
16.95116031658037
 30
0.0
 11
-50.84046496061663
 21
17.71897528256707
 31
0.0
  0
LINE
  5
1E2
102
{ACAD_REACTORS
330
2A9
330
2AA
102
}
330
71
100
AcDbEntity
  8
0
  6
Continuous
 62
     2
100
AcDbLine
 10
-49.67232011527142
 20
19.08882698323018
 30
0.0
 11
-49.67232011527142
 21
22.14263650704137
 31
0.0
  0
LINE
  5
1E3
102
{ACAD_REACTORS
330
2A9
330
2AA
102
}
330
71
100
AcDbEntity
  8
0
  6
Continuous
 62
     2
100
AcDbLine
 10
-48.43181570501852
 20
22.14263650704137
 30
0.0
 11
-48.43181570501852
 21
19.08882698323018
 31
0.0
  0
LINE
  5
1E4
102
{ACAD_REACTORS
330
2A9
330
2AA
102
}
330
71
100
AcDbEntity
  8
0
  6
Continuous
 62
     2
100
AcDbLine
 10
-49.67232011527142
 20
22.14263650704137
 30
0.0
 11
-48.43181570501852
 21
22.14263650704137
 31
0.0
  0
LINE
  5
1E5
102
{ACAD_REACTORS
330
2A7
330
2A8
102
}
330
71
100
AcDbEntity
  8
0
  6
Continuous
 62
     2
100
AcDbLine
 10
-46.21322127898773
 20
19.87655876852389
 30
0.0
 11
-45.51663034092223
 21
19.08882698323018
 31
0.0
  0
LINE
  5
1E6
102
{ACAD_REACTORS
330
2A7
330
2A8
102
}
330
71
100
AcDbEntity
  8
0
  6
Continuous
 62
     2
100
AcDbLine
 10
-45.51663034092223
 20
19.08882698323018
 30
0.0
 11
-44.11390612317393
 21
19.08882698323018
 31
0.0
  0
LINE
  5
1E7
102
{ACAD_REACTORS
330
2A7
330
2A8
102
}
330
71
100
AcDbEntity
  8
0
  6
Continuous
 62
     2
100
AcDbLine
 10
-45.51185917011424
 20
20.66968597700517
 30
0.0
 11
-44.11390612317393
 21
19.08882698323018
 31
0.0
  0
LINE
  5
1E8
102
{ACAD_REACTORS
330
2A7
330
2A8
102
}
330
71
100
AcDbEntity
  8
0
  6
Continuous
 62
     2
100
AcDbLine
 10
-45.51185917011424
 20
20.66968597700517
 30
0.0
 11
-44.20932953934772
 21
22.14263650704137
 31
0.0
  0
LINE
  5
1E9
102
{ACAD_REACTORS
330
2A7
330
2A8
102
}
330
71
100
AcDbEntity
  8
0
  6
Continuous
 62
     2
100
AcDbLine
 10
-46.21322127898773
 20
21.46281318548589
 30
0.0
 11
-45.61205375709494
 21
22.14263650704137
 31
0.0
  0
LINE
  5
1EA
102
{ACAD_REACTORS
330
2A7
330
2A8
102
}
330
71
100
AcDbEntity
  8
0
  6
Continuous
 62
     2
100
AcDbLine
 10
-46.81438880087953
 20
22.14263650704137
 30
0.0
 11
-46.21322127898773
 21
21.46281318548589
 31
0.0
  0
LINE
  5
1EB
102
{ACAD_REACTORS
330
2A7
330
2A8
102
}
330
71
100
AcDbEntity
  8
0
  6
Continuous
 62
     2
100
AcDbLine
 10
-46.81438880087953
 20
22.14263650704137
 30
0.0
 11
-48.21711301862882
 21
22.14263650704137
 31
0.0
  0
LINE
  5
1EC
102
{ACAD_REACTORS
330
29D
330
29E
102
}
330
71
100
AcDbEntity
  8
0
  6
Continuous
 62
     2
100
AcDbLine
 10
-46.11779786281502
 20
15.72963650705589
 30
0.0
 11
-44.92500516064732
 21
15.72963650705589
 31
0.0
  0
LINE
  5
1ED
102
{ACAD_REACTORS
330
29D
330
29E
102
}
330
71
100
AcDbEntity
  8
0
  6
Continuous
 62
     2
100
AcDbLine
 10
-44.92500516064732
 20
15.72963650705589
 30
0.0
 11
-44.92500516064732
 21
17.99818072474338
 31
0.0
  0
LINE
  5
1EE
102
{ACAD_REACTORS
330
29D
330
29E
102
}
330
71
100
AcDbEntity
  8
0
  6
Continuous
 62
     2
100
AcDbLine
 10
-44.92500516064732
 20
17.99818072474338
 30
0.0
 11
-44.11390612317393
 21
17.99818072474338
 31
0.0
  0
LINE
  5
1EF
102
{ACAD_REACTORS
330
29D
330
29E
102
}
330
71
100
AcDbEntity
  8
0
  6
Continuous
 62
     2
100
AcDbLine
 10
-44.11390612317393
 20
17.99818072474338
 30
0.0
 11
-44.11390612317393
 21
18.78344603086697
 31
0.0
  0
LINE
  5
1F0
102
{ACAD_REACTORS
330
29D
330
29E
102
}
330
71
100
AcDbEntity
  8
0
  6
Continuous
 62
     2
100
AcDbLine
 10
-47.49885164180262
 20
18.78344603086649
 30
0.0
 11
-44.11390612317393
 21
18.78344603086697
 31
0.0
  0
LINE
  5
1F1
102
{ACAD_REACTORS
330
29D
330
29E
102
}
330
71
100
AcDbEntity
  8
0
  6
Continuous
 62
     2
100
AcDbLine
 10
-46.11779786281502
 20
17.99818072474338
 30
0.0
 11
-46.11779786281502
 21
15.72963650705589
 31
0.0
  0
LINE
  5
1F2
102
{ACAD_REACTORS
330
29F
330
2A0
102
}
330
71
100
AcDbEntity
  8
0
  6
Continuous
 62
     2
100
AcDbLine
 10
-68.74728429829423
 20
17.70851665662039
 30
0.0
 11
-68.74728429829423
 21
18.29036806331547
 31
0.0
  0
LINE
  5
1F3
102
{ACAD_REACTORS
330
29F
330
2A0
102
}
330
71
100
AcDbEntity
  8
0
  6
Continuous
 62
     2
100
AcDbLine
 10
-68.74728429829423
 20
20.50865126325169
 30
0.0
 11
-68.74728429829423
 21
21.11418655175848
 31
0.0
  0
LINE
  5
1F4
330
71
100
AcDbEntity
  8
1
  6
Continuous
 62
     6
100
AcDbLine
 10
-90.21710571369101
 20
8.43613650703958
 30
0.0
 11
-76.26191024044104
 21
8.43613650703946
 31
0.0
  0
LINE
  5
1F5
330
71
100
AcDbEntity
  8
1
  6
Continuous
 62
     6
100
AcDbLine
 10
-140.2171057136912
 20
8.43613650703958
 30
0.0
 11
-145.261910240441
 21
8.43613650703958
 31
0.0
  0
LINE
  5
1F6
330
71
100
AcDbEntity
  8
1
  6
Continuous
 62
     6
100
AcDbLine
 10
9.78289428630896
 20
8.43613650703958
 30
0.0
 11
53.28289428630897
 21
8.43613650703958
 31
0.0
  0
LINE
  5
1F7
330
71
100
AcDbEntity
  8
1
  6
Continuous
 62
     6
100
AcDbLine
 10
-40.21710571369104
 20
8.43613650703958
 30
0.0
 11
-58.06191024044102
 21
8.43613650703958
 31
0.0
  0
LINE
  5
1F8
330
71
100
AcDbEntity
  8
1
  6
Continuous
 62
     2
100
AcDbLine
 10
53.28289428630897
 20
8.43613650703958
 30
0.0
 11
58.28289428630797
 21
8.43613650703958
 31
0.0
  0
LINE
  5
1F9
330
71
100
AcDbEntity
  8
1
  6
Continuous
 62
     2
100
AcDbLine
 10
53.28289428630897
 20
8.43613650703958
 30
0.0
 11
53.28289428630897
 21
3.43613650703946
 31
0.0
  0
LINE
  5
1FA
330
71
100
AcDbEntity
  8
1
  6
Continuous
 62
     6
100
AcDbLine
 10
-76.26191024044104
 20
25.43613650703958
 30
0.0
 11
-39.86191024044112
 21
25.43613650703958
 31
0.0
  0
LINE
  5
1FB
330
71
100
AcDbEntity
  8
1
  6
Continuous
 62
     2
100
AcDbLine
 10
58.28289428630797
 20
3.43613650703946
 30
0.0
 11
58.28289428630797
 21
8.43613650703958
 31
0.0
  0
LINE
  5
1FC
330
71
100
AcDbEntity
  8
1
  6
Continuous
 62
     2
100
AcDbLine
 10
58.28289428630797
 20
3.43613650703946
 30
0.0
 11
53.28289428630897
 21
3.43613650703946
 31
0.0
  0
LINE
  5
1FD
330
71
100
AcDbEntity
  8
1
  6
Continuous
 62
     2
100
AcDbLine
 10
53.28289428630897
 20
3.43613650703946
 30
0.0
 11
9.78289428630896
 21
3.43613650703946
 31
0.0
  0
LINE
  5
1FE
330
71
100
AcDbEntity
  8
1
  6
Continuous
 62
     6
100
AcDbLine
 10
53.28289428631067
 20
25.43613650703958
 30
0.0
 11
53.28289428630987
 21
58.43613650703969
 31
0.0
  0
LINE
  5
1FF
330
71
100
AcDbEntity
  8
1
  6
Continuous
 62
     2
100
AcDbLine
 10
58.28289428630797
 20
213.4361365070396
 30
0.0
 11
-90.21710571369101
 21
213.4361365070396
 31
0.0
  0
LINE
  5
200
330
71
100
AcDbEntity
  8
1
  6
Continuous
 62
     6
100
AcDbLine
 10
53.28289428630797
 20
193.4361365070396
 30
0.0
 11
-233.7171057136901
 21
193.4361365070396
 31
0.0
  0
LINE
  5
201
330
71
100
AcDbEntity
  8
1
  6
Continuous
 62
     2
100
AcDbLine
 10
53.28289428630987
 20
58.43613650703969
 30
0.0
 11
58.28289428630797
 21
58.43613650703969
 31
0.0
  0
LINE
  5
202
330
71
100
AcDbEntity
  8
1
  6
Continuous
 62
     6
100
AcDbLine
 10
53.28289428630987
 20
58.43613650703969
 30
0.0
 11
53.28289428630937
 21
108.4361365070395
 31
0.0
  0
LINE
  5
203
330
71
100
AcDbEntity
  8
1
  6
Continuous
 62
     2
100
AcDbLine
 10
58.28289428630797
 20
58.43613650703969
 30
0.0
 11
58.28289428630797
 21
108.4361365070395
 31
0.0
  0
LINE
  5
204
330
71
100
AcDbEntity
  8
1
  6
Continuous
 62
     2
100
AcDbLine
 10
53.28289428630937
 20
108.4361365070395
 30
0.0
 11
58.28289428630797
 21
108.4361365070395
 31
0.0
  0
LINE
  5
205
330
71
100
AcDbEntity
  8
1
  6
Continuous
 62
     6
100
AcDbLine
 10
53.28289428630937
 20
108.4361365070395
 30
0.0
 11
53.28289428630816
 21
158.4361365070396
 31
0.0
  0
LINE
  5
206
330
71
100
AcDbEntity
  8
1
  6
Continuous
 62
     2
100
AcDbLine
 10
58.28289428630797
 20
108.4361365070395
 30
0.0
 11
58.28289428630797
 21
158.4361365070396
 31
0.0
  0
LINE
  5
207
330
71
100
AcDbEntity
  8
1
  6
Continuous
 62
     2
100
AcDbLine
 10
53.28289428630816
 20
158.4361365070396
 30
0.0
 11
58.28289428630797
 21
158.4361365070396
 31
0.0
  0
LINE
  5
208
330
71
100
AcDbEntity
  8
1
  6
Continuous
 62
     6
100
AcDbLine
 10
53.28289428630816
 20
158.4361365070396
 30
0.0
 11
53.28289428630797
 21
193.4361365070396
 31
0.0
  0
LINE
  5
209
330
71
100
AcDbEntity
  8
1
  6
Continuous
 62
     2
100
AcDbLine
 10
58.28289428630797
 20
158.4361365070396
 30
0.0
 11
58.28289428630797
 21
213.4361365070396
 31
0.0
  0
LINE
  5
20A
330
71
100
AcDbEntity
  8
1
  6
Continuous
 62
     2
100
AcDbLine
 10
58.28289428630797
 20
8.43613650703958
 30
0.0
 11
58.28289428630797
 21
58.43613650703969
 31
0.0
  0
LINE
  5
20B
330
71
100
AcDbEntity
  8
1
  6
Continuous
 62
     2
100
AcDbLine
 10
-90.21710571369101
 20
213.4361365070396
 30
0.0
 11
-238.7171057136901
 21
213.4361365070396
 31
0.0
  0
LINE
  5
20C
330
71
100
AcDbEntity
  8
1
  6
Continuous
 62
     2
100
AcDbLine
 10
-90.21710571369101
 20
213.4361365070396
 30
0.0
 11
-90.21710571369101
 21
204.2274446623383
 31
0.0
  0
LINE
  5
20D
330
71
100
AcDbEntity
  8
1
  6
Continuous
 62
     2
100
AcDbLine
 10
-238.7171057136901
 20
3.43613650703946
 30
0.0
 11
-233.7171057136891
 21
3.43613650703946
 31
0.0
  0
LINE
  5
20E
330
71
100
AcDbEntity
  8
1
  6
Continuous
 62
     2
100
AcDbLine
 10
-238.7171057136901
 20
213.4361365070396
 30
0.0
 11
-238.7171057136901
 21
158.4361365070396
 31
0.0
  0
LINE
  5
20F
330
71
100
AcDbEntity
  8
1
  6
Continuous
 62
     6
100
AcDbLine
 10
-233.7171057136901
 20
193.4361365070396
 30
0.0
 11
-233.7171057136901
 21
158.4361365070396
 31
0.0
  0
LINE
  5
210
330
71
100
AcDbEntity
  8
1
  6
Continuous
 62
     2
100
AcDbLine
 10
-238.7171057136901
 20
158.4361365070396
 30
0.0
 11
-233.7171057136901
 21
158.4361365070396
 31
0.0
  0
LINE
  5
211
330
71
100
AcDbEntity
  8
1
  6
Continuous
 62
     2
100
AcDbLine
 10
-238.7171057136901
 20
158.4361365070396
 30
0.0
 11
-238.7171057136901
 21
108.4361365070395
 31
0.0
  0
LINE
  5
212
330
71
100
AcDbEntity
  8
1
  6
Continuous
 62
     6
100
AcDbLine
 10
-233.7171057136901
 20
158.4361365070396
 30
0.0
 11
-233.7171057136895
 21
108.4361365070395
 31
0.0
  0
LINE
  5
213
330
71
100
AcDbEntity
  8
1
  6
Continuous
 62
     2
100
AcDbLine
 10
-238.7171057136901
 20
108.4361365070395
 30
0.0
 11
-233.7171057136895
 21
108.4361365070395
 31
0.0
  0
LINE
  5
214
330
71
100
AcDbEntity
  8
1
  6
Continuous
 62
     2
100
AcDbLine
 10
-238.7171057136901
 20
108.4361365070395
 30
0.0
 11
-238.7171057136901
 21
58.43613650703969
 31
0.0
  0
LINE
  5
215
330
71
100
AcDbEntity
  8
1
  6
Continuous
 62
     6
100
AcDbLine
 10
-233.7171057136895
 20
108.4361365070395
 30
0.0
 11
-233.7171057136893
 21
58.43613650703969
 31
0.0
  0
LINE
  5
216
330
71
100
AcDbEntity
  8
1
  6
Continuous
 62
     2
100
AcDbLine
 10
-238.7171057136901
 20
58.43613650703969
 30
0.0
 11
-233.7171057136893
 21
58.43613650703969
 31
0.0
  0
LINE
  5
217
330
71
100
AcDbEntity
  8
1
  6
Continuous
 62
     2
100
AcDbLine
 10
-238.7171057136901
 20
58.43613650703969
 30
0.0
 11
-238.7171057136901
 21
8.43613650703958
 31
0.0
  0
LINE
  5
218
330
71
100
AcDbEntity
  8
1
  6
Continuous
 62
     6
100
AcDbLine
 10
-233.7171057136893
 20
58.43613650703969
 30
0.0
 11
-233.7171057136891
 21
8.43613650703958
 31
0.0
  0
LINE
  5
219
330
71
100
AcDbEntity
  8
1
  6
Continuous
 62
     2
100
AcDbLine
 10
-190.217105713691
 20
3.43613650703946
 30
0.0
 11
-190.217105713691
 21
8.43613650703958
 31
0.0
  0
LINE
  5
21A
330
71
100
AcDbEntity
  8
1
  6
Continuous
 62
     2
100
AcDbLine
 10
-190.217105713691
 20
3.43613650703946
 30
0.0
 11
-140.2171057136912
 21
3.43613650703946
 31
0.0
  0
LINE
  5
21B
330
71
100
AcDbEntity
  8
1
  6
Continuous
 62
     2
100
AcDbLine
 10
-140.2171057136912
 20
3.43613650703946
 30
0.0
 11
-140.2171057136912
 21
8.43613650703958
 31
0.0
  0
LINE
  5
21C
330
71
100
AcDbEntity
  8
1
  6
Continuous
 62
     2
100
AcDbLine
 10
-140.2171057136912
 20
3.43613650703946
 30
0.0
 11
-90.21710571369101
 21
3.43613650703946
 31
0.0
  0
LINE
  5
21D
330
71
100
AcDbEntity
  8
1
  6
Continuous
 62
     2
100
AcDbLine
 10
-90.21710571369101
 20
3.43613650703946
 30
0.0
 11
-90.21710571369101
 21
8.43613650703958
 31
0.0
  0
LINE
  5
21E
330
71
100
AcDbEntity
  8
1
  6
Continuous
 62
     2
100
AcDbLine
 10
-90.21710571369101
 20
3.43613650703946
 30
0.0
 11
-40.21710571369104
 21
3.43613650703946
 31
0.0
  0
LINE
  5
21F
330
71
100
AcDbEntity
  8
1
  6
Continuous
 62
     2
100
AcDbLine
 10
-40.21710571369104
 20
3.43613650703946
 30
0.0
 11
-40.21710571369104
 21
8.43613650703958
 31
0.0
  0
LINE
  5
220
330
71
100
AcDbEntity
  8
1
  6
Continuous
 62
     2
100
AcDbLine
 10
9.78289428630896
 20
3.43613650703946
 30
0.0
 11
9.78289428630896
 21
8.43613650703958
 31
0.0
  0
LINE
  5
221
330
71
100
AcDbEntity
  8
1
  6
Continuous
 62
     2
100
AcDbLine
 10
9.78289428630896
 20
3.43613650703946
 30
0.0
 11
-40.21710571369104
 21
3.43613650703946
 31
0.0
  0
LINE
  5
222
330
71
100
AcDbEntity
  8
1
  6
Continuous
 62
     2
100
AcDbLine
 10
-233.7171057136891
 20
8.43613650703958
 30
0.0
 11
-233.7171057136891
 21
3.43613650703946
 31
0.0
  0
LINE
  5
223
330
71
100
AcDbEntity
  8
1
  6
Continuous
 62
     2
100
AcDbLine
 10
-233.7171057136891
 20
3.43613650703946
 30
0.0
 11
-190.217105713691
 21
3.43613650703946
 31
0.0
  0
LINE
  5
224
330
71
100
AcDbEntity
  8
1
  6
Continuous
 62
     2
100
AcDbLine
 10
-233.7171057136891
 20
8.43613650703958
 30
0.0
 11
-238.7171057136901
 21
8.43613650703958
 31
0.0
  0
LINE
  5
225
330
71
100
AcDbEntity
  8
1
  6
Continuous
 62
     2
100
AcDbLine
 10
-238.7171057136901
 20
8.43613650703958
 30
0.0
 11
-238.7171057136901
 21
3.43613650703946
 31
0.0
  0
LINE
  5
226
330
71
100
AcDbEntity
  8
1
  6
Continuous
 62
     6
100
AcDbLine
 10
53.28289428630897
 20
8.43613650703958
 30
0.0
 11
53.28289428631027
 21
16.93613650703958
 31
0.0
  0
LINE
  5
227
330
71
100
AcDbEntity
  8
1
  6
Continuous
 62
     6
100
AcDbLine
 10
-39.86191024044112
 20
8.43613650703946
 30
0.0
 11
9.78289428630896
 21
8.43613650703958
 31
0.0
  0
LINE
  5
228
330
71
100
AcDbEntity
  8
1
  6
Continuous
 62
     6
100
AcDbLine
 10
-192.5171057136913
 20
8.43613650703946
 30
0.0
 11
-190.217105713691
 21
8.43613650703958
 31
0.0
  0
LINE
  5
229
330
71
100
AcDbEntity
  8
1
  6
Continuous
 62
     6
100
AcDbLine
 10
-90.21710571369101
 20
8.43613650703958
 30
0.0
 11
-140.2171057136912
 21
8.43613650703958
 31
0.0
  0
LINE
  5
22A
330
71
100
AcDbEntity
  8
1
  6
Continuous
 62
     7
100
AcDbLine
 10
-76.26191024044104
 20
25.43613650703958
 30
0.0
 11
-76.26191024044104
 21
12.68613650703946
 31
0.0
  0
LINE
  5
22B
330
71
100
AcDbEntity
  8
1
  6
Continuous
 62
     7
100
AcDbLine
 10
-39.86191024044112
 20
25.43613650703958
 30
0.0
 11
-39.86191024044112
 21
12.68613650703958
 31
0.0
  0
LINE
  5
22C
330
71
100
AcDbEntity
  8
1
  6
Continuous
 62
     6
100
AcDbLine
 10
-192.5171057136913
 20
8.43613650703946
 30
0.0
 11
-198.7171057136893
 21
8.43613650703958
 31
0.0
  0
LINE
  5
22D
330
71
100
AcDbEntity
  8
1
  6
Continuous
 62
     6
100
AcDbLine
 10
-39.86191024044112
 20
8.43613650703946
 30
0.0
 11
-40.21710571369104
 21
8.43613650703958
 31
0.0
  0
LINE
  5
22E
330
71
100
AcDbEntity
  8
1
  6
Continuous
 62
     6
100
AcDbLine
 10
53.28289428631067
 20
25.43613650703958
 30
0.0
 11
53.28289428631027
 21
16.93613650703958
 31
0.0
  0
LINE
  5
22F
330
71
100
AcDbEntity
  8
1
  6
Continuous
 62
     6
100
AcDbLine
 10
-198.7171057136893
 20
8.43613650703958
 30
0.0
 11
-233.7171057136891
 21
8.43613650703958
 31
0.0
  0
LINE
  5
230
330
71
100
AcDbEntity
  8
1
  6
Continuous
 62
     2
100
AcDbLine
 10
-72.02525535387844
 20
30.81113650703949
 30
0.0
 11
-67.02525535387844
 21
32.06113650703949
 31
0.0
  0
LINE
  5
231
330
71
100
AcDbEntity
  8
1
  6
Continuous
 62
     2
100
AcDbLine
 10
-72.02525535387844
 20
28.31113650703949
 30
0.0
 11
-72.02525535387844
 21
30.81113650703949
 31
0.0
  0
LINE
  5
232
330
71
100
AcDbEntity
  8
1
  6
Continuous
 62
     2
100
AcDbLine
 10
-67.02525535387844
 20
27.06113650703949
 30
0.0
 11
-72.02525535387844
 21
28.31113650703949
 31
0.0
  0
LINE
  5
233
330
71
100
AcDbEntity
  8
1
  6
Continuous
 62
     2
100
AcDbLine
 10
-67.02525535387844
 20
32.06113650703949
 30
0.0
 11
-67.02525535387844
 21
27.06113650703949
 31
0.0
  0
LINE
  5
234
330
71
100
AcDbEntity
  8
1
  6
Continuous
 62
     7
100
AcDbLine
 10
-76.26191024044104
 20
12.68613650703946
 30
0.0
 11
-58.06191024044102
 21
12.68613650703958
 31
0.0
  0
LINE
  5
235
330
71
100
AcDbEntity
  8
1
  6
Continuous
 62
     7
100
AcDbLine
 10
-76.26191024044104
 20
12.68613650703946
 30
0.0
 11
-76.26191024044104
 21
8.43613650703946
 31
0.0
  0
LINE
  5
236
330
71
100
AcDbEntity
  8
1
  6
Continuous
 62
     7
100
AcDbLine
 10
-39.86191024044112
 20
12.68613650703958
 30
0.0
 11
-39.86191024044112
 21
8.43613650703946
 31
0.0
  0
LINE
  5
237
330
71
100
AcDbEntity
  8
1
  6
Continuous
 62
     7
100
AcDbLine
 10
-58.06191024044102
 20
12.68613650703958
 30
0.0
 11
-58.06191024044102
 21
8.43613650703958
 31
0.0
  0
LINE
  5
238
330
71
100
AcDbEntity
  8
1
  6
Continuous
 62
     6
100
AcDbLine
 10
-58.06191024044102
 20
8.43613650703958
 30
0.0
 11
-76.26191024044104
 21
8.43613650703946
 31
0.0
  0
LINE
  5
239
330
71
100
AcDbEntity
  8
1
  6
Continuous
 62
     7
100
AcDbLine
 10
-58.06191024044102
 20
12.68613650703958
 30
0.0
 11
-39.86191024044112
 21
12.68613650703958
 31
0.0
  0
LINE
  5
23A
330
71
100
AcDbEntity
  8
1
  6
Continuous
 62
     6
100
AcDbLine
 10
-76.26191024044104
 20
33.93613650703958
 30
0.0
 11
53.28289428631067
 21
33.93613650703958
 31
0.0
  0
ARC
  5
23B
102
{ACAD_REACTORS
330
2A3
330
2A4
102
}
330
71
100
AcDbEntity
  8
0
  6
Continuous
 62
     2
100
AcDbCircle
 10
-60.87026224148104
 20
17.25654126896117
 30
0.0
 40
0.7717997786797003
100
AcDbArc
 50
321.879580202842
 51
38.12041979715337
  0
ARC
  5
23C
102
{ACAD_REACTORS
330
2A3
330
2A4
102
}
330
71
100
AcDbEntity
  8
0
  6
Continuous
 62
     2
100
AcDbCircle
 10
-60.67052220513463
 20
17.09981009084117
 30
0.0
 40
0.5179085730137354
100
AcDbArc
 50
218.1204197971931
 51
321.8795802028015
  0
ARC
  5
23D
102
{ACAD_REACTORS
330
2A3
330
2A4
102
}
330
71
100
AcDbEntity
  8
0
  6
Continuous
 62
     2
100
AcDbCircle
 10
-60.47078216878853
 20
17.25654126896117
 30
0.0
 40
0.7717997786794676
100
AcDbArc
 50
141.8795802028359
 51
218.1204197971687
  0
ARC
  5
23E
102
{ACAD_REACTORS
330
2A3
330
2A4
102
}
330
71
100
AcDbEntity
  8
0
  6
Continuous
 62
     2
100
AcDbCircle
 10
-60.67052220513463
 20
17.41327244708168
 30
0.0
 40
0.5179085730133076
100
AcDbArc
 50
38.12041979714686
 51
141.8795802028585
  0
ARC
  5
23F
102
{ACAD_REACTORS
330
29B
330
29C
102
}
330
71
100
AcDbEntity
  8
0
  6
Continuous
 62
     2
100
AcDbCircle
 10
-63.73253634069852
 20
15.84607490355299
 30
0.0
 40
2.227384008973473
100
AcDbArc
 50
58.06909105004065
 51
71.55192388186705
  0
ARC
  5
240
102
{ACAD_REACTORS
330
29B
330
29C
102
}
330
71
100
AcDbEntity
  8
0
  6
Continuous
 62
     2
100
AcDbCircle
 10
-63.47080863973974
 20
17.46161269830017
 30
0.0
 40
0.511580060194884
100
AcDbArc
 50
113.3722778881997
 51
151.4785267423048
  0
ARC
  5
241
102
{ACAD_REACTORS
330
29B
330
29C
102
}
330
71
100
AcDbEntity
  8
0
  6
Continuous
 62
     2
100
AcDbCircle
 10
-63.09345138165944
 20
17.25654126896117
 30
0.0
 40
0.9410597353332483
100
AcDbArc
 50
151.4785267422667
 51
208.5214732577059
  0
ARC
  5
242
102
{ACAD_REACTORS
330
29B
330
29C
102
}
330
71
100
AcDbEntity
  8
0
  6
Continuous
 62
     2
100
AcDbCircle
 10
-63.89040921579144
 20
20.56922221421758
 30
0.0
 40
4.852596863498144
100
AcDbArc
 50
275.1581447696251
 51
285.9799912583529
  0
ARC
  5
243
102
{ACAD_REACTORS
330
29B
330
29C
102
}
330
71
100
AcDbEntity
  8
0
  6
Continuous
 62
     2
100
AcDbCircle
 10
-63.60155312105553
 20
17.36933163099599
 30
0.0
 40
1.639695123939387
100
AcDbArc
 50
195.0618917770896
 51
275.1581447696398
  0
ARC
  5
244
102
{ACAD_REACTORS
330
29B
330
29C
102
}
330
71
100
AcDbEntity
  8
0
  6
Continuous
 62
     2
100
AcDbCircle
 10
-64.02068096451833
 20
17.25654126896117
 30
0.0
 40
1.205656168390944
100
AcDbArc
 50
164.9381082228765
 51
195.0618917770945
  0
ARC
  5
245
102
{ACAD_REACTORS
330
29B
330
29C
102
}
330
71
100
AcDbEntity
  8
0
  6
Continuous
 62
     2
100
AcDbCircle
 10
-63.60155312105553
 20
17.14375090692627
 30
0.0
 40
1.639695123940504
100
AcDbArc
 50
84.8418552303621
 51
164.9381082228866
  0
ARC
  5
246
102
{ACAD_REACTORS
330
29F
330
2A0
102
}
330
71
100
AcDbEntity
  8
0
  6
Continuous
 62
     2
100
AcDbCircle
 10
-68.43156737521744
 20
18.29036806331547
 30
0.0
 40
0.315716923076536
100
AcDbArc
 50
115.3740086783516
 51
180.0
  0
ARC
  5
247
102
{ACAD_REACTORS
330
29F
330
2A0
102
}
330
71
100
AcDbEntity
  8
0
  6
Continuous
 62
     2
100
AcDbCircle
 10
-68.43156737521744
 20
20.50865126325169
 30
0.0
 40
0.315716923076792
100
AcDbArc
 50
180.0
 51
244.6259913216482
  0
ARC
  5
248
102
{ACAD_REACTORS
330
29F
330
2A0
102
}
330
71
100
AcDbEntity
  8
0
  6
Continuous
 62
     2
100
AcDbCircle
 10
-68.42595123990742
 20
19.41135160418938
 30
0.0
 40
2.018561131933269
100
AcDbArc
 50
269.8110329575858
 51
90.18896704241416
  0
ARC
  5
249
102
{ACAD_REACTORS
330
29F
330
2A0
102
}
330
71
100
AcDbEntity
  8
0
  6
Continuous
 62
     2
100
AcDbCircle
 10
-68.43156737521744
 20
17.70851665662039
 30
0.0
 40
0.315716923076792
100
AcDbArc
 50
180.0
 51
269.8110329574542
  0
ARC
  5
24A
102
{ACAD_REACTORS
330
29D
330
29E
102
}
330
71
100
AcDbEntity
  8
0
  6
Continuous
 62
     2
100
AcDbCircle
 10
-47.36810716048683
 20
17.46161269830017
 30
0.0
 40
0.5115800601944234
100
AcDbArc
 50
109.3371432194858
 51
151.4785267424221
  0
ARC
  5
24B
102
{ACAD_REACTORS
330
29D
330
29E
102
}
330
71
100
AcDbEntity
  8
0
  6
Continuous
 62
     2
100
AcDbCircle
 10
-47.36810716048683
 20
17.05146983962268
 30
0.0
 40
0.5115800601960279
100
AcDbArc
 50
208.5214732576862
 51
246.6277221118445
  0
ARC
  5
24C
102
{ACAD_REACTORS
330
29D
330
29E
102
}
330
71
100
AcDbEntity
  8
0
  6
Continuous
 62
     2
100
AcDbCircle
 10
-47.91797948526423
 20
17.25654126896117
 30
0.0
 40
1.205656168392996
100
AcDbArc
 50
164.9381082229027
 51
195.0618917770957
  0
ARC
  5
24D
102
{ACAD_REACTORS
330
29D
330
29E
102
}
330
71
100
AcDbEntity
  8
0
  6
Continuous
 62
     2
100
AcDbCircle
 10
-47.49885164180262
 20
17.14375090692627
 30
0.0
 40
1.639695123940218
100
AcDbArc
 50
90.0
 51
164.9381082228951
  0
ARC
  5
24E
102
{ACAD_REACTORS
330
2A1
330
2A2
102
}
330
71
100
AcDbEntity
  8
0
  6
Continuous
 62
     2
100
AcDbCircle
 10
-56.92584673450634
 20
20.61573174513549
 30
0.0
 40
1.526904761905879
100
AcDbArc
 50
90.0
 51
270.0
  0
ARC
  5
24F
102
{ACAD_REACTORS
330
2A5
330
2A6
102
}
330
71
100
AcDbEntity
  8
0
  6
Continuous
 62
     2
100
AcDbCircle
 10
-63.66853747973212
 20
21.12666683693018
 30
0.0
 40
0.3528638246711111
100
AcDbArc
 50
270.0
 51
90.0
  0
ARC
  5
250
102
{ACAD_REACTORS
330
29F
330
2A0
102
}
330
71
100
AcDbEntity
  8
0
  6
Continuous
 62
     2
100
AcDbCircle
 10
-71.00711606174914
 20
21.11436402840658
 30
0.0
 40
0.3157169230761987
100
AcDbArc
 50
90.0
 51
180.0
  0
ARC
  5
251
102
{ACAD_REACTORS
330
29F
330
2A0
102
}
330
71
100
AcDbEntity
  8
0
  6
Continuous
 62
     2
100
AcDbCircle
 10
-69.00869835316453
 20
19.39950966328388
 30
0.0
 40
0.9118975235576114
100
AcDbArc
 50
115.1944106485283
 51
244.8055893514878
  0
ARC
  5
252
102
{ACAD_REACTORS
330
29F
330
2A0
102
}
330
71
100
AcDbEntity
  8
0
  6
Continuous
 62
     2
100
AcDbCircle
 10
-69.53128280073952
 20
18.28867991722109
 30
0.0
 40
0.315716923076593
100
AcDbArc
 50
0.0
 51
64.80558935146027
  0
ARC
  5
253
102
{ACAD_REACTORS
330
29F
330
2A0
102
}
330
71
100
AcDbEntity
  8
0
  6
Continuous
 62
     2
100
AcDbCircle
 10
-71.60101073849563
 20
16.15388112243917
 30
0.0
 40
0.4242446153828041
100
AcDbArc
 50
180.0
 51
270.0
  0
ARC
  5
254
102
{ACAD_REACTORS
330
2A1
330
2A2
102
}
330
71
100
AcDbEntity
  8
0
  6
Continuous
 62
     2
100
AcDbCircle
 10
-56.70957472434114
 20
20.77246292325597
 30
0.0
 40
0.5179085730135288
100
AcDbArc
 50
38.12041979714365
 51
141.8795802028486
  0
ARC
  5
255
102
{ACAD_REACTORS
330
2A1
330
2A2
102
}
330
71
100
AcDbEntity
  8
0
  6
Continuous
 62
     2
100
AcDbCircle
 10
-56.50983468799484
 20
20.61573174513549
 30
0.0
 40
0.7717997786796724
100
AcDbArc
 50
141.8795802028404
 51
218.1204197971562
  0
ARC
  5
256
102
{ACAD_REACTORS
330
2A3
330
2A4
102
}
330
71
100
AcDbEntity
  8
0
  6
Continuous
 62
     2
100
AcDbCircle
 10
-60.67052220513463
 20
17.79511627926448
 30
0.0
 40
2.065479772208515
100
AcDbArc
 50
242.4518518243403
 51
297.5481481756868
  0
ARC
  5
257
102
{ACAD_REACTORS
330
2A3
330
2A4
102
}
330
71
100
AcDbEntity
  8
0
  6
Continuous
 62
     2
100
AcDbCircle
 10
-60.67052220513463
 20
16.71796625865838
 30
0.0
 40
2.065479772208564
100
AcDbArc
 50
62.45185182430654
 51
117.5481481756664
  0
ARC
  5
258
102
{ACAD_REACTORS
330
2A3
330
2A4
102
}
330
71
100
AcDbEntity
  8
0
  6
Continuous
 62
     2
100
AcDbCircle
 10
-60.95146209696793
 20
17.25654126896117
 30
0.0
 40
1.458034083651493
100
AcDbArc
 50
117.5481481756624
 51
242.4518518243375
  0
ARC
  5
259
102
{ACAD_REACTORS
330
2A3
330
2A4
102
}
330
71
100
AcDbEntity
  8
0
  6
Continuous
 62
     2
100
AcDbCircle
 10
-60.38958231330133
 20
17.25654126896117
 30
0.0
 40
1.458034083651999
100
AcDbArc
 50
297.5481481757009
 51
62.45185182429926
  0
ARC
  5
25A
102
{ACAD_REACTORS
330
2A1
330
2A2
102
}
330
71
100
AcDbEntity
  8
0
  6
Continuous
 62
     2
100
AcDbCircle
 10
-56.70957472434114
 20
20.45900056701507
 30
0.0
 40
0.5179085730134393
100
AcDbArc
 50
218.1204197971514
 51
321.8795802028563
  0
ARC
  5
25B
102
{ACAD_REACTORS
330
2A1
330
2A2
102
}
330
71
100
AcDbEntity
  8
0
  6
Continuous
 62
     2
100
AcDbCircle
 10
-56.90931476068732
 20
20.61573174513549
 30
0.0
 40
0.7717997786796373
100
AcDbArc
 50
321.8795802028437
 51
38.12041979715956
  0
ARC
  5
25C
102
{ACAD_REACTORS
330
29F
330
2A0
102
}
330
71
100
AcDbEntity
  8
0
  6
Continuous
 62
     2
100
AcDbCircle
 10
-66.12769864777883
 20
16.15388112243917
 30
0.0
 40
0.4242446153832802
100
AcDbArc
 50
270.0
 51
0.0
  0
ARC
  5
25D
102
{ACAD_REACTORS
330
29F
330
2A0
102
}
330
71
100
AcDbEntity
  8
0
  6
Continuous
 62
     2
100
AcDbCircle
 10
-66.12769864777883
 20
21.71839189163939
 30
0.0
 40
0.4242446153838841
100
AcDbArc
 50
0.0
 51
90.0
  0
ARC
  5
25E
102
{ACAD_REACTORS
330
29F
330
2A0
102
}
330
71
100
AcDbEntity
  8
0
  6
Continuous
 62
     2
100
AcDbCircle
 10
-71.60101073849563
 20
21.71839189163939
 30
0.0
 40
0.4242446153837918
100
AcDbArc
 50
90.0
 51
180.0
  0
ARC
  5
25F
102
{ACAD_REACTORS
330
29F
330
2A0
102
}
330
71
100
AcDbEntity
  8
0
  6
Continuous
 62
     2
100
AcDbCircle
 10
-69.53128280073952
 20
16.75790898568948
 30
0.0
 40
0.3157169230766996
100
AcDbArc
 50
270.0
 51
0.0
  0
ARC
  5
260
102
{ACAD_REACTORS
330
29F
330
2A0
102
}
330
71
100
AcDbEntity
  8
0
  6
Continuous
 62
     2
100
AcDbCircle
 10
-69.53128280073952
 20
20.51033940934607
 30
0.0
 40
0.3157169230761203
100
AcDbArc
 50
295.1944106485397
 51
0.0
  0
ARC
  5
261
102
{ACAD_REACTORS
330
29F
330
2A0
102
}
330
71
100
AcDbEntity
  8
0
  6
Continuous
 62
     2
100
AcDbCircle
 10
-69.53128280073952
 20
21.11436402840658
 30
0.0
 40
0.315716923076593
100
AcDbArc
 50
0.0
 51
90.0
  0
ARC
  5
262
102
{ACAD_REACTORS
330
29F
330
2A0
102
}
330
71
100
AcDbEntity
  8
0
  6
Continuous
 62
     2
100
AcDbCircle
 10
-71.00711606174914
 20
16.75790898568948
 30
0.0
 40
0.3157169230756836
100
AcDbArc
 50
180.0
 51
270.0
  0
ARC
  5
263
102
{ACAD_REACTORS
330
2A5
330
2A6
102
}
330
71
100
AcDbEntity
  8
0
  6
Continuous
 62
     2
100
AcDbCircle
 10
-63.22706495349374
 20
21.08727086570769
 30
0.0
 40
1.055365641333701
100
AcDbArc
 50
270.0
 51
90.0
  0
ARC
  5
264
102
{ACAD_REACTORS
330
29D
330
29E
102
}
330
71
100
AcDbEntity
  8
0
  6
Continuous
 62
     2
100
AcDbCircle
 10
-47.49885164180262
 20
17.36933163099599
 30
0.0
 40
1.639695123940448
100
AcDbArc
 50
195.0618917771012
 51
275.1581447696762
  0
ARC
  5
265
102
{ACAD_REACTORS
330
29D
330
29E
102
}
330
71
100
AcDbEntity
  8
0
  6
Continuous
 62
     2
100
AcDbCircle
 10
-47.78770773653844
 20
20.56922221421758
 30
0.0
 40
4.852596863498823
100
AcDbArc
 50
275.1581447696364
 51
285.9799912583386
  0
ARC
  5
266
102
{ACAD_REACTORS
330
29D
330
29E
102
}
330
71
100
AcDbEntity
  8
0
  6
Continuous
 62
     2
100
AcDbCircle
 10
-47.62983486144563
 20
18.66700763436927
 30
0.0
 40
2.227384008972746
100
AcDbArc
 50
288.4480761181335
 51
301.9309089499396
  0
ARC
  5
267
102
{ACAD_REACTORS
330
29D
330
29E
102
}
330
71
100
AcDbEntity
  8
0
  6
Continuous
 62
     2
100
AcDbCircle
 10
-47.21166712778373
 20
17.41346185833268
 30
0.0
 40
0.9059297849852768
100
AcDbArc
 50
246.6277221118181
 51
288.4480761180817
  0
ARC
  5
268
102
{ACAD_REACTORS
330
29D
330
29E
102
}
330
71
100
AcDbEntity
  8
0
  6
Continuous
 62
     2
100
AcDbCircle
 10
-46.99074990240544
 20
17.25654126896117
 30
0.0
 40
0.9410597353349021
100
AcDbArc
 50
151.4785267423623
 51
208.5214732576693
  0
ARC
  5
269
102
{ACAD_REACTORS
330
29D
330
29E
102
}
330
71
100
AcDbEntity
  8
0
  6
Continuous
 62
     2
100
AcDbCircle
 10
-47.22143716238313
 20
17.04365771791728
 30
0.0
 40
0.9545230068261006
100
AcDbArc
 50
90.0
 51
109.3371432194319
  0
ARC
  5
26A
102
{ACAD_REACTORS
330
29F
330
2A0
102
}
330
71
100
AcDbEntity
  8
0
  6
Continuous
 62
     2
100
AcDbCircle
 10
-68.43156737521744
 20
21.11418655175848
 30
0.0
 40
0.3157169230760746
100
AcDbArc
 50
90.18896704254594
 51
180.0
  0
ARC
  5
26B
102
{ACAD_REACTORS
330
29F
330
2A0
102
}
330
71
100
AcDbEntity
  8
0
  6
Continuous
 62
     2
100
AcDbCircle
 10
-68.95761007330532
 20
19.39950966328388
 30
0.0
 40
0.9118481501444557
100
AcDbArc
 50
295.3740086781766
 51
64.62599132180736
  0
ARC
  5
26C
102
{ACAD_REACTORS
330
29B
330
29C
102
}
330
71
100
AcDbEntity
  8
0
  6
Continuous
 62
     2
100
AcDbCircle
 10
-63.73253634069852
 20
18.66700763436987
 30
0.0
 40
2.227384008972739
100
AcDbArc
 50
288.448076118133
 51
301.9309089499592
  0
ARC
  5
26D
102
{ACAD_REACTORS
330
29B
330
29C
102
}
330
71
100
AcDbEntity
  8
0
  6
Continuous
 62
     2
100
AcDbCircle
 10
-63.31436860703772
 20
17.41346185833268
 30
0.0
 40
0.905929784984916
100
AcDbArc
 50
246.6277221118709
 51
288.4480761181586
  0
ARC
  5
26E
102
{ACAD_REACTORS
330
29B
330
29C
102
}
330
71
100
AcDbEntity
  8
0
  6
Continuous
 62
     2
100
AcDbCircle
 10
-63.47080863973974
 20
17.05146983962268
 30
0.0
 40
0.5115800601948096
100
AcDbArc
 50
208.5214732576952
 51
246.6277221118263
  0
ARC
  5
26F
102
{ACAD_REACTORS
330
29B
330
29C
102
}
330
71
100
AcDbEntity
  8
0
  6
Continuous
 62
     2
100
AcDbCircle
 10
-63.31436860703772
 20
17.09962067958958
 30
0.0
 40
0.9059297849853228
100
AcDbArc
 50
71.55192388185348
 51
113.372277888129
  0
ARC
  5
270
102
{ACAD_REACTORS
330
29B
330
29C
102
}
330
71
100
AcDbEntity
  8
0
  6
Continuous
 62
     2
100
AcDbCircle
 10
-63.89040921579144
 20
13.94386032370528
 30
0.0
 40
4.852596863498064
100
AcDbArc
 50
74.02000874164737
 51
84.84185523037489
  0
CIRCLE
  5
271
102
{ACAD_REACTORS
330
29F
330
2A0
102
}
330
71
100
AcDbEntity
  8
0
  6
Continuous
 62
     2
100
AcDbCircle
 10
-68.98142508797812
 20
19.39950966328388
 30
0.0
 40
0.4709789327785074
  0
CIRCLE
  5
272
330
71
100
AcDbEntity
  8
1
  6
Continuous
 62
     2
100
AcDbCircle
 10
-63.52525535387844
 20
29.56113650703949
 30
0.0
 40
1.249999999999922
  0
CIRCLE
  5
273
330
71
100
AcDbEntity
  8
1
  6
Continuous
 62
     2
100
AcDbCircle
 10
-63.52525535387844
 20
29.56113650703949
 30
0.0
 40
2.5
  0
TEXT
  5
274
330
71
100
AcDbEntity
  8
1
 62
     7
100
AcDbText
 10
-20.88836251842724
 20
26.73613650703948
 30
0.0
 40
2.5
  1
/
 41
0.9
  7
CONVERTER_11
100
AcDbText
  0
TEXT
  5
276
330
71
100
AcDbEntity
  8
1
 62
     7
100
AcDbText
 10
-18.73199802138524
 20
26.73613650703948
 30
0.0
 40
2.5
  1
00
 41
0.81
  7
CONVERTER_12
100
AcDbText
  0
TEXT
  5
277
330
71
100
AcDbEntity
  8
1
 62
     3
100
AcDbText
 10
18.86448600463186
 20
26.73613650703948
 30
0.0
 40
2.5
  1
27.01.2018
 41
0.81
  7
CONVERTER_12
100
AcDbText
  0
MTEXT
  5
278
330
71
100
AcDbEntity
  8
1
 62
     2
100
AcDbMText
 10
18.86448600463186
 20
32.93613650703949
 30
0.0
 40
1.8
 41
0.0
 71
     1
 72
     1
  1
date
  7
CONVERTER_11
 73
     1
 44
1.32052821128451
  0
MTEXT
  5
279
330
71
100
AcDbEntity
  8
1
 62
     2
100
AcDbMText
 10
-10.96191024044103
 20
24.43613650703949
 30
0.0
 40
1.8
 41
0.0
 71
     1
 72
     1
  1
document-type
  7
CONVERTER_11
 73
     1
 44
1.20048019207683
  0
TEXT
  5
27A
330
71
100
AcDbEntity
  8
1
 62
     3
100
AcDbText
 10
-10.96191024044103
 20
18.23613650703948
 30
0.0
 40
2.5
  1
TECDOC 2D_Productdrawing
 41
0.81
  7
CONVERTER_12
100
AcDbText
  0
MTEXT
  5
27C
330
71
100
AcDbEntity
  8
1
 62
     2
100
AcDbMText
 10
-38.76191024044104
 20
32.93613650703958
 30
0.0
 40
1.8
 41
0.0
 71
     1
 72
     1
  1
document-No. / RI
  7
CONVERTER_13
 73
     1
 44
1.32052821128451
  0
TEXT
  5
27D
330
71
100
AcDbEntity
  8
1
 62
     7
100
AcDbText
 10
-38.76191024044104
 20
26.73613650703948
 30
0.0
 40
2.5
  1
40200255
 41
0.81
  7
CONVERTER_12
100
AcDbText
  0
MTEXT
  5
27F
330
71
100
AcDbEntity
  8
1
 62
     3
100
AcDbMText
 10
48.82369014547128
 20
26.73613650703967
 30
0.0
 40
2.5
 41
0.0
 71
     8
 72
     1
  1
1:1
  7
CONVERTER_14
 73
     1
 44
1.32052821128451
  0
MTEXT
  5
280
330
71
100
AcDbEntity
  8
1
 62
     2
100
AcDbMText
 10
45.46448600463168
 20
32.93613650703958
 30
0.0
 40
1.8
 41
0.0
 71
     1
 72
     1
  1
scale
  7
CONVERTER_11
 73
     1
 44
1.20048019207683
  0
MTEXT
  5
281
330
71
100
AcDbEntity
  8
1
 62
     2
100
AcDbMText
 10
-38.76191024044104
 20
24.43613650703958
 30
0.0
 40
1.8
 41
0.0
 71
     1
 72
     1
  1
ident.-No.
  7
CONVERTER_11
 73
     1
 44
1.20048019207683
  0
TEXT
  5
282
330
71
100
AcDbEntity
  8
1
 62
     7
100
AcDbText
 10
-38.36191024044132
 20
18.23613650703948
 30
0.0
 40
2.5
  1
0205106
 41
0.81
  7
CONVERTER_12
100
AcDbText
  0
MTEXT
  5
283
330
71
100
AcDbEntity
  8
1
 62
     2
100
AcDbMText
 10
-110.6999249654886
 20
21.18613650703949
 30
0.0
 40
2.0
 41
0.0
 71
     5
 72
     1
  1
General Information\P- Simplified representation\P- Document excluded from change process\P- Linear dimensions [mm]
  7
CONVERTER_11
 73
     1
 44
1.20048019207683
  0
MTEXT
  5
284
330
71
100
AcDbEntity
  8
1
 62
     7
100
AcDbMText
 10
55.78289428630797
 20
83.43613650704148
 30
0.0
 40
3.5
 41
0.0
 71
     5
 72
     1
  1
C
  7
CONVERTER_11
 73
     1
 44
1.20048019207683
  0
MTEXT
  5
285
330
71
100
AcDbEntity
  8
1
 62
     7
100
AcDbMText
 10
55.78289428630797
 20
185.9361365070396
 30
0.0
 40
3.5
 41
0.0
 71
     5
 72
     1
  1
A
  7
CONVERTER_11
 73
     1
 44
1.20048019207683
  0
MTEXT
  5
286
330
71
100
AcDbEntity
  8
1
 62
     7
100
AcDbMText
 10
55.78289428630797
 20
133.4361365070415
 30
0.0
 40
3.5
 41
0.0
 71
     5
 72
     1
  1
B
  7
CONVERTER_11
 73
     1
 44
1.20048019207683
  0
MTEXT
  5
287
330
71
100
AcDbEntity
  8
1
 62
     7
100
AcDbMText
 10
55.78289428630797
 20
30.93613650703958
 30
0.0
 40
3.5
 41
0.0
 71
     5
 72
     1
  1
D
  7
CONVERTER_11
 73
     1
 44
1.20048019207683
  0
MTEXT
  5
288
330
71
100
AcDbEntity
  8
1
 62
     7
100
AcDbMText
 10
-214.4671057136906
 20
5.93613650703946
 30
0.0
 40
3.5
 41
0.0
 71
     5
 72
     1
  1
1
  7
CONVERTER_11
 73
     1
 44
1.20048019207683
  0
MTEXT
  5
289
330
71
100
AcDbEntity
  8
1
 62
     7
100
AcDbMText
 10
-165.217105713691
 20
5.93613650703946
 30
0.0
 40
3.5
 41
0.0
 71
     5
 72
     1
  1
2
  7
CONVERTER_11
 73
     1
 44
1.20048019207683
  0
MTEXT
  5
28A
330
71
100
AcDbEntity
  8
1
 62
     7
100
AcDbMText
 10
-115.217105713691
 20
5.93613650703946
 30
0.0
 40
3.5
 41
0.0
 71
     5
 72
     1
  1
3
  7
CONVERTER_11
 73
     1
 44
1.20048019207683
  0
MTEXT
  5
28B
330
71
100
AcDbEntity
  8
1
 62
     7
100
AcDbMText
 10
-65.21710571369113
 20
5.93613650703946
 30
0.0
 40
3.5
 41
0.0
 71
     5
 72
     1
  1
4
  7
CONVERTER_11
 73
     1
 44
1.20048019207683
  0
MTEXT
  5
28C
330
71
100
AcDbEntity
  8
1
 62
     7
100
AcDbMText
 10
-15.21710571369104
 20
5.93613650703946
 30
0.0
 40
3.5
 41
0.0
 71
     5
 72
     1
  1
5
  7
CONVERTER_11
 73
     1
 44
1.20048019207683
  0
MTEXT
  5
28D
330
71
100
AcDbEntity
  8
1
 62
     7
100
AcDbMText
 10
34.03289428630816
 20
5.93613650703946
 30
0.0
 40
3.5
 41
0.0
 71
     5
 72
     1
  1
6
  7
CONVERTER_11
 73
     1
 44
1.20048019207683
  0
MTEXT
  5
28E
330
71
100
AcDbEntity
  8
1
 62
     7
100
AcDbMText
 10
-236.2171057136901
 20
185.9361365070396
 30
0.0
 40
3.5
 41
0.0
 71
     5
 72
     1
  1
A
  7
CONVERTER_11
 73
     1
 44
1.20048019207683
  0
MTEXT
  5
28F
330
71
100
AcDbEntity
  8
1
 62
     7
100
AcDbMText
 10
-236.2171057136901
 20
133.4361365070396
 30
0.0
 40
3.5
 41
0.0
 71
     5
 72
     1
  1
B
  7
CONVERTER_11
 73
     1
 44
1.20048019207683
  0
MTEXT
  5
290
330
71
100
AcDbEntity
  8
1
 62
     7
100
AcDbMText
 10
-236.2171057136901
 20
83.43613650703958
 30
0.0
 40
3.5
 41
0.0
 71
     5
 72
     1
  1
C
  7
CONVERTER_11
 73
     1
 44
1.20048019207683
  0
MTEXT
  5
291
330
71
100
AcDbEntity
  8
1
 62
     7
100
AcDbMText
 10
-236.2171057136901
 20
30.93613650703958
 30
0.0
 40
3.5
 41
0.0
 71
     5
 72
     1
  1
D
  7
CONVERTER_11
 73
     1
 44
1.20048019207683
  0
MTEXT
  5
292
330
71
100
AcDbEntity
  8
1
 62
     3
100
AcDbMText
 10
-50.06191024044114
 20
29.56113650703958
 30
0.0
 40
2.5
 41
0.0
 71
     5
 72
     1
  1
DIN A4
  7
CONVERTER_11
 73
     1
 44
1.20048019207683
  0
MTEXT
  5
293
330
71
100
AcDbEntity
  8
1
 62
     2
100
AcDbMText
 10
-38.86191024044112
 20
15.93613650703958
 30
0.0
 40
1.8
 41
0.0
 71
     1
 72
     1
  1
description
  7
CONVERTER_11
 73
     1
 44
1.20048019207683
  0
MTEXT
  5
294
330
71
100
AcDbEntity
  8
1
 62
     7
100
AcDbMText
 10
6.71049202293446
 20
11.68613650703981
 30
0.0
 40
3.0
 41
0.0
 71
     5
 72
     1
  1
EB  3-15 K/UK 35
  7
CONVERTER_12
 73
     1
 44
1.20048019207683
  0
TEXT
  5
295
330
71
100
AcDbEntity
  8
1
 62
     2
100
AcDbText
 10
-51.82660143062753
 20
9.68613650703946
 30
0.0
 40
1.8
  1
1
 41
0.9
  7
CONVERTER_11
100
AcDbText
  0
TEXT
  5
296
330
71
100
AcDbEntity
  8
1
 62
     2
100
AcDbText
 10
-66.61564527009904
 20
9.63688785323757
 30
0.0
 40
1.8
  1
1
 41
0.9
  7
CONVERTER_11
100
AcDbText
  0
TEXT
  5
297
330
71
100
AcDbEntity
  8
1
 62
     2
100
AcDbText
 10
-75.26191024044104
 20
9.67711929204791
 30
0.0
 40
1.8
  1
page
 41
0.9
  7
CONVERTER_11
100
AcDbText
  0
TEXT
  5
298
330
71
100
AcDbEntity
  8
1
 62
     2
100
AcDbText
 10
-57.06191024044122
 20
9.67711929204796
 30
0.0
 40
1.8
  1
of
 41
0.9
  7
CONVERTER_11
100
AcDbText
  0
MTEXT
  5
299
330
71
100
AcDbEntity
  8
1
 62
     3
100
AcDbMText
 10
-50.85892808883114
 20
195.2274446623384
 30
0.0
 40
1.8
 41
0.0
 71
     7
 72
     1
  3
Transfer or duplication of this document as well as the utilisation or\Pcommunication of its content are not permitted unless express consent\Pis granted. Violations give rise to claims for damages. All rights reserved\Pin case of patent, utility mo
  1
del or design patent registrations.
  7
CONVERTER_11
 73
     1
 44
0.99639855942377
  0
MTEXT
  5
29A
330
71
100
AcDbEntity
  8
1
 62
     3
100
AcDbMText
 10
-233.7120379276192
 20
195.2274446623384
 30
0.0
 40
1.8
 41
0.0
 71
     7
 72
     1
  3
Weitergabe sowie Vervielf\U+00e4ltigung dieses Dokuments, Verwertung und \PMitteilung seines Inhalts sind verboten, soweit nicht ausdr\U+00fccklich gestattet. \PZuwiderhandlungen verpflichten zu Schadenersatz. Alle Rechte f\U+00fcr den Fall\Pder Pat
  1
ent-, Gebrauchsmuster- oder Designeintragung vorbehalten.
  7
CONVERTER_11
 73
     1
 44
0.99639855942377
  0
HATCH
  5
29B
330
71
100
AcDbEntity
  8
1
  6
Continuous
 62
     2
100
AcDbHatch
 10
0.0
 20
0.0
 30
0.0
210
0.0
220
0.0
230
1.0
  2
_USER
 70
     0
 71
     1
 91
        1
 92
        1
 93
       14
 72
     2
 10
-64.02068096451833
 20
17.25654126896117
 40
1.205656168390944
 50
164.9381082228765
 51
195.0618917770945
 73
     1
 72
     2
 10
-63.60155312105553
 20
17.36933163099599
 40
1.639695123939387
 50
195.0618917770896
 51
275.1581447696398
 73
     1
 72
     2
 10
-63.89040921579144
 20
20.56922221421758
 40
4.852596863498144
 50
275.1581447696251
 51
285.9799912583529
 73
     1
 72
     1
 10
-62.55448129867364
 20
15.90413990841677
 11
-62.55448129867364
 21
16.77665691521997
 72
     2
 10
-63.73253634069852
 20
18.66700763436987
 40
2.227384008972739
 50
58.0690910500408
 51
71.55192388186703
 73
     0
 72
     2
 10
-63.31436860703772
 20
17.41346185833268
 40
0.905929784984916
 50
71.55192388184147
 51
113.3722778881291
 73
     0
 72
     2
 10
-63.47080863973974
 20
17.05146983962268
 40
0.5115800601948096
 50
113.3722778881737
 51
151.4785267423048
 73
     0
 72
     2
 10
-63.09345138165944
 20
17.25654126896117
 40
0.9410597353332483
 50
151.4785267422941
 51
208.5214732577333
 73
     0
 72
     2
 10
-63.47080863973974
 20
17.46161269830017
 40
0.511580060194884
 50
208.5214732576952
 51
246.6277221118003
 73
     0
 72
     2
 10
-63.31436860703772
 20
17.09962067958958
 40
0.9059297849853228
 50
246.6277221118709
 51
288.4480761181465
 73
     0
 72
     2
 10
-63.73253634069852
 20
15.84607490355299
 40
2.227384008973473
 50
288.4480761181329
 51
301.9309089499593
 73
     0
 72
     1
 10
-62.55448129867364
 20
17.73642562270288
 11
-62.55448129867364
 21
18.60894262950617
 72
     2
 10
-63.89040921579144
 20
13.94386032370528
 40
4.852596863498064
 50
74.02000874164737
 51
84.84185523037489
 73
     1
 72
     2
 10
-63.60155312105553
 20
17.14375090692627
 40
1.639695123940504
 50
84.8418552303621
 51
164.9381082228866
 73
     1
 97
       14
330
270
330
189
330
23F
330
26F
330
240
330
241
330
26E
330
26D
330
26C
330
18A
330
242
330
243
330
244
330
245
 75
     1
 76
     0
 52
45.0
 41
0.1
 77
     0
 78
     1
 53
45.0
 43
0.0
 44
0.0
 45
-0.0707106781186548
 46
0.0707106781186548
 79
     0
 98
        1
 10
0.0
 20
0.0
  0
HATCH
  5
29C
330
71
100
AcDbEntity
  8
1
  6
Continuous
 62
     2
100
AcDbHatch
 10
0.0
 20
0.0
 30
0.0
210
0.0
220
0.0
230
1.0
  2
_USER
 70
     0
 71
     1
 91
        1
 92
        1
 93
       14
 72
     2
 10
-64.02068096451833
 20
17.25654126896117
 40
1.205656168390944
 50
164.9381082228765
 51
195.0618917770945
 73
     1
 72
     2
 10
-63.60155312105553
 20
17.36933163099599
 40
1.639695123939387
 50
195.0618917770896
 51
275.1581447696398
 73
     1
 72
     2
 10
-63.89040921579144
 20
20.56922221421758
 40
4.852596863498144
 50
275.1581447696251
 51
285.9799912583529
 73
     1
 72
     1
 10
-62.55448129867364
 20
15.90413990841677
 11
-62.55448129867364
 21
16.77665691521997
 72
     2
 10
-63.73253634069852
 20
18.66700763436987
 40
2.227384008972739
 50
58.0690910500408
 51
71.55192388186703
 73
     0
 72
     2
 10
-63.31436860703772
 20
17.41346185833268
 40
0.905929784984916
 50
71.55192388184147
 51
113.3722778881291
 73
     0
 72
     2
 10
-63.47080863973974
 20
17.05146983962268
 40
0.5115800601948096
 50
113.3722778881737
 51
151.4785267423048
 73
     0
 72
     2
 10
-63.09345138165944
 20
17.25654126896117
 40
0.9410597353332483
 50
151.4785267422941
 51
208.5214732577333
 73
     0
 72
     2
 10
-63.47080863973974
 20
17.46161269830017
 40
0.511580060194884
 50
208.5214732576952
 51
246.6277221118003
 73
     0
 72
     2
 10
-63.31436860703772
 20
17.09962067958958
 40
0.9059297849853228
 50
246.6277221118709
 51
288.4480761181465
 73
     0
 72
     2
 10
-63.73253634069852
 20
15.84607490355299
 40
2.227384008973473
 50
288.4480761181329
 51
301.9309089499593
 73
     0
 72
     1
 10
-62.55448129867364
 20
17.73642562270288
 11
-62.55448129867364
 21
18.60894262950617
 72
     2
 10
-63.89040921579144
 20
13.94386032370528
 40
4.852596863498064
 50
74.02000874164737
 51
84.84185523037489
 73
     1
 72
     2
 10
-63.60155312105553
 20
17.14375090692627
 40
1.639695123940504
 50
84.8418552303621
 51
164.9381082228866
 73
     1
 97
       14
330
270
330
189
330
23F
330
26F
330
240
330
241
330
26E
330
26D
330
26C
330
18A
330
242
330
243
330
244
330
245
 75
     1
 76
     0
 52
45.0
 41
0.1
 77
     0
 78
     1
 53
45.0
 43
0.0
 44
0.0
 45
-0.0707106781186548
 46
0.0707106781186548
 79
     0
 98
        1
 10
0.0
 20
0.0
  0
HATCH
  5
29D
330
71
100
AcDbEntity
  8
1
  6
Continuous
 62
     2
100
AcDbHatch
 10
0.0
 20
0.0
 30
0.0
210
0.0
220
0.0
230
1.0
  2
_USER
 70
     0
 71
     1
 91
        1
 92
        1
 93
       18
 72
     2
 10
-47.49885164180262
 20
17.14375090692627
 40
1.639695123940218
 50
90.0
 51
164.9381082228951
 73
     1
 72
     2
 10
-47.91797948526423
 20
17.25654126896117
 40
1.205656168392996
 50
164.9381082229027
 51
195.0618917770957
 73
     1
 72
     2
 10
-47.49885164180262
 20
17.36933163099599
 40
1.639695123940448
 50
195.0618917771012
 51
275.1581447696762
 73
     1
 72
     2
 10
-47.78770773653844
 20
20.56922221421758
 40
4.852596863498823
 50
275.1581447696364
 51
285.9799912583386
 73
     1
 72
     1
 10
-46.45177981942172
 20
15.90413990841617
 11
-46.45177981942172
 21
16.77665691521949
 72
     2
 10
-47.62983486144563
 20
18.66700763436927
 40
2.227384008972746
 50
58.0690910500604
 51
71.55192388186651
 73
     0
 72
     2
 10
-47.21166712778373
 20
17.41346185833268
 40
0.9059297849852768
 50
71.55192388191827
 51
113.3722778881818
 73
     0
 72
     2
 10
-47.36810716048683
 20
17.05146983962268
 40
0.5115800601960279
 50
113.3722778881554
 51
151.4785267423138
 73
     0
 72
     2
 10
-46.99074990240544
 20
17.25654126896117
 40
0.9410597353349021
 50
151.4785267423307
 51
208.5214732576377
 73
     0
 72
     2
 10
-47.36810716048683
 20
17.46161269830017
 40
0.5115800601944234
 50
208.5214732575778
 51
250.6628567805143
 73
     0
 72
     2
 10
-47.22143716238313
 20
17.04365771791728
 40
0.9545230068261006
 50
250.6628567805681
 51
270.0
 73
     0
 72
     1
 10
-47.22143716238313
 20
17.99818072474338
 11
-46.11779786281502
 21
17.99818072474338
 72
     1
 10
-46.11779786281502
 20
17.99818072474338
 11
-46.11779786281502
 21
15.72963650705589
 72
     1
 10
-46.11779786281502
 20
15.72963650705589
 11
-44.92500516064732
 21
15.72963650705589
 72
     1
 10
-44.92500516064732
 20
15.72963650705589
 11
-44.92500516064732
 21
17.99818072474338
 72
     1
 10
-44.92500516064732
 20
17.99818072474338
 11
-44.11390612317393
 21
17.99818072474338
 72
     1
 10
-44.11390612317393
 20
17.99818072474338
 11
-44.11390612317393
 21
18.78344603086697
 72
     1
 10
-44.11390612317393
 20
18.78344603086697
 11
-47.49885164180262
 21
18.78344603086649
 97
       18
330
1EF
330
1EE
330
1ED
330
1EC
330
1F1
330
18B
330
269
330
24A
330
268
330
24B
330
267
330
266
330
18C
330
265
330
264
330
24C
330
24D
330
1F0
 75
     1
 76
     0
 52
45.0
 41
0.1
 77
     0
 78
     1
 53
45.0
 43
0.0
 44
0.0
 45
-0.0707106781186548
 46
0.0707106781186548
 79
     0
 98
        1
 10
0.0
 20
0.0
  0
HATCH
  5
29E
330
71
100
AcDbEntity
  8
1
  6
Continuous
 62
     2
100
AcDbHatch
 10
0.0
 20
0.0
 30
0.0
210
0.0
220
0.0
230
1.0
  2
_USER
 70
     0
 71
     1
 91
        1
 92
        1
 93
       18
 72
     2
 10
-47.49885164180262
 20
17.14375090692627
 40
1.639695123940218
 50
90.0
 51
164.9381082228951
 73
     1
 72
     2
 10
-47.91797948526423
 20
17.25654126896117
 40
1.205656168392996
 50
164.9381082229027
 51
195.0618917770957
 73
     1
 72
     2
 10
-47.49885164180262
 20
17.36933163099599
 40
1.639695123940448
 50
195.0618917771012
 51
275.1581447696762
 73
     1
 72
     2
 10
-47.78770773653844
 20
20.56922221421758
 40
4.852596863498823
 50
275.1581447696364
 51
285.9799912583386
 73
     1
 72
     1
 10
-46.45177981942172
 20
15.90413990841617
 11
-46.45177981942172
 21
16.77665691521949
 72
     2
 10
-47.62983486144563
 20
18.66700763436927
 40
2.227384008972746
 50
58.0690910500604
 51
71.55192388186651
 73
     0
 72
     2
 10
-47.21166712778373
 20
17.41346185833268
 40
0.9059297849852768
 50
71.55192388191827
 51
113.3722778881818
 73
     0
 72
     2
 10
-47.36810716048683
 20
17.05146983962268
 40
0.5115800601960279
 50
113.3722778881554
 51
151.4785267423138
 73
     0
 72
     2
 10
-46.99074990240544
 20
17.25654126896117
 40
0.9410597353349021
 50
151.4785267423307
 51
208.5214732576377
 73
     0
 72
     2
 10
-47.36810716048683
 20
17.46161269830017
 40
0.5115800601944234
 50
208.5214732575778
 51
250.6628567805143
 73
     0
 72
     2
 10
-47.22143716238313
 20
17.04365771791728
 40
0.9545230068261006
 50
250.6628567805681
 51
270.0
 73
     0
 72
     1
 10
-47.22143716238313
 20
17.99818072474338
 11
-46.11779786281502
 21
17.99818072474338
 72
     1
 10
-46.11779786281502
 20
17.99818072474338
 11
-46.11779786281502
 21
15.72963650705589
 72
     1
 10
-46.11779786281502
 20
15.72963650705589
 11
-44.92500516064732
 21
15.72963650705589
 72
     1
 10
-44.92500516064732
 20
15.72963650705589
 11
-44.92500516064732
 21
17.99818072474338
 72
     1
 10
-44.92500516064732
 20
17.99818072474338
 11
-44.11390612317393
 21
17.99818072474338
 72
     1
 10
-44.11390612317393
 20
17.99818072474338
 11
-44.11390612317393
 21
18.78344603086697
 72
     1
 10
-44.11390612317393
 20
18.78344603086697
 11
-47.49885164180262
 21
18.78344603086649
 97
       18
330
1EF
330
1EE
330
1ED
330
1EC
330
1F1
330
18B
330
269
330
24A
330
268
330
24B
330
267
330
266
330
18C
330
265
330
264
330
24C
330
24D
330
1F0
 75
     1
 76
     0
 52
45.0
 41
0.1
 77
     0
 78
     1
 53
45.0
 43
0.0
 44
0.0
 45
-0.0707106781186548
 46
0.0707106781186548
 79
     0
 98
        1
 10
0.0
 20
0.0
  0
HATCH
  5
29F
330
71
100
AcDbEntity
  8
1
  6
Continuous
 62
     2
100
AcDbHatch
 10
0.0
 20
0.0
 30
0.0
210
0.0
220
0.0
230
1.0
  2
_USER
 70
     0
 71
     1
 91
        4
 92
        1
 93
        8
 72
     2
 10
-71.60101073849563
 20
21.71839189163939
 40
0.4242446153837918
 50
90.0
 51
180.0
 73
     1
 72
     1
 10
-72.02525535387844
 20
21.71839189163939
 11
-72.02525535387844
 21
16.15388112243917
 72
     2
 10
-71.60101073849563
 20
16.15388112243917
 40
0.4242446153828041
 50
180.0
 51
270.0
 73
     1
 72
     1
 10
-71.60101073849563
 20
15.72963650705589
 11
-66.12769864777883
 21
15.72963650705589
 72
     2
 10
-66.12769864777883
 20
16.15388112243917
 40
0.4242446153832802
 50
270.0
 51
360.0
 73
     1
 72
     1
 10
-65.70345403239494
 20
16.15388112243917
 11
-65.70345403239494
 21
21.71839189163939
 72
     2
 10
-66.12769864777883
 20
21.71839189163939
 40
0.4242446153838841
 50
0.0
 51
90.0
 73
     1
 72
     1
 10
-66.12769864777883
 20
22.14263650702318
 11
-71.60101073849563
 21
22.14263650702318
 97
        8
330
25D
330
1BA
330
25C
330
1BB
330
253
330
1B8
330
25E
330
1B9
 92
       16
 93
        1
 72
     2
 10
-68.98142508797812
 20
19.39950966328388
 40
0.4709789327785074
 50
0.0
 51
360.0
 73
     1
 97
        1
330
271
 92
       16
 93
        8
 72
     2
 10
-68.95761007330532
 20
19.39950966328388
 40
0.9118481501444557
 50
295.3740086781766
 51
424.6259913218074
 73
     1
 72
     2
 10
-68.43156737521744
 20
20.50865126325169
 40
0.315716923076792
 50
115.3740086783518
 51
180.0
 73
     0
 72
     1
 10
-68.74728429829423
 20
20.50865126325169
 11
-68.74728429829423
 21
21.11418655175848
 72
     2
 10
-68.43156737521744
 20
21.11418655175848
 40
0.3157169230760746
 50
180.0
 51
269.8110329574541
 73
     0
 72
     2
 10
-68.42595123990742
 20
19.41135160418938
 40
2.018561131933269
 50
269.8110329575858
 51
450.1889670424142
 73
     0
 72
     2
 10
-68.43156737521744
 20
17.70851665662039
 40
0.315716923076792
 50
90.18896704254585
 51
180.0
 73
     0
 72
     1
 10
-68.74728429829423
 20
17.70851665662039
 11
-68.74728429829423
 21
18.29036806331547
 72
     2
 10
-68.43156737521744
 20
18.29036806331547
 40
0.315716923076536
 50
180.0
 51
244.6259913216484
 73
     0
 97
        8
330
26B
330
247
330
1F3
330
26A
330
248
330
249
330
1F2
330
246
 92
       16
 93
       12
 72
     1
 10
-71.00711606174914
 20
16.44219206261278
 11
-69.53128280073952
 21
16.44219206261278
 72
     2
 10
-69.53128280073952
 20
16.75790898568948
 40
0.3157169230766996
 50
270.0
 51
360.0
 73
     1
 72
     1
 10
-69.21556587766293
 20
16.75790898568948
 11
-69.21556587766293
 21
18.28867991722109
 72
     2
 10
-69.53128280073952
 20
18.28867991722109
 40
0.315716923076593
 50
0.0
 51
64.80558935146027
 73
     1
 72
     2
 10
-69.00869835316453
 20
19.39950966328388
 40
0.9118975235576114
 50
115.1944106485122
 51
244.8055893514717
 73
     0
 72
     2
 10
-69.53128280073952
 20
20.51033940934607
 40
0.3157169230761203
 50
295.1944106485397
 51
360.0
 73
     1
 72
     1
 10
-69.21556587766293
 20
20.51033940934607
 11
-69.21556587766293
 21
21.11436402840658
 72
     2
 10
-69.53128280073952
 20
21.11436402840658
 40
0.315716923076593
 50
0.0
 51
90.0
 73
     1
 72
     1
 10
-69.53128280073952
 20
21.43008095148278
 11
-71.00711606174914
 21
21.43008095148278
 72
     2
 10
-71.00711606174914
 20
21.11436402840658
 40
0.3157169230761987
 50
90.0
 51
180.0
 73
     1
 72
     1
 10
-71.32283298482483
 20
21.11436402840658
 11
-71.32283298482483
 21
16.75790898568948
 72
     2
 10
-71.00711606174914
 20
16.75790898568948
 40
0.3157169230756836
 50
180.0
 51
270.0
 73
     1
 97
       12
330
1BF
330
250
330
1BE
330
261
330
1BD
330
260
330
251
330
252
330
1BC
330
25F
330
1B7
330
262
 75
     1
 76
     0
 52
45.0
 41
0.1
 77
     0
 78
     1
 53
45.0
 43
0.0
 44
0.0
 45
-0.0707106781186548
 46
0.0707106781186548
 79
     0
 98
        1
 10
0.0
 20
0.0
  0
HATCH
  5
2A0
330
71
100
AcDbEntity
  8
1
  6
Continuous
 62
     2
100
AcDbHatch
 10
0.0
 20
0.0
 30
0.0
210
0.0
220
0.0
230
1.0
  2
_USER
 70
     0
 71
     1
 91
        4
 92
        1
 93
        8
 72
     2
 10
-71.60101073849563
 20
21.71839189163939
 40
0.4242446153837918
 50
90.0
 51
180.0
 73
     1
 72
     1
 10
-72.02525535387844
 20
21.71839189163939
 11
-72.02525535387844
 21
16.15388112243917
 72
     2
 10
-71.60101073849563
 20
16.15388112243917
 40
0.4242446153828041
 50
180.0
 51
270.0
 73
     1
 72
     1
 10
-71.60101073849563
 20
15.72963650705589
 11
-66.12769864777883
 21
15.72963650705589
 72
     2
 10
-66.12769864777883
 20
16.15388112243917
 40
0.4242446153832802
 50
270.0
 51
360.0
 73
     1
 72
     1
 10
-65.70345403239494
 20
16.15388112243917
 11
-65.70345403239494
 21
21.71839189163939
 72
     2
 10
-66.12769864777883
 20
21.71839189163939
 40
0.4242446153838841
 50
0.0
 51
90.0
 73
     1
 72
     1
 10
-66.12769864777883
 20
22.14263650702318
 11
-71.60101073849563
 21
22.14263650702318
 97
        8
330
25D
330
1BA
330
25C
330
1BB
330
253
330
1B8
330
25E
330
1B9
 92
       16
 93
        1
 72
     2
 10
-68.98142508797812
 20
19.39950966328388
 40
0.4709789327785074
 50
0.0
 51
360.0
 73
     1
 97
        1
330
271
 92
       16
 93
        8
 72
     2
 10
-68.95761007330532
 20
19.39950966328388
 40
0.9118481501444557
 50
295.3740086781766
 51
424.6259913218074
 73
     1
 72
     2
 10
-68.43156737521744
 20
20.50865126325169
 40
0.315716923076792
 50
115.3740086783518
 51
180.0
 73
     0
 72
     1
 10
-68.74728429829423
 20
20.50865126325169
 11
-68.74728429829423
 21
21.11418655175848
 72
     2
 10
-68.43156737521744
 20
21.11418655175848
 40
0.3157169230760746
 50
180.0
 51
269.8110329574541
 73
     0
 72
     2
 10
-68.42595123990742
 20
19.41135160418938
 40
2.018561131933269
 50
269.8110329575858
 51
450.1889670424142
 73
     0
 72
     2
 10
-68.43156737521744
 20
17.70851665662039
 40
0.315716923076792
 50
90.18896704254585
 51
180.0
 73
     0
 72
     1
 10
-68.74728429829423
 20
17.70851665662039
 11
-68.74728429829423
 21
18.29036806331547
 72
     2
 10
-68.43156737521744
 20
18.29036806331547
 40
0.315716923076536
 50
180.0
 51
244.6259913216484
 73
     0
 97
        8
330
26B
330
247
330
1F3
330
26A
330
248
330
249
330
1F2
330
246
 92
       16
 93
       12
 72
     1
 10
-71.00711606174914
 20
16.44219206261278
 11
-69.53128280073952
 21
16.44219206261278
 72
     2
 10
-69.53128280073952
 20
16.75790898568948
 40
0.3157169230766996
 50
270.0
 51
360.0
 73
     1
 72
     1
 10
-69.21556587766293
 20
16.75790898568948
 11
-69.21556587766293
 21
18.28867991722109
 72
     2
 10
-69.53128280073952
 20
18.28867991722109
 40
0.315716923076593
 50
0.0
 51
64.80558935146027
 73
     1
 72
     2
 10
-69.00869835316453
 20
19.39950966328388
 40
0.9118975235576114
 50
115.1944106485122
 51
244.8055893514717
 73
     0
 72
     2
 10
-69.53128280073952
 20
20.51033940934607
 40
0.3157169230761203
 50
295.1944106485397
 51
360.0
 73
     1
 72
     1
 10
-69.21556587766293
 20
20.51033940934607
 11
-69.21556587766293
 21
21.11436402840658
 72
     2
 10
-69.53128280073952
 20
21.11436402840658
 40
0.315716923076593
 50
0.0
 51
90.0
 73
     1
 72
     1
 10
-69.53128280073952
 20
21.43008095148278
 11
-71.00711606174914
 21
21.43008095148278
 72
     2
 10
-71.00711606174914
 20
21.11436402840658
 40
0.3157169230761987
 50
90.0
 51
180.0
 73
     1
 72
     1
 10
-71.32283298482483
 20
21.11436402840658
 11
-71.32283298482483
 21
16.75790898568948
 72
     2
 10
-71.00711606174914
 20
16.75790898568948
 40
0.3157169230756836
 50
180.0
 51
270.0
 73
     1
 97
       12
330
1BF
330
250
330
1BE
330
261
330
1BD
330
260
330
251
330
252
330
1BC
330
25F
330
1B7
330
262
 75
     1
 76
     0
 52
45.0
 41
0.1
 77
     0
 78
     1
 53
45.0
 43
0.0
 44
0.0
 45
-0.0707106781186548
 46
0.0707106781186548
 79
     0
 98
        1
 10
0.0
 20
0.0
  0
HATCH
  5
2A1
330
71
100
AcDbEntity
  8
1
  6
Continuous
 62
     2
100
AcDbHatch
 10
0.0
 20
0.0
 30
0.0
210
0.0
220
0.0
230
1.0
  2
_USER
 70
     0
 71
     1
 91
        2
 92
        1
 93
       12
 72
     2
 10
-56.92584673450634
 20
20.61573174513549
 40
1.526904761905879
 50
90.0
 51
270.0
 73
     1
 72
     1
 10
-56.92584673450634
 20
19.08882698323018
 11
-53.77552701072534
 21
19.08882698323018
 72
     1
 10
-53.77552701072534
 20
19.08882698323018
 11
-53.77552701072534
 21
19.78684058867268
 72
     1
 10
-53.77552701072534
 20
19.78684058867268
 11
-55.11145483715302
 21
19.78684058867268
 72
     1
 10
-55.11145483715302
 20
19.78684058867268
 11
-55.11145483715302
 21
20.26672494241439
 72
     1
 10
-55.11145483715302
 20
20.26672494241439
 11
-53.77552701072534
 21
20.26672494241439
 72
     1
 10
-53.77552701072534
 20
20.26672494241439
 11
-53.77552701072534
 21
20.96473854785668
 72
     1
 10
-53.77552701072534
 20
20.96473854785668
 11
-55.11145483715302
 21
20.96473854785668
 72
     1
 10
-55.11145483715302
 20
20.96473854785668
 11
-55.11145483715302
 21
21.44462290159839
 72
     1
 10
-55.11145483715302
 20
21.44462290159839
 11
-53.77552701072534
 21
21.44462290159839
 72
     1
 10
-53.77552701072534
 20
21.44462290159839
 11
-53.77552701072534
 21
22.14263650704137
 72
     1
 10
-53.77552701072534
 20
22.14263650704137
 11
-56.92584673450634
 21
22.14263650704137
 97
       12
330
1AE
330
1A8
330
1CF
330
1CE
330
1CD
330
1CC
330
1A9
330
1AA
330
1AB
330
1AC
330
24E
330
1AD
 92
       16
 93
        4
 72
     2
 10
-56.50983468799484
 20
20.61573174513549
 40
0.7717997786796724
 50
141.8795802028404
 51
218.1204197971562
 73
     1
 72
     2
 10
-56.70957472434114
 20
20.45900056701507
 40
0.5179085730134393
 50
218.1204197971514
 51
321.8795802028563
 73
     1
 72
     2
 10
-56.90931476068732
 20
20.61573174513549
 40
0.7717997786796373
 50
321.8795802028437
 51
398.1204197971596
 73
     1
 72
     2
 10
-56.70957472434114
 20
20.77246292325597
 40
0.5179085730135288
 50
38.12041979714365
 51
141.8795802028486
 73
     1
 97
        4
330
25B
330
25A
330
255
330
254
 75
     1
 76
     0
 52
45.0
 41
0.1
 77
     0
 78
     1
 53
45.0
 43
0.0
 44
0.0
 45
-0.0707106781186548
 46
0.0707106781186548
 79
     0
 98
        1
 10
0.0
 20
0.0
  0
HATCH
  5
2A2
330
71
100
AcDbEntity
  8
1
  6
Continuous
 62
     2
100
AcDbHatch
 10
0.0
 20
0.0
 30
0.0
210
0.0
220
0.0
230
1.0
  2
_USER
 70
     0
 71
     1
 91
        2
 92
        1
 93
       12
 72
     2
 10
-56.92584673450634
 20
20.61573174513549
 40
1.526904761905879
 50
90.0
 51
270.0
 73
     1
 72
     1
 10
-56.92584673450634
 20
19.08882698323018
 11
-53.77552701072534
 21
19.08882698323018
 72
     1
 10
-53.77552701072534
 20
19.08882698323018
 11
-53.77552701072534
 21
19.78684058867268
 72
     1
 10
-53.77552701072534
 20
19.78684058867268
 11
-55.11145483715302
 21
19.78684058867268
 72
     1
 10
-55.11145483715302
 20
19.78684058867268
 11
-55.11145483715302
 21
20.26672494241439
 72
     1
 10
-55.11145483715302
 20
20.26672494241439
 11
-53.77552701072534
 21
20.26672494241439
 72
     1
 10
-53.77552701072534
 20
20.26672494241439
 11
-53.77552701072534
 21
20.96473854785668
 72
     1
 10
-53.77552701072534
 20
20.96473854785668
 11
-55.11145483715302
 21
20.96473854785668
 72
     1
 10
-55.11145483715302
 20
20.96473854785668
 11
-55.11145483715302
 21
21.44462290159839
 72
     1
 10
-55.11145483715302
 20
21.44462290159839
 11
-53.77552701072534
 21
21.44462290159839
 72
     1
 10
-53.77552701072534
 20
21.44462290159839
 11
-53.77552701072534
 21
22.14263650704137
 72
     1
 10
-53.77552701072534
 20
22.14263650704137
 11
-56.92584673450634
 21
22.14263650704137
 97
       12
330
1AE
330
1A8
330
1CF
330
1CE
330
1CD
330
1CC
330
1A9
330
1AA
330
1AB
330
1AC
330
24E
330
1AD
 92
       16
 93
        4
 72
     2
 10
-56.50983468799484
 20
20.61573174513549
 40
0.7717997786796724
 50
141.8795802028404
 51
218.1204197971562
 73
     1
 72
     2
 10
-56.70957472434114
 20
20.45900056701507
 40
0.5179085730134393
 50
218.1204197971514
 51
321.8795802028563
 73
     1
 72
     2
 10
-56.90931476068732
 20
20.61573174513549
 40
0.7717997786796373
 50
321.8795802028437
 51
398.1204197971596
 73
     1
 72
     2
 10
-56.70957472434114
 20
20.77246292325597
 40
0.5179085730135288
 50
38.12041979714365
 51
141.8795802028486
 73
     1
 97
        4
330
25B
330
25A
330
255
330
254
 75
     1
 76
     0
 52
45.0
 41
0.1
 77
     0
 78
     1
 53
45.0
 43
0.0
 44
0.0
 45
-0.0707106781186548
 46
0.0707106781186548
 79
     0
 98
        1
 10
0.0
 20
0.0
  0
HATCH
  5
2A3
330
71
100
AcDbEntity
  8
1
  6
Continuous
 62
     2
100
AcDbHatch
 10
0.0
 20
0.0
 30
0.0
210
0.0
220
0.0
230
1.0
  2
_USER
 70
     0
 71
     1
 91
        2
 92
        1
 93
        4
 72
     2
 10
-60.95146209696793
 20
17.25654126896117
 40
1.458034083651493
 50
117.5481481756624
 51
242.4518518243375
 73
     1
 72
     2
 10
-60.67052220513463
 20
17.79511627926448
 40
2.065479772208515
 50
242.4518518243403
 51
297.5481481756868
 73
     1
 72
     2
 10
-60.38958231330133
 20
17.25654126896117
 40
1.458034083651999
 50
297.5481481757009
 51
422.4518518242993
 73
     1
 72
     2
 10
-60.67052220513463
 20
16.71796625865838
 40
2.065479772208564
 50
62.45185182430654
 51
117.5481481756664
 73
     1
 97
        4
330
259
330
256
330
258
330
257
 92
       16
 93
        4
 72
     2
 10
-60.67052220513463
 20
17.41327244708168
 40
0.5179085730133076
 50
38.12041979714686
 51
141.8795802028585
 73
     1
 72
     2
 10
-60.47078216878853
 20
17.25654126896117
 40
0.7717997786794676
 50
141.8795802028359
 51
218.1204197971687
 73
     1
 72
     2
 10
-60.67052220513463
 20
17.09981009084117
 40
0.5179085730137354
 50
218.1204197971931
 51
321.8795802028015
 73
     1
 72
     2
 10
-60.87026224148104
 20
17.25654126896117
 40
0.7717997786797003
 50
321.879580202842
 51
398.1204197971534
 73
     1
 97
        4
330
23C
330
23D
330
23E
330
23B
 75
     1
 76
     0
 52
45.0
 41
0.1
 77
     0
 78
     1
 53
45.0
 43
0.0
 44
0.0
 45
-0.0707106781186548
 46
0.0707106781186548
 79
     0
 98
        1
 10
0.0
 20
0.0
  0
HATCH
  5
2A4
330
71
100
AcDbEntity
  8
1
  6
Continuous
 62
     2
100
AcDbHatch
 10
0.0
 20
0.0
 30
0.0
210
0.0
220
0.0
230
1.0
  2
_USER
 70
     0
 71
     1
 91
        2
 92
        1
 93
        4
 72
     2
 10
-60.95146209696793
 20
17.25654126896117
 40
1.458034083651493
 50
117.5481481756624
 51
242.4518518243375
 73
     1
 72
     2
 10
-60.67052220513463
 20
17.79511627926448
 40
2.065479772208515
 50
242.4518518243403
 51
297.5481481756868
 73
     1
 72
     2
 10
-60.38958231330133
 20
17.25654126896117
 40
1.458034083651999
 50
297.5481481757009
 51
422.4518518242993
 73
     1
 72
     2
 10
-60.67052220513463
 20
16.71796625865838
 40
2.065479772208564
 50
62.45185182430654
 51
117.5481481756664
 73
     1
 97
        4
330
259
330
256
330
258
330
257
 92
       16
 93
        4
 72
     2
 10
-60.67052220513463
 20
17.41327244708168
 40
0.5179085730133076
 50
38.12041979714686
 51
141.8795802028585
 73
     1
 72
     2
 10
-60.47078216878853
 20
17.25654126896117
 40
0.7717997786794676
 50
141.8795802028359
 51
218.1204197971687
 73
     1
 72
     2
 10
-60.67052220513463
 20
17.09981009084117
 40
0.5179085730137354
 50
218.1204197971931
 51
321.8795802028015
 73
     1
 72
     2
 10
-60.87026224148104
 20
17.25654126896117
 40
0.7717997786797003
 50
321.879580202842
 51
398.1204197971534
 73
     1
 97
        4
330
23C
330
23D
330
23E
330
23B
 75
     1
 76
     0
 52
45.0
 41
0.1
 77
     0
 78
     1
 53
45.0
 43
0.0
 44
0.0
 45
-0.0707106781186548
 46
0.0707106781186548
 79
     0
 98
        1
 10
0.0
 20
0.0
  0
HATCH
  5
2A5
330
71
100
AcDbEntity
  8
1
  6
Continuous
 62
     2
100
AcDbHatch
 10
0.0
 20
0.0
 30
0.0
210
0.0
220
0.0
230
1.0
  2
_USER
 70
     0
 71
     1
 91
        2
 92
        1
 93
        6
 72
     1
 10
-65.22633695152814
 20
22.14263650704137
 11
-65.22633695152814
 21
19.08882698323018
 72
     1
 10
-65.22633695152814
 20
19.08882698323018
 11
-63.98583254127402
 21
19.08882698323018
 72
     1
 10
-63.98583254127402
 20
19.08882698323018
 11
-63.98583254127402
 21
20.03190522437399
 72
     1
 10
-63.98583254127402
 20
20.03190522437399
 11
-63.22706495349374
 21
20.03190522437399
 72
     2
 10
-63.22706495349374
 20
21.08727086570769
 40
1.055365641333701
 50
270.0
 51
450.0
 73
     1
 72
     1
 10
-63.22706495349374
 20
22.14263650704137
 11
-65.22633695152814
 21
22.14263650704137
 97
        6
330
263
330
1C0
330
1B6
330
1B5
330
1C2
330
1C1
 92
       16
 93
        4
 72
     1
 10
-63.66853747973212
 20
21.47953066160127
 11
-63.98583254127402
 21
21.47953066160127
 72
     1
 10
-63.98583254127402
 20
21.47953066160127
 11
-63.98583254127402
 21
20.77380301225907
 72
     1
 10
-63.98583254127402
 20
20.77380301225907
 11
-63.66853747973212
 21
20.77380301225907
 72
     2
 10
-63.66853747973212
 20
21.12666683693018
 40
0.3528638246711111
 50
270.0
 51
450.0
 73
     1
 97
        4
330
1C3
330
1B4
330
1C4
330
24F
 75
     1
 76
     0
 52
45.0
 41
0.1
 77
     0
 78
     1
 53
45.0
 43
0.0
 44
0.0
 45
-0.0707106781186548
 46
0.0707106781186548
 79
     0
 98
        1
 10
0.0
 20
0.0
  0
HATCH
  5
2A6
330
71
100
AcDbEntity
  8
1
  6
Continuous
 62
     2
100
AcDbHatch
 10
0.0
 20
0.0
 30
0.0
210
0.0
220
0.0
230
1.0
  2
_USER
 70
     0
 71
     1
 91
        2
 92
        1
 93
        6
 72
     1
 10
-65.22633695152814
 20
22.14263650704137
 11
-65.22633695152814
 21
19.08882698323018
 72
     1
 10
-65.22633695152814
 20
19.08882698323018
 11
-63.98583254127402
 21
19.08882698323018
 72
     1
 10
-63.98583254127402
 20
19.08882698323018
 11
-63.98583254127402
 21
20.03190522437399
 72
     1
 10
-63.98583254127402
 20
20.03190522437399
 11
-63.22706495349374
 21
20.03190522437399
 72
     2
 10
-63.22706495349374
 20
21.08727086570769
 40
1.055365641333701
 50
270.0
 51
450.0
 73
     1
 72
     1
 10
-63.22706495349374
 20
22.14263650704137
 11
-65.22633695152814
 21
22.14263650704137
 97
        6
330
263
330
1C0
330
1B6
330
1B5
330
1C2
330
1C1
 92
       16
 93
        4
 72
     1
 10
-63.66853747973212
 20
21.47953066160127
 11
-63.98583254127402
 21
21.47953066160127
 72
     1
 10
-63.98583254127402
 20
21.47953066160127
 11
-63.98583254127402
 21
20.77380301225907
 72
     1
 10
-63.98583254127402
 20
20.77380301225907
 11
-63.66853747973212
 21
20.77380301225907
 72
     2
 10
-63.66853747973212
 20
21.12666683693018
 40
0.3528638246711111
 50
270.0
 51
450.0
 73
     1
 97
        4
330
1C3
330
1B4
330
1C4
330
24F
 75
     1
 76
     0
 52
45.0
 41
0.1
 77
     0
 78
     1
 53
45.0
 43
0.0
 44
0.0
 45
-0.0707106781186548
 46
0.0707106781186548
 79
     0
 98
        1
 10
0.0
 20
0.0
  0
HATCH
  5
2A7
330
71
100
AcDbEntity
  8
1
  6
Continuous
 62
     2
100
AcDbHatch
 10
0.0
 20
0.0
 30
0.0
210
0.0
220
0.0
230
1.0
  2
_USER
 70
     0
 71
     1
 91
        1
 92
        1
 93
       12
 72
     1
 10
-45.61205375709494
 20
22.14263650704137
 11
-44.20932953934772
 21
22.14263650704137
 72
     1
 10
-44.20932953934772
 20
22.14263650704137
 11
-45.51185917011424
 21
20.66968597700517
 72
     1
 10
-45.51185917011424
 20
20.66968597700517
 11
-44.11390612317393
 21
19.08882698323018
 72
     1
 10
-44.11390612317393
 20
19.08882698323018
 11
-45.51663034092223
 21
19.08882698323018
 72
     1
 10
-45.51663034092223
 20
19.08882698323018
 11
-46.21322127898773
 21
19.87655876852389
 72
     1
 10
-46.21322127898773
 20
19.87655876852389
 11
-46.90981221705343
 21
19.08882698323018
 72
     1
 10
-46.90981221705343
 20
19.08882698323018
 11
-48.31253643480164
 21
19.08882698323018
 72
     1
 10
-48.31253643480164
 20
19.08882698323018
 11
-46.91458338786134
 21
20.66968597700517
 72
     1
 10
-46.91458338786134
 20
20.66968597700517
 11
-48.21711301862882
 21
22.14263650704137
 72
     1
 10
-48.21711301862882
 20
22.14263650704137
 11
-46.81438880087953
 21
22.14263650704137
 72
     1
 10
-46.81438880087953
 20
22.14263650704137
 11
-46.21322127898773
 21
21.46281318548589
 72
     1
 10
-46.21322127898773
 20
21.46281318548589
 11
-45.61205375709494
 21
22.14263650704137
 97
       12
330
18F
330
1E8
330
1E7
330
1E6
330
1E5
330
190
330
191
330
18D
330
18E
330
1EB
330
1EA
330
1E9
 75
     1
 76
     0
 52
45.0
 41
0.1
 77
     0
 78
     1
 53
45.0
 43
0.0
 44
0.0
 45
-0.0707106781186548
 46
0.0707106781186548
 79
     0
 98
        1
 10
0.0
 20
0.0
  0
HATCH
  5
2A8
330
71
100
AcDbEntity
  8
1
  6
Continuous
 62
     2
100
AcDbHatch
 10
0.0
 20
0.0
 30
0.0
210
0.0
220
0.0
230
1.0
  2
_USER
 70
     0
 71
     1
 91
        1
 92
        1
 93
       12
 72
     1
 10
-45.61205375709494
 20
22.14263650704137
 11
-44.20932953934772
 21
22.14263650704137
 72
     1
 10
-44.20932953934772
 20
22.14263650704137
 11
-45.51185917011424
 21
20.66968597700517
 72
     1
 10
-45.51185917011424
 20
20.66968597700517
 11
-44.11390612317393
 21
19.08882698323018
 72
     1
 10
-44.11390612317393
 20
19.08882698323018
 11
-45.51663034092223
 21
19.08882698323018
 72
     1
 10
-45.51663034092223
 20
19.08882698323018
 11
-46.21322127898773
 21
19.87655876852389
 72
     1
 10
-46.21322127898773
 20
19.87655876852389
 11
-46.90981221705343
 21
19.08882698323018
 72
     1
 10
-46.90981221705343
 20
19.08882698323018
 11
-48.31253643480164
 21
19.08882698323018
 72
     1
 10
-48.31253643480164
 20
19.08882698323018
 11
-46.91458338786134
 21
20.66968597700517
 72
     1
 10
-46.91458338786134
 20
20.66968597700517
 11
-48.21711301862882
 21
22.14263650704137
 72
     1
 10
-48.21711301862882
 20
22.14263650704137
 11
-46.81438880087953
 21
22.14263650704137
 72
     1
 10
-46.81438880087953
 20
22.14263650704137
 11
-46.21322127898773
 21
21.46281318548589
 72
     1
 10
-46.21322127898773
 20
21.46281318548589
 11
-45.61205375709494
 21
22.14263650704137
 97
       12
330
18F
330
1E8
330
1E7
330
1E6
330
1E5
330
190
330
191
330
18D
330
18E
330
1EB
330
1EA
330
1E9
 75
     1
 76
     0
 52
45.0
 41
0.1
 77
     0
 78
     1
 53
45.0
 43
0.0
 44
0.0
 45
-0.0707106781186548
 46
0.0707106781186548
 79
     0
 98
        1
 10
0.0
 20
0.0
  0
HATCH
  5
2A9
330
71
100
AcDbEntity
  8
1
  6
Continuous
 62
     2
100
AcDbHatch
 10
0.0
 20
0.0
 30
0.0
210
0.0
220
0.0
230
1.0
  2
_USER
 70
     0
 71
     1
 91
        1
 92
        1
 93
        4
 72
     1
 10
-48.43181570501852
 20
22.14263650704137
 11
-48.43181570501852
 21
19.08882698323018
 72
     1
 10
-48.43181570501852
 20
19.08882698323018
 11
-49.67232011527142
 21
19.08882698323018
 72
     1
 10
-49.67232011527142
 20
19.08882698323018
 11
-49.67232011527142
 21
22.14263650704137
 72
     1
 10
-49.67232011527142
 20
22.14263650704137
 11
-48.43181570501852
 21
22.14263650704137
 97
        4
330
1E3
330
192
330
1E2
330
1E4
 75
     1
 76
     0
 52
45.0
 41
0.1
 77
     0
 78
     1
 53
45.0
 43
0.0
 44
0.0
 45
-0.0707106781186548
 46
0.0707106781186548
 79
     0
 98
        1
 10
0.0
 20
0.0
  0
HATCH
  5
2AA
330
71
100
AcDbEntity
  8
1
  6
Continuous
 62
     2
100
AcDbHatch
 10
0.0
 20
0.0
 30
0.0
210
0.0
220
0.0
230
1.0
  2
_USER
 70
     0
 71
     1
 91
        1
 92
        1
 93
        4
 72
     1
 10
-48.43181570501852
 20
22.14263650704137
 11
-48.43181570501852
 21
19.08882698323018
 72
     1
 10
-48.43181570501852
 20
19.08882698323018
 11
-49.67232011527142
 21
19.08882698323018
 72
     1
 10
-49.67232011527142
 20
19.08882698323018
 11
-49.67232011527142
 21
22.14263650704137
 72
     1
 10
-49.67232011527142
 20
22.14263650704137
 11
-48.43181570501852
 21
22.14263650704137
 97
        4
330
1E3
330
192
330
1E2
330
1E4
 75
     1
 76
     0
 52
45.0
 41
0.1
 77
     0
 78
     1
 53
45.0
 43
0.0
 44
0.0
 45
-0.0707106781186548
 46
0.0707106781186548
 79
     0
 98
        1
 10
0.0
 20
0.0
  0
HATCH
  5
2AB
330
71
100
AcDbEntity
  8
1
  6
Continuous
 62
     2
100
AcDbHatch
 10
0.0
 20
0.0
 30
0.0
210
0.0
220
0.0
230
1.0
  2
_USER
 70
     0
 71
     1
 91
        2
 92
        1
 93
        8
 72
     1
 10
-48.82225970855052
 20
15.72963650705589
 11
-50.06276411880444
 21
15.72963650705589
 72
     1
 10
-50.06276411880444
 20
15.72963650705589
 11
-50.27424417228022
 21
16.27059705127377
 72
     1
 10
-50.27424417228022
 20
16.27059705127377
 11
-51.40668574895403
 21
16.27059705127377
 72
     1
 10
-51.40668574895403
 20
16.27059705127377
 11
-51.61816580242984
 21
15.72963650705589
 72
     1
 10
-51.61816580242984
 20
15.72963650705589
 11
-52.85867021268282
 21
15.72963650705589
 72
     1
 10
-52.85867021268282
 20
15.72963650705589
 11
-51.46071716574352
 21
18.78344603086697
 72
     1
 10
-51.46071716574352
 20
18.78344603086697
 11
-50.22021275549082
 21
18.78344603086697
 72
     1
 10
-50.22021275549082
 20
18.78344603086697
 11
-48.82225970855052
 21
15.72963650705589
 97
        8
330
1DE
330
198
330
1DD
330
1E0
330
195
330
1DF
330
196
330
197
 92
       16
 93
        3
 72
     1
 10
-51.14063019780903
 20
16.95116031658037
 11
-50.54029972342653
 21
16.95116031658037
 72
     1
 10
-50.54029972342653
 20
16.95116031658037
 11
-50.84046496061663
 21
17.71897528256707
 72
     1
 10
-50.84046496061663
 20
17.71897528256707
 11
-51.14063019780903
 21
16.95116031658037
 97
        3
330
194
330
193
330
1E1
 75
     1
 76
     0
 52
45.0
 41
0.1
 77
     0
 78
     1
 53
45.0
 43
0.0
 44
0.0
 45
-0.0707106781186548
 46
0.0707106781186548
 79
     0
 98
        1
 10
0.0
 20
0.0
  0
HATCH
  5
2AC
330
71
100
AcDbEntity
  8
1
  6
Continuous
 62
     2
100
AcDbHatch
 10
0.0
 20
0.0
 30
0.0
210
0.0
220
0.0
230
1.0
  2
_USER
 70
     0
 71
     1
 91
        2
 92
        1
 93
        8
 72
     1
 10
-48.82225970855052
 20
15.72963650705589
 11
-50.06276411880444
 21
15.72963650705589
 72
     1
 10
-50.06276411880444
 20
15.72963650705589
 11
-50.27424417228022
 21
16.27059705127377
 72
     1
 10
-50.27424417228022
 20
16.27059705127377
 11
-51.40668574895403
 21
16.27059705127377
 72
     1
 10
-51.40668574895403
 20
16.27059705127377
 11
-51.61816580242984
 21
15.72963650705589
 72
     1
 10
-51.61816580242984
 20
15.72963650705589
 11
-52.85867021268282
 21
15.72963650705589
 72
     1
 10
-52.85867021268282
 20
15.72963650705589
 11
-51.46071716574352
 21
18.78344603086697
 72
     1
 10
-51.46071716574352
 20
18.78344603086697
 11
-50.22021275549082
 21
18.78344603086697
 72
     1
 10
-50.22021275549082
 20
18.78344603086697
 11
-48.82225970855052
 21
15.72963650705589
 97
        8
330
1DE
330
198
330
1DD
330
1E0
330
195
330
1DF
330
196
330
197
 92
       16
 93
        3
 72
     1
 10
-51.14063019780903
 20
16.95116031658037
 11
-50.54029972342653
 21
16.95116031658037
 72
     1
 10
-50.54029972342653
 20
16.95116031658037
 11
-50.84046496061663
 21
17.71897528256707
 72
     1
 10
-50.84046496061663
 20
17.71897528256707
 11
-51.14063019780903
 21
16.95116031658037
 97
        3
330
194
330
193
330
1E1
 75
     1
 76
     0
 52
45.0
 41
0.1
 77
     0
 78
     1
 53
45.0
 43
0.0
 44
0.0
 45
-0.0707106781186548
 46
0.0707106781186548
 79
     0
 98
        1
 10
0.0
 20
0.0
  0
HATCH
  5
2AD
330
71
100
AcDbEntity
  8
1
  6
Continuous
 62
     2
100
AcDbHatch
 10
0.0
 20
0.0
 30
0.0
210
0.0
220
0.0
230
1.0
  2
_USER
 70
     0
 71
     1
 91
        1
 92
        1
 93
        8
 72
     1
 10
-55.01618235186504
 20
18.78344603086697
 11
-55.01618235186504
 21
17.99818072474338
 72
     1
 10
-55.01618235186504
 20
17.99818072474338
 11
-54.20508331439044
 21
17.99818072474338
 72
     1
 10
-54.20508331439044
 20
17.99818072474338
 11
-54.20508331439044
 21
15.72963650705589
 72
     1
 10
-54.20508331439044
 20
15.72963650705589
 11
-53.01229061222392
 21
15.72963650705589
 72
     1
 10
-53.01229061222392
 20
15.72963650705589
 11
-53.01229061222392
 21
17.99818072474338
 72
     1
 10
-53.01229061222392
 20
17.99818072474338
 11
-52.20119157475142
 21
17.99818072474338
 72
     1
 10
-52.20119157475142
 20
17.99818072474338
 11
-52.20119157475142
 21
18.78344603086697
 72
     1
 10
-52.20119157475142
 20
18.78344603086697
 11
-55.01618235186504
 21
18.78344603086697
 97
        8
330
1DA
330
1D9
330
1D8
330
199
330
19A
330
1DC
330
19B
330
1DB
 75
     1
 76
     0
 52
45.0
 41
0.1
 77
     0
 78
     1
 53
45.0
 43
0.0
 44
0.0
 45
-0.0707106781186548
 46
0.0707106781186548
 79
     0
 98
        1
 10
0.0
 20
0.0
  0
HATCH
  5
2AE
330
71
100
AcDbEntity
  8
1
  6
Continuous
 62
     2
100
AcDbHatch
 10
0.0
 20
0.0
 30
0.0
210
0.0
220
0.0
230
1.0
  2
_USER
 70
     0
 71
     1
 91
        1
 92
        1
 93
        8
 72
     1
 10
-55.01618235186504
 20
18.78344603086697
 11
-55.01618235186504
 21
17.99818072474338
 72
     1
 10
-55.01618235186504
 20
17.99818072474338
 11
-54.20508331439044
 21
17.99818072474338
 72
     1
 10
-54.20508331439044
 20
17.99818072474338
 11
-54.20508331439044
 21
15.72963650705589
 72
     1
 10
-54.20508331439044
 20
15.72963650705589
 11
-53.01229061222392
 21
15.72963650705589
 72
     1
 10
-53.01229061222392
 20
15.72963650705589
 11
-53.01229061222392
 21
17.99818072474338
 72
     1
 10
-53.01229061222392
 20
17.99818072474338
 11
-52.20119157475142
 21
17.99818072474338
 72
     1
 10
-52.20119157475142
 20
17.99818072474338
 11
-52.20119157475142
 21
18.78344603086697
 72
     1
 10
-52.20119157475142
 20
18.78344603086697
 11
-55.01618235186504
 21
18.78344603086697
 97
        8
330
1DA
330
1D9
330
1D8
330
199
330
19A
330
1DC
330
19B
330
1DB
 75
     1
 76
     0
 52
45.0
 41
0.1
 77
     0
 78
     1
 53
45.0
 43
0.0
 44
0.0
 45
-0.0707106781186548
 46
0.0707106781186548
 79
     0
 98
        1
 10
0.0
 20
0.0
  0
HATCH
  5
2AF
330
71
100
AcDbEntity
  8
1
  6
Continuous
 62
     2
100
AcDbHatch
 10
0.0
 20
0.0
 30
0.0
210
0.0
220
0.0
230
1.0
  2
_USER
 70
     0
 71
     1
 91
        1
 92
        1
 93
       10
 72
     1
 10
-52.34417576812592
 20
22.14263650704137
 11
-53.53696847029244
 21
22.14263650704137
 72
     1
 10
-53.53696847029244
 20
22.14263650704137
 11
-53.53696847029244
 21
19.08882698323018
 72
     1
 10
-53.53696847029244
 20
19.08882698323018
 11
-52.34417576812592
 21
19.08882698323018
 72
     1
 10
-52.34417576812592
 20
19.08882698323018
 11
-52.34417576812592
 21
20.39760249343487
 72
     1
 10
-52.34417576812592
 20
20.39760249343487
 11
-51.10367135787192
 21
19.08882698323018
 72
     1
 10
-51.10367135787192
 20
19.08882698323018
 11
-49.91087865570532
 21
19.08882698323018
 72
     1
 10
-49.91087865570532
 20
19.08882698323018
 11
-49.91087865570532
 21
22.14263650704137
 72
     1
 10
-49.91087865570532
 20
22.14263650704137
 11
-51.10367135787192
 21
22.14263650704137
 72
     1
 10
-51.10367135787192
 20
22.14263650704137
 11
-51.10367135787192
 21
20.83386099683619
 72
     1
 10
-51.10367135787192
 20
20.83386099683619
 11
-52.34417576812592
 21
22.14263650704137
 97
       10
330
1D4
330
19E
330
19F
330
1A0
330
1A1
330
1D7
330
19C
330
1D6
330
1D5
330
19D
 75
     1
 76
     0
 52
45.0
 41
0.1
 77
     0
 78
     1
 53
45.0
 43
0.0
 44
0.0
 45
-0.0707106781186548
 46
0.0707106781186548
 79
     0
 98
        1
 10
0.0
 20
0.0
  0
HATCH
  5
2B0
330
71
100
AcDbEntity
  8
1
  6
Continuous
 62
     2
100
AcDbHatch
 10
0.0
 20
0.0
 30
0.0
210
0.0
220
0.0
230
1.0
  2
_USER
 70
     0
 71
     1
 91
        1
 92
        1
 93
       10
 72
     1
 10
-52.34417576812592
 20
22.14263650704137
 11
-53.53696847029244
 21
22.14263650704137
 72
     1
 10
-53.53696847029244
 20
22.14263650704137
 11
-53.53696847029244
 21
19.08882698323018
 72
     1
 10
-53.53696847029244
 20
19.08882698323018
 11
-52.34417576812592
 21
19.08882698323018
 72
     1
 10
-52.34417576812592
 20
19.08882698323018
 11
-52.34417576812592
 21
20.39760249343487
 72
     1
 10
-52.34417576812592
 20
20.39760249343487
 11
-51.10367135787192
 21
19.08882698323018
 72
     1
 10
-51.10367135787192
 20
19.08882698323018
 11
-49.91087865570532
 21
19.08882698323018
 72
     1
 10
-49.91087865570532
 20
19.08882698323018
 11
-49.91087865570532
 21
22.14263650704137
 72
     1
 10
-49.91087865570532
 20
22.14263650704137
 11
-51.10367135787192
 21
22.14263650704137
 72
     1
 10
-51.10367135787192
 20
22.14263650704137
 11
-51.10367135787192
 21
20.83386099683619
 72
     1
 10
-51.10367135787192
 20
20.83386099683619
 11
-52.34417576812592
 21
22.14263650704137
 97
       10
330
1D4
330
19E
330
19F
330
1A0
330
1A1
330
1D7
330
19C
330
1D6
330
1D5
330
19D
 75
     1
 76
     0
 52
45.0
 41
0.1
 77
     0
 78
     1
 53
45.0
 43
0.0
 44
0.0
 45
-0.0707106781186548
 46
0.0707106781186548
 79
     0
 98
        1
 10
0.0
 20
0.0
  0
HATCH
  5
2B1
330
71
100
AcDbEntity
  8
1
  6
Continuous
 62
     2
100
AcDbHatch
 10
0.0
 20
0.0
 30
0.0
210
0.0
220
0.0
230
1.0
  2
_USER
 70
     0
 71
     1
 91
        1
 92
        1
 93
       10
 72
     1
 10
-57.59261458854454
 20
18.78344603086697
 11
-58.78540729071213
 21
18.78344603086697
 72
     1
 10
-58.78540729071213
 20
18.78344603086697
 11
-58.78540729071213
 21
15.72963650705589
 72
     1
 10
-58.78540729071213
 20
15.72963650705589
 11
-57.59261458854454
 21
15.72963650705589
 72
     1
 10
-57.59261458854454
 20
15.72963650705589
 11
-57.59261458854454
 21
17.03841201726047
 72
     1
 10
-57.59261458854454
 20
17.03841201726047
 11
-56.35211017829164
 21
15.72963650705589
 72
     1
 10
-56.35211017829164
 20
15.72963650705589
 11
-55.15931747612524
 21
15.72963650705589
 72
     1
 10
-55.15931747612524
 20
15.72963650705589
 11
-55.15931747612524
 21
18.78344603086697
 72
     1
 10
-55.15931747612524
 20
18.78344603086697
 11
-56.35211017829164
 21
18.78344603086697
 72
     1
 10
-56.35211017829164
 20
18.78344603086697
 11
-56.35211017829164
 21
17.47467052066187
 72
     1
 10
-56.35211017829164
 20
17.47467052066187
 11
-57.59261458854454
 21
18.78344603086697
 97
       10
330
1A3
330
1A4
330
1A5
330
1D1
330
1A6
330
1A7
330
1D0
330
1D3
330
1D2
330
1A2
 75
     1
 76
     0
 52
45.0
 41
0.1
 77
     0
 78
     1
 53
45.0
 43
0.0
 44
0.0
 45
-0.0707106781186548
 46
0.0707106781186548
 79
     0
 98
        1
 10
0.0
 20
0.0
  0
HATCH
  5
2B2
330
71
100
AcDbEntity
  8
1
  6
Continuous
 62
     2
100
AcDbHatch
 10
0.0
 20
0.0
 30
0.0
210
0.0
220
0.0
230
1.0
  2
_USER
 70
     0
 71
     1
 91
        1
 92
        1
 93
       10
 72
     1
 10
-57.59261458854454
 20
18.78344603086697
 11
-58.78540729071213
 21
18.78344603086697
 72
     1
 10
-58.78540729071213
 20
18.78344603086697
 11
-58.78540729071213
 21
15.72963650705589
 72
     1
 10
-58.78540729071213
 20
15.72963650705589
 11
-57.59261458854454
 21
15.72963650705589
 72
     1
 10
-57.59261458854454
 20
15.72963650705589
 11
-57.59261458854454
 21
17.03841201726047
 72
     1
 10
-57.59261458854454
 20
17.03841201726047
 11
-56.35211017829164
 21
15.72963650705589
 72
     1
 10
-56.35211017829164
 20
15.72963650705589
 11
-55.15931747612524
 21
15.72963650705589
 72
     1
 10
-55.15931747612524
 20
15.72963650705589
 11
-55.15931747612524
 21
18.78344603086697
 72
     1
 10
-55.15931747612524
 20
18.78344603086697
 11
-56.35211017829164
 21
18.78344603086697
 72
     1
 10
-56.35211017829164
 20
18.78344603086697
 11
-56.35211017829164
 21
17.47467052066187
 72
     1
 10
-56.35211017829164
 20
17.47467052066187
 11
-57.59261458854454
 21
18.78344603086697
 97
       10
330
1A3
330
1A4
330
1A5
330
1D1
330
1A6
330
1A7
330
1D0
330
1D3
330
1D2
330
1A2
 75
     1
 76
     0
 52
45.0
 41
0.1
 77
     0
 78
     1
 53
45.0
 43
0.0
 44
0.0
 45
-0.0707106781186548
 46
0.0707106781186548
 79
     0
 98
        1
 10
0.0
 20
0.0
  0
HATCH
  5
2B3
330
71
100
AcDbEntity
  8
1
  6
Continuous
 62
     2
100
AcDbHatch
 10
0.0
 20
0.0
 30
0.0
210
0.0
220
0.0
230
1.0
  2
_USER
 70
     0
 71
     1
 91
        1
 92
        1
 93
       12
 72
     1
 10
-58.59440952747994
 20
22.14263650704137
 11
-58.59440952747994
 21
19.08882698323018
 72
     1
 10
-58.59440952747994
 20
19.08882698323018
 11
-59.78720222964634
 21
19.08882698323018
 72
     1
 10
-59.78720222964634
 20
19.08882698323018
 11
-59.78720222964634
 21
20.22309909207399
 72
     1
 10
-59.78720222964634
 20
20.22309909207399
 11
-60.83685980755382
 21
20.22309909207399
 72
     1
 10
-60.83685980755382
 20
20.22309909207399
 11
-60.83685980755382
 21
19.08882698323018
 72
     1
 10
-60.83685980755382
 20
19.08882698323018
 11
-62.02965250972042
 21
19.08882698323018
 72
     1
 10
-62.02965250972042
 20
19.08882698323018
 11
-62.02965250972042
 21
22.14263650704137
 72
     1
 10
-62.02965250972042
 20
22.14263650704137
 11
-60.83685980755382
 21
22.14263650704137
 72
     1
 10
-60.83685980755382
 20
22.14263650704137
 11
-60.83685980755382
 21
21.07380317370678
 72
     1
 10
-60.83685980755382
 20
21.07380317370678
 11
-59.78720222964634
 21
21.07380317370678
 72
     1
 10
-59.78720222964634
 20
21.07380317370678
 11
-59.78720222964634
 21
22.14263650704137
 72
     1
 10
-59.78720222964634
 20
22.14263650704137
 11
-58.59440952747994
 21
22.14263650704137
 97
       12
330
1CB
330
1CA
330
1C9
330
1B1
330
1B2
330
1C8
330
1B3
330
1C7
330
1C6
330
1C5
330
1AF
330
1B0
 75
     1
 76
     0
 52
45.0
 41
0.1
 77
     0
 78
     1
 53
45.0
 43
0.0
 44
0.0
 45
-0.0707106781186548
 46
0.0707106781186548
 79
     0
 98
        1
 10
0.0
 20
0.0
  0
HATCH
  5
2B4
330
71
100
AcDbEntity
  8
1
  6
Continuous
 62
     2
100
AcDbHatch
 10
0.0
 20
0.0
 30
0.0
210
0.0
220
0.0
230
1.0
  2
_USER
 70
     0
 71
     1
 91
        1
 92
        1
 93
       12
 72
     1
 10
-58.59440952747994
 20
22.14263650704137
 11
-58.59440952747994
 21
19.08882698323018
 72
     1
 10
-58.59440952747994
 20
19.08882698323018
 11
-59.78720222964634
 21
19.08882698323018
 72
     1
 10
-59.78720222964634
 20
19.08882698323018
 11
-59.78720222964634
 21
20.22309909207399
 72
     1
 10
-59.78720222964634
 20
20.22309909207399
 11
-60.83685980755382
 21
20.22309909207399
 72
     1
 10
-60.83685980755382
 20
20.22309909207399
 11
-60.83685980755382
 21
19.08882698323018
 72
     1
 10
-60.83685980755382
 20
19.08882698323018
 11
-62.02965250972042
 21
19.08882698323018
 72
     1
 10
-62.02965250972042
 20
19.08882698323018
 11
-62.02965250972042
 21
22.14263650704137
 72
     1
 10
-62.02965250972042
 20
22.14263650704137
 11
-60.83685980755382
 21
22.14263650704137
 72
     1
 10
-60.83685980755382
 20
22.14263650704137
 11
-60.83685980755382
 21
21.07380317370678
 72
     1
 10
-60.83685980755382
 20
21.07380317370678
 11
-59.78720222964634
 21
21.07380317370678
 72
     1
 10
-59.78720222964634
 20
21.07380317370678
 11
-59.78720222964634
 21
22.14263650704137
 72
     1
 10
-59.78720222964634
 20
22.14263650704137
 11
-58.59440952747994
 21
22.14263650704137
 97
       12
330
1CB
330
1CA
330
1C9
330
1B1
330
1B2
330
1C8
330
1B3
330
1C7
330
1C6
330
1C5
330
1AF
330
1B0
 75
     1
 76
     0
 52
45.0
 41
0.1
 77
     0
 78
     1
 53
45.0
 43
0.0
 44
0.0
 45
-0.0707106781186548
 46
0.0707106781186548
 79
     0
 98
        1
 10
0.0
 20
0.0
  0
ENDBLK
  5
73
330
71
100
AcDbEntity
  8
0
100
AcDbBlockEnd
  0
BLOCK
  5
75
330
74
100
AcDbEntity
  8
0
100
AcDbBlockBegin
  2
_punkt
 70
     0
 10
53.28289428630897
 20
8.43613650703958
 30
0.0
  3
_punkt
  1

  0
LINE
  5
2B5
330
74
100
AcDbEntity
  8
1
  6
Continuous
 62
     2
100
AcDbLine
 10
53.28289428630897
 20
8.43613650703958
 30
0.0
 11
53.28289428630897
 21
3.43613650703946
 31
0.0
  0
LINE
  5
2B6
330
74
100
AcDbEntity
  8
1
  6
Continuous
 62
     2
100
AcDbLine
 10
53.28289428630897
 20
8.43613650703958
 30
0.0
 11
58.28289428630797
 21
8.43613650703958
 31
0.0
  0
ENDBLK
  5
76
330
74
100
AcDbEntity
  8
0
100
AcDbBlockEnd
  0
BLOCK
  5
7A
330
77
100
AcDbEntity
  8
0
100
AcDbBlockBegin
  2
A4I_CS
 70
     0
 10
53.28289428630897
 20
3.43613650703946
 30
0.0
  3
A4I_CS
  1

  0
INSERT
  5
78
330
77
100
AcDbEntity
  8
1
100
AcDbBlockReference
  2
_rahmen
 10
53.28289428630897
 20
3.43613650703946
 30
0.0
  0
INSERT
  5
79
330
77
100
AcDbEntity
  8
1
100
AcDbBlockReference
  2
_punkt
 10
53.28289428630897
 20
8.43613650703958
 30
0.0
  0
ENDBLK
  5
7B
330
77
100
AcDbEntity
  8
0
100
AcDbBlockEnd
  0
BLOCK
  5
84
330
7C
100
AcDbEntity
  8
0
100
AcDbBlockBegin
  2
1
 70
     0
 10
0.0
 20
0.0
 30
0.0
  3
1
  1

  0
INSERT
  5
7D
330
7C
100
AcDbEntity
  8
0
100
AcDbBlockReference
  2
Back1
 10
7.670468
 20
152.546009
 30
0.0
  0
INSERT
  5
7E
330
7C
100
AcDbEntity
  8
0
100
AcDbBlockReference
  2
Front1
 10
-112.0000000000001
 20
152.546009
 30
0.0
  0
INSERT
  5
7F
330
7C
100
AcDbEntity
  8
0
100
AcDbBlockReference
  2
Gen1
 10
-23.99999999999879
 20
96.0
 30
0.0
  0
INSERT
  5
80
330
7C
100
AcDbEntity
  8
0
100
AcDbBlockReference
  2
Left1
 10
-52.16476599999939
 20
152.546009
 30
0.0
  0
INSERT
  5
81
330
7C
100
AcDbEntity
  8
0
100
AcDbBlockReference
  2
Right1
 10
-194.4602339999999
 20
152.546009
 30
0.0
  0
INSERT
  5
82
330
7C
100
AcDbEntity
  8
0
100
AcDbBlockReference
  2
Top1
 10
-112.0
 20
92.0
 30
0.0
  0
INSERT
  5
83
330
7C
100
AcDbEntity
  8
0
100
AcDbBlockReference
  2
A4I_CS
 10
53.28289428630897
 20
3.43613650703946
 30
0.0
  0
ENDBLK
  5
85
330
7C
100
AcDbEntity
  8
0
100
AcDbBlockEnd
  0
BLOCK
  5
AF
330
A8
100
AcDbEntity
  8
0
100
AcDbBlockBegin
  2
*D17
 70
     1
 10
0.0
 20
0.0
 30
0.0
  3
*D17
  1

  0
LINE
  5
A9
330
A8
100
AcDbEntity
  8
1
  6
Continuous
 62
     2
100
AcDbLine
 10
-130.560234659294
 20
134.4749996708314
 30
0.0
 11
-93.43976492604875
 21
134.4749996708314
 31
0.0
  0
LINE
  5
AA
330
A8
100
AcDbEntity
  8
1
  6
Continuous
 62
     2
100
AcDbLine
 10
-93.43976492604875
 20
148.4542141872715
 30
0.0
 11
-93.43976492604875
 21
132.9749996708314
 31
0.0
  0
LINE
  5
AB
330
A8
100
AcDbEntity
  8
1
  6
Continuous
 62
     2
100
AcDbLine
 10
-130.560234659294
 20
152.4476248385791
 30
0.0
 11
-130.560234659294
 21
132.9749996708314
 31
0.0
  0
SOLID
  5
AC
330
A8
100
AcDbEntity
  8
1
 62
     2
100
AcDbTrace
 10
-127.060234659294
 20
134.9357834123873
 30
0.0
 11
-127.060234659294
 21
134.0142159292755
 31
0.0
 12
-130.560234659294
 22
134.4749996708314
 32
0.0
 13
-130.560234659294
 23
134.4749996708314
 33
0.0
  0
SOLID
  5
AD
330
A8
100
AcDbEntity
  8
1
 62
     2
100
AcDbTrace
 10
-96.93976492604875
 20
134.0142159292755
 30
0.0
 11
-96.93976492604875
 21
134.9357834123873
 31
0.0
 12
-93.43976492604875
 22
134.4749996708314
 32
0.0
 13
-93.43976492604875
 23
134.4749996708314
 33
0.0
  0
MTEXT
  5
AE
330
A8
100
AcDbEntity
  8
1
 62
     3
100
AcDbMText
 10
-117.6750000257401
 20
136.3249996708314
 30
0.0
 40
3.5
 41
0.0
 71
     7
 72
     1
  1
37,12
  7
CONVERTER_11
 11
0.9999999999970619
 21
2.424068405545306E-6
 31
0.0
 73
     1
 44
0.60024009603842
  0
ENDBLK
  5
B0
330
A8
100
AcDbEntity
  8
0
100
AcDbBlockEnd
  0
BLOCK
  5
BC
330
B3
100
AcDbEntity
  8
0
100
AcDbBlockBegin
  2
*D18
 70
     1
 10
0.0
 20
0.0
 30
0.0
  3
*D18
  1

  0
LINE
  5
B4
330
B3
100
AcDbEntity
  8
1
  6
Continuous
 62
     2
100
AcDbLine
 10
-139.3955489563326
 20
141.2977268443885
 30
0.0
 11
-139.3955489563326
 21
148.2977268443885
 31
0.0
  0
LINE
  5
B5
330
B3
100
AcDbEntity
  8
1
  6
Continuous
 62
     2
100
AcDbLine
 10
-139.3955489563326
 20
148.2977268443885
 30
0.0
 11
-139.3955489563326
 21
156.7942910568799
 31
0.0
  0
LINE
  5
B6
330
B3
100
AcDbEntity
  8
1
  6
Continuous
 62
     2
100
AcDbLine
 10
-139.3955489563326
 20
156.7942910568799
 30
0.0
 11
-139.3955489563326
 21
171.261526381149
 31
0.0
  0
LINE
  5
B7
330
B3
100
AcDbEntity
  8
1
  6
Continuous
 62
     2
100
AcDbLine
 10
-113.1407528461683
 20
148.2977268443885
 30
0.0
 11
-140.8955489563326
 21
148.2977268443885
 31
0.0
  0
LINE
  5
B8
330
B3
100
AcDbEntity
  8
1
  6
Continuous
 62
     2
100
AcDbLine
 10
-129.3955489563326
 20
156.7942910568799
 30
0.0
 11
-140.8955489563326
 21
156.7942910568799
 31
0.0
  0
SOLID
  5
B9
330
B3
100
AcDbEntity
  8
1
 62
     2
100
AcDbTrace
 10
-138.9347652147767
 20
144.7977268443885
 30
0.0
 11
-139.8563326978885
 21
144.7977268443885
 31
0.0
 12
-139.3955489563326
 22
148.2977268443885
 32
0.0
 13
-139.3955489563326
 23
148.2977268443885
 33
0.0
  0
SOLID
  5
BA
330
B3
100
AcDbEntity
  8
1
 62
     2
100
AcDbTrace
 10
-139.8563326978885
 20
160.2942910568799
 30
0.0
 11
-138.9347652147767
 21
160.2942910568799
 31
0.0
 12
-139.3955489563326
 22
156.7942910568799
 32
0.0
 13
-139.3955489563326
 23
156.7942910568799
 33
0.0
  0
MTEXT
  5
BB
330
B3
100
AcDbEntity
  8
1
 62
     3
100
AcDbMText
 10
-141.2455489563326
 20
164.786526381149
 30
0.0
 40
3.5
 41
0.0
 71
     7
 72
     1
  1
8,5
  7
CONVERTER_11
 11
0.0
 21
1.0
 31
0.0
 73
     1
 44
0.60024009603842
  0
ENDBLK
  5
BD
330
B3
100
AcDbEntity
  8
0
100
AcDbBlockEnd
  0
BLOCK
  5
17A
330
173
100
AcDbEntity
  8
0
100
AcDbBlockBegin
  2
*D19
 70
     1
 10
0.0
 20
0.0
 30
0.0
  3
*D19
  1

  0
LINE
  5
174
330
173
100
AcDbEntity
  8
1
  6
Continuous
 62
     2
100
AcDbLine
 10
-139.979502418669
 20
71.09999953571838
 30
0.0
 11
-139.979502418669
 21
112.8999995357184
 31
0.0
  0
LINE
  5
175
330
173
100
AcDbEntity
  8
1
  6
Continuous
 62
     2
100
AcDbLine
 10
-119.2533277802973
 20
112.8999995357184
 30
0.0
 11
-141.479502418669
 21
112.8999995357184
 31
0.0
  0
LINE
  5
176
330
173
100
AcDbEntity
  8
1
  6
Continuous
 62
     2
100
AcDbLine
 10
-119.2533277802973
 20
71.09999953571838
 30
0.0
 11
-141.479502418669
 21
71.09999953571838
 31
0.0
  0
SOLID
  5
177
330
173
100
AcDbEntity
  8
1
 62
     2
100
AcDbTrace
 10
-140.4402861602249
 20
74.59999953571838
 30
0.0
 11
-139.5187186771131
 21
74.59999953571838
 31
0.0
 12
-139.979502418669
 22
71.09999953571838
 32
0.0
 13
-139.979502418669
 23
71.09999953571838
 33
0.0
  0
SOLID
  5
178
330
173
100
AcDbEntity
  8
1
 62
     2
100
AcDbTrace
 10
-139.5187186771131
 20
109.3999995357184
 30
0.0
 11
-140.4402861602249
 21
109.3999995357184
 31
0.0
 12
-139.979502418669
 22
112.8999995357184
 32
0.0
 13
-139.979502418669
 23
112.8999995357184
 33
0.0
  0
MTEXT
  5
179
330
173
100
AcDbEntity
  8
1
 62
     3
100
AcDbMText
 10
-141.829502418669
 20
87.74139422987386
 30
0.0
 40
3.5
 41
0.0
 71
     7
 72
     1
  1
41,8
  7
CONVERTER_11
 11
0.0
 21
1.0
 31
0.0
 73
     1
 44
0.60024009603842
  0
ENDBLK
  5
17B
330
173
100
AcDbEntity
  8
0
100
AcDbBlockEnd
  0
ENDSEC
  0
SECTION
  2
ENTITIES
  0
INSERT
  5
86
330
1F
100
AcDbEntity
  8
1
100
AcDbBlockReference
  2
1
 10
0.0
 20
0.0
 30
0.0
  0
ENDSEC
  0
SECTION
  2
OBJECTS
  0
DICTIONARY
  5
C
330
0
100
AcDbDictionary
281
     1
  3
ACAD_GROUP
350
D
  3
ACAD_LAYOUT
350
1A
  3
ACAD_MATERIAL
350
3B
  3
ACAD_MLEADERSTYLE
350
2DE
  3
ACAD_MLINESTYLE
350
17
  3
ACAD_PLOTSETTINGS
350
19
  3
ACAD_PLOTSTYLENAME
350
E
  3
ACAD_TABLESTYLE
350
2DD
  3
ACAD_VISUALSTYLE
350
2A
  0
DICTIONARY
  5
D
102
{ACAD_REACTORS
330
C
102
}
330
C
100
AcDbDictionary
281
     1
  0
DICTIONARY
  5
1A
102
{ACAD_REACTORS
330
C
102
}
330
C
100
AcDbDictionary
281
     1
  3
Layout1
350
1E
  3
Layout2
350
26
  3
Model
350
22
  0
DICTIONARY
  5
3B
102
{ACAD_REACTORS
330
C
102
}
330
C
100
AcDbDictionary
281
     1
  3
ByBlock
350
3D
  3
ByLayer
350
3C
  3
Global
350
3E
  0
DICTIONARY
  5
2DE
102
{ACAD_REACTORS
330
C
102
}
330
C
100
AcDbDictionary
281
     1
  0
DICTIONARY
  5
17
102
{ACAD_REACTORS
330
C
102
}
330
C
100
AcDbDictionary
281
     1
  3
Standard
350
18
  0
DICTIONARY
  5
19
102
{ACAD_REACTORS
330
C
102
}
330
C
100
AcDbDictionary
281
     1
  0
ACDBDICTIONARYWDFLT
  5
E
102
{ACAD_REACTORS
330
C
102
}
330
C
100
AcDbDictionary
281
     1
  3
Normal
350
F
100
AcDbDictionaryWithDefault
340
F
  0
DICTIONARY
  5
2DD
102
{ACAD_REACTORS
330
C
102
}
330
C
100
AcDbDictionary
281
     1
  0
DICTIONARY
  5
2A
102
{ACAD_REACTORS
330
C
102
}
330
C
100
AcDbDictionary
281
     1
  3
2dWireframe
350
2F
  3
3D Hidden
350
31
  3
3dWireframe
350
30
  3
Basic
350
32
  3
Brighten
350
36
  3
ColorChange
350
3A
  3
Conceptual
350
34
  3
Dim
350
35
  3
Facepattern
350
39
  3
Flat
350
2B
  3
FlatWithEdges
350
2C
  3
Gouraud
350
2D
  3
GouraudWithEdges
350
2E
  3
Linepattern
350
38
  3
Realistic
350
33
  3
Thicken
350
37
  0
LAYOUT
  5
1E
102
{ACAD_REACTORS
330
1A
102
}
330
1A
100
AcDbPlotSettings
  1

  2
none_device
  4

  6

 40
0.0
 41
0.0
 42
0.0
 43
0.0
 44
0.0
 45
0.0
 46
0.0
 47
0.0
 48
0.0
 49
0.0
140
0.0
141
0.0
142
1.0
143
1.0
 70
   688
 72
     0
 73
     0
 74
     5
  7

 75
    16
 76
     0
 77
     2
 78
   300
147
1.0
148
0.0
149
0.0
100
AcDbLayout
  1
Layout1
 70
     1
 71
     1
 10
0.0
 20
0.0
 11
12.0
 21
9.0
 12
0.0
 22
0.0
 32
0.0
 14
1.00000000000000E+20
 24
1.00000000000000E+20
 34
1.00000000000000E+20
 15
-1.00000000000000E+20
 25
-1.00000000000000E+20
 35
-1.00000000000000E+20
146
0.0
 13
0.0
 23
0.0
 33
0.0
 16
1.0
 26
0.0
 36
0.0
 17
0.0
 27
1.0
 37
0.0
 76
     0
330
1B
  0
LAYOUT
  5
26
102
{ACAD_REACTORS
330
1A
102
}
330
1A
100
AcDbPlotSettings
  1

  2
none_device
  4

  6

 40
0.0
 41
0.0
 42
0.0
 43
0.0
 44
0.0
 45
0.0
 46
0.0
 47
0.0
 48
0.0
 49
0.0
140
0.0
141
0.0
142
1.0
143
1.0
 70
   688
 72
     0
 73
     0
 74
     5
  7

 75
    16
 76
     0
 77
     2
 78
   300
147
1.0
148
0.0
149
0.0
100
AcDbLayout
  1
Layout2
 70
     1
 71
     2
 10
0.0
 20
0.0
 11
0.0
 21
0.0
 12
0.0
 22
0.0
 32
0.0
 14
0.0
 24
0.0
 34
0.0
 15
0.0
 25
0.0
 35
0.0
146
0.0
 13
0.0
 23
0.0
 33
0.0
 16
1.0
 26
0.0
 36
0.0
 17
0.0
 27
1.0
 37
0.0
 76
     0
330
23
  0
LAYOUT
  5
22
102
{ACAD_REACTORS
330
1A
102
}
330
1A
100
AcDbPlotSettings
  1

  2
none_device
  4

  6

 40
0.0
 41
0.0
 42
0.0
 43
0.0
 44
0.0
 45
0.0
 46
0.0
 47
0.0
 48
0.0
 49
0.0
140
0.0
141
0.0
142
1.0
143
1.0
 70
  1712
 72
     0
 73
     0
 74
     0
  7

 75
     0
 76
     0
 77
     2
 78
   300
147
1.0
148
0.0
149
0.0
100
AcDbLayout
  1
Model
 70
     1
 71
     0
 10
0.0
 20
0.0
 11
12.0
 21
9.0
 12
0.0
 22
0.0
 32
0.0
 14
-238.7171057136901
 24
3.43613650703946
 34
0.0
 15
58.28289428630797
 25
213.4361365070396
 35
0.0
146
0.0
 13
0.0
 23
0.0
 33
0.0
 16
1.0
 26
0.0
 36
0.0
 17
0.0
 27
1.0
 37
0.0
 76
     0
330
1F
331
29
  0
MATERIAL
  5
3D
102
{ACAD_REACTORS
330
3B
102
}
102
{ACAD_XDICTIONARY
360
2D9
102
}
330
3B
100
AcDbMaterial
  1
ByBlock
  0
MATERIAL
  5
3C
102
{ACAD_REACTORS
330
3B
102
}
102
{ACAD_XDICTIONARY
360
2D7
102
}
330
3B
100
AcDbMaterial
  1
ByLayer
  0
MATERIAL
  5
3E
102
{ACAD_REACTORS
330
3B
102
}
102
{ACAD_XDICTIONARY
360
2DB
102
}
330
3B
100
AcDbMaterial
  1
Global
  0
MLINESTYLE
  5
18
102
{ACAD_REACTORS
330
17
102
}
330
17
100
AcDbMlineStyle
  2
Standard
 70
     0
  3

 62
   256
 51
90.0
 52
90.0
 71
     2
 49
0.5
 62
   256
  6
BYLAYER
 49
-0.5
 62
   256
  6
BYLAYER
  0
ACDBPLACEHOLDER
  5
F
102
{ACAD_REACTORS
330
E
102
}
330
E
  0
VISUALSTYLE
  5
2F
102
{ACAD_REACTORS
330
2A
102
}
102
{ACAD_XDICTIONARY
360
2BF
102
}
330
2A
100
AcDbVisualStyle
  2
2dWireframe
 70
     4
 71
     0
 72
     2
 73
     0
 90
        0
 40
-0.6
 41
-30.0
 62
     5
 63
     7
421
 16777215
 74
     1
 91
        4
 64
     7
 65
   257
 75
     1
175
     1
 42
1.0
 92
        0
 66
   257
 43
1.0
 76
     1
 77
     6
 78
     2
 67
     7
 79
     5
170
     0
171
     0
290
     0
174
     0
 93
        1
 44
0.0
173
     0
291
     0
 45
0.0
1001
ACAD
1000
AcDbSavedByObjectVersion
1070
     0
  0
VISUALSTYLE
  5
31
102
{ACAD_REACTORS
330
2A
102
}
102
{ACAD_XDICTIONARY
360
2C3
102
}
330
2A
100
AcDbVisualStyle
  2
3D Hidden
 70
     6
 71
     1
 72
     2
 73
     2
 90
        0
 40
-0.6
 41
-30.0
 62
     5
 63
     7
421
 16777215
 74
     2
 91
        2
 64
     7
 65
   257
 75
     2
175
     1
 42
40.0
 92
        0
 66
   257
 43
1.0
 76
     1
 77
     6
 78
     2
 67
     7
 79
     3
170
     0
171
     0
290
     0
174
     0
 93
        1
 44
0.0
173
     0
291
     0
 45
0.0
1001
ACAD
1000
AcDbSavedByObjectVersion
1070
     0
  0
VISUALSTYLE
  5
30
102
{ACAD_REACTORS
330
2A
102
}
102
{ACAD_XDICTIONARY
360
2C1
102
}
330
2A
100
AcDbVisualStyle
  2
3dWireframe
 70
     5
 71
     0
 72
     2
 73
     0
 90
        0
 40
-0.6
 41
-30.0
 62
     5
 63
     7
421
 16777215
 74
     1
 91
        4
 64
     7
 65
   257
 75
     1
175
     1
 42
1.0
 92
        0
 66
   257
 43
1.0
 76
     1
 77
     6
 78
     2
 67
     7
 79
     5
170
     0
171
     0
290
     0
174
     0
 93
        1
 44
0.0
173
     0
291
     0
 45
0.0
1001
ACAD
1000
AcDbSavedByObjectVersion
1070
     0
  0
VISUALSTYLE
  5
32
102
{ACAD_REACTORS
330
2A
102
}
102
{ACAD_XDICTIONARY
360
2C5
102
}
330
2A
100
AcDbVisualStyle
  2
Basic
 70
     7
 71
     1
 72
     0
 73
     1
 90
        0
 40
-0.6
 41
-30.0
 62
     5
 63
     7
421
 16777215
 74
     0
 91
        4
 64
     7
 65
   257
 75
     1
175
     1
 42
1.0
 92
        8
 66
     7
 43
1.0
 76
     1
 77
     6
 78
     2
 67
     7
 79
     5
170
     0
171
     0
290
     0
174
     0
 93
        1
 44
0.0
173
     0
291
     1
 45
0.0
1001
ACAD
1000
AcDbSavedByObjectVersion
1070
     0
  0
VISUALSTYLE
  5
36
102
{ACAD_REACTORS
330
2A
102
}
102
{ACAD_XDICTIONARY
360
2CD
102
}
330
2A
100
AcDbVisualStyle
  2
Brighten
 70
    12
 71
     2
 72
     2
 73
     0
 90
        0
 40
-0.6
 41
-30.0
 62
     5
 63
     7
421
 16777215
 74
     1
 91
        4
 64
     7
 65
   257
 75
     1
175
     1
 42
1.0
 92
        8
 66
     7
 43
1.0
 76
     1
 77
     6
 78
     2
 67
     7
 79
     5
170
     0
171
     0
290
     0
174
     0
 93
        1
 44
50.0
173
     0
291
     1
 45
0.0
1001
ACAD
1000
AcDbSavedByObjectVersion
1070
     0
  0
VISUALSTYLE
  5
3A
102
{ACAD_REACTORS
330
2A
102
}
102
{ACAD_XDICTIONARY
360
2D5
102
}
330
2A
100
AcDbVisualStyle
  2
ColorChange
 70
    16
 71
     2
 72
     2
 73
     3
 90
        0
 40
-0.6
 41
-30.0
 62
     5
 63
     8
421
  8421504
 74
     1
 91
        4
 64
     7
 65
   257
 75
     1
175
     1
 42
1.0
 92
        8
 66
     8
424
  8421504
 43
1.0
 76
     1
 77
     6
 78
     2
 67
     7
 79
     5
170
     0
171
     0
290
     0
174
     0
 93
        1
 44
0.0
173
     0
291
     1
 45
0.0
1001
ACAD
1000
AcDbSavedByObjectVersion
1070
     0
  0
VISUALSTYLE
  5
34
102
{ACAD_REACTORS
330
2A
102
}
102
{ACAD_XDICTIONARY
360
2C9
102
}
330
2A
100
AcDbVisualStyle
  2
Conceptual
 70
     9
 71
     3
 72
     2
 73
     0
 90
        0
 40
-0.6
 41
-30.0
 62
     5
 63
     7
421
 16777215
 74
     2
 91
        2
 64
     7
 65
   257
 75
     1
175
     1
 42
40.0
 92
        8
 66
     7
 43
1.0
 76
     1
 77
     6
 78
     2
 67
     7
 79
     3
170
     0
171
     0
290
     0
174
     0
 93
        1
 44
0.0
173
     0
291
     0
 45
0.0
1001
ACAD
1000
AcDbSavedByObjectVersion
1070
     0
  0
VISUALSTYLE
  5
35
102
{ACAD_REACTORS
330
2A
102
}
102
{ACAD_XDICTIONARY
360
2CB
102
}
330
2A
100
AcDbVisualStyle
  2
Dim
 70
    11
 71
     2
 72
     2
 73
     0
 90
        0
 40
-0.6
 41
-30.0
 62
     5
 63
     7
421
 16777215
 74
     1
 91
        4
 64
     7
 65
   257
 75
     1
175
     1
 42
1.0
 92
        8
 66
     7
 43
1.0
 76
     1
 77
     6
 78
     2
 67
     7
 79
     5
170
     0
171
     0
290
     0
174
     0
 93
        1
 44
-50.0
173
     0
291
     1
 45
0.0
1001
ACAD
1000
AcDbSavedByObjectVersion
1070
     0
  0
VISUALSTYLE
  5
39
102
{ACAD_REACTORS
330
2A
102
}
102
{ACAD_XDICTIONARY
360
2D3
102
}
330
2A
100
AcDbVisualStyle
  2
Facepattern
 70
    15
 71
     2
 72
     2
 73
     0
 90
        0
 40
-0.6
 41
-30.0
 62
     5
 63
     7
421
 16777215
 74
     1
 91
        4
 64
     7
 65
   257
 75
     1
175
     1
 42
1.0
 92
        8
 66
     7
 43
1.0
 76
     1
 77
     6
 78
     2
 67
     7
 79
     5
170
     0
171
     0
290
     0
174
     0
 93
        1
 44
0.0
173
     0
291
     1
 45
0.0
1001
ACAD
1000
AcDbSavedByObjectVersion
1070
     0
  0
VISUALSTYLE
  5
2B
102
{ACAD_REACTORS
330
2A
102
}
102
{ACAD_XDICTIONARY
360
2B7
102
}
330
2A
100
AcDbVisualStyle
  2
Flat
 70
     0
 71
     2
 72
     1
 73
     1
 90
        2
 40
-0.6
 41
30.0
 62
     5
 63
     7
421
 16777215
 74
     0
 91
        4
 64
     7
 65
   257
 75
     1
175
     1
 42
1.0
 92
        8
 66
     7
 43
1.0
 76
     1
 77
     6
 78
     2
 67
     7
 79
     5
170
     0
171
     0
290
     0
174
     0
 93
       13
 44
0.0
173
     0
291
     1
 45
0.0
1001
ACAD
1000
AcDbSavedByObjectVersion
1070
     0
  0
VISUALSTYLE
  5
2C
102
{ACAD_REACTORS
330
2A
102
}
102
{ACAD_XDICTIONARY
360
2B9
102
}
330
2A
100
AcDbVisualStyle
  2
FlatWithEdges
 70
     1
 71
     2
 72
     1
 73
     1
 90
        2
 40
-0.6
 41
30.0
 62
     5
 63
     7
421
 16777215
 74
     1
 91
        4
 64
     7
 65
   257
 75
     1
175
     1
 42
1.0
 92
        0
 66
   257
 43
1.0
 76
     1
 77
     6
 78
     2
 67
     7
 79
     5
170
     0
171
     0
290
     0
174
     0
 93
       13
 44
0.0
173
     0
291
     1
 45
0.0
1001
ACAD
1000
AcDbSavedByObjectVersion
1070
     0
  0
VISUALSTYLE
  5
2D
102
{ACAD_REACTORS
330
2A
102
}
102
{ACAD_XDICTIONARY
360
2BB
102
}
330
2A
100
AcDbVisualStyle
  2
Gouraud
 70
     2
 71
     2
 72
     2
 73
     1
 90
        2
 40
-0.6
 41
30.0
 62
     5
 63
     7
421
 16777215
 74
     0
 91
        4
 64
     7
 65
   257
 75
     1
175
     1
 42
1.0
 92
        0
 66
     7
 43
1.0
 76
     1
 77
     6
 78
     2
 67
     7
 79
     5
170
     0
171
     0
290
     0
174
     0
 93
       13
 44
0.0
173
     0
291
     1
 45
0.0
1001
ACAD
1000
AcDbSavedByObjectVersion
1070
     0
  0
VISUALSTYLE
  5
2E
102
{ACAD_REACTORS
330
2A
102
}
102
{ACAD_XDICTIONARY
360
2BD
102
}
330
2A
100
AcDbVisualStyle
  2
GouraudWithEdges
 70
     3
 71
     2
 72
     2
 73
     1
 90
        2
 40
-0.6
 41
30.0
 62
     5
 63
     7
421
 16777215
 74
     1
 91
        4
 64
     7
 65
   257
 75
     1
175
     1
 42
1.0
 92
        0
 66
   257
 43
1.0
 76
     1
 77
     6
 78
     2
 67
     7
 79
     5
170
     0
171
     0
290
     0
174
     0
 93
       13
 44
0.0
173
     0
291
     1
 45
0.0
1001
ACAD
1000
AcDbSavedByObjectVersion
1070
     0
  0
VISUALSTYLE
  5
38
102
{ACAD_REACTORS
330
2A
102
}
102
{ACAD_XDICTIONARY
360
2D1
102
}
330
2A
100
AcDbVisualStyle
  2
Linepattern
 70
    14
 71
     2
 72
     2
 73
     0
 90
        0
 40
-0.6
 41
-30.0
 62
     5
 63
     7
421
 16777215
 74
     1
 91
        4
 64
     7
 65
   257
 75
     7
175
     7
 42
1.0
 92
        8
 66
     7
 43
1.0
 76
     1
 77
     6
 78
     2
 67
     7
 79
     5
170
     0
171
     0
290
     0
174
     0
 93
        1
 44
0.0
173
     0
291
     1
 45
0.0
1001
ACAD
1000
AcDbSavedByObjectVersion
1070
     0
  0
VISUALSTYLE
  5
33
102
{ACAD_REACTORS
330
2A
102
}
102
{ACAD_XDICTIONARY
360
2C7
102
}
330
2A
100
AcDbVisualStyle
  2
Realistic
 70
     8
 71
     2
 72
     2
 73
     0
 90
        0
 40
-0.6
 41
-30.0
 62
     5
 63
     7
421
 16777215
 74
     1
 91
        0
 64
     7
 65
   257
 75
     1
175
     1
 42
1.0
 92
        8
 66
     8
424
  7895160
 43
1.0
 76
     1
 77
     6
 78
     2
 67
     7
 79
     5
170
     0
171
     0
290
     0
174
     0
 93
       13
 44
0.0
173
     0
291
     0
 45
0.0
1001
ACAD
1000
AcDbSavedByObjectVersion
1070
     0
  0
VISUALSTYLE
  5
37
102
{ACAD_REACTORS
330
2A
102
}
102
{ACAD_XDICTIONARY
360
2CF
102
}
330
2A
100
AcDbVisualStyle
  2
Thicken
 70
    13
 71
     2
 72
     2
 73
     0
 90
        0
 40
-0.6
 41
-30.0
 62
     5
 63
     7
421
 16777215
 74
     1
 91
        4
 64
     7
 65
   257
 75
     1
175
     1
 42
1.0
 92
       12
 66
     7
 43
1.0
 76
     1
 77
     6
 78
     2
 67
     7
 79
     5
170
     0
171
     0
290
     0
174
     0
 93
        1
 44
0.0
173
     0
291
     1
 45
0.0
1001
ACAD
1000
AcDbSavedByObjectVersion
1070
     0
  0
DICTIONARY
  5
2D9
330
3D
100
AcDbDictionary
280
     1
281
     1
  3
ACAD_XREC_ROUNDTRIP
360
2DA
  0
DICTIONARY
  5
2D7
330
3C
100
AcDbDictionary
280
     1
281
     1
  3
ACAD_XREC_ROUNDTRIP
360
2D8
  0
DICTIONARY
  5
2DB
330
3E
100
AcDbDictionary
280
     1
281
     1
  3
ACAD_XREC_ROUNDTRIP
360
2DC
  0
DICTIONARY
  5
2BF
330
2F
100
AcDbDictionary
280
     1
281
     1
  3
ACAD_XREC_ROUNDTRIP
360
2C0
  0
DICTIONARY
  5
2C3
330
31
100
AcDbDictionary
280
     1
281
     1
  3
ACAD_XREC_ROUNDTRIP
360
2C4
  0
DICTIONARY
  5
2C1
330
30
100
AcDbDictionary
280
     1
281
     1
  3
ACAD_XREC_ROUNDTRIP
360
2C2
  0
DICTIONARY
  5
2C5
330
32
100
AcDbDictionary
280
     1
281
     1
  3
ACAD_XREC_ROUNDTRIP
360
2C6
  0
DICTIONARY
  5
2CD
330
36
100
AcDbDictionary
280
     1
281
     1
  3
ACAD_XREC_ROUNDTRIP
360
2CE
  0
DICTIONARY
  5
2D5
330
3A
100
AcDbDictionary
280
     1
281
     1
  3
ACAD_XREC_ROUNDTRIP
360
2D6
  0
DICTIONARY
  5
2C9
330
34
100
AcDbDictionary
280
     1
281
     1
  3
ACAD_XREC_ROUNDTRIP
360
2CA
  0
DICTIONARY
  5
2CB
330
35
100
AcDbDictionary
280
     1
281
     1
  3
ACAD_XREC_ROUNDTRIP
360
2CC
  0
DICTIONARY
  5
2D3
330
39
100
AcDbDictionary
280
     1
281
     1
  3
ACAD_XREC_ROUNDTRIP
360
2D4
  0
DICTIONARY
  5
2B7
330
2B
100
AcDbDictionary
280
     1
281
     1
  3
ACAD_XREC_ROUNDTRIP
360
2B8
  0
DICTIONARY
  5
2B9
330
2C
100
AcDbDictionary
280
     1
281
     1
  3
ACAD_XREC_ROUNDTRIP
360
2BA
  0
DICTIONARY
  5
2BB
330
2D
100
AcDbDictionary
280
     1
281
     1
  3
ACAD_XREC_ROUNDTRIP
360
2BC
  0
DICTIONARY
  5
2BD
330
2E
100
AcDbDictionary
280
     1
281
     1
  3
ACAD_XREC_ROUNDTRIP
360
2BE
  0
DICTIONARY
  5
2D1
330
38
100
AcDbDictionary
280
     1
281
     1
  3
ACAD_XREC_ROUNDTRIP
360
2D2
  0
DICTIONARY
  5
2C7
330
33
100
AcDbDictionary
280
     1
281
     1
  3
ACAD_XREC_ROUNDTRIP
360
2C8
  0
DICTIONARY
  5
2CF
330
37
100
AcDbDictionary
280
     1
281
     1
  3
ACAD_XREC_ROUNDTRIP
360
2D0
  0
XRECORD
  5
2DA
102
{ACAD_REACTORS
330
2D9
102
}
330
2D9
100
AcDbXrecord
280
     1
102
MATERIAL
148
0.0
149
0.0
149
0.0
 93
        0
 94
      127
282
     0
 72
     1
 77
     1
171
     1
175
     1
179
     1
273
     0
  0
XRECORD
  5
2D8
102
{ACAD_REACTORS
330
2D7
102
}
330
2D7
100
AcDbXrecord
280
     1
102
MATERIAL
148
0.0
149
0.0
149
0.0
 93
        0
 94
      127
282
     0
 72
     1
 77
     1
171
     1
175
     1
179
     1
273
     0
  0
XRECORD
  5
2DC
102
{ACAD_REACTORS
330
2DB
102
}
330
2DB
100
AcDbXrecord
280
     1
102
MATERIAL
148
0.0
149
0.0
149
0.0
 93
        0
 94
      127
282
     0
 72
     1
 77
     1
171
     1
175
     1
179
     1
273
     0
  0
XRECORD
  5
2C0
102
{ACAD_REACTORS
330
2BF
102
}
330
2BF
100
AcDbXrecord
280
     1
102
RTVSPropertyOp0
 70
     1
102
RTVSPropertyOp1
 70
     1
102
RTVSPropertyOp2
 70
     1
102
RTVSPropertyOp3
 70
     1
102
RTVSPropertyOp4
 70
     1
102
RTVSPropertyOp5
 70
     1
102
RTVSPropertyOp6
 70
     1
102
RTVSPropertyOp7
 70
     1
102
RTVSPropertyOp8
 70
     1
102
RTVSPropertyOp9
 70
     1
102
RTVSPropertyOp10
 70
     1
102
RTVSPropertyOp11
 70
     1
102
RTVSPropertyOp12
 70
     1
102
RTVSPropertyOp13
 70
     1
102
RTVSPropertyOp14
 70
     1
102
RTVSPropertyOp15
 70
     1
102
RTVSPropertyOp16
 70
     1
102
RTVSPropertyOp17
 70
     1
102
RTVSPropertyOp18
 70
     1
102
RTVSPropertyOp19
 70
     1
102
RTVSPropertyOp20
 70
     1
102
RTVSPropertyOp21
 70
     1
102
RTVSPropertyOp22
 70
     1
102
RTVSPropertyOp23
 70
     1
102
RTVSPropertyOp24
 70
     1
102
RTVSPropertyOp25
 70
     1
102
RTVSPropertyOp26
 70
     1
102
RTVSPropertyOp27
 70
     1
102
RTVSPropertyOp28
 70
     1
102
RTVSPropertyOp29
 70
     1
102
RTVSPropertyOp30
 70
     1
102
RTVSPropertyOp31
 70
     1
102
RTVSPropertyOp32
 70
     1
  0
XRECORD
  5
2C4
102
{ACAD_REACTORS
330
2C3
102
}
330
2C3
100
AcDbXrecord
280
     1
102
RTVSPropertyOp0
 70
     1
102
RTVSPropertyOp1
 70
     1
102
RTVSPropertyOp2
 70
     1
102
RTVSPropertyOp3
 70
     1
102
RTVSPropertyOp4
 70
     1
102
RTVSPropertyOp5
 70
     1
102
RTVSPropertyOp6
 70
     1
102
RTVSPropertyOp7
 70
     1
102
RTVSPropertyOp8
 70
     1
102
RTVSPropertyOp9
 70
     1
102
RTVSPropertyOp10
 70
     1
102
RTVSPropertyOp11
 70
     1
102
RTVSPropertyOp12
 70
     1
102
RTVSPropertyOp13
 70
     1
102
RTVSPropertyOp14
 70
     1
102
RTVSPropertyOp15
 70
     1
102
RTVSPropertyOp16
 70
     1
102
RTVSPropertyOp17
 70
     1
102
RTVSPropertyOp18
 70
     1
102
RTVSPropertyOp19
 70
     1
102
RTVSPropertyOp20
 70
     1
102
RTVSPropertyOp21
 70
     1
102
RTVSPropertyOp22
 70
     1
102
RTVSPropertyOp23
 70
     1
102
RTVSPropertyOp24
 70
     1
102
RTVSPropertyOp25
 70
     1
102
RTVSPropertyOp26
 70
     1
102
RTVSPropertyOp27
 70
     1
102
RTVSPropertyOp28
 70
     1
102
RTVSPropertyOp29
 70
     1
102
RTVSPropertyOp30
 70
     1
102
RTVSPropertyOp31
 70
     1
102
RTVSPropertyOp32
 70
     1
  0
XRECORD
  5
2C2
102
{ACAD_REACTORS
330
2C1
102
}
330
2C1
100
AcDbXrecord
280
     1
102
RTVSPropertyOp0
 70
     1
102
RTVSPropertyOp1
 70
     1
102
RTVSPropertyOp2
 70
     1
102
RTVSPropertyOp3
 70
     1
102
RTVSPropertyOp4
 70
     1
102
RTVSPropertyOp5
 70
     1
102
RTVSPropertyOp6
 70
     1
102
RTVSPropertyOp7
 70
     1
102
RTVSPropertyOp8
 70
     1
102
RTVSPropertyOp9
 70
     1
102
RTVSPropertyOp10
 70
     1
102
RTVSPropertyOp11
 70
     1
102
RTVSPropertyOp12
 70
     1
102
RTVSPropertyOp13
 70
     1
102
RTVSPropertyOp14
 70
     1
102
RTVSPropertyOp15
 70
     1
102
RTVSPropertyOp16
 70
     1
102
RTVSPropertyOp17
 70
     1
102
RTVSPropertyOp18
 70
     1
102
RTVSPropertyOp19
 70
     1
102
RTVSPropertyOp20
 70
     1
102
RTVSPropertyOp21
 70
     1
102
RTVSPropertyOp22
 70
     1
102
RTVSPropertyOp23
 70
     1
102
RTVSPropertyOp24
 70
     1
102
RTVSPropertyOp25
 70
     1
102
RTVSPropertyOp26
 70
     1
102
RTVSPropertyOp27
 70
     1
102
RTVSPropertyOp28
 70
     1
102
RTVSPropertyOp29
 70
     1
102
RTVSPropertyOp30
 70
     1
102
RTVSPropertyOp31
 70
     1
102
RTVSPropertyOp32
 70
     1
  0
XRECORD
  5
2C6
102
{ACAD_REACTORS
330
2C5
102
}
330
2C5
100
AcDbXrecord
280
     1
102
RTVSPropertyOp0
 70
     1
102
RTVSPropertyOp1
 70
     1
102
RTVSPropertyOp2
 70
     1
102
RTVSPropertyOp3
 70
     1
102
RTVSPropertyOp4
 70
     1
102
RTVSPropertyOp5
 70
     1
102
RTVSPropertyOp6
 70
     1
102
RTVSPropertyOp7
 70
     1
102
RTVSPropertyOp8
 70
     1
102
RTVSPropertyOp9
 70
     1
102
RTVSPropertyOp10
 70
     1
102
RTVSPropertyOp11
 70
     1
102
RTVSPropertyOp12
 70
     1
102
RTVSPropertyOp13
 70
     1
102
RTVSPropertyOp14
 70
     1
102
RTVSPropertyOp15
 70
     1
102
RTVSPropertyOp16
 70
     1
102
RTVSPropertyOp17
 70
     1
102
RTVSPropertyOp18
 70
     1
102
RTVSPropertyOp19
 70
     1
102
RTVSPropertyOp20
 70
     1
102
RTVSPropertyOp21
 70
     1
102
RTVSPropertyOp22
 70
     1
102
RTVSPropertyOp23
 70
     1
102
RTVSPropertyOp24
 70
     1
102
RTVSPropertyOp25
 70
     1
102
RTVSPropertyOp26
 70
     1
102
RTVSPropertyOp27
 70
     1
102
RTVSPropertyOp28
 70
     1
102
RTVSPropertyOp29
 70
     1
102
RTVSPropertyOp30
 70
     1
102
RTVSPropertyOp31
 70
     1
102
RTVSPropertyOp32
 70
     1
  0
XRECORD
  5
2CE
102
{ACAD_REACTORS
330
2CD
102
}
330
2CD
100
AcDbXrecord
280
     1
102
RTVSPropertyOp0
 70
     1
102
RTVSPropertyOp1
 70
     1
102
RTVSPropertyOp2
 70
     1
102
RTVSPropertyOp3
 70
     1
102
RTVSPropertyOp4
 70
     1
102
RTVSPropertyOp5
 70
     1
102
RTVSPropertyOp6
 70
     1
102
RTVSPropertyOp7
 70
     1
102
RTVSPropertyOp8
 70
     1
102
RTVSPropertyOp9
 70
     1
102
RTVSPropertyOp10
 70
     1
102
RTVSPropertyOp11
 70
     1
102
RTVSPropertyOp12
 70
     1
102
RTVSPropertyOp13
 70
     1
102
RTVSPropertyOp14
 70
     1
102
RTVSPropertyOp15
 70
     1
102
RTVSPropertyOp16
 70
     1
102
RTVSPropertyOp17
 70
     1
102
RTVSPropertyOp18
 70
     1
102
RTVSPropertyOp19
 70
     1
102
RTVSPropertyOp20
 70
     1
102
RTVSPropertyOp21
 70
     1
102
RTVSPropertyOp22
 70
     1
102
RTVSPropertyOp23
 70
     1
102
RTVSPropertyOp24
 70
     1
102
RTVSPropertyOp25
 70
     1
102
RTVSPropertyOp26
 70
     1
102
RTVSPropertyOp27
 70
     1
102
RTVSPropertyOp28
 70
     1
102
RTVSPropertyOp29
 70
     1
102
RTVSPropertyOp30
 70
     1
102
RTVSPropertyOp31
 70
     1
102
RTVSPropertyOp32
 70
     1
  0
XRECORD
  5
2D6
102
{ACAD_REACTORS
330
2D5
102
}
330
2D5
100
AcDbXrecord
280
     1
102
RTVSPropertyOp0
 70
     1
102
RTVSPropertyOp1
 70
     1
102
RTVSPropertyOp2
 70
     1
102
RTVSPropertyOp3
 70
     1
102
RTVSPropertyOp4
 70
     1
102
RTVSPropertyOp5
 70
     1
102
RTVSPropertyOp6
 70
     1
102
RTVSPropertyOp7
 70
     1
102
RTVSPropertyOp8
 70
     1
102
RTVSPropertyOp9
 70
     1
102
RTVSPropertyOp10
 70
     1
102
RTVSPropertyOp11
 70
     1
102
RTVSPropertyOp12
 70
     1
102
RTVSPropertyOp13
 70
     1
102
RTVSPropertyOp14
 70
     1
102
RTVSPropertyOp15
 70
     1
102
RTVSPropertyOp16
 70
     1
102
RTVSPropertyOp17
 70
     1
102
RTVSPropertyOp18
 70
     1
102
RTVSPropertyOp19
 70
     1
102
RTVSPropertyOp20
 70
     1
102
RTVSPropertyOp21
 70
     1
102
RTVSPropertyOp22
 70
     1
102
RTVSPropertyOp23
 70
     1
102
RTVSPropertyOp24
 70
     1
102
RTVSPropertyOp25
 70
     1
102
RTVSPropertyOp26
 70
     1
102
RTVSPropertyOp27
 70
     1
102
RTVSPropertyOp28
 70
     1
102
RTVSPropertyOp29
 70
     1
102
RTVSPropertyOp30
 70
     1
102
RTVSPropertyOp31
 70
     1
102
RTVSPropertyOp32
 70
     1
  0
XRECORD
  5
2CA
102
{ACAD_REACTORS
330
2C9
102
}
330
2C9
100
AcDbXrecord
280
     1
102
RTVSPropertyOp0
 70
     1
102
RTVSPropertyOp1
 70
     1
102
RTVSPropertyOp2
 70
     1
102
RTVSPropertyOp3
 70
     1
102
RTVSPropertyOp4
 70
     1
102
RTVSPropertyOp5
 70
     1
102
RTVSPropertyOp6
 70
     1
102
RTVSPropertyOp7
 70
     1
102
RTVSPropertyOp8
 70
     1
102
RTVSPropertyOp9
 70
     1
102
RTVSPropertyOp10
 70
     1
102
RTVSPropertyOp11
 70
     1
102
RTVSPropertyOp12
 70
     1
102
RTVSPropertyOp13
 70
     1
102
RTVSPropertyOp14
 70
     1
102
RTVSPropertyOp15
 70
     1
102
RTVSPropertyOp16
 70
     1
102
RTVSPropertyOp17
 70
     1
102
RTVSPropertyOp18
 70
     1
102
RTVSPropertyOp19
 70
     1
102
RTVSPropertyOp20
 70
     1
102
RTVSPropertyOp21
 70
     1
102
RTVSPropertyOp22
 70
     1
102
RTVSPropertyOp23
 70
     1
102
RTVSPropertyOp24
 70
     1
102
RTVSPropertyOp25
 70
     1
102
RTVSPropertyOp26
 70
     1
102
RTVSPropertyOp27
 70
     1
102
RTVSPropertyOp28
 70
     1
102
RTVSPropertyOp29
 70
     1
102
RTVSPropertyOp30
 70
     1
102
RTVSPropertyOp31
 70
     1
102
RTVSPropertyOp32
 70
     1
  0
XRECORD
  5
2CC
102
{ACAD_REACTORS
330
2CB
102
}
330
2CB
100
AcDbXrecord
280
     1
102
RTVSPropertyOp0
 70
     1
102
RTVSPropertyOp1
 70
     1
102
RTVSPropertyOp2
 70
     1
102
RTVSPropertyOp3
 70
     1
102
RTVSPropertyOp4
 70
     1
102
RTVSPropertyOp5
 70
     1
102
RTVSPropertyOp6
 70
     1
102
RTVSPropertyOp7
 70
     1
102
RTVSPropertyOp8
 70
     1
102
RTVSPropertyOp9
 70
     1
102
RTVSPropertyOp10
 70
     1
102
RTVSPropertyOp11
 70
     1
102
RTVSPropertyOp12
 70
     1
102
RTVSPropertyOp13
 70
     1
102
RTVSPropertyOp14
 70
     1
102
RTVSPropertyOp15
 70
     1
102
RTVSPropertyOp16
 70
     1
102
RTVSPropertyOp17
 70
     1
102
RTVSPropertyOp18
 70
     1
102
RTVSPropertyOp19
 70
     1
102
RTVSPropertyOp20
 70
     1
102
RTVSPropertyOp21
 70
     1
102
RTVSPropertyOp22
 70
     1
102
RTVSPropertyOp23
 70
     1
102
RTVSPropertyOp24
 70
     1
102
RTVSPropertyOp25
 70
     1
102
RTVSPropertyOp26
 70
     1
102
RTVSPropertyOp27
 70
     1
102
RTVSPropertyOp28
 70
     1
102
RTVSPropertyOp29
 70
     1
102
RTVSPropertyOp30
 70
     1
102
RTVSPropertyOp31
 70
     1
102
RTVSPropertyOp32
 70
     1
  0
XRECORD
  5
2D4
102
{ACAD_REACTORS
330
2D3
102
}
330
2D3
100
AcDbXrecord
280
     1
102
RTVSPropertyOp0
 70
     1
102
RTVSPropertyOp1
 70
     1
102
RTVSPropertyOp2
 70
     1
102
RTVSPropertyOp3
 70
     1
102
RTVSPropertyOp4
 70
     1
102
RTVSPropertyOp5
 70
     1
102
RTVSPropertyOp6
 70
     1
102
RTVSPropertyOp7
 70
     1
102
RTVSPropertyOp8
 70
     1
102
RTVSPropertyOp9
 70
     1
102
RTVSPropertyOp10
 70
     1
102
RTVSPropertyOp11
 70
     1
102
RTVSPropertyOp12
 70
     1
102
RTVSPropertyOp13
 70
     1
102
RTVSPropertyOp14
 70
     1
102
RTVSPropertyOp15
 70
     1
102
RTVSPropertyOp16
 70
     1
102
RTVSPropertyOp17
 70
     1
102
RTVSPropertyOp18
 70
     1
102
RTVSPropertyOp19
 70
     1
102
RTVSPropertyOp20
 70
     1
102
RTVSPropertyOp21
 70
     1
102
RTVSPropertyOp22
 70
     1
102
RTVSPropertyOp23
 70
     1
102
RTVSPropertyOp24
 70
     1
102
RTVSPropertyOp25
 70
     1
102
RTVSPropertyOp26
 70
     1
102
RTVSPropertyOp27
 70
     1
102
RTVSPropertyOp28
 70
     1
102
RTVSPropertyOp29
 70
     1
102
RTVSPropertyOp30
 70
     1
102
RTVSPropertyOp31
 70
     1
102
RTVSPropertyOp32
 70
     1
  0
XRECORD
  5
2B8
102
{ACAD_REACTORS
330
2B7
102
}
330
2B7
100
AcDbXrecord
280
     1
102
RTVSPropertyOp0
 70
     1
102
RTVSPropertyOp1
 70
     1
102
RTVSPropertyOp2
 70
     1
102
RTVSPropertyOp3
 70
     1
102
RTVSPropertyOp4
 70
     1
102
RTVSPropertyOp5
 70
     1
102
RTVSPropertyOp6
 70
     1
102
RTVSPropertyOp7
 70
     1
102
RTVSPropertyOp8
 70
     1
102
RTVSPropertyOp9
 70
     1
102
RTVSPropertyOp10
 70
     1
102
RTVSPropertyOp11
 70
     1
102
RTVSPropertyOp12
 70
     1
102
RTVSPropertyOp13
 70
     1
102
RTVSPropertyOp14
 70
     1
102
RTVSPropertyOp15
 70
     1
102
RTVSPropertyOp16
 70
     1
102
RTVSPropertyOp17
 70
     1
102
RTVSPropertyOp18
 70
     1
102
RTVSPropertyOp19
 70
     1
102
RTVSPropertyOp20
 70
     1
102
RTVSPropertyOp21
 70
     1
102
RTVSPropertyOp22
 70
     1
102
RTVSPropertyOp23
 70
     1
102
RTVSPropertyOp24
 70
     1
102
RTVSPropertyOp25
 70
     1
102
RTVSPropertyOp26
 70
     1
102
RTVSPropertyOp27
 70
     1
102
RTVSPropertyOp28
 70
     1
102
RTVSPropertyOp29
 70
     1
102
RTVSPropertyOp30
 70
     1
102
RTVSPropertyOp31
 70
     1
102
RTVSPropertyOp32
 70
     1
  0
XRECORD
  5
2BA
102
{ACAD_REACTORS
330
2B9
102
}
330
2B9
100
AcDbXrecord
280
     1
102
RTVSPropertyOp0
 70
     1
102
RTVSPropertyOp1
 70
     1
102
RTVSPropertyOp2
 70
     1
102
RTVSPropertyOp3
 70
     1
102
RTVSPropertyOp4
 70
     1
102
RTVSPropertyOp5
 70
     1
102
RTVSPropertyOp6
 70
     1
102
RTVSPropertyOp7
 70
     1
102
RTVSPropertyOp8
 70
     1
102
RTVSPropertyOp9
 70
     1
102
RTVSPropertyOp10
 70
     1
102
RTVSPropertyOp11
 70
     1
102
RTVSPropertyOp12
 70
     1
102
RTVSPropertyOp13
 70
     1
102
RTVSPropertyOp14
 70
     1
102
RTVSPropertyOp15
 70
     1
102
RTVSPropertyOp16
 70
     1
102
RTVSPropertyOp17
 70
     1
102
RTVSPropertyOp18
 70
     1
102
RTVSPropertyOp19
 70
     1
102
RTVSPropertyOp20
 70
     1
102
RTVSPropertyOp21
 70
     1
102
RTVSPropertyOp22
 70
     1
102
RTVSPropertyOp23
 70
     1
102
RTVSPropertyOp24
 70
     1
102
RTVSPropertyOp25
 70
     1
102
RTVSPropertyOp26
 70
     1
102
RTVSPropertyOp27
 70
     1
102
RTVSPropertyOp28
 70
     1
102
RTVSPropertyOp29
 70
     1
102
RTVSPropertyOp30
 70
     1
102
RTVSPropertyOp31
 70
     1
102
RTVSPropertyOp32
 70
     1
  0
XRECORD
  5
2BC
102
{ACAD_REACTORS
330
2BB
102
}
330
2BB
100
AcDbXrecord
280
     1
102
RTVSPropertyOp0
 70
     1
102
RTVSPropertyOp1
 70
     1
102
RTVSPropertyOp2
 70
     1
102
RTVSPropertyOp3
 70
     1
102
RTVSPropertyOp4
 70
     1
102
RTVSPropertyOp5
 70
     1
102
RTVSPropertyOp6
 70
     1
102
RTVSPropertyOp7
 70
     1
102
RTVSPropertyOp8
 70
     1
102
RTVSPropertyOp9
 70
     1
102
RTVSPropertyOp10
 70
     1
102
RTVSPropertyOp11
 70
     1
102
RTVSPropertyOp12
 70
     1
102
RTVSPropertyOp13
 70
     1
102
RTVSPropertyOp14
 70
     1
102
RTVSPropertyOp15
 70
     1
102
RTVSPropertyOp16
 70
     1
102
RTVSPropertyOp17
 70
     1
102
RTVSPropertyOp18
 70
     1
102
RTVSPropertyOp19
 70
     1
102
RTVSPropertyOp20
 70
     1
102
RTVSPropertyOp21
 70
     1
102
RTVSPropertyOp22
 70
     1
102
RTVSPropertyOp23
 70
     1
102
RTVSPropertyOp24
 70
     1
102
RTVSPropertyOp25
 70
     1
102
RTVSPropertyOp26
 70
     1
102
RTVSPropertyOp27
 70
     1
102
RTVSPropertyOp28
 70
     1
102
RTVSPropertyOp29
 70
     1
102
RTVSPropertyOp30
 70
     1
102
RTVSPropertyOp31
 70
     1
102
RTVSPropertyOp32
 70
     1
  0
XRECORD
  5
2BE
102
{ACAD_REACTORS
330
2BD
102
}
330
2BD
100
AcDbXrecord
280
     1
102
RTVSPropertyOp0
 70
     1
102
RTVSPropertyOp1
 70
     1
102
RTVSPropertyOp2
 70
     1
102
RTVSPropertyOp3
 70
     1
102
RTVSPropertyOp4
 70
     1
102
RTVSPropertyOp5
 70
     1
102
RTVSPropertyOp6
 70
     1
102
RTVSPropertyOp7
 70
     1
102
RTVSPropertyOp8
 70
     1
102
RTVSPropertyOp9
 70
     1
102
RTVSPropertyOp10
 70
     1
102
RTVSPropertyOp11
 70
     1
102
RTVSPropertyOp12
 70
     1
102
RTVSPropertyOp13
 70
     1
102
RTVSPropertyOp14
 70
     1
102
RTVSPropertyOp15
 70
     1
102
RTVSPropertyOp16
 70
     1
102
RTVSPropertyOp17
 70
     1
102
RTVSPropertyOp18
 70
     1
102
RTVSPropertyOp19
 70
     1
102
RTVSPropertyOp20
 70
     1
102
RTVSPropertyOp21
 70
     1
102
RTVSPropertyOp22
 70
     1
102
RTVSPropertyOp23
 70
     1
102
RTVSPropertyOp24
 70
     1
102
RTVSPropertyOp25
 70
     1
102
RTVSPropertyOp26
 70
     1
102
RTVSPropertyOp27
 70
     1
102
RTVSPropertyOp28
 70
     1
102
RTVSPropertyOp29
 70
     1
102
RTVSPropertyOp30
 70
     1
102
RTVSPropertyOp31
 70
     1
102
RTVSPropertyOp32
 70
     1
  0
XRECORD
  5
2D2
102
{ACAD_REACTORS
330
2D1
102
}
330
2D1
100
AcDbXrecord
280
     1
102
RTVSPropertyOp0
 70
     1
102
RTVSPropertyOp1
 70
     1
102
RTVSPropertyOp2
 70
     1
102
RTVSPropertyOp3
 70
     1
102
RTVSPropertyOp4
 70
     1
102
RTVSPropertyOp5
 70
     1
102
RTVSPropertyOp6
 70
     1
102
RTVSPropertyOp7
 70
     1
102
RTVSPropertyOp8
 70
     1
102
RTVSPropertyOp9
 70
     1
102
RTVSPropertyOp10
 70
     1
102
RTVSPropertyOp11
 70
     1
102
RTVSPropertyOp12
 70
     1
102
RTVSPropertyOp13
 70
     1
102
RTVSPropertyOp14
 70
     1
102
RTVSPropertyOp15
 70
     1
102
RTVSPropertyOp16
 70
     1
102
RTVSPropertyOp17
 70
     1
102
RTVSPropertyOp18
 70
     1
102
RTVSPropertyOp19
 70
     1
102
RTVSPropertyOp20
 70
     1
102
RTVSPropertyOp21
 70
     1
102
RTVSPropertyOp22
 70
     1
102
RTVSPropertyOp23
 70
     1
102
RTVSPropertyOp24
 70
     1
102
RTVSPropertyOp25
 70
     1
102
RTVSPropertyOp26
 70
     1
102
RTVSPropertyOp27
 70
     1
102
RTVSPropertyOp28
 70
     1
102
RTVSPropertyOp29
 70
     1
102
RTVSPropertyOp30
 70
     1
102
RTVSPropertyOp31
 70
     1
102
RTVSPropertyOp32
 70
     1
  0
XRECORD
  5
2C8
102
{ACAD_REACTORS
330
2C7
102
}
330
2C7
100
AcDbXrecord
280
     1
102
RTVSPropertyOp0
 70
     1
102
RTVSPropertyOp1
 70
     1
102
RTVSPropertyOp2
 70
     1
102
RTVSPropertyOp3
 70
     1
102
RTVSPropertyOp4
 70
     1
102
RTVSPropertyOp5
 70
     1
102
RTVSPropertyOp6
 70
     1
102
RTVSPropertyOp7
 70
     1
102
RTVSPropertyOp8
 70
     1
102
RTVSPropertyOp9
 70
     1
102
RTVSPropertyOp10
 70
     1
102
RTVSPropertyOp11
 70
     1
102
RTVSPropertyOp12
 70
     1
102
RTVSPropertyOp13
 70
     1
102
RTVSPropertyOp14
 70
     1
102
RTVSPropertyOp15
 70
     1
102
RTVSPropertyOp16
 70
     1
102
RTVSPropertyOp17
 70
     1
102
RTVSPropertyOp18
 70
     1
102
RTVSPropertyOp19
 70
     1
102
RTVSPropertyOp20
 70
     1
102
RTVSPropertyOp21
 70
     1
102
RTVSPropertyOp22
 70
     1
102
RTVSPropertyOp23
 70
     1
102
RTVSPropertyOp24
 70
     1
102
RTVSPropertyOp25
 70
     1
102
RTVSPropertyOp26
 70
     1
102
RTVSPropertyOp27
 70
     1
102
RTVSPropertyOp28
 70
     1
102
RTVSPropertyOp29
 70
     1
102
RTVSPropertyOp30
 70
     1
102
RTVSPropertyOp31
 70
     1
102
RTVSPropertyOp32
 70
     1
  0
XRECORD
  5
2D0
102
{ACAD_REACTORS
330
2CF
102
}
330
2CF
100
AcDbXrecord
280
     1
102
RTVSPropertyOp0
 70
     1
102
RTVSPropertyOp1
 70
     1
102
RTVSPropertyOp2
 70
     1
102
RTVSPropertyOp3
 70
     1
102
RTVSPropertyOp4
 70
     1
102
RTVSPropertyOp5
 70
     1
102
RTVSPropertyOp6
 70
     1
102
RTVSPropertyOp7
 70
     1
102
RTVSPropertyOp8
 70
     1
102
RTVSPropertyOp9
 70
     1
102
RTVSPropertyOp10
 70
     1
102
RTVSPropertyOp11
 70
     1
102
RTVSPropertyOp12
 70
     1
102
RTVSPropertyOp13
 70
     1
102
RTVSPropertyOp14
 70
     1
102
RTVSPropertyOp15
 70
     1
102
RTVSPropertyOp16
 70
     1
102
RTVSPropertyOp17
 70
     1
102
RTVSPropertyOp18
 70
     1
102
RTVSPropertyOp19
 70
     1
102
RTVSPropertyOp20
 70
     1
102
RTVSPropertyOp21
 70
     1
102
RTVSPropertyOp22
 70
     1
102
RTVSPropertyOp23
 70
     1
102
RTVSPropertyOp24
 70
     1
102
RTVSPropertyOp25
 70
     1
102
RTVSPropertyOp26
 70
     1
102
RTVSPropertyOp27
 70
     1
102
RTVSPropertyOp28
 70
     1
102
RTVSPropertyOp29
 70
     1
102
RTVSPropertyOp30
 70
     1
102
RTVSPropertyOp31
 70
     1
102
RTVSPropertyOp32
 70
     1
  0
ENDSEC
  0
EOF
