  0
SECTION
  2
HEADER
  9
$ACADVER
  1
AC1018
  9
$ACADMAINTVER
 70
     0
  9
$DWGCODEPAGE
  3
ANSI_1252
  9
$INSBASE
 10
0.0
 20
0.0
 30
0.0
  9
$EXTMIN
 10
-242.1063560909976
 20
7.31744542159208
 30
0.0
  9
$EXTMAX
 10
54.8936439090005
 20
217.3174454215922
 30
0.0
  9
$LIMMIN
 10
0.0
 20
0.0
  9
$LIMMAX
 10
12.0
 20
9.0
  9
$ORTHOMODE
 70
     0
  9
$REGENMODE
 70
     1
  9
$FILLMODE
 70
     1
  9
$QTEXTMODE
 70
     0
  9
$MIRRTEXT
 70
     1
  9
$LTSCALE
 40
1.0
  9
$ATTMODE
 70
     1
  9
$TEXTSIZE
 40
0.2
  9
$TRACEWID
 40
0.05
  9
$TEXTSTYLE
  7
Standard
  9
$CLAYER
  8
0
  9
$CELTYPE
  6
ByLayer
  9
$CECOLOR
 62
   256
  9
$CELTSCALE
 40
1.0
  9
$DISPSILH
 70
     0
  9
$DIMSCALE
 40
1.0
  9
$DIMASZ
 40
0.18
  9
$DIMEXO
 40
0.0625
  9
$DIMDLI
 40
0.38
  9
$DIMRND
 40
0.0
  9
$DIMDLE
 40
0.0
  9
$DIMEXE
 40
0.18
  9
$DIMTP
 40
0.0
  9
$DIMTM
 40
0.0
  9
$DIMTXT
 40
0.18
  9
$DIMCEN
 40
0.09
  9
$DIMTSZ
 40
0.0
  9
$DIMTOL
 70
     0
  9
$DIMLIM
 70
     0
  9
$DIMTIH
 70
     1
  9
$DIMTOH
 70
     1
  9
$DIMSE1
 70
     0
  9
$DIMSE2
 70
     0
  9
$DIMTAD
 70
     0
  9
$DIMZIN
 70
     0
  9
$DIMBLK
  1

  9
$DIMASO
 70
     1
  9
$DIMSHO
 70
     1
  9
$DIMPOST
  1

  9
$DIMAPOST
  1

  9
$DIMALT
 70
     0
  9
$DIMALTD
 70
     2
  9
$DIMALTF
 40
25.4
  9
$DIMLFAC
 40
1.0
  9
$DIMTOFL
 70
     0
  9
$DIMTVP
 40
0.0
  9
$DIMTIX
 70
     0
  9
$DIMSOXD
 70
     0
  9
$DIMSAH
 70
     0
  9
$DIMBLK1
  1

  9
$DIMBLK2
  1

  9
$DIMSTYLE
  2
Standard
  9
$DIMCLRD
 70
     0
  9
$DIMCLRE
 70
     0
  9
$DIMCLRT
 70
     0
  9
$DIMTFAC
 40
1.0
  9
$DIMGAP
 40
0.09
  9
$DIMJUST
 70
     0
  9
$DIMSD1
 70
     0
  9
$DIMSD2
 70
     0
  9
$DIMTOLJ
 70
     1
  9
$DIMTZIN
 70
     0
  9
$DIMALTZ
 70
     0
  9
$DIMALTTZ
 70
     0
  9
$DIMUPT
 70
     0
  9
$DIMDEC
 70
     4
  9
$DIMTDEC
 70
     4
  9
$DIMALTU
 70
     2
  9
$DIMALTTD
 70
     2
  9
$DIMTXSTY
  7
Standard
  9
$DIMAUNIT
 70
     0
  9
$DIMADEC
 70
     0
  9
$DIMALTRND
 40
0.0
  9
$DIMAZIN
 70
     0
  9
$DIMDSEP
 70
    46
  9
$DIMATFIT
 70
     3
  9
$DIMFRAC
 70
     0
  9
$DIMLDRBLK
  1

  9
$DIMLUNIT
 70
     2
  9
$DIMLWD
 70
    -2
  9
$DIMLWE
 70
    -2
  9
$DIMTMOVE
 70
     0
  9
$LUNITS
 70
     2
  9
$LUPREC
 70
     4
  9
$SKETCHINC
 40
0.1
  9
$FILLETRAD
 40
0.5
  9
$AUNITS
 70
     0
  9
$AUPREC
 70
     0
  9
$MENU
  1
.
  9
$ELEVATION
 40
0.0
  9
$PELEVATION
 40
0.0
  9
$THICKNESS
 40
0.0
  9
$LIMCHECK
 70
     0
  9
$CHAMFERA
 40
0.5
  9
$CHAMFERB
 40
0.5
  9
$CHAMFERC
 40
1.0
  9
$CHAMFERD
 40
0.0
  9
$SKPOLY
 70
     0
  9
$TDCREATE
 40
2458157.951600926
  9
$TDUCREATE
 40
2458157.909934259
  9
$TDUPDATE
 40
2458157.95160147
  9
$TDUUPDATE
 40
2458157.909934803
  9
$TDINDWG
 40
0.0000000116
  9
$TDUSRTIMER
 40
0.0000000116
  9
$USRTIMER
 70
     1
  9
$ANGBASE
 50
0.0
  9
$ANGDIR
 70
     0
  9
$PDMODE
 70
     0
  9
$PDSIZE
 40
0.0
  9
$PLINEWID
 40
0.0
  9
$SPLFRAME
 70
     0
  9
$SPLINETYPE
 70
     6
  9
$SPLINESEGS
 70
     8
  9
$HANDSEED
  5
353
  9
$SURFTAB1
 70
     6
  9
$SURFTAB2
 70
     6
  9
$SURFTYPE
 70
     6
  9
$SURFU
 70
     6
  9
$SURFV
 70
     6
  9
$UCSBASE
  2

  9
$UCSNAME
  2

  9
$UCSORG
 10
0.0
 20
0.0
 30
0.0
  9
$UCSXDIR
 10
1.0
 20
0.0
 30
0.0
  9
$UCSYDIR
 10
0.0
 20
1.0
 30
0.0
  9
$UCSORTHOREF
  2

  9
$UCSORTHOVIEW
 70
     0
  9
$UCSORGTOP
 10
0.0
 20
0.0
 30
0.0
  9
$UCSORGBOTTOM
 10
0.0
 20
0.0
 30
0.0
  9
$UCSORGLEFT
 10
0.0
 20
0.0
 30
0.0
  9
$UCSORGRIGHT
 10
0.0
 20
0.0
 30
0.0
  9
$UCSORGFRONT
 10
0.0
 20
0.0
 30
0.0
  9
$UCSORGBACK
 10
0.0
 20
0.0
 30
0.0
  9
$PUCSBASE
  2

  9
$PUCSNAME
  2

  9
$PUCSORG
 10
0.0
 20
0.0
 30
0.0
  9
$PUCSXDIR
 10
1.0
 20
0.0
 30
0.0
  9
$PUCSYDIR
 10
0.0
 20
1.0
 30
0.0
  9
$PUCSORTHOREF
  2

  9
$PUCSORTHOVIEW
 70
     0
  9
$PUCSORGTOP
 10
0.0
 20
0.0
 30
0.0
  9
$PUCSORGBOTTOM
 10
0.0
 20
0.0
 30
0.0
  9
$PUCSORGLEFT
 10
0.0
 20
0.0
 30
0.0
  9
$PUCSORGRIGHT
 10
0.0
 20
0.0
 30
0.0
  9
$PUCSORGFRONT
 10
0.0
 20
0.0
 30
0.0
  9
$PUCSORGBACK
 10
0.0
 20
0.0
 30
0.0
  9
$USERI1
 70
     0
  9
$USERI2
 70
     0
  9
$USERI3
 70
     0
  9
$USERI4
 70
     0
  9
$USERI5
 70
     0
  9
$USERR1
 40
18.1
  9
$USERR2
 40
0.0
  9
$USERR3
 40
0.0
  9
$USERR4
 40
0.0
  9
$USERR5
 40
0.0
  9
$WORLDVIEW
 70
     1
  9
$SHADEDGE
 70
     3
  9
$SHADEDIF
 70
    70
  9
$TILEMODE
 70
     1
  9
$MAXACTVP
 70
    64
  9
$PINSBASE
 10
0.0
 20
0.0
 30
0.0
  9
$PLIMCHECK
 70
     0
  9
$PEXTMIN
 10
1.00000000000000E+20
 20
1.00000000000000E+20
 30
1.00000000000000E+20
  9
$PEXTMAX
 10
-1.00000000000000E+20
 20
-1.00000000000000E+20
 30
-1.00000000000000E+20
  9
$PLIMMIN
 10
0.0
 20
0.0
  9
$PLIMMAX
 10
12.0
 20
9.0
  9
$UNITMODE
 70
     0
  9
$VISRETAIN
 70
     1
  9
$PLINEGEN
 70
     0
  9
$PSLTSCALE
 70
     1
  9
$TREEDEPTH
 70
  3020
  9
$CMLSTYLE
  2
Standard
  9
$CMLJUST
 70
     0
  9
$CMLSCALE
 40
1.0
  9
$PROXYGRAPHICS
 70
     1
  9
$MEASUREMENT
 70
     1
  9
$CELWEIGHT
370
    -1
  9
$ENDCAPS
280
     0
  9
$JOINSTYLE
280
     0
  9
$LWDISPLAY
290
     0
  9
$INSUNITS
 70
     4
  9
$HYPERLINKBASE
  1

  9
$STYLESHEET
  1

  9
$XEDIT
290
     1
  9
$CEPSNTYPE
380
     0
  9
$PSTYLEMODE
290
     1
  9
$FINGERPRINTGUID
  2
{A5E03FF0-E81C-4FB5-A15A-DEE465B8D0D9}
  9
$VERSIONGUID
  2
{FAEB1C32-E019-11D5-929B-00C0DF256EC4}
  9
$EXTNAMES
290
     1
  9
$PSVPSCALE
 40
0.0
  9
$OLESTARTUP
290
     0
  9
$SORTENTS
280
   127
  9
$INDEXCTL
280
     0
  9
$HIDETEXT
280
     1
  9
$XCLIPFRAME
290
     0
  9
$HALOGAP
280
     0
  9
$OBSCOLOR
 70
   257
  9
$OBSLTYPE
280
     0
  9
$INTERSECTIONDISPLAY
280
     0
  9
$INTERSECTIONCOLOR
 70
   257
  9
$DIMASSOC
280
     2
  9
$PROJECTNAME
  1

  0
ENDSEC
  0
SECTION
  2
CLASSES
  0
CLASS
  1
ACDBDICTIONARYWDFLT
  2
AcDbDictionaryWithDefault
  3
ObjectDBX Classes
 90
        0
 91
        4
280
     0
281
     0
  0
CLASS
  1
VISUALSTYLE
  2
AcDbVisualStyle
  3
ObjectDBX Classes
 90
     4095
 91
        4
280
     0
281
     0
  0
CLASS
  1
MATERIAL
  2
AcDbMaterial
  3
ObjectDBX Classes
 90
     1153
 91
        4
280
     0
281
     0
  0
ENDSEC
  0
SECTION
  2
TABLES
  0
TABLE
  2
VPORT
  5
8
330
0
100
AcDbSymbolTable
 70
     1
  0
VPORT
  5
29
330
8
100
AcDbSymbolTableRecord
100
AcDbViewportTableRecord
  2
*Active
 70
     0
 10
0.0
 20
0.0
 11
1.0
 21
1.0
 12
-93.60635609099855
 22
112.3174454215921
 13
0.0
 23
0.0
 14
0.5
 24
0.5
 15
0.5
 25
0.5
 16
0.0
 26
0.0
 36
1.0
 17
0.0
 27
0.0
 37
0.0
 40
231.0000000000001
 41
1.60267857142857
 42
50.0
 43
0.0
 44
0.0
 50
0.0
 51
0.0
 71
     0
 72
   100
 73
     1
 74
     3
 75
     0
 76
     0
 77
     0
 78
     0
281
     0
 65
     1
110
0.0
120
0.0
130
0.0
111
1.0
121
0.0
131
0.0
112
0.0
122
1.0
132
0.0
 79
     0
146
0.0
  0
ENDTAB
  0
TABLE
  2
LTYPE
  5
5
330
0
100
AcDbSymbolTable
 70
     8
  0
LTYPE
  5
14
330
5
100
AcDbSymbolTableRecord
100
AcDbLinetypeTableRecord
  2
ByBlock
 70
     0
  3

 72
    65
 73
     0
 40
0.0
  0
LTYPE
  5
15
330
5
100
AcDbSymbolTableRecord
100
AcDbLinetypeTableRecord
  2
ByLayer
 70
     0
  3

 72
    65
 73
     0
 40
0.0
  0
LTYPE
  5
16
330
5
100
AcDbSymbolTableRecord
100
AcDbLinetypeTableRecord
  2
Continuous
 70
     0
  3
Solid line
 72
    65
 73
     0
 40
0.0
  0
LTYPE
  5
3F
330
5
100
AcDbSymbolTableRecord
100
AcDbLinetypeTableRecord
  2
DASHED
 70
     0
  3
Dashed
 72
    65
 73
     2
 40
15.0
 49
7.0
 74
     0
 49
-8.0
 74
     0
  0
LTYPE
  5
40
330
5
100
AcDbSymbolTableRecord
100
AcDbLinetypeTableRecord
  2
DOTTED
 70
     0
  3
Dotted
 72
    65
 73
     2
 40
1.0
 49
0.0
 74
     0
 49
-1.0
 74
     0
  0
LTYPE
  5
41
330
5
100
AcDbSymbolTableRecord
100
AcDbLinetypeTableRecord
  2
DOT_CENTER
 70
     0
  3
Dot_Center
 72
    65
 73
     4
 40
14.0
 49
12.0
 74
     0
 49
-1.0
 74
     0
 49
0.0
 74
     0
 49
-1.0
 74
     0
  0
LTYPE
  5
42
330
5
100
AcDbSymbolTableRecord
100
AcDbLinetypeTableRecord
  2
LONG_DASHED
 70
     0
  3
Long_Dashed
 72
    65
 73
     2
 40
15.0
 49
10.0
 74
     0
 49
-5.0
 74
     0
  0
LTYPE
  5
43
330
5
100
AcDbSymbolTableRecord
100
AcDbLinetypeTableRecord
  2
DASH_CENTER
 70
     0
  3
Dash_Center
 72
    65
 73
     4
 40
14.0
 49
11.0
 74
     0
 49
-1.0
 74
     0
 49
1.0
 74
     0
 49
-1.0
 74
     0
  0
LTYPE
  5
44
330
5
100
AcDbSymbolTableRecord
100
AcDbLinetypeTableRecord
  2
PHANTOM
 70
     0
  3
Phantom
 72
    65
 73
     6
 40
13.0
 49
10.0
 74
     0
 49
-1.0
 74
     0
 49
0.0
 74
     0
 49
-1.0
 74
     0
 49
0.0
 74
     0
 49
-1.0
 74
     0
  0
LTYPE
  5
45
330
5
100
AcDbSymbolTableRecord
100
AcDbLinetypeTableRecord
  2
CENTER_DASH_DASH
 70
     0
  3
Center_Dash_Dash
 72
    65
 73
     6
 40
14.0
 49
9.0
 74
     0
 49
-1.0
 74
     0
 49
1.0
 74
     0
 49
-1.0
 74
     0
 49
1.0
 74
     0
 49
-1.0
 74
     0
  0
ENDTAB
  0
TABLE
  2
LAYER
  5
2
330
0
100
AcDbSymbolTable
 70
     2
  0
LAYER
  5
10
330
2
100
AcDbSymbolTableRecord
100
AcDbLayerTableRecord
  2
0
 70
     0
 62
     7
  6
Continuous
370
    -3
390
F
  0
LAYER
  5
46
330
2
100
AcDbSymbolTableRecord
100
AcDbLayerTableRecord
  2
1
 70
     0
 62
     7
  6
Continuous
370
    -3
390
F
  0
ENDTAB
  0
TABLE
  2
STYLE
  5
3
330
0
100
AcDbSymbolTable
 70
     5
  0
STYLE
  5
11
330
3
100
AcDbSymbolTableRecord
100
AcDbTextStyleTableRecord
  2
Standard
 70
     0
 40
0.0
 41
1.0
 50
0.0
 71
     0
 42
0.2
  3
txt
  4

  0
STYLE
  5
A1
330
3
100
AcDbSymbolTableRecord
100
AcDbTextStyleTableRecord
  2
CONVERTER_11
 70
     0
 40
0.0
 41
0.9
 50
0.0
 71
     0
 42
0.2
  3
txt.shx
  4

  0
STYLE
  5
2E9
330
3
100
AcDbSymbolTableRecord
100
AcDbTextStyleTableRecord
  2
CONVERTER_12
 70
     0
 40
0.0
 41
0.81
 50
0.0
 71
     0
 42
0.2
  3
txt.shx
  4

  0
STYLE
  5
2EF
330
3
100
AcDbSymbolTableRecord
100
AcDbTextStyleTableRecord
  2
CONVERTER_13
 70
     0
 40
0.0
 41
0.855
 50
0.0
 71
     0
 42
0.2
  3
txt.shx
  4

  0
STYLE
  5
2F2
330
3
100
AcDbSymbolTableRecord
100
AcDbTextStyleTableRecord
  2
CONVERTER_14
 70
     0
 40
0.0
 41
0.72
 50
0.0
 71
     0
 42
0.2
  3
txt.shx
  4

  0
ENDTAB
  0
TABLE
  2
VIEW
  5
6
330
0
100
AcDbSymbolTable
 70
     0
  0
ENDTAB
  0
TABLE
  2
UCS
  5
7
330
0
100
AcDbSymbolTable
 70
     0
  0
ENDTAB
  0
TABLE
  2
APPID
  5
9
330
0
100
AcDbSymbolTable
 70
     1
  0
APPID
  5
12
330
9
100
AcDbSymbolTableRecord
100
AcDbRegAppTableRecord
  2
ACAD
 70
     0
  0
ENDTAB
  0
TABLE
  2
DIMSTYLE
  5
A
330
0
100
AcDbSymbolTable
 70
     2
100
AcDbDimStyleTable
  0
DIMSTYLE
105
27
330
A
100
AcDbSymbolTableRecord
100
AcDbDimStyleTableRecord
  2
Standard
 70
     0
178
     0
340
11
  0
DIMSTYLE
105
1F0
102
{ACAD_REACTORS
330
1F1
102
}
330
A
100
AcDbSymbolTableRecord
100
AcDbDimStyleTableRecord
  2
ME10_DIM_10
 70
     0
 41
3.5
 42
0.0
 44
1.5
 73
     0
 74
     0
 77
     1
 78
     8
140
3.5
147
1.5
172
     1
173
     1
174
     1
175
     1
176
     2
177
     2
271
     2
178
     3
271
     2
340
A1
  0
ENDTAB
  0
TABLE
  2
BLOCK_RECORD
  5
1
330
0
100
AcDbSymbolTable
 70
    20
  0
BLOCK_RECORD
  5
1F
330
1
100
AcDbSymbolTableRecord
100
AcDbBlockTableRecord
  2
*Model_Space
340
22
  0
BLOCK_RECORD
  5
1B
330
1
100
AcDbSymbolTableRecord
100
AcDbBlockTableRecord
  2
*Paper_Space
340
1E
  0
BLOCK_RECORD
  5
23
330
1
100
AcDbSymbolTableRecord
100
AcDbBlockTableRecord
  2
*Paper_Space0
340
26
  0
BLOCK_RECORD
  5
47
330
1
100
AcDbSymbolTableRecord
100
AcDbBlockTableRecord
  2
EB_3-10-select__1
340
0
102
{BLKREFS
331
4B
102
}
  0
BLOCK_RECORD
  5
4A
330
1
100
AcDbSymbolTableRecord
100
AcDbBlockTableRecord
  2
Back1
340
0
102
{BLKREFS
331
7D
102
}
  0
BLOCK_RECORD
  5
4E
330
1
100
AcDbSymbolTableRecord
100
AcDbBlockTableRecord
  2
EB_3-10-select__2
340
0
102
{BLKREFS
331
52
102
}
  0
BLOCK_RECORD
  5
51
330
1
100
AcDbSymbolTableRecord
100
AcDbBlockTableRecord
  2
Front1
340
0
102
{BLKREFS
331
7E
102
}
  0
BLOCK_RECORD
  5
55
330
1
100
AcDbSymbolTableRecord
100
AcDbBlockTableRecord
  2
EB_3-10-select__3
340
0
102
{BLKREFS
331
59
102
}
  0
BLOCK_RECORD
  5
58
330
1
100
AcDbSymbolTableRecord
100
AcDbBlockTableRecord
  2
Gen1
340
0
102
{BLKREFS
331
7F
102
}
  0
BLOCK_RECORD
  5
5C
330
1
100
AcDbSymbolTableRecord
100
AcDbBlockTableRecord
  2
EB_3-10-select__4
340
0
102
{BLKREFS
331
60
102
}
  0
BLOCK_RECORD
  5
5F
330
1
100
AcDbSymbolTableRecord
100
AcDbBlockTableRecord
  2
Left1
340
0
102
{BLKREFS
331
80
102
}
  0
BLOCK_RECORD
  5
63
330
1
100
AcDbSymbolTableRecord
100
AcDbBlockTableRecord
  2
EB_3-10-select__5
340
0
102
{BLKREFS
331
67
102
}
  0
BLOCK_RECORD
  5
66
330
1
100
AcDbSymbolTableRecord
100
AcDbBlockTableRecord
  2
Right1
340
0
102
{BLKREFS
331
81
102
}
  0
BLOCK_RECORD
  5
6A
330
1
100
AcDbSymbolTableRecord
100
AcDbBlockTableRecord
  2
EB_3-10-select__6
340
0
102
{BLKREFS
331
6E
102
}
  0
BLOCK_RECORD
  5
6D
330
1
100
AcDbSymbolTableRecord
100
AcDbBlockTableRecord
  2
Top1
340
0
102
{BLKREFS
331
82
102
}
  0
BLOCK_RECORD
  5
71
330
1
100
AcDbSymbolTableRecord
100
AcDbBlockTableRecord
  2
_rahmen
340
0
102
{BLKREFS
331
78
102
}
  0
BLOCK_RECORD
  5
74
330
1
100
AcDbSymbolTableRecord
100
AcDbBlockTableRecord
  2
_punkt
340
0
102
{BLKREFS
331
79
102
}
  0
BLOCK_RECORD
  5
77
330
1
100
AcDbSymbolTableRecord
100
AcDbBlockTableRecord
  2
A4I_CS
340
0
102
{BLKREFS
331
83
102
}
  0
BLOCK_RECORD
  5
7C
330
1
100
AcDbSymbolTableRecord
100
AcDbBlockTableRecord
  2
1
340
0
102
{BLKREFS
331
86
102
}
  0
BLOCK_RECORD
  5
BE
330
1
100
AcDbSymbolTableRecord
100
AcDbBlockTableRecord
  2
*D17
340
0
102
{BLKREFS
331
C7
102
}
  0
BLOCK_RECORD
  5
C8
330
1
100
AcDbSymbolTableRecord
100
AcDbBlockTableRecord
  2
*D18
340
0
102
{BLKREFS
331
D3
102
}
  0
BLOCK_RECORD
  5
1E7
330
1
100
AcDbSymbolTableRecord
100
AcDbBlockTableRecord
  2
*D19
340
0
  0
ENDTAB
  0
ENDSEC
  0
SECTION
  2
BLOCKS
  0
BLOCK
  5
20
330
1F
100
AcDbEntity
  8
0
100
AcDbBlockBegin
  2
*Model_Space
 70
     0
 10
0.0
 20
0.0
 30
0.0
  3
*Model_Space
  1

  0
ENDBLK
  5
21
330
1F
100
AcDbEntity
  8
0
100
AcDbBlockEnd
  0
BLOCK
  5
1C
330
1B
100
AcDbEntity
 67
     1
  8
0
100
AcDbBlockBegin
  2
*Paper_Space
 70
     0
 10
0.0
 20
0.0
 30
0.0
  3
*Paper_Space
  1

  0
ENDBLK
  5
1D
330
1B
100
AcDbEntity
 67
     1
  8
0
100
AcDbBlockEnd
  0
BLOCK
  5
24
330
23
100
AcDbEntity
  8
0
100
AcDbBlockBegin
  2
*Paper_Space0
 70
     0
 10
0.0
 20
0.0
 30
0.0
  3
*Paper_Space0
  1

  0
ENDBLK
  5
25
330
23
100
AcDbEntity
  8
0
100
AcDbBlockEnd
  0
BLOCK
  5
48
330
47
100
AcDbEntity
  8
0
100
AcDbBlockBegin
  2
EB_3-10-select__1
 70
     0
 10
-45.07481628976778
 20
151.1557741311891
 30
0.0
  3
EB_3-10-select__1
  1

  0
LINE
  5
87
330
47
100
AcDbEntity
  8
0
  6
Continuous
 62
     7
100
AcDbLine
 10
-43.54130539747014
 20
152.4316279116463
 30
0.0
 11
-45.07481628976778
 21
152.4316279116468
 31
0.0
  0
LINE
  5
88
330
47
100
AcDbEntity
  8
0
  6
Continuous
 62
     7
100
AcDbLine
 10
-45.07481628976778
 20
152.4316279116468
 30
0.0
 11
-44.8197484157637
 21
151.2316279116463
 31
0.0
  0
LINE
  5
89
330
47
100
AcDbEntity
  8
0
  6
Continuous
 62
     2
100
AcDbLine
 10
-43.54130539747014
 20
152.4316279116463
 30
0.0
 11
-43.28623752346604
 21
151.2316279116457
 31
0.0
  0
LINE
  5
8A
330
47
100
AcDbEntity
  8
0
  6
Continuous
 62
     7
100
AcDbLine
 10
-23.91221523809662
 20
155.1445414518732
 30
0.0
 11
-23.80825939268776
 21
154.6554676515063
 31
0.0
  0
LINE
  5
8B
330
47
100
AcDbEntity
  8
0
  6
Continuous
 62
     7
100
AcDbLine
 10
-34.85141034111818
 20
152.4316279116469
 30
0.0
 11
-43.54130539747014
 21
152.4316279116463
 31
0.0
  0
LINE
  5
8C
330
47
100
AcDbEntity
  8
0
  6
Continuous
 62
     7
100
AcDbLine
 10
-34.85141034111818
 20
152.4316279116469
 30
0.0
 11
-34.37921144699901
 21
152.431627911647
 31
0.0
  0
LINE
  5
8D
330
47
100
AcDbEntity
  8
0
  6
Continuous
 62
     7
100
AcDbLine
 10
-43.28623752346604
 20
151.2316279116457
 30
0.0
 11
-44.8197484157637
 21
151.2316279116463
 31
0.0
  0
LINE
  5
8E
330
47
100
AcDbEntity
  8
0
  6
Continuous
 62
     7
100
AcDbLine
 10
-34.37921144699901
 20
152.431627911647
 30
0.0
 11
-34.12414357299491
 21
151.2316279116458
 31
0.0
  0
LINE
  5
8F
330
47
100
AcDbEntity
  8
0
  6
Continuous
 62
     7
100
AcDbLine
 10
-28.55889766852732
 20
151.7543582133549
 30
0.0
 11
-28.46533740765952
 21
151.3141917930255
 31
0.0
  0
LINE
  5
90
330
47
100
AcDbEntity
  8
0
  6
Continuous
 62
     7
100
AcDbLine
 10
-28.80839169750858
 20
152.9281353342355
 30
0.0
 11
-28.55889766852732
 21
151.7543582133549
 31
0.0
  0
LINE
  5
91
330
47
100
AcDbEntity
  8
0
  6
Continuous
 62
     7
100
AcDbLine
 10
-28.55889766852732
 20
151.7543582133549
 30
0.0
 11
-31.01815038508552
 21
151.2316279116458
 31
0.0
  0
LINE
  5
92
330
47
100
AcDbEntity
  8
0
  6
Continuous
 62
     7
100
AcDbLine
 10
-34.12414357299491
 20
151.2316279116458
 30
0.0
 11
-34.59634246711397
 21
151.2316279116457
 31
0.0
  0
LINE
  5
93
330
47
100
AcDbEntity
  8
0
  6
Continuous
 62
     7
100
AcDbLine
 10
-34.12414357299491
 20
151.2316279116458
 30
0.0
 11
-31.01815038508552
 21
151.2316279116458
 31
0.0
  0
LINE
  5
94
330
47
100
AcDbEntity
  8
0
  6
Continuous
 62
     7
100
AcDbLine
 10
-28.80839169750858
 20
152.9281353342355
 30
0.0
 11
-31.14427546739745
 21
152.4316279116472
 31
0.0
  0
LINE
  5
95
330
47
100
AcDbEntity
  8
0
  6
Continuous
 62
     7
100
AcDbLine
 10
-28.94353429654028
 20
153.5639312747133
 30
0.0
 11
-28.80839169750858
 21
152.9281353342355
 31
0.0
  0
LINE
  5
96
330
47
100
AcDbEntity
  8
0
  6
Continuous
 62
     7
100
AcDbLine
 10
-34.59634246711397
 20
151.2316279116457
 30
0.0
 11
-34.85141034111818
 21
152.4316279116469
 31
0.0
  0
LINE
  5
97
330
47
100
AcDbEntity
  8
0
  6
Continuous
 62
     7
100
AcDbLine
 10
-23.80825939268776
 20
154.6554676515063
 30
0.0
 11
-28.94353429654028
 21
153.5639312747133
 31
0.0
  0
LINE
  5
98
330
47
100
AcDbEntity
  8
0
  6
Continuous
 62
     7
100
AcDbLine
 10
-31.14427546739745
 20
152.4316279116472
 30
0.0
 11
-34.37921144699901
 21
152.431627911647
 31
0.0
  0
LINE
  5
99
330
47
100
AcDbEntity
  8
0
  6
Continuous
 62
     7
100
AcDbLine
 10
-23.91221523809662
 20
155.1445414518732
 30
0.0
 11
-17.11408941299661
 21
156.5895277030564
 31
0.0
  0
LINE
  5
9A
330
47
100
AcDbEntity
  8
0
  6
Continuous
 62
     7
100
AcDbLine
 10
-16.42798083329812
 20
153.3616406206348
 30
0.0
 11
-17.11408941299661
 21
156.5895277030564
 31
0.0
  0
LINE
  5
9B
330
47
100
AcDbEntity
  8
0
  6
Continuous
 62
     7
100
AcDbLine
 10
-23.18452432023459
 20
151.7210248493049
 30
0.0
 11
-16.58202801528135
 21
153.1244287623245
 31
0.0
  0
LINE
  5
9C
330
47
100
AcDbEntity
  8
0
  6
Continuous
 62
     7
100
AcDbLine
 10
-28.22812554934922
 20
151.1601446110423
 30
0.0
 11
-23.28848016564345
 21
152.2100986496718
 31
0.0
  0
LINE
  5
9D
330
47
100
AcDbEntity
  8
0
  6
Continuous
 62
     7
100
AcDbLine
 10
-23.28848016564345
 20
152.2100986496718
 30
0.0
 11
-23.18452432023459
 21
151.7210248493049
 31
0.0
  0
LINE
  5
9E
330
47
100
AcDbEntity
  8
0
  6
Continuous
 62
     7
100
AcDbLine
 10
-43.28623752346604
 20
151.2316279116457
 30
0.0
 11
-34.59634246711397
 21
151.2316279116457
 31
0.0
  0
ARC
  5
9F
330
47
100
AcDbEntity
  8
0
  6
Continuous
 62
     7
100
AcDbCircle
 10
-16.62361035344489
 20
153.3200582824713
 30
0.0
 40
0.2000000000000448
100
AcDbArc
 50
281.9999999999937
 51
11.99999999998314
  0
ARC
  5
A0
330
47
100
AcDbEntity
  8
0
  6
Continuous
 62
     7
100
AcDbCircle
 10
-28.26970788751275
 20
151.3557741311891
 30
0.0
 40
0.2000000000000171
100
AcDbArc
 50
192.0000000000152
 51
281.9999999999935
  0
ENDBLK
  5
49
330
47
100
AcDbEntity
  8
0
100
AcDbBlockEnd
  0
BLOCK
  5
4C
330
4A
100
AcDbEntity
  8
0
100
AcDbBlockBegin
  2
Back1
 70
     0
 10
-30.74913400000004
 20
153.854045
 30
0.0
  3
Back1
  1

  0
INSERT
  5
4B
330
4A
100
AcDbEntity
  8
0
100
AcDbBlockReference
  2
EB_3-10-select__1
 10
-45.07481628976778
 20
151.1557741311891
 30
0.0
  0
MTEXT
  5
A2
330
4A
100
AcDbEntity
  8
1
 62
     6
100
AcDbMText
 10
-30.73048305504153
 20
142.3000001681145
 30
0.0
 40
5.0
 41
0.0
 71
     2
 72
     1
  1
 
  7
CONVERTER_11
 73
     1
 44
1.32052821128451
  0
ENDBLK
  5
4D
330
4A
100
AcDbEntity
  8
0
100
AcDbBlockEnd
  0
BLOCK
  5
4F
330
4E
100
AcDbEntity
  8
0
100
AcDbBlockBegin
  2
EB_3-10-select__2
 70
     0
 10
-140.3255236465564
 20
151.1557741311833
 30
0.0
  3
EB_3-10-select__2
  1

  0
LINE
  5
A3
330
4E
100
AcDbEntity
  8
0
  6
Continuous
 62
     7
100
AcDbLine
 10
-133.4606538343575
 20
152.210098649666
 30
0.0
 11
-133.5646096797666
 21
151.7210248492983
 31
0.0
  0
LINE
  5
A4
330
4E
100
AcDbEntity
  8
0
  6
Continuous
 62
     7
100
AcDbLine
 10
-140.1671059847198
 20
153.1244287623179
 30
0.0
 11
-133.5646096797666
 21
151.7210248492983
 31
0.0
  0
LINE
  5
A5
330
4E
100
AcDbEntity
  8
0
  6
Continuous
 62
     7
100
AcDbLine
 10
-125.7309836149154
 20
151.2316279116416
 30
0.0
 11
-122.6249904270068
 21
151.2316279116416
 31
0.0
  0
LINE
  5
A6
330
4E
100
AcDbEntity
  8
0
  6
Continuous
 62
     7
100
AcDbLine
 10
-122.6249904270068
 20
151.2316279116416
 30
0.0
 11
-122.3699225530026
 21
152.4316279116428
 31
0.0
  0
LINE
  5
A7
330
4E
100
AcDbEntity
  8
0
  6
Continuous
 62
     7
100
AcDbLine
 10
-122.3699225530026
 20
152.4316279116428
 30
0.0
 11
-125.6048585326034
 21
152.431627911643
 31
0.0
  0
LINE
  5
A8
330
4E
100
AcDbEntity
  8
0
  6
Continuous
 62
     7
100
AcDbLine
 10
-111.6743177102332
 20
152.4316279116422
 30
0.0
 11
-113.2078286025307
 21
152.4316279116422
 31
0.0
  0
LINE
  5
A9
330
4E
100
AcDbEntity
  8
0
  6
Continuous
 62
     7
100
AcDbLine
 10
-111.6743177102332
 20
152.4316279116422
 30
0.0
 11
-111.9293855842373
 21
151.2316279116417
 31
0.0
  0
LINE
  5
AA
330
4E
100
AcDbEntity
  8
0
  6
Continuous
 62
     2
100
AcDbLine
 10
-113.2078286025307
 20
152.4316279116422
 30
0.0
 11
-113.4628964765348
 21
151.2316279116416
 31
0.0
  0
LINE
  5
AB
330
4E
100
AcDbEntity
  8
0
  6
Continuous
 62
     7
100
AcDbLine
 10
-111.9293855842373
 20
151.2316279116417
 30
0.0
 11
-113.4628964765348
 21
151.2316279116416
 31
0.0
  0
LINE
  5
AC
330
4E
100
AcDbEntity
  8
0
  6
Continuous
 62
     7
100
AcDbLine
 10
-127.805599703461
 20
153.5639312747075
 30
0.0
 11
-127.9407423024923
 21
152.9281353342313
 31
0.0
  0
LINE
  5
AD
330
4E
100
AcDbEntity
  8
0
  6
Continuous
 62
     7
100
AcDbLine
 10
-128.1902363314736
 20
151.7543582133507
 30
0.0
 11
-128.2837965923417
 21
151.3141917930197
 31
0.0
  0
LINE
  5
AE
330
4E
100
AcDbEntity
  8
0
  6
Continuous
 62
     7
100
AcDbLine
 10
-133.4606538343575
 20
152.210098649666
 30
0.0
 11
-128.521008450652
 21
151.1601446110365
 31
0.0
  0
LINE
  5
AF
330
4E
100
AcDbEntity
  8
0
  6
Continuous
 62
     7
100
AcDbLine
 10
-140.3211531667033
 20
153.3616406206283
 30
0.0
 11
-139.6350445870048
 21
156.5895277030499
 31
0.0
  0
LINE
  5
B0
330
4E
100
AcDbEntity
  8
0
  6
Continuous
 62
     7
100
AcDbLine
 10
-132.9408746073133
 20
154.6554676515005
 30
0.0
 11
-127.805599703461
 21
153.5639312747075
 31
0.0
  0
LINE
  5
B1
330
4E
100
AcDbEntity
  8
0
  6
Continuous
 62
     7
100
AcDbLine
 10
-132.8369187619045
 20
155.1445414518666
 30
0.0
 11
-132.9408746073133
 21
154.6554676515005
 31
0.0
  0
LINE
  5
B2
330
4E
100
AcDbEntity
  8
0
  6
Continuous
 62
     7
100
AcDbLine
 10
-139.6350445870048
 20
156.5895277030499
 30
0.0
 11
-132.8369187619045
 21
155.1445414518666
 31
0.0
  0
LINE
  5
B3
330
4E
100
AcDbEntity
  8
0
  6
Continuous
 62
     7
100
AcDbLine
 10
-113.2078286025307
 20
152.4316279116422
 30
0.0
 11
-121.8977236588836
 21
152.4316279116429
 31
0.0
  0
LINE
  5
B4
330
4E
100
AcDbEntity
  8
0
  6
Continuous
 62
     7
100
AcDbLine
 10
-122.3699225530026
 20
152.4316279116428
 30
0.0
 11
-121.8977236588836
 21
152.4316279116429
 31
0.0
  0
LINE
  5
B5
330
4E
100
AcDbEntity
  8
0
  6
Continuous
 62
     7
100
AcDbLine
 10
-121.8977236588836
 20
152.4316279116429
 30
0.0
 11
-122.1527915328878
 21
151.2316279116416
 31
0.0
  0
LINE
  5
B6
330
4E
100
AcDbEntity
  8
0
  6
Continuous
 62
     7
100
AcDbLine
 10
-122.1527915328878
 20
151.2316279116416
 30
0.0
 11
-122.6249904270068
 21
151.2316279116416
 31
0.0
  0
LINE
  5
B7
330
4E
100
AcDbEntity
  8
0
  6
Continuous
 62
     7
100
AcDbLine
 10
-127.9407423024923
 20
152.9281353342313
 30
0.0
 11
-128.1902363314736
 21
151.7543582133507
 31
0.0
  0
LINE
  5
B8
330
4E
100
AcDbEntity
  8
0
  6
Continuous
 62
     7
100
AcDbLine
 10
-127.9407423024923
 20
152.9281353342313
 30
0.0
 11
-125.6048585326034
 21
152.431627911643
 31
0.0
  0
LINE
  5
B9
330
4E
100
AcDbEntity
  8
0
  6
Continuous
 62
     7
100
AcDbLine
 10
-125.7309836149154
 20
151.2316279116416
 30
0.0
 11
-128.1902363314736
 21
151.7543582133507
 31
0.0
  0
LINE
  5
BA
330
4E
100
AcDbEntity
  8
0
  6
Continuous
 62
     7
100
AcDbLine
 10
-122.1527915328878
 20
151.2316279116416
 30
0.0
 11
-113.4628964765348
 21
151.2316279116416
 31
0.0
  0
ARC
  5
BB
330
4E
100
AcDbEntity
  8
0
  6
Continuous
 62
     7
100
AcDbCircle
 10
-128.4794261124885
 20
151.3557741311833
 30
0.0
 40
0.2000000000000352
100
AcDbArc
 50
258.0000000000192
 51
347.9999999999873
  0
ARC
  5
BC
330
4E
100
AcDbEntity
  8
0
  6
Continuous
 62
     7
100
AcDbCircle
 10
-140.1255236465561
 20
153.3200582824654
 30
0.0
 40
0.2000000000003003
100
AcDbArc
 50
168.0000000002102
 51
258.000000000004
  0
ENDBLK
  5
50
330
4E
100
AcDbEntity
  8
0
100
AcDbBlockEnd
  0
BLOCK
  5
53
330
51
100
AcDbEntity
  8
0
100
AcDbBlockBegin
  2
Front1
 70
     0
 10
-126.0
 20
153.8540449999999
 30
0.0
  3
Front1
  1

  0
INSERT
  5
52
330
51
100
AcDbEntity
  8
0
100
AcDbBlockReference
  2
EB_3-10-select__2
 10
-140.3255236465564
 20
151.1557741311833
 30
0.0
  0
MTEXT
  5
BD
330
51
100
AcDbEntity
  8
1
 62
     6
100
AcDbMText
 10
-126.0186514017781
 20
142.3000001681145
 30
0.0
 40
5.0
 41
0.0
 71
     2
 72
     1
  1
 
  7
CONVERTER_11
 73
     1
 44
1.32052821128451
  0
INSERT
  5
C7
330
51
100
AcDbEntity
  8
1
100
AcDbBlockReference
  2
*D17
 10
0.0
 20
0.0
 30
0.0
  0
INSERT
  5
D3
330
51
100
AcDbEntity
  8
1
100
AcDbBlockReference
  2
*D18
 10
0.0
 20
0.0
 30
0.0
  0
ENDBLK
  5
54
330
51
100
AcDbEntity
  8
0
100
AcDbBlockEnd
  0
BLOCK
  5
56
330
55
100
AcDbEntity
  8
0
100
AcDbBlockBegin
  2
EB_3-10-select__3
 70
     0
 10
-67.06203311760471
 20
89.39767527135552
 30
0.0
  3
EB_3-10-select__3
  1

  0
LINE
  5
D4
330
55
100
AcDbEntity
  8
0
  6
Continuous
 62
     2
100
AcDbLine
 10
-42.79665483865743
 20
90.48220836361746
 30
0.0
 11
-43.01755009723442
 21
89.5067448475767
 31
0.0
  0
LINE
  5
D5
330
55
100
AcDbEntity
  8
0
  6
Continuous
 62
     7
100
AcDbLine
 10
-40.53088310912889
 20
91.03365922125832
 30
0.0
 11
-40.75177836770585
 21
90.05819570521764
 31
0.0
  0
LINE
  5
D6
330
55
100
AcDbEntity
  8
0
  6
Continuous
 62
     7
100
AcDbLine
 10
-45.70573237458821
 20
103.1257750570155
 30
0.0
 11
-43.40573237458823
 21
105.1176334857197
 31
0.0
  0
LINE
  5
D7
330
55
100
AcDbEntity
  8
0
  6
Continuous
 62
     7
100
AcDbLine
 10
-41.38279768957675
 20
104.1036745021182
 30
0.0
 11
-43.40573237458823
 21
105.1176334857197
 31
0.0
  0
LINE
  5
D8
330
55
100
AcDbEntity
  8
0
  6
Continuous
 62
     7
100
AcDbLine
 10
-41.38279768957675
 20
104.1036745021182
 30
0.0
 11
-43.68279768957675
 21
102.111816073414
 31
0.0
  0
LINE
  5
D9
330
55
100
AcDbEntity
  8
0
  6
Continuous
 62
     7
100
AcDbLine
 10
-40.29321997225713
 20
100.555979000456
 30
0.0
 11
-41.10215621020313
 21
100.327618562472
 31
0.0
  0
LINE
  5
DA
330
55
100
AcDbEntity
  8
0
  6
Continuous
 62
     7
100
AcDbLine
 10
-43.79202521491342
 20
101.1041168594494
 30
0.0
 11
-41.10215621020313
 21
100.327618562472
 31
0.0
  0
LINE
  5
DB
330
55
100
AcDbEntity
  8
0
  6
Continuous
 62
     7
100
AcDbLine
 10
-41.10215621020313
 20
100.327618562472
 30
0.0
 11
-40.88126095162603
 21
101.3030820785133
 31
0.0
  0
LINE
  5
DC
330
55
100
AcDbEntity
  8
0
  6
Continuous
 62
     7
100
AcDbLine
 10
-40.88126095162603
 20
101.3030820785133
 30
0.0
 11
-40.07232471368016
 21
101.5314425164972
 31
0.0
  0
LINE
  5
DD
330
55
100
AcDbEntity
  8
0
  6
Continuous
 62
     7
100
AcDbLine
 10
-45.96369545069341
 20
103.3178453169145
 30
0.0
 11
-46.37782610447508
 21
101.4890629960963
 31
0.0
  0
LINE
  5
DE
330
55
100
AcDbEntity
  8
0
  6
Continuous
 62
     2
100
AcDbLine
 10
-46.37782610447508
 20
101.4890629960963
 30
0.0
 11
-45.71142676422036
 21
102.0661817538221
 31
0.0
  0
LINE
  5
DF
330
55
100
AcDbEntity
  8
0
  6
Continuous
 62
     7
100
AcDbLine
 10
-45.70573237458821
 20
103.1257750570155
 30
0.0
 11
-45.92180054177865
 21
102.1716277591973
 31
0.0
  0
LINE
  5
E0
330
55
100
AcDbEntity
  8
0
  6
Continuous
 62
     7
100
AcDbLine
 10
-45.70573237458821
 20
103.1257750570155
 30
0.0
 11
-43.68279768957675
 21
102.111816073414
 31
0.0
  0
LINE
  5
E1
330
55
100
AcDbEntity
  8
0
  6
Continuous
 62
     7
100
AcDbLine
 10
-40.07232471368016
 20
101.5314425164972
 30
0.0
 11
-40.29321997225713
 21
100.555979000456
 31
0.0
  0
LINE
  5
E2
330
55
100
AcDbEntity
  8
0
  6
Continuous
 62
     7
100
AcDbLine
 10
-43.79202521491342
 20
101.1041168594494
 30
0.0
 11
-45.92180054177865
 21
102.1716277591973
 31
0.0
  0
LINE
  5
E3
330
55
100
AcDbEntity
  8
0
  6
Continuous
 62
     7
100
AcDbLine
 10
-40.88126095162603
 20
101.3030820785133
 30
0.0
 11
-43.68279768957675
 21
102.111816073414
 31
0.0
  0
LINE
  5
E4
330
55
100
AcDbEntity
  8
0
  6
Continuous
 62
     7
100
AcDbLine
 10
-41.38279768957675
 20
104.1036745021182
 30
0.0
 11
-38.58126095162591
 21
103.2949405072175
 31
0.0
  0
LINE
  5
E5
330
55
100
AcDbEntity
  8
0
  6
Continuous
 62
     7
100
AcDbLine
 10
-52.48597397284627
 20
103.749959561483
 30
0.0
 11
-55.53597397284607
 21
101.1085820799404
 31
0.0
  0
LINE
  5
E6
330
55
100
AcDbEntity
  8
0
  6
Continuous
 62
     7
100
AcDbLine
 10
-55.53597397284607
 20
101.1085820799404
 30
0.0
 11
-55.98611598782614
 21
99.12077520948588
 31
0.0
  0
LINE
  5
E7
330
55
100
AcDbEntity
  8
0
  6
Continuous
 62
     7
100
AcDbLine
 10
-55.53597397284607
 20
101.1085820799404
 30
0.0
 11
-51.08869545069341
 21
98.8794651225192
 31
0.0
  0
LINE
  5
E8
330
55
100
AcDbEntity
  8
0
  6
Continuous
 62
     7
100
AcDbLine
 10
-66.45829523250973
 20
100.0186895175557
 30
0.0
 11
-53.15829523250974
 21
111.5368273878887
 31
0.0
  0
LINE
  5
E9
330
55
100
AcDbEntity
  8
0
  6
Continuous
 62
     7
100
AcDbLine
 10
-51.08348212245764
 20
103.046986192315
 30
0.0
 11
-50.6273673460949
 21
103.4419931756866
 31
0.0
  0
LINE
  5
EA
330
55
100
AcDbEntity
  8
0
  6
Continuous
 62
     7
100
AcDbLine
 10
-48.03869545069341
 20
101.5208426040617
 30
0.0
 11
-48.2600036676687
 21
100.5435554823276
 31
0.0
  0
LINE
  5
EB
330
55
100
AcDbEntity
  8
0
  6
Continuous
 62
     7
100
AcDbLine
 10
-51.08869545069341
 20
98.8794651225192
 30
0.0
 11
-48.03869545069341
 21
101.5208426040617
 31
0.0
  0
LINE
  5
EC
330
55
100
AcDbEntity
  8
0
  6
Continuous
 62
     7
100
AcDbLine
 10
-48.5307323745882
 20
100.6792532913244
 30
0.0
 11
-46.50779768957673
 21
99.66529430772297
 31
0.0
  0
LINE
  5
ED
330
55
100
AcDbEntity
  8
0
  6
Continuous
 62
     2
100
AcDbLine
 10
-51.50282610447509
 20
97.05068280170107
 30
0.0
 11
-50.83642676422035
 21
97.62780155942686
 31
0.0
  0
LINE
  5
EE
330
55
100
AcDbEntity
  8
0
  6
Continuous
 62
     7
100
AcDbLine
 10
-50.83073237458821
 20
98.68739486262022
 30
0.0
 11
-48.80779768957673
 21
97.67343587901875
 31
0.0
  0
LINE
  5
EF
330
55
100
AcDbEntity
  8
0
  6
Continuous
 62
     7
100
AcDbLine
 10
-51.08869545069341
 20
98.8794651225192
 30
0.0
 11
-51.50282610447509
 21
97.05068280170107
 31
0.0
  0
LINE
  5
F0
330
55
100
AcDbEntity
  8
0
  6
Continuous
 62
     7
100
AcDbLine
 10
-50.83073237458821
 20
98.68739486262022
 30
0.0
 11
-48.5307323745882
 21
100.6792532913244
 31
0.0
  0
LINE
  5
F1
330
55
100
AcDbEntity
  8
0
  6
Continuous
 62
     7
100
AcDbLine
 10
-48.03869545069341
 20
101.5208426040617
 30
0.0
 11
-52.48597397284627
 21
103.749959561483
 31
0.0
  0
LINE
  5
F2
330
55
100
AcDbEntity
  8
0
  6
Continuous
 62
     7
100
AcDbLine
 10
-47.27094556985026
 20
108.5859011299691
 30
0.0
 11
-47.36097397284627
 21
108.1883397558783
 31
0.0
  0
LINE
  5
F3
330
55
100
AcDbEntity
  8
0
  6
Continuous
 62
     7
100
AcDbLine
 10
-50.41097397284626
 20
105.5469622743357
 30
0.0
 11
-50.86111598782635
 21
103.5591554038812
 31
0.0
  0
LINE
  5
F4
330
55
100
AcDbEntity
  8
0
  6
Continuous
 62
     7
100
AcDbLine
 10
-46.58325759985075
 20
101.4149571876951
 30
0.0
 11
-50.86111598782635
 21
103.5591554038812
 31
0.0
  0
LINE
  5
F5
330
55
100
AcDbEntity
  8
0
  6
Continuous
 62
     7
100
AcDbLine
 10
-47.36097397284627
 20
108.1883397558783
 30
0.0
 11
-50.41097397284626
 21
105.5469622743357
 31
0.0
  0
LINE
  5
F6
330
55
100
AcDbEntity
  8
0
  6
Continuous
 62
     7
100
AcDbLine
 10
-47.27094556985026
 20
108.5859011299691
 30
0.0
 11
-53.15829523250974
 21
111.5368273878887
 31
0.0
  0
LINE
  5
F7
330
55
100
AcDbEntity
  8
0
  6
Continuous
 62
     7
100
AcDbLine
 10
-35.40588310912924
 20
95.47203941565304
 30
0.0
 11
-35.62677836770619
 21
94.49657589961237
 31
0.0
  0
LINE
  5
F8
330
55
100
AcDbEntity
  8
0
  6
Continuous
 62
     7
100
AcDbLine
 10
-40.29321997225713
 20
100.555979000456
 30
0.0
 11
-32.76755009723475
 21
98.3835052363667
 31
0.0
  0
LINE
  5
F9
330
55
100
AcDbEntity
  8
0
  6
Continuous
 62
     7
100
AcDbLine
 10
-32.54665483865777
 20
99.35896875240745
 30
0.0
 11
-40.07232471368016
 21
101.5314425164972
 31
0.0
  0
LINE
  5
FA
330
55
100
AcDbEntity
  8
0
  6
Continuous
 62
     7
100
AcDbLine
 10
-38.5723247136801
 20
102.8304806221738
 30
0.0
 11
-38.58126095162591
 21
103.2949405072175
 31
0.0
  0
LINE
  5
FB
330
55
100
AcDbEntity
  8
0
  6
Continuous
 62
     2
100
AcDbLine
 10
-37.67165483865779
 20
94.9205885580122
 30
0.0
 11
-37.89255009723476
 21
93.94512504197144
 31
0.0
  0
LINE
  5
FC
330
55
100
AcDbEntity
  8
0
  6
Continuous
 62
     7
100
AcDbLine
 10
-50.32232471367959
 20
92.65468212770713
 30
0.0
 11
-50.54321997225661
 21
91.67921861166587
 31
0.0
  0
LINE
  5
FD
330
55
100
AcDbEntity
  8
0
  6
Continuous
 62
     7
100
AcDbLine
 10
-50.54321997225661
 20
91.67921861166587
 30
0.0
 11
-51.35215621020245
 21
91.45085817368198
 31
0.0
  0
LINE
  5
FE
330
55
100
AcDbEntity
  8
0
  6
Continuous
 62
     7
100
AcDbLine
 10
-51.13126095162565
 20
92.42632168972317
 30
0.0
 11
-50.32232471367959
 21
92.65468212770713
 31
0.0
  0
LINE
  5
FF
330
55
100
AcDbEntity
  8
0
  6
Continuous
 62
     7
100
AcDbLine
 10
-51.13126095162565
 20
92.42632168972317
 30
0.0
 11
-51.35215621020245
 21
91.45085817368198
 31
0.0
  0
LINE
  5
100
330
55
100
AcDbEntity
  8
0
  6
Continuous
 62
     2
100
AcDbLine
 10
-56.62782610447475
 20
92.61230260730633
 30
0.0
 11
-55.96142676422001
 21
93.18942136503213
 31
0.0
  0
LINE
  5
101
330
55
100
AcDbEntity
  8
0
  6
Continuous
 62
     7
100
AcDbLine
 10
-56.21369545069307
 20
94.44108492812447
 30
0.0
 11
-56.62782610447475
 21
92.61230260730633
 31
0.0
  0
LINE
  5
102
330
55
100
AcDbEntity
  8
0
  6
Continuous
 62
     7
100
AcDbLine
 10
-53.16369545069307
 20
97.082462409667
 30
0.0
 11
-57.61097397284591
 21
99.31157936708827
 31
0.0
  0
LINE
  5
103
330
55
100
AcDbEntity
  8
0
  6
Continuous
 62
     7
100
AcDbLine
 10
-53.65573237458786
 20
96.2408730969297
 30
0.0
 11
-51.63279768957639
 21
95.22691411332823
 31
0.0
  0
LINE
  5
104
330
55
100
AcDbEntity
  8
0
  6
Continuous
 62
     7
100
AcDbLine
 10
-51.63279768957639
 20
95.22691411332823
 30
0.0
 11
-53.93279768957639
 21
93.23505568462403
 31
0.0
  0
LINE
  5
105
330
55
100
AcDbEntity
  8
0
  6
Continuous
 62
     7
100
AcDbLine
 10
-55.95573237458785
 20
94.24901466822548
 30
0.0
 11
-56.17180054177831
 21
93.29486737040733
 31
0.0
  0
LINE
  5
106
330
55
100
AcDbEntity
  8
0
  6
Continuous
 62
     7
100
AcDbLine
 10
-61.20114439082217
 20
94.28483364099974
 30
0.0
 11
-60.8773673460944
 21
94.5652327868965
 31
0.0
  0
LINE
  5
107
330
55
100
AcDbEntity
  8
0
  6
Continuous
 62
     7
100
AcDbLine
 10
-56.20848212245713
 20
98.60860599792017
 30
0.0
 11
-55.75236734609491
 21
99.00361298129131
 31
0.0
  0
LINE
  5
108
330
55
100
AcDbEntity
  8
0
  6
Continuous
 62
     7
100
AcDbLine
 10
-55.98611598782614
 20
99.12077520948588
 30
0.0
 11
-51.70825759985074
 21
96.97657699329982
 31
0.0
  0
LINE
  5
109
330
55
100
AcDbEntity
  8
0
  6
Continuous
 62
     7
100
AcDbLine
 10
-57.61097397284591
 20
99.31157936708827
 30
0.0
 11
-60.66097397284592
 21
96.67020188554574
 31
0.0
  0
LINE
  5
10A
330
55
100
AcDbEntity
  8
0
  6
Continuous
 62
     7
100
AcDbLine
 10
-53.16369545069307
 20
97.082462409667
 30
0.0
 11
-53.38500366766836
 21
96.10517528793284
 31
0.0
  0
LINE
  5
10B
330
55
100
AcDbEntity
  8
0
  6
Continuous
 62
     7
100
AcDbLine
 10
-55.95573237458785
 20
94.24901466822548
 30
0.0
 11
-53.65573237458786
 21
96.2408730969297
 31
0.0
  0
LINE
  5
10C
330
55
100
AcDbEntity
  8
0
  6
Continuous
 62
     7
100
AcDbLine
 10
-55.95573237458785
 20
94.24901466822548
 30
0.0
 11
-53.93279768957639
 21
93.23505568462403
 31
0.0
  0
LINE
  5
10D
330
55
100
AcDbEntity
  8
0
  6
Continuous
 62
     7
100
AcDbLine
 10
-56.21369545069307
 20
94.44108492812447
 30
0.0
 11
-53.16369545069307
 21
97.082462409667
 31
0.0
  0
LINE
  5
10E
330
55
100
AcDbEntity
  8
0
  6
Continuous
 62
     7
100
AcDbLine
 10
-60.66097397284592
 20
96.67020188554574
 30
0.0
 11
-56.21369545069307
 21
94.44108492812447
 31
0.0
  0
LINE
  5
10F
330
55
100
AcDbEntity
  8
0
  6
Continuous
 62
     7
100
AcDbLine
 10
-61.111115987826
 20
94.68239501509125
 30
0.0
 11
-56.83325759985041
 21
92.53819679890508
 31
0.0
  0
LINE
  5
110
330
55
100
AcDbEntity
  8
0
  6
Continuous
 62
     7
100
AcDbLine
 10
-54.04202521491307
 20
92.22735647065946
 30
0.0
 11
-56.17180054177831
 21
93.29486737040733
 31
0.0
  0
LINE
  5
111
330
55
100
AcDbEntity
  8
0
  6
Continuous
 62
     7
100
AcDbLine
 10
-54.04202521491307
 20
92.22735647065946
 30
0.0
 11
-51.35215621020245
 21
91.45085817368198
 31
0.0
  0
LINE
  5
112
330
55
100
AcDbEntity
  8
0
  6
Continuous
 62
     7
100
AcDbLine
 10
-55.93733893921613
 20
93.1773477836461
 30
0.0
 11
-56.66631550451041
 21
92.54603555933774
 31
0.0
  0
LINE
  5
113
330
55
100
AcDbEntity
  8
0
  6
Continuous
 62
     7
100
AcDbLine
 10
-51.13126095162565
 20
92.42632168972317
 30
0.0
 11
-53.93279768957639
 21
93.23505568462403
 31
0.0
  0
LINE
  5
114
330
55
100
AcDbEntity
  8
0
  6
Continuous
 62
     7
100
AcDbLine
 10
-66.45829523250973
 20
100.0186895175557
 30
0.0
 11
-60.57094556985004
 21
97.06776325963602
 31
0.0
  0
LINE
  5
115
330
55
100
AcDbEntity
  8
0
  6
Continuous
 62
     7
100
AcDbLine
 10
-60.57094556985004
 20
97.06776325963602
 30
0.0
 11
-60.66097397284592
 21
96.67020188554574
 31
0.0
  0
LINE
  5
116
330
55
100
AcDbEntity
  8
0
  6
Continuous
 62
     7
100
AcDbLine
 10
-61.111115987826
 20
94.68239501509125
 30
0.0
 11
-61.20114439082217
 21
94.28483364099974
 31
0.0
  0
LINE
  5
117
330
55
100
AcDbEntity
  8
0
  6
Continuous
 62
     7
100
AcDbLine
 10
-67.05248269228309
 20
97.3947844485563
 30
0.0
 11
-66.45829523250973
 21
100.0186895175557
 31
0.0
  0
LINE
  5
118
330
55
100
AcDbEntity
  8
0
  6
Continuous
 62
     7
100
AcDbLine
 10
-66.9190739193044
 20
97.15084115768423
 30
0.0
 11
-61.20114439082217
 21
94.28483364099974
 31
0.0
  0
LINE
  5
119
330
55
100
AcDbEntity
  8
0
  6
Continuous
 62
     7
100
AcDbLine
 10
-48.82232471367902
 20
93.95372023338363
 30
0.0
 11
-41.29665483865743
 21
91.78124646929412
 31
0.0
  0
LINE
  5
11A
330
55
100
AcDbEntity
  8
0
  6
Continuous
 62
     7
100
AcDbLine
 10
-51.63279768957639
 20
95.22691411332823
 30
0.0
 11
-48.83126095162498
 21
94.41818011842741
 31
0.0
  0
LINE
  5
11B
330
55
100
AcDbEntity
  8
0
  6
Continuous
 62
     7
100
AcDbLine
 10
-45.41821997225695
 20
96.1175988060606
 30
0.0
 11
-46.22715621020279
 21
95.8892383680767
 31
0.0
  0
LINE
  5
11C
330
55
100
AcDbEntity
  8
0
  6
Continuous
 62
     7
100
AcDbLine
 10
-45.19732471367993
 20
97.09306232210187
 30
0.0
 11
-45.41821997225695
 21
96.1175988060606
 31
0.0
  0
LINE
  5
11D
330
55
100
AcDbEntity
  8
0
  6
Continuous
 62
     7
100
AcDbLine
 10
-46.00626095162599
 20
96.86470188411789
 30
0.0
 11
-45.19732471367993
 21
97.09306232210187
 31
0.0
  0
LINE
  5
11E
330
55
100
AcDbEntity
  8
0
  6
Continuous
 62
     7
100
AcDbLine
 10
-46.50779768957673
 20
99.66529430772297
 30
0.0
 11
-43.70626095162533
 21
98.85656031282215
 31
0.0
  0
LINE
  5
11F
330
55
100
AcDbEntity
  8
0
  6
Continuous
 62
     7
100
AcDbLine
 10
-43.69732471367937
 20
98.39210042777837
 30
0.0
 11
-43.70626095162533
 21
98.85656031282215
 31
0.0
  0
LINE
  5
120
330
55
100
AcDbEntity
  8
0
  6
Continuous
 62
     7
100
AcDbLine
 10
-46.00626095162599
 20
96.86470188411789
 30
0.0
 11
-48.80779768957673
 21
97.67343587901875
 31
0.0
  0
LINE
  5
121
330
55
100
AcDbEntity
  8
0
  6
Continuous
 62
     7
100
AcDbLine
 10
-46.00626095162599
 20
96.86470188411789
 30
0.0
 11
-46.22715621020279
 21
95.8892383680767
 31
0.0
  0
LINE
  5
122
330
55
100
AcDbEntity
  8
0
  6
Continuous
 62
     7
100
AcDbLine
 10
-50.83073237458821
 20
98.68739486262022
 30
0.0
 11
-51.04680054177865
 21
97.73324756480206
 31
0.0
  0
LINE
  5
123
330
55
100
AcDbEntity
  8
0
  6
Continuous
 62
     7
100
AcDbLine
 10
-46.50779768957673
 20
99.66529430772297
 30
0.0
 11
-48.80779768957673
 21
97.67343587901875
 31
0.0
  0
LINE
  5
124
330
55
100
AcDbEntity
  8
0
  6
Continuous
 62
     7
100
AcDbLine
 10
-48.91702521491341
 20
96.6657366650542
 30
0.0
 11
-51.04680054177865
 21
97.73324756480206
 31
0.0
  0
LINE
  5
125
330
55
100
AcDbEntity
  8
0
  6
Continuous
 62
     7
100
AcDbLine
 10
-48.91702521491341
 20
96.6657366650542
 30
0.0
 11
-46.22715621020279
 21
95.8892383680767
 31
0.0
  0
LINE
  5
126
330
55
100
AcDbEntity
  8
0
  6
Continuous
 62
     7
100
AcDbLine
 10
-50.81233893921647
 20
97.61572797804084
 30
0.0
 11
-51.54131550451075
 21
96.98441575373248
 31
0.0
  0
LINE
  5
127
330
55
100
AcDbEntity
  8
0
  6
Continuous
 62
     7
100
AcDbLine
 10
-37.67165483865779
 20
94.9205885580122
 30
0.0
 11
-45.19732471367993
 21
97.09306232210187
 31
0.0
  0
LINE
  5
128
330
55
100
AcDbEntity
  8
0
  6
Continuous
 62
     7
100
AcDbLine
 10
-43.69732471367937
 20
98.39210042777837
 30
0.0
 11
-36.17165483865776
 21
96.21962666368887
 31
0.0
  0
LINE
  5
129
330
55
100
AcDbEntity
  8
0
  6
Continuous
 62
     7
100
AcDbLine
 10
-45.41821997225695
 20
96.1175988060606
 30
0.0
 11
-37.89255009723476
 21
93.94512504197144
 31
0.0
  0
LINE
  5
12A
330
55
100
AcDbEntity
  8
0
  6
Continuous
 62
     7
100
AcDbLine
 10
-42.79665483865743
 20
90.48220836361746
 30
0.0
 11
-50.32232471367959
 21
92.65468212770713
 31
0.0
  0
LINE
  5
12B
330
55
100
AcDbEntity
  8
0
  6
Continuous
 62
     7
100
AcDbLine
 10
-45.68733893921649
 20
102.0541081724361
 30
0.0
 11
-46.41631550451075
 21
101.4227959481277
 31
0.0
  0
LINE
  5
12C
330
55
100
AcDbEntity
  8
0
  6
Continuous
 62
     7
100
AcDbLine
 10
-48.82232471367902
 20
93.95372023338363
 30
0.0
 11
-48.83126095162498
 21
94.41818011842741
 31
0.0
  0
LINE
  5
12D
330
55
100
AcDbEntity
  8
0
  6
Continuous
 62
     7
100
AcDbLine
 10
-50.41097397284626
 20
105.5469622743357
 30
0.0
 11
-45.96369545069341
 21
103.3178453169145
 31
0.0
  0
LINE
  5
12E
330
55
100
AcDbEntity
  8
0
  6
Continuous
 62
     7
100
AcDbLine
 10
-47.36097397284627
 20
108.1883397558783
 30
0.0
 11
-42.91369545069343
 21
105.959222798457
 31
0.0
  0
LINE
  5
12F
330
55
100
AcDbEntity
  8
0
  6
Continuous
 62
     7
100
AcDbLine
 10
-45.96369545069341
 20
103.3178453169145
 30
0.0
 11
-42.91369545069343
 21
105.959222798457
 31
0.0
  0
LINE
  5
130
330
55
100
AcDbEntity
  8
0
  6
Continuous
 62
     7
100
AcDbLine
 10
-42.91369545069343
 20
105.959222798457
 30
0.0
 11
-43.13500366766871
 21
104.9819356767228
 31
0.0
  0
LINE
  5
131
330
55
100
AcDbEntity
  8
0
  6
Continuous
 62
     7
100
AcDbLine
 10
-50.54321997225661
 20
91.67921861166587
 30
0.0
 11
-43.01755009723442
 21
89.5067448475767
 31
0.0
  0
LINE
  5
132
330
55
100
AcDbEntity
  8
0
  6
Continuous
 62
     7
100
AcDbLine
 10
-30.28088310912922
 20
99.91041961004831
 30
0.0
 11
-30.50177836770619
 21
98.93495609400763
 31
0.0
  0
LINE
  5
133
330
55
100
AcDbEntity
  8
0
  6
Continuous
 62
     2
100
AcDbLine
 10
-32.54665483865777
 20
99.35896875240745
 30
0.0
 11
-32.76755009723475
 21
98.3835052363667
 31
0.0
  0
LINE
  5
134
330
55
100
AcDbEntity
  8
0
  6
Continuous
 62
     7
100
AcDbLine
 10
-31.04665483865777
 20
100.6580068580841
 30
0.0
 11
-38.5723247136801
 21
102.8304806221738
 31
0.0
  0
LINE
  5
135
330
55
100
AcDbEntity
  8
0
  6
Continuous
 62
     7
100
AcDbLine
 10
-60.57094556985004
 20
97.06776325963602
 30
0.0
 11
-47.27094556985026
 21
108.5859011299691
 31
0.0
  0
SPLINE
  5
136
330
55
100
AcDbEntity
  8
0
  6
Continuous
 62
     7
100
AcDbSpline
210
0.0
220
0.0
230
1.0
 70
     8
 71
     3
 72
     9
 73
     5
 74
     3
 42
0.000000001
 43
0.0000000001
 44
0.00000001
 40
0.0
 40
0.0
 40
0.0
 40
0.0
 40
0.0379524668052863
 40
0.0776235386579312
 40
0.0776235386579312
 40
0.0776235386579312
 40
0.0776235386579312
 10
-46.41631550451075
 20
101.4227959481277
 30
0.0
 10
-46.40741630134625
 20
101.4320579280992
 30
0.0
 10
-46.38921492758348
 20
101.4510013104068
 30
0.0
 10
-46.38167799605164
 20
101.4761898708884
 30
0.0
 10
-46.37782610447508
 20
101.4890629960963
 30
0.0
 11
-46.41631550451075
 21
101.4227959481277
 31
0.0
 11
-46.39216726275432
 21
101.4520748189654
 31
0.0
 11
-46.37782610447508
 21
101.4890629960963
 31
0.0
  0
SPLINE
  5
137
330
55
100
AcDbEntity
  8
0
  6
Continuous
 62
     7
100
AcDbSpline
210
0.0
220
0.0
230
1.0
 70
     8
 71
     3
 72
    11
 73
     7
 74
     5
 42
0.000000001
 43
0.0000000001
 44
0.00000001
 40
0.0
 40
0.0
 40
0.0
 40
0.0
 40
0.0488731124262931
 40
0.0942919070109443
 40
0.1364531844305122
 40
0.1766020393085629
 40
0.1766020393085629
 40
0.1766020393085629
 40
0.1766020393085629
 10
-46.58325759985075
 20
101.4149571876951
 30
0.0
 10
-46.56818804136803
 20
101.4085211754839
 30
0.0
 10
-46.53911402575586
 20
101.3961040576406
 30
0.0
 10
-46.49325534380558
 20
101.3918860960319
 30
0.0
 10
-46.45018826244928
 20
101.3992374722165
 30
0.0
 10
-46.42742087278219
 20
101.4150721676074
 30
0.0
 10
-46.41631550451075
 20
101.4227959481277
 30
0.0
 11
-46.58325759985075
 21
101.4149571876951
 31
0.0
 11
-46.53734632642722
 21
101.3982020066316
 31
0.0
 11
-46.49213467670107
 21
101.3938691241019
 31
0.0
 11
-46.45081780707137
 21
101.4022649503274
 31
0.0
 11
-46.41631550451075
 21
101.4227959481277
 31
0.0
  0
SPLINE
  5
138
330
55
100
AcDbEntity
  8
0
  6
Continuous
 62
     7
100
AcDbSpline
210
0.0
220
0.0
230
1.0
 70
     8
 71
     3
 72
    15
 73
    11
 74
     9
 42
0.000000001
 43
0.0000000001
 44
0.00000001
 40
0.0
 40
0.0
 40
0.0
 40
0.0
 40
0.1997198586482356
 40
0.4378488370495073
 40
0.7222886676020543
 40
1.048963253513813
 40
1.406705805051785
 40
1.780368122657777
 40
2.153021167906424
 40
2.507844691159198
 40
2.507844691159198
 40
2.507844691159198
 40
2.507844691159198
 10
-40.53088310912889
 20
91.03365922125832
 30
0.0
 10
-40.55572936373543
 20
90.97094310938583
 30
0.0
 10
-40.61020019321573
 20
90.83344964651359
 30
0.0
 10
-40.80082835539107
 20
90.67398121624973
 30
0.0
 10
-41.05061004142334
 20
90.540968415245
 30
0.0
 10
-41.36066161669402
 20
90.44355766762222
 30
0.0
 10
-41.70936901040209
 20
90.38528962705331
 30
0.0
 10
-42.07783269561331
 20
90.371317201085
 30
0.0
 10
-42.4454616274228
 20
90.39738701342068
 30
0.0
 10
-42.6815189229242
 20
90.45440035299947
 30
0.0
 10
-42.79665483865743
 20
90.48220836361746
 30
0.0
 11
-40.53088310912889
 21
91.03365922125832
 31
0.0
 11
-40.61813186419172
 21
90.85400488794923
 31
0.0
 11
-40.79188300332099
 21
90.69116768761884
 31
0.0
 11
-41.0416161567214
 21
90.55500833792323
 31
0.0
 11
-41.35220814377057
 21
90.45377147538488
 31
0.0
 11
-41.7048519662176
 21
90.39358785977078
 31
0.0
 11
-42.07819322502043
 21
90.3781013421861
 31
0.0
 11
-42.44962469428604
 21
90.4082502345761
 31
0.0
 11
-42.79665483865743
 21
90.48220836361746
 31
0.0
  0
SPLINE
  5
139
330
55
100
AcDbEntity
  8
0
  6
Continuous
 62
     7
100
AcDbSpline
210
0.0
220
0.0
230
1.0
 70
     8
 71
     3
 72
    15
 73
    11
 74
     9
 42
0.000000001
 43
0.0000000001
 44
0.00000001
 40
0.0
 40
0.0
 40
0.0
 40
0.0
 40
0.1997198586482546
 40
0.4378488370495017
 40
0.7222886676020498
 40
1.048963253513822
 40
1.406705805051797
 40
1.780368122657789
 40
2.153021167906442
 40
2.507844691159217
 40
2.507844691159217
 40
2.507844691159217
 40
2.507844691159217
 10
-40.75177836770585
 20
90.05819570521764
 30
0.0
 10
-40.7766246223124
 20
89.99547959334512
 30
0.0
 10
-40.83109545179271
 20
89.85798613047294
 30
0.0
 10
-41.02172361396804
 20
89.69851770020904
 30
0.0
 10
-41.27150530000031
 20
89.56550489920431
 30
0.0
 10
-41.58155687527099
 20
89.46809415158154
 30
0.0
 10
-41.93026426897907
 20
89.40982611101262
 30
0.0
 10
-42.29872795419029
 20
89.39585368504432
 30
0.0
 10
-42.66635688599976
 20
89.42192349737992
 30
0.0
 10
-42.9024141815012
 20
89.47893683695874
 30
0.0
 10
-43.01755009723442
 20
89.5067448475767
 30
0.0
 11
-40.75177836770585
 21
90.05819570521764
 31
0.0
 11
-40.8390271227687
 21
89.87854137190854
 31
0.0
 11
-41.01277826189796
 21
89.71570417157818
 31
0.0
 11
-41.26251141529836
 21
89.57954482188254
 31
0.0
 11
-41.57310340234754
 21
89.47830795934419
 31
0.0
 11
-41.92574722479457
 21
89.41812434373007
 31
0.0
 11
-42.2990884835974
 21
89.40263782614538
 31
0.0
 11
-42.67051995286302
 21
89.43278671853537
 31
0.0
 11
-43.01755009723442
 21
89.5067448475767
 31
0.0
  0
SPLINE
  5
13A
330
55
100
AcDbEntity
  8
0
  6
Continuous
 62
     7
100
AcDbSpline
210
0.0
220
0.0
230
1.0
 70
     8
 71
     3
 72
     9
 73
     5
 74
     3
 42
0.000000001
 43
0.0000000001
 44
0.00000001
 40
0.0
 40
0.0
 40
0.0
 40
0.0
 40
0.0379524668052443
 40
0.0776235386579316
 40
0.0776235386579316
 40
0.0776235386579316
 40
0.0776235386579316
 10
-51.54131550451075
 20
96.98441575373248
 30
0.0
 10
-51.53241630134626
 20
96.99367773370395
 30
0.0
 10
-51.5142149275835
 20
97.01262111601156
 30
0.0
 10
-51.50667799605161
 20
97.03780967649318
 30
0.0
 10
-51.50282610447509
 20
97.05068280170107
 30
0.0
 11
-51.54131550451075
 21
96.98441575373248
 31
0.0
 11
-51.51716726275433
 21
97.01369462457009
 31
0.0
 11
-51.50282610447509
 21
97.05068280170107
 31
0.0
  0
SPLINE
  5
13B
330
55
100
AcDbEntity
  8
0
  6
Continuous
 62
     7
100
AcDbSpline
210
0.0
220
0.0
230
1.0
 70
     8
 71
     3
 72
    11
 73
     7
 74
     5
 42
0.000000001
 43
0.0000000001
 44
0.00000001
 40
0.0
 40
0.0
 40
0.0
 40
0.0
 40
0.3766817717782115
 40
0.6914326503283504
 40
0.9444688185411554
 40
1.164429263067508
 40
1.164429263067508
 40
1.164429263067508
 40
1.164429263067508
 10
-36.17165483865776
 20
96.21962666368887
 30
0.0
 10
-36.05199563245802
 20
96.17914332348998
 30
0.0
 10
-35.83235059864464
 20
96.10483256909495
 30
0.0
 10
-35.57110897796979
 20
95.92783441372194
 30
0.0
 10
-35.39692887277794
 20
95.70949252241525
 30
0.0
 10
-35.40304082488385
 20
95.5474124718791
 30
0.0
 10
-35.40588310912924
 20
95.47203941565304
 30
0.0
 11
-36.17165483865776
 21
96.21962666368887
 31
0.0
 11
-35.82110417698524
 21
96.08177389433735
 31
0.0
 11
-35.56372055064638
 21
95.90060605338323
 31
0.0
 11
-35.42129542183766
 21
95.69145924118946
 31
0.0
 11
-35.40588310912924
 21
95.47203941565304
 31
0.0
  0
SPLINE
  5
13C
330
55
100
AcDbEntity
  8
0
  6
Continuous
 62
     7
100
AcDbSpline
210
0.0
220
0.0
230
1.0
 70
     8
 71
     3
 72
    15
 73
    11
 74
     9
 42
0.000000001
 43
0.0000000001
 44
0.00000001
 40
0.0
 40
0.0
 40
0.0
 40
0.0
 40
0.1997198586482484
 40
0.4378488370495007
 40
0.722288667602042
 40
1.048963253513808
 40
1.40670580505178
 40
1.780368122657765
 40
2.153021167906414
 40
2.507844691159199
 40
2.507844691159199
 40
2.507844691159199
 40
2.507844691159199
 10
-35.40588310912924
 20
95.47203941565304
 30
0.0
 10
-35.43072936373578
 20
95.40932330378055
 30
0.0
 10
-35.48520019321609
 20
95.27182984090834
 30
0.0
 10
-35.67582835539142
 20
95.11236141064445
 30
0.0
 10
-35.9256100414237
 20
94.97934860963974
 30
0.0
 10
-36.23566161669437
 20
94.88193786201694
 30
0.0
 10
-36.58436901040243
 20
94.82366982144808
 30
0.0
 10
-36.95283269561366
 20
94.80969739547973
 30
0.0
 10
-37.32046162742312
 20
94.8357672078154
 30
0.0
 10
-37.55651892292457
 20
94.89278054739427
 30
0.0
 10
-37.67165483865779
 20
94.9205885580122
 30
0.0
 11
-35.40588310912924
 21
95.47203941565304
 31
0.0
 11
-35.49313186419207
 21
95.29238508234394
 31
0.0
 11
-35.66688300332135
 21
95.12954788201358
 31
0.0
 11
-35.91661615672174
 21
94.99338853231795
 31
0.0
 11
-36.22720814377092
 21
94.89215166977961
 31
0.0
 11
-36.57985196621794
 21
94.8319680541655
 31
0.0
 11
-36.95319322502077
 21
94.81648153658082
 31
0.0
 11
-37.32462469428638
 21
94.84663042897085
 31
0.0
 11
-37.67165483865779
 21
94.9205885580122
 31
0.0
  0
SPLINE
  5
13D
330
55
100
AcDbEntity
  8
0
  6
Continuous
 62
     7
100
AcDbSpline
210
0.0
220
0.0
230
1.0
 70
     8
 71
     3
 72
    15
 73
    11
 74
     9
 42
0.000000001
 43
0.0000000001
 44
0.00000001
 40
0.0
 40
0.0
 40
0.0
 40
0.0
 40
0.1997198586482449
 40
0.4378488370495017
 40
0.7222886676020492
 40
1.048963253513815
 40
1.406705805051799
 40
1.780368122657791
 40
2.153021167906438
 40
2.507844691159213
 40
2.507844691159213
 40
2.507844691159213
 40
2.507844691159213
 10
-35.62677836770619
 20
94.49657589961237
 30
0.0
 10
-35.65162462231273
 20
94.43385978773983
 30
0.0
 10
-35.70609545179305
 20
94.29636632486765
 30
0.0
 10
-35.89672361396838
 20
94.13689789460378
 30
0.0
 10
-36.14650530000065
 20
94.00388509359904
 30
0.0
 10
-36.45655687527133
 20
93.90647434597628
 30
0.0
 10
-36.80526426897941
 20
93.84820630540733
 30
0.0
 10
-37.17372795419063
 20
93.834233879439
 30
0.0
 10
-37.54135688600012
 20
93.86030369177473
 30
0.0
 10
-37.77741418150155
 20
93.91731703135349
 30
0.0
 10
-37.89255009723476
 20
93.94512504197144
 30
0.0
 11
-35.62677836770619
 21
94.49657589961237
 31
0.0
 11
-35.71402712276904
 21
94.31692156630328
 31
0.0
 11
-35.8877782618983
 21
94.1540843659729
 31
0.0
 11
-36.13751141529871
 21
94.01792501627727
 31
0.0
 11
-36.44810340234788
 21
93.91668815373893
 31
0.0
 11
-36.80074722479492
 21
93.8565045381248
 31
0.0
 11
-37.17408848359775
 21
93.8410180205401
 31
0.0
 11
-37.54551995286336
 21
93.87116691293011
 31
0.0
 11
-37.89255009723476
 21
93.94512504197144
 31
0.0
  0
SPLINE
  5
13E
330
55
100
AcDbEntity
  8
0
  6
Continuous
 62
     7
100
AcDbSpline
210
0.0
220
0.0
230
1.0
 70
     8
 71
     3
 72
    11
 73
     7
 74
     5
 42
0.000000001
 43
0.0000000001
 44
0.00000001
 40
0.0
 40
0.0
 40
0.0
 40
0.0
 40
0.0488731124263016
 40
0.0942919070109471
 40
0.1364531844305178
 40
0.1766020393085903
 40
0.1766020393085903
 40
0.1766020393085903
 40
0.1766020393085903
 10
-56.83325759985041
 20
92.53819679890508
 30
0.0
 10
-56.81818804136768
 20
92.53176078669388
 30
0.0
 10
-56.78911402575552
 20
92.51934366885061
 30
0.0
 10
-56.74325534380527
 20
92.5151257072419
 30
0.0
 10
-56.70018826244892
 20
92.52247708342642
 30
0.0
 10
-56.67742087278188
 20
92.53831177881743
 30
0.0
 10
-56.66631550451041
 20
92.54603555933774
 30
0.0
 11
-56.83325759985041
 21
92.53819679890508
 31
0.0
 11
-56.78734632642687
 21
92.52144161784162
 31
0.0
 11
-56.74213467670073
 21
92.5171087353119
 31
0.0
 11
-56.70081780707103
 21
92.5255045615374
 31
0.0
 11
-56.66631550451041
 21
92.54603555933774
 31
0.0
  0
SPLINE
  5
13F
330
55
100
AcDbEntity
  8
0
  6
Continuous
 62
     7
100
AcDbSpline
210
0.0
220
0.0
230
1.0
 70
     8
 71
     3
 72
     9
 73
     5
 74
     3
 42
0.000000001
 43
0.0000000001
 44
0.00000001
 40
0.0
 40
0.0
 40
0.0
 40
0.0
 40
0.0379524668052334
 40
0.0776235386579339
 40
0.0776235386579339
 40
0.0776235386579339
 40
0.0776235386579339
 10
-56.66631550451041
 20
92.54603555933774
 30
0.0
 10
-56.65741630134591
 20
92.5552975393092
 30
0.0
 10
-56.63921492758314
 20
92.57424092161679
 30
0.0
 10
-56.63167799605128
 20
92.59942948209843
 30
0.0
 10
-56.62782610447475
 20
92.61230260730633
 30
0.0
 11
-56.66631550451041
 21
92.54603555933774
 31
0.0
 11
-56.64216726275399
 21
92.57531443017534
 31
0.0
 11
-56.62782610447475
 21
92.61230260730633
 31
0.0
  0
SPLINE
  5
140
330
55
100
AcDbEntity
  8
0
  6
Continuous
 62
     7
100
AcDbSpline
210
0.0
220
0.0
230
1.0
 70
     8
 71
     3
 72
    11
 73
     7
 74
     5
 42
0.000000001
 43
0.0000000001
 44
0.00000001
 40
0.0
 40
0.0
 40
0.0
 40
0.0
 40
0.0764518421945667
 40
0.1543654199917784
 40
0.2287093058883672
 40
0.2960352769679978
 40
0.2960352769679978
 40
0.2960352769679978
 40
0.2960352769679978
 10
-66.9190739193044
 20
97.15084115768423
 30
0.0
 10
-66.94084687969911
 20
97.16450868337374
 30
0.0
 10
-66.98480908386723
 20
97.19210506545402
 30
0.0
 10
-67.03045732637992
 20
97.25473588912715
 30
0.0
 10
-67.05861400998589
 20
97.32451431759822
 30
0.0
 10
-67.0544578413975
 20
97.37214761004647
 30
0.0
 10
-67.05248269228309
 20
97.3947844485563
 30
0.0
 11
-66.9190739193044
 21
97.15084115768423
 31
0.0
 11
-66.9811666978276
 21
97.19544352401437
 31
0.0
 11
-67.02832456155527
 21
97.25746498767535
 31
0.0
 11
-67.05336678596436
 21
97.32746428028125
 31
0.0
 11
-67.05248269228309
 21
97.3947844485563
 31
0.0
  0
SPLINE
  5
141
330
55
100
AcDbEntity
  8
0
  6
Continuous
 62
     7
100
AcDbSpline
210
0.0
220
0.0
230
1.0
 70
     8
 71
     3
 72
    11
 73
     7
 74
     5
 42
0.000000001
 43
0.0000000001
 44
0.00000001
 40
0.0
 40
0.0
 40
0.0
 40
0.0
 40
0.3766817717782144
 40
0.6914326503283614
 40
0.9444688185411938
 40
1.164429263067505
 40
1.164429263067505
 40
1.164429263067505
 40
1.164429263067505
 10
-41.29665483865743
 20
91.78124646929412
 30
0.0
 10
-41.17699563245768
 20
91.74076312909523
 30
0.0
 10
-40.95735059864429
 20
91.66645237470021
 30
0.0
 10
-40.69610897796946
 20
91.48945421932726
 30
0.0
 10
-40.5219288727776
 20
91.27111232802048
 30
0.0
 10
-40.52804082488349
 20
91.10903227748435
 30
0.0
 10
-40.53088310912889
 20
91.03365922125832
 30
0.0
 11
-41.29665483865743
 21
91.78124646929412
 31
0.0
 11
-40.9461041769849
 21
91.64339369994262
 31
0.0
 11
-40.68872055064604
 21
91.46222585898849
 31
0.0
 11
-40.54629542183731
 21
91.2530790467947
 31
0.0
 11
-40.53088310912889
 21
91.03365922125832
 31
0.0
  0
SPLINE
  5
142
330
55
100
AcDbEntity
  8
0
  6
Continuous
 62
     7
100
AcDbSpline
210
0.0
220
0.0
230
1.0
 70
     8
 71
     3
 72
    11
 73
     7
 74
     5
 42
0.000000001
 43
0.0000000001
 44
0.00000001
 40
0.0
 40
0.0
 40
0.0
 40
0.0
 40
0.0488731124262816
 40
0.0942919070109342
 40
0.1364531844305049
 40
0.1766020393085774
 40
0.1766020393085774
 40
0.1766020393085774
 40
0.1766020393085774
 10
-51.70825759985074
 20
96.97657699329982
 30
0.0
 10
-51.69318804136802
 20
96.97014098108859
 30
0.0
 10
-51.66411402575586
 20
96.95772386324535
 30
0.0
 10
-51.61825534380558
 20
96.95350590163659
 30
0.0
 10
-51.5751882624493
 20
96.96085727782119
 30
0.0
 10
-51.55242087278219
 20
96.97669197321216
 30
0.0
 10
-51.54131550451075
 20
96.98441575373248
 30
0.0
 11
-51.70825759985074
 21
96.97657699329982
 31
0.0
 11
-51.66234632642722
 21
96.95982181223636
 31
0.0
 11
-51.61713467670107
 21
96.95548892970663
 31
0.0
 11
-51.57581780707137
 21
96.96388475593214
 31
0.0
 11
-51.54131550451075
 21
96.98441575373248
 31
0.0
  0
SPLINE
  5
143
330
55
100
AcDbEntity
  8
0
  6
Continuous
 62
     7
100
AcDbSpline
210
0.0
220
0.0
230
1.0
 70
     8
 71
     3
 72
    15
 73
    11
 74
     9
 42
0.000000001
 43
0.0000000001
 44
0.00000001
 40
0.0
 40
0.0
 40
0.0
 40
0.0
 40
0.1997198586482403
 40
0.4378488370495119
 40
0.7222886676020595
 40
1.048963253513825
 40
1.40670580505179
 40
1.780368122657778
 40
2.153021167906433
 40
2.507844691159208
 40
2.507844691159208
 40
2.507844691159208
 40
2.507844691159208
 10
-30.28088310912922
 20
99.91041961004831
 30
0.0
 10
-30.30572936373576
 20
99.84770349817582
 30
0.0
 10
-30.36020019321608
 20
99.71021003530359
 30
0.0
 10
-30.55082835539142
 20
99.5507416050397
 30
0.0
 10
-30.80061004142368
 20
99.417728804035
 30
0.0
 10
-31.11066161669437
 20
99.3203180564122
 30
0.0
 10
-31.45936901040242
 20
99.26205001584327
 30
0.0
 10
-31.82783269561365
 20
99.24807758987498
 30
0.0
 10
-32.19546162742313
 20
99.27414740221067
 30
0.0
 10
-32.43151892292455
 20
99.33116074178947
 30
0.0
 10
-32.54665483865777
 20
99.35896875240745
 30
0.0
 11
-30.28088310912922
 21
99.91041961004831
 31
0.0
 11
-30.36813186419206
 21
99.73076527673922
 31
0.0
 11
-30.54188300332133
 21
99.56792807640883
 31
0.0
 11
-30.79161615672174
 21
99.4317687267132
 31
0.0
 11
-31.10220814377091
 21
99.33053186417486
 31
0.0
 11
-31.45485196621793
 21
99.27034824856075
 31
0.0
 11
-31.82819322502076
 21
99.25486173097607
 31
0.0
 11
-32.19962469428638
 21
99.28501062336609
 31
0.0
 11
-32.54665483865777
 21
99.35896875240745
 31
0.0
  0
SPLINE
  5
144
330
55
100
AcDbEntity
  8
0
  6
Continuous
 62
     7
100
AcDbSpline
210
0.0
220
0.0
230
1.0
 70
     8
 71
     3
 72
    11
 73
     7
 74
     5
 42
0.000000001
 43
0.0000000001
 44
0.00000001
 40
0.0
 40
0.0
 40
0.0
 40
0.0
 40
0.3766817717781993
 40
0.6914326503283417
 40
0.944468818541174
 40
1.164429263067513
 40
1.164429263067513
 40
1.164429263067513
 40
1.164429263067513
 10
-31.04665483865777
 20
100.6580068580841
 30
0.0
 10
-30.92699563245803
 20
100.6175235178852
 30
0.0
 10
-30.70735059864463
 20
100.5432127634901
 30
0.0
 10
-30.44610897796978
 20
100.3662146081173
 30
0.0
 10
-30.27192887277793
 20
100.1478727168104
 30
0.0
 10
-30.27804082488383
 20
99.98579266627438
 30
0.0
 10
-30.28088310912922
 20
99.91041961004831
 30
0.0
 11
-31.04665483865777
 21
100.6580068580841
 31
0.0
 11
-30.69610417698524
 21
100.5201540887326
 31
0.0
 11
-30.43872055064637
 21
100.3389862477785
 31
0.0
 11
-30.29629542183764
 21
100.1298394355847
 31
0.0
 11
-30.28088310912922
 21
99.91041961004831
 31
0.0
  0
SPLINE
  5
145
330
55
100
AcDbEntity
  8
0
  6
Continuous
 62
     7
100
AcDbSpline
210
0.0
220
0.0
230
1.0
 70
     8
 71
     3
 72
    15
 73
    11
 74
     9
 42
0.000000001
 43
0.0000000001
 44
0.00000001
 40
0.0
 40
0.0
 40
0.0
 40
0.0
 40
0.1997198586482546
 40
0.4378488370495043
 40
0.7222886676020587
 40
1.048963253513821
 40
1.406705805051796
 40
1.780368122657784
 40
2.153021167906434
 40
2.507844691159216
 40
2.507844691159216
 40
2.507844691159216
 40
2.507844691159216
 10
-30.50177836770619
 20
98.93495609400763
 30
0.0
 10
-30.52662462231274
 20
98.87223998213513
 30
0.0
 10
-30.58109545179304
 20
98.7347465192629
 30
0.0
 10
-30.77172361396839
 20
98.57527808899903
 30
0.0
 10
-31.02150530000064
 20
98.44226528799432
 30
0.0
 10
-31.33155687527134
 20
98.34485454037151
 30
0.0
 10
-31.68026426897939
 20
98.28658649980258
 30
0.0
 10
-32.04872795419062
 20
98.27261407383435
 30
0.0
 10
-32.4163568860001
 20
98.29868388616987
 30
0.0
 10
-32.65241418150153
 20
98.35569722574873
 30
0.0
 10
-32.76755009723475
 20
98.3835052363667
 30
0.0
 11
-30.50177836770619
 21
98.93495609400763
 31
0.0
 11
-30.58902712276904
 21
98.75530176069853
 31
0.0
 11
-30.7627782618983
 21
98.59246456036817
 31
0.0
 11
-31.01251141529871
 21
98.45630521067253
 31
0.0
 11
-31.32310340234788
 21
98.35506834813418
 31
0.0
 11
-31.6757472247949
 21
98.29488473252006
 31
0.0
 11
-32.04908848359774
 21
98.27939821493538
 31
0.0
 11
-32.42051995286335
 21
98.30954710732534
 31
0.0
 11
-32.76755009723475
 21
98.3835052363667
 31
0.0
  0
ENDBLK
  5
57
330
55
100
AcDbEntity
  8
0
100
AcDbBlockEnd
  0
BLOCK
  5
5A
330
58
100
AcDbEntity
  8
0
100
AcDbBlockBegin
  2
Gen1
 70
     0
 10
-48.00000000000004
 20
100.0
 30
0.0
  3
Gen1
  1

  0
INSERT
  5
59
330
58
100
AcDbEntity
  8
0
100
AcDbBlockReference
  2
EB_3-10-select__3
 10
-67.06203311760471
 20
89.39767527135552
 30
0.0
  0
MTEXT
  5
146
330
58
100
AcDbEntity
  8
1
 62
     6
100
AcDbMText
 10
-48.01615258776792
 20
80.25629475056735
 30
0.0
 40
5.0
 41
0.0
 71
     2
 72
     1
  1
 
  7
CONVERTER_11
 73
     1
 44
1.32052821128451
  0
ENDBLK
  5
5B
330
58
100
AcDbEntity
  8
0
100
AcDbBlockEnd
  0
BLOCK
  5
5D
330
5C
100
AcDbEntity
  8
0
100
AcDbBlockBegin
  2
EB_3-10-select__4
 70
     0
 10
-91.67456652313811
 20
151.1557741311859
 30
0.0
  3
EB_3-10-select__4
  1

  0
LINE
  5
147
330
5C
100
AcDbEntity
  8
0
  6
Continuous
 62
     7
100
AcDbLine
 10
-65.0745665231381
 20
151.7210248493017
 30
0.0
 11
-65.0745665231381
 21
151.1601446110398
 31
0.0
  0
LINE
  5
148
330
5C
100
AcDbEntity
  8
0
  6
Continuous
 62
     7
100
AcDbLine
 10
-65.0745665231381
 20
153.1244287623213
 30
0.0
 11
-65.0745665231381
 21
151.7210248493017
 31
0.0
  0
LINE
  5
149
330
5C
100
AcDbEntity
  8
0
  6
Continuous
 62
     7
100
AcDbLine
 10
-65.0745665231381
 20
151.1601446110398
 30
0.0
 11
-65.0745665231381
 21
151.1557741311866
 31
0.0
  0
LINE
  5
14A
330
5C
100
AcDbEntity
  8
0
  6
Continuous
 62
     7
100
AcDbLine
 10
-71.17456652313811
 20
151.1601446110398
 30
0.0
 11
-71.17456652313811
 21
151.1557741311866
 31
0.0
  0
LINE
  5
14B
330
5C
100
AcDbEntity
  8
0
  6
Continuous
 62
     7
100
AcDbLine
 10
-85.57456652313813
 20
151.1601446110391
 30
0.0
 11
-85.57456652313813
 21
151.1557741311859
 31
0.0
  0
LINE
  5
14C
330
5C
100
AcDbEntity
  8
0
  6
Continuous
 62
     7
100
AcDbLine
 10
-91.67456652313811
 20
151.1557741311859
 30
0.0
 11
-85.57456652313813
 21
151.1557741311859
 31
0.0
  0
LINE
  5
14D
330
5C
100
AcDbEntity
  8
0
  6
Continuous
 62
     7
100
AcDbLine
 10
-91.67456652313811
 20
151.1601446110391
 30
0.0
 11
-91.67456652313811
 21
151.1557741311859
 31
0.0
  0
LINE
  5
14E
330
5C
100
AcDbEntity
  8
0
  6
Continuous
 62
     7
100
AcDbLine
 10
-75.32456652313812
 20
151.1601446110391
 30
0.0
 11
-75.32456652313812
 21
151.1557741311859
 31
0.0
  0
LINE
  5
14F
330
5C
100
AcDbEntity
  8
0
  6
Continuous
 62
     7
100
AcDbLine
 10
-81.42456652313811
 20
151.1601446110391
 30
0.0
 11
-81.42456652313811
 21
151.1557741311859
 31
0.0
  0
LINE
  5
150
330
5C
100
AcDbEntity
  8
0
  6
Continuous
 62
     2
100
AcDbLine
 10
-75.32456652313812
 20
151.1601446110391
 30
0.0
 11
-81.42456652313811
 21
151.1601446110391
 31
0.0
  0
LINE
  5
151
330
5C
100
AcDbEntity
  8
0
  6
Continuous
 62
     2
100
AcDbLine
 10
-85.57456652313813
 20
151.1601446110391
 30
0.0
 11
-91.67456652313811
 21
151.1601446110391
 31
0.0
  0
LINE
  5
152
330
5C
100
AcDbEntity
  8
0
  6
Continuous
 62
     7
100
AcDbLine
 10
-81.42456652313811
 20
151.1557741311859
 30
0.0
 11
-75.32456652313812
 21
151.1557741311859
 31
0.0
  0
LINE
  5
153
330
5C
100
AcDbEntity
  8
0
  6
Continuous
 62
     2
100
AcDbLine
 10
-65.0745665231381
 20
151.1601446110398
 30
0.0
 11
-71.17456652313811
 21
151.1601446110398
 31
0.0
  0
LINE
  5
154
330
5C
100
AcDbEntity
  8
0
  6
Continuous
 62
     7
100
AcDbLine
 10
-71.17456652313811
 20
151.1557741311866
 30
0.0
 11
-65.0745665231381
 21
151.1557741311866
 31
0.0
  0
LINE
  5
155
330
5C
100
AcDbEntity
  8
0
  6
Continuous
 62
     7
100
AcDbLine
 10
-85.57456652313813
 20
151.1601446110391
 30
0.0
 11
-85.57456652313813
 21
151.7210248493017
 31
0.0
  0
LINE
  5
156
330
5C
100
AcDbEntity
  8
0
  6
Continuous
 62
     7
100
AcDbLine
 10
-81.42456652313811
 20
151.7210248493017
 30
0.0
 11
-81.42456652313811
 21
151.1601446110391
 31
0.0
  0
LINE
  5
157
330
5C
100
AcDbEntity
  8
0
  6
Continuous
 62
     7
100
AcDbLine
 10
-91.67456652313811
 20
151.7210248493017
 30
0.0
 11
-91.67456652313811
 21
153.1244287623213
 31
0.0
  0
LINE
  5
158
330
5C
100
AcDbEntity
  8
0
  6
Continuous
 62
     7
100
AcDbLine
 10
-91.67456652313811
 20
153.3616406206317
 30
0.0
 11
-91.67456652313811
 21
156.5895277030532
 31
0.0
  0
LINE
  5
159
330
5C
100
AcDbEntity
  8
0
  6
Continuous
 62
     7
100
AcDbLine
 10
-91.67456652313811
 20
151.1601446110391
 30
0.0
 11
-91.67456652313811
 21
151.7210248493017
 31
0.0
  0
LINE
  5
15A
330
5C
100
AcDbEntity
  8
0
  6
Continuous
 62
     7
100
AcDbLine
 10
-75.3245665231381
 20
151.7210248493017
 30
0.0
 11
-75.32456652313812
 21
151.1601446110391
 31
0.0
  0
LINE
  5
15B
330
5C
100
AcDbEntity
  8
0
  6
Continuous
 62
     7
100
AcDbLine
 10
-71.17456652313811
 20
151.7210248493017
 30
0.0
 11
-71.17456652313811
 21
151.1601446110398
 31
0.0
  0
LINE
  5
15C
330
5C
100
AcDbEntity
  8
0
  6
Continuous
 62
     7
100
AcDbLine
 10
-91.67456652313811
 20
153.1244287623213
 30
0.0
 11
-91.67456652313811
 21
153.3616406206317
 31
0.0
  0
LINE
  5
15D
330
5C
100
AcDbEntity
  8
0
  6
Continuous
 62
     7
100
AcDbLine
 10
-65.0745665231381
 20
153.1244287623213
 30
0.0
 11
-65.0745665231381
 21
153.3616406206317
 31
0.0
  0
LINE
  5
15E
330
5C
100
AcDbEntity
  8
0
  6
Continuous
 62
     7
100
AcDbLine
 10
-65.0745665231381
 20
153.3616406206317
 30
0.0
 11
-65.07456652313812
 21
156.5895277030532
 31
0.0
  0
LINE
  5
15F
330
5C
100
AcDbEntity
  8
0
  6
Continuous
 62
     2
100
AcDbLine
 10
-91.67456652313811
 20
153.3616406206317
 30
0.0
 11
-65.0745665231381
 21
153.3616406206317
 31
0.0
  0
LINE
  5
160
330
5C
100
AcDbEntity
  8
0
  6
Continuous
 62
     2
100
AcDbLine
 10
-91.67456652313811
 20
153.1244287623213
 30
0.0
 11
-65.0745665231381
 21
153.1244287623213
 31
0.0
  0
LINE
  5
161
330
5C
100
AcDbEntity
  8
0
  6
Continuous
 62
     7
100
AcDbLine
 10
-65.07456652313812
 20
156.5895277030532
 30
0.0
 11
-91.67456652313811
 21
156.5895277030532
 31
0.0
  0
LINE
  5
162
330
5C
100
AcDbEntity
  8
0
  6
Continuous
 62
     7
100
AcDbLine
 10
-65.0745665231381
 20
151.7210248493017
 30
0.0
 11
-91.67456652313811
 21
151.7210248493017
 31
0.0
  0
ENDBLK
  5
5E
330
5C
100
AcDbEntity
  8
0
100
AcDbBlockEnd
  0
BLOCK
  5
61
330
5F
100
AcDbEntity
  8
0
100
AcDbBlockBegin
  2
Left1
 70
     0
 10
-78.374567
 20
153.854045
 30
0.0
  3
Left1
  1

  0
INSERT
  5
60
330
5F
100
AcDbEntity
  8
0
100
AcDbBlockReference
  2
EB_3-10-select__4
 10
-91.67456652313811
 20
151.1557741311859
 30
0.0
  0
MTEXT
  5
163
330
5F
100
AcDbEntity
  8
1
 62
     6
100
AcDbMText
 10
-78.37456722839067
 20
142.3000001681145
 30
0.0
 40
5.0
 41
0.0
 71
     2
 72
     1
  1
 
  7
CONVERTER_11
 73
     1
 44
1.32052821128451
  0
ENDBLK
  5
62
330
5F
100
AcDbEntity
  8
0
100
AcDbBlockEnd
  0
BLOCK
  5
64
330
63
100
AcDbEntity
  8
0
100
AcDbBlockBegin
  2
EB_3-10-select__5
 70
     0
 10
-204.9627354768619
 20
151.1557741311859
 30
0.0
  3
EB_3-10-select__5
  1

  0
LINE
  5
164
330
63
100
AcDbEntity
  8
0
  6
Continuous
 62
     7
100
AcDbLine
 10
-204.9627354768619
 20
151.1557741311866
 30
0.0
 11
-204.9627354768619
 21
151.314191793023
 31
0.0
  0
LINE
  5
165
330
63
100
AcDbEntity
  8
0
  6
Continuous
 62
     7
100
AcDbLine
 10
-199.6127354768618
 20
152.4316279116455
 30
0.0
 11
-199.6127354768617
 21
151.2316279116441
 31
0.0
  0
LINE
  5
166
330
63
100
AcDbEntity
  8
0
  6
Continuous
 62
     7
100
AcDbLine
 10
-199.6127354768617
 20
151.2316279116441
 30
0.0
 11
-200.4127354768619
 21
151.2316279116441
 31
0.0
  0
LINE
  5
167
330
63
100
AcDbEntity
  8
0
  6
Continuous
 62
     7
100
AcDbLine
 10
-200.4127354768619
 20
152.4316279116447
 30
0.0
 11
-200.4127354768619
 21
151.2316279116441
 31
0.0
  0
LINE
  5
168
330
63
100
AcDbEntity
  8
0
  6
Continuous
 62
     7
100
AcDbLine
 10
-203.4127354768618
 20
152.4316279116453
 30
0.0
 11
-203.4127354768618
 21
151.2316279116441
 31
0.0
  0
LINE
  5
169
330
63
100
AcDbEntity
  8
0
  6
Continuous
 62
     7
100
AcDbLine
 10
-203.4127354768618
 20
151.2316279116441
 30
0.0
 11
-204.2127354768616
 21
151.2316279116441
 31
0.0
  0
LINE
  5
16A
330
63
100
AcDbEntity
  8
0
  6
Continuous
 62
     7
100
AcDbLine
 10
-204.2127354768618
 20
152.4316279116455
 30
0.0
 11
-204.2127354768616
 21
151.2316279116441
 31
0.0
  0
LINE
  5
16B
330
63
100
AcDbEntity
  8
0
  6
Continuous
 62
     2
100
AcDbLine
 10
-199.6127354768618
 20
151.314191793023
 30
0.0
 11
-198.8627354768619
 21
151.314191793023
 31
0.0
  0
LINE
  5
16C
330
63
100
AcDbEntity
  8
0
  6
Continuous
 62
     2
100
AcDbLine
 10
-204.9627354768619
 20
151.314191793023
 30
0.0
 11
-204.2127354768619
 21
151.314191793023
 31
0.0
  0
LINE
  5
16D
330
63
100
AcDbEntity
  8
0
  6
Continuous
 62
     7
100
AcDbLine
 10
-204.9627354768619
 20
153.5639312747108
 30
0.0
 11
-204.9627354768619
 21
151.314191793023
 31
0.0
  0
LINE
  5
16E
330
63
100
AcDbEntity
  8
0
  6
Continuous
 62
     7
100
AcDbLine
 10
-204.2127354768618
 20
152.9281353342338
 30
0.0
 11
-204.2127354768618
 21
152.4316279116455
 31
0.0
  0
LINE
  5
16F
330
63
100
AcDbEntity
  8
0
  6
Continuous
 62
     7
100
AcDbLine
 10
-204.9627354768619
 20
156.5895277030532
 30
0.0
 11
-204.9627354768619
 21
155.14454145187
 31
0.0
  0
LINE
  5
170
330
63
100
AcDbEntity
  8
0
  6
Continuous
 62
     7
100
AcDbLine
 10
-204.9627354768619
 20
155.14454145187
 30
0.0
 11
-204.9627354768619
 21
154.6554676515038
 31
0.0
  0
LINE
  5
171
330
63
100
AcDbEntity
  8
0
  6
Continuous
 62
     7
100
AcDbLine
 10
-204.9627354768619
 20
154.6554676515038
 30
0.0
 11
-204.9627354768619
 21
153.5639312747108
 31
0.0
  0
LINE
  5
172
330
63
100
AcDbEntity
  8
0
  6
Continuous
 62
     7
100
AcDbLine
 10
-200.4127354768619
 20
151.2316279116441
 30
0.0
 11
-203.4127354768618
 21
151.2316279116441
 31
0.0
  0
LINE
  5
173
330
63
100
AcDbEntity
  8
0
  6
Continuous
 62
     7
100
AcDbLine
 10
-198.8627354768619
 20
151.1557741311866
 30
0.0
 11
-204.9627354768619
 21
151.1557741311866
 31
0.0
  0
LINE
  5
174
330
63
100
AcDbEntity
  8
0
  6
Continuous
 62
     7
100
AcDbLine
 10
-184.4627354768618
 20
153.5639312747101
 30
0.0
 11
-178.3627354768619
 21
153.5639312747101
 31
0.0
  0
LINE
  5
175
330
63
100
AcDbEntity
  8
0
  6
Continuous
 62
     7
100
AcDbLine
 10
-194.7127354768619
 20
153.5639312747101
 30
0.0
 11
-188.6127354768619
 21
153.5639312747101
 31
0.0
  0
LINE
  5
176
330
63
100
AcDbEntity
  8
0
  6
Continuous
 62
     7
100
AcDbLine
 10
-194.7127354768619
 20
154.6554676515031
 30
0.0
 11
-194.7127354768619
 21
153.5639312747101
 31
0.0
  0
LINE
  5
177
330
63
100
AcDbEntity
  8
0
  6
Continuous
 62
     7
100
AcDbLine
 10
-198.8627354768619
 20
153.5639312747108
 30
0.0
 11
-198.8627354768619
 21
154.6554676515038
 31
0.0
  0
LINE
  5
178
330
63
100
AcDbEntity
  8
0
  6
Continuous
 62
     7
100
AcDbLine
 10
-204.2127354768618
 20
152.4316279116455
 30
0.0
 11
-203.4127354768618
 21
152.4316279116453
 31
0.0
  0
LINE
  5
179
330
63
100
AcDbEntity
  8
0
  6
Continuous
 62
     7
100
AcDbLine
 10
-193.9627354768618
 20
152.4316279116449
 30
0.0
 11
-193.1627354768618
 21
152.4316279116446
 31
0.0
  0
LINE
  5
17A
330
63
100
AcDbEntity
  8
0
  6
Continuous
 62
     7
100
AcDbLine
 10
-190.1627354768618
 20
152.4316279116446
 30
0.0
 11
-193.1627354768618
 21
152.4316279116446
 31
0.0
  0
LINE
  5
17B
330
63
100
AcDbEntity
  8
0
  6
Continuous
 62
     7
100
AcDbLine
 10
-189.3627354768618
 20
152.9281353342331
 30
0.0
 11
-189.3627354768618
 21
152.4316279116449
 31
0.0
  0
LINE
  5
17C
330
63
100
AcDbEntity
  8
0
  6
Continuous
 62
     7
100
AcDbLine
 10
-198.8627354768619
 20
151.7210248493017
 30
0.0
 11
-194.7127354768619
 21
151.7210248493017
 31
0.0
  0
LINE
  5
17D
330
63
100
AcDbEntity
  8
0
  6
Continuous
 62
     7
100
AcDbLine
 10
-204.9627354768619
 20
153.5639312747108
 30
0.0
 11
-198.8627354768619
 21
153.5639312747108
 31
0.0
  0
LINE
  5
17E
330
63
100
AcDbEntity
  8
0
  6
Continuous
 62
     7
100
AcDbLine
 10
-178.3627354768619
 20
154.6554676515032
 30
0.0
 11
-184.4627354768618
 21
154.6554676515032
 31
0.0
  0
LINE
  5
17F
330
63
100
AcDbEntity
  8
0
  6
Continuous
 62
     7
100
AcDbLine
 10
-188.6127354768619
 20
154.6554676515032
 30
0.0
 11
-194.7127354768619
 21
154.6554676515031
 31
0.0
  0
LINE
  5
180
330
63
100
AcDbEntity
  8
0
  6
Continuous
 62
     7
100
AcDbLine
 10
-198.8627354768619
 20
154.6554676515038
 30
0.0
 11
-204.9627354768619
 21
154.6554676515038
 31
0.0
  0
LINE
  5
181
330
63
100
AcDbEntity
  8
0
  6
Continuous
 62
     7
100
AcDbLine
 10
-204.9627354768619
 20
155.14454145187
 30
0.0
 11
-178.3627354768619
 21
155.1445414518701
 31
0.0
  0
LINE
  5
182
330
63
100
AcDbEntity
  8
0
  6
Continuous
 62
     7
100
AcDbLine
 10
-198.8627354768619
 20
151.1557741311866
 30
0.0
 11
-198.8627354768619
 21
151.314191793023
 31
0.0
  0
LINE
  5
183
330
63
100
AcDbEntity
  8
0
  6
Continuous
 62
     7
100
AcDbLine
 10
-193.1627354768618
 20
151.2316279116434
 30
0.0
 11
-193.9627354768616
 21
151.2316279116434
 31
0.0
  0
LINE
  5
184
330
63
100
AcDbEntity
  8
0
  6
Continuous
 62
     7
100
AcDbLine
 10
-193.9627354768618
 20
152.4316279116449
 30
0.0
 11
-193.9627354768616
 21
151.2316279116434
 31
0.0
  0
LINE
  5
185
330
63
100
AcDbEntity
  8
0
  6
Continuous
 62
     7
100
AcDbLine
 10
-190.1627354768618
 20
152.4316279116446
 30
0.0
 11
-190.1627354768618
 21
151.2316279116434
 31
0.0
  0
LINE
  5
186
330
63
100
AcDbEntity
  8
0
  6
Continuous
 62
     7
100
AcDbLine
 10
-193.1627354768618
 20
152.4316279116446
 30
0.0
 11
-193.1627354768618
 21
151.2316279116434
 31
0.0
  0
LINE
  5
187
330
63
100
AcDbEntity
  8
0
  6
Continuous
 62
     7
100
AcDbLine
 10
-189.3627354768618
 20
152.4316279116449
 30
0.0
 11
-189.3627354768617
 21
151.2316279116434
 31
0.0
  0
LINE
  5
188
330
63
100
AcDbEntity
  8
0
  6
Continuous
 62
     7
100
AcDbLine
 10
-189.3627354768617
 20
151.2316279116434
 30
0.0
 11
-190.1627354768618
 21
151.2316279116434
 31
0.0
  0
LINE
  5
189
330
63
100
AcDbEntity
  8
0
  6
Continuous
 62
     7
100
AcDbLine
 10
-188.6127354768619
 20
153.5639312747101
 30
0.0
 11
-188.6127354768619
 21
151.3141917930223
 31
0.0
  0
LINE
  5
18A
330
63
100
AcDbEntity
  8
0
  6
Continuous
 62
     7
100
AcDbLine
 10
-190.1627354768618
 20
152.4316279116446
 30
0.0
 11
-189.3627354768618
 21
152.4316279116449
 31
0.0
  0
LINE
  5
18B
330
63
100
AcDbEntity
  8
0
  6
Continuous
 62
     2
100
AcDbLine
 10
-194.7127354768619
 20
151.3141917930223
 30
0.0
 11
-193.9627354768619
 21
151.3141917930223
 31
0.0
  0
LINE
  5
18C
330
63
100
AcDbEntity
  8
0
  6
Continuous
 62
     2
100
AcDbLine
 10
-189.3627354768618
 20
151.3141917930223
 30
0.0
 11
-188.6127354768619
 21
151.3141917930223
 31
0.0
  0
LINE
  5
18D
330
63
100
AcDbEntity
  8
0
  6
Continuous
 62
     7
100
AcDbLine
 10
-193.9627354768618
 20
152.9281353342331
 30
0.0
 11
-193.9627354768618
 21
152.4316279116449
 31
0.0
  0
LINE
  5
18E
330
63
100
AcDbEntity
  8
0
  6
Continuous
 62
     7
100
AcDbLine
 10
-194.7127354768619
 20
153.5639312747101
 30
0.0
 11
-194.7127354768619
 21
151.3141917930223
 31
0.0
  0
LINE
  5
18F
330
63
100
AcDbEntity
  8
0
  6
Continuous
 62
     7
100
AcDbLine
 10
-190.1627354768618
 20
151.2316279116434
 30
0.0
 11
-193.1627354768618
 21
151.2316279116434
 31
0.0
  0
LINE
  5
190
330
63
100
AcDbEntity
  8
0
  6
Continuous
 62
     7
100
AcDbLine
 10
-198.8627354768619
 20
153.5639312747108
 30
0.0
 11
-198.8627354768619
 21
151.314191793023
 31
0.0
  0
LINE
  5
191
330
63
100
AcDbEntity
  8
0
  6
Continuous
 62
     7
100
AcDbLine
 10
-194.7127354768619
 20
151.1557741311859
 30
0.0
 11
-194.7127354768619
 21
151.3141917930223
 31
0.0
  0
LINE
  5
192
330
63
100
AcDbEntity
  8
0
  6
Continuous
 62
     7
100
AcDbLine
 10
-182.9127354768618
 20
152.4316279116447
 30
0.0
 11
-182.9127354768617
 21
151.2316279116434
 31
0.0
  0
LINE
  5
193
330
63
100
AcDbEntity
  8
0
  6
Continuous
 62
     7
100
AcDbLine
 10
-182.9127354768617
 20
151.2316279116434
 30
0.0
 11
-183.7127354768617
 21
151.2316279116434
 31
0.0
  0
LINE
  5
194
330
63
100
AcDbEntity
  8
0
  6
Continuous
 62
     7
100
AcDbLine
 10
-184.4627354768618
 20
154.6554676515032
 30
0.0
 11
-184.4627354768618
 21
153.5639312747101
 31
0.0
  0
LINE
  5
195
330
63
100
AcDbEntity
  8
0
  6
Continuous
 62
     7
100
AcDbLine
 10
-183.7127354768618
 20
152.9281353342331
 30
0.0
 11
-183.7127354768618
 21
152.4316279116449
 31
0.0
  0
LINE
  5
196
330
63
100
AcDbEntity
  8
0
  6
Continuous
 62
     7
100
AcDbLine
 10
-188.6127354768619
 20
153.5639312747101
 30
0.0
 11
-188.6127354768619
 21
154.6554676515032
 31
0.0
  0
LINE
  5
197
330
63
100
AcDbEntity
  8
0
  6
Continuous
 62
     7
100
AcDbLine
 10
-184.4627354768618
 20
153.5639312747101
 30
0.0
 11
-184.4627354768618
 21
151.3141917930223
 31
0.0
  0
LINE
  5
198
330
63
100
AcDbEntity
  8
0
  6
Continuous
 62
     7
100
AcDbLine
 10
-188.6127354768619
 20
151.7210248493017
 30
0.0
 11
-184.4627354768618
 21
151.7210248493017
 31
0.0
  0
LINE
  5
199
330
63
100
AcDbEntity
  8
0
  6
Continuous
 62
     7
100
AcDbLine
 10
-183.7127354768617
 20
151.2316279116434
 30
0.0
 11
-183.7127354768618
 21
152.4316279116449
 31
0.0
  0
LINE
  5
19A
330
63
100
AcDbEntity
  8
0
  6
Continuous
 62
     7
100
AcDbLine
 10
-184.4627354768618
 20
151.1557741311859
 30
0.0
 11
-184.4627354768618
 21
151.3141917930223
 31
0.0
  0
LINE
  5
19B
330
63
100
AcDbEntity
  8
0
  6
Continuous
 62
     7
100
AcDbLine
 10
-188.6127354768619
 20
151.1557741311859
 30
0.0
 11
-188.6127354768619
 21
151.3141917930223
 31
0.0
  0
LINE
  5
19C
330
63
100
AcDbEntity
  8
0
  6
Continuous
 62
     7
100
AcDbLine
 10
-178.3627354768619
 20
151.1557741311859
 30
0.0
 11
-178.3627354768619
 21
151.3141917930223
 31
0.0
  0
LINE
  5
19D
330
63
100
AcDbEntity
  8
0
  6
Continuous
 62
     7
100
AcDbLine
 10
-179.9127354768618
 20
152.4316279116446
 30
0.0
 11
-179.9127354768618
 21
151.2316279116434
 31
0.0
  0
LINE
  5
19E
330
63
100
AcDbEntity
  8
0
  6
Continuous
 62
     7
100
AcDbLine
 10
-179.1127354768618
 20
151.2316279116434
 30
0.0
 11
-179.9127354768618
 21
151.2316279116434
 31
0.0
  0
LINE
  5
19F
330
63
100
AcDbEntity
  8
0
  6
Continuous
 62
     7
100
AcDbLine
 10
-179.9127354768618
 20
151.2316279116434
 30
0.0
 11
-182.9127354768617
 21
151.2316279116434
 31
0.0
  0
LINE
  5
1A0
330
63
100
AcDbEntity
  8
0
  6
Continuous
 62
     7
100
AcDbLine
 10
-179.1127354768618
 20
152.4316279116449
 30
0.0
 11
-179.1127354768618
 21
151.2316279116434
 31
0.0
  0
LINE
  5
1A1
330
63
100
AcDbEntity
  8
0
  6
Continuous
 62
     7
100
AcDbLine
 10
-178.3627354768619
 20
153.5639312747101
 30
0.0
 11
-178.3627354768619
 21
151.3141917930223
 31
0.0
  0
LINE
  5
1A2
330
63
100
AcDbEntity
  8
0
  6
Continuous
 62
     7
100
AcDbLine
 10
-179.9127354768618
 20
152.4316279116446
 30
0.0
 11
-179.1127354768618
 21
152.4316279116449
 31
0.0
  0
LINE
  5
1A3
330
63
100
AcDbEntity
  8
0
  6
Continuous
 62
     2
100
AcDbLine
 10
-179.1127354768618
 20
151.3141917930223
 30
0.0
 11
-178.3627354768619
 21
151.3141917930223
 31
0.0
  0
LINE
  5
1A4
330
63
100
AcDbEntity
  8
0
  6
Continuous
 62
     2
100
AcDbLine
 10
-184.4627354768618
 20
151.3141917930223
 30
0.0
 11
-183.7127354768618
 21
151.3141917930223
 31
0.0
  0
LINE
  5
1A5
330
63
100
AcDbEntity
  8
0
  6
Continuous
 62
     7
100
AcDbLine
 10
-183.7127354768618
 20
152.4316279116449
 30
0.0
 11
-182.9127354768618
 21
152.4316279116447
 31
0.0
  0
LINE
  5
1A6
330
63
100
AcDbEntity
  8
0
  6
Continuous
 62
     7
100
AcDbLine
 10
-178.3627354768619
 20
155.1445414518701
 30
0.0
 11
-178.3627354768619
 21
154.6554676515032
 31
0.0
  0
LINE
  5
1A7
330
63
100
AcDbEntity
  8
0
  6
Continuous
 62
     7
100
AcDbLine
 10
-178.3627354768619
 20
154.6554676515032
 30
0.0
 11
-178.3627354768619
 21
153.5639312747101
 31
0.0
  0
LINE
  5
1A8
330
63
100
AcDbEntity
  8
0
  6
Continuous
 62
     7
100
AcDbLine
 10
-179.1127354768618
 20
152.4316279116449
 30
0.0
 11
-179.1127354768618
 21
152.9281353342331
 31
0.0
  0
LINE
  5
1A9
330
63
100
AcDbEntity
  8
0
  6
Continuous
 62
     7
100
AcDbLine
 10
-179.9127354768618
 20
152.4316279116446
 30
0.0
 11
-182.9127354768618
 21
152.4316279116447
 31
0.0
  0
LINE
  5
1AA
330
63
100
AcDbEntity
  8
0
  6
Continuous
 62
     7
100
AcDbLine
 10
-178.3627354768619
 20
151.1557741311859
 30
0.0
 11
-184.4627354768618
 21
151.1557741311859
 31
0.0
  0
LINE
  5
1AB
330
63
100
AcDbEntity
  8
0
  6
Continuous
 62
     7
100
AcDbLine
 10
-200.4127354768619
 20
152.4316279116447
 30
0.0
 11
-199.6127354768618
 21
152.4316279116455
 31
0.0
  0
LINE
  5
1AC
330
63
100
AcDbEntity
  8
0
  6
Continuous
 62
     7
100
AcDbLine
 10
-200.4127354768619
 20
152.4316279116447
 30
0.0
 11
-203.4127354768618
 21
152.4316279116453
 31
0.0
  0
LINE
  5
1AD
330
63
100
AcDbEntity
  8
0
  6
Continuous
 62
     7
100
AcDbLine
 10
-193.9627354768618
 20
152.9281353342331
 30
0.0
 11
-189.3627354768618
 21
152.9281353342331
 31
0.0
  0
LINE
  5
1AE
330
63
100
AcDbEntity
  8
0
  6
Continuous
 62
     7
100
AcDbLine
 10
-183.7127354768618
 20
152.9281353342331
 30
0.0
 11
-179.1127354768618
 21
152.9281353342331
 31
0.0
  0
LINE
  5
1AF
330
63
100
AcDbEntity
  8
0
  6
Continuous
 62
     7
100
AcDbLine
 10
-199.6127354768618
 20
152.9281353342338
 30
0.0
 11
-199.6127354768618
 21
152.4316279116455
 31
0.0
  0
LINE
  5
1B0
330
63
100
AcDbEntity
  8
0
  6
Continuous
 62
     7
100
AcDbLine
 10
-204.2127354768618
 20
152.9281353342338
 30
0.0
 11
-199.6127354768618
 21
152.9281353342338
 31
0.0
  0
LINE
  5
1B1
330
63
100
AcDbEntity
  8
0
  6
Continuous
 62
     7
100
AcDbLine
 10
-178.3627354768619
 20
155.1445414518701
 30
0.0
 11
-178.3627354768619
 21
156.5895277030532
 31
0.0
  0
LINE
  5
1B2
330
63
100
AcDbEntity
  8
0
  6
Continuous
 62
     7
100
AcDbLine
 10
-204.9627354768619
 20
156.5895277030532
 30
0.0
 11
-178.3627354768619
 21
156.5895277030532
 31
0.0
  0
LINE
  5
1B3
330
63
100
AcDbEntity
  8
0
  6
Continuous
 62
     7
100
AcDbLine
 10
-188.6127354768619
 20
151.1557741311859
 30
0.0
 11
-194.7127354768619
 21
151.1557741311859
 31
0.0
  0
ENDBLK
  5
65
330
63
100
AcDbEntity
  8
0
100
AcDbBlockEnd
  0
BLOCK
  5
68
330
66
100
AcDbEntity
  8
0
100
AcDbBlockBegin
  2
Right1
 70
     0
 10
-191.662735
 20
153.854045
 30
0.0
  3
Right1
  1

  0
INSERT
  5
67
330
66
100
AcDbEntity
  8
0
100
AcDbBlockReference
  2
EB_3-10-select__5
 10
-204.9627354768619
 20
151.1557741311859
 30
0.0
  0
MTEXT
  5
1B4
330
66
100
AcDbEntity
  8
1
 62
     6
100
AcDbMText
 10
-191.6627347716144
 20
142.3000001681144
 30
0.0
 40
5.0
 41
0.0
 71
     2
 72
     1
  1
 
  7
CONVERTER_11
 73
     1
 44
1.32052821128451
  0
ENDBLK
  5
69
330
66
100
AcDbEntity
  8
0
100
AcDbBlockEnd
  0
BLOCK
  5
6B
330
6A
100
AcDbEntity
  8
0
100
AcDbBlockBegin
  2
EB_3-10-select__6
 70
     0
 10
-140.3255236465558
 20
83.69999952313815
 30
0.0
  3
EB_3-10-select__6
  1

  0
LINE
  5
1B5
330
6A
100
AcDbEntity
  8
0
  6
Continuous
 62
     7
100
AcDbLine
 10
-140.3255236465558
 20
83.69999952313815
 30
0.0
 11
-140.3211531667026
 21
83.69999952313815
 31
0.0
  0
LINE
  5
1B6
330
6A
100
AcDbEntity
  8
0
  6
Continuous
 62
     7
100
AcDbLine
 10
-139.6350445870041
 20
83.69999952313816
 30
0.0
 11
-139.6350445870041
 21
110.2999995231382
 31
0.0
  0
LINE
  5
1B7
330
6A
100
AcDbEntity
  8
0
  6
Continuous
 62
     2
100
AcDbLine
 10
-140.3211531667026
 20
110.2999995231382
 30
0.0
 11
-140.3211531667026
 21
83.69999952313815
 31
0.0
  0
LINE
  5
1B8
330
6A
100
AcDbEntity
  8
0
  6
Continuous
 62
     7
100
AcDbLine
 10
-140.3255236465558
 20
83.69999952313815
 30
0.0
 11
-140.3255236465558
 21
110.2999995231382
 31
0.0
  0
LINE
  5
1B9
330
6A
100
AcDbEntity
  8
0
  6
Continuous
 62
     7
100
AcDbLine
 10
-140.3255236465558
 20
110.2999995231382
 30
0.0
 11
-140.3211531667026
 21
110.2999995231382
 31
0.0
  0
LINE
  5
1BA
330
6A
100
AcDbEntity
  8
0
  6
Continuous
 62
     7
100
AcDbLine
 10
-125.6048585326031
 20
99.29999952313821
 30
0.0
 11
-122.3699225530015
 21
99.29999952313852
 31
0.0
  0
LINE
  5
1BB
330
6A
100
AcDbEntity
  8
0
  6
Continuous
 62
     7
100
AcDbLine
 10
-121.8977236588824
 20
98.4999995231382
 30
0.0
 11
-113.2078286025304
 21
98.49999952313817
 31
0.0
  0
LINE
  5
1BC
330
6A
100
AcDbEntity
  8
0
  6
Continuous
 62
     7
100
AcDbLine
 10
-127.8055997034605
 20
99.29999952313821
 30
0.0
 11
-125.6048585326031
 21
99.29999952313821
 31
0.0
  0
LINE
  5
1BD
330
6A
100
AcDbEntity
  8
0
  6
Continuous
 62
     7
100
AcDbLine
 10
-127.8055997034605
 20
100.0499995231382
 30
0.0
 11
-132.8369187619041
 21
100.0499995231382
 31
0.0
  0
LINE
  5
1BE
330
6A
100
AcDbEntity
  8
0
  6
Continuous
 62
     7
100
AcDbLine
 10
-121.8977236588824
 20
98.4999995231382
 30
0.0
 11
-122.3699225530015
 21
99.29999952313852
 31
0.0
  0
LINE
  5
1BF
330
6A
100
AcDbEntity
  8
0
  6
Continuous
 62
     7
100
AcDbLine
 10
-121.897723658882
 20
88.2499995231382
 30
0.0
 11
-113.20782860253
 21
88.24999952313817
 31
0.0
  0
LINE
  5
1C0
330
6A
100
AcDbEntity
  8
0
  6
Continuous
 62
     7
100
AcDbLine
 10
-122.3699225530017
 20
84.4499995231381
 30
0.0
 11
-125.6048585326027
 21
84.4499995231382
 31
0.0
  0
LINE
  5
1C1
330
6A
100
AcDbEntity
  8
0
  6
Continuous
 62
     7
100
AcDbLine
 10
-132.8369187619039
 20
83.69999952313815
 30
0.0
 11
-127.8055997034601
 21
83.69999952313815
 31
0.0
  0
LINE
  5
1C2
330
6A
100
AcDbEntity
  8
0
  6
Continuous
 62
     7
100
AcDbLine
 10
-127.8055997034601
 20
84.4499995231382
 30
0.0
 11
-125.6048585326027
 21
84.4499995231382
 31
0.0
  0
LINE
  5
1C3
330
6A
100
AcDbEntity
  8
0
  6
Continuous
 62
     7
100
AcDbLine
 10
-139.6350445870041
 20
83.69999952313816
 30
0.0
 11
-132.8369187619039
 21
83.69999952313815
 31
0.0
  0
LINE
  5
1C4
330
6A
100
AcDbEntity
  8
0
  6
Continuous
 62
     7
100
AcDbLine
 10
-140.3211531667026
 20
83.69999952313815
 30
0.0
 11
-139.6350445870041
 21
83.69999952313816
 31
0.0
  0
LINE
  5
1C5
330
6A
100
AcDbEntity
  8
0
  6
Continuous
 62
     7
100
AcDbLine
 10
-113.20782860253
 20
85.24999952313817
 30
0.0
 11
-121.8977236588826
 21
85.2499995231382
 31
0.0
  0
LINE
  5
1C6
330
6A
100
AcDbEntity
  8
0
  6
Continuous
 62
     7
100
AcDbLine
 10
-122.3699225530017
 20
84.4499995231381
 30
0.0
 11
-121.8977236588826
 21
85.2499995231382
 31
0.0
  0
LINE
  5
1C7
330
6A
100
AcDbEntity
  8
0
  6
Continuous
 62
     7
100
AcDbLine
 10
-127.8055997034605
 20
104.9499995231382
 30
0.0
 11
-125.6048585326031
 21
104.9499995231382
 31
0.0
  0
LINE
  5
1C8
330
6A
100
AcDbEntity
  8
0
  6
Continuous
 62
     7
100
AcDbLine
 10
-122.3699225530022
 20
104.9499995231383
 30
0.0
 11
-125.6048585326031
 21
104.9499995231382
 31
0.0
  0
LINE
  5
1C9
330
6A
100
AcDbEntity
  8
0
  6
Continuous
 62
     7
100
AcDbLine
 10
-113.2078286025304
 20
105.7499995231382
 30
0.0
 11
-121.8977236588833
 21
105.7499995231382
 31
0.0
  0
LINE
  5
1CA
330
6A
100
AcDbEntity
  8
0
  6
Continuous
 62
     7
100
AcDbLine
 10
-122.3699225530022
 20
104.9499995231383
 30
0.0
 11
-121.8977236588833
 21
105.7499995231382
 31
0.0
  0
LINE
  5
1CB
330
6A
100
AcDbEntity
  8
0
  6
Continuous
 62
     7
100
AcDbLine
 10
-125.6048585326027
 20
89.04999952313821
 30
0.0
 11
-122.3699225530012
 21
89.04999952313852
 31
0.0
  0
LINE
  5
1CC
330
6A
100
AcDbEntity
  8
0
  6
Continuous
 62
     7
100
AcDbLine
 10
-113.2078286025304
 20
95.49999952313817
 30
0.0
 11
-121.897723658883
 21
95.4999995231382
 31
0.0
  0
LINE
  5
1CD
330
6A
100
AcDbEntity
  8
0
  6
Continuous
 62
     7
100
AcDbLine
 10
-122.3699225530021
 20
94.6999995231381
 30
0.0
 11
-125.6048585326031
 21
94.6999995231382
 31
0.0
  0
LINE
  5
1CE
330
6A
100
AcDbEntity
  8
0
  6
Continuous
 62
     7
100
AcDbLine
 10
-127.8055997034605
 20
94.6999995231382
 30
0.0
 11
-125.6048585326031
 21
94.6999995231382
 31
0.0
  0
LINE
  5
1CF
330
6A
100
AcDbEntity
  8
0
  6
Continuous
 62
     7
100
AcDbLine
 10
-132.8369187619041
 20
93.94999952313815
 30
0.0
 11
-127.8055997034605
 21
93.94999952313815
 31
0.0
  0
LINE
  5
1D0
330
6A
100
AcDbEntity
  8
0
  6
Continuous
 62
     7
100
AcDbLine
 10
-122.3699225530021
 20
94.6999995231381
 30
0.0
 11
-121.897723658883
 21
95.4999995231382
 31
0.0
  0
LINE
  5
1D1
330
6A
100
AcDbEntity
  8
0
  6
Continuous
 62
     7
100
AcDbLine
 10
-121.897723658882
 20
88.2499995231382
 30
0.0
 11
-122.3699225530012
 21
89.04999952313852
 31
0.0
  0
LINE
  5
1D2
330
6A
100
AcDbEntity
  8
0
  6
Continuous
 62
     7
100
AcDbLine
 10
-139.6350445870041
 20
110.2999995231382
 30
0.0
 11
-132.8369187619041
 21
110.2999995231382
 31
0.0
  0
LINE
  5
1D3
330
6A
100
AcDbEntity
  8
0
  6
Continuous
 62
     7
100
AcDbLine
 10
-132.8369187619041
 20
110.2999995231382
 30
0.0
 11
-127.8055997034605
 21
110.2999995231382
 31
0.0
  0
LINE
  5
1D4
330
6A
100
AcDbEntity
  8
0
  6
Continuous
 62
     7
100
AcDbLine
 10
-125.6048585326031
 20
109.5499995231382
 30
0.0
 11
-127.8055997034605
 21
109.5499995231382
 31
0.0
  0
LINE
  5
1D5
330
6A
100
AcDbEntity
  8
0
  6
Continuous
 62
     7
100
AcDbLine
 10
-125.6048585326031
 20
109.5499995231382
 30
0.0
 11
-122.3699225530021
 21
109.5499995231383
 31
0.0
  0
LINE
  5
1D6
330
6A
100
AcDbEntity
  8
0
  6
Continuous
 62
     7
100
AcDbLine
 10
-113.2078286025304
 20
108.7499995231382
 30
0.0
 11
-121.8977236588832
 21
108.7499995231382
 31
0.0
  0
LINE
  5
1D7
330
6A
100
AcDbEntity
  8
0
  6
Continuous
 62
     7
100
AcDbLine
 10
-127.8055997034605
 20
104.1999995231382
 30
0.0
 11
-127.8055997034605
 21
110.2999995231382
 31
0.0
  0
LINE
  5
1D8
330
6A
100
AcDbEntity
  8
0
  6
Continuous
 62
     7
100
AcDbLine
 10
-127.8055997034605
 20
93.94999952313815
 30
0.0
 11
-127.8055997034605
 21
100.0499995231382
 31
0.0
  0
LINE
  5
1D9
330
6A
100
AcDbEntity
  8
0
  6
Continuous
 62
     7
100
AcDbLine
 10
-132.8369187619039
 20
83.69999952313815
 30
0.0
 11
-132.8369187619041
 21
110.2999995231382
 31
0.0
  0
LINE
  5
1DA
330
6A
100
AcDbEntity
  8
0
  6
Continuous
 62
     7
100
AcDbLine
 10
-125.6048585326031
 20
99.29999952313821
 30
0.0
 11
-125.6048585326031
 21
94.6999995231382
 31
0.0
  0
LINE
  5
1DB
330
6A
100
AcDbEntity
  8
0
  6
Continuous
 62
     7
100
AcDbLine
 10
-125.6048585326031
 20
109.5499995231382
 30
0.0
 11
-125.6048585326031
 21
104.9499995231382
 31
0.0
  0
LINE
  5
1DC
330
6A
100
AcDbEntity
  8
0
  6
Continuous
 62
     7
100
AcDbLine
 10
-125.6048585326027
 20
89.04999952313821
 30
0.0
 11
-125.6048585326027
 21
84.4499995231382
 31
0.0
  0
LINE
  5
1DD
330
6A
100
AcDbEntity
  8
0
  6
Continuous
 62
     7
100
AcDbLine
 10
-127.8055997034601
 20
89.04999952313821
 30
0.0
 11
-125.6048585326027
 21
89.04999952313821
 31
0.0
  0
LINE
  5
1DE
330
6A
100
AcDbEntity
  8
0
  6
Continuous
 62
     7
100
AcDbLine
 10
-127.8055997034601
 20
83.69999952313815
 30
0.0
 11
-127.8055997034601
 21
89.79999952313815
 31
0.0
  0
LINE
  5
1DF
330
6A
100
AcDbEntity
  8
0
  6
Continuous
 62
     7
100
AcDbLine
 10
-132.8369187619041
 20
104.1999995231382
 30
0.0
 11
-127.8055997034605
 21
104.1999995231382
 31
0.0
  0
LINE
  5
1E0
330
6A
100
AcDbEntity
  8
0
  6
Continuous
 62
     7
100
AcDbLine
 10
-127.8055997034601
 20
89.79999952313815
 30
0.0
 11
-132.8369187619041
 21
89.79999952313815
 31
0.0
  0
LINE
  5
1E1
330
6A
100
AcDbEntity
  8
0
  6
Continuous
 62
     7
100
AcDbLine
 10
-140.3211531667026
 20
110.2999995231382
 30
0.0
 11
-139.6350445870041
 21
110.2999995231382
 31
0.0
  0
LINE
  5
1E2
330
6A
100
AcDbEntity
  8
0
  6
Continuous
 62
     7
100
AcDbLine
 10
-121.8977236588832
 20
108.7499995231382
 30
0.0
 11
-122.3699225530021
 21
109.5499995231383
 31
0.0
  0
SPLINE
  5
1E3
330
6A
100
AcDbEntity
  8
0
  6
Continuous
 62
     7
100
AcDbSpline
210
0.0
220
0.0
230
1.0
 70
     8
 71
     3
 72
    19
 73
    15
 74
    13
 42
0.000000001
 43
0.0000000001
 44
0.00000001
 40
0.0
 40
0.0
 40
0.0
 40
0.0
 40
0.4001791727912184
 40
0.79923665497597
 40
1.196343781580266
 40
1.591186880342989
 40
1.984058701392189
 40
2.375787905046593
 40
2.767517108700996
 40
3.160388929750169
 40
3.555232028512895
 40
3.952339155117194
 40
4.351396637301946
 40
4.751575810093164
 40
4.751575810093164
 40
4.751575810093164
 40
4.751575810093164
 10
-113.20782860253
 20
88.24999952313817
 30
0.0
 10
-113.0740718665344
 20
88.24007208672606
 30
0.0
 10
-112.8069333125037
 20
88.22024502783708
 30
0.0
 10
-112.4331476285188
 20
88.06321651852639
 30
0.0
 10
-112.1118503867581
 20
87.82398428312985
 30
0.0
 10
-111.8650132815705
 20
87.50941408620281
 30
0.0
 10
-111.7096794616683
 20
87.14328619734992
 30
0.0
 10
-111.6566625982325
 20
86.74999952313814
 30
0.0
 10
-111.7096794616683
 20
86.3567128489264
 30
0.0
 10
-111.8650132815705
 20
85.99058496007352
 30
0.0
 10
-112.111850386758
 20
85.67601476314647
 30
0.0
 10
-112.4331476285188
 20
85.43678252774995
 30
0.0
 10
-112.8069333125036
 20
85.27975401843926
 30
0.0
 10
-113.0740718665344
 20
85.25992695955027
 30
0.0
 10
-113.20782860253
 20
85.24999952313817
 30
0.0
 11
-113.20782860253
 21
88.24999952313817
 31
0.0
 11
-112.8109268835476
 21
88.19888787628967
 31
0.0
 11
-112.4410731563813
 21
88.04903762881483
 31
0.0
 11
-112.1234729406586
 21
87.81065941213987
 31
0.0
 11
-111.8797692128202
 21
87.49999952313817
 31
0.0
 11
-111.7265712216761
 21
87.13822798728796
 31
0.0
 11
-111.6743177102325
 21
86.74999952313816
 31
0.0
 11
-111.7265712216761
 21
86.36177105898835
 31
0.0
 11
-111.8797692128202
 21
85.99999952313817
 31
0.0
 11
-112.1234729406586
 21
85.68933963413646
 31
0.0
 11
-112.4410731563813
 21
85.45096141746151
 31
0.0
 11
-112.8109268835476
 21
85.30111116998667
 31
0.0
 11
-113.20782860253
 21
85.24999952313817
 31
0.0
  0
SPLINE
  5
1E4
330
6A
100
AcDbEntity
  8
0
  6
Continuous
 62
     7
100
AcDbSpline
210
0.0
220
0.0
230
1.0
 70
     8
 71
     3
 72
    19
 73
    15
 74
    13
 42
0.000000001
 43
0.0000000001
 44
0.00000001
 40
0.0
 40
0.0
 40
0.0
 40
0.0
 40
0.4001791727912078
 40
0.7992366549759833
 40
1.196343781580262
 40
1.591186880342963
 40
1.984058701392142
 40
2.375787905046558
 40
2.767517108700974
 40
3.160388929750153
 40
3.555232028512878
 40
3.952339155117203
 40
4.351396637301963
 40
4.751575810093163
 40
4.751575810093163
 40
4.751575810093163
 40
4.751575810093163
 10
-113.2078286025304
 20
108.7499995231382
 30
0.0
 10
-113.0740718665348
 20
108.7400720867261
 30
0.0
 10
-112.806933312504
 20
108.7202450278371
 30
0.0
 10
-112.4331476285193
 20
108.5632165185264
 30
0.0
 10
-112.1118503867584
 20
108.3239842831298
 30
0.0
 10
-111.8650132815709
 20
108.0094140862029
 30
0.0
 10
-111.7096794616686
 20
107.6432861973499
 30
0.0
 10
-111.6566625982329
 20
107.2499995231382
 30
0.0
 10
-111.7096794616686
 20
106.8567128489264
 30
0.0
 10
-111.8650132815709
 20
106.4905849600736
 30
0.0
 10
-112.1118503867584
 20
106.1760147631465
 30
0.0
 10
-112.4331476285192
 20
105.93678252775
 30
0.0
 10
-112.806933312504
 20
105.7797540184392
 30
0.0
 10
-113.0740718665348
 20
105.7599269595503
 30
0.0
 10
-113.2078286025304
 20
105.7499995231382
 30
0.0
 11
-113.2078286025304
 21
108.7499995231382
 31
0.0
 11
-112.810926883548
 21
108.6988878762897
 31
0.0
 11
-112.4410731563816
 21
108.5490376288148
 31
0.0
 11
-112.123472940659
 21
108.3106594121399
 31
0.0
 11
-111.8797692128206
 21
107.9999995231382
 31
0.0
 11
-111.7265712216765
 21
107.638227987288
 31
0.0
 11
-111.6743177102329
 21
107.2499995231382
 31
0.0
 11
-111.7265712216765
 21
106.8617710589884
 31
0.0
 11
-111.8797692128206
 21
106.4999995231382
 31
0.0
 11
-112.123472940659
 21
106.1893396341365
 31
0.0
 11
-112.4410731563816
 21
105.9509614174615
 31
0.0
 11
-112.810926883548
 21
105.8011111699867
 31
0.0
 11
-113.2078286025304
 21
105.7499995231382
 31
0.0
  0
SPLINE
  5
1E5
330
6A
100
AcDbEntity
  8
0
  6
Continuous
 62
     7
100
AcDbSpline
210
0.0
220
0.0
230
1.0
 70
     8
 71
     3
 72
    19
 73
    15
 74
    13
 42
0.000000001
 43
0.0000000001
 44
0.00000001
 40
0.0
 40
0.0
 40
0.0
 40
0.0
 40
0.4001791727912042
 40
0.7992366549759689
 40
1.196343781580265
 40
1.591186880342999
 40
1.984058701392205
 40
2.375787905046592
 40
2.767517108700994
 40
3.160388929750173
 40
3.555232028512899
 40
3.952339155117206
 40
4.351396637301971
 40
4.751575810093174
 40
4.751575810093174
 40
4.751575810093174
 40
4.751575810093174
 10
-113.2078286025304
 20
98.49999952313817
 30
0.0
 10
-113.0740718665348
 20
98.49007208672607
 30
0.0
 10
-112.8069333125041
 20
98.47024502783708
 30
0.0
 10
-112.4331476285192
 20
98.31321651852636
 30
0.0
 10
-112.1118503867585
 20
98.07398428312986
 30
0.0
 10
-111.8650132815709
 20
97.7594140862028
 30
0.0
 10
-111.7096794616687
 20
97.39328619734992
 30
0.0
 10
-111.6566625982329
 20
96.99999952313814
 30
0.0
 10
-111.7096794616687
 20
96.60671284892645
 30
0.0
 10
-111.8650132815709
 20
96.2405849600735
 30
0.0
 10
-112.1118503867584
 20
95.92601476314647
 30
0.0
 10
-112.4331476285192
 20
95.68678252774994
 30
0.0
 10
-112.806933312504
 20
95.52975401843922
 30
0.0
 10
-113.0740718665348
 20
95.50992695955028
 30
0.0
 10
-113.2078286025304
 20
95.49999952313817
 30
0.0
 11
-113.2078286025304
 21
98.49999952313817
 31
0.0
 11
-112.810926883548
 21
98.44888787628967
 31
0.0
 11
-112.4410731563816
 21
98.29903762881483
 31
0.0
 11
-112.123472940659
 21
98.06065941213987
 31
0.0
 11
-111.8797692128206
 21
97.74999952313816
 31
0.0
 11
-111.7265712216765
 21
97.38822798728795
 31
0.0
 11
-111.6743177102329
 21
96.99999952313816
 31
0.0
 11
-111.7265712216765
 21
96.61177105898835
 31
0.0
 11
-111.8797692128206
 21
96.24999952313817
 31
0.0
 11
-112.123472940659
 21
95.93933963413646
 31
0.0
 11
-112.4410731563816
 21
95.7009614174615
 31
0.0
 11
-112.810926883548
 21
95.55111116998665
 31
0.0
 11
-113.2078286025304
 21
95.49999952313817
 31
0.0
  0
ENDBLK
  5
6C
330
6A
100
AcDbEntity
  8
0
100
AcDbBlockEnd
  0
BLOCK
  5
6F
330
6D
100
AcDbEntity
  8
0
100
AcDbBlockBegin
  2
Top1
 70
     0
 10
-126.0
 20
97.00000000000003
 30
0.0
  3
Top1
  1

  0
INSERT
  5
6E
330
6D
100
AcDbEntity
  8
0
100
AcDbBlockReference
  2
EB_3-10-select__6
 10
-140.3255236465558
 20
83.69999952313815
 30
0.0
  0
MTEXT
  5
1E6
330
6D
100
AcDbEntity
  8
1
 62
     6
100
AcDbMText
 10
-126.018651401778
 20
78.70000028607672
 30
0.0
 40
5.0
 41
0.0
 71
     2
 72
     1
  1
 
  7
CONVERTER_11
 73
     1
 44
1.32052821128451
  0
DIMENSION
  5
1F1
330
6D
100
AcDbEntity
  8
1
100
AcDbDimension
  2
*D19
 10
-152.9490356192422
 20
83.69999952313815
 30
0.0
 11
-156.3740356192422
 21
98.0486582364731
 31
0.0
 70
    32
  1
<>
 71
     5
 42
-1.0
 53
90.0
  3
ME10_DIM_10
100
AcDbAlignedDimension
 13
-132.8369187619041
 23
110.2999995231382
 33
0.0
 14
-132.8369187619039
 24
83.69999952313815
 34
0.0
 50
90.0
100
AcDbRotatedDimension
  0
ENDBLK
  5
70
330
6D
100
AcDbEntity
  8
0
100
AcDbBlockEnd
  0
BLOCK
  5
72
330
71
100
AcDbEntity
  8
0
100
AcDbBlockBegin
  2
_rahmen
 70
     0
 10
49.89364390900151
 20
7.31744542159208
 30
0.0
  3
_rahmen
  1

  0
LINE
  5
1F2
330
71
100
AcDbEntity
  8
1
  6
DOT_CENTER
 62
     2
100
AcDbLine
 10
-75.6645057311859
 20
33.44244542159211
 30
0.0
 11
-70.1645057311859
 21
33.44244542159211
 31
0.0
  0
LINE
  5
1F3
330
71
100
AcDbEntity
  8
1
  6
PHANTOM
 62
     2
100
AcDbLine
 10
-66.9145057311859
 20
36.19244542159211
 30
0.0
 11
-66.9145057311859
 21
30.69244542159211
 31
0.0
  0
LINE
  5
1F4
330
71
100
AcDbEntity
  8
1
  6
PHANTOM
 62
     2
100
AcDbLine
 10
-64.1645057311859
 20
33.44244542159211
 30
0.0
 11
-69.6645057311859
 21
33.44244542159211
 31
0.0
  0
LINE
  5
1F5
330
71
100
AcDbEntity
  8
1
  6
Continuous
 62
     7
100
AcDbLine
 10
-15.35116061774849
 20
20.81744542159211
 30
0.0
 11
-15.35116061774849
 21
29.3174454215922
 31
0.0
  0
LINE
  5
1F6
330
71
100
AcDbEntity
  8
1
  6
Continuous
 62
     6
100
AcDbLine
 10
-43.25116061774858
 20
29.3174454215922
 30
0.0
 11
49.8936439090032
 21
29.3174454215922
 31
0.0
  0
LINE
  5
1F7
330
71
100
AcDbEntity
  8
1
  6
Continuous
 62
     7
100
AcDbLine
 10
-79.6511606177485
 20
29.3174454215922
 30
0.0
 11
-79.6511606177485
 21
37.8174454215922
 31
0.0
  0
LINE
  5
1F8
330
71
100
AcDbEntity
  8
1
  6
Continuous
 62
     7
100
AcDbLine
 10
-43.25116061774858
 20
29.3174454215922
 30
0.0
 11
-43.25116061774858
 21
37.8174454215922
 31
0.0
  0
LINE
  5
1F9
330
71
100
AcDbEntity
  8
1
  6
Continuous
 62
     7
100
AcDbLine
 10
14.4752356273244
 20
37.8174454215922
 30
0.0
 11
14.4752356273244
 21
29.3174454215922
 31
0.0
  0
LINE
  5
1FA
330
71
100
AcDbEntity
  8
1
  6
Continuous
 62
     7
100
AcDbLine
 10
40.975235627324
 20
37.8174454215922
 30
0.0
 11
40.975235627324
 21
29.3174454215922
 31
0.0
  0
LINE
  5
1FB
330
71
100
AcDbEntity
  8
1
  6
Continuous
 62
     6
100
AcDbLine
 10
-148.6511606177485
 20
12.3174454215922
 30
0.0
 11
-193.6063560909985
 21
12.3174454215922
 31
0.0
  0
LINE
  5
1FC
330
71
100
AcDbEntity
  8
1
  6
Continuous
 62
     7
100
AcDbLine
 10
49.89364390900281
 20
20.8174454215922
 30
0.0
 11
-43.25116061774858
 21
20.8174454215922
 31
0.0
  0
LINE
  5
1FD
102
{ACAD_REACTORS
330
30F
330
310
102
}
330
71
100
AcDbEntity
  8
0
  6
Continuous
 62
     2
100
AcDbLine
 10
-65.9437316759811
 20
21.6177345372555
 30
0.0
 11
-65.9437316759811
 21
22.49025154405879
 31
0.0
  0
LINE
  5
1FE
102
{ACAD_REACTORS
330
30F
330
310
102
}
330
71
100
AcDbEntity
  8
0
  6
Continuous
 62
     2
100
AcDbLine
 10
-65.9437316759811
 20
20.65796582977259
 30
0.0
 11
-65.9437316759811
 21
19.78544882296939
 31
0.0
  0
LINE
  5
1FF
102
{ACAD_REACTORS
330
311
330
312
102
}
330
71
100
AcDbEntity
  8
0
  6
Continuous
 62
     2
100
AcDbLine
 10
-50.61068753969059
 20
21.879489639296
 30
0.0
 11
-49.50704824012249
 21
21.879489639296
 31
0.0
  0
LINE
  5
200
102
{ACAD_REACTORS
330
311
330
312
102
}
330
71
100
AcDbEntity
  8
0
  6
Continuous
 62
     2
100
AcDbLine
 10
-49.84103019672918
 20
20.65796582977211
 30
0.0
 11
-49.84103019672918
 21
19.78544882296879
 31
0.0
  0
LINE
  5
201
102
{ACAD_REACTORS
330
31B
330
31C
102
}
330
71
100
AcDbEntity
  8
0
  6
Continuous
 62
     2
100
AcDbLine
 10
-51.70178681210911
 20
22.9701358977828
 30
0.0
 11
-50.3038337651688
 21
24.55099489155779
 31
0.0
  0
LINE
  5
202
102
{ACAD_REACTORS
330
31B
330
31C
102
}
330
71
100
AcDbEntity
  8
0
  6
Continuous
 62
     2
100
AcDbLine
 10
-51.60636339593629
 20
26.02394542159399
 30
0.0
 11
-50.3038337651688
 21
24.55099489155779
 31
0.0
  0
LINE
  5
203
102
{ACAD_REACTORS
330
31B
330
31C
102
}
330
71
100
AcDbEntity
  8
0
  6
Continuous
 62
     2
100
AcDbLine
 10
-49.0013041344024
 20
26.02394542159399
 30
0.0
 11
-47.59857991665518
 21
26.02394542159399
 31
0.0
  0
LINE
  5
204
102
{ACAD_REACTORS
330
31B
330
31C
102
}
330
71
100
AcDbEntity
  8
0
  6
Continuous
 62
     2
100
AcDbLine
 10
-50.29906259436089
 20
22.9701358977828
 30
0.0
 11
-49.60247165629519
 21
23.75786768307651
 31
0.0
  0
LINE
  5
205
102
{ACAD_REACTORS
330
31B
330
31C
102
}
330
71
100
AcDbEntity
  8
0
  6
Continuous
 62
     2
100
AcDbLine
 10
-50.29906259436089
 20
22.9701358977828
 30
0.0
 11
-51.70178681210911
 21
22.9701358977828
 31
0.0
  0
LINE
  5
206
102
{ACAD_REACTORS
330
31D
330
31E
102
}
330
71
100
AcDbEntity
  8
0
  6
Continuous
 62
     2
100
AcDbLine
 10
-51.82106608232598
 20
22.9701358977828
 30
0.0
 11
-53.06157049257888
 21
22.9701358977828
 31
0.0
  0
LINE
  5
207
102
{ACAD_REACTORS
330
31F
330
320
102
}
330
71
100
AcDbEntity
  8
0
  6
Continuous
 62
     2
100
AcDbLine
 10
-53.92955010073399
 20
20.83246923113299
 30
0.0
 11
-54.22971533792409
 21
21.60028419711969
 31
0.0
  0
LINE
  5
208
102
{ACAD_REACTORS
330
31F
330
320
102
}
330
71
100
AcDbEntity
  8
0
  6
Continuous
 62
     2
100
AcDbLine
 10
-54.52988057511649
 20
20.83246923113299
 30
0.0
 11
-53.92955010073399
 21
20.83246923113299
 31
0.0
  0
LINE
  5
209
102
{ACAD_REACTORS
330
31F
330
320
102
}
330
71
100
AcDbEntity
  8
0
  6
Continuous
 62
     2
100
AcDbLine
 10
-56.24792058999029
 20
19.61094542160851
 30
0.0
 11
-55.00741617973731
 21
19.61094542160851
 31
0.0
  0
LINE
  5
20A
102
{ACAD_REACTORS
330
31F
330
320
102
}
330
71
100
AcDbEntity
  8
0
  6
Continuous
 62
     2
100
AcDbLine
 10
-54.84996754305098
 20
22.66475494541959
 30
0.0
 11
-53.60946313279828
 21
22.66475494541959
 31
0.0
  0
LINE
  5
20B
102
{ACAD_REACTORS
330
31F
330
320
102
}
330
71
100
AcDbEntity
  8
0
  6
Continuous
 62
     2
100
AcDbLine
 10
-53.60946313279828
 20
22.66475494541959
 30
0.0
 11
-52.21151008585798
 21
19.61094542160851
 31
0.0
  0
LINE
  5
20C
102
{ACAD_REACTORS
330
31F
330
320
102
}
330
71
100
AcDbEntity
  8
0
  6
Continuous
 62
     2
100
AcDbLine
 10
-53.4520144961119
 20
19.61094542160851
 30
0.0
 11
-53.66349454958768
 21
20.15190596582639
 31
0.0
  0
LINE
  5
20D
102
{ACAD_REACTORS
330
321
330
322
102
}
330
71
100
AcDbEntity
  8
0
  6
Continuous
 62
     2
100
AcDbLine
 10
-57.5943336916979
 20
19.61094542160851
 30
0.0
 11
-56.40154098953138
 21
19.61094542160851
 31
0.0
  0
LINE
  5
20E
102
{ACAD_REACTORS
330
321
330
322
102
}
330
71
100
AcDbEntity
  8
0
  6
Continuous
 62
     2
100
AcDbLine
 10
-57.5943336916979
 20
21.879489639296
 30
0.0
 11
-57.5943336916979
 21
19.61094542160851
 31
0.0
  0
LINE
  5
20F
102
{ACAD_REACTORS
330
321
330
322
102
}
330
71
100
AcDbEntity
  8
0
  6
Continuous
 62
     2
100
AcDbLine
 10
-58.4054327291725
 20
22.66475494541959
 30
0.0
 11
-58.4054327291725
 21
21.879489639296
 31
0.0
  0
LINE
  5
210
102
{ACAD_REACTORS
330
323
330
324
102
}
330
71
100
AcDbEntity
  8
0
  6
Continuous
 62
     2
100
AcDbLine
 10
-56.9262188475999
 20
22.9701358977828
 30
0.0
 11
-55.73342614543338
 21
22.9701358977828
 31
0.0
  0
LINE
  5
211
102
{ACAD_REACTORS
330
323
330
324
102
}
330
71
100
AcDbEntity
  8
0
  6
Continuous
 62
     2
100
AcDbLine
 10
-54.49292173517938
 20
24.71516991138881
 30
0.0
 11
-55.73342614543338
 21
26.02394542159399
 31
0.0
  0
LINE
  5
212
102
{ACAD_REACTORS
330
323
330
324
102
}
330
71
100
AcDbEntity
  8
0
  6
Continuous
 62
     2
100
AcDbLine
 10
-53.30012903301278
 20
26.02394542159399
 30
0.0
 11
-54.49292173517938
 21
26.02394542159399
 31
0.0
  0
LINE
  5
213
102
{ACAD_REACTORS
330
323
330
324
102
}
330
71
100
AcDbEntity
  8
0
  6
Continuous
 62
     2
100
AcDbLine
 10
-53.30012903301278
 20
22.9701358977828
 30
0.0
 11
-53.30012903301278
 21
26.02394542159399
 31
0.0
  0
LINE
  5
214
102
{ACAD_REACTORS
330
323
330
324
102
}
330
71
100
AcDbEntity
  8
0
  6
Continuous
 62
     2
100
AcDbLine
 10
-54.49292173517938
 20
22.9701358977828
 30
0.0
 11
-53.30012903301278
 21
22.9701358977828
 31
0.0
  0
LINE
  5
215
102
{ACAD_REACTORS
330
323
330
324
102
}
330
71
100
AcDbEntity
  8
0
  6
Continuous
 62
     2
100
AcDbLine
 10
-55.73342614543338
 20
24.27891140798749
 30
0.0
 11
-54.49292173517938
 21
22.9701358977828
 31
0.0
  0
LINE
  5
216
102
{ACAD_REACTORS
330
325
330
326
102
}
330
71
100
AcDbEntity
  8
0
  6
Continuous
 62
     2
100
AcDbLine
 10
-59.7413605555991
 20
21.35597943521449
 30
0.0
 11
-60.981864965852
 21
22.66475494541959
 31
0.0
  0
LINE
  5
217
102
{ACAD_REACTORS
330
325
330
326
102
}
330
71
100
AcDbEntity
  8
0
  6
Continuous
 62
     2
100
AcDbLine
 10
-59.7413605555991
 20
22.66475494541959
 30
0.0
 11
-59.7413605555991
 21
21.35597943521449
 31
0.0
  0
LINE
  5
218
102
{ACAD_REACTORS
330
325
330
326
102
}
330
71
100
AcDbEntity
  8
0
  6
Continuous
 62
     2
100
AcDbLine
 10
-58.5485678534327
 20
22.66475494541959
 30
0.0
 11
-59.7413605555991
 21
22.66475494541959
 31
0.0
  0
LINE
  5
219
102
{ACAD_REACTORS
330
325
330
326
102
}
330
71
100
AcDbEntity
  8
0
  6
Continuous
 62
     2
100
AcDbLine
 10
-58.5485678534327
 20
19.61094542160851
 30
0.0
 11
-58.5485678534327
 21
22.66475494541959
 31
0.0
  0
LINE
  5
21A
102
{ACAD_REACTORS
330
325
330
326
102
}
330
71
100
AcDbEntity
  8
0
  6
Continuous
 62
     2
100
AcDbLine
 10
-60.981864965852
 20
20.91972093181309
 30
0.0
 11
-59.7413605555991
 21
19.61094542160851
 31
0.0
  0
LINE
  5
21B
102
{ACAD_REACTORS
330
325
330
326
102
}
330
71
100
AcDbEntity
  8
0
  6
Continuous
 62
     2
100
AcDbLine
 10
-60.981864965852
 20
19.61094542160851
 30
0.0
 11
-60.981864965852
 21
20.91972093181309
 31
0.0
  0
LINE
  5
21C
102
{ACAD_REACTORS
330
315
330
316
102
}
330
71
100
AcDbEntity
  8
0
  6
Continuous
 62
     2
100
AcDbLine
 10
-58.50070521446048
 20
25.32593181615101
 30
0.0
 11
-57.1647773880328
 21
25.32593181615101
 31
0.0
  0
LINE
  5
21D
102
{ACAD_REACTORS
330
315
330
316
102
}
330
71
100
AcDbEntity
  8
0
  6
Continuous
 62
     2
100
AcDbLine
 10
-58.50070521446048
 20
23.66814950322529
 30
0.0
 11
-58.50070521446048
 21
24.148033856967
 31
0.0
  0
LINE
  5
21E
102
{ACAD_REACTORS
330
315
330
316
102
}
330
71
100
AcDbEntity
  8
0
  6
Continuous
 62
     2
100
AcDbLine
 10
-57.1647773880328
 20
23.66814950322529
 30
0.0
 11
-58.50070521446048
 21
23.66814950322529
 31
0.0
  0
LINE
  5
21F
102
{ACAD_REACTORS
330
315
330
316
102
}
330
71
100
AcDbEntity
  8
0
  6
Continuous
 62
     2
100
AcDbLine
 10
-57.1647773880328
 20
22.9701358977828
 30
0.0
 11
-57.1647773880328
 21
23.66814950322529
 31
0.0
  0
LINE
  5
220
102
{ACAD_REACTORS
330
315
330
316
102
}
330
71
100
AcDbEntity
  8
0
  6
Continuous
 62
     2
100
AcDbLine
 10
-60.3150971118138
 20
22.9701358977828
 30
0.0
 11
-57.1647773880328
 21
22.9701358977828
 31
0.0
  0
LINE
  5
221
102
{ACAD_REACTORS
330
315
330
316
102
}
330
71
100
AcDbEntity
  8
0
  6
Continuous
 62
     2
100
AcDbLine
 10
-60.3150971118138
 20
26.02394542159399
 30
0.0
 11
-57.1647773880328
 21
26.02394542159399
 31
0.0
  0
LINE
  5
222
102
{ACAD_REACTORS
330
315
330
316
102
}
330
71
100
AcDbEntity
  8
0
  6
Continuous
 62
     2
100
AcDbLine
 10
-57.1647773880328
 20
25.32593181615101
 30
0.0
 11
-57.1647773880328
 21
26.02394542159399
 31
0.0
  0
LINE
  5
223
102
{ACAD_REACTORS
330
327
330
328
102
}
330
71
100
AcDbEntity
  8
0
  6
Continuous
 62
     2
100
AcDbLine
 10
-63.1764526069538
 20
24.9551120882594
 30
0.0
 11
-63.1764526069538
 21
26.02394542159399
 31
0.0
  0
LINE
  5
224
102
{ACAD_REACTORS
330
327
330
328
102
}
330
71
100
AcDbEntity
  8
0
  6
Continuous
 62
     2
100
AcDbLine
 10
-63.1764526069538
 20
26.02394542159399
 30
0.0
 11
-61.9836599047874
 21
26.02394542159399
 31
0.0
  0
LINE
  5
225
102
{ACAD_REACTORS
330
327
330
328
102
}
330
71
100
AcDbEntity
  8
0
  6
Continuous
 62
     2
100
AcDbLine
 10
-63.1764526069538
 20
24.10440800662661
 30
0.0
 11
-64.22611018486128
 21
24.10440800662661
 31
0.0
  0
LINE
  5
226
102
{ACAD_REACTORS
330
327
330
328
102
}
330
71
100
AcDbEntity
  8
0
  6
Continuous
 62
     2
100
AcDbLine
 10
-64.22611018486128
 20
24.10440800662661
 30
0.0
 11
-64.22611018486128
 21
22.9701358977828
 31
0.0
  0
LINE
  5
227
102
{ACAD_REACTORS
330
327
330
328
102
}
330
71
100
AcDbEntity
  8
0
  6
Continuous
 62
     2
100
AcDbLine
 10
-65.41890288702788
 20
26.02394542159399
 30
0.0
 11
-65.41890288702788
 21
22.9701358977828
 31
0.0
  0
LINE
  5
228
102
{ACAD_REACTORS
330
319
330
31A
102
}
330
71
100
AcDbEntity
  8
0
  6
Continuous
 62
     2
100
AcDbLine
 10
-67.37508291858148
 20
24.65511192681169
 30
0.0
 11
-67.37508291858148
 21
25.36083957615389
 31
0.0
  0
LINE
  5
229
102
{ACAD_REACTORS
330
319
330
31A
102
}
330
71
100
AcDbEntity
  8
0
  6
Continuous
 62
     2
100
AcDbLine
 10
-68.6155873288356
 20
22.9701358977828
 30
0.0
 11
-67.37508291858148
 21
22.9701358977828
 31
0.0
  0
LINE
  5
22A
102
{ACAD_REACTORS
330
319
330
31A
102
}
330
71
100
AcDbEntity
  8
0
  6
Continuous
 62
     2
100
AcDbLine
 10
-67.37508291858148
 20
22.9701358977828
 30
0.0
 11
-67.37508291858148
 21
23.91321413892661
 31
0.0
  0
LINE
  5
22B
102
{ACAD_REACTORS
330
313
330
314
102
}
330
71
100
AcDbEntity
  8
0
  6
Continuous
 62
     2
100
AcDbLine
 10
-72.92053317804698
 20
20.3235009771654
 30
0.0
 11
-74.3963664390566
 21
20.3235009771654
 31
0.0
  0
LINE
  5
22C
102
{ACAD_REACTORS
330
313
330
314
102
}
330
71
100
AcDbEntity
  8
0
  6
Continuous
 62
     2
100
AcDbLine
 10
-75.4145057311859
 20
25.599700806192
 30
0.0
 11
-75.4145057311859
 21
20.03519003699179
 31
0.0
  0
LINE
  5
22D
102
{ACAD_REACTORS
330
313
330
314
102
}
330
71
100
AcDbEntity
  8
0
  6
Continuous
 62
     2
100
AcDbLine
 10
-74.9902611158031
 20
26.0239454215758
 30
0.0
 11
-69.51694902508629
 21
26.0239454215758
 31
0.0
  0
LINE
  5
22E
102
{ACAD_REACTORS
330
313
330
314
102
}
330
71
100
AcDbEntity
  8
0
  6
Continuous
 62
     2
100
AcDbLine
 10
-69.0927044097024
 20
25.599700806192
 30
0.0
 11
-69.0927044097024
 21
20.03519003699179
 31
0.0
  0
LINE
  5
22F
102
{ACAD_REACTORS
330
313
330
314
102
}
330
71
100
AcDbEntity
  8
0
  6
Continuous
 62
     2
100
AcDbLine
 10
-69.51694902508629
 20
19.61094542160851
 30
0.0
 11
-74.9902611158031
 21
19.61094542160851
 31
0.0
  0
LINE
  5
230
102
{ACAD_REACTORS
330
313
330
314
102
}
330
71
100
AcDbEntity
  8
0
  6
Continuous
 62
     2
100
AcDbLine
 10
-72.60481625497039
 20
20.6392179002421
 30
0.0
 11
-72.60481625497039
 21
22.16998883177371
 31
0.0
  0
LINE
  5
231
102
{ACAD_REACTORS
330
313
330
314
102
}
330
71
100
AcDbEntity
  8
0
  6
Continuous
 62
     2
100
AcDbLine
 10
-72.60481625497039
 20
24.39164832389869
 30
0.0
 11
-72.60481625497039
 21
24.9956729429592
 31
0.0
  0
LINE
  5
232
102
{ACAD_REACTORS
330
313
330
314
102
}
330
71
100
AcDbEntity
  8
0
  6
Continuous
 62
     2
100
AcDbLine
 10
-74.3963664390566
 20
25.3113898660354
 30
0.0
 11
-72.92053317804698
 21
25.3113898660354
 31
0.0
  0
LINE
  5
233
102
{ACAD_REACTORS
330
313
330
314
102
}
330
71
100
AcDbEntity
  8
0
  6
Continuous
 62
     2
100
AcDbLine
 10
-74.71208336213229
 20
24.9956729429592
 30
0.0
 11
-74.71208336213229
 21
20.6392179002421
 31
0.0
  0
LINE
  5
234
102
{ACAD_REACTORS
330
319
330
31A
102
}
330
71
100
AcDbEntity
  8
0
  6
Continuous
 62
     2
100
AcDbLine
 10
-67.37508291858148
 20
23.91321413892661
 30
0.0
 11
-66.6163153308012
 21
23.91321413892661
 31
0.0
  0
LINE
  5
235
102
{ACAD_REACTORS
330
319
330
31A
102
}
330
71
100
AcDbEntity
  8
0
  6
Continuous
 62
     2
100
AcDbLine
 10
-68.6155873288356
 20
26.02394542159399
 30
0.0
 11
-66.6163153308012
 21
26.02394542159399
 31
0.0
  0
LINE
  5
236
102
{ACAD_REACTORS
330
319
330
31A
102
}
330
71
100
AcDbEntity
  8
0
  6
Continuous
 62
     2
100
AcDbLine
 10
-68.6155873288356
 20
26.02394542159399
 30
0.0
 11
-68.6155873288356
 21
22.9701358977828
 31
0.0
  0
LINE
  5
237
102
{ACAD_REACTORS
330
319
330
31A
102
}
330
71
100
AcDbEntity
  8
0
  6
Continuous
 62
     2
100
AcDbLine
 10
-67.37508291858148
 20
24.65511192681169
 30
0.0
 11
-67.05778785703959
 21
24.65511192681169
 31
0.0
  0
LINE
  5
238
102
{ACAD_REACTORS
330
319
330
31A
102
}
330
71
100
AcDbEntity
  8
0
  6
Continuous
 62
     2
100
AcDbLine
 10
-67.37508291858148
 20
25.36083957615389
 30
0.0
 11
-67.05778785703959
 21
25.36083957615389
 31
0.0
  0
LINE
  5
239
102
{ACAD_REACTORS
330
327
330
328
102
}
330
71
100
AcDbEntity
  8
0
  6
Continuous
 62
     2
100
AcDbLine
 10
-64.22611018486128
 20
24.9551120882594
 30
0.0
 11
-63.1764526069538
 21
24.9551120882594
 31
0.0
  0
LINE
  5
23A
102
{ACAD_REACTORS
330
327
330
328
102
}
330
71
100
AcDbEntity
  8
0
  6
Continuous
 62
     2
100
AcDbLine
 10
-64.22611018486128
 20
26.02394542159399
 30
0.0
 11
-64.22611018486128
 21
24.9551120882594
 31
0.0
  0
LINE
  5
23B
102
{ACAD_REACTORS
330
327
330
328
102
}
330
71
100
AcDbEntity
  8
0
  6
Continuous
 62
     2
100
AcDbLine
 10
-65.41890288702788
 20
26.02394542159399
 30
0.0
 11
-64.22611018486128
 21
26.02394542159399
 31
0.0
  0
LINE
  5
23C
102
{ACAD_REACTORS
330
327
330
328
102
}
330
71
100
AcDbEntity
  8
0
  6
Continuous
 62
     2
100
AcDbLine
 10
-64.22611018486128
 20
22.9701358977828
 30
0.0
 11
-65.41890288702788
 21
22.9701358977828
 31
0.0
  0
LINE
  5
23D
102
{ACAD_REACTORS
330
327
330
328
102
}
330
71
100
AcDbEntity
  8
0
  6
Continuous
 62
     2
100
AcDbLine
 10
-63.1764526069538
 20
22.9701358977828
 30
0.0
 11
-63.1764526069538
 21
24.10440800662661
 31
0.0
  0
LINE
  5
23E
102
{ACAD_REACTORS
330
327
330
328
102
}
330
71
100
AcDbEntity
  8
0
  6
Continuous
 62
     2
100
AcDbLine
 10
-61.9836599047874
 20
22.9701358977828
 30
0.0
 11
-63.1764526069538
 21
22.9701358977828
 31
0.0
  0
LINE
  5
23F
102
{ACAD_REACTORS
330
327
330
328
102
}
330
71
100
AcDbEntity
  8
0
  6
Continuous
 62
     2
100
AcDbLine
 10
-61.9836599047874
 20
26.02394542159399
 30
0.0
 11
-61.9836599047874
 21
22.9701358977828
 31
0.0
  0
LINE
  5
240
102
{ACAD_REACTORS
330
315
330
316
102
}
330
71
100
AcDbEntity
  8
0
  6
Continuous
 62
     2
100
AcDbLine
 10
-58.50070521446048
 20
24.148033856967
 30
0.0
 11
-57.1647773880328
 21
24.148033856967
 31
0.0
  0
LINE
  5
241
102
{ACAD_REACTORS
330
315
330
316
102
}
330
71
100
AcDbEntity
  8
0
  6
Continuous
 62
     2
100
AcDbLine
 10
-57.1647773880328
 20
24.148033856967
 30
0.0
 11
-57.1647773880328
 21
24.8460474624093
 31
0.0
  0
LINE
  5
242
102
{ACAD_REACTORS
330
315
330
316
102
}
330
71
100
AcDbEntity
  8
0
  6
Continuous
 62
     2
100
AcDbLine
 10
-57.1647773880328
 20
24.8460474624093
 30
0.0
 11
-58.50070521446048
 21
24.8460474624093
 31
0.0
  0
LINE
  5
243
102
{ACAD_REACTORS
330
315
330
316
102
}
330
71
100
AcDbEntity
  8
0
  6
Continuous
 62
     2
100
AcDbLine
 10
-58.50070521446048
 20
24.8460474624093
 30
0.0
 11
-58.50070521446048
 21
25.32593181615101
 31
0.0
  0
LINE
  5
244
102
{ACAD_REACTORS
330
325
330
326
102
}
330
71
100
AcDbEntity
  8
0
  6
Continuous
 62
     2
100
AcDbLine
 10
-62.17465766801959
 20
19.61094542160851
 30
0.0
 11
-60.981864965852
 21
19.61094542160851
 31
0.0
  0
LINE
  5
245
102
{ACAD_REACTORS
330
325
330
326
102
}
330
71
100
AcDbEntity
  8
0
  6
Continuous
 62
     2
100
AcDbLine
 10
-59.7413605555991
 20
19.61094542160851
 30
0.0
 11
-58.5485678534327
 21
19.61094542160851
 31
0.0
  0
LINE
  5
246
102
{ACAD_REACTORS
330
325
330
326
102
}
330
71
100
AcDbEntity
  8
0
  6
Continuous
 62
     2
100
AcDbLine
 10
-60.981864965852
 20
22.66475494541959
 30
0.0
 11
-62.17465766801959
 21
22.66475494541959
 31
0.0
  0
LINE
  5
247
102
{ACAD_REACTORS
330
325
330
326
102
}
330
71
100
AcDbEntity
  8
0
  6
Continuous
 62
     2
100
AcDbLine
 10
-62.17465766801959
 20
22.66475494541959
 30
0.0
 11
-62.17465766801959
 21
19.61094542160851
 31
0.0
  0
LINE
  5
248
102
{ACAD_REACTORS
330
323
330
324
102
}
330
71
100
AcDbEntity
  8
0
  6
Continuous
 62
     2
100
AcDbLine
 10
-54.49292173517938
 20
26.02394542159399
 30
0.0
 11
-54.49292173517938
 21
24.71516991138881
 31
0.0
  0
LINE
  5
249
102
{ACAD_REACTORS
330
323
330
324
102
}
330
71
100
AcDbEntity
  8
0
  6
Continuous
 62
     2
100
AcDbLine
 10
-55.73342614543338
 20
26.02394542159399
 30
0.0
 11
-56.9262188475999
 21
26.02394542159399
 31
0.0
  0
LINE
  5
24A
102
{ACAD_REACTORS
330
323
330
324
102
}
330
71
100
AcDbEntity
  8
0
  6
Continuous
 62
     2
100
AcDbLine
 10
-56.9262188475999
 20
26.02394542159399
 30
0.0
 11
-56.9262188475999
 21
22.9701358977828
 31
0.0
  0
LINE
  5
24B
102
{ACAD_REACTORS
330
323
330
324
102
}
330
71
100
AcDbEntity
  8
0
  6
Continuous
 62
     2
100
AcDbLine
 10
-55.73342614543338
 20
22.9701358977828
 30
0.0
 11
-55.73342614543338
 21
24.27891140798749
 31
0.0
  0
LINE
  5
24C
102
{ACAD_REACTORS
330
321
330
322
102
}
330
71
100
AcDbEntity
  8
0
  6
Continuous
 62
     2
100
AcDbLine
 10
-56.40154098953138
 20
19.61094542160851
 30
0.0
 11
-56.40154098953138
 21
21.879489639296
 31
0.0
  0
LINE
  5
24D
102
{ACAD_REACTORS
330
321
330
322
102
}
330
71
100
AcDbEntity
  8
0
  6
Continuous
 62
     2
100
AcDbLine
 10
-56.40154098953138
 20
21.879489639296
 30
0.0
 11
-55.59044195205888
 21
21.879489639296
 31
0.0
  0
LINE
  5
24E
102
{ACAD_REACTORS
330
321
330
322
102
}
330
71
100
AcDbEntity
  8
0
  6
Continuous
 62
     2
100
AcDbLine
 10
-55.59044195205888
 20
21.879489639296
 30
0.0
 11
-55.59044195205888
 21
22.66475494541959
 31
0.0
  0
LINE
  5
24F
102
{ACAD_REACTORS
330
321
330
322
102
}
330
71
100
AcDbEntity
  8
0
  6
Continuous
 62
     2
100
AcDbLine
 10
-55.59044195205888
 20
22.66475494541959
 30
0.0
 11
-58.4054327291725
 21
22.66475494541959
 31
0.0
  0
LINE
  5
250
102
{ACAD_REACTORS
330
321
330
322
102
}
330
71
100
AcDbEntity
  8
0
  6
Continuous
 62
     2
100
AcDbLine
 10
-58.4054327291725
 20
21.879489639296
 30
0.0
 11
-57.5943336916979
 21
21.879489639296
 31
0.0
  0
LINE
  5
251
102
{ACAD_REACTORS
330
31F
330
320
102
}
330
71
100
AcDbEntity
  8
0
  6
Continuous
 62
     2
100
AcDbLine
 10
-54.7959361262615
 20
20.15190596582639
 30
0.0
 11
-53.66349454958768
 21
20.15190596582639
 31
0.0
  0
LINE
  5
252
102
{ACAD_REACTORS
330
31F
330
320
102
}
330
71
100
AcDbEntity
  8
0
  6
Continuous
 62
     2
100
AcDbLine
 10
-52.21151008585798
 20
19.61094542160851
 30
0.0
 11
-53.4520144961119
 21
19.61094542160851
 31
0.0
  0
LINE
  5
253
102
{ACAD_REACTORS
330
31F
330
320
102
}
330
71
100
AcDbEntity
  8
0
  6
Continuous
 62
     2
100
AcDbLine
 10
-54.84996754305098
 20
22.66475494541959
 30
0.0
 11
-56.24792058999029
 21
19.61094542160851
 31
0.0
  0
LINE
  5
254
102
{ACAD_REACTORS
330
31F
330
320
102
}
330
71
100
AcDbEntity
  8
0
  6
Continuous
 62
     2
100
AcDbLine
 10
-55.00741617973731
 20
19.61094542160851
 30
0.0
 11
-54.7959361262615
 21
20.15190596582639
 31
0.0
  0
LINE
  5
255
102
{ACAD_REACTORS
330
31F
330
320
102
}
330
71
100
AcDbEntity
  8
0
  6
Continuous
 62
     2
100
AcDbLine
 10
-54.52988057511649
 20
20.83246923113299
 30
0.0
 11
-54.22971533792409
 21
21.60028419711969
 31
0.0
  0
LINE
  5
256
102
{ACAD_REACTORS
330
31D
330
31E
102
}
330
71
100
AcDbEntity
  8
0
  6
Continuous
 62
     2
100
AcDbLine
 10
-53.06157049257888
 20
22.9701358977828
 30
0.0
 11
-53.06157049257888
 21
26.02394542159399
 31
0.0
  0
LINE
  5
257
102
{ACAD_REACTORS
330
31D
330
31E
102
}
330
71
100
AcDbEntity
  8
0
  6
Continuous
 62
     2
100
AcDbLine
 10
-51.82106608232598
 20
26.02394542159399
 30
0.0
 11
-51.82106608232598
 21
22.9701358977828
 31
0.0
  0
LINE
  5
258
102
{ACAD_REACTORS
330
31D
330
31E
102
}
330
71
100
AcDbEntity
  8
0
  6
Continuous
 62
     2
100
AcDbLine
 10
-53.06157049257888
 20
26.02394542159399
 30
0.0
 11
-51.82106608232598
 21
26.02394542159399
 31
0.0
  0
LINE
  5
259
102
{ACAD_REACTORS
330
31B
330
31C
102
}
330
71
100
AcDbEntity
  8
0
  6
Continuous
 62
     2
100
AcDbLine
 10
-49.60247165629519
 20
23.75786768307651
 30
0.0
 11
-48.9058807182297
 21
22.9701358977828
 31
0.0
  0
LINE
  5
25A
102
{ACAD_REACTORS
330
31B
330
31C
102
}
330
71
100
AcDbEntity
  8
0
  6
Continuous
 62
     2
100
AcDbLine
 10
-48.9058807182297
 20
22.9701358977828
 30
0.0
 11
-47.5031565004814
 21
22.9701358977828
 31
0.0
  0
LINE
  5
25B
102
{ACAD_REACTORS
330
31B
330
31C
102
}
330
71
100
AcDbEntity
  8
0
  6
Continuous
 62
     2
100
AcDbLine
 10
-48.9011095474217
 20
24.55099489155779
 30
0.0
 11
-47.5031565004814
 21
22.9701358977828
 31
0.0
  0
LINE
  5
25C
102
{ACAD_REACTORS
330
31B
330
31C
102
}
330
71
100
AcDbEntity
  8
0
  6
Continuous
 62
     2
100
AcDbLine
 10
-48.9011095474217
 20
24.55099489155779
 30
0.0
 11
-47.59857991665518
 21
26.02394542159399
 31
0.0
  0
LINE
  5
25D
102
{ACAD_REACTORS
330
31B
330
31C
102
}
330
71
100
AcDbEntity
  8
0
  6
Continuous
 62
     2
100
AcDbLine
 10
-49.60247165629519
 20
25.3441221000385
 30
0.0
 11
-49.0013041344024
 21
26.02394542159399
 31
0.0
  0
LINE
  5
25E
102
{ACAD_REACTORS
330
31B
330
31C
102
}
330
71
100
AcDbEntity
  8
0
  6
Continuous
 62
     2
100
AcDbLine
 10
-50.20363917818699
 20
26.02394542159399
 30
0.0
 11
-49.60247165629519
 21
25.3441221000385
 31
0.0
  0
LINE
  5
25F
102
{ACAD_REACTORS
330
31B
330
31C
102
}
330
71
100
AcDbEntity
  8
0
  6
Continuous
 62
     2
100
AcDbLine
 10
-50.20363917818699
 20
26.02394542159399
 30
0.0
 11
-51.60636339593629
 21
26.02394542159399
 31
0.0
  0
LINE
  5
260
102
{ACAD_REACTORS
330
311
330
312
102
}
330
71
100
AcDbEntity
  8
0
  6
Continuous
 62
     2
100
AcDbLine
 10
-49.50704824012249
 20
19.61094542160851
 30
0.0
 11
-48.31425553795478
 21
19.61094542160851
 31
0.0
  0
LINE
  5
261
102
{ACAD_REACTORS
330
311
330
312
102
}
330
71
100
AcDbEntity
  8
0
  6
Continuous
 62
     2
100
AcDbLine
 10
-48.31425553795478
 20
19.61094542160851
 30
0.0
 11
-48.31425553795478
 21
21.879489639296
 31
0.0
  0
LINE
  5
262
102
{ACAD_REACTORS
330
311
330
312
102
}
330
71
100
AcDbEntity
  8
0
  6
Continuous
 62
     2
100
AcDbLine
 10
-48.31425553795478
 20
21.879489639296
 30
0.0
 11
-47.5031565004814
 21
21.879489639296
 31
0.0
  0
LINE
  5
263
102
{ACAD_REACTORS
330
311
330
312
102
}
330
71
100
AcDbEntity
  8
0
  6
Continuous
 62
     2
100
AcDbLine
 10
-47.5031565004814
 20
21.879489639296
 30
0.0
 11
-47.5031565004814
 21
22.66475494541959
 31
0.0
  0
LINE
  5
264
102
{ACAD_REACTORS
330
311
330
312
102
}
330
71
100
AcDbEntity
  8
0
  6
Continuous
 62
     2
100
AcDbLine
 10
-50.88810201911008
 20
22.66475494541911
 30
0.0
 11
-47.5031565004814
 21
22.66475494541959
 31
0.0
  0
LINE
  5
265
102
{ACAD_REACTORS
330
311
330
312
102
}
330
71
100
AcDbEntity
  8
0
  6
Continuous
 62
     2
100
AcDbLine
 10
-49.50704824012249
 20
21.879489639296
 30
0.0
 11
-49.50704824012249
 21
19.61094542160851
 31
0.0
  0
LINE
  5
266
102
{ACAD_REACTORS
330
313
330
314
102
}
330
71
100
AcDbEntity
  8
0
  6
Continuous
 62
     2
100
AcDbLine
 10
-72.1365346756017
 20
21.58982557117301
 30
0.0
 11
-72.1365346756017
 21
22.17167697786809
 31
0.0
  0
LINE
  5
267
102
{ACAD_REACTORS
330
313
330
314
102
}
330
71
100
AcDbEntity
  8
0
  6
Continuous
 62
     2
100
AcDbLine
 10
-72.1365346756017
 20
24.38996017780431
 30
0.0
 11
-72.1365346756017
 21
24.9954954663111
 31
0.0
  0
LINE
  5
268
330
71
100
AcDbEntity
  8
1
  6
Continuous
 62
     6
100
AcDbLine
 10
-93.60635609099847
 20
12.3174454215922
 30
0.0
 11
-79.6511606177485
 21
12.31744542159208
 31
0.0
  0
LINE
  5
269
330
71
100
AcDbEntity
  8
1
  6
Continuous
 62
     6
100
AcDbLine
 10
-143.6063560909987
 20
12.3174454215922
 30
0.0
 11
-148.6511606177485
 21
12.3174454215922
 31
0.0
  0
LINE
  5
26A
330
71
100
AcDbEntity
  8
1
  6
Continuous
 62
     6
100
AcDbLine
 10
6.3936439090015
 20
12.3174454215922
 30
0.0
 11
49.89364390900151
 21
12.3174454215922
 31
0.0
  0
LINE
  5
26B
330
71
100
AcDbEntity
  8
1
  6
Continuous
 62
     6
100
AcDbLine
 10
-43.6063560909985
 20
12.3174454215922
 30
0.0
 11
-61.45116061774849
 21
12.3174454215922
 31
0.0
  0
LINE
  5
26C
330
71
100
AcDbEntity
  8
1
  6
Continuous
 62
     2
100
AcDbLine
 10
49.89364390900151
 20
12.3174454215922
 30
0.0
 11
54.8936439090005
 21
12.3174454215922
 31
0.0
  0
LINE
  5
26D
330
71
100
AcDbEntity
  8
1
  6
Continuous
 62
     2
100
AcDbLine
 10
49.89364390900151
 20
12.3174454215922
 30
0.0
 11
49.89364390900151
 21
7.31744542159208
 31
0.0
  0
LINE
  5
26E
330
71
100
AcDbEntity
  8
1
  6
Continuous
 62
     6
100
AcDbLine
 10
-79.6511606177485
 20
29.3174454215922
 30
0.0
 11
-43.25116061774858
 21
29.3174454215922
 31
0.0
  0
LINE
  5
26F
330
71
100
AcDbEntity
  8
1
  6
Continuous
 62
     2
100
AcDbLine
 10
54.8936439090005
 20
7.31744542159208
 30
0.0
 11
54.8936439090005
 21
12.3174454215922
 31
0.0
  0
LINE
  5
270
330
71
100
AcDbEntity
  8
1
  6
Continuous
 62
     2
100
AcDbLine
 10
54.8936439090005
 20
7.31744542159208
 30
0.0
 11
49.89364390900151
 21
7.31744542159208
 31
0.0
  0
LINE
  5
271
330
71
100
AcDbEntity
  8
1
  6
Continuous
 62
     2
100
AcDbLine
 10
49.89364390900151
 20
7.31744542159208
 30
0.0
 11
6.3936439090015
 21
7.31744542159208
 31
0.0
  0
LINE
  5
272
330
71
100
AcDbEntity
  8
1
  6
Continuous
 62
     6
100
AcDbLine
 10
49.8936439090032
 20
29.3174454215922
 30
0.0
 11
49.89364390900241
 21
62.31744542159231
 31
0.0
  0
LINE
  5
273
330
71
100
AcDbEntity
  8
1
  6
Continuous
 62
     2
100
AcDbLine
 10
54.8936439090005
 20
217.3174454215922
 30
0.0
 11
-93.60635609099847
 21
217.3174454215922
 31
0.0
  0
LINE
  5
274
330
71
100
AcDbEntity
  8
1
  6
Continuous
 62
     6
100
AcDbLine
 10
49.8936439090005
 20
197.3174454215922
 30
0.0
 11
-237.1063560909976
 21
197.3174454215922
 31
0.0
  0
LINE
  5
275
330
71
100
AcDbEntity
  8
1
  6
Continuous
 62
     2
100
AcDbLine
 10
49.89364390900241
 20
62.31744542159231
 30
0.0
 11
54.8936439090005
 21
62.31744542159231
 31
0.0
  0
LINE
  5
276
330
71
100
AcDbEntity
  8
1
  6
Continuous
 62
     6
100
AcDbLine
 10
49.89364390900241
 20
62.31744542159231
 30
0.0
 11
49.89364390900191
 21
112.3174454215921
 31
0.0
  0
LINE
  5
277
330
71
100
AcDbEntity
  8
1
  6
Continuous
 62
     2
100
AcDbLine
 10
54.8936439090005
 20
62.31744542159231
 30
0.0
 11
54.8936439090005
 21
112.3174454215921
 31
0.0
  0
LINE
  5
278
330
71
100
AcDbEntity
  8
1
  6
Continuous
 62
     2
100
AcDbLine
 10
49.89364390900191
 20
112.3174454215921
 30
0.0
 11
54.8936439090005
 21
112.3174454215921
 31
0.0
  0
LINE
  5
279
330
71
100
AcDbEntity
  8
1
  6
Continuous
 62
     6
100
AcDbLine
 10
49.89364390900191
 20
112.3174454215921
 30
0.0
 11
49.8936439090007
 21
162.3174454215922
 31
0.0
  0
LINE
  5
27A
330
71
100
AcDbEntity
  8
1
  6
Continuous
 62
     2
100
AcDbLine
 10
54.8936439090005
 20
112.3174454215921
 30
0.0
 11
54.8936439090005
 21
162.3174454215922
 31
0.0
  0
LINE
  5
27B
330
71
100
AcDbEntity
  8
1
  6
Continuous
 62
     2
100
AcDbLine
 10
49.8936439090007
 20
162.3174454215922
 30
0.0
 11
54.8936439090005
 21
162.3174454215922
 31
0.0
  0
LINE
  5
27C
330
71
100
AcDbEntity
  8
1
  6
Continuous
 62
     6
100
AcDbLine
 10
49.8936439090007
 20
162.3174454215922
 30
0.0
 11
49.8936439090005
 21
197.3174454215922
 31
0.0
  0
LINE
  5
27D
330
71
100
AcDbEntity
  8
1
  6
Continuous
 62
     2
100
AcDbLine
 10
54.8936439090005
 20
162.3174454215922
 30
0.0
 11
54.8936439090005
 21
217.3174454215922
 31
0.0
  0
LINE
  5
27E
330
71
100
AcDbEntity
  8
1
  6
Continuous
 62
     2
100
AcDbLine
 10
54.8936439090005
 20
12.3174454215922
 30
0.0
 11
54.8936439090005
 21
62.31744542159231
 31
0.0
  0
LINE
  5
27F
330
71
100
AcDbEntity
  8
1
  6
Continuous
 62
     2
100
AcDbLine
 10
-93.60635609099847
 20
217.3174454215922
 30
0.0
 11
-242.1063560909976
 21
217.3174454215922
 31
0.0
  0
LINE
  5
280
330
71
100
AcDbEntity
  8
1
  6
Continuous
 62
     2
100
AcDbLine
 10
-93.60635609099847
 20
217.3174454215922
 30
0.0
 11
-93.60635609099847
 21
208.1087535768909
 31
0.0
  0
LINE
  5
281
330
71
100
AcDbEntity
  8
1
  6
Continuous
 62
     2
100
AcDbLine
 10
-242.1063560909976
 20
7.31744542159208
 30
0.0
 11
-237.1063560909966
 21
7.31744542159208
 31
0.0
  0
LINE
  5
282
330
71
100
AcDbEntity
  8
1
  6
Continuous
 62
     2
100
AcDbLine
 10
-242.1063560909976
 20
217.3174454215922
 30
0.0
 11
-242.1063560909976
 21
162.3174454215922
 31
0.0
  0
LINE
  5
283
330
71
100
AcDbEntity
  8
1
  6
Continuous
 62
     6
100
AcDbLine
 10
-237.1063560909976
 20
197.3174454215922
 30
0.0
 11
-237.1063560909975
 21
162.3174454215922
 31
0.0
  0
LINE
  5
284
330
71
100
AcDbEntity
  8
1
  6
Continuous
 62
     2
100
AcDbLine
 10
-242.1063560909976
 20
162.3174454215922
 30
0.0
 11
-237.1063560909975
 21
162.3174454215922
 31
0.0
  0
LINE
  5
285
330
71
100
AcDbEntity
  8
1
  6
Continuous
 62
     2
100
AcDbLine
 10
-242.1063560909976
 20
162.3174454215922
 30
0.0
 11
-242.1063560909976
 21
112.3174454215921
 31
0.0
  0
LINE
  5
286
330
71
100
AcDbEntity
  8
1
  6
Continuous
 62
     6
100
AcDbLine
 10
-237.1063560909975
 20
162.3174454215922
 30
0.0
 11
-237.106356090997
 21
112.3174454215921
 31
0.0
  0
LINE
  5
287
330
71
100
AcDbEntity
  8
1
  6
Continuous
 62
     2
100
AcDbLine
 10
-242.1063560909976
 20
112.3174454215921
 30
0.0
 11
-237.106356090997
 21
112.3174454215921
 31
0.0
  0
LINE
  5
288
330
71
100
AcDbEntity
  8
1
  6
Continuous
 62
     2
100
AcDbLine
 10
-242.1063560909976
 20
112.3174454215921
 30
0.0
 11
-242.1063560909976
 21
62.31744542159231
 31
0.0
  0
LINE
  5
289
330
71
100
AcDbEntity
  8
1
  6
Continuous
 62
     6
100
AcDbLine
 10
-237.106356090997
 20
112.3174454215921
 30
0.0
 11
-237.1063560909968
 21
62.31744542159231
 31
0.0
  0
LINE
  5
28A
330
71
100
AcDbEntity
  8
1
  6
Continuous
 62
     2
100
AcDbLine
 10
-242.1063560909976
 20
62.31744542159231
 30
0.0
 11
-237.1063560909968
 21
62.31744542159231
 31
0.0
  0
LINE
  5
28B
330
71
100
AcDbEntity
  8
1
  6
Continuous
 62
     2
100
AcDbLine
 10
-242.1063560909976
 20
62.31744542159231
 30
0.0
 11
-242.1063560909976
 21
12.3174454215922
 31
0.0
  0
LINE
  5
28C
330
71
100
AcDbEntity
  8
1
  6
Continuous
 62
     6
100
AcDbLine
 10
-237.1063560909968
 20
62.31744542159231
 30
0.0
 11
-237.1063560909966
 21
12.3174454215922
 31
0.0
  0
LINE
  5
28D
330
71
100
AcDbEntity
  8
1
  6
Continuous
 62
     2
100
AcDbLine
 10
-193.6063560909985
 20
7.31744542159208
 30
0.0
 11
-193.6063560909985
 21
12.3174454215922
 31
0.0
  0
LINE
  5
28E
330
71
100
AcDbEntity
  8
1
  6
Continuous
 62
     2
100
AcDbLine
 10
-193.6063560909985
 20
7.31744542159208
 30
0.0
 11
-143.6063560909987
 21
7.31744542159208
 31
0.0
  0
LINE
  5
28F
330
71
100
AcDbEntity
  8
1
  6
Continuous
 62
     2
100
AcDbLine
 10
-143.6063560909987
 20
7.31744542159208
 30
0.0
 11
-143.6063560909987
 21
12.3174454215922
 31
0.0
  0
LINE
  5
290
330
71
100
AcDbEntity
  8
1
  6
Continuous
 62
     2
100
AcDbLine
 10
-143.6063560909987
 20
7.31744542159208
 30
0.0
 11
-93.60635609099847
 21
7.31744542159208
 31
0.0
  0
LINE
  5
291
330
71
100
AcDbEntity
  8
1
  6
Continuous
 62
     2
100
AcDbLine
 10
-93.60635609099847
 20
7.31744542159208
 30
0.0
 11
-93.60635609099847
 21
12.3174454215922
 31
0.0
  0
LINE
  5
292
330
71
100
AcDbEntity
  8
1
  6
Continuous
 62
     2
100
AcDbLine
 10
-93.60635609099847
 20
7.31744542159208
 30
0.0
 11
-43.6063560909985
 21
7.31744542159208
 31
0.0
  0
LINE
  5
293
330
71
100
AcDbEntity
  8
1
  6
Continuous
 62
     2
100
AcDbLine
 10
-43.6063560909985
 20
7.31744542159208
 30
0.0
 11
-43.6063560909985
 21
12.3174454215922
 31
0.0
  0
LINE
  5
294
330
71
100
AcDbEntity
  8
1
  6
Continuous
 62
     2
100
AcDbLine
 10
6.3936439090015
 20
7.31744542159208
 30
0.0
 11
6.3936439090015
 21
12.3174454215922
 31
0.0
  0
LINE
  5
295
330
71
100
AcDbEntity
  8
1
  6
Continuous
 62
     2
100
AcDbLine
 10
6.3936439090015
 20
7.31744542159208
 30
0.0
 11
-43.6063560909985
 21
7.31744542159208
 31
0.0
  0
LINE
  5
296
330
71
100
AcDbEntity
  8
1
  6
Continuous
 62
     2
100
AcDbLine
 10
-237.1063560909966
 20
12.3174454215922
 30
0.0
 11
-237.1063560909966
 21
7.31744542159208
 31
0.0
  0
LINE
  5
297
330
71
100
AcDbEntity
  8
1
  6
Continuous
 62
     2
100
AcDbLine
 10
-237.1063560909966
 20
7.31744542159208
 30
0.0
 11
-193.6063560909985
 21
7.31744542159208
 31
0.0
  0
LINE
  5
298
330
71
100
AcDbEntity
  8
1
  6
Continuous
 62
     2
100
AcDbLine
 10
-237.1063560909966
 20
12.3174454215922
 30
0.0
 11
-242.1063560909976
 21
12.3174454215922
 31
0.0
  0
LINE
  5
299
330
71
100
AcDbEntity
  8
1
  6
Continuous
 62
     2
100
AcDbLine
 10
-242.1063560909976
 20
12.3174454215922
 30
0.0
 11
-242.1063560909976
 21
7.31744542159208
 31
0.0
  0
LINE
  5
29A
330
71
100
AcDbEntity
  8
1
  6
Continuous
 62
     6
100
AcDbLine
 10
49.89364390900151
 20
12.3174454215922
 30
0.0
 11
49.89364390900281
 21
20.8174454215922
 31
0.0
  0
LINE
  5
29B
330
71
100
AcDbEntity
  8
1
  6
Continuous
 62
     6
100
AcDbLine
 10
-43.25116061774858
 20
12.31744542159208
 30
0.0
 11
6.3936439090015
 21
12.3174454215922
 31
0.0
  0
LINE
  5
29C
330
71
100
AcDbEntity
  8
1
  6
Continuous
 62
     6
100
AcDbLine
 10
-195.9063560909987
 20
12.31744542159208
 30
0.0
 11
-193.6063560909985
 21
12.3174454215922
 31
0.0
  0
LINE
  5
29D
330
71
100
AcDbEntity
  8
1
  6
Continuous
 62
     6
100
AcDbLine
 10
-93.60635609099847
 20
12.3174454215922
 30
0.0
 11
-143.6063560909987
 21
12.3174454215922
 31
0.0
  0
LINE
  5
29E
330
71
100
AcDbEntity
  8
1
  6
Continuous
 62
     7
100
AcDbLine
 10
-79.6511606177485
 20
29.3174454215922
 30
0.0
 11
-79.6511606177485
 21
16.56744542159208
 31
0.0
  0
LINE
  5
29F
330
71
100
AcDbEntity
  8
1
  6
Continuous
 62
     7
100
AcDbLine
 10
-43.25116061774858
 20
29.3174454215922
 30
0.0
 11
-43.25116061774858
 21
16.5674454215922
 31
0.0
  0
LINE
  5
2A0
330
71
100
AcDbEntity
  8
1
  6
Continuous
 62
     6
100
AcDbLine
 10
-195.9063560909987
 20
12.31744542159208
 30
0.0
 11
-202.1063560909967
 21
12.3174454215922
 31
0.0
  0
LINE
  5
2A1
330
71
100
AcDbEntity
  8
1
  6
Continuous
 62
     6
100
AcDbLine
 10
-43.25116061774858
 20
12.31744542159208
 30
0.0
 11
-43.6063560909985
 21
12.3174454215922
 31
0.0
  0
LINE
  5
2A2
330
71
100
AcDbEntity
  8
1
  6
Continuous
 62
     6
100
AcDbLine
 10
49.8936439090032
 20
29.3174454215922
 30
0.0
 11
49.89364390900281
 21
20.8174454215922
 31
0.0
  0
LINE
  5
2A3
330
71
100
AcDbEntity
  8
1
  6
Continuous
 62
     6
100
AcDbLine
 10
-202.1063560909967
 20
12.3174454215922
 30
0.0
 11
-237.1063560909966
 21
12.3174454215922
 31
0.0
  0
LINE
  5
2A4
330
71
100
AcDbEntity
  8
1
  6
Continuous
 62
     2
100
AcDbLine
 10
-75.4145057311859
 20
34.69244542159211
 30
0.0
 11
-70.4145057311859
 21
35.94244542159211
 31
0.0
  0
LINE
  5
2A5
330
71
100
AcDbEntity
  8
1
  6
Continuous
 62
     2
100
AcDbLine
 10
-75.4145057311859
 20
32.19244542159211
 30
0.0
 11
-75.4145057311859
 21
34.69244542159211
 31
0.0
  0
LINE
  5
2A6
330
71
100
AcDbEntity
  8
1
  6
Continuous
 62
     2
100
AcDbLine
 10
-70.4145057311859
 20
30.94244542159211
 30
0.0
 11
-75.4145057311859
 21
32.19244542159211
 31
0.0
  0
LINE
  5
2A7
330
71
100
AcDbEntity
  8
1
  6
Continuous
 62
     2
100
AcDbLine
 10
-70.4145057311859
 20
35.94244542159211
 30
0.0
 11
-70.4145057311859
 21
30.94244542159211
 31
0.0
  0
LINE
  5
2A8
330
71
100
AcDbEntity
  8
1
  6
Continuous
 62
     7
100
AcDbLine
 10
-79.6511606177485
 20
16.56744542159208
 30
0.0
 11
-61.45116061774849
 21
16.5674454215922
 31
0.0
  0
LINE
  5
2A9
330
71
100
AcDbEntity
  8
1
  6
Continuous
 62
     7
100
AcDbLine
 10
-79.6511606177485
 20
16.56744542159208
 30
0.0
 11
-79.6511606177485
 21
12.31744542159208
 31
0.0
  0
LINE
  5
2AA
330
71
100
AcDbEntity
  8
1
  6
Continuous
 62
     7
100
AcDbLine
 10
-43.25116061774858
 20
16.5674454215922
 30
0.0
 11
-43.25116061774858
 21
12.31744542159208
 31
0.0
  0
LINE
  5
2AB
330
71
100
AcDbEntity
  8
1
  6
Continuous
 62
     7
100
AcDbLine
 10
-61.45116061774849
 20
16.5674454215922
 30
0.0
 11
-61.45116061774849
 21
12.3174454215922
 31
0.0
  0
LINE
  5
2AC
330
71
100
AcDbEntity
  8
1
  6
Continuous
 62
     6
100
AcDbLine
 10
-61.45116061774849
 20
12.3174454215922
 30
0.0
 11
-79.6511606177485
 21
12.31744542159208
 31
0.0
  0
LINE
  5
2AD
330
71
100
AcDbEntity
  8
1
  6
Continuous
 62
     7
100
AcDbLine
 10
-61.45116061774849
 20
16.5674454215922
 30
0.0
 11
-43.25116061774858
 21
16.5674454215922
 31
0.0
  0
LINE
  5
2AE
330
71
100
AcDbEntity
  8
1
  6
Continuous
 62
     6
100
AcDbLine
 10
-79.6511606177485
 20
37.8174454215922
 30
0.0
 11
49.8936439090032
 21
37.8174454215922
 31
0.0
  0
ARC
  5
2AF
102
{ACAD_REACTORS
330
317
330
318
102
}
330
71
100
AcDbEntity
  8
0
  6
Continuous
 62
     2
100
AcDbCircle
 10
-64.2595126187885
 20
21.13785018351379
 30
0.0
 40
0.7717997786796947
100
AcDbArc
 50
321.8795802028417
 51
38.12041979715349
  0
ARC
  5
2B0
102
{ACAD_REACTORS
330
317
330
318
102
}
330
71
100
AcDbEntity
  8
0
  6
Continuous
 62
     2
100
AcDbCircle
 10
-64.0597725824421
 20
20.98111900539379
 30
0.0
 40
0.5179085730137332
100
AcDbArc
 50
218.1204197971929
 51
321.8795802028013
  0
ARC
  5
2B1
102
{ACAD_REACTORS
330
317
330
318
102
}
330
71
100
AcDbEntity
  8
0
  6
Continuous
 62
     2
100
AcDbCircle
 10
-63.86003254609599
 20
21.13785018351379
 30
0.0
 40
0.771799778679471
100
AcDbArc
 50
141.8795802028364
 51
218.1204197971684
  0
ARC
  5
2B2
102
{ACAD_REACTORS
330
317
330
318
102
}
330
71
100
AcDbEntity
  8
0
  6
Continuous
 62
     2
100
AcDbCircle
 10
-64.0597725824421
 20
21.2945813616343
 30
0.0
 40
0.5179085730133021
100
AcDbArc
 50
38.12041979714734
 51
141.8795802028585
  0
ARC
  5
2B3
102
{ACAD_REACTORS
330
30F
330
310
102
}
330
71
100
AcDbEntity
  8
0
  6
Continuous
 62
     2
100
AcDbCircle
 10
-67.12178671800598
 20
19.72738381810561
 30
0.0
 40
2.227384008973474
100
AcDbArc
 50
58.06909105004068
 51
71.55192388186722
  0
ARC
  5
2B4
102
{ACAD_REACTORS
330
30F
330
310
102
}
330
71
100
AcDbEntity
  8
0
  6
Continuous
 62
     2
100
AcDbCircle
 10
-66.8600590170472
 20
21.34292161285279
 30
0.0
 40
0.5115800601948779
100
AcDbArc
 50
113.3722778881992
 51
151.4785267423044
  0
ARC
  5
2B5
102
{ACAD_REACTORS
330
30F
330
310
102
}
330
71
100
AcDbEntity
  8
0
  6
Continuous
 62
     2
100
AcDbCircle
 10
-66.4827017589669
 20
21.13785018351379
 30
0.0
 40
0.9410597353332545
100
AcDbArc
 50
151.4785267422669
 51
208.5214732577059
  0
ARC
  5
2B6
102
{ACAD_REACTORS
330
30F
330
310
102
}
330
71
100
AcDbEntity
  8
0
  6
Continuous
 62
     2
100
AcDbCircle
 10
-67.2796595930989
 20
24.45053112877019
 30
0.0
 40
4.852596863498134
100
AcDbArc
 50
275.1581447696249
 51
285.9799912583529
  0
ARC
  5
2B7
102
{ACAD_REACTORS
330
30F
330
310
102
}
330
71
100
AcDbEntity
  8
0
  6
Continuous
 62
     2
100
AcDbCircle
 10
-66.990803498363
 20
21.25064054554861
 30
0.0
 40
1.639695123939389
100
AcDbArc
 50
195.0618917770898
 51
275.1581447696395
  0
ARC
  5
2B8
102
{ACAD_REACTORS
330
30F
330
310
102
}
330
71
100
AcDbEntity
  8
0
  6
Continuous
 62
     2
100
AcDbCircle
 10
-67.4099313418258
 20
21.13785018351379
 30
0.0
 40
1.205656168390943
100
AcDbArc
 50
164.9381082228766
 51
195.061891777095
  0
ARC
  5
2B9
102
{ACAD_REACTORS
330
30F
330
310
102
}
330
71
100
AcDbEntity
  8
0
  6
Continuous
 62
     2
100
AcDbCircle
 10
-66.990803498363
 20
21.02505982147889
 30
0.0
 40
1.639695123940503
100
AcDbArc
 50
84.84185523036234
 51
164.9381082228866
  0
ARC
  5
2BA
102
{ACAD_REACTORS
330
313
330
314
102
}
330
71
100
AcDbEntity
  8
0
  6
Continuous
 62
     2
100
AcDbCircle
 10
-71.8208177525249
 20
22.17167697786809
 30
0.0
 40
0.315716923076536
100
AcDbArc
 50
115.3740086783516
 51
180.0
  0
ARC
  5
2BB
102
{ACAD_REACTORS
330
313
330
314
102
}
330
71
100
AcDbEntity
  8
0
  6
Continuous
 62
     2
100
AcDbCircle
 10
-71.8208177525249
 20
24.38996017780431
 30
0.0
 40
0.315716923076792
100
AcDbArc
 50
180.0
 51
244.6259913216482
  0
ARC
  5
2BC
102
{ACAD_REACTORS
330
313
330
314
102
}
330
71
100
AcDbEntity
  8
0
  6
Continuous
 62
     2
100
AcDbCircle
 10
-71.81520161721488
 20
23.292660518742
 30
0.0
 40
2.018561131933266
100
AcDbArc
 50
269.8110329575858
 51
90.18896704241416
  0
ARC
  5
2BD
102
{ACAD_REACTORS
330
313
330
314
102
}
330
71
100
AcDbEntity
  8
0
  6
Continuous
 62
     2
100
AcDbCircle
 10
-71.8208177525249
 20
21.58982557117301
 30
0.0
 40
0.315716923076792
100
AcDbArc
 50
180.0
 51
269.8110329574542
  0
ARC
  5
2BE
102
{ACAD_REACTORS
330
311
330
312
102
}
330
71
100
AcDbEntity
  8
0
  6
Continuous
 62
     2
100
AcDbCircle
 10
-50.75735753779429
 20
21.34292161285279
 30
0.0
 40
0.5115800601944176
100
AcDbArc
 50
109.3371432194852
 51
151.4785267424228
  0
ARC
  5
2BF
102
{ACAD_REACTORS
330
311
330
312
102
}
330
71
100
AcDbEntity
  8
0
  6
Continuous
 62
     2
100
AcDbCircle
 10
-50.75735753779429
 20
20.9327787541753
 30
0.0
 40
0.5115800601960199
100
AcDbArc
 50
208.5214732576863
 51
246.6277221118438
  0
ARC
  5
2C0
102
{ACAD_REACTORS
330
311
330
312
102
}
330
71
100
AcDbEntity
  8
0
  6
Continuous
 62
     2
100
AcDbCircle
 10
-51.30722986257169
 20
21.13785018351379
 30
0.0
 40
1.205656168393001
100
AcDbArc
 50
164.938108222903
 51
195.0618917770958
  0
ARC
  5
2C1
102
{ACAD_REACTORS
330
311
330
312
102
}
330
71
100
AcDbEntity
  8
0
  6
Continuous
 62
     2
100
AcDbCircle
 10
-50.88810201911008
 20
21.02505982147889
 30
0.0
 40
1.639695123940218
100
AcDbArc
 50
90.0
 51
164.9381082228951
  0
ARC
  5
2C2
102
{ACAD_REACTORS
330
315
330
316
102
}
330
71
100
AcDbEntity
  8
0
  6
Continuous
 62
     2
100
AcDbCircle
 10
-60.3150971118138
 20
24.49704065968811
 30
0.0
 40
1.526904761905879
100
AcDbArc
 50
90.0
 51
270.0
  0
ARC
  5
2C3
102
{ACAD_REACTORS
330
319
330
31A
102
}
330
71
100
AcDbEntity
  8
0
  6
Continuous
 62
     2
100
AcDbCircle
 10
-67.05778785703959
 20
25.0079757514828
 30
0.0
 40
0.3528638246711111
100
AcDbArc
 50
270.0
 51
90.0
  0
ARC
  5
2C4
102
{ACAD_REACTORS
330
313
330
314
102
}
330
71
100
AcDbEntity
  8
0
  6
Continuous
 62
     2
100
AcDbCircle
 10
-74.3963664390566
 20
24.9956729429592
 30
0.0
 40
0.3157169230762022
100
AcDbArc
 50
90.0
 51
180.0
  0
ARC
  5
2C5
102
{ACAD_REACTORS
330
313
330
314
102
}
330
71
100
AcDbEntity
  8
0
  6
Continuous
 62
     2
100
AcDbCircle
 10
-72.397948730472
 20
23.2808185778365
 30
0.0
 40
0.9118975235576114
100
AcDbArc
 50
115.1944106485283
 51
244.8055893514877
  0
ARC
  5
2C6
102
{ACAD_REACTORS
330
313
330
314
102
}
330
71
100
AcDbEntity
  8
0
  6
Continuous
 62
     2
100
AcDbCircle
 10
-72.92053317804698
 20
22.16998883177371
 30
0.0
 40
0.315716923076593
100
AcDbArc
 50
0.0
 51
64.80558935146027
  0
ARC
  5
2C7
102
{ACAD_REACTORS
330
313
330
314
102
}
330
71
100
AcDbEntity
  8
0
  6
Continuous
 62
     2
100
AcDbCircle
 10
-74.9902611158031
 20
20.03519003699179
 30
0.0
 40
0.4242446153828041
100
AcDbArc
 50
180.0
 51
270.0
  0
ARC
  5
2C8
102
{ACAD_REACTORS
330
315
330
316
102
}
330
71
100
AcDbEntity
  8
0
  6
Continuous
 62
     2
100
AcDbCircle
 10
-60.0988251016486
 20
24.65377183780859
 30
0.0
 40
0.517908573013521
100
AcDbArc
 50
38.12041979714382
 51
141.8795802028489
  0
ARC
  5
2C9
102
{ACAD_REACTORS
330
315
330
316
102
}
330
71
100
AcDbEntity
  8
0
  6
Continuous
 62
     2
100
AcDbCircle
 10
-59.8990850653023
 20
24.49704065968811
 30
0.0
 40
0.7717997786796724
100
AcDbArc
 50
141.8795802028404
 51
218.120419797156
  0
ARC
  5
2CA
102
{ACAD_REACTORS
330
317
330
318
102
}
330
71
100
AcDbEntity
  8
0
  6
Continuous
 62
     2
100
AcDbCircle
 10
-64.0597725824421
 20
21.6764251938171
 30
0.0
 40
2.065479772208515
100
AcDbArc
 50
242.4518518243403
 51
297.548148175687
  0
ARC
  5
2CB
102
{ACAD_REACTORS
330
317
330
318
102
}
330
71
100
AcDbEntity
  8
0
  6
Continuous
 62
     2
100
AcDbCircle
 10
-64.0597725824421
 20
20.599275173211
 30
0.0
 40
2.065479772208564
100
AcDbArc
 50
62.45185182430632
 51
117.5481481756664
  0
ARC
  5
2CC
102
{ACAD_REACTORS
330
317
330
318
102
}
330
71
100
AcDbEntity
  8
0
  6
Continuous
 62
     2
100
AcDbCircle
 10
-64.34071247427539
 20
21.13785018351379
 30
0.0
 40
1.45803408365149
100
AcDbArc
 50
117.5481481756624
 51
242.4518518243376
  0
ARC
  5
2CD
102
{ACAD_REACTORS
330
317
330
318
102
}
330
71
100
AcDbEntity
  8
0
  6
Continuous
 62
     2
100
AcDbCircle
 10
-63.7788326906088
 20
21.13785018351379
 30
0.0
 40
1.458034083652009
100
AcDbArc
 50
297.5481481757013
 51
62.45185182429871
  0
ARC
  5
2CE
102
{ACAD_REACTORS
330
315
330
316
102
}
330
71
100
AcDbEntity
  8
0
  6
Continuous
 62
     2
100
AcDbCircle
 10
-60.0988251016486
 20
24.34030948156769
 30
0.0
 40
0.5179085730134372
100
AcDbArc
 50
218.1204197971511
 51
321.8795802028562
  0
ARC
  5
2CF
102
{ACAD_REACTORS
330
315
330
316
102
}
330
71
100
AcDbEntity
  8
0
  6
Continuous
 62
     2
100
AcDbCircle
 10
-60.29856513799479
 20
24.49704065968811
 30
0.0
 40
0.7717997786796351
100
AcDbArc
 50
321.879580202844
 51
38.12041979715956
  0
ARC
  5
2D0
102
{ACAD_REACTORS
330
313
330
314
102
}
330
71
100
AcDbEntity
  8
0
  6
Continuous
 62
     2
100
AcDbCircle
 10
-69.51694902508629
 20
20.03519003699179
 30
0.0
 40
0.4242446153832802
100
AcDbArc
 50
270.0
 51
0.0
  0
ARC
  5
2D1
102
{ACAD_REACTORS
330
313
330
314
102
}
330
71
100
AcDbEntity
  8
0
  6
Continuous
 62
     2
100
AcDbCircle
 10
-69.51694902508629
 20
25.599700806192
 30
0.0
 40
0.4242446153838841
100
AcDbArc
 50
0.0
 51
90.0
  0
ARC
  5
2D2
102
{ACAD_REACTORS
330
313
330
314
102
}
330
71
100
AcDbEntity
  8
0
  6
Continuous
 62
     2
100
AcDbCircle
 10
-74.9902611158031
 20
25.599700806192
 30
0.0
 40
0.4242446153837989
100
AcDbArc
 50
90.0
 51
180.0
  0
ARC
  5
2D3
102
{ACAD_REACTORS
330
313
330
314
102
}
330
71
100
AcDbEntity
  8
0
  6
Continuous
 62
     2
100
AcDbCircle
 10
-72.92053317804698
 20
20.6392179002421
 30
0.0
 40
0.3157169230767032
100
AcDbArc
 50
270.0
 51
0.0
  0
ARC
  5
2D4
102
{ACAD_REACTORS
330
313
330
314
102
}
330
71
100
AcDbEntity
  8
0
  6
Continuous
 62
     2
100
AcDbCircle
 10
-72.92053317804698
 20
24.39164832389869
 30
0.0
 40
0.3157169230761203
100
AcDbArc
 50
295.1944106485397
 51
0.0
  0
ARC
  5
2D5
102
{ACAD_REACTORS
330
313
330
314
102
}
330
71
100
AcDbEntity
  8
0
  6
Continuous
 62
     2
100
AcDbCircle
 10
-72.92053317804698
 20
24.9956729429592
 30
0.0
 40
0.315716923076593
100
AcDbArc
 50
0.0
 51
90.0
  0
ARC
  5
2D6
102
{ACAD_REACTORS
330
313
330
314
102
}
330
71
100
AcDbEntity
  8
0
  6
Continuous
 62
     2
100
AcDbCircle
 10
-74.3963664390566
 20
20.6392179002421
 30
0.0
 40
0.3157169230756836
100
AcDbArc
 50
180.0
 51
270.0
  0
ARC
  5
2D7
102
{ACAD_REACTORS
330
319
330
31A
102
}
330
71
100
AcDbEntity
  8
0
  6
Continuous
 62
     2
100
AcDbCircle
 10
-66.6163153308012
 20
24.96857978026031
 30
0.0
 40
1.055365641333701
100
AcDbArc
 50
270.0
 51
90.0
  0
ARC
  5
2D8
102
{ACAD_REACTORS
330
311
330
312
102
}
330
71
100
AcDbEntity
  8
0
  6
Continuous
 62
     2
100
AcDbCircle
 10
-50.88810201911008
 20
21.25064054554861
 30
0.0
 40
1.639695123940448
100
AcDbArc
 50
195.0618917771012
 51
275.1581447696762
  0
ARC
  5
2D9
102
{ACAD_REACTORS
330
311
330
312
102
}
330
71
100
AcDbEntity
  8
0
  6
Continuous
 62
     2
100
AcDbCircle
 10
-51.1769581138459
 20
24.45053112877019
 30
0.0
 40
4.852596863498825
100
AcDbArc
 50
275.1581447696364
 51
285.9799912583387
  0
ARC
  5
2DA
102
{ACAD_REACTORS
330
311
330
312
102
}
330
71
100
AcDbEntity
  8
0
  6
Continuous
 62
     2
100
AcDbCircle
 10
-51.01908523875309
 20
22.54831654892189
 30
0.0
 40
2.227384008972746
100
AcDbArc
 50
288.4480761181335
 51
301.9309089499397
  0
ARC
  5
2DB
102
{ACAD_REACTORS
330
311
330
312
102
}
330
71
100
AcDbEntity
  8
0
  6
Continuous
 62
     2
100
AcDbCircle
 10
-50.60091750509119
 20
21.2947707728853
 30
0.0
 40
0.9059297849852797
100
AcDbArc
 50
246.6277221118177
 51
288.4480761180817
  0
ARC
  5
2DC
102
{ACAD_REACTORS
330
311
330
312
102
}
330
71
100
AcDbEntity
  8
0
  6
Continuous
 62
     2
100
AcDbCircle
 10
-50.3800002797129
 20
21.13785018351379
 30
0.0
 40
0.9410597353348907
100
AcDbArc
 50
151.4785267423626
 51
208.5214732576695
  0
ARC
  5
2DD
102
{ACAD_REACTORS
330
311
330
312
102
}
330
71
100
AcDbEntity
  8
0
  6
Continuous
 62
     2
100
AcDbCircle
 10
-50.61068753969059
 20
20.9249666324699
 30
0.0
 40
0.9545230068261006
100
AcDbArc
 50
90.0
 51
109.3371432194319
  0
ARC
  5
2DE
102
{ACAD_REACTORS
330
313
330
314
102
}
330
71
100
AcDbEntity
  8
0
  6
Continuous
 62
     2
100
AcDbCircle
 10
-71.8208177525249
 20
24.9954954663111
 30
0.0
 40
0.3157169230760711
100
AcDbArc
 50
90.18896704254594
 51
180.0
  0
ARC
  5
2DF
102
{ACAD_REACTORS
330
313
330
314
102
}
330
71
100
AcDbEntity
  8
0
  6
Continuous
 62
     2
100
AcDbCircle
 10
-72.34686045061278
 20
23.2808185778365
 30
0.0
 40
0.9118481501444557
100
AcDbArc
 50
295.3740086781766
 51
64.62599132180736
  0
ARC
  5
2E0
102
{ACAD_REACTORS
330
30F
330
310
102
}
330
71
100
AcDbEntity
  8
0
  6
Continuous
 62
     2
100
AcDbCircle
 10
-67.12178671800598
 20
22.54831654892249
 30
0.0
 40
2.227384008972737
100
AcDbArc
 50
288.4480761181328
 51
301.9309089499592
  0
ARC
  5
2E1
102
{ACAD_REACTORS
330
30F
330
310
102
}
330
71
100
AcDbEntity
  8
0
  6
Continuous
 62
     2
100
AcDbCircle
 10
-66.70361898434518
 20
21.2947707728853
 30
0.0
 40
0.905929784984916
100
AcDbArc
 50
246.6277221118709
 51
288.4480761181586
  0
ARC
  5
2E2
102
{ACAD_REACTORS
330
30F
330
310
102
}
330
71
100
AcDbEntity
  8
0
  6
Continuous
 62
     2
100
AcDbCircle
 10
-66.8600590170472
 20
20.9327787541753
 30
0.0
 40
0.5115800601948034
100
AcDbArc
 50
208.5214732576956
 51
246.627722111827
  0
ARC
  5
2E3
102
{ACAD_REACTORS
330
30F
330
310
102
}
330
71
100
AcDbEntity
  8
0
  6
Continuous
 62
     2
100
AcDbCircle
 10
-66.70361898434518
 20
20.9809295941422
 30
0.0
 40
0.9059297849853228
100
AcDbArc
 50
71.55192388185348
 51
113.372277888129
  0
ARC
  5
2E4
102
{ACAD_REACTORS
330
30F
330
310
102
}
330
71
100
AcDbEntity
  8
0
  6
Continuous
 62
     2
100
AcDbCircle
 10
-67.2796595930989
 20
17.8251692382579
 30
0.0
 40
4.852596863498064
100
AcDbArc
 50
74.02000874164737
 51
84.84185523037506
  0
CIRCLE
  5
2E5
102
{ACAD_REACTORS
330
313
330
314
102
}
330
71
100
AcDbEntity
  8
0
  6
Continuous
 62
     2
100
AcDbCircle
 10
-72.37067546528559
 20
23.2808185778365
 30
0.0
 40
0.4709789327785074
  0
CIRCLE
  5
2E6
330
71
100
AcDbEntity
  8
1
  6
Continuous
 62
     2
100
AcDbCircle
 10
-66.9145057311859
 20
33.44244542159211
 30
0.0
 40
1.249999999999915
  0
CIRCLE
  5
2E7
330
71
100
AcDbEntity
  8
1
  6
Continuous
 62
     2
100
AcDbCircle
 10
-66.9145057311859
 20
33.44244542159211
 30
0.0
 40
2.5
  0
TEXT
  5
2E8
330
71
100
AcDbEntity
  8
1
 62
     7
100
AcDbText
 10
-24.27761289573471
 20
30.6174454215921
 30
0.0
 40
2.5
  1
/
 41
0.9
  7
CONVERTER_11
100
AcDbText
  0
TEXT
  5
2EA
330
71
100
AcDbEntity
  8
1
 62
     7
100
AcDbText
 10
-22.1212483986927
 20
30.6174454215921
 30
0.0
 40
2.5
  1
00
 41
0.81
  7
CONVERTER_12
100
AcDbText
  0
TEXT
  5
2EB
330
71
100
AcDbEntity
  8
1
 62
     3
100
AcDbText
 10
15.4752356273244
 20
30.6174454215921
 30
0.0
 40
2.5
  1
23.01.2018
 41
0.81
  7
CONVERTER_12
100
AcDbText
  0
MTEXT
  5
2EC
330
71
100
AcDbEntity
  8
1
 62
     2
100
AcDbMText
 10
15.4752356273244
 20
36.81744542159211
 30
0.0
 40
1.8
 41
0.0
 71
     1
 72
     1
  1
date
  7
CONVERTER_11
 73
     1
 44
1.32052821128451
  0
MTEXT
  5
2ED
330
71
100
AcDbEntity
  8
1
 62
     2
100
AcDbMText
 10
-14.35116061774849
 20
28.31744542159211
 30
0.0
 40
1.8
 41
0.0
 71
     1
 72
     1
  1
document-type
  7
CONVERTER_11
 73
     1
 44
1.20048019207683
  0
TEXT
  5
2EE
330
71
100
AcDbEntity
  8
1
 62
     3
100
AcDbText
 10
-14.35116061774849
 20
22.1174454215921
 30
0.0
 40
2.5
  1
TECDOC 2D_Productdrawing
 41
0.81
  7
CONVERTER_12
100
AcDbText
  0
MTEXT
  5
2F0
330
71
100
AcDbEntity
  8
1
 62
     2
100
AcDbMText
 10
-42.1511606177485
 20
36.8174454215922
 30
0.0
 40
1.8
 41
0.0
 71
     1
 72
     1
  1
document-No. / RI
  7
CONVERTER_13
 73
     1
 44
1.32052821128451
  0
TEXT
  5
2F1
330
71
100
AcDbEntity
  8
1
 62
     7
100
AcDbText
 10
-42.1511606177485
 20
30.6174454215921
 30
0.0
 40
2.5
  1
40200233
 41
0.81
  7
CONVERTER_12
100
AcDbText
  0
MTEXT
  5
2F3
330
71
100
AcDbEntity
  8
1
 62
     3
100
AcDbMText
 10
45.43443976816381
 20
30.61744542159229
 30
0.0
 40
2.5
 41
0.0
 71
     8
 72
     1
  1
1:1
  7
CONVERTER_14
 73
     1
 44
1.32052821128451
  0
MTEXT
  5
2F4
330
71
100
AcDbEntity
  8
1
 62
     2
100
AcDbMText
 10
42.07523562732422
 20
36.8174454215922
 30
0.0
 40
1.8
 41
0.0
 71
     1
 72
     1
  1
scale
  7
CONVERTER_11
 73
     1
 44
1.20048019207683
  0
MTEXT
  5
2F5
330
71
100
AcDbEntity
  8
1
 62
     2
100
AcDbMText
 10
-42.1511606177485
 20
28.3174454215922
 30
0.0
 40
1.8
 41
0.0
 71
     1
 72
     1
  1
ident.-No.
  7
CONVERTER_11
 73
     1
 44
1.20048019207683
  0
TEXT
  5
2F6
330
71
100
AcDbEntity
  8
1
 62
     7
100
AcDbText
 10
-41.75116061774878
 20
22.1174454215921
 30
0.0
 40
2.5
  1
0203328
 41
0.81
  7
CONVERTER_12
100
AcDbText
  0
MTEXT
  5
2F7
330
71
100
AcDbEntity
  8
1
 62
     2
100
AcDbMText
 10
-114.089175342796
 20
25.06744542159211
 30
0.0
 40
2.0
 41
0.0
 71
     5
 72
     1
  1
General Information\P- Simplified representation\P- Document excluded from change process\P- Linear dimensions [mm]
  7
CONVERTER_11
 73
     1
 44
1.20048019207683
  0
MTEXT
  5
2F8
330
71
100
AcDbEntity
  8
1
 62
     7
100
AcDbMText
 10
52.3936439090005
 20
87.3174454215941
 30
0.0
 40
3.5
 41
0.0
 71
     5
 72
     1
  1
C
  7
CONVERTER_11
 73
     1
 44
1.20048019207683
  0
MTEXT
  5
2F9
330
71
100
AcDbEntity
  8
1
 62
     7
100
AcDbMText
 10
52.3936439090005
 20
189.8174454215922
 30
0.0
 40
3.5
 41
0.0
 71
     5
 72
     1
  1
A
  7
CONVERTER_11
 73
     1
 44
1.20048019207683
  0
MTEXT
  5
2FA
330
71
100
AcDbEntity
  8
1
 62
     7
100
AcDbMText
 10
52.3936439090005
 20
137.3174454215941
 30
0.0
 40
3.5
 41
0.0
 71
     5
 72
     1
  1
B
  7
CONVERTER_11
 73
     1
 44
1.20048019207683
  0
MTEXT
  5
2FB
330
71
100
AcDbEntity
  8
1
 62
     7
100
AcDbMText
 10
52.3936439090005
 20
34.8174454215922
 30
0.0
 40
3.5
 41
0.0
 71
     5
 72
     1
  1
D
  7
CONVERTER_11
 73
     1
 44
1.20048019207683
  0
MTEXT
  5
2FC
330
71
100
AcDbEntity
  8
1
 62
     7
100
AcDbMText
 10
-217.8563560909981
 20
9.81744542159208
 30
0.0
 40
3.5
 41
0.0
 71
     5
 72
     1
  1
1
  7
CONVERTER_11
 73
     1
 44
1.20048019207683
  0
MTEXT
  5
2FD
330
71
100
AcDbEntity
  8
1
 62
     7
100
AcDbMText
 10
-168.6063560909985
 20
9.81744542159208
 30
0.0
 40
3.5
 41
0.0
 71
     5
 72
     1
  1
2
  7
CONVERTER_11
 73
     1
 44
1.20048019207683
  0
MTEXT
  5
2FE
330
71
100
AcDbEntity
  8
1
 62
     7
100
AcDbMText
 10
-118.6063560909985
 20
9.81744542159208
 30
0.0
 40
3.5
 41
0.0
 71
     5
 72
     1
  1
3
  7
CONVERTER_11
 73
     1
 44
1.20048019207683
  0
MTEXT
  5
2FF
330
71
100
AcDbEntity
  8
1
 62
     7
100
AcDbMText
 10
-68.60635609099859
 20
9.81744542159208
 30
0.0
 40
3.5
 41
0.0
 71
     5
 72
     1
  1
4
  7
CONVERTER_11
 73
     1
 44
1.20048019207683
  0
MTEXT
  5
300
330
71
100
AcDbEntity
  8
1
 62
     7
100
AcDbMText
 10
-18.6063560909985
 20
9.81744542159208
 30
0.0
 40
3.5
 41
0.0
 71
     5
 72
     1
  1
5
  7
CONVERTER_11
 73
     1
 44
1.20048019207683
  0
MTEXT
  5
301
330
71
100
AcDbEntity
  8
1
 62
     7
100
AcDbMText
 10
30.6436439090007
 20
9.81744542159208
 30
0.0
 40
3.5
 41
0.0
 71
     5
 72
     1
  1
6
  7
CONVERTER_11
 73
     1
 44
1.20048019207683
  0
MTEXT
  5
302
330
71
100
AcDbEntity
  8
1
 62
     7
100
AcDbMText
 10
-239.6063560909976
 20
189.8174454215922
 30
0.0
 40
3.5
 41
0.0
 71
     5
 72
     1
  1
A
  7
CONVERTER_11
 73
     1
 44
1.20048019207683
  0
MTEXT
  5
303
330
71
100
AcDbEntity
  8
1
 62
     7
100
AcDbMText
 10
-239.6063560909976
 20
137.3174454215922
 30
0.0
 40
3.5
 41
0.0
 71
     5
 72
     1
  1
B
  7
CONVERTER_11
 73
     1
 44
1.20048019207683
  0
MTEXT
  5
304
330
71
100
AcDbEntity
  8
1
 62
     7
100
AcDbMText
 10
-239.6063560909976
 20
87.3174454215922
 30
0.0
 40
3.5
 41
0.0
 71
     5
 72
     1
  1
C
  7
CONVERTER_11
 73
     1
 44
1.20048019207683
  0
MTEXT
  5
305
330
71
100
AcDbEntity
  8
1
 62
     7
100
AcDbMText
 10
-239.6063560909976
 20
34.8174454215922
 30
0.0
 40
3.5
 41
0.0
 71
     5
 72
     1
  1
D
  7
CONVERTER_11
 73
     1
 44
1.20048019207683
  0
MTEXT
  5
306
330
71
100
AcDbEntity
  8
1
 62
     3
100
AcDbMText
 10
-53.4511606177486
 20
33.4424454215922
 30
0.0
 40
2.5
 41
0.0
 71
     5
 72
     1
  1
DIN A4
  7
CONVERTER_11
 73
     1
 44
1.20048019207683
  0
MTEXT
  5
307
330
71
100
AcDbEntity
  8
1
 62
     2
100
AcDbMText
 10
-42.25116061774858
 20
19.8174454215922
 30
0.0
 40
1.8
 41
0.0
 71
     1
 72
     1
  1
description
  7
CONVERTER_11
 73
     1
 44
1.20048019207683
  0
MTEXT
  5
308
330
71
100
AcDbEntity
  8
1
 62
     7
100
AcDbMText
 10
3.321241645627
 20
15.56744542159242
 30
0.0
 40
3.0
 41
0.0
 71
     5
 72
     1
  1
EB  3-10
  7
CONVERTER_12
 73
     1
 44
1.20048019207683
  0
TEXT
  5
309
330
71
100
AcDbEntity
  8
1
 62
     2
100
AcDbText
 10
-55.215851807935
 20
13.56744542159208
 30
0.0
 40
1.8
  1
1
 41
0.9
  7
CONVERTER_11
100
AcDbText
  0
TEXT
  5
30A
330
71
100
AcDbEntity
  8
1
 62
     2
100
AcDbText
 10
-70.0048956474065
 20
13.51819676779019
 30
0.0
 40
1.8
  1
1
 41
0.9
  7
CONVERTER_11
100
AcDbText
  0
TEXT
  5
30B
330
71
100
AcDbEntity
  8
1
 62
     2
100
AcDbText
 10
-78.6511606177485
 20
13.55842820660052
 30
0.0
 40
1.8
  1
page
 41
0.9
  7
CONVERTER_11
100
AcDbText
  0
TEXT
  5
30C
330
71
100
AcDbEntity
  8
1
 62
     2
100
AcDbText
 10
-60.45116061774868
 20
13.55842820660058
 30
0.0
 40
1.8
  1
of
 41
0.9
  7
CONVERTER_11
100
AcDbText
  0
MTEXT
  5
30D
330
71
100
AcDbEntity
  8
1
 62
     3
100
AcDbMText
 10
-54.2481784661386
 20
199.108753576891
 30
0.0
 40
1.8
 41
0.0
 71
     7
 72
     1
  3
Transfer or duplication of this document as well as the utilisation or\Pcommunication of its content are not permitted unless express consent\Pis granted. Violations give rise to claims for damages. All rights reserved\Pin case of patent, utility mo
  1
del or design patent registrations.
  7
CONVERTER_11
 73
     1
 44
0.99639855942377
  0
MTEXT
  5
30E
330
71
100
AcDbEntity
  8
1
 62
     3
100
AcDbMText
 10
-237.1012883049267
 20
199.108753576891
 30
0.0
 40
1.8
 41
0.0
 71
     7
 72
     1
  3
Weitergabe sowie Vervielf\U+00e4ltigung dieses Dokuments, Verwertung und \PMitteilung seines Inhalts sind verboten, soweit nicht ausdr\U+00fccklich gestattet. \PZuwiderhandlungen verpflichten zu Schadenersatz. Alle Rechte f\U+00fcr den Fall\Pder Pat
  1
ent-, Gebrauchsmuster- oder Designeintragung vorbehalten.
  7
CONVERTER_11
 73
     1
 44
0.99639855942377
  0
HATCH
  5
30F
330
71
100
AcDbEntity
  8
1
  6
Continuous
 62
     2
100
AcDbHatch
 10
0.0
 20
0.0
 30
0.0
210
0.0
220
0.0
230
1.0
  2
_USER
 70
     0
 71
     1
 91
        1
 92
        1
 93
       14
 72
     2
 10
-67.4099313418258
 20
21.13785018351379
 40
1.205656168390943
 50
164.9381082228766
 51
195.061891777095
 73
     1
 72
     2
 10
-66.990803498363
 20
21.25064054554861
 40
1.639695123939389
 50
195.0618917770898
 51
275.1581447696395
 73
     1
 72
     2
 10
-67.2796595930989
 20
24.45053112877019
 40
4.852596863498134
 50
275.1581447696249
 51
285.9799912583529
 73
     1
 72
     1
 10
-65.9437316759811
 20
19.78544882296939
 11
-65.9437316759811
 21
20.65796582977259
 72
     2
 10
-67.12178671800598
 20
22.54831654892249
 40
2.227384008972737
 50
58.0690910500408
 51
71.55192388186722
 73
     0
 72
     2
 10
-66.70361898434518
 20
21.2947707728853
 40
0.905929784984916
 50
71.55192388184147
 51
113.3722778881291
 73
     0
 72
     2
 10
-66.8600590170472
 20
20.9327787541753
 40
0.5115800601948034
 50
113.3722778881729
 51
151.4785267423044
 73
     0
 72
     2
 10
-66.4827017589669
 20
21.13785018351379
 40
0.9410597353332545
 50
151.4785267422941
 51
208.5214732577331
 73
     0
 72
     2
 10
-66.8600590170472
 20
21.34292161285279
 40
0.5115800601948779
 50
208.5214732576956
 51
246.6277221118009
 73
     0
 72
     2
 10
-66.70361898434518
 20
20.9809295941422
 40
0.9059297849853228
 50
246.6277221118709
 51
288.4480761181465
 73
     0
 72
     2
 10
-67.12178671800598
 20
19.72738381810561
 40
2.227384008973474
 50
288.4480761181328
 51
301.9309089499593
 73
     0
 72
     1
 10
-65.9437316759811
 20
21.6177345372555
 11
-65.9437316759811
 21
22.49025154405879
 72
     2
 10
-67.2796595930989
 20
17.8251692382579
 40
4.852596863498064
 50
74.02000874164737
 51
84.84185523037506
 73
     1
 72
     2
 10
-66.990803498363
 20
21.02505982147889
 40
1.639695123940503
 50
84.84185523036234
 51
164.9381082228866
 73
     1
 97
       14
330
2E4
330
1FD
330
2B3
330
2E3
330
2B4
330
2B5
330
2E2
330
2E1
330
2E0
330
1FE
330
2B6
330
2B7
330
2B8
330
2B9
 75
     1
 76
     0
 52
45.0
 41
0.1
 77
     0
 78
     1
 53
45.0
 43
0.0
 44
0.0
 45
-0.0707106781186548
 46
0.0707106781186548
 79
     0
 98
        1
 10
0.0
 20
0.0
  0
HATCH
  5
310
330
71
100
AcDbEntity
  8
1
  6
Continuous
 62
     2
100
AcDbHatch
 10
0.0
 20
0.0
 30
0.0
210
0.0
220
0.0
230
1.0
  2
_USER
 70
     0
 71
     1
 91
        1
 92
        1
 93
       14
 72
     2
 10
-67.4099313418258
 20
21.13785018351379
 40
1.205656168390943
 50
164.9381082228766
 51
195.061891777095
 73
     1
 72
     2
 10
-66.990803498363
 20
21.25064054554861
 40
1.639695123939389
 50
195.0618917770898
 51
275.1581447696395
 73
     1
 72
     2
 10
-67.2796595930989
 20
24.45053112877019
 40
4.852596863498134
 50
275.1581447696249
 51
285.9799912583529
 73
     1
 72
     1
 10
-65.9437316759811
 20
19.78544882296939
 11
-65.9437316759811
 21
20.65796582977259
 72
     2
 10
-67.12178671800598
 20
22.54831654892249
 40
2.227384008972737
 50
58.0690910500408
 51
71.55192388186722
 73
     0
 72
     2
 10
-66.70361898434518
 20
21.2947707728853
 40
0.905929784984916
 50
71.55192388184147
 51
113.3722778881291
 73
     0
 72
     2
 10
-66.8600590170472
 20
20.9327787541753
 40
0.5115800601948034
 50
113.3722778881729
 51
151.4785267423044
 73
     0
 72
     2
 10
-66.4827017589669
 20
21.13785018351379
 40
0.9410597353332545
 50
151.4785267422941
 51
208.5214732577331
 73
     0
 72
     2
 10
-66.8600590170472
 20
21.34292161285279
 40
0.5115800601948779
 50
208.5214732576956
 51
246.6277221118009
 73
     0
 72
     2
 10
-66.70361898434518
 20
20.9809295941422
 40
0.9059297849853228
 50
246.6277221118709
 51
288.4480761181465
 73
     0
 72
     2
 10
-67.12178671800598
 20
19.72738381810561
 40
2.227384008973474
 50
288.4480761181328
 51
301.9309089499593
 73
     0
 72
     1
 10
-65.9437316759811
 20
21.6177345372555
 11
-65.9437316759811
 21
22.49025154405879
 72
     2
 10
-67.2796595930989
 20
17.8251692382579
 40
4.852596863498064
 50
74.02000874164737
 51
84.84185523037506
 73
     1
 72
     2
 10
-66.990803498363
 20
21.02505982147889
 40
1.639695123940503
 50
84.84185523036234
 51
164.9381082228866
 73
     1
 97
       14
330
2E4
330
1FD
330
2B3
330
2E3
330
2B4
330
2B5
330
2E2
330
2E1
330
2E0
330
1FE
330
2B6
330
2B7
330
2B8
330
2B9
 75
     1
 76
     0
 52
45.0
 41
0.1
 77
     0
 78
     1
 53
45.0
 43
0.0
 44
0.0
 45
-0.0707106781186548
 46
0.0707106781186548
 79
     0
 98
        1
 10
0.0
 20
0.0
  0
HATCH
  5
311
330
71
100
AcDbEntity
  8
1
  6
Continuous
 62
     2
100
AcDbHatch
 10
0.0
 20
0.0
 30
0.0
210
0.0
220
0.0
230
1.0
  2
_USER
 70
     0
 71
     1
 91
        1
 92
        1
 93
       18
 72
     2
 10
-50.88810201911008
 20
21.02505982147889
 40
1.639695123940218
 50
90.0
 51
164.9381082228951
 73
     1
 72
     2
 10
-51.30722986257169
 20
21.13785018351379
 40
1.205656168393001
 50
164.938108222903
 51
195.0618917770958
 73
     1
 72
     2
 10
-50.88810201911008
 20
21.25064054554861
 40
1.639695123940448
 50
195.0618917771012
 51
275.1581447696762
 73
     1
 72
     2
 10
-51.1769581138459
 20
24.45053112877019
 40
4.852596863498825
 50
275.1581447696364
 51
285.9799912583387
 73
     1
 72
     1
 10
-49.84103019672918
 20
19.78544882296879
 11
-49.84103019672918
 21
20.65796582977211
 72
     2
 10
-51.01908523875309
 20
22.54831654892189
 40
2.227384008972746
 50
58.06909105006029
 51
71.55192388186651
 73
     0
 72
     2
 10
-50.60091750509119
 20
21.2947707728853
 40
0.9059297849852797
 50
71.55192388191827
 51
113.3722778881823
 73
     0
 72
     2
 10
-50.75735753779429
 20
20.9327787541753
 40
0.5115800601960199
 50
113.3722778881561
 51
151.4785267423137
 73
     0
 72
     2
 10
-50.3800002797129
 20
21.13785018351379
 40
0.9410597353348907
 50
151.4785267423305
 51
208.5214732576374
 73
     0
 72
     2
 10
-50.75735753779429
 20
21.34292161285279
 40
0.5115800601944176
 50
208.5214732575772
 51
250.6628567805149
 73
     0
 72
     2
 10
-50.61068753969059
 20
20.9249666324699
 40
0.9545230068261006
 50
250.6628567805681
 51
270.0
 73
     0
 72
     1
 10
-50.61068753969059
 20
21.879489639296
 11
-49.50704824012249
 21
21.879489639296
 72
     1
 10
-49.50704824012249
 20
21.879489639296
 11
-49.50704824012249
 21
19.61094542160851
 72
     1
 10
-49.50704824012249
 20
19.61094542160851
 11
-48.31425553795478
 21
19.61094542160851
 72
     1
 10
-48.31425553795478
 20
19.61094542160851
 11
-48.31425553795478
 21
21.879489639296
 72
     1
 10
-48.31425553795478
 20
21.879489639296
 11
-47.5031565004814
 21
21.879489639296
 72
     1
 10
-47.5031565004814
 20
21.879489639296
 11
-47.5031565004814
 21
22.66475494541959
 72
     1
 10
-47.5031565004814
 20
22.66475494541959
 11
-50.88810201911008
 21
22.66475494541911
 97
       18
330
263
330
262
330
261
330
260
330
265
330
1FF
330
2DD
330
2BE
330
2DC
330
2BF
330
2DB
330
2DA
330
200
330
2D9
330
2D8
330
2C0
330
2C1
330
264
 75
     1
 76
     0
 52
45.0
 41
0.1
 77
     0
 78
     1
 53
45.0
 43
0.0
 44
0.0
 45
-0.0707106781186548
 46
0.0707106781186548
 79
     0
 98
        1
 10
0.0
 20
0.0
  0
HATCH
  5
312
330
71
100
AcDbEntity
  8
1
  6
Continuous
 62
     2
100
AcDbHatch
 10
0.0
 20
0.0
 30
0.0
210
0.0
220
0.0
230
1.0
  2
_USER
 70
     0
 71
     1
 91
        1
 92
        1
 93
       18
 72
     2
 10
-50.88810201911008
 20
21.02505982147889
 40
1.639695123940218
 50
90.0
 51
164.9381082228951
 73
     1
 72
     2
 10
-51.30722986257169
 20
21.13785018351379
 40
1.205656168393001
 50
164.938108222903
 51
195.0618917770958
 73
     1
 72
     2
 10
-50.88810201911008
 20
21.25064054554861
 40
1.639695123940448
 50
195.0618917771012
 51
275.1581447696762
 73
     1
 72
     2
 10
-51.1769581138459
 20
24.45053112877019
 40
4.852596863498825
 50
275.1581447696364
 51
285.9799912583387
 73
     1
 72
     1
 10
-49.84103019672918
 20
19.78544882296879
 11
-49.84103019672918
 21
20.65796582977211
 72
     2
 10
-51.01908523875309
 20
22.54831654892189
 40
2.227384008972746
 50
58.06909105006029
 51
71.55192388186651
 73
     0
 72
     2
 10
-50.60091750509119
 20
21.2947707728853
 40
0.9059297849852797
 50
71.55192388191827
 51
113.3722778881823
 73
     0
 72
     2
 10
-50.75735753779429
 20
20.9327787541753
 40
0.5115800601960199
 50
113.3722778881561
 51
151.4785267423137
 73
     0
 72
     2
 10
-50.3800002797129
 20
21.13785018351379
 40
0.9410597353348907
 50
151.4785267423305
 51
208.5214732576374
 73
     0
 72
     2
 10
-50.75735753779429
 20
21.34292161285279
 40
0.5115800601944176
 50
208.5214732575772
 51
250.6628567805149
 73
     0
 72
     2
 10
-50.61068753969059
 20
20.9249666324699
 40
0.9545230068261006
 50
250.6628567805681
 51
270.0
 73
     0
 72
     1
 10
-50.61068753969059
 20
21.879489639296
 11
-49.50704824012249
 21
21.879489639296
 72
     1
 10
-49.50704824012249
 20
21.879489639296
 11
-49.50704824012249
 21
19.61094542160851
 72
     1
 10
-49.50704824012249
 20
19.61094542160851
 11
-48.31425553795478
 21
19.61094542160851
 72
     1
 10
-48.31425553795478
 20
19.61094542160851
 11
-48.31425553795478
 21
21.879489639296
 72
     1
 10
-48.31425553795478
 20
21.879489639296
 11
-47.5031565004814
 21
21.879489639296
 72
     1
 10
-47.5031565004814
 20
21.879489639296
 11
-47.5031565004814
 21
22.66475494541959
 72
     1
 10
-47.5031565004814
 20
22.66475494541959
 11
-50.88810201911008
 21
22.66475494541911
 97
       18
330
263
330
262
330
261
330
260
330
265
330
1FF
330
2DD
330
2BE
330
2DC
330
2BF
330
2DB
330
2DA
330
200
330
2D9
330
2D8
330
2C0
330
2C1
330
264
 75
     1
 76
     0
 52
45.0
 41
0.1
 77
     0
 78
     1
 53
45.0
 43
0.0
 44
0.0
 45
-0.0707106781186548
 46
0.0707106781186548
 79
     0
 98
        1
 10
0.0
 20
0.0
  0
HATCH
  5
313
330
71
100
AcDbEntity
  8
1
  6
Continuous
 62
     2
100
AcDbHatch
 10
0.0
 20
0.0
 30
0.0
210
0.0
220
0.0
230
1.0
  2
_USER
 70
     0
 71
     1
 91
        4
 92
        1
 93
        8
 72
     2
 10
-74.9902611158031
 20
25.599700806192
 40
0.4242446153837989
 50
90.0
 51
180.0
 73
     1
 72
     1
 10
-75.4145057311859
 20
25.599700806192
 11
-75.4145057311859
 21
20.03519003699179
 72
     2
 10
-74.9902611158031
 20
20.03519003699179
 40
0.4242446153828041
 50
180.0
 51
270.0
 73
     1
 72
     1
 10
-74.9902611158031
 20
19.61094542160851
 11
-69.51694902508629
 21
19.61094542160851
 72
     2
 10
-69.51694902508629
 20
20.03519003699179
 40
0.4242446153832802
 50
270.0
 51
360.0
 73
     1
 72
     1
 10
-69.0927044097024
 20
20.03519003699179
 11
-69.0927044097024
 21
25.599700806192
 72
     2
 10
-69.51694902508629
 20
25.599700806192
 40
0.4242446153838841
 50
0.0
 51
90.0
 73
     1
 72
     1
 10
-69.51694902508629
 20
26.0239454215758
 11
-74.9902611158031
 21
26.0239454215758
 97
        8
330
2D1
330
22E
330
2D0
330
22F
330
2C7
330
22C
330
2D2
330
22D
 92
       16
 93
        1
 72
     2
 10
-72.37067546528559
 20
23.2808185778365
 40
0.4709789327785074
 50
0.0
 51
360.0
 73
     1
 97
        1
330
2E5
 92
       16
 93
        8
 72
     2
 10
-72.34686045061278
 20
23.2808185778365
 40
0.9118481501444557
 50
295.3740086781766
 51
424.6259913218074
 73
     1
 72
     2
 10
-71.8208177525249
 20
24.38996017780431
 40
0.315716923076792
 50
115.3740086783518
 51
180.0
 73
     0
 72
     1
 10
-72.1365346756017
 20
24.38996017780431
 11
-72.1365346756017
 21
24.9954954663111
 72
     2
 10
-71.8208177525249
 20
24.9954954663111
 40
0.3157169230760711
 50
180.0
 51
269.8110329574541
 73
     0
 72
     2
 10
-71.81520161721488
 20
23.292660518742
 40
2.018561131933266
 50
269.8110329575858
 51
450.1889670424142
 73
     0
 72
     2
 10
-71.8208177525249
 20
21.58982557117301
 40
0.315716923076792
 50
90.18896704254585
 51
180.0
 73
     0
 72
     1
 10
-72.1365346756017
 20
21.58982557117301
 11
-72.1365346756017
 21
22.17167697786809
 72
     2
 10
-71.8208177525249
 20
22.17167697786809
 40
0.315716923076536
 50
180.0
 51
244.6259913216484
 73
     0
 97
        8
330
2DF
330
2BB
330
267
330
2DE
330
2BC
330
2BD
330
266
330
2BA
 92
       16
 93
       12
 72
     1
 10
-74.3963664390566
 20
20.3235009771654
 11
-72.92053317804698
 21
20.3235009771654
 72
     2
 10
-72.92053317804698
 20
20.6392179002421
 40
0.3157169230767032
 50
270.0
 51
360.0
 73
     1
 72
     1
 10
-72.60481625497039
 20
20.6392179002421
 11
-72.60481625497039
 21
22.16998883177371
 72
     2
 10
-72.92053317804698
 20
22.16998883177371
 40
0.315716923076593
 50
0.0
 51
64.80558935146027
 73
     1
 72
     2
 10
-72.397948730472
 20
23.2808185778365
 40
0.9118975235576114
 50
115.1944106485123
 51
244.8055893514717
 73
     0
 72
     2
 10
-72.92053317804698
 20
24.39164832389869
 40
0.3157169230761203
 50
295.1944106485397
 51
360.0
 73
     1
 72
     1
 10
-72.60481625497039
 20
24.39164832389869
 11
-72.60481625497039
 21
24.9956729429592
 72
     2
 10
-72.92053317804698
 20
24.9956729429592
 40
0.315716923076593
 50
0.0
 51
90.0
 73
     1
 72
     1
 10
-72.92053317804698
 20
25.3113898660354
 11
-74.3963664390566
 21
25.3113898660354
 72
     2
 10
-74.3963664390566
 20
24.9956729429592
 40
0.3157169230762022
 50
90.0
 51
180.0
 73
     1
 72
     1
 10
-74.71208336213229
 20
24.9956729429592
 11
-74.71208336213229
 21
20.6392179002421
 72
     2
 10
-74.3963664390566
 20
20.6392179002421
 40
0.3157169230756836
 50
180.0
 51
270.0
 73
     1
 97
       12
330
233
330
2C4
330
232
330
2D5
330
231
330
2D4
330
2C5
330
2C6
330
230
330
2D3
330
22B
330
2D6
 75
     1
 76
     0
 52
45.0
 41
0.1
 77
     0
 78
     1
 53
45.0
 43
0.0
 44
0.0
 45
-0.0707106781186548
 46
0.0707106781186548
 79
     0
 98
        1
 10
0.0
 20
0.0
  0
HATCH
  5
314
330
71
100
AcDbEntity
  8
1
  6
Continuous
 62
     2
100
AcDbHatch
 10
0.0
 20
0.0
 30
0.0
210
0.0
220
0.0
230
1.0
  2
_USER
 70
     0
 71
     1
 91
        4
 92
        1
 93
        8
 72
     2
 10
-74.9902611158031
 20
25.599700806192
 40
0.4242446153837989
 50
90.0
 51
180.0
 73
     1
 72
     1
 10
-75.4145057311859
 20
25.599700806192
 11
-75.4145057311859
 21
20.03519003699179
 72
     2
 10
-74.9902611158031
 20
20.03519003699179
 40
0.4242446153828041
 50
180.0
 51
270.0
 73
     1
 72
     1
 10
-74.9902611158031
 20
19.61094542160851
 11
-69.51694902508629
 21
19.61094542160851
 72
     2
 10
-69.51694902508629
 20
20.03519003699179
 40
0.4242446153832802
 50
270.0
 51
360.0
 73
     1
 72
     1
 10
-69.0927044097024
 20
20.03519003699179
 11
-69.0927044097024
 21
25.599700806192
 72
     2
 10
-69.51694902508629
 20
25.599700806192
 40
0.4242446153838841
 50
0.0
 51
90.0
 73
     1
 72
     1
 10
-69.51694902508629
 20
26.0239454215758
 11
-74.9902611158031
 21
26.0239454215758
 97
        8
330
2D1
330
22E
330
2D0
330
22F
330
2C7
330
22C
330
2D2
330
22D
 92
       16
 93
        1
 72
     2
 10
-72.37067546528559
 20
23.2808185778365
 40
0.4709789327785074
 50
0.0
 51
360.0
 73
     1
 97
        1
330
2E5
 92
       16
 93
        8
 72
     2
 10
-72.34686045061278
 20
23.2808185778365
 40
0.9118481501444557
 50
295.3740086781766
 51
424.6259913218074
 73
     1
 72
     2
 10
-71.8208177525249
 20
24.38996017780431
 40
0.315716923076792
 50
115.3740086783518
 51
180.0
 73
     0
 72
     1
 10
-72.1365346756017
 20
24.38996017780431
 11
-72.1365346756017
 21
24.9954954663111
 72
     2
 10
-71.8208177525249
 20
24.9954954663111
 40
0.3157169230760711
 50
180.0
 51
269.8110329574541
 73
     0
 72
     2
 10
-71.81520161721488
 20
23.292660518742
 40
2.018561131933266
 50
269.8110329575858
 51
450.1889670424142
 73
     0
 72
     2
 10
-71.8208177525249
 20
21.58982557117301
 40
0.315716923076792
 50
90.18896704254585
 51
180.0
 73
     0
 72
     1
 10
-72.1365346756017
 20
21.58982557117301
 11
-72.1365346756017
 21
22.17167697786809
 72
     2
 10
-71.8208177525249
 20
22.17167697786809
 40
0.315716923076536
 50
180.0
 51
244.6259913216484
 73
     0
 97
        8
330
2DF
330
2BB
330
267
330
2DE
330
2BC
330
2BD
330
266
330
2BA
 92
       16
 93
       12
 72
     1
 10
-74.3963664390566
 20
20.3235009771654
 11
-72.92053317804698
 21
20.3235009771654
 72
     2
 10
-72.92053317804698
 20
20.6392179002421
 40
0.3157169230767032
 50
270.0
 51
360.0
 73
     1
 72
     1
 10
-72.60481625497039
 20
20.6392179002421
 11
-72.60481625497039
 21
22.16998883177371
 72
     2
 10
-72.92053317804698
 20
22.16998883177371
 40
0.315716923076593
 50
0.0
 51
64.80558935146027
 73
     1
 72
     2
 10
-72.397948730472
 20
23.2808185778365
 40
0.9118975235576114
 50
115.1944106485123
 51
244.8055893514717
 73
     0
 72
     2
 10
-72.92053317804698
 20
24.39164832389869
 40
0.3157169230761203
 50
295.1944106485397
 51
360.0
 73
     1
 72
     1
 10
-72.60481625497039
 20
24.39164832389869
 11
-72.60481625497039
 21
24.9956729429592
 72
     2
 10
-72.92053317804698
 20
24.9956729429592
 40
0.315716923076593
 50
0.0
 51
90.0
 73
     1
 72
     1
 10
-72.92053317804698
 20
25.3113898660354
 11
-74.3963664390566
 21
25.3113898660354
 72
     2
 10
-74.3963664390566
 20
24.9956729429592
 40
0.3157169230762022
 50
90.0
 51
180.0
 73
     1
 72
     1
 10
-74.71208336213229
 20
24.9956729429592
 11
-74.71208336213229
 21
20.6392179002421
 72
     2
 10
-74.3963664390566
 20
20.6392179002421
 40
0.3157169230756836
 50
180.0
 51
270.0
 73
     1
 97
       12
330
233
330
2C4
330
232
330
2D5
330
231
330
2D4
330
2C5
330
2C6
330
230
330
2D3
330
22B
330
2D6
 75
     1
 76
     0
 52
45.0
 41
0.1
 77
     0
 78
     1
 53
45.0
 43
0.0
 44
0.0
 45
-0.0707106781186548
 46
0.0707106781186548
 79
     0
 98
        1
 10
0.0
 20
0.0
  0
HATCH
  5
315
330
71
100
AcDbEntity
  8
1
  6
Continuous
 62
     2
100
AcDbHatch
 10
0.0
 20
0.0
 30
0.0
210
0.0
220
0.0
230
1.0
  2
_USER
 70
     0
 71
     1
 91
        2
 92
        1
 93
       12
 72
     2
 10
-60.3150971118138
 20
24.49704065968811
 40
1.526904761905879
 50
90.0
 51
270.0
 73
     1
 72
     1
 10
-60.3150971118138
 20
22.9701358977828
 11
-57.1647773880328
 21
22.9701358977828
 72
     1
 10
-57.1647773880328
 20
22.9701358977828
 11
-57.1647773880328
 21
23.66814950322529
 72
     1
 10
-57.1647773880328
 20
23.66814950322529
 11
-58.50070521446048
 21
23.66814950322529
 72
     1
 10
-58.50070521446048
 20
23.66814950322529
 11
-58.50070521446048
 21
24.148033856967
 72
     1
 10
-58.50070521446048
 20
24.148033856967
 11
-57.1647773880328
 21
24.148033856967
 72
     1
 10
-57.1647773880328
 20
24.148033856967
 11
-57.1647773880328
 21
24.8460474624093
 72
     1
 10
-57.1647773880328
 20
24.8460474624093
 11
-58.50070521446048
 21
24.8460474624093
 72
     1
 10
-58.50070521446048
 20
24.8460474624093
 11
-58.50070521446048
 21
25.32593181615101
 72
     1
 10
-58.50070521446048
 20
25.32593181615101
 11
-57.1647773880328
 21
25.32593181615101
 72
     1
 10
-57.1647773880328
 20
25.32593181615101
 11
-57.1647773880328
 21
26.02394542159399
 72
     1
 10
-57.1647773880328
 20
26.02394542159399
 11
-60.3150971118138
 21
26.02394542159399
 97
       12
330
222
330
21C
330
243
330
242
330
241
330
240
330
21D
330
21E
330
21F
330
220
330
2C2
330
221
 92
       16
 93
        4
 72
     2
 10
-59.8990850653023
 20
24.49704065968811
 40
0.7717997786796724
 50
141.8795802028404
 51
218.120419797156
 73
     1
 72
     2
 10
-60.0988251016486
 20
24.34030948156769
 40
0.5179085730134372
 50
218.1204197971511
 51
321.8795802028562
 73
     1
 72
     2
 10
-60.29856513799479
 20
24.49704065968811
 40
0.7717997786796351
 50
321.879580202844
 51
398.1204197971596
 73
     1
 72
     2
 10
-60.0988251016486
 20
24.65377183780859
 40
0.517908573013521
 50
38.12041979714382
 51
141.8795802028489
 73
     1
 97
        4
330
2CF
330
2CE
330
2C9
330
2C8
 75
     1
 76
     0
 52
45.0
 41
0.1
 77
     0
 78
     1
 53
45.0
 43
0.0
 44
0.0
 45
-0.0707106781186548
 46
0.0707106781186548
 79
     0
 98
        1
 10
0.0
 20
0.0
  0
HATCH
  5
316
330
71
100
AcDbEntity
  8
1
  6
Continuous
 62
     2
100
AcDbHatch
 10
0.0
 20
0.0
 30
0.0
210
0.0
220
0.0
230
1.0
  2
_USER
 70
     0
 71
     1
 91
        2
 92
        1
 93
       12
 72
     2
 10
-60.3150971118138
 20
24.49704065968811
 40
1.526904761905879
 50
90.0
 51
270.0
 73
     1
 72
     1
 10
-60.3150971118138
 20
22.9701358977828
 11
-57.1647773880328
 21
22.9701358977828
 72
     1
 10
-57.1647773880328
 20
22.9701358977828
 11
-57.1647773880328
 21
23.66814950322529
 72
     1
 10
-57.1647773880328
 20
23.66814950322529
 11
-58.50070521446048
 21
23.66814950322529
 72
     1
 10
-58.50070521446048
 20
23.66814950322529
 11
-58.50070521446048
 21
24.148033856967
 72
     1
 10
-58.50070521446048
 20
24.148033856967
 11
-57.1647773880328
 21
24.148033856967
 72
     1
 10
-57.1647773880328
 20
24.148033856967
 11
-57.1647773880328
 21
24.8460474624093
 72
     1
 10
-57.1647773880328
 20
24.8460474624093
 11
-58.50070521446048
 21
24.8460474624093
 72
     1
 10
-58.50070521446048
 20
24.8460474624093
 11
-58.50070521446048
 21
25.32593181615101
 72
     1
 10
-58.50070521446048
 20
25.32593181615101
 11
-57.1647773880328
 21
25.32593181615101
 72
     1
 10
-57.1647773880328
 20
25.32593181615101
 11
-57.1647773880328
 21
26.02394542159399
 72
     1
 10
-57.1647773880328
 20
26.02394542159399
 11
-60.3150971118138
 21
26.02394542159399
 97
       12
330
222
330
21C
330
243
330
242
330
241
330
240
330
21D
330
21E
330
21F
330
220
330
2C2
330
221
 92
       16
 93
        4
 72
     2
 10
-59.8990850653023
 20
24.49704065968811
 40
0.7717997786796724
 50
141.8795802028404
 51
218.120419797156
 73
     1
 72
     2
 10
-60.0988251016486
 20
24.34030948156769
 40
0.5179085730134372
 50
218.1204197971511
 51
321.8795802028562
 73
     1
 72
     2
 10
-60.29856513799479
 20
24.49704065968811
 40
0.7717997786796351
 50
321.879580202844
 51
398.1204197971596
 73
     1
 72
     2
 10
-60.0988251016486
 20
24.65377183780859
 40
0.517908573013521
 50
38.12041979714382
 51
141.8795802028489
 73
     1
 97
        4
330
2CF
330
2CE
330
2C9
330
2C8
 75
     1
 76
     0
 52
45.0
 41
0.1
 77
     0
 78
     1
 53
45.0
 43
0.0
 44
0.0
 45
-0.0707106781186548
 46
0.0707106781186548
 79
     0
 98
        1
 10
0.0
 20
0.0
  0
HATCH
  5
317
330
71
100
AcDbEntity
  8
1
  6
Continuous
 62
     2
100
AcDbHatch
 10
0.0
 20
0.0
 30
0.0
210
0.0
220
0.0
230
1.0
  2
_USER
 70
     0
 71
     1
 91
        2
 92
        1
 93
        4
 72
     2
 10
-64.34071247427539
 20
21.13785018351379
 40
1.45803408365149
 50
117.5481481756624
 51
242.4518518243376
 73
     1
 72
     2
 10
-64.0597725824421
 20
21.6764251938171
 40
2.065479772208515
 50
242.4518518243403
 51
297.548148175687
 73
     1
 72
     2
 10
-63.7788326906088
 20
21.13785018351379
 40
1.458034083652009
 50
297.5481481757013
 51
422.4518518242987
 73
     1
 72
     2
 10
-64.0597725824421
 20
20.599275173211
 40
2.065479772208564
 50
62.45185182430632
 51
117.5481481756664
 73
     1
 97
        4
330
2CD
330
2CA
330
2CC
330
2CB
 92
       16
 93
        4
 72
     2
 10
-64.0597725824421
 20
21.2945813616343
 40
0.5179085730133021
 50
38.12041979714734
 51
141.8795802028585
 73
     1
 72
     2
 10
-63.86003254609599
 20
21.13785018351379
 40
0.771799778679471
 50
141.8795802028364
 51
218.1204197971684
 73
     1
 72
     2
 10
-64.0597725824421
 20
20.98111900539379
 40
0.5179085730137332
 50
218.1204197971929
 51
321.8795802028013
 73
     1
 72
     2
 10
-64.2595126187885
 20
21.13785018351379
 40
0.7717997786796947
 50
321.8795802028417
 51
398.1204197971534
 73
     1
 97
        4
330
2B0
330
2B1
330
2B2
330
2AF
 75
     1
 76
     0
 52
45.0
 41
0.1
 77
     0
 78
     1
 53
45.0
 43
0.0
 44
0.0
 45
-0.0707106781186548
 46
0.0707106781186548
 79
     0
 98
        1
 10
0.0
 20
0.0
  0
HATCH
  5
318
330
71
100
AcDbEntity
  8
1
  6
Continuous
 62
     2
100
AcDbHatch
 10
0.0
 20
0.0
 30
0.0
210
0.0
220
0.0
230
1.0
  2
_USER
 70
     0
 71
     1
 91
        2
 92
        1
 93
        4
 72
     2
 10
-64.34071247427539
 20
21.13785018351379
 40
1.45803408365149
 50
117.5481481756624
 51
242.4518518243376
 73
     1
 72
     2
 10
-64.0597725824421
 20
21.6764251938171
 40
2.065479772208515
 50
242.4518518243403
 51
297.548148175687
 73
     1
 72
     2
 10
-63.7788326906088
 20
21.13785018351379
 40
1.458034083652009
 50
297.5481481757013
 51
422.4518518242987
 73
     1
 72
     2
 10
-64.0597725824421
 20
20.599275173211
 40
2.065479772208564
 50
62.45185182430632
 51
117.5481481756664
 73
     1
 97
        4
330
2CD
330
2CA
330
2CC
330
2CB
 92
       16
 93
        4
 72
     2
 10
-64.0597725824421
 20
21.2945813616343
 40
0.5179085730133021
 50
38.12041979714734
 51
141.8795802028585
 73
     1
 72
     2
 10
-63.86003254609599
 20
21.13785018351379
 40
0.771799778679471
 50
141.8795802028364
 51
218.1204197971684
 73
     1
 72
     2
 10
-64.0597725824421
 20
20.98111900539379
 40
0.5179085730137332
 50
218.1204197971929
 51
321.8795802028013
 73
     1
 72
     2
 10
-64.2595126187885
 20
21.13785018351379
 40
0.7717997786796947
 50
321.8795802028417
 51
398.1204197971534
 73
     1
 97
        4
330
2B0
330
2B1
330
2B2
330
2AF
 75
     1
 76
     0
 52
45.0
 41
0.1
 77
     0
 78
     1
 53
45.0
 43
0.0
 44
0.0
 45
-0.0707106781186548
 46
0.0707106781186548
 79
     0
 98
        1
 10
0.0
 20
0.0
  0
HATCH
  5
319
330
71
100
AcDbEntity
  8
1
  6
Continuous
 62
     2
100
AcDbHatch
 10
0.0
 20
0.0
 30
0.0
210
0.0
220
0.0
230
1.0
  2
_USER
 70
     0
 71
     1
 91
        2
 92
        1
 93
        6
 72
     1
 10
-68.6155873288356
 20
26.02394542159399
 11
-68.6155873288356
 21
22.9701358977828
 72
     1
 10
-68.6155873288356
 20
22.9701358977828
 11
-67.37508291858148
 21
22.9701358977828
 72
     1
 10
-67.37508291858148
 20
22.9701358977828
 11
-67.37508291858148
 21
23.91321413892661
 72
     1
 10
-67.37508291858148
 20
23.91321413892661
 11
-66.6163153308012
 21
23.91321413892661
 72
     2
 10
-66.6163153308012
 20
24.96857978026031
 40
1.055365641333701
 50
270.0
 51
450.0
 73
     1
 72
     1
 10
-66.6163153308012
 20
26.02394542159399
 11
-68.6155873288356
 21
26.02394542159399
 97
        6
330
2D7
330
234
330
22A
330
229
330
236
330
235
 92
       16
 93
        4
 72
     1
 10
-67.05778785703959
 20
25.36083957615389
 11
-67.37508291858148
 21
25.36083957615389
 72
     1
 10
-67.37508291858148
 20
25.36083957615389
 11
-67.37508291858148
 21
24.65511192681169
 72
     1
 10
-67.37508291858148
 20
24.65511192681169
 11
-67.05778785703959
 21
24.65511192681169
 72
     2
 10
-67.05778785703959
 20
25.0079757514828
 40
0.3528638246711111
 50
270.0
 51
450.0
 73
     1
 97
        4
330
237
330
228
330
238
330
2C3
 75
     1
 76
     0
 52
45.0
 41
0.1
 77
     0
 78
     1
 53
45.0
 43
0.0
 44
0.0
 45
-0.0707106781186548
 46
0.0707106781186548
 79
     0
 98
        1
 10
0.0
 20
0.0
  0
HATCH
  5
31A
330
71
100
AcDbEntity
  8
1
  6
Continuous
 62
     2
100
AcDbHatch
 10
0.0
 20
0.0
 30
0.0
210
0.0
220
0.0
230
1.0
  2
_USER
 70
     0
 71
     1
 91
        2
 92
        1
 93
        6
 72
     1
 10
-68.6155873288356
 20
26.02394542159399
 11
-68.6155873288356
 21
22.9701358977828
 72
     1
 10
-68.6155873288356
 20
22.9701358977828
 11
-67.37508291858148
 21
22.9701358977828
 72
     1
 10
-67.37508291858148
 20
22.9701358977828
 11
-67.37508291858148
 21
23.91321413892661
 72
     1
 10
-67.37508291858148
 20
23.91321413892661
 11
-66.6163153308012
 21
23.91321413892661
 72
     2
 10
-66.6163153308012
 20
24.96857978026031
 40
1.055365641333701
 50
270.0
 51
450.0
 73
     1
 72
     1
 10
-66.6163153308012
 20
26.02394542159399
 11
-68.6155873288356
 21
26.02394542159399
 97
        6
330
2D7
330
234
330
22A
330
229
330
236
330
235
 92
       16
 93
        4
 72
     1
 10
-67.05778785703959
 20
25.36083957615389
 11
-67.37508291858148
 21
25.36083957615389
 72
     1
 10
-67.37508291858148
 20
25.36083957615389
 11
-67.37508291858148
 21
24.65511192681169
 72
     1
 10
-67.37508291858148
 20
24.65511192681169
 11
-67.05778785703959
 21
24.65511192681169
 72
     2
 10
-67.05778785703959
 20
25.0079757514828
 40
0.3528638246711111
 50
270.0
 51
450.0
 73
     1
 97
        4
330
237
330
228
330
238
330
2C3
 75
     1
 76
     0
 52
45.0
 41
0.1
 77
     0
 78
     1
 53
45.0
 43
0.0
 44
0.0
 45
-0.0707106781186548
 46
0.0707106781186548
 79
     0
 98
        1
 10
0.0
 20
0.0
  0
HATCH
  5
31B
330
71
100
AcDbEntity
  8
1
  6
Continuous
 62
     2
100
AcDbHatch
 10
0.0
 20
0.0
 30
0.0
210
0.0
220
0.0
230
1.0
  2
_USER
 70
     0
 71
     1
 91
        1
 92
        1
 93
       12
 72
     1
 10
-49.0013041344024
 20
26.02394542159399
 11
-47.59857991665518
 21
26.02394542159399
 72
     1
 10
-47.59857991665518
 20
26.02394542159399
 11
-48.9011095474217
 21
24.55099489155779
 72
     1
 10
-48.9011095474217
 20
24.55099489155779
 11
-47.5031565004814
 21
22.9701358977828
 72
     1
 10
-47.5031565004814
 20
22.9701358977828
 11
-48.9058807182297
 21
22.9701358977828
 72
     1
 10
-48.9058807182297
 20
22.9701358977828
 11
-49.60247165629519
 21
23.75786768307651
 72
     1
 10
-49.60247165629519
 20
23.75786768307651
 11
-50.29906259436089
 21
22.9701358977828
 72
     1
 10
-50.29906259436089
 20
22.9701358977828
 11
-51.70178681210911
 21
22.9701358977828
 72
     1
 10
-51.70178681210911
 20
22.9701358977828
 11
-50.3038337651688
 21
24.55099489155779
 72
     1
 10
-50.3038337651688
 20
24.55099489155779
 11
-51.60636339593629
 21
26.02394542159399
 72
     1
 10
-51.60636339593629
 20
26.02394542159399
 11
-50.20363917818699
 21
26.02394542159399
 72
     1
 10
-50.20363917818699
 20
26.02394542159399
 11
-49.60247165629519
 21
25.3441221000385
 72
     1
 10
-49.60247165629519
 20
25.3441221000385
 11
-49.0013041344024
 21
26.02394542159399
 97
       12
330
203
330
25C
330
25B
330
25A
330
259
330
204
330
205
330
201
330
202
330
25F
330
25E
330
25D
 75
     1
 76
     0
 52
45.0
 41
0.1
 77
     0
 78
     1
 53
45.0
 43
0.0
 44
0.0
 45
-0.0707106781186548
 46
0.0707106781186548
 79
     0
 98
        1
 10
0.0
 20
0.0
  0
HATCH
  5
31C
330
71
100
AcDbEntity
  8
1
  6
Continuous
 62
     2
100
AcDbHatch
 10
0.0
 20
0.0
 30
0.0
210
0.0
220
0.0
230
1.0
  2
_USER
 70
     0
 71
     1
 91
        1
 92
        1
 93
       12
 72
     1
 10
-49.0013041344024
 20
26.02394542159399
 11
-47.59857991665518
 21
26.02394542159399
 72
     1
 10
-47.59857991665518
 20
26.02394542159399
 11
-48.9011095474217
 21
24.55099489155779
 72
     1
 10
-48.9011095474217
 20
24.55099489155779
 11
-47.5031565004814
 21
22.9701358977828
 72
     1
 10
-47.5031565004814
 20
22.9701358977828
 11
-48.9058807182297
 21
22.9701358977828
 72
     1
 10
-48.9058807182297
 20
22.9701358977828
 11
-49.60247165629519
 21
23.75786768307651
 72
     1
 10
-49.60247165629519
 20
23.75786768307651
 11
-50.29906259436089
 21
22.9701358977828
 72
     1
 10
-50.29906259436089
 20
22.9701358977828
 11
-51.70178681210911
 21
22.9701358977828
 72
     1
 10
-51.70178681210911
 20
22.9701358977828
 11
-50.3038337651688
 21
24.55099489155779
 72
     1
 10
-50.3038337651688
 20
24.55099489155779
 11
-51.60636339593629
 21
26.02394542159399
 72
     1
 10
-51.60636339593629
 20
26.02394542159399
 11
-50.20363917818699
 21
26.02394542159399
 72
     1
 10
-50.20363917818699
 20
26.02394542159399
 11
-49.60247165629519
 21
25.3441221000385
 72
     1
 10
-49.60247165629519
 20
25.3441221000385
 11
-49.0013041344024
 21
26.02394542159399
 97
       12
330
203
330
25C
330
25B
330
25A
330
259
330
204
330
205
330
201
330
202
330
25F
330
25E
330
25D
 75
     1
 76
     0
 52
45.0
 41
0.1
 77
     0
 78
     1
 53
45.0
 43
0.0
 44
0.0
 45
-0.0707106781186548
 46
0.0707106781186548
 79
     0
 98
        1
 10
0.0
 20
0.0
  0
HATCH
  5
31D
330
71
100
AcDbEntity
  8
1
  6
Continuous
 62
     2
100
AcDbHatch
 10
0.0
 20
0.0
 30
0.0
210
0.0
220
0.0
230
1.0
  2
_USER
 70
     0
 71
     1
 91
        1
 92
        1
 93
        4
 72
     1
 10
-51.82106608232598
 20
26.02394542159399
 11
-51.82106608232598
 21
22.9701358977828
 72
     1
 10
-51.82106608232598
 20
22.9701358977828
 11
-53.06157049257888
 21
22.9701358977828
 72
     1
 10
-53.06157049257888
 20
22.9701358977828
 11
-53.06157049257888
 21
26.02394542159399
 72
     1
 10
-53.06157049257888
 20
26.02394542159399
 11
-51.82106608232598
 21
26.02394542159399
 97
        4
330
257
330
206
330
256
330
258
 75
     1
 76
     0
 52
45.0
 41
0.1
 77
     0
 78
     1
 53
45.0
 43
0.0
 44
0.0
 45
-0.0707106781186548
 46
0.0707106781186548
 79
     0
 98
        1
 10
0.0
 20
0.0
  0
HATCH
  5
31E
330
71
100
AcDbEntity
  8
1
  6
Continuous
 62
     2
100
AcDbHatch
 10
0.0
 20
0.0
 30
0.0
210
0.0
220
0.0
230
1.0
  2
_USER
 70
     0
 71
     1
 91
        1
 92
        1
 93
        4
 72
     1
 10
-51.82106608232598
 20
26.02394542159399
 11
-51.82106608232598
 21
22.9701358977828
 72
     1
 10
-51.82106608232598
 20
22.9701358977828
 11
-53.06157049257888
 21
22.9701358977828
 72
     1
 10
-53.06157049257888
 20
22.9701358977828
 11
-53.06157049257888
 21
26.02394542159399
 72
     1
 10
-53.06157049257888
 20
26.02394542159399
 11
-51.82106608232598
 21
26.02394542159399
 97
        4
330
257
330
206
330
256
330
258
 75
     1
 76
     0
 52
45.0
 41
0.1
 77
     0
 78
     1
 53
45.0
 43
0.0
 44
0.0
 45
-0.0707106781186548
 46
0.0707106781186548
 79
     0
 98
        1
 10
0.0
 20
0.0
  0
HATCH
  5
31F
330
71
100
AcDbEntity
  8
1
  6
Continuous
 62
     2
100
AcDbHatch
 10
0.0
 20
0.0
 30
0.0
210
0.0
220
0.0
230
1.0
  2
_USER
 70
     0
 71
     1
 91
        2
 92
        1
 93
        8
 72
     1
 10
-52.21151008585798
 20
19.61094542160851
 11
-53.4520144961119
 21
19.61094542160851
 72
     1
 10
-53.4520144961119
 20
19.61094542160851
 11
-53.66349454958768
 21
20.15190596582639
 72
     1
 10
-53.66349454958768
 20
20.15190596582639
 11
-54.7959361262615
 21
20.15190596582639
 72
     1
 10
-54.7959361262615
 20
20.15190596582639
 11
-55.00741617973731
 21
19.61094542160851
 72
     1
 10
-55.00741617973731
 20
19.61094542160851
 11
-56.24792058999029
 21
19.61094542160851
 72
     1
 10
-56.24792058999029
 20
19.61094542160851
 11
-54.84996754305098
 21
22.66475494541959
 72
     1
 10
-54.84996754305098
 20
22.66475494541959
 11
-53.60946313279828
 21
22.66475494541959
 72
     1
 10
-53.60946313279828
 20
22.66475494541959
 11
-52.21151008585798
 21
19.61094542160851
 97
        8
330
252
330
20C
330
251
330
254
330
209
330
253
330
20A
330
20B
 92
       16
 93
        3
 72
     1
 10
-54.52988057511649
 20
20.83246923113299
 11
-53.92955010073399
 21
20.83246923113299
 72
     1
 10
-53.92955010073399
 20
20.83246923113299
 11
-54.22971533792409
 21
21.60028419711969
 72
     1
 10
-54.22971533792409
 20
21.60028419711969
 11
-54.52988057511649
 21
20.83246923113299
 97
        3
330
208
330
207
330
255
 75
     1
 76
     0
 52
45.0
 41
0.1
 77
     0
 78
     1
 53
45.0
 43
0.0
 44
0.0
 45
-0.0707106781186548
 46
0.0707106781186548
 79
     0
 98
        1
 10
0.0
 20
0.0
  0
HATCH
  5
320
330
71
100
AcDbEntity
  8
1
  6
Continuous
 62
     2
100
AcDbHatch
 10
0.0
 20
0.0
 30
0.0
210
0.0
220
0.0
230
1.0
  2
_USER
 70
     0
 71
     1
 91
        2
 92
        1
 93
        8
 72
     1
 10
-52.21151008585798
 20
19.61094542160851
 11
-53.4520144961119
 21
19.61094542160851
 72
     1
 10
-53.4520144961119
 20
19.61094542160851
 11
-53.66349454958768
 21
20.15190596582639
 72
     1
 10
-53.66349454958768
 20
20.15190596582639
 11
-54.7959361262615
 21
20.15190596582639
 72
     1
 10
-54.7959361262615
 20
20.15190596582639
 11
-55.00741617973731
 21
19.61094542160851
 72
     1
 10
-55.00741617973731
 20
19.61094542160851
 11
-56.24792058999029
 21
19.61094542160851
 72
     1
 10
-56.24792058999029
 20
19.61094542160851
 11
-54.84996754305098
 21
22.66475494541959
 72
     1
 10
-54.84996754305098
 20
22.66475494541959
 11
-53.60946313279828
 21
22.66475494541959
 72
     1
 10
-53.60946313279828
 20
22.66475494541959
 11
-52.21151008585798
 21
19.61094542160851
 97
        8
330
252
330
20C
330
251
330
254
330
209
330
253
330
20A
330
20B
 92
       16
 93
        3
 72
     1
 10
-54.52988057511649
 20
20.83246923113299
 11
-53.92955010073399
 21
20.83246923113299
 72
     1
 10
-53.92955010073399
 20
20.83246923113299
 11
-54.22971533792409
 21
21.60028419711969
 72
     1
 10
-54.22971533792409
 20
21.60028419711969
 11
-54.52988057511649
 21
20.83246923113299
 97
        3
330
208
330
207
330
255
 75
     1
 76
     0
 52
45.0
 41
0.1
 77
     0
 78
     1
 53
45.0
 43
0.0
 44
0.0
 45
-0.0707106781186548
 46
0.0707106781186548
 79
     0
 98
        1
 10
0.0
 20
0.0
  0
HATCH
  5
321
330
71
100
AcDbEntity
  8
1
  6
Continuous
 62
     2
100
AcDbHatch
 10
0.0
 20
0.0
 30
0.0
210
0.0
220
0.0
230
1.0
  2
_USER
 70
     0
 71
     1
 91
        1
 92
        1
 93
        8
 72
     1
 10
-58.4054327291725
 20
22.66475494541959
 11
-58.4054327291725
 21
21.879489639296
 72
     1
 10
-58.4054327291725
 20
21.879489639296
 11
-57.5943336916979
 21
21.879489639296
 72
     1
 10
-57.5943336916979
 20
21.879489639296
 11
-57.5943336916979
 21
19.61094542160851
 72
     1
 10
-57.5943336916979
 20
19.61094542160851
 11
-56.40154098953138
 21
19.61094542160851
 72
     1
 10
-56.40154098953138
 20
19.61094542160851
 11
-56.40154098953138
 21
21.879489639296
 72
     1
 10
-56.40154098953138
 20
21.879489639296
 11
-55.59044195205888
 21
21.879489639296
 72
     1
 10
-55.59044195205888
 20
21.879489639296
 11
-55.59044195205888
 21
22.66475494541959
 72
     1
 10
-55.59044195205888
 20
22.66475494541959
 11
-58.4054327291725
 21
22.66475494541959
 97
        8
330
24E
330
24D
330
24C
330
20D
330
20E
330
250
330
20F
330
24F
 75
     1
 76
     0
 52
45.0
 41
0.1
 77
     0
 78
     1
 53
45.0
 43
0.0
 44
0.0
 45
-0.0707106781186548
 46
0.0707106781186548
 79
     0
 98
        1
 10
0.0
 20
0.0
  0
HATCH
  5
322
330
71
100
AcDbEntity
  8
1
  6
Continuous
 62
     2
100
AcDbHatch
 10
0.0
 20
0.0
 30
0.0
210
0.0
220
0.0
230
1.0
  2
_USER
 70
     0
 71
     1
 91
        1
 92
        1
 93
        8
 72
     1
 10
-58.4054327291725
 20
22.66475494541959
 11
-58.4054327291725
 21
21.879489639296
 72
     1
 10
-58.4054327291725
 20
21.879489639296
 11
-57.5943336916979
 21
21.879489639296
 72
     1
 10
-57.5943336916979
 20
21.879489639296
 11
-57.5943336916979
 21
19.61094542160851
 72
     1
 10
-57.5943336916979
 20
19.61094542160851
 11
-56.40154098953138
 21
19.61094542160851
 72
     1
 10
-56.40154098953138
 20
19.61094542160851
 11
-56.40154098953138
 21
21.879489639296
 72
     1
 10
-56.40154098953138
 20
21.879489639296
 11
-55.59044195205888
 21
21.879489639296
 72
     1
 10
-55.59044195205888
 20
21.879489639296
 11
-55.59044195205888
 21
22.66475494541959
 72
     1
 10
-55.59044195205888
 20
22.66475494541959
 11
-58.4054327291725
 21
22.66475494541959
 97
        8
330
24E
330
24D
330
24C
330
20D
330
20E
330
250
330
20F
330
24F
 75
     1
 76
     0
 52
45.0
 41
0.1
 77
     0
 78
     1
 53
45.0
 43
0.0
 44
0.0
 45
-0.0707106781186548
 46
0.0707106781186548
 79
     0
 98
        1
 10
0.0
 20
0.0
  0
HATCH
  5
323
330
71
100
AcDbEntity
  8
1
  6
Continuous
 62
     2
100
AcDbHatch
 10
0.0
 20
0.0
 30
0.0
210
0.0
220
0.0
230
1.0
  2
_USER
 70
     0
 71
     1
 91
        1
 92
        1
 93
       10
 72
     1
 10
-55.73342614543338
 20
26.02394542159399
 11
-56.9262188475999
 21
26.02394542159399
 72
     1
 10
-56.9262188475999
 20
26.02394542159399
 11
-56.9262188475999
 21
22.9701358977828
 72
     1
 10
-56.9262188475999
 20
22.9701358977828
 11
-55.73342614543338
 21
22.9701358977828
 72
     1
 10
-55.73342614543338
 20
22.9701358977828
 11
-55.73342614543338
 21
24.27891140798749
 72
     1
 10
-55.73342614543338
 20
24.27891140798749
 11
-54.49292173517938
 21
22.9701358977828
 72
     1
 10
-54.49292173517938
 20
22.9701358977828
 11
-53.30012903301278
 21
22.9701358977828
 72
     1
 10
-53.30012903301278
 20
22.9701358977828
 11
-53.30012903301278
 21
26.02394542159399
 72
     1
 10
-53.30012903301278
 20
26.02394542159399
 11
-54.49292173517938
 21
26.02394542159399
 72
     1
 10
-54.49292173517938
 20
26.02394542159399
 11
-54.49292173517938
 21
24.71516991138881
 72
     1
 10
-54.49292173517938
 20
24.71516991138881
 11
-55.73342614543338
 21
26.02394542159399
 97
       10
330
248
330
212
330
213
330
214
330
215
330
24B
330
210
330
24A
330
249
330
211
 75
     1
 76
     0
 52
45.0
 41
0.1
 77
     0
 78
     1
 53
45.0
 43
0.0
 44
0.0
 45
-0.0707106781186548
 46
0.0707106781186548
 79
     0
 98
        1
 10
0.0
 20
0.0
  0
HATCH
  5
324
330
71
100
AcDbEntity
  8
1
  6
Continuous
 62
     2
100
AcDbHatch
 10
0.0
 20
0.0
 30
0.0
210
0.0
220
0.0
230
1.0
  2
_USER
 70
     0
 71
     1
 91
        1
 92
        1
 93
       10
 72
     1
 10
-55.73342614543338
 20
26.02394542159399
 11
-56.9262188475999
 21
26.02394542159399
 72
     1
 10
-56.9262188475999
 20
26.02394542159399
 11
-56.9262188475999
 21
22.9701358977828
 72
     1
 10
-56.9262188475999
 20
22.9701358977828
 11
-55.73342614543338
 21
22.9701358977828
 72
     1
 10
-55.73342614543338
 20
22.9701358977828
 11
-55.73342614543338
 21
24.27891140798749
 72
     1
 10
-55.73342614543338
 20
24.27891140798749
 11
-54.49292173517938
 21
22.9701358977828
 72
     1
 10
-54.49292173517938
 20
22.9701358977828
 11
-53.30012903301278
 21
22.9701358977828
 72
     1
 10
-53.30012903301278
 20
22.9701358977828
 11
-53.30012903301278
 21
26.02394542159399
 72
     1
 10
-53.30012903301278
 20
26.02394542159399
 11
-54.49292173517938
 21
26.02394542159399
 72
     1
 10
-54.49292173517938
 20
26.02394542159399
 11
-54.49292173517938
 21
24.71516991138881
 72
     1
 10
-54.49292173517938
 20
24.71516991138881
 11
-55.73342614543338
 21
26.02394542159399
 97
       10
330
248
330
212
330
213
330
214
330
215
330
24B
330
210
330
24A
330
249
330
211
 75
     1
 76
     0
 52
45.0
 41
0.1
 77
     0
 78
     1
 53
45.0
 43
0.0
 44
0.0
 45
-0.0707106781186548
 46
0.0707106781186548
 79
     0
 98
        1
 10
0.0
 20
0.0
  0
HATCH
  5
325
330
71
100
AcDbEntity
  8
1
  6
Continuous
 62
     2
100
AcDbHatch
 10
0.0
 20
0.0
 30
0.0
210
0.0
220
0.0
230
1.0
  2
_USER
 70
     0
 71
     1
 91
        1
 92
        1
 93
       10
 72
     1
 10
-60.981864965852
 20
22.66475494541959
 11
-62.17465766801959
 21
22.66475494541959
 72
     1
 10
-62.17465766801959
 20
22.66475494541959
 11
-62.17465766801959
 21
19.61094542160851
 72
     1
 10
-62.17465766801959
 20
19.61094542160851
 11
-60.981864965852
 21
19.61094542160851
 72
     1
 10
-60.981864965852
 20
19.61094542160851
 11
-60.981864965852
 21
20.91972093181309
 72
     1
 10
-60.981864965852
 20
20.91972093181309
 11
-59.7413605555991
 21
19.61094542160851
 72
     1
 10
-59.7413605555991
 20
19.61094542160851
 11
-58.5485678534327
 21
19.61094542160851
 72
     1
 10
-58.5485678534327
 20
19.61094542160851
 11
-58.5485678534327
 21
22.66475494541959
 72
     1
 10
-58.5485678534327
 20
22.66475494541959
 11
-59.7413605555991
 21
22.66475494541959
 72
     1
 10
-59.7413605555991
 20
22.66475494541959
 11
-59.7413605555991
 21
21.35597943521449
 72
     1
 10
-59.7413605555991
 20
21.35597943521449
 11
-60.981864965852
 21
22.66475494541959
 97
       10
330
217
330
218
330
219
330
245
330
21A
330
21B
330
244
330
247
330
246
330
216
 75
     1
 76
     0
 52
45.0
 41
0.1
 77
     0
 78
     1
 53
45.0
 43
0.0
 44
0.0
 45
-0.0707106781186548
 46
0.0707106781186548
 79
     0
 98
        1
 10
0.0
 20
0.0
  0
HATCH
  5
326
330
71
100
AcDbEntity
  8
1
  6
Continuous
 62
     2
100
AcDbHatch
 10
0.0
 20
0.0
 30
0.0
210
0.0
220
0.0
230
1.0
  2
_USER
 70
     0
 71
     1
 91
        1
 92
        1
 93
       10
 72
     1
 10
-60.981864965852
 20
22.66475494541959
 11
-62.17465766801959
 21
22.66475494541959
 72
     1
 10
-62.17465766801959
 20
22.66475494541959
 11
-62.17465766801959
 21
19.61094542160851
 72
     1
 10
-62.17465766801959
 20
19.61094542160851
 11
-60.981864965852
 21
19.61094542160851
 72
     1
 10
-60.981864965852
 20
19.61094542160851
 11
-60.981864965852
 21
20.91972093181309
 72
     1
 10
-60.981864965852
 20
20.91972093181309
 11
-59.7413605555991
 21
19.61094542160851
 72
     1
 10
-59.7413605555991
 20
19.61094542160851
 11
-58.5485678534327
 21
19.61094542160851
 72
     1
 10
-58.5485678534327
 20
19.61094542160851
 11
-58.5485678534327
 21
22.66475494541959
 72
     1
 10
-58.5485678534327
 20
22.66475494541959
 11
-59.7413605555991
 21
22.66475494541959
 72
     1
 10
-59.7413605555991
 20
22.66475494541959
 11
-59.7413605555991
 21
21.35597943521449
 72
     1
 10
-59.7413605555991
 20
21.35597943521449
 11
-60.981864965852
 21
22.66475494541959
 97
       10
330
217
330
218
330
219
330
245
330
21A
330
21B
330
244
330
247
330
246
330
216
 75
     1
 76
     0
 52
45.0
 41
0.1
 77
     0
 78
     1
 53
45.0
 43
0.0
 44
0.0
 45
-0.0707106781186548
 46
0.0707106781186548
 79
     0
 98
        1
 10
0.0
 20
0.0
  0
HATCH
  5
327
330
71
100
AcDbEntity
  8
1
  6
Continuous
 62
     2
100
AcDbHatch
 10
0.0
 20
0.0
 30
0.0
210
0.0
220
0.0
230
1.0
  2
_USER
 70
     0
 71
     1
 91
        1
 92
        1
 93
       12
 72
     1
 10
-61.9836599047874
 20
26.02394542159399
 11
-61.9836599047874
 21
22.9701358977828
 72
     1
 10
-61.9836599047874
 20
22.9701358977828
 11
-63.1764526069538
 21
22.9701358977828
 72
     1
 10
-63.1764526069538
 20
22.9701358977828
 11
-63.1764526069538
 21
24.10440800662661
 72
     1
 10
-63.1764526069538
 20
24.10440800662661
 11
-64.22611018486128
 21
24.10440800662661
 72
     1
 10
-64.22611018486128
 20
24.10440800662661
 11
-64.22611018486128
 21
22.9701358977828
 72
     1
 10
-64.22611018486128
 20
22.9701358977828
 11
-65.41890288702788
 21
22.9701358977828
 72
     1
 10
-65.41890288702788
 20
22.9701358977828
 11
-65.41890288702788
 21
26.02394542159399
 72
     1
 10
-65.41890288702788
 20
26.02394542159399
 11
-64.22611018486128
 21
26.02394542159399
 72
     1
 10
-64.22611018486128
 20
26.02394542159399
 11
-64.22611018486128
 21
24.9551120882594
 72
     1
 10
-64.22611018486128
 20
24.9551120882594
 11
-63.1764526069538
 21
24.9551120882594
 72
     1
 10
-63.1764526069538
 20
24.9551120882594
 11
-63.1764526069538
 21
26.02394542159399
 72
     1
 10
-63.1764526069538
 20
26.02394542159399
 11
-61.9836599047874
 21
26.02394542159399
 97
       12
330
23F
330
23E
330
23D
330
225
330
226
330
23C
330
227
330
23B
330
23A
330
239
330
223
330
224
 75
     1
 76
     0
 52
45.0
 41
0.1
 77
     0
 78
     1
 53
45.0
 43
0.0
 44
0.0
 45
-0.0707106781186548
 46
0.0707106781186548
 79
     0
 98
        1
 10
0.0
 20
0.0
  0
HATCH
  5
328
330
71
100
AcDbEntity
  8
1
  6
Continuous
 62
     2
100
AcDbHatch
 10
0.0
 20
0.0
 30
0.0
210
0.0
220
0.0
230
1.0
  2
_USER
 70
     0
 71
     1
 91
        1
 92
        1
 93
       12
 72
     1
 10
-61.9836599047874
 20
26.02394542159399
 11
-61.9836599047874
 21
22.9701358977828
 72
     1
 10
-61.9836599047874
 20
22.9701358977828
 11
-63.1764526069538
 21
22.9701358977828
 72
     1
 10
-63.1764526069538
 20
22.9701358977828
 11
-63.1764526069538
 21
24.10440800662661
 72
     1
 10
-63.1764526069538
 20
24.10440800662661
 11
-64.22611018486128
 21
24.10440800662661
 72
     1
 10
-64.22611018486128
 20
24.10440800662661
 11
-64.22611018486128
 21
22.9701358977828
 72
     1
 10
-64.22611018486128
 20
22.9701358977828
 11
-65.41890288702788
 21
22.9701358977828
 72
     1
 10
-65.41890288702788
 20
22.9701358977828
 11
-65.41890288702788
 21
26.02394542159399
 72
     1
 10
-65.41890288702788
 20
26.02394542159399
 11
-64.22611018486128
 21
26.02394542159399
 72
     1
 10
-64.22611018486128
 20
26.02394542159399
 11
-64.22611018486128
 21
24.9551120882594
 72
     1
 10
-64.22611018486128
 20
24.9551120882594
 11
-63.1764526069538
 21
24.9551120882594
 72
     1
 10
-63.1764526069538
 20
24.9551120882594
 11
-63.1764526069538
 21
26.02394542159399
 72
     1
 10
-63.1764526069538
 20
26.02394542159399
 11
-61.9836599047874
 21
26.02394542159399
 97
       12
330
23F
330
23E
330
23D
330
225
330
226
330
23C
330
227
330
23B
330
23A
330
239
330
223
330
224
 75
     1
 76
     0
 52
45.0
 41
0.1
 77
     0
 78
     1
 53
45.0
 43
0.0
 44
0.0
 45
-0.0707106781186548
 46
0.0707106781186548
 79
     0
 98
        1
 10
0.0
 20
0.0
  0
ENDBLK
  5
73
330
71
100
AcDbEntity
  8
0
100
AcDbBlockEnd
  0
BLOCK
  5
75
330
74
100
AcDbEntity
  8
0
100
AcDbBlockBegin
  2
_punkt
 70
     0
 10
49.89364390900151
 20
12.3174454215922
 30
0.0
  3
_punkt
  1

  0
LINE
  5
329
330
74
100
AcDbEntity
  8
1
  6
Continuous
 62
     2
100
AcDbLine
 10
49.89364390900151
 20
12.3174454215922
 30
0.0
 11
49.89364390900151
 21
7.31744542159208
 31
0.0
  0
LINE
  5
32A
330
74
100
AcDbEntity
  8
1
  6
Continuous
 62
     2
100
AcDbLine
 10
49.89364390900151
 20
12.3174454215922
 30
0.0
 11
54.8936439090005
 21
12.3174454215922
 31
0.0
  0
ENDBLK
  5
76
330
74
100
AcDbEntity
  8
0
100
AcDbBlockEnd
  0
BLOCK
  5
7A
330
77
100
AcDbEntity
  8
0
100
AcDbBlockBegin
  2
A4I_CS
 70
     0
 10
49.89364390900151
 20
7.31744542159208
 30
0.0
  3
A4I_CS
  1

  0
INSERT
  5
78
330
77
100
AcDbEntity
  8
1
100
AcDbBlockReference
  2
_rahmen
 10
49.89364390900151
 20
7.31744542159208
 30
0.0
  0
INSERT
  5
79
330
77
100
AcDbEntity
  8
1
100
AcDbBlockReference
  2
_punkt
 10
49.89364390900151
 20
12.3174454215922
 30
0.0
  0
ENDBLK
  5
7B
330
77
100
AcDbEntity
  8
0
100
AcDbBlockEnd
  0
BLOCK
  5
84
330
7C
100
AcDbEntity
  8
0
100
AcDbBlockBegin
  2
1
 70
     0
 10
0.0
 20
0.0
 30
0.0
  3
1
  1

  0
INSERT
  5
7D
330
7C
100
AcDbEntity
  8
0
100
AcDbBlockReference
  2
Back1
 10
-30.74913400000004
 20
153.854045
 30
0.0
  0
INSERT
  5
7E
330
7C
100
AcDbEntity
  8
0
100
AcDbBlockReference
  2
Front1
 10
-126.0
 20
153.8540449999999
 30
0.0
  0
INSERT
  5
7F
330
7C
100
AcDbEntity
  8
0
100
AcDbBlockReference
  2
Gen1
 10
-48.00000000000004
 20
100.0
 30
0.0
  0
INSERT
  5
80
330
7C
100
AcDbEntity
  8
0
100
AcDbBlockReference
  2
Left1
 10
-78.374567
 20
153.854045
 30
0.0
  0
INSERT
  5
81
330
7C
100
AcDbEntity
  8
0
100
AcDbBlockReference
  2
Right1
 10
-191.662735
 20
153.854045
 30
0.0
  0
INSERT
  5
82
330
7C
100
AcDbEntity
  8
0
100
AcDbBlockReference
  2
Top1
 10
-126.0
 20
97.00000000000003
 30
0.0
  0
INSERT
  5
83
330
7C
100
AcDbEntity
  8
0
100
AcDbBlockReference
  2
A4I_CS
 10
49.89364390900151
 20
7.31744542159208
 30
0.0
  0
ENDBLK
  5
85
330
7C
100
AcDbEntity
  8
0
100
AcDbBlockEnd
  0
BLOCK
  5
C5
330
BE
100
AcDbEntity
  8
0
100
AcDbBlockBegin
  2
*D17
 70
     1
 10
0.0
 20
0.0
 30
0.0
  3
*D17
  1

  0
LINE
  5
BF
330
BE
100
AcDbEntity
  8
1
  6
Continuous
 62
     2
100
AcDbLine
 10
-140.3255236465568
 20
137.713413139075
 30
0.0
 11
-111.6743177102332
 21
137.713413139075
 31
0.0
  0
LINE
  5
C0
330
BE
100
AcDbEntity
  8
1
  6
Continuous
 62
     2
100
AcDbLine
 10
-140.3255236465568
 20
153.3200582824654
 30
0.0
 11
-140.3255236465568
 21
136.213413139075
 31
0.0
  0
LINE
  5
C1
330
BE
100
AcDbEntity
  8
1
  6
Continuous
 62
     2
100
AcDbLine
 10
-111.6743177102332
 20
152.4316279116422
 30
0.0
 11
-111.6743177102332
 21
136.213413139075
 31
0.0
  0
SOLID
  5
C2
330
BE
100
AcDbEntity
  8
1
 62
     2
100
AcDbTrace
 10
-136.8255236465568
 20
138.1741968806309
 30
0.0
 11
-136.8255236465568
 21
137.2526293975191
 31
0.0
 12
-140.3255236465568
 22
137.713413139075
 32
0.0
 13
-140.3255236465568
 23
137.713413139075
 33
0.0
  0
SOLID
  5
C3
330
BE
100
AcDbEntity
  8
1
 62
     2
100
AcDbTrace
 10
-115.1743177102332
 20
137.2526293975191
 30
0.0
 11
-115.1743177102332
 21
138.1741968806309
 31
0.0
 12
-111.6743177102332
 22
137.713413139075
 32
0.0
 13
-111.6743177102332
 23
137.713413139075
 33
0.0
  0
MTEXT
  5
C4
330
BE
100
AcDbEntity
  8
1
 62
     3
100
AcDbMText
 10
-132.4061514017784
 20
139.563413139075
 30
0.0
 40
3.5
 41
0.0
 71
     7
 72
     1
  1
28,65
  7
CONVERTER_11
 11
0.9999999999970619
 21
2.424068405545306E-6
 31
0.0
 73
     1
 44
0.60024009603842
  0
ENDBLK
  5
C6
330
BE
100
AcDbEntity
  8
0
100
AcDbBlockEnd
  0
BLOCK
  5
D1
330
C8
100
AcDbEntity
  8
0
100
AcDbBlockBegin
  2
*D18
 70
     1
 10
0.0
 20
0.0
 30
0.0
  3
*D18
  1

  0
LINE
  5
C9
330
C8
100
AcDbEntity
  8
1
  6
Continuous
 62
     2
100
AcDbLine
 10
-152.9490356192422
 20
135.439609020547
 30
0.0
 11
-152.9490356192422
 21
151.1557741311833
 31
0.0
  0
LINE
  5
CA
330
C8
100
AcDbEntity
  8
1
  6
Continuous
 62
     2
100
AcDbLine
 10
-152.9490356192422
 20
151.1557741311833
 30
0.0
 11
-152.9490356192422
 21
156.5895277030499
 31
0.0
  0
LINE
  5
CB
330
C8
100
AcDbEntity
  8
1
  6
Continuous
 62
     2
100
AcDbLine
 10
-152.9490356192422
 20
156.5895277030499
 30
0.0
 11
-152.9490356192422
 21
163.5895277030499
 31
0.0
  0
LINE
  5
CC
330
C8
100
AcDbEntity
  8
1
  6
Continuous
 62
     2
100
AcDbLine
 10
-128.4794261124885
 20
151.1557741311833
 30
0.0
 11
-154.4490356192422
 21
151.1557741311833
 31
0.0
  0
LINE
  5
CD
330
C8
100
AcDbEntity
  8
1
  6
Continuous
 62
     2
100
AcDbLine
 10
-139.6350445870048
 20
156.5895277030499
 30
0.0
 11
-154.4490356192422
 21
156.5895277030499
 31
0.0
  0
SOLID
  5
CE
330
C8
100
AcDbEntity
  8
1
 62
     2
100
AcDbTrace
 10
-152.4882518776863
 20
147.6557741311833
 30
0.0
 11
-153.4098193607981
 21
147.6557741311833
 31
0.0
 12
-152.9490356192422
 22
151.1557741311833
 32
0.0
 13
-152.9490356192422
 23
151.1557741311833
 33
0.0
  0
SOLID
  5
CF
330
C8
100
AcDbEntity
  8
1
 62
     2
100
AcDbTrace
 10
-153.4098193607981
 20
160.0895277030499
 30
0.0
 11
-152.4882518776863
 21
160.0895277030499
 31
0.0
 12
-152.9490356192422
 22
156.5895277030499
 32
0.0
 13
-152.9490356192422
 23
156.5895277030499
 33
0.0
  0
MTEXT
  5
D0
330
C8
100
AcDbEntity
  8
1
 62
     3
100
AcDbMText
 10
-154.7990356192422
 20
135.439609020547
 30
0.0
 40
3.5
 41
0.0
 71
     7
 72
     1
  1
5,43
  7
CONVERTER_11
 11
0.0
 21
1.0
 31
0.0
 73
     1
 44
0.60024009603842
  0
ENDBLK
  5
D2
330
C8
100
AcDbEntity
  8
0
100
AcDbBlockEnd
  0
BLOCK
  5
1EE
330
1E7
100
AcDbEntity
  8
0
100
AcDbBlockBegin
  2
*D19
 70
     1
 10
0.0
 20
0.0
 30
0.0
  3
*D19
  1

  0
LINE
  5
1E8
330
1E7
100
AcDbEntity
  8
1
  6
Continuous
 62
     2
100
AcDbLine
 10
-152.9490356192422
 20
83.69999952313815
 30
0.0
 11
-152.9490356192422
 21
110.2999995231382
 31
0.0
  0
LINE
  5
1E9
330
1E7
100
AcDbEntity
  8
1
  6
Continuous
 62
     2
100
AcDbLine
 10
-132.8369187619039
 20
83.69999952313815
 30
0.0
 11
-154.4490356192422
 21
83.69999952313815
 31
0.0
  0
LINE
  5
1EA
330
1E7
100
AcDbEntity
  8
1
  6
Continuous
 62
     2
100
AcDbLine
 10
-132.8369187619041
 20
110.2999995231382
 30
0.0
 11
-154.4490356192422
 21
110.2999995231382
 31
0.0
  0
SOLID
  5
1EB
330
1E7
100
AcDbEntity
  8
1
 62
     2
100
AcDbTrace
 10
-153.4098193607981
 20
87.19999952313815
 30
0.0
 11
-152.4882518776863
 21
87.19999952313815
 31
0.0
 12
-152.9490356192422
 22
83.69999952313815
 32
0.0
 13
-152.9490356192422
 23
83.69999952313815
 33
0.0
  0
SOLID
  5
1EC
330
1E7
100
AcDbEntity
  8
1
 62
     2
100
AcDbTrace
 10
-152.4882518776863
 20
106.7999995231382
 30
0.0
 11
-153.4098193607981
 21
106.7999995231382
 31
0.0
 12
-152.9490356192422
 22
110.2999995231382
 32
0.0
 13
-152.9490356192422
 23
110.2999995231382
 33
0.0
  0
MTEXT
  5
1ED
330
1E7
100
AcDbEntity
  8
1
 62
     3
100
AcDbMText
 10
-154.7990356192422
 20
93.2361582364731
 30
0.0
 40
3.5
 41
0.0
 71
     7
 72
     1
  1
26,6
  7
CONVERTER_11
 11
0.0
 21
1.0
 31
0.0
 73
     1
 44
0.60024009603842
  0
ENDBLK
  5
1EF
330
1E7
100
AcDbEntity
  8
0
100
AcDbBlockEnd
  0
ENDSEC
  0
SECTION
  2
ENTITIES
  0
INSERT
  5
86
330
1F
100
AcDbEntity
  8
1
100
AcDbBlockReference
  2
1
 10
0.0
 20
0.0
 30
0.0
  0
ENDSEC
  0
SECTION
  2
OBJECTS
  0
DICTIONARY
  5
C
330
0
100
AcDbDictionary
281
     1
  3
ACAD_GROUP
350
D
  3
ACAD_LAYOUT
350
1A
  3
ACAD_MATERIAL
350
3B
  3
ACAD_MLEADERSTYLE
350
352
  3
ACAD_MLINESTYLE
350
17
  3
ACAD_PLOTSETTINGS
350
19
  3
ACAD_PLOTSTYLENAME
350
E
  3
ACAD_TABLESTYLE
350
351
  3
ACAD_VISUALSTYLE
350
2A
  0
DICTIONARY
  5
D
102
{ACAD_REACTORS
330
C
102
}
330
C
100
AcDbDictionary
281
     1
  0
DICTIONARY
  5
1A
102
{ACAD_REACTORS
330
C
102
}
330
C
100
AcDbDictionary
281
     1
  3
Layout1
350
1E
  3
Layout2
350
26
  3
Model
350
22
  0
DICTIONARY
  5
3B
102
{ACAD_REACTORS
330
C
102
}
330
C
100
AcDbDictionary
281
     1
  3
ByBlock
350
3D
  3
ByLayer
350
3C
  3
Global
350
3E
  0
DICTIONARY
  5
352
102
{ACAD_REACTORS
330
C
102
}
330
C
100
AcDbDictionary
281
     1
  0
DICTIONARY
  5
17
102
{ACAD_REACTORS
330
C
102
}
330
C
100
AcDbDictionary
281
     1
  3
Standard
350
18
  0
DICTIONARY
  5
19
102
{ACAD_REACTORS
330
C
102
}
330
C
100
AcDbDictionary
281
     1
  0
ACDBDICTIONARYWDFLT
  5
E
102
{ACAD_REACTORS
330
C
102
}
330
C
100
AcDbDictionary
281
     1
  3
Normal
350
F
100
AcDbDictionaryWithDefault
340
F
  0
DICTIONARY
  5
351
102
{ACAD_REACTORS
330
C
102
}
330
C
100
AcDbDictionary
281
     1
  0
DICTIONARY
  5
2A
102
{ACAD_REACTORS
330
C
102
}
330
C
100
AcDbDictionary
281
     1
  3
2dWireframe
350
2F
  3
3D Hidden
350
31
  3
3dWireframe
350
30
  3
Basic
350
32
  3
Brighten
350
36
  3
ColorChange
350
3A
  3
Conceptual
350
34
  3
Dim
350
35
  3
Facepattern
350
39
  3
Flat
350
2B
  3
FlatWithEdges
350
2C
  3
Gouraud
350
2D
  3
GouraudWithEdges
350
2E
  3
Linepattern
350
38
  3
Realistic
350
33
  3
Thicken
350
37
  0
LAYOUT
  5
1E
102
{ACAD_REACTORS
330
1A
102
}
330
1A
100
AcDbPlotSettings
  1

  2
none_device
  4

  6

 40
0.0
 41
0.0
 42
0.0
 43
0.0
 44
0.0
 45
0.0
 46
0.0
 47
0.0
 48
0.0
 49
0.0
140
0.0
141
0.0
142
1.0
143
1.0
 70
   688
 72
     0
 73
     0
 74
     5
  7

 75
    16
 76
     0
 77
     2
 78
   300
147
1.0
148
0.0
149
0.0
100
AcDbLayout
  1
Layout1
 70
     1
 71
     1
 10
0.0
 20
0.0
 11
12.0
 21
9.0
 12
0.0
 22
0.0
 32
0.0
 14
1.00000000000000E+20
 24
1.00000000000000E+20
 34
1.00000000000000E+20
 15
-1.00000000000000E+20
 25
-1.00000000000000E+20
 35
-1.00000000000000E+20
146
0.0
 13
0.0
 23
0.0
 33
0.0
 16
1.0
 26
0.0
 36
0.0
 17
0.0
 27
1.0
 37
0.0
 76
     0
330
1B
  0
LAYOUT
  5
26
102
{ACAD_REACTORS
330
1A
102
}
330
1A
100
AcDbPlotSettings
  1

  2
none_device
  4

  6

 40
0.0
 41
0.0
 42
0.0
 43
0.0
 44
0.0
 45
0.0
 46
0.0
 47
0.0
 48
0.0
 49
0.0
140
0.0
141
0.0
142
1.0
143
1.0
 70
   688
 72
     0
 73
     0
 74
     5
  7

 75
    16
 76
     0
 77
     2
 78
   300
147
1.0
148
0.0
149
0.0
100
AcDbLayout
  1
Layout2
 70
     1
 71
     2
 10
0.0
 20
0.0
 11
0.0
 21
0.0
 12
0.0
 22
0.0
 32
0.0
 14
0.0
 24
0.0
 34
0.0
 15
0.0
 25
0.0
 35
0.0
146
0.0
 13
0.0
 23
0.0
 33
0.0
 16
1.0
 26
0.0
 36
0.0
 17
0.0
 27
1.0
 37
0.0
 76
     0
330
23
  0
LAYOUT
  5
22
102
{ACAD_REACTORS
330
1A
102
}
330
1A
100
AcDbPlotSettings
  1

  2
none_device
  4

  6

 40
0.0
 41
0.0
 42
0.0
 43
0.0
 44
0.0
 45
0.0
 46
0.0
 47
0.0
 48
0.0
 49
0.0
140
0.0
141
0.0
142
1.0
143
1.0
 70
  1712
 72
     0
 73
     0
 74
     0
  7

 75
     0
 76
     0
 77
     2
 78
   300
147
1.0
148
0.0
149
0.0
100
AcDbLayout
  1
Model
 70
     1
 71
     0
 10
0.0
 20
0.0
 11
12.0
 21
9.0
 12
0.0
 22
0.0
 32
0.0
 14
-242.1063560909976
 24
7.31744542159208
 34
0.0
 15
54.8936439090005
 25
217.3174454215922
 35
0.0
146
0.0
 13
0.0
 23
0.0
 33
0.0
 16
1.0
 26
0.0
 36
0.0
 17
0.0
 27
1.0
 37
0.0
 76
     0
330
1F
331
29
  0
MATERIAL
  5
3D
102
{ACAD_REACTORS
330
3B
102
}
102
{ACAD_XDICTIONARY
360
34D
102
}
330
3B
100
AcDbMaterial
  1
ByBlock
  0
MATERIAL
  5
3C
102
{ACAD_REACTORS
330
3B
102
}
102
{ACAD_XDICTIONARY
360
34B
102
}
330
3B
100
AcDbMaterial
  1
ByLayer
  0
MATERIAL
  5
3E
102
{ACAD_REACTORS
330
3B
102
}
102
{ACAD_XDICTIONARY
360
34F
102
}
330
3B
100
AcDbMaterial
  1
Global
  0
MLINESTYLE
  5
18
102
{ACAD_REACTORS
330
17
102
}
330
17
100
AcDbMlineStyle
  2
Standard
 70
     0
  3

 62
   256
 51
90.0
 52
90.0
 71
     2
 49
0.5
 62
   256
  6
BYLAYER
 49
-0.5
 62
   256
  6
BYLAYER
  0
ACDBPLACEHOLDER
  5
F
102
{ACAD_REACTORS
330
E
102
}
330
E
  0
VISUALSTYLE
  5
2F
102
{ACAD_REACTORS
330
2A
102
}
102
{ACAD_XDICTIONARY
360
333
102
}
330
2A
100
AcDbVisualStyle
  2
2dWireframe
 70
     4
 71
     0
 72
     2
 73
     0
 90
        0
 40
-0.6
 41
-30.0
 62
     5
 63
     7
421
 16777215
 74
     1
 91
        4
 64
     7
 65
   257
 75
     1
175
     1
 42
1.0
 92
        0
 66
   257
 43
1.0
 76
     1
 77
     6
 78
     2
 67
     7
 79
     5
170
     0
171
     0
290
     0
174
     0
 93
        1
 44
0.0
173
     0
291
     0
 45
0.0
1001
ACAD
1000
AcDbSavedByObjectVersion
1070
     0
  0
VISUALSTYLE
  5
31
102
{ACAD_REACTORS
330
2A
102
}
102
{ACAD_XDICTIONARY
360
337
102
}
330
2A
100
AcDbVisualStyle
  2
3D Hidden
 70
     6
 71
     1
 72
     2
 73
     2
 90
        0
 40
-0.6
 41
-30.0
 62
     5
 63
     7
421
 16777215
 74
     2
 91
        2
 64
     7
 65
   257
 75
     2
175
     1
 42
40.0
 92
        0
 66
   257
 43
1.0
 76
     1
 77
     6
 78
     2
 67
     7
 79
     3
170
     0
171
     0
290
     0
174
     0
 93
        1
 44
0.0
173
     0
291
     0
 45
0.0
1001
ACAD
1000
AcDbSavedByObjectVersion
1070
     0
  0
VISUALSTYLE
  5
30
102
{ACAD_REACTORS
330
2A
102
}
102
{ACAD_XDICTIONARY
360
335
102
}
330
2A
100
AcDbVisualStyle
  2
3dWireframe
 70
     5
 71
     0
 72
     2
 73
     0
 90
        0
 40
-0.6
 41
-30.0
 62
     5
 63
     7
421
 16777215
 74
     1
 91
        4
 64
     7
 65
   257
 75
     1
175
     1
 42
1.0
 92
        0
 66
   257
 43
1.0
 76
     1
 77
     6
 78
     2
 67
     7
 79
     5
170
     0
171
     0
290
     0
174
     0
 93
        1
 44
0.0
173
     0
291
     0
 45
0.0
1001
ACAD
1000
AcDbSavedByObjectVersion
1070
     0
  0
VISUALSTYLE
  5
32
102
{ACAD_REACTORS
330
2A
102
}
102
{ACAD_XDICTIONARY
360
339
102
}
330
2A
100
AcDbVisualStyle
  2
Basic
 70
     7
 71
     1
 72
     0
 73
     1
 90
        0
 40
-0.6
 41
-30.0
 62
     5
 63
     7
421
 16777215
 74
     0
 91
        4
 64
     7
 65
   257
 75
     1
175
     1
 42
1.0
 92
        8
 66
     7
 43
1.0
 76
     1
 77
     6
 78
     2
 67
     7
 79
     5
170
     0
171
     0
290
     0
174
     0
 93
        1
 44
0.0
173
     0
291
     1
 45
0.0
1001
ACAD
1000
AcDbSavedByObjectVersion
1070
     0
  0
VISUALSTYLE
  5
36
102
{ACAD_REACTORS
330
2A
102
}
102
{ACAD_XDICTIONARY
360
341
102
}
330
2A
100
AcDbVisualStyle
  2
Brighten
 70
    12
 71
     2
 72
     2
 73
     0
 90
        0
 40
-0.6
 41
-30.0
 62
     5
 63
     7
421
 16777215
 74
     1
 91
        4
 64
     7
 65
   257
 75
     1
175
     1
 42
1.0
 92
        8
 66
     7
 43
1.0
 76
     1
 77
     6
 78
     2
 67
     7
 79
     5
170
     0
171
     0
290
     0
174
     0
 93
        1
 44
50.0
173
     0
291
     1
 45
0.0
1001
ACAD
1000
AcDbSavedByObjectVersion
1070
     0
  0
VISUALSTYLE
  5
3A
102
{ACAD_REACTORS
330
2A
102
}
102
{ACAD_XDICTIONARY
360
349
102
}
330
2A
100
AcDbVisualStyle
  2
ColorChange
 70
    16
 71
     2
 72
     2
 73
     3
 90
        0
 40
-0.6
 41
-30.0
 62
     5
 63
     8
421
  8421504
 74
     1
 91
        4
 64
     7
 65
   257
 75
     1
175
     1
 42
1.0
 92
        8
 66
     8
424
  8421504
 43
1.0
 76
     1
 77
     6
 78
     2
 67
     7
 79
     5
170
     0
171
     0
290
     0
174
     0
 93
        1
 44
0.0
173
     0
291
     1
 45
0.0
1001
ACAD
1000
AcDbSavedByObjectVersion
1070
     0
  0
VISUALSTYLE
  5
34
102
{ACAD_REACTORS
330
2A
102
}
102
{ACAD_XDICTIONARY
360
33D
102
}
330
2A
100
AcDbVisualStyle
  2
Conceptual
 70
     9
 71
     3
 72
     2
 73
     0
 90
        0
 40
-0.6
 41
-30.0
 62
     5
 63
     7
421
 16777215
 74
     2
 91
        2
 64
     7
 65
   257
 75
     1
175
     1
 42
40.0
 92
        8
 66
     7
 43
1.0
 76
     1
 77
     6
 78
     2
 67
     7
 79
     3
170
     0
171
     0
290
     0
174
     0
 93
        1
 44
0.0
173
     0
291
     0
 45
0.0
1001
ACAD
1000
AcDbSavedByObjectVersion
1070
     0
  0
VISUALSTYLE
  5
35
102
{ACAD_REACTORS
330
2A
102
}
102
{ACAD_XDICTIONARY
360
33F
102
}
330
2A
100
AcDbVisualStyle
  2
Dim
 70
    11
 71
     2
 72
     2
 73
     0
 90
        0
 40
-0.6
 41
-30.0
 62
     5
 63
     7
421
 16777215
 74
     1
 91
        4
 64
     7
 65
   257
 75
     1
175
     1
 42
1.0
 92
        8
 66
     7
 43
1.0
 76
     1
 77
     6
 78
     2
 67
     7
 79
     5
170
     0
171
     0
290
     0
174
     0
 93
        1
 44
-50.0
173
     0
291
     1
 45
0.0
1001
ACAD
1000
AcDbSavedByObjectVersion
1070
     0
  0
VISUALSTYLE
  5
39
102
{ACAD_REACTORS
330
2A
102
}
102
{ACAD_XDICTIONARY
360
347
102
}
330
2A
100
AcDbVisualStyle
  2
Facepattern
 70
    15
 71
     2
 72
     2
 73
     0
 90
        0
 40
-0.6
 41
-30.0
 62
     5
 63
     7
421
 16777215
 74
     1
 91
        4
 64
     7
 65
   257
 75
     1
175
     1
 42
1.0
 92
        8
 66
     7
 43
1.0
 76
     1
 77
     6
 78
     2
 67
     7
 79
     5
170
     0
171
     0
290
     0
174
     0
 93
        1
 44
0.0
173
     0
291
     1
 45
0.0
1001
ACAD
1000
AcDbSavedByObjectVersion
1070
     0
  0
VISUALSTYLE
  5
2B
102
{ACAD_REACTORS
330
2A
102
}
102
{ACAD_XDICTIONARY
360
32B
102
}
330
2A
100
AcDbVisualStyle
  2
Flat
 70
     0
 71
     2
 72
     1
 73
     1
 90
        2
 40
-0.6
 41
30.0
 62
     5
 63
     7
421
 16777215
 74
     0
 91
        4
 64
     7
 65
   257
 75
     1
175
     1
 42
1.0
 92
        8
 66
     7
 43
1.0
 76
     1
 77
     6
 78
     2
 67
     7
 79
     5
170
     0
171
     0
290
     0
174
     0
 93
       13
 44
0.0
173
     0
291
     1
 45
0.0
1001
ACAD
1000
AcDbSavedByObjectVersion
1070
     0
  0
VISUALSTYLE
  5
2C
102
{ACAD_REACTORS
330
2A
102
}
102
{ACAD_XDICTIONARY
360
32D
102
}
330
2A
100
AcDbVisualStyle
  2
FlatWithEdges
 70
     1
 71
     2
 72
     1
 73
     1
 90
        2
 40
-0.6
 41
30.0
 62
     5
 63
     7
421
 16777215
 74
     1
 91
        4
 64
     7
 65
   257
 75
     1
175
     1
 42
1.0
 92
        0
 66
   257
 43
1.0
 76
     1
 77
     6
 78
     2
 67
     7
 79
     5
170
     0
171
     0
290
     0
174
     0
 93
       13
 44
0.0
173
     0
291
     1
 45
0.0
1001
ACAD
1000
AcDbSavedByObjectVersion
1070
     0
  0
VISUALSTYLE
  5
2D
102
{ACAD_REACTORS
330
2A
102
}
102
{ACAD_XDICTIONARY
360
32F
102
}
330
2A
100
AcDbVisualStyle
  2
Gouraud
 70
     2
 71
     2
 72
     2
 73
     1
 90
        2
 40
-0.6
 41
30.0
 62
     5
 63
     7
421
 16777215
 74
     0
 91
        4
 64
     7
 65
   257
 75
     1
175
     1
 42
1.0
 92
        0
 66
     7
 43
1.0
 76
     1
 77
     6
 78
     2
 67
     7
 79
     5
170
     0
171
     0
290
     0
174
     0
 93
       13
 44
0.0
173
     0
291
     1
 45
0.0
1001
ACAD
1000
AcDbSavedByObjectVersion
1070
     0
  0
VISUALSTYLE
  5
2E
102
{ACAD_REACTORS
330
2A
102
}
102
{ACAD_XDICTIONARY
360
331
102
}
330
2A
100
AcDbVisualStyle
  2
GouraudWithEdges
 70
     3
 71
     2
 72
     2
 73
     1
 90
        2
 40
-0.6
 41
30.0
 62
     5
 63
     7
421
 16777215
 74
     1
 91
        4
 64
     7
 65
   257
 75
     1
175
     1
 42
1.0
 92
        0
 66
   257
 43
1.0
 76
     1
 77
     6
 78
     2
 67
     7
 79
     5
170
     0
171
     0
290
     0
174
     0
 93
       13
 44
0.0
173
     0
291
     1
 45
0.0
1001
ACAD
1000
AcDbSavedByObjectVersion
1070
     0
  0
VISUALSTYLE
  5
38
102
{ACAD_REACTORS
330
2A
102
}
102
{ACAD_XDICTIONARY
360
345
102
}
330
2A
100
AcDbVisualStyle
  2
Linepattern
 70
    14
 71
     2
 72
     2
 73
     0
 90
        0
 40
-0.6
 41
-30.0
 62
     5
 63
     7
421
 16777215
 74
     1
 91
        4
 64
     7
 65
   257
 75
     7
175
     7
 42
1.0
 92
        8
 66
     7
 43
1.0
 76
     1
 77
     6
 78
     2
 67
     7
 79
     5
170
     0
171
     0
290
     0
174
     0
 93
        1
 44
0.0
173
     0
291
     1
 45
0.0
1001
ACAD
1000
AcDbSavedByObjectVersion
1070
     0
  0
VISUALSTYLE
  5
33
102
{ACAD_REACTORS
330
2A
102
}
102
{ACAD_XDICTIONARY
360
33B
102
}
330
2A
100
AcDbVisualStyle
  2
Realistic
 70
     8
 71
     2
 72
     2
 73
     0
 90
        0
 40
-0.6
 41
-30.0
 62
     5
 63
     7
421
 16777215
 74
     1
 91
        0
 64
     7
 65
   257
 75
     1
175
     1
 42
1.0
 92
        8
 66
     8
424
  7895160
 43
1.0
 76
     1
 77
     6
 78
     2
 67
     7
 79
     5
170
     0
171
     0
290
     0
174
     0
 93
       13
 44
0.0
173
     0
291
     0
 45
0.0
1001
ACAD
1000
AcDbSavedByObjectVersion
1070
     0
  0
VISUALSTYLE
  5
37
102
{ACAD_REACTORS
330
2A
102
}
102
{ACAD_XDICTIONARY
360
343
102
}
330
2A
100
AcDbVisualStyle
  2
Thicken
 70
    13
 71
     2
 72
     2
 73
     0
 90
        0
 40
-0.6
 41
-30.0
 62
     5
 63
     7
421
 16777215
 74
     1
 91
        4
 64
     7
 65
   257
 75
     1
175
     1
 42
1.0
 92
       12
 66
     7
 43
1.0
 76
     1
 77
     6
 78
     2
 67
     7
 79
     5
170
     0
171
     0
290
     0
174
     0
 93
        1
 44
0.0
173
     0
291
     1
 45
0.0
1001
ACAD
1000
AcDbSavedByObjectVersion
1070
     0
  0
DICTIONARY
  5
34D
330
3D
100
AcDbDictionary
280
     1
281
     1
  3
ACAD_XREC_ROUNDTRIP
360
34E
  0
DICTIONARY
  5
34B
330
3C
100
AcDbDictionary
280
     1
281
     1
  3
ACAD_XREC_ROUNDTRIP
360
34C
  0
DICTIONARY
  5
34F
330
3E
100
AcDbDictionary
280
     1
281
     1
  3
ACAD_XREC_ROUNDTRIP
360
350
  0
DICTIONARY
  5
333
330
2F
100
AcDbDictionary
280
     1
281
     1
  3
ACAD_XREC_ROUNDTRIP
360
334
  0
DICTIONARY
  5
337
330
31
100
AcDbDictionary
280
     1
281
     1
  3
ACAD_XREC_ROUNDTRIP
360
338
  0
DICTIONARY
  5
335
330
30
100
AcDbDictionary
280
     1
281
     1
  3
ACAD_XREC_ROUNDTRIP
360
336
  0
DICTIONARY
  5
339
330
32
100
AcDbDictionary
280
     1
281
     1
  3
ACAD_XREC_ROUNDTRIP
360
33A
  0
DICTIONARY
  5
341
330
36
100
AcDbDictionary
280
     1
281
     1
  3
ACAD_XREC_ROUNDTRIP
360
342
  0
DICTIONARY
  5
349
330
3A
100
AcDbDictionary
280
     1
281
     1
  3
ACAD_XREC_ROUNDTRIP
360
34A
  0
DICTIONARY
  5
33D
330
34
100
AcDbDictionary
280
     1
281
     1
  3
ACAD_XREC_ROUNDTRIP
360
33E
  0
DICTIONARY
  5
33F
330
35
100
AcDbDictionary
280
     1
281
     1
  3
ACAD_XREC_ROUNDTRIP
360
340
  0
DICTIONARY
  5
347
330
39
100
AcDbDictionary
280
     1
281
     1
  3
ACAD_XREC_ROUNDTRIP
360
348
  0
DICTIONARY
  5
32B
330
2B
100
AcDbDictionary
280
     1
281
     1
  3
ACAD_XREC_ROUNDTRIP
360
32C
  0
DICTIONARY
  5
32D
330
2C
100
AcDbDictionary
280
     1
281
     1
  3
ACAD_XREC_ROUNDTRIP
360
32E
  0
DICTIONARY
  5
32F
330
2D
100
AcDbDictionary
280
     1
281
     1
  3
ACAD_XREC_ROUNDTRIP
360
330
  0
DICTIONARY
  5
331
330
2E
100
AcDbDictionary
280
     1
281
     1
  3
ACAD_XREC_ROUNDTRIP
360
332
  0
DICTIONARY
  5
345
330
38
100
AcDbDictionary
280
     1
281
     1
  3
ACAD_XREC_ROUNDTRIP
360
346
  0
DICTIONARY
  5
33B
330
33
100
AcDbDictionary
280
     1
281
     1
  3
ACAD_XREC_ROUNDTRIP
360
33C
  0
DICTIONARY
  5
343
330
37
100
AcDbDictionary
280
     1
281
     1
  3
ACAD_XREC_ROUNDTRIP
360
344
  0
XRECORD
  5
34E
102
{ACAD_REACTORS
330
34D
102
}
330
34D
100
AcDbXrecord
280
     1
102
MATERIAL
148
0.0
149
0.0
149
0.0
 93
        0
 94
      127
282
     0
 72
     1
 77
     1
171
     1
175
     1
179
     1
273
     0
  0
XRECORD
  5
34C
102
{ACAD_REACTORS
330
34B
102
}
330
34B
100
AcDbXrecord
280
     1
102
MATERIAL
148
0.0
149
0.0
149
0.0
 93
        0
 94
      127
282
     0
 72
     1
 77
     1
171
     1
175
     1
179
     1
273
     0
  0
XRECORD
  5
350
102
{ACAD_REACTORS
330
34F
102
}
330
34F
100
AcDbXrecord
280
     1
102
MATERIAL
148
0.0
149
0.0
149
0.0
 93
        0
 94
      127
282
     0
 72
     1
 77
     1
171
     1
175
     1
179
     1
273
     0
  0
XRECORD
  5
334
102
{ACAD_REACTORS
330
333
102
}
330
333
100
AcDbXrecord
280
     1
102
RTVSPropertyOp0
 70
     1
102
RTVSPropertyOp1
 70
     1
102
RTVSPropertyOp2
 70
     1
102
RTVSPropertyOp3
 70
     1
102
RTVSPropertyOp4
 70
     1
102
RTVSPropertyOp5
 70
     1
102
RTVSPropertyOp6
 70
     1
102
RTVSPropertyOp7
 70
     1
102
RTVSPropertyOp8
 70
     1
102
RTVSPropertyOp9
 70
     1
102
RTVSPropertyOp10
 70
     1
102
RTVSPropertyOp11
 70
     1
102
RTVSPropertyOp12
 70
     1
102
RTVSPropertyOp13
 70
     1
102
RTVSPropertyOp14
 70
     1
102
RTVSPropertyOp15
 70
     1
102
RTVSPropertyOp16
 70
     1
102
RTVSPropertyOp17
 70
     1
102
RTVSPropertyOp18
 70
     1
102
RTVSPropertyOp19
 70
     1
102
RTVSPropertyOp20
 70
     1
102
RTVSPropertyOp21
 70
     1
102
RTVSPropertyOp22
 70
     1
102
RTVSPropertyOp23
 70
     1
102
RTVSPropertyOp24
 70
     1
102
RTVSPropertyOp25
 70
     1
102
RTVSPropertyOp26
 70
     1
102
RTVSPropertyOp27
 70
     1
102
RTVSPropertyOp28
 70
     1
102
RTVSPropertyOp29
 70
     1
102
RTVSPropertyOp30
 70
     1
102
RTVSPropertyOp31
 70
     1
102
RTVSPropertyOp32
 70
     1
  0
XRECORD
  5
338
102
{ACAD_REACTORS
330
337
102
}
330
337
100
AcDbXrecord
280
     1
102
RTVSPropertyOp0
 70
     1
102
RTVSPropertyOp1
 70
     1
102
RTVSPropertyOp2
 70
     1
102
RTVSPropertyOp3
 70
     1
102
RTVSPropertyOp4
 70
     1
102
RTVSPropertyOp5
 70
     1
102
RTVSPropertyOp6
 70
     1
102
RTVSPropertyOp7
 70
     1
102
RTVSPropertyOp8
 70
     1
102
RTVSPropertyOp9
 70
     1
102
RTVSPropertyOp10
 70
     1
102
RTVSPropertyOp11
 70
     1
102
RTVSPropertyOp12
 70
     1
102
RTVSPropertyOp13
 70
     1
102
RTVSPropertyOp14
 70
     1
102
RTVSPropertyOp15
 70
     1
102
RTVSPropertyOp16
 70
     1
102
RTVSPropertyOp17
 70
     1
102
RTVSPropertyOp18
 70
     1
102
RTVSPropertyOp19
 70
     1
102
RTVSPropertyOp20
 70
     1
102
RTVSPropertyOp21
 70
     1
102
RTVSPropertyOp22
 70
     1
102
RTVSPropertyOp23
 70
     1
102
RTVSPropertyOp24
 70
     1
102
RTVSPropertyOp25
 70
     1
102
RTVSPropertyOp26
 70
     1
102
RTVSPropertyOp27
 70
     1
102
RTVSPropertyOp28
 70
     1
102
RTVSPropertyOp29
 70
     1
102
RTVSPropertyOp30
 70
     1
102
RTVSPropertyOp31
 70
     1
102
RTVSPropertyOp32
 70
     1
  0
XRECORD
  5
336
102
{ACAD_REACTORS
330
335
102
}
330
335
100
AcDbXrecord
280
     1
102
RTVSPropertyOp0
 70
     1
102
RTVSPropertyOp1
 70
     1
102
RTVSPropertyOp2
 70
     1
102
RTVSPropertyOp3
 70
     1
102
RTVSPropertyOp4
 70
     1
102
RTVSPropertyOp5
 70
     1
102
RTVSPropertyOp6
 70
     1
102
RTVSPropertyOp7
 70
     1
102
RTVSPropertyOp8
 70
     1
102
RTVSPropertyOp9
 70
     1
102
RTVSPropertyOp10
 70
     1
102
RTVSPropertyOp11
 70
     1
102
RTVSPropertyOp12
 70
     1
102
RTVSPropertyOp13
 70
     1
102
RTVSPropertyOp14
 70
     1
102
RTVSPropertyOp15
 70
     1
102
RTVSPropertyOp16
 70
     1
102
RTVSPropertyOp17
 70
     1
102
RTVSPropertyOp18
 70
     1
102
RTVSPropertyOp19
 70
     1
102
RTVSPropertyOp20
 70
     1
102
RTVSPropertyOp21
 70
     1
102
RTVSPropertyOp22
 70
     1
102
RTVSPropertyOp23
 70
     1
102
RTVSPropertyOp24
 70
     1
102
RTVSPropertyOp25
 70
     1
102
RTVSPropertyOp26
 70
     1
102
RTVSPropertyOp27
 70
     1
102
RTVSPropertyOp28
 70
     1
102
RTVSPropertyOp29
 70
     1
102
RTVSPropertyOp30
 70
     1
102
RTVSPropertyOp31
 70
     1
102
RTVSPropertyOp32
 70
     1
  0
XRECORD
  5
33A
102
{ACAD_REACTORS
330
339
102
}
330
339
100
AcDbXrecord
280
     1
102
RTVSPropertyOp0
 70
     1
102
RTVSPropertyOp1
 70
     1
102
RTVSPropertyOp2
 70
     1
102
RTVSPropertyOp3
 70
     1
102
RTVSPropertyOp4
 70
     1
102
RTVSPropertyOp5
 70
     1
102
RTVSPropertyOp6
 70
     1
102
RTVSPropertyOp7
 70
     1
102
RTVSPropertyOp8
 70
     1
102
RTVSPropertyOp9
 70
     1
102
RTVSPropertyOp10
 70
     1
102
RTVSPropertyOp11
 70
     1
102
RTVSPropertyOp12
 70
     1
102
RTVSPropertyOp13
 70
     1
102
RTVSPropertyOp14
 70
     1
102
RTVSPropertyOp15
 70
     1
102
RTVSPropertyOp16
 70
     1
102
RTVSPropertyOp17
 70
     1
102
RTVSPropertyOp18
 70
     1
102
RTVSPropertyOp19
 70
     1
102
RTVSPropertyOp20
 70
     1
102
RTVSPropertyOp21
 70
     1
102
RTVSPropertyOp22
 70
     1
102
RTVSPropertyOp23
 70
     1
102
RTVSPropertyOp24
 70
     1
102
RTVSPropertyOp25
 70
     1
102
RTVSPropertyOp26
 70
     1
102
RTVSPropertyOp27
 70
     1
102
RTVSPropertyOp28
 70
     1
102
RTVSPropertyOp29
 70
     1
102
RTVSPropertyOp30
 70
     1
102
RTVSPropertyOp31
 70
     1
102
RTVSPropertyOp32
 70
     1
  0
XRECORD
  5
342
102
{ACAD_REACTORS
330
341
102
}
330
341
100
AcDbXrecord
280
     1
102
RTVSPropertyOp0
 70
     1
102
RTVSPropertyOp1
 70
     1
102
RTVSPropertyOp2
 70
     1
102
RTVSPropertyOp3
 70
     1
102
RTVSPropertyOp4
 70
     1
102
RTVSPropertyOp5
 70
     1
102
RTVSPropertyOp6
 70
     1
102
RTVSPropertyOp7
 70
     1
102
RTVSPropertyOp8
 70
     1
102
RTVSPropertyOp9
 70
     1
102
RTVSPropertyOp10
 70
     1
102
RTVSPropertyOp11
 70
     1
102
RTVSPropertyOp12
 70
     1
102
RTVSPropertyOp13
 70
     1
102
RTVSPropertyOp14
 70
     1
102
RTVSPropertyOp15
 70
     1
102
RTVSPropertyOp16
 70
     1
102
RTVSPropertyOp17
 70
     1
102
RTVSPropertyOp18
 70
     1
102
RTVSPropertyOp19
 70
     1
102
RTVSPropertyOp20
 70
     1
102
RTVSPropertyOp21
 70
     1
102
RTVSPropertyOp22
 70
     1
102
RTVSPropertyOp23
 70
     1
102
RTVSPropertyOp24
 70
     1
102
RTVSPropertyOp25
 70
     1
102
RTVSPropertyOp26
 70
     1
102
RTVSPropertyOp27
 70
     1
102
RTVSPropertyOp28
 70
     1
102
RTVSPropertyOp29
 70
     1
102
RTVSPropertyOp30
 70
     1
102
RTVSPropertyOp31
 70
     1
102
RTVSPropertyOp32
 70
     1
  0
XRECORD
  5
34A
102
{ACAD_REACTORS
330
349
102
}
330
349
100
AcDbXrecord
280
     1
102
RTVSPropertyOp0
 70
     1
102
RTVSPropertyOp1
 70
     1
102
RTVSPropertyOp2
 70
     1
102
RTVSPropertyOp3
 70
     1
102
RTVSPropertyOp4
 70
     1
102
RTVSPropertyOp5
 70
     1
102
RTVSPropertyOp6
 70
     1
102
RTVSPropertyOp7
 70
     1
102
RTVSPropertyOp8
 70
     1
102
RTVSPropertyOp9
 70
     1
102
RTVSPropertyOp10
 70
     1
102
RTVSPropertyOp11
 70
     1
102
RTVSPropertyOp12
 70
     1
102
RTVSPropertyOp13
 70
     1
102
RTVSPropertyOp14
 70
     1
102
RTVSPropertyOp15
 70
     1
102
RTVSPropertyOp16
 70
     1
102
RTVSPropertyOp17
 70
     1
102
RTVSPropertyOp18
 70
     1
102
RTVSPropertyOp19
 70
     1
102
RTVSPropertyOp20
 70
     1
102
RTVSPropertyOp21
 70
     1
102
RTVSPropertyOp22
 70
     1
102
RTVSPropertyOp23
 70
     1
102
RTVSPropertyOp24
 70
     1
102
RTVSPropertyOp25
 70
     1
102
RTVSPropertyOp26
 70
     1
102
RTVSPropertyOp27
 70
     1
102
RTVSPropertyOp28
 70
     1
102
RTVSPropertyOp29
 70
     1
102
RTVSPropertyOp30
 70
     1
102
RTVSPropertyOp31
 70
     1
102
RTVSPropertyOp32
 70
     1
  0
XRECORD
  5
33E
102
{ACAD_REACTORS
330
33D
102
}
330
33D
100
AcDbXrecord
280
     1
102
RTVSPropertyOp0
 70
     1
102
RTVSPropertyOp1
 70
     1
102
RTVSPropertyOp2
 70
     1
102
RTVSPropertyOp3
 70
     1
102
RTVSPropertyOp4
 70
     1
102
RTVSPropertyOp5
 70
     1
102
RTVSPropertyOp6
 70
     1
102
RTVSPropertyOp7
 70
     1
102
RTVSPropertyOp8
 70
     1
102
RTVSPropertyOp9
 70
     1
102
RTVSPropertyOp10
 70
     1
102
RTVSPropertyOp11
 70
     1
102
RTVSPropertyOp12
 70
     1
102
RTVSPropertyOp13
 70
     1
102
RTVSPropertyOp14
 70
     1
102
RTVSPropertyOp15
 70
     1
102
RTVSPropertyOp16
 70
     1
102
RTVSPropertyOp17
 70
     1
102
RTVSPropertyOp18
 70
     1
102
RTVSPropertyOp19
 70
     1
102
RTVSPropertyOp20
 70
     1
102
RTVSPropertyOp21
 70
     1
102
RTVSPropertyOp22
 70
     1
102
RTVSPropertyOp23
 70
     1
102
RTVSPropertyOp24
 70
     1
102
RTVSPropertyOp25
 70
     1
102
RTVSPropertyOp26
 70
     1
102
RTVSPropertyOp27
 70
     1
102
RTVSPropertyOp28
 70
     1
102
RTVSPropertyOp29
 70
     1
102
RTVSPropertyOp30
 70
     1
102
RTVSPropertyOp31
 70
     1
102
RTVSPropertyOp32
 70
     1
  0
XRECORD
  5
340
102
{ACAD_REACTORS
330
33F
102
}
330
33F
100
AcDbXrecord
280
     1
102
RTVSPropertyOp0
 70
     1
102
RTVSPropertyOp1
 70
     1
102
RTVSPropertyOp2
 70
     1
102
RTVSPropertyOp3
 70
     1
102
RTVSPropertyOp4
 70
     1
102
RTVSPropertyOp5
 70
     1
102
RTVSPropertyOp6
 70
     1
102
RTVSPropertyOp7
 70
     1
102
RTVSPropertyOp8
 70
     1
102
RTVSPropertyOp9
 70
     1
102
RTVSPropertyOp10
 70
     1
102
RTVSPropertyOp11
 70
     1
102
RTVSPropertyOp12
 70
     1
102
RTVSPropertyOp13
 70
     1
102
RTVSPropertyOp14
 70
     1
102
RTVSPropertyOp15
 70
     1
102
RTVSPropertyOp16
 70
     1
102
RTVSPropertyOp17
 70
     1
102
RTVSPropertyOp18
 70
     1
102
RTVSPropertyOp19
 70
     1
102
RTVSPropertyOp20
 70
     1
102
RTVSPropertyOp21
 70
     1
102
RTVSPropertyOp22
 70
     1
102
RTVSPropertyOp23
 70
     1
102
RTVSPropertyOp24
 70
     1
102
RTVSPropertyOp25
 70
     1
102
RTVSPropertyOp26
 70
     1
102
RTVSPropertyOp27
 70
     1
102
RTVSPropertyOp28
 70
     1
102
RTVSPropertyOp29
 70
     1
102
RTVSPropertyOp30
 70
     1
102
RTVSPropertyOp31
 70
     1
102
RTVSPropertyOp32
 70
     1
  0
XRECORD
  5
348
102
{ACAD_REACTORS
330
347
102
}
330
347
100
AcDbXrecord
280
     1
102
RTVSPropertyOp0
 70
     1
102
RTVSPropertyOp1
 70
     1
102
RTVSPropertyOp2
 70
     1
102
RTVSPropertyOp3
 70
     1
102
RTVSPropertyOp4
 70
     1
102
RTVSPropertyOp5
 70
     1
102
RTVSPropertyOp6
 70
     1
102
RTVSPropertyOp7
 70
     1
102
RTVSPropertyOp8
 70
     1
102
RTVSPropertyOp9
 70
     1
102
RTVSPropertyOp10
 70
     1
102
RTVSPropertyOp11
 70
     1
102
RTVSPropertyOp12
 70
     1
102
RTVSPropertyOp13
 70
     1
102
RTVSPropertyOp14
 70
     1
102
RTVSPropertyOp15
 70
     1
102
RTVSPropertyOp16
 70
     1
102
RTVSPropertyOp17
 70
     1
102
RTVSPropertyOp18
 70
     1
102
RTVSPropertyOp19
 70
     1
102
RTVSPropertyOp20
 70
     1
102
RTVSPropertyOp21
 70
     1
102
RTVSPropertyOp22
 70
     1
102
RTVSPropertyOp23
 70
     1
102
RTVSPropertyOp24
 70
     1
102
RTVSPropertyOp25
 70
     1
102
RTVSPropertyOp26
 70
     1
102
RTVSPropertyOp27
 70
     1
102
RTVSPropertyOp28
 70
     1
102
RTVSPropertyOp29
 70
     1
102
RTVSPropertyOp30
 70
     1
102
RTVSPropertyOp31
 70
     1
102
RTVSPropertyOp32
 70
     1
  0
XRECORD
  5
32C
102
{ACAD_REACTORS
330
32B
102
}
330
32B
100
AcDbXrecord
280
     1
102
RTVSPropertyOp0
 70
     1
102
RTVSPropertyOp1
 70
     1
102
RTVSPropertyOp2
 70
     1
102
RTVSPropertyOp3
 70
     1
102
RTVSPropertyOp4
 70
     1
102
RTVSPropertyOp5
 70
     1
102
RTVSPropertyOp6
 70
     1
102
RTVSPropertyOp7
 70
     1
102
RTVSPropertyOp8
 70
     1
102
RTVSPropertyOp9
 70
     1
102
RTVSPropertyOp10
 70
     1
102
RTVSPropertyOp11
 70
     1
102
RTVSPropertyOp12
 70
     1
102
RTVSPropertyOp13
 70
     1
102
RTVSPropertyOp14
 70
     1
102
RTVSPropertyOp15
 70
     1
102
RTVSPropertyOp16
 70
     1
102
RTVSPropertyOp17
 70
     1
102
RTVSPropertyOp18
 70
     1
102
RTVSPropertyOp19
 70
     1
102
RTVSPropertyOp20
 70
     1
102
RTVSPropertyOp21
 70
     1
102
RTVSPropertyOp22
 70
     1
102
RTVSPropertyOp23
 70
     1
102
RTVSPropertyOp24
 70
     1
102
RTVSPropertyOp25
 70
     1
102
RTVSPropertyOp26
 70
     1
102
RTVSPropertyOp27
 70
     1
102
RTVSPropertyOp28
 70
     1
102
RTVSPropertyOp29
 70
     1
102
RTVSPropertyOp30
 70
     1
102
RTVSPropertyOp31
 70
     1
102
RTVSPropertyOp32
 70
     1
  0
XRECORD
  5
32E
102
{ACAD_REACTORS
330
32D
102
}
330
32D
100
AcDbXrecord
280
     1
102
RTVSPropertyOp0
 70
     1
102
RTVSPropertyOp1
 70
     1
102
RTVSPropertyOp2
 70
     1
102
RTVSPropertyOp3
 70
     1
102
RTVSPropertyOp4
 70
     1
102
RTVSPropertyOp5
 70
     1
102
RTVSPropertyOp6
 70
     1
102
RTVSPropertyOp7
 70
     1
102
RTVSPropertyOp8
 70
     1
102
RTVSPropertyOp9
 70
     1
102
RTVSPropertyOp10
 70
     1
102
RTVSPropertyOp11
 70
     1
102
RTVSPropertyOp12
 70
     1
102
RTVSPropertyOp13
 70
     1
102
RTVSPropertyOp14
 70
     1
102
RTVSPropertyOp15
 70
     1
102
RTVSPropertyOp16
 70
     1
102
RTVSPropertyOp17
 70
     1
102
RTVSPropertyOp18
 70
     1
102
RTVSPropertyOp19
 70
     1
102
RTVSPropertyOp20
 70
     1
102
RTVSPropertyOp21
 70
     1
102
RTVSPropertyOp22
 70
     1
102
RTVSPropertyOp23
 70
     1
102
RTVSPropertyOp24
 70
     1
102
RTVSPropertyOp25
 70
     1
102
RTVSPropertyOp26
 70
     1
102
RTVSPropertyOp27
 70
     1
102
RTVSPropertyOp28
 70
     1
102
RTVSPropertyOp29
 70
     1
102
RTVSPropertyOp30
 70
     1
102
RTVSPropertyOp31
 70
     1
102
RTVSPropertyOp32
 70
     1
  0
XRECORD
  5
330
102
{ACAD_REACTORS
330
32F
102
}
330
32F
100
AcDbXrecord
280
     1
102
RTVSPropertyOp0
 70
     1
102
RTVSPropertyOp1
 70
     1
102
RTVSPropertyOp2
 70
     1
102
RTVSPropertyOp3
 70
     1
102
RTVSPropertyOp4
 70
     1
102
RTVSPropertyOp5
 70
     1
102
RTVSPropertyOp6
 70
     1
102
RTVSPropertyOp7
 70
     1
102
RTVSPropertyOp8
 70
     1
102
RTVSPropertyOp9
 70
     1
102
RTVSPropertyOp10
 70
     1
102
RTVSPropertyOp11
 70
     1
102
RTVSPropertyOp12
 70
     1
102
RTVSPropertyOp13
 70
     1
102
RTVSPropertyOp14
 70
     1
102
RTVSPropertyOp15
 70
     1
102
RTVSPropertyOp16
 70
     1
102
RTVSPropertyOp17
 70
     1
102
RTVSPropertyOp18
 70
     1
102
RTVSPropertyOp19
 70
     1
102
RTVSPropertyOp20
 70
     1
102
RTVSPropertyOp21
 70
     1
102
RTVSPropertyOp22
 70
     1
102
RTVSPropertyOp23
 70
     1
102
RTVSPropertyOp24
 70
     1
102
RTVSPropertyOp25
 70
     1
102
RTVSPropertyOp26
 70
     1
102
RTVSPropertyOp27
 70
     1
102
RTVSPropertyOp28
 70
     1
102
RTVSPropertyOp29
 70
     1
102
RTVSPropertyOp30
 70
     1
102
RTVSPropertyOp31
 70
     1
102
RTVSPropertyOp32
 70
     1
  0
XRECORD
  5
332
102
{ACAD_REACTORS
330
331
102
}
330
331
100
AcDbXrecord
280
     1
102
RTVSPropertyOp0
 70
     1
102
RTVSPropertyOp1
 70
     1
102
RTVSPropertyOp2
 70
     1
102
RTVSPropertyOp3
 70
     1
102
RTVSPropertyOp4
 70
     1
102
RTVSPropertyOp5
 70
     1
102
RTVSPropertyOp6
 70
     1
102
RTVSPropertyOp7
 70
     1
102
RTVSPropertyOp8
 70
     1
102
RTVSPropertyOp9
 70
     1
102
RTVSPropertyOp10
 70
     1
102
RTVSPropertyOp11
 70
     1
102
RTVSPropertyOp12
 70
     1
102
RTVSPropertyOp13
 70
     1
102
RTVSPropertyOp14
 70
     1
102
RTVSPropertyOp15
 70
     1
102
RTVSPropertyOp16
 70
     1
102
RTVSPropertyOp17
 70
     1
102
RTVSPropertyOp18
 70
     1
102
RTVSPropertyOp19
 70
     1
102
RTVSPropertyOp20
 70
     1
102
RTVSPropertyOp21
 70
     1
102
RTVSPropertyOp22
 70
     1
102
RTVSPropertyOp23
 70
     1
102
RTVSPropertyOp24
 70
     1
102
RTVSPropertyOp25
 70
     1
102
RTVSPropertyOp26
 70
     1
102
RTVSPropertyOp27
 70
     1
102
RTVSPropertyOp28
 70
     1
102
RTVSPropertyOp29
 70
     1
102
RTVSPropertyOp30
 70
     1
102
RTVSPropertyOp31
 70
     1
102
RTVSPropertyOp32
 70
     1
  0
XRECORD
  5
346
102
{ACAD_REACTORS
330
345
102
}
330
345
100
AcDbXrecord
280
     1
102
RTVSPropertyOp0
 70
     1
102
RTVSPropertyOp1
 70
     1
102
RTVSPropertyOp2
 70
     1
102
RTVSPropertyOp3
 70
     1
102
RTVSPropertyOp4
 70
     1
102
RTVSPropertyOp5
 70
     1
102
RTVSPropertyOp6
 70
     1
102
RTVSPropertyOp7
 70
     1
102
RTVSPropertyOp8
 70
     1
102
RTVSPropertyOp9
 70
     1
102
RTVSPropertyOp10
 70
     1
102
RTVSPropertyOp11
 70
     1
102
RTVSPropertyOp12
 70
     1
102
RTVSPropertyOp13
 70
     1
102
RTVSPropertyOp14
 70
     1
102
RTVSPropertyOp15
 70
     1
102
RTVSPropertyOp16
 70
     1
102
RTVSPropertyOp17
 70
     1
102
RTVSPropertyOp18
 70
     1
102
RTVSPropertyOp19
 70
     1
102
RTVSPropertyOp20
 70
     1
102
RTVSPropertyOp21
 70
     1
102
RTVSPropertyOp22
 70
     1
102
RTVSPropertyOp23
 70
     1
102
RTVSPropertyOp24
 70
     1
102
RTVSPropertyOp25
 70
     1
102
RTVSPropertyOp26
 70
     1
102
RTVSPropertyOp27
 70
     1
102
RTVSPropertyOp28
 70
     1
102
RTVSPropertyOp29
 70
     1
102
RTVSPropertyOp30
 70
     1
102
RTVSPropertyOp31
 70
     1
102
RTVSPropertyOp32
 70
     1
  0
XRECORD
  5
33C
102
{ACAD_REACTORS
330
33B
102
}
330
33B
100
AcDbXrecord
280
     1
102
RTVSPropertyOp0
 70
     1
102
RTVSPropertyOp1
 70
     1
102
RTVSPropertyOp2
 70
     1
102
RTVSPropertyOp3
 70
     1
102
RTVSPropertyOp4
 70
     1
102
RTVSPropertyOp5
 70
     1
102
RTVSPropertyOp6
 70
     1
102
RTVSPropertyOp7
 70
     1
102
RTVSPropertyOp8
 70
     1
102
RTVSPropertyOp9
 70
     1
102
RTVSPropertyOp10
 70
     1
102
RTVSPropertyOp11
 70
     1
102
RTVSPropertyOp12
 70
     1
102
RTVSPropertyOp13
 70
     1
102
RTVSPropertyOp14
 70
     1
102
RTVSPropertyOp15
 70
     1
102
RTVSPropertyOp16
 70
     1
102
RTVSPropertyOp17
 70
     1
102
RTVSPropertyOp18
 70
     1
102
RTVSPropertyOp19
 70
     1
102
RTVSPropertyOp20
 70
     1
102
RTVSPropertyOp21
 70
     1
102
RTVSPropertyOp22
 70
     1
102
RTVSPropertyOp23
 70
     1
102
RTVSPropertyOp24
 70
     1
102
RTVSPropertyOp25
 70
     1
102
RTVSPropertyOp26
 70
     1
102
RTVSPropertyOp27
 70
     1
102
RTVSPropertyOp28
 70
     1
102
RTVSPropertyOp29
 70
     1
102
RTVSPropertyOp30
 70
     1
102
RTVSPropertyOp31
 70
     1
102
RTVSPropertyOp32
 70
     1
  0
XRECORD
  5
344
102
{ACAD_REACTORS
330
343
102
}
330
343
100
AcDbXrecord
280
     1
102
RTVSPropertyOp0
 70
     1
102
RTVSPropertyOp1
 70
     1
102
RTVSPropertyOp2
 70
     1
102
RTVSPropertyOp3
 70
     1
102
RTVSPropertyOp4
 70
     1
102
RTVSPropertyOp5
 70
     1
102
RTVSPropertyOp6
 70
     1
102
RTVSPropertyOp7
 70
     1
102
RTVSPropertyOp8
 70
     1
102
RTVSPropertyOp9
 70
     1
102
RTVSPropertyOp10
 70
     1
102
RTVSPropertyOp11
 70
     1
102
RTVSPropertyOp12
 70
     1
102
RTVSPropertyOp13
 70
     1
102
RTVSPropertyOp14
 70
     1
102
RTVSPropertyOp15
 70
     1
102
RTVSPropertyOp16
 70
     1
102
RTVSPropertyOp17
 70
     1
102
RTVSPropertyOp18
 70
     1
102
RTVSPropertyOp19
 70
     1
102
RTVSPropertyOp20
 70
     1
102
RTVSPropertyOp21
 70
     1
102
RTVSPropertyOp22
 70
     1
102
RTVSPropertyOp23
 70
     1
102
RTVSPropertyOp24
 70
     1
102
RTVSPropertyOp25
 70
     1
102
RTVSPropertyOp26
 70
     1
102
RTVSPropertyOp27
 70
     1
102
RTVSPropertyOp28
 70
     1
102
RTVSPropertyOp29
 70
     1
102
RTVSPropertyOp30
 70
     1
102
RTVSPropertyOp31
 70
     1
102
RTVSPropertyOp32
 70
     1
  0
ENDSEC
  0
EOF
