  0
SECTION
  2
HEADER
  9
$ACADVER
  1
AC1018
  9
$ACADMAINTVER
 70
     0
  9
$DWGCODEPAGE
  3
ANSI_1252
  9
$INSBASE
 10
0.0
 20
0.0
 30
0.0
  9
$EXTMIN
 10
-228.7060211288766
 20
-6.50887558845255
 30
0.0
  9
$EXTMAX
 10
68.29397887112148
 20
203.4911244115476
 30
0.0
  9
$LIMMIN
 10
0.0
 20
0.0
  9
$LIMMAX
 10
12.0
 20
9.0
  9
$ORTHOMODE
 70
     0
  9
$REGENMODE
 70
     1
  9
$FILLMODE
 70
     1
  9
$QTEXTMODE
 70
     0
  9
$MIRRTEXT
 70
     1
  9
$LTSCALE
 40
1.0
  9
$ATTMODE
 70
     1
  9
$TEXTSIZE
 40
0.2
  9
$TRACEWID
 40
0.05
  9
$TEXTSTYLE
  7
Standard
  9
$CLAYER
  8
0
  9
$CELTYPE
  6
ByLayer
  9
$CECOLOR
 62
   256
  9
$CELTSCALE
 40
1.0
  9
$DISPSILH
 70
     0
  9
$DIMSCALE
 40
1.0
  9
$DIMASZ
 40
0.18
  9
$DIMEXO
 40
0.0625
  9
$DIMDLI
 40
0.38
  9
$DIMRND
 40
0.0
  9
$DIMDLE
 40
0.0
  9
$DIMEXE
 40
0.18
  9
$DIMTP
 40
0.0
  9
$DIMTM
 40
0.0
  9
$DIMTXT
 40
0.18
  9
$DIMCEN
 40
0.09
  9
$DIMTSZ
 40
0.0
  9
$DIMTOL
 70
     0
  9
$DIMLIM
 70
     0
  9
$DIMTIH
 70
     1
  9
$DIMTOH
 70
     1
  9
$DIMSE1
 70
     0
  9
$DIMSE2
 70
     0
  9
$DIMTAD
 70
     0
  9
$DIMZIN
 70
     0
  9
$DIMBLK
  1

  9
$DIMASO
 70
     1
  9
$DIMSHO
 70
     1
  9
$DIMPOST
  1

  9
$DIMAPOST
  1

  9
$DIMALT
 70
     0
  9
$DIMALTD
 70
     2
  9
$DIMALTF
 40
25.4
  9
$DIMLFAC
 40
1.0
  9
$DIMTOFL
 70
     0
  9
$DIMTVP
 40
0.0
  9
$DIMTIX
 70
     0
  9
$DIMSOXD
 70
     0
  9
$DIMSAH
 70
     0
  9
$DIMBLK1
  1

  9
$DIMBLK2
  1

  9
$DIMSTYLE
  2
Standard
  9
$DIMCLRD
 70
     0
  9
$DIMCLRE
 70
     0
  9
$DIMCLRT
 70
     0
  9
$DIMTFAC
 40
1.0
  9
$DIMGAP
 40
0.09
  9
$DIMJUST
 70
     0
  9
$DIMSD1
 70
     0
  9
$DIMSD2
 70
     0
  9
$DIMTOLJ
 70
     1
  9
$DIMTZIN
 70
     0
  9
$DIMALTZ
 70
     0
  9
$DIMALTTZ
 70
     0
  9
$DIMUPT
 70
     0
  9
$DIMDEC
 70
     4
  9
$DIMTDEC
 70
     4
  9
$DIMALTU
 70
     2
  9
$DIMALTTD
 70
     2
  9
$DIMTXSTY
  7
Standard
  9
$DIMAUNIT
 70
     0
  9
$DIMADEC
 70
     0
  9
$DIMALTRND
 40
0.0
  9
$DIMAZIN
 70
     0
  9
$DIMDSEP
 70
    46
  9
$DIMATFIT
 70
     3
  9
$DIMFRAC
 70
     0
  9
$DIMLDRBLK
  1

  9
$DIMLUNIT
 70
     2
  9
$DIMLWD
 70
    -2
  9
$DIMLWE
 70
    -2
  9
$DIMTMOVE
 70
     0
  9
$LUNITS
 70
     2
  9
$LUPREC
 70
     4
  9
$SKETCHINC
 40
0.1
  9
$FILLETRAD
 40
0.5
  9
$AUNITS
 70
     0
  9
$AUPREC
 70
     0
  9
$MENU
  1
.
  9
$ELEVATION
 40
0.0
  9
$PELEVATION
 40
0.0
  9
$THICKNESS
 40
0.0
  9
$LIMCHECK
 70
     0
  9
$CHAMFERA
 40
0.5
  9
$CHAMFERB
 40
0.5
  9
$CHAMFERC
 40
1.0
  9
$CHAMFERD
 40
0.0
  9
$SKPOLY
 70
     0
  9
$TDCREATE
 40
2458157.945405521
  9
$TDUCREATE
 40
2458157.903738854
  9
$TDUPDATE
 40
2458157.945406065
  9
$TDUUPDATE
 40
2458157.903739398
  9
$TDINDWG
 40
0.0000000116
  9
$TDUSRTIMER
 40
0.0000000116
  9
$USRTIMER
 70
     1
  9
$ANGBASE
 50
0.0
  9
$ANGDIR
 70
     0
  9
$PDMODE
 70
     0
  9
$PDSIZE
 40
0.0
  9
$PLINEWID
 40
0.0
  9
$SPLFRAME
 70
     0
  9
$SPLINETYPE
 70
     6
  9
$SPLINESEGS
 70
     8
  9
$HANDSEED
  5
277
  9
$SURFTAB1
 70
     6
  9
$SURFTAB2
 70
     6
  9
$SURFTYPE
 70
     6
  9
$SURFU
 70
     6
  9
$SURFV
 70
     6
  9
$UCSBASE
  2

  9
$UCSNAME
  2

  9
$UCSORG
 10
0.0
 20
0.0
 30
0.0
  9
$UCSXDIR
 10
1.0
 20
0.0
 30
0.0
  9
$UCSYDIR
 10
0.0
 20
1.0
 30
0.0
  9
$UCSORTHOREF
  2

  9
$UCSORTHOVIEW
 70
     0
  9
$UCSORGTOP
 10
0.0
 20
0.0
 30
0.0
  9
$UCSORGBOTTOM
 10
0.0
 20
0.0
 30
0.0
  9
$UCSORGLEFT
 10
0.0
 20
0.0
 30
0.0
  9
$UCSORGRIGHT
 10
0.0
 20
0.0
 30
0.0
  9
$UCSORGFRONT
 10
0.0
 20
0.0
 30
0.0
  9
$UCSORGBACK
 10
0.0
 20
0.0
 30
0.0
  9
$PUCSBASE
  2

  9
$PUCSNAME
  2

  9
$PUCSORG
 10
0.0
 20
0.0
 30
0.0
  9
$PUCSXDIR
 10
1.0
 20
0.0
 30
0.0
  9
$PUCSYDIR
 10
0.0
 20
1.0
 30
0.0
  9
$PUCSORTHOREF
  2

  9
$PUCSORTHOVIEW
 70
     0
  9
$PUCSORGTOP
 10
0.0
 20
0.0
 30
0.0
  9
$PUCSORGBOTTOM
 10
0.0
 20
0.0
 30
0.0
  9
$PUCSORGLEFT
 10
0.0
 20
0.0
 30
0.0
  9
$PUCSORGRIGHT
 10
0.0
 20
0.0
 30
0.0
  9
$PUCSORGFRONT
 10
0.0
 20
0.0
 30
0.0
  9
$PUCSORGBACK
 10
0.0
 20
0.0
 30
0.0
  9
$USERI1
 70
     0
  9
$USERI2
 70
     0
  9
$USERI3
 70
     0
  9
$USERI4
 70
     0
  9
$USERI5
 70
     0
  9
$USERR1
 40
18.1
  9
$USERR2
 40
0.0
  9
$USERR3
 40
0.0
  9
$USERR4
 40
0.0
  9
$USERR5
 40
0.0
  9
$WORLDVIEW
 70
     1
  9
$SHADEDGE
 70
     3
  9
$SHADEDIF
 70
    70
  9
$TILEMODE
 70
     1
  9
$MAXACTVP
 70
    64
  9
$PINSBASE
 10
0.0
 20
0.0
 30
0.0
  9
$PLIMCHECK
 70
     0
  9
$PEXTMIN
 10
1.00000000000000E+20
 20
1.00000000000000E+20
 30
1.00000000000000E+20
  9
$PEXTMAX
 10
-1.00000000000000E+20
 20
-1.00000000000000E+20
 30
-1.00000000000000E+20
  9
$PLIMMIN
 10
0.0
 20
0.0
  9
$PLIMMAX
 10
12.0
 20
9.0
  9
$UNITMODE
 70
     0
  9
$VISRETAIN
 70
     1
  9
$PLINEGEN
 70
     0
  9
$PSLTSCALE
 70
     1
  9
$TREEDEPTH
 70
  3020
  9
$CMLSTYLE
  2
Standard
  9
$CMLJUST
 70
     0
  9
$CMLSCALE
 40
1.0
  9
$PROXYGRAPHICS
 70
     1
  9
$MEASUREMENT
 70
     1
  9
$CELWEIGHT
370
    -1
  9
$ENDCAPS
280
     0
  9
$JOINSTYLE
280
     0
  9
$LWDISPLAY
290
     0
  9
$INSUNITS
 70
     4
  9
$HYPERLINKBASE
  1

  9
$STYLESHEET
  1

  9
$XEDIT
290
     1
  9
$CEPSNTYPE
380
     0
  9
$PSTYLEMODE
290
     1
  9
$FINGERPRINTGUID
  2
{5B1E5581-D39A-4FAD-BB8B-B97BD78CD8C2}
  9
$VERSIONGUID
  2
{FAEB1C32-E019-11D5-929B-00C0DF256EC4}
  9
$EXTNAMES
290
     1
  9
$PSVPSCALE
 40
0.0
  9
$OLESTARTUP
290
     0
  9
$SORTENTS
280
   127
  9
$INDEXCTL
280
     0
  9
$HIDETEXT
280
     1
  9
$XCLIPFRAME
290
     0
  9
$HALOGAP
280
     0
  9
$OBSCOLOR
 70
   257
  9
$OBSLTYPE
280
     0
  9
$INTERSECTIONDISPLAY
280
     0
  9
$INTERSECTIONCOLOR
 70
   257
  9
$DIMASSOC
280
     2
  9
$PROJECTNAME
  1

  0
ENDSEC
  0
SECTION
  2
CLASSES
  0
CLASS
  1
ACDBDICTIONARYWDFLT
  2
AcDbDictionaryWithDefault
  3
ObjectDBX Classes
 90
        0
 91
        4
280
     0
281
     0
  0
CLASS
  1
VISUALSTYLE
  2
AcDbVisualStyle
  3
ObjectDBX Classes
 90
     4095
 91
        4
280
     0
281
     0
  0
CLASS
  1
MATERIAL
  2
AcDbMaterial
  3
ObjectDBX Classes
 90
     1153
 91
        4
280
     0
281
     0
  0
ENDSEC
  0
SECTION
  2
TABLES
  0
TABLE
  2
VPORT
  5
8
330
0
100
AcDbSymbolTable
 70
     1
  0
VPORT
  5
29
330
8
100
AcDbSymbolTableRecord
100
AcDbViewportTableRecord
  2
*Active
 70
     0
 10
0.0
 20
0.0
 11
1.0
 21
1.0
 12
-80.20602112887757
 22
98.49112441154752
 13
0.0
 23
0.0
 14
0.5
 24
0.5
 15
0.5
 25
0.5
 16
0.0
 26
0.0
 36
1.0
 17
0.0
 27
0.0
 37
0.0
 40
231.0000000000002
 41
1.60267857142857
 42
50.0
 43
0.0
 44
0.0
 50
0.0
 51
0.0
 71
     0
 72
   100
 73
     1
 74
     3
 75
     0
 76
     0
 77
     0
 78
     0
281
     0
 65
     1
110
0.0
120
0.0
130
0.0
111
1.0
121
0.0
131
0.0
112
0.0
122
1.0
132
0.0
 79
     0
146
0.0
  0
ENDTAB
  0
TABLE
  2
LTYPE
  5
5
330
0
100
AcDbSymbolTable
 70
     8
  0
LTYPE
  5
14
330
5
100
AcDbSymbolTableRecord
100
AcDbLinetypeTableRecord
  2
ByBlock
 70
     0
  3

 72
    65
 73
     0
 40
0.0
  0
LTYPE
  5
15
330
5
100
AcDbSymbolTableRecord
100
AcDbLinetypeTableRecord
  2
ByLayer
 70
     0
  3

 72
    65
 73
     0
 40
0.0
  0
LTYPE
  5
16
330
5
100
AcDbSymbolTableRecord
100
AcDbLinetypeTableRecord
  2
Continuous
 70
     0
  3
Solid line
 72
    65
 73
     0
 40
0.0
  0
LTYPE
  5
3F
330
5
100
AcDbSymbolTableRecord
100
AcDbLinetypeTableRecord
  2
DASHED
 70
     0
  3
Dashed
 72
    65
 73
     2
 40
15.0
 49
7.0
 74
     0
 49
-8.0
 74
     0
  0
LTYPE
  5
40
330
5
100
AcDbSymbolTableRecord
100
AcDbLinetypeTableRecord
  2
DOTTED
 70
     0
  3
Dotted
 72
    65
 73
     2
 40
1.0
 49
0.0
 74
     0
 49
-1.0
 74
     0
  0
LTYPE
  5
41
330
5
100
AcDbSymbolTableRecord
100
AcDbLinetypeTableRecord
  2
DOT_CENTER
 70
     0
  3
Dot_Center
 72
    65
 73
     4
 40
14.0
 49
12.0
 74
     0
 49
-1.0
 74
     0
 49
0.0
 74
     0
 49
-1.0
 74
     0
  0
LTYPE
  5
42
330
5
100
AcDbSymbolTableRecord
100
AcDbLinetypeTableRecord
  2
LONG_DASHED
 70
     0
  3
Long_Dashed
 72
    65
 73
     2
 40
15.0
 49
10.0
 74
     0
 49
-5.0
 74
     0
  0
LTYPE
  5
43
330
5
100
AcDbSymbolTableRecord
100
AcDbLinetypeTableRecord
  2
DASH_CENTER
 70
     0
  3
Dash_Center
 72
    65
 73
     4
 40
14.0
 49
11.0
 74
     0
 49
-1.0
 74
     0
 49
1.0
 74
     0
 49
-1.0
 74
     0
  0
LTYPE
  5
44
330
5
100
AcDbSymbolTableRecord
100
AcDbLinetypeTableRecord
  2
PHANTOM
 70
     0
  3
Phantom
 72
    65
 73
     6
 40
13.0
 49
10.0
 74
     0
 49
-1.0
 74
     0
 49
0.0
 74
     0
 49
-1.0
 74
     0
 49
0.0
 74
     0
 49
-1.0
 74
     0
  0
LTYPE
  5
45
330
5
100
AcDbSymbolTableRecord
100
AcDbLinetypeTableRecord
  2
CENTER_DASH_DASH
 70
     0
  3
Center_Dash_Dash
 72
    65
 73
     6
 40
14.0
 49
9.0
 74
     0
 49
-1.0
 74
     0
 49
1.0
 74
     0
 49
-1.0
 74
     0
 49
1.0
 74
     0
 49
-1.0
 74
     0
  0
ENDTAB
  0
TABLE
  2
LAYER
  5
2
330
0
100
AcDbSymbolTable
 70
     2
  0
LAYER
  5
10
330
2
100
AcDbSymbolTableRecord
100
AcDbLayerTableRecord
  2
0
 70
     0
 62
     7
  6
Continuous
370
    -3
390
F
  0
LAYER
  5
46
330
2
100
AcDbSymbolTableRecord
100
AcDbLayerTableRecord
  2
1
 70
     0
 62
     7
  6
Continuous
370
    -3
390
F
  0
ENDTAB
  0
TABLE
  2
STYLE
  5
3
330
0
100
AcDbSymbolTable
 70
     5
  0
STYLE
  5
11
330
3
100
AcDbSymbolTableRecord
100
AcDbTextStyleTableRecord
  2
Standard
 70
     0
 40
0.0
 41
1.0
 50
0.0
 71
     0
 42
0.2
  3
txt
  4

  0
STYLE
  5
A7
330
3
100
AcDbSymbolTableRecord
100
AcDbTextStyleTableRecord
  2
CONVERTER_11
 70
     0
 40
0.0
 41
0.9
 50
0.0
 71
     0
 42
0.2
  3
txt.shx
  4

  0
STYLE
  5
212
330
3
100
AcDbSymbolTableRecord
100
AcDbTextStyleTableRecord
  2
CONVERTER_12
 70
     0
 40
0.0
 41
0.81
 50
0.0
 71
     0
 42
0.2
  3
txt.shx
  4

  0
STYLE
  5
228
330
3
100
AcDbSymbolTableRecord
100
AcDbTextStyleTableRecord
  2
CONVERTER_13
 70
     0
 40
0.0
 41
0.72
 50
0.0
 71
     0
 42
0.2
  3
txt.shx
  4

  0
STYLE
  5
22B
330
3
100
AcDbSymbolTableRecord
100
AcDbTextStyleTableRecord
  2
CONVERTER_14
 70
     0
 40
0.0
 41
0.855
 50
0.0
 71
     0
 42
0.2
  3
txt.shx
  4

  0
ENDTAB
  0
TABLE
  2
VIEW
  5
6
330
0
100
AcDbSymbolTable
 70
     0
  0
ENDTAB
  0
TABLE
  2
UCS
  5
7
330
0
100
AcDbSymbolTable
 70
     0
  0
ENDTAB
  0
TABLE
  2
APPID
  5
9
330
0
100
AcDbSymbolTable
 70
     1
  0
APPID
  5
12
330
9
100
AcDbSymbolTableRecord
100
AcDbRegAppTableRecord
  2
ACAD
 70
     0
  0
ENDTAB
  0
TABLE
  2
DIMSTYLE
  5
A
330
0
100
AcDbSymbolTable
 70
     4
100
AcDbDimStyleTable
  0
DIMSTYLE
105
27
330
A
100
AcDbSymbolTableRecord
100
AcDbDimStyleTableRecord
  2
Standard
 70
     0
178
     0
340
11
  0
DIMSTYLE
105
C5
102
{ACAD_REACTORS
330
C6
102
}
330
A
100
AcDbSymbolTableRecord
100
AcDbDimStyleTableRecord
  2
ME10_DIM_10
 70
     0
 41
3.5
 42
0.0
 44
2.0
 73
     0
 74
     0
 77
     1
 78
     8
140
3.5
147
2.0
172
     1
173
     1
174
     1
175
     1
176
     2
177
     2
178
     3
340
A7
  0
DIMSTYLE
105
109
102
{ACAD_REACTORS
330
10A
102
}
330
A
100
AcDbSymbolTableRecord
100
AcDbDimStyleTableRecord
  2
ME10_DIM_11
 70
     0
 41
3.5
 42
0.0
 44
2.0
 73
     0
 74
     0
 77
     1
 78
     8
140
3.5
147
2.0
172
     1
173
     1
174
     1
175
     1
176
     2
177
     2
178
     3
340
A7
  0
DIMSTYLE
105
114
102
{ACAD_REACTORS
330
115
102
}
330
A
100
AcDbSymbolTableRecord
100
AcDbDimStyleTableRecord
  2
ME10_DIM_12
 70
     0
 41
3.5
 42
0.0
 44
2.0
 73
     0
 74
     0
 77
     1
 78
     8
140
3.5
147
2.0
172
     1
173
     1
174
     1
175
     1
176
     2
177
     2
178
     3
340
A7
  0
ENDTAB
  0
TABLE
  2
BLOCK_RECORD
  5
1
330
0
100
AcDbSymbolTable
 70
    20
  0
BLOCK_RECORD
  5
1F
330
1
100
AcDbSymbolTableRecord
100
AcDbBlockTableRecord
  2
*Model_Space
340
22
  0
BLOCK_RECORD
  5
1B
330
1
100
AcDbSymbolTableRecord
100
AcDbBlockTableRecord
  2
*Paper_Space
340
1E
  0
BLOCK_RECORD
  5
23
330
1
100
AcDbSymbolTableRecord
100
AcDbBlockTableRecord
  2
*Paper_Space0
340
26
  0
BLOCK_RECORD
  5
47
330
1
100
AcDbSymbolTableRecord
100
AcDbBlockTableRecord
  2
ATS-SSK_116_RKN-select__1
340
0
102
{BLKREFS
331
4B
102
}
  0
BLOCK_RECORD
  5
4A
330
1
100
AcDbSymbolTableRecord
100
AcDbBlockTableRecord
  2
AllgSicht1
340
0
102
{BLKREFS
331
7D
102
}
  0
BLOCK_RECORD
  5
4E
330
1
100
AcDbSymbolTableRecord
100
AcDbBlockTableRecord
  2
ATS-SSK_116_RKN-select__2
340
0
102
{BLKREFS
331
52
102
}
  0
BLOCK_RECORD
  5
51
330
1
100
AcDbSymbolTableRecord
100
AcDbBlockTableRecord
  2
Drfsicht1
340
0
102
{BLKREFS
331
7E
102
}
  0
BLOCK_RECORD
  5
55
330
1
100
AcDbSymbolTableRecord
100
AcDbBlockTableRecord
  2
ATS-SSK_116_RKN-select__3
340
0
102
{BLKREFS
331
59
102
}
  0
BLOCK_RECORD
  5
58
330
1
100
AcDbSymbolTableRecord
100
AcDbBlockTableRecord
  2
Rckans1
340
0
102
{BLKREFS
331
7F
102
}
  0
BLOCK_RECORD
  5
5C
330
1
100
AcDbSymbolTableRecord
100
AcDbBlockTableRecord
  2
ATS-SSK_116_RKN-select__4
340
0
102
{BLKREFS
331
60
102
}
  0
BLOCK_RECORD
  5
5F
330
1
100
AcDbSymbolTableRecord
100
AcDbBlockTableRecord
  2
SA_Links1
340
0
102
{BLKREFS
331
80
102
}
  0
BLOCK_RECORD
  5
63
330
1
100
AcDbSymbolTableRecord
100
AcDbBlockTableRecord
  2
ATS-SSK_116_RKN-select__5
340
0
102
{BLKREFS
331
67
102
}
  0
BLOCK_RECORD
  5
66
330
1
100
AcDbSymbolTableRecord
100
AcDbBlockTableRecord
  2
SA_Rechts1
340
0
102
{BLKREFS
331
81
102
}
  0
BLOCK_RECORD
  5
6A
330
1
100
AcDbSymbolTableRecord
100
AcDbBlockTableRecord
  2
ATS-SSK_116_RKN-select__6
340
0
102
{BLKREFS
331
6E
102
}
  0
BLOCK_RECORD
  5
6D
330
1
100
AcDbSymbolTableRecord
100
AcDbBlockTableRecord
  2
Vordans1
340
0
102
{BLKREFS
331
82
102
}
  0
BLOCK_RECORD
  5
71
330
1
100
AcDbSymbolTableRecord
100
AcDbBlockTableRecord
  2
_rahmen
340
0
102
{BLKREFS
331
78
102
}
  0
BLOCK_RECORD
  5
74
330
1
100
AcDbSymbolTableRecord
100
AcDbBlockTableRecord
  2
_punkt
340
0
102
{BLKREFS
331
79
102
}
  0
BLOCK_RECORD
  5
77
330
1
100
AcDbSymbolTableRecord
100
AcDbBlockTableRecord
  2
A4I_CS
340
0
102
{BLKREFS
331
83
102
}
  0
BLOCK_RECORD
  5
7C
330
1
100
AcDbSymbolTableRecord
100
AcDbBlockTableRecord
  2
1
340
0
102
{BLKREFS
331
86
102
}
  0
BLOCK_RECORD
  5
BA
330
1
100
AcDbSymbolTableRecord
100
AcDbBlockTableRecord
  2
*D17
340
0
  0
BLOCK_RECORD
  5
100
330
1
100
AcDbSymbolTableRecord
100
AcDbBlockTableRecord
  2
*D18
340
0
  0
BLOCK_RECORD
  5
10B
330
1
100
AcDbSymbolTableRecord
100
AcDbBlockTableRecord
  2
*D19
340
0
  0
ENDTAB
  0
ENDSEC
  0
SECTION
  2
BLOCKS
  0
BLOCK
  5
20
330
1F
100
AcDbEntity
  8
0
100
AcDbBlockBegin
  2
*Model_Space
 70
     0
 10
0.0
 20
0.0
 30
0.0
  3
*Model_Space
  1

  0
ENDBLK
  5
21
330
1F
100
AcDbEntity
  8
0
100
AcDbBlockEnd
  0
BLOCK
  5
1C
330
1B
100
AcDbEntity
 67
     1
  8
0
100
AcDbBlockBegin
  2
*Paper_Space
 70
     0
 10
0.0
 20
0.0
 30
0.0
  3
*Paper_Space
  1

  0
ENDBLK
  5
1D
330
1B
100
AcDbEntity
 67
     1
  8
0
100
AcDbBlockEnd
  0
BLOCK
  5
24
330
23
100
AcDbEntity
  8
0
100
AcDbBlockBegin
  2
*Paper_Space0
 70
     0
 10
0.0
 20
0.0
 30
0.0
  3
*Paper_Space0
  1

  0
ENDBLK
  5
25
330
23
100
AcDbEntity
  8
0
100
AcDbBlockEnd
  0
BLOCK
  5
48
330
47
100
AcDbEntity
  8
0
100
AcDbBlockBegin
  2
ATS-SSK_116_RKN-select__1
 70
     0
 10
-27.08737270569134
 20
47.62531159087726
 30
0.0
  3
ATS-SSK_116_RKN-select__1
  1

  0
LINE
  5
87
330
47
100
AcDbEntity
  8
0
  6
Continuous
 62
     7
100
AcDbLine
 10
-10.62339425122394
 20
96.32134109680594
 30
0.0
 11
-10.22339425122394
 21
96.66775125831973
 31
0.0
  0
LINE
  5
88
330
47
100
AcDbEntity
  8
0
  6
Continuous
 62
     7
100
AcDbLine
 10
-10.62339425122394
 20
96.32134109680594
 30
0.0
 11
16.22339326609367
 21
88.57134109680595
 31
0.0
  0
LINE
  5
89
330
47
100
AcDbEntity
  8
0
  6
Continuous
 62
     7
100
AcDbLine
 10
-10.22339425122394
 20
96.66775125831973
 30
0.0
 11
16.62339326609367
 21
88.91775125831973
 31
0.0
  0
LINE
  5
8A
330
47
100
AcDbEntity
  8
0
  6
Continuous
 62
     7
100
AcDbLine
 10
4.31554396405767
 20
60.1391062375386
 30
0.0
 11
4.31554396405767
 21
60.83192656056615
 31
0.0
  0
LINE
  5
8B
330
47
100
AcDbEntity
  8
0
  6
Continuous
 62
     7
100
AcDbLine
 10
4.31554396405767
 20
60.1391062375386
 30
0.0
 11
11.46025354527927
 21
58.0766062375386
 31
0.0
  0
LINE
  5
8C
330
47
100
AcDbEntity
  8
0
  6
Continuous
 62
     7
100
AcDbLine
 10
-26.59498426986923
 20
70.01013234116218
 30
0.0
 11
-10.62339425122394
 21
96.32134109680594
 31
0.0
  0
LINE
  5
8D
330
47
100
AcDbEntity
  8
0
  6
Continuous
 62
     7
100
AcDbLine
 10
1.28445505081206
 20
61.0141062375386
 30
0.0
 11
1.28445505081206
 21
61.70692656056615
 31
0.0
  0
LINE
  5
8E
330
47
100
AcDbEntity
  8
0
  6
Continuous
 62
     7
100
AcDbLine
 10
-5.86025453040955
 20
63.76942656056615
 30
0.0
 11
-5.86025453040955
 21
63.0766062375386
 31
0.0
  0
LINE
  5
8F
330
47
100
AcDbEntity
  8
0
  6
Continuous
 62
     7
100
AcDbLine
 10
-5.86025453040955
 20
63.0766062375386
 30
0.0
 11
1.28445505081206
 21
61.0141062375386
 31
0.0
  0
LINE
  5
90
330
47
100
AcDbEntity
  8
0
  6
Continuous
 62
     7
100
AcDbLine
 10
-10.19038154933173
 20
65.01942656056615
 30
0.0
 11
-5.86025453040955
 21
63.76942656056615
 31
0.0
  0
LINE
  5
91
330
47
100
AcDbEntity
  8
0
  6
Continuous
 62
     7
100
AcDbLine
 10
11.86025354527925
 20
58.42301639905237
 30
0.0
 11
11.86025354527925
 21
58.65395650672822
 31
0.0
  0
LINE
  5
92
330
47
100
AcDbEntity
  8
0
  6
Continuous
 62
     7
100
AcDbLine
 10
11.46025354527927
 20
58.0766062375386
 30
0.0
 11
11.46025354527927
 21
58.76942656056615
 31
0.0
  0
LINE
  5
93
330
47
100
AcDbEntity
  8
0
  6
Continuous
 62
     7
100
AcDbLine
 10
11.46025354527927
 20
58.76942656056615
 30
0.0
 11
15.79038056420146
 21
57.51942656056616
 31
0.0
  0
LINE
  5
94
330
47
100
AcDbEntity
  8
0
  6
Continuous
 62
     7
100
AcDbLine
 10
11.86025354527925
 20
58.42301639905237
 30
0.0
 11
11.46025354527927
 21
58.0766062375386
 31
0.0
  0
LINE
  5
95
330
47
100
AcDbEntity
  8
0
  6
Continuous
 62
     7
100
AcDbLine
 10
16.22339326609367
 20
88.57134109680595
 30
0.0
 11
16.62339326609367
 21
88.91775125831973
 31
0.0
  0
LINE
  5
96
330
47
100
AcDbEntity
  8
0
  6
Continuous
 62
     7
100
AcDbLine
 10
32.02101727261567
 20
48.72914118441877
 30
0.0
 11
31.62101727261566
 21
48.38273102290499
 31
0.0
  0
LINE
  5
97
330
47
100
AcDbEntity
  8
0
  6
Continuous
 62
     2
100
AcDbLine
 10
32.59498328473887
 20
53.38534070602479
 30
0.0
 11
32.19498328473887
 21
53.03893054451101
 31
0.0
  0
LINE
  5
98
330
47
100
AcDbEntity
  8
0
  6
Continuous
 62
     7
100
AcDbLine
 10
15.79038056420146
 20
57.51942656056616
 30
0.0
 11
16.61315996715115
 21
54.211256070448
 31
0.0
  0
LINE
  5
99
330
47
100
AcDbEntity
  8
0
  6
Continuous
 62
     7
100
AcDbLine
 10
16.61315996715115
 20
54.211256070448
 30
0.0
 11
27.22702957886577
 21
48.30331804068638
 31
0.0
  0
LINE
  5
9A
330
47
100
AcDbEntity
  8
0
  6
Continuous
 62
     7
100
AcDbLine
 10
32.59498328473887
 20
53.38534070602479
 30
0.0
 11
16.62339326609367
 21
88.91775125831973
 31
0.0
  0
LINE
  5
9B
330
47
100
AcDbEntity
  8
0
  6
Continuous
 62
     7
100
AcDbLine
 10
-11.01316095228154
 20
62.18628798022474
 30
0.0
 11
-21.62703056399604
 21
62.40627042793007
 31
0.0
  0
LINE
  5
9C
330
47
100
AcDbEntity
  8
0
  6
Continuous
 62
     7
100
AcDbLine
 10
1.68445505081206
 20
61.36051639905237
 30
0.0
 11
1.68445505081206
 21
61.59145650672822
 31
0.0
  0
LINE
  5
9D
330
47
100
AcDbEntity
  8
0
  6
Continuous
 62
     7
100
AcDbLine
 10
1.28445505081206
 20
61.70692656056615
 30
0.0
 11
4.31554396405767
 21
60.83192656056615
 31
0.0
  0
LINE
  5
9E
330
47
100
AcDbEntity
  8
0
  6
Continuous
 62
     7
100
AcDbLine
 10
1.68445505081206
 20
61.36051639905237
 30
0.0
 11
1.28445505081206
 21
61.0141062375386
 31
0.0
  0
LINE
  5
9F
330
47
100
AcDbEntity
  8
0
  6
Continuous
 62
     7
100
AcDbLine
 10
-10.61316095228153
 20
62.53269814173851
 30
0.0
 11
-11.01316095228154
 21
62.18628798022474
 31
0.0
  0
LINE
  5
A0
330
47
100
AcDbEntity
  8
0
  6
Continuous
 62
     7
100
AcDbLine
 10
-11.01316095228154
 20
62.18628798022474
 30
0.0
 11
-10.19038154933173
 21
65.01942656056615
 31
0.0
  0
LINE
  5
A1
330
47
100
AcDbEntity
  8
0
  6
Continuous
 62
     7
100
AcDbLine
 10
-10.61316095228153
 20
62.53269814173851
 30
0.0
 11
-9.91414198003514
 21
64.93968306571904
 31
0.0
  0
LINE
  5
A2
330
47
100
AcDbEntity
  8
0
  6
Continuous
 62
     7
100
AcDbLine
 10
32.19498328473887
 20
53.03893054451101
 30
0.0
 11
16.22339326609367
 21
88.57134109680595
 31
0.0
  0
SPLINE
  5
A3
330
47
100
AcDbEntity
  8
0
  6
Continuous
 62
     7
100
AcDbSpline
210
0.0
220
0.0
230
1.0
 70
     8
 71
     3
 72
    17
 73
    13
 74
    11
 42
0.000000001
 43
0.0000000001
 44
0.00000001
 40
0.0
 40
0.0
 40
0.0
 40
0.0
 40
0.903239193997542
 40
1.863890751238524
 40
2.890432174340404
 40
3.977265814915254
 40
5.107934355803431
 40
6.25903270820361
 40
7.404147283344987
 40
8.517731980952787
 40
9.579005255658398
 40
10.57591114169429
 40
10.57591114169429
 40
10.57591114169429
 40
10.57591114169429
 10
-26.59498426986923
 20
70.01013234116218
 30
0.0
 10
-26.72867791089987
 20
69.73821476142197
 30
0.0
 10
-27.00456311448847
 20
69.17709576840761
 30
0.0
 10
-27.11293189238222
 20
68.20275774877868
 30
0.0
 10
-27.00931364009827
 20
67.17831269214238
 30
0.0
 10
-26.67794326917514
 20
66.14080433853563
 30
0.0
 10
-26.14450660412811
 20
65.14629510551086
 30
0.0
 10
-25.43470930050159
 20
64.24429893477902
 30
0.0
 10
-24.58552319363853
 20
63.47904988426289
 30
0.0
 10
-23.63953514690795
 20
62.89711009397277
 30
0.0
 10
-22.64509889786645
 20
62.50310007257886
 30
0.0
 10
-21.95923680406925
 20
62.43786693882634
 30
0.0
 10
-21.62703056399604
 20
62.40627042793007
 30
0.0
 11
-26.59498426986923
 21
70.01013234116218
 31
0.0
 11
-26.9476880937402
 21
69.17860299056737
 31
0.0
 11
-27.07739634292724
 21
68.2267483822186
 31
0.0
 11
-26.97722004521322
 21
67.20510656131006
 31
0.0
 11
-26.65248017486068
 21
66.1679222081352
 31
0.0
 11
-26.12041687481364
 21
65.17026495452184
 31
0.0
 11
-25.4092819371881
 21
64.26510501423498
 31
0.0
 11
-24.55683174573656
 21
63.50050311787111
 31
0.0
 11
-23.60832841571559
 21
62.9170544825039
 31
0.0
 11
-22.61413227821224
 21
62.54573924717081
 31
0.0
 11
-21.62703056399604
 21
62.40627042793007
 31
0.0
  0
SPLINE
  5
A4
330
47
100
AcDbEntity
  8
0
  6
Continuous
 62
     7
100
AcDbSpline
210
0.0
220
0.0
230
1.0
 70
     8
 71
     3
 72
    13
 73
     9
 74
     7
 42
0.000000001
 43
0.0000000001
 44
0.00000001
 40
0.0
 40
0.0
 40
0.0
 40
0.0
 40
0.874562993152123
 40
1.709767046086703
 40
2.501899208055244
 40
3.253045504076937
 40
3.971727817963753
 40
4.672359594962712
 40
4.672359594962712
 40
4.672359594962712
 40
4.672359594962712
 10
27.22702957886577
 20
48.30331804068638
 30
0.0
 10
27.48816089767674
 20
48.17229853908862
 30
0.0
 10
27.99867155532717
 20
47.9161559666014
 30
0.0
 10
28.80993311335995
 20
47.69977674330404
 30
0.0
 10
29.60440187079935
 20
47.62868304511018
 30
0.0
 10
30.35725236792226
 20
47.72018272544742
 30
0.0
 10
31.05161139603067
 20
47.95814551916395
 30
0.0
 10
31.43283140823418
 20
48.24240757934317
 30
0.0
 10
31.62101727261566
 20
48.38273102290499
 30
0.0
 11
27.22702957886577
 21
48.30331804068638
 31
0.0
 11
28.0219084598759
 21
47.93858801519437
 31
0.0
 11
28.82808537964206
 21
47.72031161819325
 31
0.0
 11
29.61760727328839
 21
47.65605787044886
 31
0.0
 11
30.36309869590056
 21
47.74805406848794
 31
0.0
 11
31.03871055298074
 21
47.99311098332138
 31
0.0
 11
31.62101727261566
 21
48.38273102290499
 31
0.0
  0
SPLINE
  5
A5
330
47
100
AcDbEntity
  8
0
  6
Continuous
 62
     7
100
AcDbSpline
210
0.0
220
0.0
230
1.0
 70
     8
 71
     3
 72
    13
 73
     9
 74
     7
 42
0.000000001
 43
0.0000000001
 44
0.00000001
 40
0.0
 40
0.0
 40
0.0
 40
0.0
 40
0.745669119454535
 40
1.512950127218297
 40
2.318576584319831
 40
3.171565106097038
 40
4.072774333909468
 40
5.015988194522564
 40
5.015988194522564
 40
5.015988194522564
 40
5.015988194522564
 10
31.62101727261566
 20
48.38273102290499
 30
0.0
 10
31.7966969455405
 20
48.56059661318135
 30
0.0
 10
32.15314804236016
 20
48.92148291978368
 30
0.0
 10
32.49444679315617
 20
49.62892848527756
 30
0.0
 10
32.67959265445683
 20
50.42132339038358
 30
0.0
 10
32.68880552202526
 20
51.28015582632586
 30
0.0
 10
32.53863198717668
 20
52.17326520648221
 30
0.0
 10
32.31125891097899
 20
52.74602743125363
 30
0.0
 10
32.19498328473887
 20
53.03893054451101
 30
0.0
 11
31.62101727261566
 21
48.38273102290499
 31
0.0
 11
32.11556918162206
 21
48.94079988032976
 31
0.0
 11
32.46227229758196
 21
49.625282969669
 31
0.0
 11
32.64752121891608
 21
50.40932176311797
 31
0.0
 11
32.66404761618895
 21
51.2621501745658
 31
0.0
 11
32.5112021407567
 21
52.15030350274796
 31
0.0
 11
32.19498328473887
 21
53.03893054451101
 31
0.0
  0
SPLINE
  5
A6
330
47
100
AcDbEntity
  8
0
  6
Continuous
 62
     7
100
AcDbSpline
210
0.0
220
0.0
230
1.0
 70
     8
 71
     3
 72
    13
 73
     9
 74
     7
 42
0.000000001
 43
0.0000000001
 44
0.00000001
 40
0.0
 40
0.0
 40
0.0
 40
0.0
 40
0.7456691194545355
 40
1.512950127218285
 40
2.318576584319831
 40
3.171565106097037
 40
4.072774333909478
 40
5.015988194522585
 40
5.015988194522585
 40
5.015988194522585
 40
5.015988194522585
 10
32.02101727261567
 20
48.72914118441877
 30
0.0
 10
32.19669694554052
 20
48.90700677469514
 30
0.0
 10
32.55314804236016
 20
49.26789308129747
 30
0.0
 10
32.89444679315616
 20
49.97533864679134
 30
0.0
 10
33.0795926544569
 20
50.76773355189736
 30
0.0
 10
33.08880552202532
 20
51.62656598783964
 30
0.0
 10
32.93863198717673
 20
52.51967536799599
 30
0.0
 10
32.71125891097901
 20
53.09243759276742
 30
0.0
 10
32.59498328473887
 20
53.38534070602479
 30
0.0
 11
32.02101727261567
 21
48.72914118441877
 31
0.0
 11
32.51556918162206
 21
49.28721004184355
 31
0.0
 11
32.86227229758197
 21
49.97169313118278
 31
0.0
 11
33.04752121891614
 21
50.75573192463175
 31
0.0
 11
33.06404761618901
 21
51.60856033607958
 31
0.0
 11
32.91120214075674
 21
52.49671366426174
 31
0.0
 11
32.59498328473887
 21
53.38534070602479
 31
0.0
  0
ENDBLK
  5
49
330
47
100
AcDbEntity
  8
0
100
AcDbBlockEnd
  0
BLOCK
  5
4C
330
4A
100
AcDbEntity
  8
0
100
AcDbBlockBegin
  2
AllgSicht1
 70
     0
 10
3.00000000000085
 20
74.0
 30
0.0
  3
AllgSicht1
  1

  0
INSERT
  5
4B
330
4A
100
AcDbEntity
  8
0
100
AcDbBlockReference
  2
ATS-SSK_116_RKN-select__1
 10
-27.08737270569134
 20
47.62531159087726
 30
0.0
  0
MTEXT
  5
A8
330
4A
100
AcDbEntity
  8
1
 62
     6
100
AcDbMText
 10
2.99999999999795
 20
41.58224887047504
 30
0.0
 40
5.0
 41
0.0
 71
     2
 72
     1
  1
 
  7
CONVERTER_11
 73
     1
 44
1.32052821128451
  0
ENDBLK
  5
4D
330
4A
100
AcDbEntity
  8
0
100
AcDbBlockEnd
  0
BLOCK
  5
4F
330
4E
100
AcDbEntity
  8
0
100
AcDbBlockBegin
  2
ATS-SSK_116_RKN-select__2
 70
     0
 10
-169.5000005722046
 20
86.60000000595036
 30
0.0
  3
ATS-SSK_116_RKN-select__2
  1

  0
LINE
  5
A9
330
4E
100
AcDbEntity
  8
0
  6
Continuous
 62
     7
100
AcDbLine
 10
-168.942404165507
 20
87.40000000595035
 30
0.0
 11
-150.5000005722046
 21
87.40000000595035
 31
0.0
  0
LINE
  5
AA
330
4E
100
AcDbEntity
  8
0
  6
Continuous
 62
     7
100
AcDbLine
 10
-168.942404165507
 20
87.40000000595035
 30
0.0
 11
-169.5000005722046
 21
87.40000000595035
 31
0.0
  0
LINE
  5
AB
330
4E
100
AcDbEntity
  8
0
  6
Continuous
 62
     2
100
AcDbLine
 10
-168.942404165507
 20
87.40000000595035
 30
0.0
 11
-168.942404165507
 21
86.60000000595036
 31
0.0
  0
LINE
  5
AC
330
4E
100
AcDbEntity
  8
0
  6
Continuous
 62
     7
100
AcDbLine
 10
-169.5000005722046
 20
87.40000000595035
 30
0.0
 11
-169.5000005722046
 21
86.60000000595036
 31
0.0
  0
LINE
  5
AD
330
4E
100
AcDbEntity
  8
0
  6
Continuous
 62
     7
100
AcDbLine
 10
-168.942404165507
 20
86.60000000595036
 30
0.0
 11
-150.5000005722046
 21
86.60000000595036
 31
0.0
  0
LINE
  5
AE
330
4E
100
AcDbEntity
  8
0
  6
Continuous
 62
     7
100
AcDbLine
 10
-168.942404165507
 20
86.60000000595036
 30
0.0
 11
-169.5000005722046
 21
86.60000000595036
 31
0.0
  0
LINE
  5
AF
330
4E
100
AcDbEntity
  8
0
  6
Continuous
 62
     7
100
AcDbLine
 10
-150.5000005722046
 20
86.60000000595036
 30
0.0
 11
-119.5000005722046
 21
86.60000000595036
 31
0.0
  0
LINE
  5
B0
330
4E
100
AcDbEntity
  8
0
  6
Continuous
 62
     7
100
AcDbLine
 10
-150.5000005722046
 20
86.60000000595036
 30
0.0
 11
-150.5000005722046
 21
87.40000000595035
 31
0.0
  0
LINE
  5
B1
330
4E
100
AcDbEntity
  8
0
  6
Continuous
 62
     7
100
AcDbLine
 10
-100.5000005722046
 20
86.60000000595036
 30
0.0
 11
-101.0575969789023
 21
86.60000000595036
 31
0.0
  0
LINE
  5
B2
330
4E
100
AcDbEntity
  8
0
  6
Continuous
 62
     7
100
AcDbLine
 10
-101.0575969789023
 20
86.60000000595036
 30
0.0
 11
-119.5000005722046
 21
86.60000000595036
 31
0.0
  0
LINE
  5
B3
330
4E
100
AcDbEntity
  8
0
  6
Continuous
 62
     2
100
AcDbLine
 10
-101.0575969789023
 20
87.40000000595035
 30
0.0
 11
-101.0575969789023
 21
86.60000000595036
 31
0.0
  0
LINE
  5
B4
330
4E
100
AcDbEntity
  8
0
  6
Continuous
 62
     7
100
AcDbLine
 10
-100.5000005722046
 20
87.40000000595035
 30
0.0
 11
-100.5000005722046
 21
86.60000000595036
 31
0.0
  0
LINE
  5
B5
330
4E
100
AcDbEntity
  8
0
  6
Continuous
 62
     7
100
AcDbLine
 10
-100.5000005722046
 20
87.40000000595035
 30
0.0
 11
-101.0575969789023
 21
87.40000000595035
 31
0.0
  0
LINE
  5
B6
330
4E
100
AcDbEntity
  8
0
  6
Continuous
 62
     7
100
AcDbLine
 10
-101.0575969789023
 20
87.40000000595035
 30
0.0
 11
-119.5000005722046
 21
87.40000000595035
 31
0.0
  0
LINE
  5
B7
330
4E
100
AcDbEntity
  8
0
  6
Continuous
 62
     7
100
AcDbLine
 10
-119.5000005722046
 20
86.60000000595036
 30
0.0
 11
-119.5000005722046
 21
87.40000000595035
 31
0.0
  0
LINE
  5
B8
330
4E
100
AcDbEntity
  8
0
  6
Continuous
 62
     7
100
AcDbLine
 10
-150.5000005722046
 20
87.40000000595035
 30
0.0
 11
-119.5000005722046
 21
87.40000000595035
 31
0.0
  0
ENDBLK
  5
50
330
4E
100
AcDbEntity
  8
0
100
AcDbBlockEnd
  0
BLOCK
  5
53
330
51
100
AcDbEntity
  8
0
100
AcDbBlockBegin
  2
Drfsicht1
 70
     0
 10
-135.0
 20
86.99999999999488
 30
0.0
  3
Drfsicht1
  1

  0
INSERT
  5
52
330
51
100
AcDbEntity
  8
0
100
AcDbBlockReference
  2
ATS-SSK_116_RKN-select__2
 10
-169.5000005722046
 20
86.60000000595036
 30
0.0
  0
MTEXT
  5
B9
330
51
100
AcDbEntity
  8
1
 62
     6
100
AcDbMText
 10
-135.0
 20
81.59999999403453
 30
0.0
 40
5.0
 41
0.0
 71
     2
 72
     1
  1
 
  7
CONVERTER_11
 73
     1
 44
1.32052821128451
  0
DIMENSION
  5
C6
330
51
100
AcDbEntity
  8
1
100
AcDbDimension
  2
*D17
 10
-91.05759697890224
 20
86.60000000595036
 30
0.0
 11
-94.98259697890224
 21
77.93269544582554
 31
0.0
 70
    32
  1
<>
 71
     5
 42
-1.0
 53
90.0
  3
ME10_DIM_10
100
AcDbAlignedDimension
 13
-101.0575969789023
 23
87.40000000595035
 33
0.0
 14
-101.0575969789023
 24
86.60000000595036
 34
0.0
 50
90.0
100
AcDbRotatedDimension
  0
ENDBLK
  5
54
330
51
100
AcDbEntity
  8
0
100
AcDbBlockEnd
  0
BLOCK
  5
56
330
55
100
AcDbEntity
  8
0
100
AcDbBlockBegin
  2
ATS-SSK_116_RKN-select__3
 70
     0
 10
-56.50000133514317
 20
117.39999995262
 30
0.0
  3
ATS-SSK_116_RKN-select__3
  1

  0
LINE
  5
C7
330
55
100
AcDbEntity
  8
0
  6
Continuous
 62
     7
100
AcDbLine
 10
-6.50000133514317
 20
160.39999995262
 30
0.0
 11
-37.50000133514317
 21
160.39999995262
 31
0.0
  0
LINE
  5
C8
330
55
100
AcDbEntity
  8
0
  6
Continuous
 62
     7
100
AcDbLine
 10
-37.95006515469666
 20
120.8543135076135
 30
0.0
 11
-50.20590610963058
 21
117.5703708211747
 31
0.0
  0
LINE
  5
C9
330
55
100
AcDbEntity
  8
0
  6
Continuous
 62
     7
100
AcDbLine
 10
-55.94240492844548
 20
124.6945696975209
 30
0.0
 11
-37.50000133514317
 21
160.39999995262
 31
0.0
  0
LINE
  5
CA
330
55
100
AcDbEntity
  8
0
  6
Continuous
 62
     7
100
AcDbLine
 10
-20.25000133514317
 20
124.39999995262
 30
0.0
 11
-23.75000133514317
 21
124.39999995262
 31
0.0
  0
LINE
  5
CB
330
55
100
AcDbEntity
  8
0
  6
Continuous
 62
     7
100
AcDbLine
 10
-23.75000133514317
 20
123.59999995262
 30
0.0
 11
-23.75000133514317
 21
124.39999995262
 31
0.0
  0
LINE
  5
CC
330
55
100
AcDbEntity
  8
0
  6
Continuous
 62
     7
100
AcDbLine
 10
-23.75000133514317
 20
123.59999995262
 30
0.0
 11
-32.00000133514317
 21
123.59999995262
 31
0.0
  0
LINE
  5
CD
330
55
100
AcDbEntity
  8
0
  6
Continuous
 62
     7
100
AcDbLine
 10
-32.00000133514317
 20
123.59999995262
 30
0.0
 11
-32.00000133514317
 21
124.39999995262
 31
0.0
  0
LINE
  5
CE
330
55
100
AcDbEntity
  8
0
  6
Continuous
 62
     7
100
AcDbLine
 10
-32.00000133514317
 20
124.39999995262
 30
0.0
 11
-37.00000133514317
 21
124.39999995262
 31
0.0
  0
LINE
  5
CF
330
55
100
AcDbEntity
  8
0
  6
Continuous
 62
     7
100
AcDbLine
 10
-37.00000133514317
 20
124.39999995262
 30
0.0
 11
-37.95006515469666
 21
120.8543135076135
 31
0.0
  0
LINE
  5
D0
330
55
100
AcDbEntity
  8
0
  6
Continuous
 62
     7
100
AcDbLine
 10
-12.00000133514317
 20
123.59999995262
 30
0.0
 11
-20.25000133514317
 21
123.59999995262
 31
0.0
  0
LINE
  5
D1
330
55
100
AcDbEntity
  8
0
  6
Continuous
 62
     7
100
AcDbLine
 10
-20.25000133514317
 20
123.59999995262
 30
0.0
 11
-20.25000133514317
 21
124.39999995262
 31
0.0
  0
LINE
  5
D2
330
55
100
AcDbEntity
  8
0
  6
Continuous
 62
     7
100
AcDbLine
 10
-12.00000133514317
 20
124.39999995262
 30
0.0
 11
-12.00000133514317
 21
123.59999995262
 31
0.0
  0
LINE
  5
D3
330
55
100
AcDbEntity
  8
0
  6
Continuous
 62
     7
100
AcDbLine
 10
-7.00000133514317
 20
124.39999995262
 30
0.0
 11
-12.00000133514317
 21
124.39999995262
 31
0.0
  0
LINE
  5
D4
330
55
100
AcDbEntity
  8
0
  6
Continuous
 62
     7
100
AcDbLine
 10
-6.04993751558968
 20
120.8543135076135
 30
0.0
 11
-7.00000133514317
 21
124.39999995262
 31
0.0
  0
LINE
  5
D5
330
55
100
AcDbEntity
  8
0
  6
Continuous
 62
     7
100
AcDbLine
 10
-6.04993751558968
 20
120.8543135076135
 30
0.0
 11
6.20590343934424
 21
117.5703708211747
 31
0.0
  0
LINE
  5
D6
330
55
100
AcDbEntity
  8
0
  6
Continuous
 62
     7
100
AcDbLine
 10
11.94240225815923
 20
124.6945696975209
 30
0.0
 11
-6.50000133514317
 21
160.39999995262
 31
0.0
  0
ARC
  5
D7
330
55
100
AcDbEntity
  8
0
  6
Continuous
 62
     7
100
AcDbCircle
 10
-51.50000133514317
 20
122.39999995262
 30
0.0
 40
4.999999999999984
100
AcDbArc
 50
152.6829512057941
 51
284.9999999999999
  0
ARC
  5
D8
330
55
100
AcDbEntity
  8
0
  6
Continuous
 62
     7
100
AcDbCircle
 10
7.49999866485683
 20
122.39999995262
 30
0.0
 40
4.999999999999958
100
AcDbArc
 50
255.0
 51
27.31704879420542
  0
ENDBLK
  5
57
330
55
100
AcDbEntity
  8
0
100
AcDbBlockEnd
  0
BLOCK
  5
5A
330
58
100
AcDbEntity
  8
0
100
AcDbBlockBegin
  2
Rckans1
 70
     0
 10
-22.00000190734778
 20
138.9000001251698
 30
0.0
  3
Rckans1
  1

  0
INSERT
  5
59
330
58
100
AcDbEntity
  8
0
100
AcDbBlockReference
  2
ATS-SSK_116_RKN-select__3
 10
-56.50000133514317
 20
117.39999995262
 30
0.0
  0
MTEXT
  5
D9
330
58
100
AcDbEntity
  8
1
 62
     6
100
AcDbMText
 10
-22.00000190734863
 20
112.4000000059605
 30
0.0
 40
5.0
 41
0.0
 71
     2
 72
     1
  1
 
  7
CONVERTER_11
 73
     1
 44
1.32052821128451
  0
ENDBLK
  5
5B
330
58
100
AcDbEntity
  8
0
100
AcDbBlockEnd
  0
BLOCK
  5
5D
330
5C
100
AcDbEntity
  8
0
100
AcDbBlockBegin
  2
ATS-SSK_116_RKN-select__4
 70
     0
 10
-78.90000095961977
 20
117.3999999526199
 30
0.0
  3
ATS-SSK_116_RKN-select__4
  1

  0
LINE
  5
DA
330
5C
100
AcDbEntity
  8
0
  6
Continuous
 62
     7
100
AcDbLine
 10
-78.90000095961977
 20
124.6945696975208
 30
0.0
 11
-78.90000095961977
 21
117.3999999526199
 31
0.0
  0
LINE
  5
DB
330
5C
100
AcDbEntity
  8
0
  6
Continuous
 62
     7
100
AcDbLine
 10
-78.10000095961978
 20
124.6945696975208
 30
0.0
 11
-78.10000095961978
 21
160.39999995262
 31
0.0
  0
LINE
  5
DC
330
5C
100
AcDbEntity
  8
0
  6
Continuous
 62
     2
100
AcDbLine
 10
-78.90000095961977
 20
124.6945696975208
 30
0.0
 11
-78.10000095961978
 21
124.6945696975208
 31
0.0
  0
LINE
  5
DD
330
5C
100
AcDbEntity
  8
0
  6
Continuous
 62
     7
100
AcDbLine
 10
-78.10000095961978
 20
124.6945696975208
 30
0.0
 11
-78.10000095961978
 21
117.3999999526199
 31
0.0
  0
LINE
  5
DE
330
5C
100
AcDbEntity
  8
0
  6
Continuous
 62
     7
100
AcDbLine
 10
-78.10000095961978
 20
160.39999995262
 30
0.0
 11
-78.90000095961977
 21
160.39999995262
 31
0.0
  0
LINE
  5
DF
330
5C
100
AcDbEntity
  8
0
  6
Continuous
 62
     7
100
AcDbLine
 10
-78.90000095961977
 20
117.3999999526199
 30
0.0
 11
-78.10000095961978
 21
117.3999999526199
 31
0.0
  0
LINE
  5
E0
330
5C
100
AcDbEntity
  8
0
  6
Continuous
 62
     7
100
AcDbLine
 10
-78.90000095961977
 20
124.6945696975208
 30
0.0
 11
-78.90000095961977
 21
160.39999995262
 31
0.0
  0
ENDBLK
  5
5E
330
5C
100
AcDbEntity
  8
0
100
AcDbBlockEnd
  0
BLOCK
  5
61
330
5F
100
AcDbEntity
  8
0
100
AcDbBlockBegin
  2
SA_Links1
 70
     0
 10
-78.50000095366431
 20
138.9000001251698
 30
0.0
  3
SA_Links1
  1

  0
INSERT
  5
60
330
5F
100
AcDbEntity
  8
0
100
AcDbBlockReference
  2
ATS-SSK_116_RKN-select__4
 10
-78.90000095961977
 20
117.3999999526199
 30
0.0
  0
MTEXT
  5
E1
330
5F
100
AcDbEntity
  8
1
 62
     6
100
AcDbMText
 10
-78.50000095366431
 20
112.4000000059605
 30
0.0
 40
5.0
 41
0.0
 71
     2
 72
     1
  1
 
  7
CONVERTER_11
 73
     1
 44
1.32052821128451
  0
ENDBLK
  5
62
330
5F
100
AcDbEntity
  8
0
100
AcDbBlockEnd
  0
BLOCK
  5
64
330
63
100
AcDbEntity
  8
0
100
AcDbBlockBegin
  2
ATS-SSK_116_RKN-select__5
 70
     0
 10
-191.899999040375
 20
117.39999995262
 30
0.0
  3
ATS-SSK_116_RKN-select__5
  1

  0
LINE
  5
E2
330
63
100
AcDbEntity
  8
0
  6
Continuous
 62
     7
100
AcDbLine
 10
-191.099999040375
 20
117.39999995262
 30
0.0
 11
-191.099999040375
 21
124.6945696975208
 31
0.0
  0
LINE
  5
E3
330
63
100
AcDbEntity
  8
0
  6
Continuous
 62
     7
100
AcDbLine
 10
-191.099999040375
 20
124.6945696975208
 30
0.0
 11
-191.099999040375
 21
160.39999995262
 31
0.0
  0
LINE
  5
E4
330
63
100
AcDbEntity
  8
0
  6
Continuous
 62
     7
100
AcDbLine
 10
-191.099999040375
 20
117.39999995262
 30
0.0
 11
-191.899999040375
 21
117.39999995262
 31
0.0
  0
LINE
  5
E5
330
63
100
AcDbEntity
  8
0
  6
Continuous
 62
     7
100
AcDbLine
 10
-191.899999040375
 20
117.39999995262
 30
0.0
 11
-191.899999040375
 21
124.6945696975208
 31
0.0
  0
LINE
  5
E6
330
63
100
AcDbEntity
  8
0
  6
Continuous
 62
     2
100
AcDbLine
 10
-191.099999040375
 20
124.6945696975208
 30
0.0
 11
-191.899999040375
 21
124.6945696975208
 31
0.0
  0
LINE
  5
E7
330
63
100
AcDbEntity
  8
0
  6
Continuous
 62
     7
100
AcDbLine
 10
-191.899999040375
 20
160.39999995262
 30
0.0
 11
-191.099999040375
 21
160.39999995262
 31
0.0
  0
LINE
  5
E8
330
63
100
AcDbEntity
  8
0
  6
Continuous
 62
     7
100
AcDbLine
 10
-191.899999040375
 20
124.6945696975208
 30
0.0
 11
-191.899999040375
 21
160.39999995262
 31
0.0
  0
ENDBLK
  5
65
330
63
100
AcDbEntity
  8
0
100
AcDbBlockEnd
  0
BLOCK
  5
68
330
66
100
AcDbEntity
  8
0
100
AcDbBlockBegin
  2
SA_Rechts1
 70
     0
 10
-191.4999990463304
 20
138.9000001251698
 30
0.0
  3
SA_Rechts1
  1

  0
INSERT
  5
67
330
66
100
AcDbEntity
  8
0
100
AcDbBlockReference
  2
ATS-SSK_116_RKN-select__5
 10
-191.899999040375
 20
117.39999995262
 30
0.0
  0
MTEXT
  5
E9
330
66
100
AcDbEntity
  8
1
 62
     6
100
AcDbMText
 10
-191.4999990463306
 20
112.4000000059605
 30
0.0
 40
5.0
 41
0.0
 71
     2
 72
     1
  1
 
  7
CONVERTER_11
 73
     1
 44
1.32052821128451
  0
ENDBLK
  5
69
330
66
100
AcDbEntity
  8
0
100
AcDbBlockEnd
  0
BLOCK
  5
6B
330
6A
100
AcDbEntity
  8
0
100
AcDbBlockBegin
  2
ATS-SSK_116_RKN-select__6
 70
     0
 10
-169.5000005722047
 20
117.39999995262
 30
0.0
  3
ATS-SSK_116_RKN-select__6
  1

  0
LINE
  5
EA
330
6A
100
AcDbEntity
  8
0
  6
Continuous
 62
     7
100
AcDbLine
 10
-136.7500005722046
 20
124.39999995262
 30
0.0
 11
-133.2500005722046
 21
124.39999995262
 31
0.0
  0
LINE
  5
EB
330
6A
100
AcDbEntity
  8
0
  6
Continuous
 62
     7
100
AcDbLine
 10
-125.0000005722046
 20
124.39999995262
 30
0.0
 11
-120.0000005722046
 21
124.39999995262
 31
0.0
  0
LINE
  5
EC
330
6A
100
AcDbEntity
  8
0
  6
Continuous
 62
     7
100
AcDbLine
 10
-101.0575969789023
 20
124.6945696975209
 30
0.0
 11
-119.5000005722047
 21
160.39999995262
 31
0.0
  0
LINE
  5
ED
330
6A
100
AcDbEntity
  8
0
  6
Continuous
 62
     7
100
AcDbLine
 10
-133.2500005722046
 20
123.59999995262
 30
0.0
 11
-133.2500005722046
 21
124.39999995262
 31
0.0
  0
LINE
  5
EE
330
6A
100
AcDbEntity
  8
0
  6
Continuous
 62
     7
100
AcDbLine
 10
-125.0000005722046
 20
123.59999995262
 30
0.0
 11
-125.0000005722046
 21
124.39999995262
 31
0.0
  0
LINE
  5
EF
330
6A
100
AcDbEntity
  8
0
  6
Continuous
 62
     7
100
AcDbLine
 10
-120.0000005722046
 20
124.39999995262
 30
0.0
 11
-119.0499367526512
 21
120.8543135076135
 31
0.0
  0
LINE
  5
F0
330
6A
100
AcDbEntity
  8
0
  6
Continuous
 62
     7
100
AcDbLine
 10
-119.0499367526512
 20
120.8543135076135
 30
0.0
 11
-106.7940957977172
 21
117.5703708211747
 31
0.0
  0
LINE
  5
F1
330
6A
100
AcDbEntity
  8
0
  6
Continuous
 62
     7
100
AcDbLine
 10
-136.7500005722046
 20
123.59999995262
 30
0.0
 11
-136.7500005722046
 21
124.39999995262
 31
0.0
  0
LINE
  5
F2
330
6A
100
AcDbEntity
  8
0
  6
Continuous
 62
     7
100
AcDbLine
 10
-145.0000005722046
 20
123.59999995262
 30
0.0
 11
-136.7500005722046
 21
123.59999995262
 31
0.0
  0
LINE
  5
F3
330
6A
100
AcDbEntity
  8
0
  6
Continuous
 62
     7
100
AcDbLine
 10
-133.2500005722046
 20
123.59999995262
 30
0.0
 11
-125.0000005722046
 21
123.59999995262
 31
0.0
  0
LINE
  5
F4
330
6A
100
AcDbEntity
  8
0
  6
Continuous
 62
     7
100
AcDbLine
 10
-145.0000005722046
 20
124.39999995262
 30
0.0
 11
-145.0000005722046
 21
123.59999995262
 31
0.0
  0
LINE
  5
F5
330
6A
100
AcDbEntity
  8
0
  6
Continuous
 62
     7
100
AcDbLine
 10
-150.0000005722046
 20
124.39999995262
 30
0.0
 11
-145.0000005722046
 21
124.39999995262
 31
0.0
  0
LINE
  5
F6
330
6A
100
AcDbEntity
  8
0
  6
Continuous
 62
     7
100
AcDbLine
 10
-150.9500643917581
 20
120.8543135076135
 30
0.0
 11
-150.0000005722046
 21
124.39999995262
 31
0.0
  0
LINE
  5
F7
330
6A
100
AcDbEntity
  8
0
  6
Continuous
 62
     7
100
AcDbLine
 10
-150.9500643917581
 20
120.8543135076135
 30
0.0
 11
-163.205905346692
 21
117.5703708211747
 31
0.0
  0
LINE
  5
F8
330
6A
100
AcDbEntity
  8
0
  6
Continuous
 62
     7
100
AcDbLine
 10
-150.5000005722046
 20
160.39999995262
 30
0.0
 11
-119.5000005722047
 21
160.39999995262
 31
0.0
  0
LINE
  5
F9
330
6A
100
AcDbEntity
  8
0
  6
Continuous
 62
     7
100
AcDbLine
 10
-168.942404165507
 20
124.6945696975209
 30
0.0
 11
-150.5000005722046
 21
160.39999995262
 31
0.0
  0
ARC
  5
FA
330
6A
100
AcDbEntity
  8
0
  6
Continuous
 62
     7
100
AcDbCircle
 10
-105.5000005722046
 20
122.39999995262
 30
0.0
 40
5.0
100
AcDbArc
 50
0.0
 51
27.31704879420592
  0
ARC
  5
FB
330
6A
100
AcDbEntity
  8
0
  6
Continuous
 62
     7
100
AcDbCircle
 10
-164.5000005722046
 20
122.39999995262
 30
0.0
 40
5.0
100
AcDbArc
 50
180.0
 51
285.0000000000003
  0
ARC
  5
FC
330
6A
100
AcDbEntity
  8
0
  6
Continuous
 62
     7
100
AcDbCircle
 10
-164.5000005722046
 20
122.39999995262
 30
0.0
 40
5.000000000000066
100
AcDbArc
 50
152.6829512057946
 51
180.0
  0
ARC
  5
FD
330
6A
100
AcDbEntity
  8
0
  6
Continuous
 62
     7
100
AcDbCircle
 10
-105.5000005722046
 20
122.39999995262
 30
0.0
 40
4.999999999999962
100
AcDbArc
 50
254.9999999999999
 51
270.0
  0
ARC
  5
FE
330
6A
100
AcDbEntity
  8
0
  6
Continuous
 62
     7
100
AcDbCircle
 10
-105.5000005722046
 20
122.39999995262
 30
0.0
 40
5.0
100
AcDbArc
 50
270.0
 51
0.0
  0
ENDBLK
  5
6C
330
6A
100
AcDbEntity
  8
0
100
AcDbBlockEnd
  0
BLOCK
  5
6F
330
6D
100
AcDbEntity
  8
0
100
AcDbBlockBegin
  2
Vordans1
 70
     0
 10
-135.0
 20
138.9000001251698
 30
0.0
  3
Vordans1
  1

  0
INSERT
  5
6E
330
6D
100
AcDbEntity
  8
0
100
AcDbBlockReference
  2
ATS-SSK_116_RKN-select__6
 10
-169.5000005722047
 20
117.39999995262
 30
0.0
  0
MTEXT
  5
FF
330
6D
100
AcDbEntity
  8
1
 62
     6
100
AcDbMText
 10
-135.0000000000001
 20
112.4000000059605
 30
0.0
 40
5.0
 41
0.0
 71
     2
 72
     1
  1
 
  7
CONVERTER_11
 73
     1
 44
1.32052821128451
  0
DIMENSION
  5
10A
330
6D
100
AcDbEntity
  8
1
100
AcDbDimension
  2
*D18
 10
-169.5000005722046
 20
106.0764803081791
 30
0.0
 11
-135.0000000000001
 21
109.8264803081791
 31
0.0
 70
    33
  1
<>
 71
     5
 42
-1.0
 53
0.00013888888889
  3
ME10_DIM_11
100
AcDbAlignedDimension
 13
-100.5000005722046
 23
122.39999995262
 33
0.0
 14
-169.5000005722046
 24
122.39999995262
 34
0.0
  0
DIMENSION
  5
115
330
6D
100
AcDbEntity
  8
1
100
AcDbDimension
  2
*D19
 10
-91.05759697890227
 20
117.39999995262
 30
0.0
 11
-94.80759697890227
 21
139.0254602539571
 31
0.0
 70
    32
  1
<>
 71
     5
 42
-1.0
 53
90.0
  3
ME10_DIM_12
100
AcDbAlignedDimension
 13
-119.5000005722047
 23
160.39999995262
 33
0.0
 14
-105.5000005722046
 24
117.39999995262
 34
0.0
 50
90.0
100
AcDbRotatedDimension
  0
ENDBLK
  5
70
330
6D
100
AcDbEntity
  8
0
100
AcDbBlockEnd
  0
BLOCK
  5
72
330
71
100
AcDbEntity
  8
0
100
AcDbBlockBegin
  2
_rahmen
 70
     0
 10
63.29397887112249
 20
-6.50887558845255
 30
0.0
  3
_rahmen
  1

  0
LINE
  5
116
330
71
100
AcDbEntity
  8
1
  6
Continuous
 62
     6
100
AcDbLine
 10
-66.25082565562752
 20
23.99112441154756
 30
0.0
 11
63.29397887112418
 21
23.99112441154756
 31
0.0
  0
LINE
  5
117
330
71
100
AcDbEntity
  8
1
  6
Continuous
 62
     7
100
AcDbLine
 10
-48.05082565562751
 20
2.74112441154756
 30
0.0
 11
-29.8508256556276
 21
2.74112441154756
 31
0.0
  0
LINE
  5
118
330
71
100
AcDbEntity
  8
1
  6
Continuous
 62
     6
100
AcDbLine
 10
-48.05082565562751
 20
-1.50887558845244
 30
0.0
 11
-66.25082565562752
 21
-1.50887558845255
 31
0.0
  0
LINE
  5
119
330
71
100
AcDbEntity
  8
1
  6
Continuous
 62
     7
100
AcDbLine
 10
-48.05082565562751
 20
2.74112441154756
 30
0.0
 11
-48.05082565562751
 21
-1.50887558845244
 31
0.0
  0
LINE
  5
11A
330
71
100
AcDbEntity
  8
1
  6
Continuous
 62
     7
100
AcDbLine
 10
-29.8508256556276
 20
2.74112441154756
 30
0.0
 11
-29.8508256556276
 21
-1.50887558845255
 31
0.0
  0
LINE
  5
11B
330
71
100
AcDbEntity
  8
1
  6
Continuous
 62
     7
100
AcDbLine
 10
-66.25082565562752
 20
2.74112441154745
 30
0.0
 11
-66.25082565562752
 21
-1.50887558845255
 31
0.0
  0
LINE
  5
11C
330
71
100
AcDbEntity
  8
1
  6
Continuous
 62
     7
100
AcDbLine
 10
-66.25082565562752
 20
2.74112441154745
 30
0.0
 11
-48.05082565562751
 21
2.74112441154756
 31
0.0
  0
LINE
  5
11D
330
71
100
AcDbEntity
  8
1
  6
Continuous
 62
     2
100
AcDbLine
 10
-57.01417076906492
 20
22.11612441154747
 30
0.0
 11
-57.01417076906492
 21
17.11612441154747
 31
0.0
  0
LINE
  5
11E
330
71
100
AcDbEntity
  8
1
  6
Continuous
 62
     2
100
AcDbLine
 10
-57.01417076906492
 20
17.11612441154747
 30
0.0
 11
-62.01417076906492
 21
18.36612441154747
 31
0.0
  0
LINE
  5
11F
330
71
100
AcDbEntity
  8
1
  6
Continuous
 62
     2
100
AcDbLine
 10
-62.01417076906492
 20
18.36612441154747
 30
0.0
 11
-62.01417076906492
 21
20.86612441154747
 31
0.0
  0
LINE
  5
120
330
71
100
AcDbEntity
  8
1
  6
Continuous
 62
     2
100
AcDbLine
 10
-62.01417076906492
 20
20.86612441154747
 30
0.0
 11
-57.01417076906492
 21
22.11612441154747
 31
0.0
  0
LINE
  5
121
330
71
100
AcDbEntity
  8
1
  6
Continuous
 62
     6
100
AcDbLine
 10
-188.7060211288757
 20
-1.50887558845244
 30
0.0
 11
-223.7060211288756
 21
-1.50887558845244
 31
0.0
  0
LINE
  5
122
330
71
100
AcDbEntity
  8
1
  6
Continuous
 62
     6
100
AcDbLine
 10
63.29397887112418
 20
15.49112441154756
 30
0.0
 11
63.29397887112378
 21
6.99112441154756
 31
0.0
  0
LINE
  5
123
330
71
100
AcDbEntity
  8
1
  6
Continuous
 62
     6
100
AcDbLine
 10
-29.8508256556276
 20
-1.50887558845255
 30
0.0
 11
-30.20602112887752
 21
-1.50887558845244
 31
0.0
  0
LINE
  5
124
330
71
100
AcDbEntity
  8
1
  6
Continuous
 62
     6
100
AcDbLine
 10
-182.5060211288777
 20
-1.50887558845255
 30
0.0
 11
-188.7060211288757
 21
-1.50887558845244
 31
0.0
  0
LINE
  5
125
330
71
100
AcDbEntity
  8
1
  6
Continuous
 62
     7
100
AcDbLine
 10
-29.8508256556276
 20
15.49112441154756
 30
0.0
 11
-29.8508256556276
 21
2.74112441154756
 31
0.0
  0
LINE
  5
126
330
71
100
AcDbEntity
  8
1
  6
Continuous
 62
     7
100
AcDbLine
 10
-66.25082565562752
 20
15.49112441154756
 30
0.0
 11
-66.25082565562752
 21
2.74112441154745
 31
0.0
  0
LINE
  5
127
330
71
100
AcDbEntity
  8
1
  6
Continuous
 62
     6
100
AcDbLine
 10
-80.2060211288775
 20
-1.50887558845244
 30
0.0
 11
-130.2060211288777
 21
-1.50887558845244
 31
0.0
  0
LINE
  5
128
330
71
100
AcDbEntity
  8
1
  6
Continuous
 62
     6
100
AcDbLine
 10
-182.5060211288777
 20
-1.50887558845255
 30
0.0
 11
-180.2060211288775
 21
-1.50887558845244
 31
0.0
  0
LINE
  5
129
330
71
100
AcDbEntity
  8
1
  6
Continuous
 62
     6
100
AcDbLine
 10
-29.8508256556276
 20
-1.50887558845255
 30
0.0
 11
19.79397887112248
 21
-1.50887558845244
 31
0.0
  0
LINE
  5
12A
330
71
100
AcDbEntity
  8
1
  6
Continuous
 62
     6
100
AcDbLine
 10
63.29397887112249
 20
-1.50887558845244
 30
0.0
 11
63.29397887112378
 21
6.99112441154756
 31
0.0
  0
LINE
  5
12B
330
71
100
AcDbEntity
  8
1
  6
Continuous
 62
     2
100
AcDbLine
 10
-228.7060211288766
 20
-1.50887558845244
 30
0.0
 11
-228.7060211288766
 21
-6.50887558845255
 31
0.0
  0
LINE
  5
12C
330
71
100
AcDbEntity
  8
1
  6
Continuous
 62
     2
100
AcDbLine
 10
-223.7060211288756
 20
-1.50887558845244
 30
0.0
 11
-228.7060211288766
 21
-1.50887558845244
 31
0.0
  0
LINE
  5
12D
330
71
100
AcDbEntity
  8
1
  6
Continuous
 62
     2
100
AcDbLine
 10
-223.7060211288756
 20
-6.50887558845255
 30
0.0
 11
-180.2060211288775
 21
-6.50887558845255
 31
0.0
  0
LINE
  5
12E
330
71
100
AcDbEntity
  8
1
  6
Continuous
 62
     2
100
AcDbLine
 10
-223.7060211288756
 20
-1.50887558845244
 30
0.0
 11
-223.7060211288756
 21
-6.50887558845255
 31
0.0
  0
LINE
  5
12F
330
71
100
AcDbEntity
  8
1
  6
Continuous
 62
     2
100
AcDbLine
 10
19.79397887112248
 20
-6.50887558845255
 30
0.0
 11
-30.20602112887752
 21
-6.50887558845255
 31
0.0
  0
LINE
  5
130
330
71
100
AcDbEntity
  8
1
  6
Continuous
 62
     2
100
AcDbLine
 10
19.79397887112248
 20
-6.50887558845255
 30
0.0
 11
19.79397887112248
 21
-1.50887558845244
 31
0.0
  0
LINE
  5
131
330
71
100
AcDbEntity
  8
1
  6
Continuous
 62
     2
100
AcDbLine
 10
-30.20602112887752
 20
-6.50887558845255
 30
0.0
 11
-30.20602112887752
 21
-1.50887558845244
 31
0.0
  0
LINE
  5
132
330
71
100
AcDbEntity
  8
1
  6
Continuous
 62
     2
100
AcDbLine
 10
-80.2060211288775
 20
-6.50887558845255
 30
0.0
 11
-30.20602112887752
 21
-6.50887558845255
 31
0.0
  0
LINE
  5
133
330
71
100
AcDbEntity
  8
1
  6
Continuous
 62
     2
100
AcDbLine
 10
-80.2060211288775
 20
-6.50887558845255
 30
0.0
 11
-80.2060211288775
 21
-1.50887558845244
 31
0.0
  0
LINE
  5
134
330
71
100
AcDbEntity
  8
1
  6
Continuous
 62
     2
100
AcDbLine
 10
-130.2060211288777
 20
-6.50887558845255
 30
0.0
 11
-80.2060211288775
 21
-6.50887558845255
 31
0.0
  0
LINE
  5
135
330
71
100
AcDbEntity
  8
1
  6
Continuous
 62
     2
100
AcDbLine
 10
-130.2060211288777
 20
-6.50887558845255
 30
0.0
 11
-130.2060211288777
 21
-1.50887558845244
 31
0.0
  0
LINE
  5
136
330
71
100
AcDbEntity
  8
1
  6
Continuous
 62
     2
100
AcDbLine
 10
-180.2060211288775
 20
-6.50887558845255
 30
0.0
 11
-130.2060211288777
 21
-6.50887558845255
 31
0.0
  0
LINE
  5
137
330
71
100
AcDbEntity
  8
1
  6
Continuous
 62
     2
100
AcDbLine
 10
-180.2060211288775
 20
-6.50887558845255
 30
0.0
 11
-180.2060211288775
 21
-1.50887558845244
 31
0.0
  0
LINE
  5
138
330
71
100
AcDbEntity
  8
1
  6
Continuous
 62
     6
100
AcDbLine
 10
-223.7060211288758
 20
48.49112441154767
 30
0.0
 11
-223.7060211288756
 21
-1.50887558845244
 31
0.0
  0
LINE
  5
139
330
71
100
AcDbEntity
  8
1
  6
Continuous
 62
     2
100
AcDbLine
 10
-228.7060211288766
 20
48.49112441154767
 30
0.0
 11
-228.7060211288766
 21
-1.50887558845244
 31
0.0
  0
LINE
  5
13A
330
71
100
AcDbEntity
  8
1
  6
Continuous
 62
     2
100
AcDbLine
 10
-228.7060211288766
 20
48.49112441154767
 30
0.0
 11
-223.7060211288758
 21
48.49112441154767
 31
0.0
  0
LINE
  5
13B
330
71
100
AcDbEntity
  8
1
  6
Continuous
 62
     6
100
AcDbLine
 10
-223.706021128876
 20
98.49112441154747
 30
0.0
 11
-223.7060211288758
 21
48.49112441154767
 31
0.0
  0
LINE
  5
13C
330
71
100
AcDbEntity
  8
1
  6
Continuous
 62
     2
100
AcDbLine
 10
-228.7060211288766
 20
98.49112441154747
 30
0.0
 11
-228.7060211288766
 21
48.49112441154767
 31
0.0
  0
LINE
  5
13D
330
71
100
AcDbEntity
  8
1
  6
Continuous
 62
     2
100
AcDbLine
 10
-228.7060211288766
 20
98.49112441154747
 30
0.0
 11
-223.706021128876
 21
98.49112441154747
 31
0.0
  0
LINE
  5
13E
330
71
100
AcDbEntity
  8
1
  6
Continuous
 62
     6
100
AcDbLine
 10
-223.7060211288765
 20
148.4911244115476
 30
0.0
 11
-223.706021128876
 21
98.49112441154747
 31
0.0
  0
LINE
  5
13F
330
71
100
AcDbEntity
  8
1
  6
Continuous
 62
     2
100
AcDbLine
 10
-228.7060211288766
 20
148.4911244115476
 30
0.0
 11
-228.7060211288766
 21
98.49112441154747
 31
0.0
  0
LINE
  5
140
330
71
100
AcDbEntity
  8
1
  6
Continuous
 62
     2
100
AcDbLine
 10
-228.7060211288766
 20
148.4911244115476
 30
0.0
 11
-223.7060211288765
 21
148.4911244115476
 31
0.0
  0
LINE
  5
141
330
71
100
AcDbEntity
  8
1
  6
Continuous
 62
     6
100
AcDbLine
 10
-223.7060211288766
 20
183.4911244115476
 30
0.0
 11
-223.7060211288765
 21
148.4911244115476
 31
0.0
  0
LINE
  5
142
330
71
100
AcDbEntity
  8
1
  6
Continuous
 62
     2
100
AcDbLine
 10
-228.7060211288766
 20
203.4911244115476
 30
0.0
 11
-228.7060211288766
 21
148.4911244115476
 31
0.0
  0
LINE
  5
143
330
71
100
AcDbEntity
  8
1
  6
Continuous
 62
     2
100
AcDbLine
 10
-228.7060211288766
 20
-6.50887558845255
 30
0.0
 11
-223.7060211288756
 21
-6.50887558845255
 31
0.0
  0
LINE
  5
144
330
71
100
AcDbEntity
  8
1
  6
Continuous
 62
     2
100
AcDbLine
 10
-80.2060211288775
 20
203.4911244115476
 30
0.0
 11
-80.2060211288775
 21
194.2824325668462
 31
0.0
  0
LINE
  5
145
330
71
100
AcDbEntity
  8
1
  6
Continuous
 62
     2
100
AcDbLine
 10
-80.2060211288775
 20
203.4911244115476
 30
0.0
 11
-228.7060211288766
 21
203.4911244115476
 31
0.0
  0
LINE
  5
146
330
71
100
AcDbEntity
  8
1
  6
Continuous
 62
     2
100
AcDbLine
 10
68.29397887112148
 20
-1.50887558845244
 30
0.0
 11
68.29397887112148
 21
48.49112441154767
 31
0.0
  0
LINE
  5
147
330
71
100
AcDbEntity
  8
1
  6
Continuous
 62
     2
100
AcDbLine
 10
68.29397887112148
 20
148.4911244115476
 30
0.0
 11
68.29397887112148
 21
203.4911244115476
 31
0.0
  0
LINE
  5
148
330
71
100
AcDbEntity
  8
1
  6
Continuous
 62
     6
100
AcDbLine
 10
63.29397887112168
 20
148.4911244115476
 30
0.0
 11
63.29397887112148
 21
183.4911244115476
 31
0.0
  0
LINE
  5
149
330
71
100
AcDbEntity
  8
1
  6
Continuous
 62
     2
100
AcDbLine
 10
63.29397887112168
 20
148.4911244115476
 30
0.0
 11
68.29397887112148
 21
148.4911244115476
 31
0.0
  0
LINE
  5
14A
330
71
100
AcDbEntity
  8
1
  6
Continuous
 62
     2
100
AcDbLine
 10
68.29397887112148
 20
98.49112441154747
 30
0.0
 11
68.29397887112148
 21
148.4911244115476
 31
0.0
  0
LINE
  5
14B
330
71
100
AcDbEntity
  8
1
  6
Continuous
 62
     6
100
AcDbLine
 10
63.29397887112289
 20
98.49112441154747
 30
0.0
 11
63.29397887112168
 21
148.4911244115476
 31
0.0
  0
LINE
  5
14C
330
71
100
AcDbEntity
  8
1
  6
Continuous
 62
     2
100
AcDbLine
 10
63.29397887112289
 20
98.49112441154747
 30
0.0
 11
68.29397887112148
 21
98.49112441154747
 31
0.0
  0
LINE
  5
14D
330
71
100
AcDbEntity
  8
1
  6
Continuous
 62
     2
100
AcDbLine
 10
68.29397887112148
 20
48.49112441154767
 30
0.0
 11
68.29397887112148
 21
98.49112441154747
 31
0.0
  0
LINE
  5
14E
330
71
100
AcDbEntity
  8
1
  6
Continuous
 62
     6
100
AcDbLine
 10
63.29397887112339
 20
48.49112441154767
 30
0.0
 11
63.29397887112289
 21
98.49112441154747
 31
0.0
  0
LINE
  5
14F
330
71
100
AcDbEntity
  8
1
  6
Continuous
 62
     2
100
AcDbLine
 10
63.29397887112339
 20
48.49112441154767
 30
0.0
 11
68.29397887112148
 21
48.49112441154767
 31
0.0
  0
LINE
  5
150
330
71
100
AcDbEntity
  8
1
  6
Continuous
 62
     6
100
AcDbLine
 10
63.29397887112148
 20
183.4911244115476
 30
0.0
 11
-223.7060211288766
 21
183.4911244115476
 31
0.0
  0
LINE
  5
151
330
71
100
AcDbEntity
  8
1
  6
Continuous
 62
     2
100
AcDbLine
 10
68.29397887112148
 20
203.4911244115476
 30
0.0
 11
-80.2060211288775
 21
203.4911244115476
 31
0.0
  0
LINE
  5
152
330
71
100
AcDbEntity
  8
1
  6
Continuous
 62
     6
100
AcDbLine
 10
63.29397887112418
 20
15.49112441154756
 30
0.0
 11
63.29397887112339
 21
48.49112441154767
 31
0.0
  0
LINE
  5
153
330
71
100
AcDbEntity
  8
1
  6
Continuous
 62
     2
100
AcDbLine
 10
63.29397887112249
 20
-6.50887558845255
 30
0.0
 11
19.79397887112248
 21
-6.50887558845255
 31
0.0
  0
LINE
  5
154
330
71
100
AcDbEntity
  8
1
  6
Continuous
 62
     2
100
AcDbLine
 10
68.29397887112148
 20
-6.50887558845255
 30
0.0
 11
63.29397887112249
 21
-6.50887558845255
 31
0.0
  0
LINE
  5
155
330
71
100
AcDbEntity
  8
1
  6
Continuous
 62
     2
100
AcDbLine
 10
68.29397887112148
 20
-6.50887558845255
 30
0.0
 11
68.29397887112148
 21
-1.50887558845244
 31
0.0
  0
LINE
  5
156
330
71
100
AcDbEntity
  8
1
  6
Continuous
 62
     6
100
AcDbLine
 10
-66.25082565562752
 20
15.49112441154756
 30
0.0
 11
-29.8508256556276
 21
15.49112441154756
 31
0.0
  0
LINE
  5
157
330
71
100
AcDbEntity
  8
1
  6
Continuous
 62
     2
100
AcDbLine
 10
63.29397887112249
 20
-1.50887558845244
 30
0.0
 11
63.29397887112249
 21
-6.50887558845255
 31
0.0
  0
LINE
  5
158
330
71
100
AcDbEntity
  8
1
  6
Continuous
 62
     2
100
AcDbLine
 10
63.29397887112249
 20
-1.50887558845244
 30
0.0
 11
68.29397887112148
 21
-1.50887558845244
 31
0.0
  0
LINE
  5
159
330
71
100
AcDbEntity
  8
1
  6
Continuous
 62
     6
100
AcDbLine
 10
-30.20602112887752
 20
-1.50887558845244
 30
0.0
 11
-48.05082565562751
 21
-1.50887558845244
 31
0.0
  0
LINE
  5
15A
330
71
100
AcDbEntity
  8
1
  6
Continuous
 62
     6
100
AcDbLine
 10
19.79397887112248
 20
-1.50887558845244
 30
0.0
 11
63.29397887112249
 21
-1.50887558845244
 31
0.0
  0
LINE
  5
15B
330
71
100
AcDbEntity
  8
1
  6
Continuous
 62
     6
100
AcDbLine
 10
-130.2060211288777
 20
-1.50887558845244
 30
0.0
 11
-135.2508256556275
 21
-1.50887558845244
 31
0.0
  0
LINE
  5
15C
330
71
100
AcDbEntity
  8
1
  6
Continuous
 62
     6
100
AcDbLine
 10
-80.2060211288775
 20
-1.50887558845244
 30
0.0
 11
-66.25082565562752
 21
-1.50887558845255
 31
0.0
  0
LINE
  5
15D
102
{ACAD_REACTORS
330
247
330
248
102
}
330
71
100
AcDbEntity
  8
0
  6
Continuous
 62
     2
100
AcDbLine
 10
-58.73619971348072
 20
10.56363916775968
 30
0.0
 11
-58.73619971348072
 21
11.16917445626646
 31
0.0
  0
LINE
  5
15E
102
{ACAD_REACTORS
330
247
330
248
102
}
330
71
100
AcDbEntity
  8
0
  6
Continuous
 62
     2
100
AcDbLine
 10
-58.73619971348072
 20
7.76350456112837
 30
0.0
 11
-58.73619971348072
 21
8.34535596782345
 31
0.0
  0
LINE
  5
15F
102
{ACAD_REACTORS
330
249
330
24A
102
}
330
71
100
AcDbEntity
  8
0
  6
Continuous
 62
     2
100
AcDbLine
 10
-36.10671327800151
 20
8.05316862925136
 30
0.0
 11
-36.10671327800151
 21
5.78462441156387
 31
0.0
  0
LINE
  5
160
102
{ACAD_REACTORS
330
249
330
24A
102
}
330
71
100
AcDbEntity
  8
0
  6
Continuous
 62
     2
100
AcDbLine
 10
-37.4877670569891
 20
8.83843393537447
 30
0.0
 11
-34.10282153836042
 21
8.83843393537495
 31
0.0
  0
LINE
  5
161
102
{ACAD_REACTORS
330
249
330
24A
102
}
330
71
100
AcDbEntity
  8
0
  6
Continuous
 62
     2
100
AcDbLine
 10
-34.10282153836042
 20
8.05316862925136
 30
0.0
 11
-34.10282153836042
 21
8.83843393537495
 31
0.0
  0
LINE
  5
162
102
{ACAD_REACTORS
330
249
330
24A
102
}
330
71
100
AcDbEntity
  8
0
  6
Continuous
 62
     2
100
AcDbLine
 10
-34.9139205758338
 20
8.05316862925136
 30
0.0
 11
-34.10282153836042
 21
8.05316862925136
 31
0.0
  0
LINE
  5
163
102
{ACAD_REACTORS
330
249
330
24A
102
}
330
71
100
AcDbEntity
  8
0
  6
Continuous
 62
     2
100
AcDbLine
 10
-34.9139205758338
 20
5.78462441156387
 30
0.0
 11
-34.9139205758338
 21
8.05316862925136
 31
0.0
  0
LINE
  5
164
102
{ACAD_REACTORS
330
249
330
24A
102
}
330
71
100
AcDbEntity
  8
0
  6
Continuous
 62
     2
100
AcDbLine
 10
-36.10671327800151
 20
5.78462441156387
 30
0.0
 11
-34.9139205758338
 21
5.78462441156387
 31
0.0
  0
LINE
  5
165
102
{ACAD_REACTORS
330
23F
330
240
102
}
330
71
100
AcDbEntity
  8
0
  6
Continuous
 62
     2
100
AcDbLine
 10
-36.80330421606601
 20
12.19762441154936
 30
0.0
 11
-38.20602843381531
 21
12.19762441154936
 31
0.0
  0
LINE
  5
166
102
{ACAD_REACTORS
330
23F
330
240
102
}
330
71
100
AcDbEntity
  8
0
  6
Continuous
 62
     2
100
AcDbLine
 10
-36.80330421606601
 20
12.19762441154936
 30
0.0
 11
-36.20213669417421
 21
11.51780108999387
 31
0.0
  0
LINE
  5
167
102
{ACAD_REACTORS
330
23F
330
240
102
}
330
71
100
AcDbEntity
  8
0
  6
Continuous
 62
     2
100
AcDbLine
 10
-36.20213669417421
 20
11.51780108999387
 30
0.0
 11
-35.60096917228142
 21
12.19762441154936
 31
0.0
  0
LINE
  5
168
102
{ACAD_REACTORS
330
23F
330
240
102
}
330
71
100
AcDbEntity
  8
0
  6
Continuous
 62
     2
100
AcDbLine
 10
-35.50077458530072
 20
10.72467388151316
 30
0.0
 11
-34.1982449545342
 21
12.19762441154936
 31
0.0
  0
LINE
  5
169
102
{ACAD_REACTORS
330
23F
330
240
102
}
330
71
100
AcDbEntity
  8
0
  6
Continuous
 62
     2
100
AcDbLine
 10
-35.50077458530072
 20
10.72467388151316
 30
0.0
 11
-34.10282153836042
 21
9.14381488773816
 31
0.0
  0
LINE
  5
16A
102
{ACAD_REACTORS
330
23F
330
240
102
}
330
71
100
AcDbEntity
  8
0
  6
Continuous
 62
     2
100
AcDbLine
 10
-35.50554575610872
 20
9.14381488773816
 30
0.0
 11
-34.10282153836042
 21
9.14381488773816
 31
0.0
  0
LINE
  5
16B
102
{ACAD_REACTORS
330
23F
330
240
102
}
330
71
100
AcDbEntity
  8
0
  6
Continuous
 62
     2
100
AcDbLine
 10
-36.20213669417421
 20
9.93154667303187
 30
0.0
 11
-35.50554575610872
 21
9.14381488773816
 31
0.0
  0
LINE
  5
16C
102
{ACAD_REACTORS
330
23D
330
23E
102
}
330
71
100
AcDbEntity
  8
0
  6
Continuous
 62
     2
100
AcDbLine
 10
-39.6612355304579
 20
12.19762441154936
 30
0.0
 11
-38.42073112020501
 21
12.19762441154936
 31
0.0
  0
LINE
  5
16D
102
{ACAD_REACTORS
330
23D
330
23E
102
}
330
71
100
AcDbEntity
  8
0
  6
Continuous
 62
     2
100
AcDbLine
 10
-38.42073112020501
 20
12.19762441154936
 30
0.0
 11
-38.42073112020501
 21
9.14381488773816
 31
0.0
  0
LINE
  5
16E
102
{ACAD_REACTORS
330
23D
330
23E
102
}
330
71
100
AcDbEntity
  8
0
  6
Continuous
 62
     2
100
AcDbLine
 10
-39.6612355304579
 20
9.14381488773816
 30
0.0
 11
-39.6612355304579
 21
12.19762441154936
 31
0.0
  0
LINE
  5
16F
102
{ACAD_REACTORS
330
23B
330
23C
102
}
330
71
100
AcDbEntity
  8
0
  6
Continuous
 62
     2
100
AcDbLine
 10
-41.12954561299551
 20
7.00614822108835
 30
0.0
 11
-40.82938037580311
 21
7.77396318707505
 31
0.0
  0
LINE
  5
170
102
{ACAD_REACTORS
330
23B
330
23C
102
}
330
71
100
AcDbEntity
  8
0
  6
Continuous
 62
     2
100
AcDbLine
 10
-41.60708121761633
 20
5.78462441156387
 30
0.0
 11
-41.39560116414052
 21
6.32558495578175
 31
0.0
  0
LINE
  5
171
102
{ACAD_REACTORS
330
23B
330
23C
102
}
330
71
100
AcDbEntity
  8
0
  6
Continuous
 62
     2
100
AcDbLine
 10
-41.44963258093
 20
8.83843393537495
 30
0.0
 11
-42.84758562786931
 21
5.78462441156387
 31
0.0
  0
LINE
  5
172
102
{ACAD_REACTORS
330
23B
330
23C
102
}
330
71
100
AcDbEntity
  8
0
  6
Continuous
 62
     2
100
AcDbLine
 10
-38.811175123737
 20
5.78462441156387
 30
0.0
 11
-40.05167953399092
 21
5.78462441156387
 31
0.0
  0
LINE
  5
173
102
{ACAD_REACTORS
330
23B
330
23C
102
}
330
71
100
AcDbEntity
  8
0
  6
Continuous
 62
     2
100
AcDbLine
 10
-41.39560116414052
 20
6.32558495578175
 30
0.0
 11
-40.2631595874667
 21
6.32558495578175
 31
0.0
  0
LINE
  5
174
102
{ACAD_REACTORS
330
239
330
23A
102
}
330
71
100
AcDbEntity
  8
0
  6
Continuous
 62
     2
100
AcDbLine
 10
-45.00509776705152
 20
8.05316862925136
 30
0.0
 11
-44.19399872957692
 21
8.05316862925136
 31
0.0
  0
LINE
  5
175
102
{ACAD_REACTORS
330
239
330
23A
102
}
330
71
100
AcDbEntity
  8
0
  6
Continuous
 62
     2
100
AcDbLine
 10
-42.1901069899379
 20
8.83843393537495
 30
0.0
 11
-45.00509776705152
 21
8.83843393537495
 31
0.0
  0
LINE
  5
176
102
{ACAD_REACTORS
330
239
330
23A
102
}
330
71
100
AcDbEntity
  8
0
  6
Continuous
 62
     2
100
AcDbLine
 10
-42.1901069899379
 20
8.05316862925136
 30
0.0
 11
-42.1901069899379
 21
8.83843393537495
 31
0.0
  0
LINE
  5
177
102
{ACAD_REACTORS
330
239
330
23A
102
}
330
71
100
AcDbEntity
  8
0
  6
Continuous
 62
     2
100
AcDbLine
 10
-43.0012060274104
 20
8.05316862925136
 30
0.0
 11
-42.1901069899379
 21
8.05316862925136
 31
0.0
  0
LINE
  5
178
102
{ACAD_REACTORS
330
239
330
23A
102
}
330
71
100
AcDbEntity
  8
0
  6
Continuous
 62
     2
100
AcDbLine
 10
-43.0012060274104
 20
5.78462441156387
 30
0.0
 11
-43.0012060274104
 21
8.05316862925136
 31
0.0
  0
LINE
  5
179
102
{ACAD_REACTORS
330
237
330
238
102
}
330
71
100
AcDbEntity
  8
0
  6
Continuous
 62
     2
100
AcDbLine
 10
-42.33309118331241
 20
9.14381488773816
 30
0.0
 11
-42.33309118331241
 21
10.45259039794286
 31
0.0
  0
LINE
  5
17A
102
{ACAD_REACTORS
330
237
330
238
102
}
330
71
100
AcDbEntity
  8
0
  6
Continuous
 62
     2
100
AcDbLine
 10
-43.52588388547892
 20
12.19762441154936
 30
0.0
 11
-43.52588388547892
 21
9.14381488773816
 31
0.0
  0
LINE
  5
17B
102
{ACAD_REACTORS
330
237
330
238
102
}
330
71
100
AcDbEntity
  8
0
  6
Continuous
 62
     2
100
AcDbLine
 10
-42.33309118331241
 20
12.19762441154936
 30
0.0
 11
-43.52588388547892
 21
12.19762441154936
 31
0.0
  0
LINE
  5
17C
102
{ACAD_REACTORS
330
237
330
238
102
}
330
71
100
AcDbEntity
  8
0
  6
Continuous
 62
     2
100
AcDbLine
 10
-41.0925867730584
 20
12.19762441154936
 30
0.0
 11
-41.0925867730584
 21
10.88884890134418
 31
0.0
  0
LINE
  5
17D
102
{ACAD_REACTORS
330
235
330
236
102
}
330
71
100
AcDbEntity
  8
0
  6
Continuous
 62
     2
100
AcDbLine
 10
-48.77432270589861
 20
8.83843393537495
 30
0.0
 11
-48.77432270589861
 21
5.78462441156387
 31
0.0
  0
LINE
  5
17E
102
{ACAD_REACTORS
330
235
330
236
102
}
330
71
100
AcDbEntity
  8
0
  6
Continuous
 62
     2
100
AcDbLine
 10
-47.58153000373102
 20
8.83843393537495
 30
0.0
 11
-48.77432270589861
 21
8.83843393537495
 31
0.0
  0
LINE
  5
17F
102
{ACAD_REACTORS
330
235
330
236
102
}
330
71
100
AcDbEntity
  8
0
  6
Continuous
 62
     2
100
AcDbLine
 10
-46.34102559347812
 20
5.78462441156387
 30
0.0
 11
-45.14823289131172
 21
5.78462441156387
 31
0.0
  0
LINE
  5
180
102
{ACAD_REACTORS
330
235
330
236
102
}
330
71
100
AcDbEntity
  8
0
  6
Continuous
 62
     2
100
AcDbLine
 10
-48.77432270589861
 20
5.78462441156387
 30
0.0
 11
-47.58153000373102
 21
5.78462441156387
 31
0.0
  0
LINE
  5
181
102
{ACAD_REACTORS
330
245
330
246
102
}
330
71
100
AcDbEntity
  8
0
  6
Continuous
 62
     2
100
AcDbLine
 10
-45.1003702523395
 20
11.01972645236467
 30
0.0
 11
-45.1003702523395
 21
11.49961080610638
 31
0.0
  0
LINE
  5
182
102
{ACAD_REACTORS
330
245
330
246
102
}
330
71
100
AcDbEntity
  8
0
  6
Continuous
 62
     2
100
AcDbLine
 10
-43.76444242591182
 20
11.01972645236467
 30
0.0
 11
-45.1003702523395
 21
11.01972645236467
 31
0.0
  0
LINE
  5
183
102
{ACAD_REACTORS
330
245
330
246
102
}
330
71
100
AcDbEntity
  8
0
  6
Continuous
 62
     2
100
AcDbLine
 10
-43.76444242591182
 20
10.32171284692237
 30
0.0
 11
-43.76444242591182
 21
11.01972645236467
 31
0.0
  0
LINE
  5
184
102
{ACAD_REACTORS
330
245
330
246
102
}
330
71
100
AcDbEntity
  8
0
  6
Continuous
 62
     2
100
AcDbLine
 10
-45.1003702523395
 20
10.32171284692237
 30
0.0
 11
-43.76444242591182
 21
10.32171284692237
 31
0.0
  0
LINE
  5
185
102
{ACAD_REACTORS
330
233
330
234
102
}
330
71
100
AcDbEntity
  8
0
  6
Continuous
 62
     2
100
AcDbLine
 10
-48.58332494266642
 20
12.19762441154936
 30
0.0
 11
-48.58332494266642
 21
9.14381488773816
 31
0.0
  0
LINE
  5
186
102
{ACAD_REACTORS
330
233
330
234
102
}
330
71
100
AcDbEntity
  8
0
  6
Continuous
 62
     2
100
AcDbLine
 10
-48.58332494266642
 20
9.14381488773816
 30
0.0
 11
-49.77611764483282
 21
9.14381488773816
 31
0.0
  0
LINE
  5
187
102
{ACAD_REACTORS
330
233
330
234
102
}
330
71
100
AcDbEntity
  8
0
  6
Continuous
 62
     2
100
AcDbLine
 10
-49.77611764483282
 20
9.14381488773816
 30
0.0
 11
-49.77611764483282
 21
10.27808699658198
 31
0.0
  0
LINE
  5
188
102
{ACAD_REACTORS
330
233
330
234
102
}
330
71
100
AcDbEntity
  8
0
  6
Continuous
 62
     2
100
AcDbLine
 10
-50.82577522274031
 20
9.14381488773816
 30
0.0
 11
-52.0185679249069
 21
9.14381488773816
 31
0.0
  0
LINE
  5
189
102
{ACAD_REACTORS
330
233
330
234
102
}
330
71
100
AcDbEntity
  8
0
  6
Continuous
 62
     2
100
AcDbLine
 10
-52.0185679249069
 20
12.19762441154936
 30
0.0
 11
-50.82577522274031
 21
12.19762441154936
 31
0.0
  0
LINE
  5
18A
102
{ACAD_REACTORS
330
233
330
234
102
}
330
71
100
AcDbEntity
  8
0
  6
Continuous
 62
     2
100
AcDbLine
 10
-50.82577522274031
 20
12.19762441154936
 30
0.0
 11
-50.82577522274031
 21
11.12879107821476
 31
0.0
  0
LINE
  5
18B
102
{ACAD_REACTORS
330
233
330
234
102
}
330
71
100
AcDbEntity
  8
0
  6
Continuous
 62
     2
100
AcDbLine
 10
-50.82577522274031
 20
11.12879107821476
 30
0.0
 11
-49.77611764483282
 21
11.12879107821476
 31
0.0
  0
LINE
  5
18C
102
{ACAD_REACTORS
330
241
330
242
102
}
330
71
100
AcDbEntity
  8
0
  6
Continuous
 62
     2
100
AcDbLine
 10
-53.9747479564605
 20
11.53451856610926
 30
0.0
 11
-53.65745289491861
 21
11.53451856610926
 31
0.0
  0
LINE
  5
18D
102
{ACAD_REACTORS
330
241
330
242
102
}
330
71
100
AcDbEntity
  8
0
  6
Continuous
 62
     2
100
AcDbLine
 10
-53.9747479564605
 20
10.82879091676705
 30
0.0
 11
-53.65745289491861
 21
10.82879091676705
 31
0.0
  0
LINE
  5
18E
102
{ACAD_REACTORS
330
241
330
242
102
}
330
71
100
AcDbEntity
  8
0
  6
Continuous
 62
     2
100
AcDbLine
 10
-55.21525236671462
 20
12.19762441154936
 30
0.0
 11
-55.21525236671462
 21
9.14381488773816
 31
0.0
  0
LINE
  5
18F
102
{ACAD_REACTORS
330
241
330
242
102
}
330
71
100
AcDbEntity
  8
0
  6
Continuous
 62
     2
100
AcDbLine
 10
-55.21525236671462
 20
12.19762441154936
 30
0.0
 11
-53.21598036868022
 21
12.19762441154936
 31
0.0
  0
LINE
  5
190
102
{ACAD_REACTORS
330
241
330
242
102
}
330
71
100
AcDbEntity
  8
0
  6
Continuous
 62
     2
100
AcDbLine
 10
-53.9747479564605
 20
10.08689312888197
 30
0.0
 11
-53.21598036868022
 21
10.08689312888197
 31
0.0
  0
LINE
  5
191
102
{ACAD_REACTORS
330
247
330
248
102
}
330
71
100
AcDbEntity
  8
0
  6
Continuous
 62
     2
100
AcDbLine
 10
-61.31174840001131
 20
11.16935193291457
 30
0.0
 11
-61.31174840001131
 21
6.81289689019747
 31
0.0
  0
LINE
  5
192
102
{ACAD_REACTORS
330
247
330
248
102
}
330
71
100
AcDbEntity
  8
0
  6
Continuous
 62
     2
100
AcDbLine
 10
-60.99603147693563
 20
11.48506885599076
 30
0.0
 11
-59.520198215926
 21
11.48506885599076
 31
0.0
  0
LINE
  5
193
102
{ACAD_REACTORS
330
247
330
248
102
}
330
71
100
AcDbEntity
  8
0
  6
Continuous
 62
     2
100
AcDbLine
 10
-59.20448129284941
 20
10.56532731385406
 30
0.0
 11
-59.20448129284941
 21
11.16935193291457
 31
0.0
  0
LINE
  5
194
102
{ACAD_REACTORS
330
247
330
248
102
}
330
71
100
AcDbEntity
  8
0
  6
Continuous
 62
     2
100
AcDbLine
 10
-59.20448129284941
 20
6.81289689019747
 30
0.0
 11
-59.20448129284941
 21
8.34366782172907
 31
0.0
  0
LINE
  5
195
102
{ACAD_REACTORS
330
247
330
248
102
}
330
71
100
AcDbEntity
  8
0
  6
Continuous
 62
     2
100
AcDbLine
 10
-56.11661406296531
 20
5.78462441156387
 30
0.0
 11
-61.58992615368211
 21
5.78462441156387
 31
0.0
  0
LINE
  5
196
102
{ACAD_REACTORS
330
247
330
248
102
}
330
71
100
AcDbEntity
  8
0
  6
Continuous
 62
     2
100
AcDbLine
 10
-55.69236944758143
 20
11.77337979614737
 30
0.0
 11
-55.69236944758143
 21
6.20886902694716
 31
0.0
  0
LINE
  5
197
102
{ACAD_REACTORS
330
247
330
248
102
}
330
71
100
AcDbEntity
  8
0
  6
Continuous
 62
     2
100
AcDbLine
 10
-61.58992615368211
 20
12.19762441153117
 30
0.0
 11
-56.11661406296531
 21
12.19762441153117
 31
0.0
  0
LINE
  5
198
102
{ACAD_REACTORS
330
247
330
248
102
}
330
71
100
AcDbEntity
  8
0
  6
Continuous
 62
     2
100
AcDbLine
 10
-62.01417076906492
 20
11.77337979614737
 30
0.0
 11
-62.01417076906492
 21
6.20886902694716
 31
0.0
  0
LINE
  5
199
102
{ACAD_REACTORS
330
247
330
248
102
}
330
71
100
AcDbEntity
  8
0
  6
Continuous
 62
     2
100
AcDbLine
 10
-59.520198215926
 20
6.49717996712076
 30
0.0
 11
-60.99603147693563
 21
6.49717996712076
 31
0.0
  0
LINE
  5
19A
102
{ACAD_REACTORS
330
241
330
242
102
}
330
71
100
AcDbEntity
  8
0
  6
Continuous
 62
     2
100
AcDbLine
 10
-53.9747479564605
 20
9.14381488773816
 30
0.0
 11
-53.9747479564605
 21
10.08689312888197
 31
0.0
  0
LINE
  5
19B
102
{ACAD_REACTORS
330
241
330
242
102
}
330
71
100
AcDbEntity
  8
0
  6
Continuous
 62
     2
100
AcDbLine
 10
-55.21525236671462
 20
9.14381488773816
 30
0.0
 11
-53.9747479564605
 21
9.14381488773816
 31
0.0
  0
LINE
  5
19C
102
{ACAD_REACTORS
330
241
330
242
102
}
330
71
100
AcDbEntity
  8
0
  6
Continuous
 62
     2
100
AcDbLine
 10
-53.9747479564605
 20
10.82879091676705
 30
0.0
 11
-53.9747479564605
 21
11.53451856610926
 31
0.0
  0
LINE
  5
19D
102
{ACAD_REACTORS
330
233
330
234
102
}
330
71
100
AcDbEntity
  8
0
  6
Continuous
 62
     2
100
AcDbLine
 10
-52.0185679249069
 20
12.19762441154936
 30
0.0
 11
-52.0185679249069
 21
9.14381488773816
 31
0.0
  0
LINE
  5
19E
102
{ACAD_REACTORS
330
233
330
234
102
}
330
71
100
AcDbEntity
  8
0
  6
Continuous
 62
     2
100
AcDbLine
 10
-50.82577522274031
 20
10.27808699658198
 30
0.0
 11
-50.82577522274031
 21
9.14381488773816
 31
0.0
  0
LINE
  5
19F
102
{ACAD_REACTORS
330
233
330
234
102
}
330
71
100
AcDbEntity
  8
0
  6
Continuous
 62
     2
100
AcDbLine
 10
-49.77611764483282
 20
10.27808699658198
 30
0.0
 11
-50.82577522274031
 21
10.27808699658198
 31
0.0
  0
LINE
  5
1A0
102
{ACAD_REACTORS
330
233
330
234
102
}
330
71
100
AcDbEntity
  8
0
  6
Continuous
 62
     2
100
AcDbLine
 10
-49.77611764483282
 20
12.19762441154936
 30
0.0
 11
-48.58332494266642
 21
12.19762441154936
 31
0.0
  0
LINE
  5
1A1
102
{ACAD_REACTORS
330
233
330
234
102
}
330
71
100
AcDbEntity
  8
0
  6
Continuous
 62
     2
100
AcDbLine
 10
-49.77611764483282
 20
11.12879107821476
 30
0.0
 11
-49.77611764483282
 21
12.19762441154936
 31
0.0
  0
LINE
  5
1A2
102
{ACAD_REACTORS
330
245
330
246
102
}
330
71
100
AcDbEntity
  8
0
  6
Continuous
 62
     2
100
AcDbLine
 10
-43.76444242591182
 20
11.49961080610638
 30
0.0
 11
-43.76444242591182
 21
12.19762441154936
 31
0.0
  0
LINE
  5
1A3
102
{ACAD_REACTORS
330
245
330
246
102
}
330
71
100
AcDbEntity
  8
0
  6
Continuous
 62
     2
100
AcDbLine
 10
-46.91476214969282
 20
12.19762441154936
 30
0.0
 11
-43.76444242591182
 21
12.19762441154936
 31
0.0
  0
LINE
  5
1A4
102
{ACAD_REACTORS
330
245
330
246
102
}
330
71
100
AcDbEntity
  8
0
  6
Continuous
 62
     2
100
AcDbLine
 10
-46.91476214969282
 20
9.14381488773816
 30
0.0
 11
-43.76444242591182
 21
9.14381488773816
 31
0.0
  0
LINE
  5
1A5
102
{ACAD_REACTORS
330
245
330
246
102
}
330
71
100
AcDbEntity
  8
0
  6
Continuous
 62
     2
100
AcDbLine
 10
-43.76444242591182
 20
9.14381488773816
 30
0.0
 11
-43.76444242591182
 21
9.84182849318066
 31
0.0
  0
LINE
  5
1A6
102
{ACAD_REACTORS
330
245
330
246
102
}
330
71
100
AcDbEntity
  8
0
  6
Continuous
 62
     2
100
AcDbLine
 10
-43.76444242591182
 20
9.84182849318066
 30
0.0
 11
-45.1003702523395
 21
9.84182849318066
 31
0.0
  0
LINE
  5
1A7
102
{ACAD_REACTORS
330
245
330
246
102
}
330
71
100
AcDbEntity
  8
0
  6
Continuous
 62
     2
100
AcDbLine
 10
-45.1003702523395
 20
9.84182849318066
 30
0.0
 11
-45.1003702523395
 21
10.32171284692237
 31
0.0
  0
LINE
  5
1A8
102
{ACAD_REACTORS
330
245
330
246
102
}
330
71
100
AcDbEntity
  8
0
  6
Continuous
 62
     2
100
AcDbLine
 10
-45.1003702523395
 20
11.49961080610638
 30
0.0
 11
-43.76444242591182
 21
11.49961080610638
 31
0.0
  0
LINE
  5
1A9
102
{ACAD_REACTORS
330
235
330
236
102
}
330
71
100
AcDbEntity
  8
0
  6
Continuous
 62
     2
100
AcDbLine
 10
-47.58153000373102
 20
5.78462441156387
 30
0.0
 11
-47.58153000373102
 21
7.09339992176845
 31
0.0
  0
LINE
  5
1AA
102
{ACAD_REACTORS
330
235
330
236
102
}
330
71
100
AcDbEntity
  8
0
  6
Continuous
 62
     2
100
AcDbLine
 10
-47.58153000373102
 20
7.09339992176845
 30
0.0
 11
-46.34102559347812
 21
5.78462441156387
 31
0.0
  0
LINE
  5
1AB
102
{ACAD_REACTORS
330
235
330
236
102
}
330
71
100
AcDbEntity
  8
0
  6
Continuous
 62
     2
100
AcDbLine
 10
-45.14823289131172
 20
5.78462441156387
 30
0.0
 11
-45.14823289131172
 21
8.83843393537495
 31
0.0
  0
LINE
  5
1AC
102
{ACAD_REACTORS
330
235
330
236
102
}
330
71
100
AcDbEntity
  8
0
  6
Continuous
 62
     2
100
AcDbLine
 10
-45.14823289131172
 20
8.83843393537495
 30
0.0
 11
-46.34102559347812
 21
8.83843393537495
 31
0.0
  0
LINE
  5
1AD
102
{ACAD_REACTORS
330
235
330
236
102
}
330
71
100
AcDbEntity
  8
0
  6
Continuous
 62
     2
100
AcDbLine
 10
-46.34102559347812
 20
8.83843393537495
 30
0.0
 11
-46.34102559347812
 21
7.52965842516986
 31
0.0
  0
LINE
  5
1AE
102
{ACAD_REACTORS
330
235
330
236
102
}
330
71
100
AcDbEntity
  8
0
  6
Continuous
 62
     2
100
AcDbLine
 10
-46.34102559347812
 20
7.52965842516986
 30
0.0
 11
-47.58153000373102
 21
8.83843393537495
 31
0.0
  0
LINE
  5
1AF
102
{ACAD_REACTORS
330
237
330
238
102
}
330
71
100
AcDbEntity
  8
0
  6
Continuous
 62
     2
100
AcDbLine
 10
-42.33309118331241
 20
10.45259039794286
 30
0.0
 11
-41.0925867730584
 21
9.14381488773816
 31
0.0
  0
LINE
  5
1B0
102
{ACAD_REACTORS
330
237
330
238
102
}
330
71
100
AcDbEntity
  8
0
  6
Continuous
 62
     2
100
AcDbLine
 10
-41.0925867730584
 20
9.14381488773816
 30
0.0
 11
-39.8997940708918
 21
9.14381488773816
 31
0.0
  0
LINE
  5
1B1
102
{ACAD_REACTORS
330
237
330
238
102
}
330
71
100
AcDbEntity
  8
0
  6
Continuous
 62
     2
100
AcDbLine
 10
-39.8997940708918
 20
9.14381488773816
 30
0.0
 11
-39.8997940708918
 21
12.19762441154936
 31
0.0
  0
LINE
  5
1B2
102
{ACAD_REACTORS
330
237
330
238
102
}
330
71
100
AcDbEntity
  8
0
  6
Continuous
 62
     2
100
AcDbLine
 10
-39.8997940708918
 20
12.19762441154936
 30
0.0
 11
-41.0925867730584
 21
12.19762441154936
 31
0.0
  0
LINE
  5
1B3
102
{ACAD_REACTORS
330
237
330
238
102
}
330
71
100
AcDbEntity
  8
0
  6
Continuous
 62
     2
100
AcDbLine
 10
-41.0925867730584
 20
10.88884890134418
 30
0.0
 11
-42.33309118331241
 21
12.19762441154936
 31
0.0
  0
LINE
  5
1B4
102
{ACAD_REACTORS
330
237
330
238
102
}
330
71
100
AcDbEntity
  8
0
  6
Continuous
 62
     2
100
AcDbLine
 10
-43.52588388547892
 20
9.14381488773816
 30
0.0
 11
-42.33309118331241
 21
9.14381488773816
 31
0.0
  0
LINE
  5
1B5
102
{ACAD_REACTORS
330
239
330
23A
102
}
330
71
100
AcDbEntity
  8
0
  6
Continuous
 62
     2
100
AcDbLine
 10
-45.00509776705152
 20
8.83843393537495
 30
0.0
 11
-45.00509776705152
 21
8.05316862925136
 31
0.0
  0
LINE
  5
1B6
102
{ACAD_REACTORS
330
239
330
23A
102
}
330
71
100
AcDbEntity
  8
0
  6
Continuous
 62
     2
100
AcDbLine
 10
-44.19399872957692
 20
8.05316862925136
 30
0.0
 11
-44.19399872957692
 21
5.78462441156387
 31
0.0
  0
LINE
  5
1B7
102
{ACAD_REACTORS
330
239
330
23A
102
}
330
71
100
AcDbEntity
  8
0
  6
Continuous
 62
     2
100
AcDbLine
 10
-44.19399872957692
 20
5.78462441156387
 30
0.0
 11
-43.0012060274104
 21
5.78462441156387
 31
0.0
  0
LINE
  5
1B8
102
{ACAD_REACTORS
330
23B
330
23C
102
}
330
71
100
AcDbEntity
  8
0
  6
Continuous
 62
     2
100
AcDbLine
 10
-40.05167953399092
 20
5.78462441156387
 30
0.0
 11
-40.2631595874667
 21
6.32558495578175
 31
0.0
  0
LINE
  5
1B9
102
{ACAD_REACTORS
330
23B
330
23C
102
}
330
71
100
AcDbEntity
  8
0
  6
Continuous
 62
     2
100
AcDbLine
 10
-40.2091281706773
 20
8.83843393537495
 30
0.0
 11
-38.811175123737
 21
5.78462441156387
 31
0.0
  0
LINE
  5
1BA
102
{ACAD_REACTORS
330
23B
330
23C
102
}
330
71
100
AcDbEntity
  8
0
  6
Continuous
 62
     2
100
AcDbLine
 10
-41.44963258093
 20
8.83843393537495
 30
0.0
 11
-40.2091281706773
 21
8.83843393537495
 31
0.0
  0
LINE
  5
1BB
102
{ACAD_REACTORS
330
23B
330
23C
102
}
330
71
100
AcDbEntity
  8
0
  6
Continuous
 62
     2
100
AcDbLine
 10
-42.84758562786931
 20
5.78462441156387
 30
0.0
 11
-41.60708121761633
 21
5.78462441156387
 31
0.0
  0
LINE
  5
1BC
102
{ACAD_REACTORS
330
23B
330
23C
102
}
330
71
100
AcDbEntity
  8
0
  6
Continuous
 62
     2
100
AcDbLine
 10
-41.12954561299551
 20
7.00614822108835
 30
0.0
 11
-40.52921513861301
 21
7.00614822108835
 31
0.0
  0
LINE
  5
1BD
102
{ACAD_REACTORS
330
23B
330
23C
102
}
330
71
100
AcDbEntity
  8
0
  6
Continuous
 62
     2
100
AcDbLine
 10
-40.52921513861301
 20
7.00614822108835
 30
0.0
 11
-40.82938037580311
 21
7.77396318707505
 31
0.0
  0
LINE
  5
1BE
102
{ACAD_REACTORS
330
23D
330
23E
102
}
330
71
100
AcDbEntity
  8
0
  6
Continuous
 62
     2
100
AcDbLine
 10
-38.42073112020501
 20
9.14381488773816
 30
0.0
 11
-39.6612355304579
 21
9.14381488773816
 31
0.0
  0
LINE
  5
1BF
102
{ACAD_REACTORS
330
23F
330
240
102
}
330
71
100
AcDbEntity
  8
0
  6
Continuous
 62
     2
100
AcDbLine
 10
-36.89872763223991
 20
9.14381488773816
 30
0.0
 11
-38.30145184998813
 21
9.14381488773816
 31
0.0
  0
LINE
  5
1C0
102
{ACAD_REACTORS
330
23F
330
240
102
}
330
71
100
AcDbEntity
  8
0
  6
Continuous
 62
     2
100
AcDbLine
 10
-36.89872763223991
 20
9.14381488773816
 30
0.0
 11
-36.20213669417421
 21
9.93154667303187
 31
0.0
  0
LINE
  5
1C1
102
{ACAD_REACTORS
330
23F
330
240
102
}
330
71
100
AcDbEntity
  8
0
  6
Continuous
 62
     2
100
AcDbLine
 10
-35.60096917228142
 20
12.19762441154936
 30
0.0
 11
-34.1982449545342
 21
12.19762441154936
 31
0.0
  0
LINE
  5
1C2
102
{ACAD_REACTORS
330
23F
330
240
102
}
330
71
100
AcDbEntity
  8
0
  6
Continuous
 62
     2
100
AcDbLine
 10
-38.20602843381531
 20
12.19762441154936
 30
0.0
 11
-36.90349880304783
 21
10.72467388151316
 31
0.0
  0
LINE
  5
1C3
102
{ACAD_REACTORS
330
23F
330
240
102
}
330
71
100
AcDbEntity
  8
0
  6
Continuous
 62
     2
100
AcDbLine
 10
-38.30145184998813
 20
9.14381488773816
 30
0.0
 11
-36.90349880304783
 21
10.72467388151316
 31
0.0
  0
LINE
  5
1C4
102
{ACAD_REACTORS
330
249
330
24A
102
}
330
71
100
AcDbEntity
  8
0
  6
Continuous
 62
     2
100
AcDbLine
 10
-36.4406952346082
 20
6.83164481972747
 30
0.0
 11
-36.4406952346082
 21
5.95912781292415
 31
0.0
  0
LINE
  5
1C5
102
{ACAD_REACTORS
330
249
330
24A
102
}
330
71
100
AcDbEntity
  8
0
  6
Continuous
 62
     2
100
AcDbLine
 10
-37.21035257756961
 20
8.05316862925136
 30
0.0
 11
-36.10671327800151
 21
8.05316862925136
 31
0.0
  0
LINE
  5
1C6
102
{ACAD_REACTORS
330
24B
330
24C
102
}
330
71
100
AcDbEntity
  8
0
  6
Continuous
 62
     2
100
AcDbLine
 10
-52.54339671386012
 20
6.83164481972796
 30
0.0
 11
-52.54339671386012
 21
5.95912781292475
 31
0.0
  0
LINE
  5
1C7
102
{ACAD_REACTORS
330
24B
330
24C
102
}
330
71
100
AcDbEntity
  8
0
  6
Continuous
 62
     2
100
AcDbLine
 10
-52.54339671386012
 20
7.79141352721086
 30
0.0
 11
-52.54339671386012
 21
8.66393053401416
 31
0.0
  0
LINE
  5
1C8
330
71
100
AcDbEntity
  8
1
  6
Continuous
 62
     7
100
AcDbLine
 10
63.29397887112378
 20
6.99112441154756
 30
0.0
 11
-29.8508256556276
 21
6.99112441154756
 31
0.0
  0
LINE
  5
1C9
330
71
100
AcDbEntity
  8
1
  6
Continuous
 62
     6
100
AcDbLine
 10
-135.2508256556275
 20
-1.50887558845244
 30
0.0
 11
-180.2060211288775
 21
-1.50887558845244
 31
0.0
  0
LINE
  5
1CA
330
71
100
AcDbEntity
  8
1
  6
Continuous
 62
     7
100
AcDbLine
 10
54.37557058944498
 20
23.99112441154756
 30
0.0
 11
54.37557058944498
 21
15.49112441154756
 31
0.0
  0
LINE
  5
1CB
330
71
100
AcDbEntity
  8
1
  6
Continuous
 62
     7
100
AcDbLine
 10
27.87557058944537
 20
23.99112441154756
 30
0.0
 11
27.87557058944537
 21
15.49112441154756
 31
0.0
  0
LINE
  5
1CC
330
71
100
AcDbEntity
  8
1
  6
Continuous
 62
     7
100
AcDbLine
 10
-29.8508256556276
 20
15.49112441154756
 30
0.0
 11
-29.8508256556276
 21
23.99112441154756
 31
0.0
  0
LINE
  5
1CD
330
71
100
AcDbEntity
  8
1
  6
Continuous
 62
     7
100
AcDbLine
 10
-66.25082565562752
 20
15.49112441154756
 30
0.0
 11
-66.25082565562752
 21
23.99112441154756
 31
0.0
  0
LINE
  5
1CE
330
71
100
AcDbEntity
  8
1
  6
Continuous
 62
     6
100
AcDbLine
 10
-29.8508256556276
 20
15.49112441154756
 30
0.0
 11
63.29397887112418
 21
15.49112441154756
 31
0.0
  0
LINE
  5
1CF
330
71
100
AcDbEntity
  8
1
  6
Continuous
 62
     7
100
AcDbLine
 10
-1.95082565562751
 20
6.99112441154747
 30
0.0
 11
-1.95082565562751
 21
15.49112441154756
 31
0.0
  0
LINE
  5
1D0
330
71
100
AcDbEntity
  8
1
  6
PHANTOM
 62
     2
100
AcDbLine
 10
-50.76417076906492
 20
19.61612441154747
 30
0.0
 11
-56.26417076906492
 21
19.61612441154747
 31
0.0
  0
LINE
  5
1D1
330
71
100
AcDbEntity
  8
1
  6
PHANTOM
 62
     2
100
AcDbLine
 10
-53.51417076906492
 20
22.36612441154747
 30
0.0
 11
-53.51417076906492
 21
16.86612441154747
 31
0.0
  0
LINE
  5
1D2
330
71
100
AcDbEntity
  8
1
  6
DOT_CENTER
 62
     2
100
AcDbLine
 10
-62.26417076906492
 20
19.61612441154747
 30
0.0
 11
-56.76417076906492
 21
19.61612441154747
 31
0.0
  0
ARC
  5
1D3
102
{ACAD_REACTORS
330
24B
330
24C
102
}
330
71
100
AcDbEntity
  8
0
  6
Continuous
 62
     2
100
AcDbCircle
 10
-53.87932463097792
 20
3.99884822821326
 30
0.0
 40
4.852596863498068
100
AcDbArc
 50
74.02000874164739
 51
84.84185523037506
  0
ARC
  5
1D4
102
{ACAD_REACTORS
330
24B
330
24C
102
}
330
71
100
AcDbEntity
  8
0
  6
Continuous
 62
     2
100
AcDbCircle
 10
-53.3032840222242
 20
7.15460858409756
 30
0.0
 40
0.9059297849853184
100
AcDbArc
 50
71.55192388185434
 51
113.3722778881294
  0
ARC
  5
1D5
102
{ACAD_REACTORS
330
24B
330
24C
102
}
330
71
100
AcDbEntity
  8
0
  6
Continuous
 62
     2
100
AcDbCircle
 10
-53.45972405492623
 20
7.10645774413067
 30
0.0
 40
0.5115800601948092
100
AcDbArc
 50
208.5214732576951
 51
246.6277221118274
  0
ARC
  5
1D6
102
{ACAD_REACTORS
330
24B
330
24C
102
}
330
71
100
AcDbEntity
  8
0
  6
Continuous
 62
     2
100
AcDbCircle
 10
-53.3032840222242
 20
7.46844976284066
 30
0.0
 40
0.905929784984922
100
AcDbArc
 50
246.6277221118706
 51
288.4480761181576
  0
ARC
  5
1D7
102
{ACAD_REACTORS
330
24B
330
24C
102
}
330
71
100
AcDbEntity
  8
0
  6
Continuous
 62
     2
100
AcDbCircle
 10
-53.721451755885
 20
8.72199553887785
 30
0.0
 40
2.227384008972734
100
AcDbArc
 50
288.4480761181326
 51
301.9309089499593
  0
ARC
  5
1D8
102
{ACAD_REACTORS
330
247
330
248
102
}
330
71
100
AcDbEntity
  8
0
  6
Continuous
 62
     2
100
AcDbCircle
 10
-58.9465254884918
 20
9.45449756779186
 30
0.0
 40
0.911848150144459
100
AcDbArc
 50
295.3740086781764
 51
64.62599132180755
  0
ARC
  5
1D9
102
{ACAD_REACTORS
330
247
330
248
102
}
330
71
100
AcDbEntity
  8
0
  6
Continuous
 62
     2
100
AcDbCircle
 10
-58.42048279040392
 20
11.16917445626646
 30
0.0
 40
0.3157169230760746
100
AcDbArc
 50
90.18896704254594
 51
180.0
  0
ARC
  5
1DA
102
{ACAD_REACTORS
330
249
330
24A
102
}
330
71
100
AcDbEntity
  8
0
  6
Continuous
 62
     2
100
AcDbCircle
 10
-37.21035257756961
 20
7.09864562242527
 30
0.0
 40
0.9545230068260935
100
AcDbArc
 50
90.0
 51
109.337143219432
  0
ARC
  5
1DB
102
{ACAD_REACTORS
330
249
330
24A
102
}
330
71
100
AcDbEntity
  8
0
  6
Continuous
 62
     2
100
AcDbCircle
 10
-36.97966531759192
 20
7.31152917346915
 30
0.0
 40
0.9410597353348924
100
AcDbArc
 50
151.4785267423624
 51
208.5214732576695
  0
ARC
  5
1DC
102
{ACAD_REACTORS
330
249
330
24A
102
}
330
71
100
AcDbEntity
  8
0
  6
Continuous
 62
     2
100
AcDbCircle
 10
-37.20058254297021
 20
7.46844976284066
 30
0.0
 40
0.9059297849852829
100
AcDbArc
 50
246.6277221118178
 51
288.4480761180817
  0
ARC
  5
1DD
102
{ACAD_REACTORS
330
249
330
24A
102
}
330
71
100
AcDbEntity
  8
0
  6
Continuous
 62
     2
100
AcDbCircle
 10
-37.61875027663211
 20
8.72199553887725
 30
0.0
 40
2.227384008972746
100
AcDbArc
 50
288.4480761181335
 51
301.9309089499397
  0
ARC
  5
1DE
102
{ACAD_REACTORS
330
249
330
24A
102
}
330
71
100
AcDbEntity
  8
0
  6
Continuous
 62
     2
100
AcDbCircle
 10
-37.77662315172492
 20
10.62421011872556
 30
0.0
 40
4.852596863498828
100
AcDbArc
 50
275.1581447696364
 51
285.9799912583387
  0
ARC
  5
1DF
102
{ACAD_REACTORS
330
249
330
24A
102
}
330
71
100
AcDbEntity
  8
0
  6
Continuous
 62
     2
100
AcDbCircle
 10
-37.4877670569891
 20
7.42431953550397
 30
0.0
 40
1.639695123940448
100
AcDbArc
 50
195.0618917771012
 51
275.1581447696765
  0
ARC
  5
1E0
102
{ACAD_REACTORS
330
241
330
242
102
}
330
71
100
AcDbEntity
  8
0
  6
Continuous
 62
     2
100
AcDbCircle
 10
-53.21598036868022
 20
11.14225877021568
 30
0.0
 40
1.05536564133371
100
AcDbArc
 50
270.0
 51
90.0
  0
ARC
  5
1E1
102
{ACAD_REACTORS
330
247
330
248
102
}
330
71
100
AcDbEntity
  8
0
  6
Continuous
 62
     2
100
AcDbCircle
 10
-60.99603147693563
 20
6.81289689019747
 30
0.0
 40
0.3157169230756836
100
AcDbArc
 50
180.0
 51
270.0
  0
ARC
  5
1E2
102
{ACAD_REACTORS
330
247
330
248
102
}
330
71
100
AcDbEntity
  8
0
  6
Continuous
 62
     2
100
AcDbCircle
 10
-59.520198215926
 20
11.16935193291457
 30
0.0
 40
0.315716923076593
100
AcDbArc
 50
0.0
 51
90.0
  0
ARC
  5
1E3
102
{ACAD_REACTORS
330
247
330
248
102
}
330
71
100
AcDbEntity
  8
0
  6
Continuous
 62
     2
100
AcDbCircle
 10
-59.520198215926
 20
10.56532731385406
 30
0.0
 40
0.3157169230761249
100
AcDbArc
 50
295.1944106485408
 51
0.0
  0
ARC
  5
1E4
102
{ACAD_REACTORS
330
247
330
248
102
}
330
71
100
AcDbEntity
  8
0
  6
Continuous
 62
     2
100
AcDbCircle
 10
-59.520198215926
 20
6.81289689019747
 30
0.0
 40
0.3157169230767076
100
AcDbArc
 50
270.0
 51
0.0
  0
ARC
  5
1E5
102
{ACAD_REACTORS
330
247
330
248
102
}
330
71
100
AcDbEntity
  8
0
  6
Continuous
 62
     2
100
AcDbCircle
 10
-61.58992615368211
 20
11.77337979614737
 30
0.0
 40
0.4242446153837989
100
AcDbArc
 50
90.0
 51
180.0
  0
ARC
  5
1E6
102
{ACAD_REACTORS
330
247
330
248
102
}
330
71
100
AcDbEntity
  8
0
  6
Continuous
 62
     2
100
AcDbCircle
 10
-56.11661406296531
 20
11.77337979614737
 30
0.0
 40
0.4242446153838841
100
AcDbArc
 50
0.0
 51
90.0
  0
ARC
  5
1E7
102
{ACAD_REACTORS
330
247
330
248
102
}
330
71
100
AcDbEntity
  8
0
  6
Continuous
 62
     2
100
AcDbCircle
 10
-56.11661406296531
 20
6.20886902694716
 30
0.0
 40
0.4242446153832873
100
AcDbArc
 50
270.0
 51
0.0
  0
ARC
  5
1E8
102
{ACAD_REACTORS
330
245
330
246
102
}
330
71
100
AcDbEntity
  8
0
  6
Continuous
 62
     2
100
AcDbCircle
 10
-46.89823017587381
 20
10.67071964964347
 30
0.0
 40
0.7717997786796351
100
AcDbArc
 50
321.879580202844
 51
38.12041979715956
  0
ARC
  5
1E9
102
{ACAD_REACTORS
330
245
330
246
102
}
330
71
100
AcDbEntity
  8
0
  6
Continuous
 62
     2
100
AcDbCircle
 10
-46.69849013952762
 20
10.51398847152305
 30
0.0
 40
0.5179085730134372
100
AcDbArc
 50
218.1204197971511
 51
321.8795802028562
  0
ARC
  5
1EA
102
{ACAD_REACTORS
330
243
330
244
102
}
330
71
100
AcDbEntity
  8
0
  6
Continuous
 62
     2
100
AcDbCircle
 10
-50.37849772848782
 20
7.31152917346915
 30
0.0
 40
1.458034083652006
100
AcDbArc
 50
297.5481481757013
 51
62.45185182429871
  0
ARC
  5
1EB
102
{ACAD_REACTORS
330
243
330
244
102
}
330
71
100
AcDbEntity
  8
0
  6
Continuous
 62
     2
100
AcDbCircle
 10
-50.94037751215441
 20
7.31152917346915
 30
0.0
 40
1.45803408365149
100
AcDbArc
 50
117.5481481756624
 51
242.4518518243375
  0
ARC
  5
1EC
102
{ACAD_REACTORS
330
243
330
244
102
}
330
71
100
AcDbEntity
  8
0
  6
Continuous
 62
     2
100
AcDbCircle
 10
-50.65943762032111
 20
6.77295416316636
 30
0.0
 40
2.065479772208564
100
AcDbArc
 50
62.45185182430654
 51
117.5481481756666
  0
ARC
  5
1ED
102
{ACAD_REACTORS
330
243
330
244
102
}
330
71
100
AcDbEntity
  8
0
  6
Continuous
 62
     2
100
AcDbCircle
 10
-50.65943762032111
 20
7.85010418377246
 30
0.0
 40
2.065479772208513
100
AcDbArc
 50
242.4518518243401
 51
297.5481481756869
  0
ARC
  5
1EE
102
{ACAD_REACTORS
330
245
330
246
102
}
330
71
100
AcDbEntity
  8
0
  6
Continuous
 62
     2
100
AcDbCircle
 10
-46.49875010318132
 20
10.67071964964347
 30
0.0
 40
0.7717997786796724
100
AcDbArc
 50
141.8795802028404
 51
218.120419797156
  0
ARC
  5
1EF
102
{ACAD_REACTORS
330
245
330
246
102
}
330
71
100
AcDbEntity
  8
0
  6
Continuous
 62
     2
100
AcDbCircle
 10
-46.69849013952762
 20
10.82745082776395
 30
0.0
 40
0.517908573013521
100
AcDbArc
 50
38.12041979714382
 51
141.8795802028489
  0
ARC
  5
1F0
102
{ACAD_REACTORS
330
247
330
248
102
}
330
71
100
AcDbEntity
  8
0
  6
Continuous
 62
     2
100
AcDbCircle
 10
-61.58992615368211
 20
6.20886902694716
 30
0.0
 40
0.4242446153828112
100
AcDbArc
 50
180.0
 51
270.0
  0
ARC
  5
1F1
102
{ACAD_REACTORS
330
247
330
248
102
}
330
71
100
AcDbEntity
  8
0
  6
Continuous
 62
     2
100
AcDbCircle
 10
-59.520198215926
 20
8.34366782172907
 30
0.0
 40
0.315716923076593
100
AcDbArc
 50
0.0
 51
64.8055893514591
  0
ARC
  5
1F2
102
{ACAD_REACTORS
330
247
330
248
102
}
330
71
100
AcDbEntity
  8
0
  6
Continuous
 62
     2
100
AcDbCircle
 10
-58.99761376835102
 20
9.45449756779186
 30
0.0
 40
0.9118975235576118
100
AcDbArc
 50
115.1944106485273
 51
244.8055893514886
  0
ARC
  5
1F3
102
{ACAD_REACTORS
330
247
330
248
102
}
330
71
100
AcDbEntity
  8
0
  6
Continuous
 62
     2
100
AcDbCircle
 10
-60.99603147693563
 20
11.16935193291457
 30
0.0
 40
0.3157169230761898
100
AcDbArc
 50
90.0
 51
180.0
  0
ARC
  5
1F4
102
{ACAD_REACTORS
330
241
330
242
102
}
330
71
100
AcDbEntity
  8
0
  6
Continuous
 62
     2
100
AcDbCircle
 10
-53.65745289491861
 20
11.18165474143817
 30
0.0
 40
0.35286382467112
100
AcDbArc
 50
270.0
 51
90.0
  0
ARC
  5
1F5
102
{ACAD_REACTORS
330
245
330
246
102
}
330
71
100
AcDbEntity
  8
0
  6
Continuous
 62
     2
100
AcDbCircle
 10
-46.91476214969282
 20
10.67071964964347
 30
0.0
 40
1.52690476190589
100
AcDbArc
 50
90.0
 51
270.0
  0
ARC
  5
1F6
102
{ACAD_REACTORS
330
249
330
24A
102
}
330
71
100
AcDbEntity
  8
0
  6
Continuous
 62
     2
100
AcDbCircle
 10
-37.4877670569891
 20
7.19873881143425
 30
0.0
 40
1.639695123940214
100
AcDbArc
 50
90.0
 51
164.938108222895
  0
ARC
  5
1F7
102
{ACAD_REACTORS
330
249
330
24A
102
}
330
71
100
AcDbEntity
  8
0
  6
Continuous
 62
     2
100
AcDbCircle
 10
-37.90689490045071
 20
7.31152917346915
 30
0.0
 40
1.205656168393002
100
AcDbArc
 50
164.9381082229028
 51
195.0618917770959
  0
ARC
  5
1F8
102
{ACAD_REACTORS
330
249
330
24A
102
}
330
71
100
AcDbEntity
  8
0
  6
Continuous
 62
     2
100
AcDbCircle
 10
-37.35702257567331
 20
7.10645774413067
 30
0.0
 40
0.5115800601960215
100
AcDbArc
 50
208.5214732576866
 51
246.6277221118442
  0
ARC
  5
1F9
102
{ACAD_REACTORS
330
249
330
24A
102
}
330
71
100
AcDbEntity
  8
0
  6
Continuous
 62
     2
100
AcDbCircle
 10
-37.35702257567331
 20
7.51660060280815
 30
0.0
 40
0.5115800601944143
100
AcDbArc
 50
109.3371432194853
 51
151.4785267424225
  0
ARC
  5
1FA
102
{ACAD_REACTORS
330
247
330
248
102
}
330
71
100
AcDbEntity
  8
0
  6
Continuous
 62
     2
100
AcDbCircle
 10
-58.42048279040392
 20
7.76350456112837
 30
0.0
 40
0.3157169230767991
100
AcDbArc
 50
180.0
 51
269.8110329574542
  0
ARC
  5
1FB
102
{ACAD_REACTORS
330
247
330
248
102
}
330
71
100
AcDbEntity
  8
0
  6
Continuous
 62
     2
100
AcDbCircle
 10
-58.4148666550939
 20
9.46633950869736
 30
0.0
 40
2.018561131933265
100
AcDbArc
 50
269.8110329575858
 51
90.18896704241416
  0
ARC
  5
1FC
102
{ACAD_REACTORS
330
247
330
248
102
}
330
71
100
AcDbEntity
  8
0
  6
Continuous
 62
     2
100
AcDbCircle
 10
-58.42048279040392
 20
10.56363916775968
 30
0.0
 40
0.3157169230767991
100
AcDbArc
 50
180.0
 51
244.6259913216483
  0
ARC
  5
1FD
102
{ACAD_REACTORS
330
247
330
248
102
}
330
71
100
AcDbEntity
  8
0
  6
Continuous
 62
     2
100
AcDbCircle
 10
-58.42048279040392
 20
8.34535596782345
 30
0.0
 40
0.3157169230765328
100
AcDbArc
 50
115.3740086783519
 51
180.0
  0
ARC
  5
1FE
102
{ACAD_REACTORS
330
24B
330
24C
102
}
330
71
100
AcDbEntity
  8
0
  6
Continuous
 62
     2
100
AcDbCircle
 10
-53.59046853624201
 20
7.19873881143425
 30
0.0
 40
1.639695123940506
100
AcDbArc
 50
84.84185523036261
 51
164.9381082228865
  0
ARC
  5
1FF
102
{ACAD_REACTORS
330
24B
330
24C
102
}
330
71
100
AcDbEntity
  8
0
  6
Continuous
 62
     2
100
AcDbCircle
 10
-54.00959637970482
 20
7.31152917346915
 30
0.0
 40
1.205656168390944
100
AcDbArc
 50
164.9381082228765
 51
195.0618917770948
  0
ARC
  5
200
102
{ACAD_REACTORS
330
24B
330
24C
102
}
330
71
100
AcDbEntity
  8
0
  6
Continuous
 62
     2
100
AcDbCircle
 10
-53.59046853624201
 20
7.42431953550397
 30
0.0
 40
1.639695123939394
100
AcDbArc
 50
195.0618917770895
 51
275.1581447696393
  0
ARC
  5
201
102
{ACAD_REACTORS
330
24B
330
24C
102
}
330
71
100
AcDbEntity
  8
0
  6
Continuous
 62
     2
100
AcDbCircle
 10
-53.87932463097792
 20
10.62421011872556
 30
0.0
 40
4.852596863498142
100
AcDbArc
 50
275.1581447696249
 51
285.9799912583529
  0
ARC
  5
202
102
{ACAD_REACTORS
330
24B
330
24C
102
}
330
71
100
AcDbEntity
  8
0
  6
Continuous
 62
     2
100
AcDbCircle
 10
-53.08236679684592
 20
7.31152917346915
 30
0.0
 40
0.9410597353332607
100
AcDbArc
 50
151.4785267422671
 51
208.5214732577055
  0
ARC
  5
203
102
{ACAD_REACTORS
330
24B
330
24C
102
}
330
71
100
AcDbEntity
  8
0
  6
Continuous
 62
     2
100
AcDbCircle
 10
-53.45972405492623
 20
7.51660060280815
 30
0.0
 40
0.5115800601948779
100
AcDbArc
 50
113.3722778881992
 51
151.4785267423048
  0
ARC
  5
204
102
{ACAD_REACTORS
330
24B
330
24C
102
}
330
71
100
AcDbEntity
  8
0
  6
Continuous
 62
     2
100
AcDbCircle
 10
-53.721451755885
 20
5.90106280806097
 30
0.0
 40
2.227384008973478
100
AcDbArc
 50
58.06909105004071
 51
71.5519238818674
  0
ARC
  5
205
102
{ACAD_REACTORS
330
243
330
244
102
}
330
71
100
AcDbEntity
  8
0
  6
Continuous
 62
     2
100
AcDbCircle
 10
-50.65943762032111
 20
7.46826035158966
 30
0.0
 40
0.5179085730132943
100
AcDbArc
 50
38.12041979714752
 51
141.8795802028598
  0
ARC
  5
206
102
{ACAD_REACTORS
330
243
330
244
102
}
330
71
100
AcDbEntity
  8
0
  6
Continuous
 62
     2
100
AcDbCircle
 10
-50.45969758397501
 20
7.31152917346915
 30
0.0
 40
0.7717997786794744
100
AcDbArc
 50
141.8795802028369
 51
218.120419797168
  0
ARC
  5
207
102
{ACAD_REACTORS
330
243
330
244
102
}
330
71
100
AcDbEntity
  8
0
  6
Continuous
 62
     2
100
AcDbCircle
 10
-50.65943762032111
 20
7.15479799534916
 30
0.0
 40
0.5179085730137466
100
AcDbArc
 50
218.1204197971922
 51
321.8795802028005
  0
ARC
  5
208
102
{ACAD_REACTORS
330
243
330
244
102
}
330
71
100
AcDbEntity
  8
0
  6
Continuous
 62
     2
100
AcDbCircle
 10
-50.85917765666753
 20
7.31152917346915
 30
0.0
 40
0.7717997786797003
100
AcDbArc
 50
321.879580202842
 51
38.12041979715296
  0
CIRCLE
  5
209
330
71
100
AcDbEntity
  8
1
  6
Continuous
 62
     2
100
AcDbCircle
 10
-53.51417076906492
 20
19.61612441154747
 30
0.0
 40
2.5
  0
CIRCLE
  5
20A
330
71
100
AcDbEntity
  8
1
  6
Continuous
 62
     2
100
AcDbCircle
 10
-53.51417076906492
 20
19.61612441154747
 30
0.0
 40
1.249999999999922
  0
CIRCLE
  5
20B
102
{ACAD_REACTORS
330
247
330
248
102
}
330
71
100
AcDbEntity
  8
0
  6
Continuous
 62
     2
100
AcDbCircle
 10
-58.97034050316461
 20
9.45449756779186
 30
0.0
 40
0.4709789327785074
  0
MTEXT
  5
20C
330
71
100
AcDbEntity
  8
1
 62
     3
100
AcDbMText
 10
-223.7009533428057
 20
185.2824325668464
 30
0.0
 40
1.8
 41
0.0
 71
     7
 72
     1
  3
Weitergabe sowie Vervielf\U+00e4ltigung dieses Dokuments, Verwertung und \PMitteilung seines Inhalts sind verboten, soweit nicht ausdr\U+00fccklich gestattet. \PZuwiderhandlungen verpflichten zu Schadenersatz. Alle Rechte f\U+00fcr den Fall\Pder Pat
  1
ent-, Gebrauchsmuster- oder Designeintragung vorbehalten.
  7
CONVERTER_11
 73
     1
 44
0.99639855942377
  0
MTEXT
  5
20D
330
71
100
AcDbEntity
  8
1
 62
     3
100
AcDbMText
 10
-40.84784350401762
 20
185.2824325668464
 30
0.0
 40
1.8
 41
0.0
 71
     7
 72
     1
  3
Transfer or duplication of this document as well as the utilisation or\Pcommunication of its content are not permitted unless express consent\Pis granted. Violations give rise to claims for damages. All rights reserved\Pin case of patent, utility mo
  1
del or design patent registrations.
  7
CONVERTER_11
 73
     1
 44
0.99639855942377
  0
TEXT
  5
20E
330
71
100
AcDbEntity
  8
1
 62
     2
100
AcDbText
 10
-47.05082565562771
 20
-0.26789280344406
 30
0.0
 40
1.8
  1
of
 41
0.9
  7
CONVERTER_11
100
AcDbText
  0
TEXT
  5
20F
330
71
100
AcDbEntity
  8
1
 62
     2
100
AcDbText
 10
-65.25082565562752
 20
-0.26789280344411
 30
0.0
 40
1.8
  1
page
 41
0.9
  7
CONVERTER_11
100
AcDbText
  0
TEXT
  5
210
330
71
100
AcDbEntity
  8
1
 62
     2
100
AcDbText
 10
-56.60456068528552
 20
-0.30812424225445
 30
0.0
 40
1.8
  1
1
 41
0.9
  7
CONVERTER_11
100
AcDbText
  0
TEXT
  5
211
330
71
100
AcDbEntity
  8
1
 62
     2
100
AcDbText
 10
-41.81551684581402
 20
-0.25887558845255
 30
0.0
 40
1.8
  1
1
 41
0.9
  7
CONVERTER_11
100
AcDbText
  0
MTEXT
  5
213
330
71
100
AcDbEntity
  8
1
 62
     7
100
AcDbMText
 10
16.72157660774798
 20
1.74112441154779
 30
0.0
 40
3.0
 41
0.0
 71
     5
 72
     1
  1
ATS-SSK 116/RKN
  7
CONVERTER_12
 73
     1
 44
1.20048019207683
  0
MTEXT
  5
214
330
71
100
AcDbEntity
  8
1
 62
     2
100
AcDbMText
 10
-28.8508256556276
 20
5.99112441154756
 30
0.0
 40
1.8
 41
0.0
 71
     1
 72
     1
  1
description
  7
CONVERTER_11
 73
     1
 44
1.20048019207683
  0
MTEXT
  5
215
330
71
100
AcDbEntity
  8
1
 62
     3
100
AcDbMText
 10
-40.05082565562762
 20
19.61612441154756
 30
0.0
 40
2.5
 41
0.0
 71
     5
 72
     1
  1
DIN A4
  7
CONVERTER_11
 73
     1
 44
1.20048019207683
  0
MTEXT
  5
216
330
71
100
AcDbEntity
  8
1
 62
     7
100
AcDbMText
 10
-226.2060211288766
 20
20.99112441154756
 30
0.0
 40
3.5
 41
0.0
 71
     5
 72
     1
  1
D
  7
CONVERTER_11
 73
     1
 44
1.20048019207683
  0
MTEXT
  5
217
330
71
100
AcDbEntity
  8
1
 62
     7
100
AcDbMText
 10
-226.2060211288766
 20
73.49112441154756
 30
0.0
 40
3.5
 41
0.0
 71
     5
 72
     1
  1
C
  7
CONVERTER_11
 73
     1
 44
1.20048019207683
  0
MTEXT
  5
218
330
71
100
AcDbEntity
  8
1
 62
     7
100
AcDbMText
 10
-226.2060211288766
 20
123.4911244115476
 30
0.0
 40
3.5
 41
0.0
 71
     5
 72
     1
  1
B
  7
CONVERTER_11
 73
     1
 44
1.20048019207683
  0
MTEXT
  5
219
330
71
100
AcDbEntity
  8
1
 62
     7
100
AcDbMText
 10
-226.2060211288766
 20
175.9911244115476
 30
0.0
 40
3.5
 41
0.0
 71
     5
 72
     1
  1
A
  7
CONVERTER_11
 73
     1
 44
1.20048019207683
  0
MTEXT
  5
21A
330
71
100
AcDbEntity
  8
1
 62
     7
100
AcDbMText
 10
44.04397887112168
 20
-4.00887558845255
 30
0.0
 40
3.5
 41
0.0
 71
     5
 72
     1
  1
6
  7
CONVERTER_11
 73
     1
 44
1.20048019207683
  0
MTEXT
  5
21B
330
71
100
AcDbEntity
  8
1
 62
     7
100
AcDbMText
 10
-5.20602112887752
 20
-4.00887558845255
 30
0.0
 40
3.5
 41
0.0
 71
     5
 72
     1
  1
5
  7
CONVERTER_11
 73
     1
 44
1.20048019207683
  0
MTEXT
  5
21C
330
71
100
AcDbEntity
  8
1
 62
     7
100
AcDbMText
 10
-55.20602112887761
 20
-4.00887558845255
 30
0.0
 40
3.5
 41
0.0
 71
     5
 72
     1
  1
4
  7
CONVERTER_11
 73
     1
 44
1.20048019207683
  0
MTEXT
  5
21D
330
71
100
AcDbEntity
  8
1
 62
     7
100
AcDbMText
 10
-105.2060211288775
 20
-4.00887558845255
 30
0.0
 40
3.5
 41
0.0
 71
     5
 72
     1
  1
3
  7
CONVERTER_11
 73
     1
 44
1.20048019207683
  0
MTEXT
  5
21E
330
71
100
AcDbEntity
  8
1
 62
     7
100
AcDbMText
 10
-155.2060211288775
 20
-4.00887558845255
 30
0.0
 40
3.5
 41
0.0
 71
     5
 72
     1
  1
2
  7
CONVERTER_11
 73
     1
 44
1.20048019207683
  0
MTEXT
  5
21F
330
71
100
AcDbEntity
  8
1
 62
     7
100
AcDbMText
 10
-204.4560211288771
 20
-4.00887558845255
 30
0.0
 40
3.5
 41
0.0
 71
     5
 72
     1
  1
1
  7
CONVERTER_11
 73
     1
 44
1.20048019207683
  0
MTEXT
  5
220
330
71
100
AcDbEntity
  8
1
 62
     7
100
AcDbMText
 10
65.79397887112148
 20
20.99112441154756
 30
0.0
 40
3.5
 41
0.0
 71
     5
 72
     1
  1
D
  7
CONVERTER_11
 73
     1
 44
1.20048019207683
  0
MTEXT
  5
221
330
71
100
AcDbEntity
  8
1
 62
     7
100
AcDbMText
 10
65.79397887112148
 20
123.4911244115495
 30
0.0
 40
3.5
 41
0.0
 71
     5
 72
     1
  1
B
  7
CONVERTER_11
 73
     1
 44
1.20048019207683
  0
MTEXT
  5
222
330
71
100
AcDbEntity
  8
1
 62
     7
100
AcDbMText
 10
65.79397887112148
 20
175.9911244115476
 30
0.0
 40
3.5
 41
0.0
 71
     5
 72
     1
  1
A
  7
CONVERTER_11
 73
     1
 44
1.20048019207683
  0
MTEXT
  5
223
330
71
100
AcDbEntity
  8
1
 62
     7
100
AcDbMText
 10
65.79397887112148
 20
73.49112441154946
 30
0.0
 40
3.5
 41
0.0
 71
     5
 72
     1
  1
C
  7
CONVERTER_11
 73
     1
 44
1.20048019207683
  0
MTEXT
  5
224
330
71
100
AcDbEntity
  8
1
 62
     2
100
AcDbMText
 10
-100.688840380675
 20
11.24112441154747
 30
0.0
 40
2.0
 41
0.0
 71
     5
 72
     1
  1
General Information\P- Simplified representation\P- Document excluded from change process\P- Linear dimensions [mm]
  7
CONVERTER_11
 73
     1
 44
1.20048019207683
  0
TEXT
  5
225
330
71
100
AcDbEntity
  8
1
 62
     7
100
AcDbText
 10
-28.3508256556278
 20
8.29112441154746
 30
0.0
 40
2.5
  1
0203221
 41
0.81
  7
CONVERTER_12
100
AcDbText
  0
MTEXT
  5
226
330
71
100
AcDbEntity
  8
1
 62
     2
100
AcDbMText
 10
-28.75082565562752
 20
14.49112441154756
 30
0.0
 40
1.8
 41
0.0
 71
     1
 72
     1
  1
ident.-No.
  7
CONVERTER_11
 73
     1
 44
1.20048019207683
  0
MTEXT
  5
227
330
71
100
AcDbEntity
  8
1
 62
     2
100
AcDbMText
 10
55.4755705894452
 20
22.99112441154756
 30
0.0
 40
1.8
 41
0.0
 71
     1
 72
     1
  1
scale
  7
CONVERTER_11
 73
     1
 44
1.20048019207683
  0
MTEXT
  5
229
330
71
100
AcDbEntity
  8
1
 62
     3
100
AcDbMText
 10
58.83477473028479
 20
16.79112441154766
 30
0.0
 40
2.5
 41
0.0
 71
     8
 72
     1
  1
1:1
  7
CONVERTER_13
 73
     1
 44
1.32052821128451
  0
TEXT
  5
22A
330
71
100
AcDbEntity
  8
1
 62
     7
100
AcDbText
 10
-28.75082565562752
 20
16.79112441154746
 30
0.0
 40
2.5
  1
00348515
 41
0.81
  7
CONVERTER_12
100
AcDbText
  0
MTEXT
  5
22C
330
71
100
AcDbEntity
  8
1
 62
     2
100
AcDbMText
 10
-28.75082565562752
 20
22.99112441154756
 30
0.0
 40
1.8
 41
0.0
 71
     1
 72
     1
  1
document-No. / RI
  7
CONVERTER_14
 73
     1
 44
1.32052821128451
  0
TEXT
  5
22D
330
71
100
AcDbEntity
  8
1
 62
     3
100
AcDbText
 10
-0.95082565562751
 20
8.29112441154746
 30
0.0
 40
2.5
  1
TECDOC 2D_Productdrawing
 41
0.81
  7
CONVERTER_12
100
AcDbText
  0
MTEXT
  5
22E
330
71
100
AcDbEntity
  8
1
 62
     2
100
AcDbMText
 10
-0.95082565562751
 20
14.49112441154747
 30
0.0
 40
1.8
 41
0.0
 71
     1
 72
     1
  1
document-type
  7
CONVERTER_11
 73
     1
 44
1.20048019207683
  0
MTEXT
  5
22F
330
71
100
AcDbEntity
  8
1
 62
     2
100
AcDbMText
 10
28.87557058944537
 20
22.99112441154747
 30
0.0
 40
1.8
 41
0.0
 71
     1
 72
     1
  1
date
  7
CONVERTER_11
 73
     1
 44
1.32052821128451
  0
TEXT
  5
230
330
71
100
AcDbEntity
  8
1
 62
     3
100
AcDbText
 10
28.87557058944537
 20
16.79112441154746
 30
0.0
 40
2.5
  1
31.01.2018
 41
0.81
  7
CONVERTER_12
100
AcDbText
  0
TEXT
  5
231
330
71
100
AcDbEntity
  8
1
 62
     7
100
AcDbText
 10
-8.72091343657172
 20
16.79112441154746
 30
0.0
 40
2.5
  1
01
 41
0.81
  7
CONVERTER_12
100
AcDbText
  0
TEXT
  5
232
330
71
100
AcDbEntity
  8
1
 62
     7
100
AcDbText
 10
-10.87727793361373
 20
16.79112441154746
 30
0.0
 40
2.5
  1
/
 41
0.9
  7
CONVERTER_11
100
AcDbText
  0
HATCH
  5
233
330
71
100
AcDbEntity
  8
1
  6
Continuous
 62
     2
100
AcDbHatch
 10
0.0
 20
0.0
 30
0.0
210
0.0
220
0.0
230
1.0
  2
_USER
 70
     0
 71
     1
 91
        1
 92
        1
 93
       12
 72
     1
 10
-48.58332494266642
 20
9.14381488773816
 11
-49.77611764483282
 21
9.14381488773816
 72
     1
 10
-49.77611764483282
 20
9.14381488773816
 11
-49.77611764483282
 21
10.27808699658198
 72
     1
 10
-49.77611764483282
 20
10.27808699658198
 11
-50.82577522274031
 21
10.27808699658198
 72
     1
 10
-50.82577522274031
 20
10.27808699658198
 11
-50.82577522274031
 21
9.14381488773816
 72
     1
 10
-50.82577522274031
 20
9.14381488773816
 11
-52.0185679249069
 21
9.14381488773816
 72
     1
 10
-52.0185679249069
 20
9.14381488773816
 11
-52.0185679249069
 21
12.19762441154936
 72
     1
 10
-52.0185679249069
 20
12.19762441154936
 11
-50.82577522274031
 21
12.19762441154936
 72
     1
 10
-50.82577522274031
 20
12.19762441154936
 11
-50.82577522274031
 21
11.12879107821476
 72
     1
 10
-50.82577522274031
 20
11.12879107821476
 11
-49.77611764483282
 21
11.12879107821476
 72
     1
 10
-49.77611764483282
 20
11.12879107821476
 11
-49.77611764483282
 21
12.19762441154936
 72
     1
 10
-49.77611764483282
 20
12.19762441154936
 11
-48.58332494266642
 21
12.19762441154936
 72
     1
 10
-48.58332494266642
 20
12.19762441154936
 11
-48.58332494266642
 21
9.14381488773816
 97
       12
330
1A0
330
1A1
330
18B
330
18A
330
189
330
19D
330
188
330
19E
330
19F
330
187
330
186
330
185
 75
     1
 76
     0
 52
45.0
 41
0.1
 77
     0
 78
     1
 53
45.0
 43
0.0
 44
0.0
 45
-0.0707106781186548
 46
0.0707106781186548
 79
     0
 98
        1
 10
0.0
 20
0.0
  0
HATCH
  5
234
330
71
100
AcDbEntity
  8
1
  6
Continuous
 62
     2
100
AcDbHatch
 10
0.0
 20
0.0
 30
0.0
210
0.0
220
0.0
230
1.0
  2
_USER
 70
     0
 71
     1
 91
        1
 92
        1
 93
       12
 72
     1
 10
-48.58332494266642
 20
9.14381488773816
 11
-49.77611764483282
 21
9.14381488773816
 72
     1
 10
-49.77611764483282
 20
9.14381488773816
 11
-49.77611764483282
 21
10.27808699658198
 72
     1
 10
-49.77611764483282
 20
10.27808699658198
 11
-50.82577522274031
 21
10.27808699658198
 72
     1
 10
-50.82577522274031
 20
10.27808699658198
 11
-50.82577522274031
 21
9.14381488773816
 72
     1
 10
-50.82577522274031
 20
9.14381488773816
 11
-52.0185679249069
 21
9.14381488773816
 72
     1
 10
-52.0185679249069
 20
9.14381488773816
 11
-52.0185679249069
 21
12.19762441154936
 72
     1
 10
-52.0185679249069
 20
12.19762441154936
 11
-50.82577522274031
 21
12.19762441154936
 72
     1
 10
-50.82577522274031
 20
12.19762441154936
 11
-50.82577522274031
 21
11.12879107821476
 72
     1
 10
-50.82577522274031
 20
11.12879107821476
 11
-49.77611764483282
 21
11.12879107821476
 72
     1
 10
-49.77611764483282
 20
11.12879107821476
 11
-49.77611764483282
 21
12.19762441154936
 72
     1
 10
-49.77611764483282
 20
12.19762441154936
 11
-48.58332494266642
 21
12.19762441154936
 72
     1
 10
-48.58332494266642
 20
12.19762441154936
 11
-48.58332494266642
 21
9.14381488773816
 97
       12
330
1A0
330
1A1
330
18B
330
18A
330
189
330
19D
330
188
330
19E
330
19F
330
187
330
186
330
185
 75
     1
 76
     0
 52
45.0
 41
0.1
 77
     0
 78
     1
 53
45.0
 43
0.0
 44
0.0
 45
-0.0707106781186548
 46
0.0707106781186548
 79
     0
 98
        1
 10
0.0
 20
0.0
  0
HATCH
  5
235
330
71
100
AcDbEntity
  8
1
  6
Continuous
 62
     2
100
AcDbHatch
 10
0.0
 20
0.0
 30
0.0
210
0.0
220
0.0
230
1.0
  2
_USER
 70
     0
 71
     1
 91
        1
 92
        1
 93
       10
 72
     1
 10
-46.34102559347812
 20
7.529658425169856
 11
-47.58153000373102
 21
8.838433935374951
 72
     1
 10
-47.58153000373102
 20
8.838433935374951
 11
-48.77432270589861
 21
8.838433935374951
 72
     1
 10
-48.77432270589861
 20
8.838433935374951
 11
-48.77432270589861
 21
5.784624411563868
 72
     1
 10
-48.77432270589861
 20
5.784624411563868
 11
-47.58153000373102
 21
5.784624411563868
 72
     1
 10
-47.58153000373102
 20
5.784624411563868
 11
-47.58153000373102
 21
7.093399921768452
 72
     1
 10
-47.58153000373102
 20
7.093399921768452
 11
-46.34102559347812
 21
5.784624411563868
 72
     1
 10
-46.34102559347812
 20
5.784624411563868
 11
-45.14823289131172
 21
5.784624411563868
 72
     1
 10
-45.14823289131172
 20
5.784624411563868
 11
-45.14823289131172
 21
8.838433935374951
 72
     1
 10
-45.14823289131172
 20
8.838433935374951
 11
-46.34102559347812
 21
8.838433935374951
 72
     1
 10
-46.34102559347812
 20
8.838433935374951
 11
-46.34102559347812
 21
7.529658425169856
 97
       10
330
1AE
330
17E
330
17D
330
180
330
1A9
330
1AA
330
17F
330
1AB
330
1AC
330
1AD
 75
     1
 76
     0
 52
45.0
 41
0.1
 77
     0
 78
     1
 53
45.0
 43
0.0
 44
0.0
 45
-0.0707106781186548
 46
0.0707106781186548
 79
     0
 98
        1
 10
0.0
 20
0.0
  0
HATCH
  5
236
330
71
100
AcDbEntity
  8
1
  6
Continuous
 62
     2
100
AcDbHatch
 10
0.0
 20
0.0
 30
0.0
210
0.0
220
0.0
230
1.0
  2
_USER
 70
     0
 71
     1
 91
        1
 92
        1
 93
       10
 72
     1
 10
-46.34102559347812
 20
7.529658425169856
 11
-47.58153000373102
 21
8.838433935374951
 72
     1
 10
-47.58153000373102
 20
8.838433935374951
 11
-48.77432270589861
 21
8.838433935374951
 72
     1
 10
-48.77432270589861
 20
8.838433935374951
 11
-48.77432270589861
 21
5.784624411563868
 72
     1
 10
-48.77432270589861
 20
5.784624411563868
 11
-47.58153000373102
 21
5.784624411563868
 72
     1
 10
-47.58153000373102
 20
5.784624411563868
 11
-47.58153000373102
 21
7.093399921768452
 72
     1
 10
-47.58153000373102
 20
7.093399921768452
 11
-46.34102559347812
 21
5.784624411563868
 72
     1
 10
-46.34102559347812
 20
5.784624411563868
 11
-45.14823289131172
 21
5.784624411563868
 72
     1
 10
-45.14823289131172
 20
5.784624411563868
 11
-45.14823289131172
 21
8.838433935374951
 72
     1
 10
-45.14823289131172
 20
8.838433935374951
 11
-46.34102559347812
 21
8.838433935374951
 72
     1
 10
-46.34102559347812
 20
8.838433935374951
 11
-46.34102559347812
 21
7.529658425169856
 97
       10
330
1AE
330
17E
330
17D
330
180
330
1A9
330
1AA
330
17F
330
1AB
330
1AC
330
1AD
 75
     1
 76
     0
 52
45.0
 41
0.1
 77
     0
 78
     1
 53
45.0
 43
0.0
 44
0.0
 45
-0.0707106781186548
 46
0.0707106781186548
 79
     0
 98
        1
 10
0.0
 20
0.0
  0
HATCH
  5
237
330
71
100
AcDbEntity
  8
1
  6
Continuous
 62
     2
100
AcDbHatch
 10
0.0
 20
0.0
 30
0.0
210
0.0
220
0.0
230
1.0
  2
_USER
 70
     0
 71
     1
 91
        1
 92
        1
 93
       10
 72
     1
 10
-41.0925867730584
 20
10.88884890134418
 11
-42.33309118331241
 21
12.19762441154936
 72
     1
 10
-42.33309118331241
 20
12.19762441154936
 11
-43.52588388547892
 21
12.19762441154936
 72
     1
 10
-43.52588388547892
 20
12.19762441154936
 11
-43.52588388547892
 21
9.14381488773816
 72
     1
 10
-43.52588388547892
 20
9.14381488773816
 11
-42.33309118331241
 21
9.14381488773816
 72
     1
 10
-42.33309118331241
 20
9.14381488773816
 11
-42.33309118331241
 21
10.45259039794286
 72
     1
 10
-42.33309118331241
 20
10.45259039794286
 11
-41.0925867730584
 21
9.14381488773816
 72
     1
 10
-41.0925867730584
 20
9.14381488773816
 11
-39.8997940708918
 21
9.14381488773816
 72
     1
 10
-39.8997940708918
 20
9.14381488773816
 11
-39.8997940708918
 21
12.19762441154936
 72
     1
 10
-39.8997940708918
 20
12.19762441154936
 11
-41.0925867730584
 21
12.19762441154936
 72
     1
 10
-41.0925867730584
 20
12.19762441154936
 11
-41.0925867730584
 21
10.88884890134418
 97
       10
330
1B3
330
17B
330
17A
330
1B4
330
179
330
1AF
330
1B0
330
1B1
330
1B2
330
17C
 75
     1
 76
     0
 52
45.0
 41
0.1
 77
     0
 78
     1
 53
45.0
 43
0.0
 44
0.0
 45
-0.0707106781186548
 46
0.0707106781186548
 79
     0
 98
        1
 10
0.0
 20
0.0
  0
HATCH
  5
238
330
71
100
AcDbEntity
  8
1
  6
Continuous
 62
     2
100
AcDbHatch
 10
0.0
 20
0.0
 30
0.0
210
0.0
220
0.0
230
1.0
  2
_USER
 70
     0
 71
     1
 91
        1
 92
        1
 93
       10
 72
     1
 10
-41.0925867730584
 20
10.88884890134418
 11
-42.33309118331241
 21
12.19762441154936
 72
     1
 10
-42.33309118331241
 20
12.19762441154936
 11
-43.52588388547892
 21
12.19762441154936
 72
     1
 10
-43.52588388547892
 20
12.19762441154936
 11
-43.52588388547892
 21
9.14381488773816
 72
     1
 10
-43.52588388547892
 20
9.14381488773816
 11
-42.33309118331241
 21
9.14381488773816
 72
     1
 10
-42.33309118331241
 20
9.14381488773816
 11
-42.33309118331241
 21
10.45259039794286
 72
     1
 10
-42.33309118331241
 20
10.45259039794286
 11
-41.0925867730584
 21
9.14381488773816
 72
     1
 10
-41.0925867730584
 20
9.14381488773816
 11
-39.8997940708918
 21
9.14381488773816
 72
     1
 10
-39.8997940708918
 20
9.14381488773816
 11
-39.8997940708918
 21
12.19762441154936
 72
     1
 10
-39.8997940708918
 20
12.19762441154936
 11
-41.0925867730584
 21
12.19762441154936
 72
     1
 10
-41.0925867730584
 20
12.19762441154936
 11
-41.0925867730584
 21
10.88884890134418
 97
       10
330
1B3
330
17B
330
17A
330
1B4
330
179
330
1AF
330
1B0
330
1B1
330
1B2
330
17C
 75
     1
 76
     0
 52
45.0
 41
0.1
 77
     0
 78
     1
 53
45.0
 43
0.0
 44
0.0
 45
-0.0707106781186548
 46
0.0707106781186548
 79
     0
 98
        1
 10
0.0
 20
0.0
  0
HATCH
  5
239
330
71
100
AcDbEntity
  8
1
  6
Continuous
 62
     2
100
AcDbHatch
 10
0.0
 20
0.0
 30
0.0
210
0.0
220
0.0
230
1.0
  2
_USER
 70
     0
 71
     1
 91
        1
 92
        1
 93
        8
 72
     1
 10
-42.1901069899379
 20
8.838433935374951
 11
-45.00509776705152
 21
8.838433935374951
 72
     1
 10
-45.00509776705152
 20
8.838433935374951
 11
-45.00509776705152
 21
8.05316862925136
 72
     1
 10
-45.00509776705152
 20
8.05316862925136
 11
-44.19399872957692
 21
8.05316862925136
 72
     1
 10
-44.19399872957692
 20
8.05316862925136
 11
-44.19399872957692
 21
5.784624411563868
 72
     1
 10
-44.19399872957692
 20
5.784624411563868
 11
-43.0012060274104
 21
5.784624411563868
 72
     1
 10
-43.0012060274104
 20
5.784624411563868
 11
-43.0012060274104
 21
8.05316862925136
 72
     1
 10
-43.0012060274104
 20
8.05316862925136
 11
-42.1901069899379
 21
8.05316862925136
 72
     1
 10
-42.1901069899379
 20
8.05316862925136
 11
-42.1901069899379
 21
8.838433935374951
 97
        8
330
175
330
1B5
330
174
330
1B6
330
1B7
330
178
330
177
330
176
 75
     1
 76
     0
 52
45.0
 41
0.1
 77
     0
 78
     1
 53
45.0
 43
0.0
 44
0.0
 45
-0.0707106781186548
 46
0.0707106781186548
 79
     0
 98
        1
 10
0.0
 20
0.0
  0
HATCH
  5
23A
330
71
100
AcDbEntity
  8
1
  6
Continuous
 62
     2
100
AcDbHatch
 10
0.0
 20
0.0
 30
0.0
210
0.0
220
0.0
230
1.0
  2
_USER
 70
     0
 71
     1
 91
        1
 92
        1
 93
        8
 72
     1
 10
-42.1901069899379
 20
8.838433935374951
 11
-45.00509776705152
 21
8.838433935374951
 72
     1
 10
-45.00509776705152
 20
8.838433935374951
 11
-45.00509776705152
 21
8.05316862925136
 72
     1
 10
-45.00509776705152
 20
8.05316862925136
 11
-44.19399872957692
 21
8.05316862925136
 72
     1
 10
-44.19399872957692
 20
8.05316862925136
 11
-44.19399872957692
 21
5.784624411563868
 72
     1
 10
-44.19399872957692
 20
5.784624411563868
 11
-43.0012060274104
 21
5.784624411563868
 72
     1
 10
-43.0012060274104
 20
5.784624411563868
 11
-43.0012060274104
 21
8.05316862925136
 72
     1
 10
-43.0012060274104
 20
8.05316862925136
 11
-42.1901069899379
 21
8.05316862925136
 72
     1
 10
-42.1901069899379
 20
8.05316862925136
 11
-42.1901069899379
 21
8.838433935374951
 97
        8
330
175
330
1B5
330
174
330
1B6
330
1B7
330
178
330
177
330
176
 75
     1
 76
     0
 52
45.0
 41
0.1
 77
     0
 78
     1
 53
45.0
 43
0.0
 44
0.0
 45
-0.0707106781186548
 46
0.0707106781186548
 79
     0
 98
        1
 10
0.0
 20
0.0
  0
HATCH
  5
23B
330
71
100
AcDbEntity
  8
1
  6
Continuous
 62
     2
100
AcDbHatch
 10
0.0
 20
0.0
 30
0.0
210
0.0
220
0.0
230
1.0
  2
_USER
 70
     0
 71
     1
 91
        2
 92
        1
 93
        8
 72
     1
 10
-40.05167953399092
 20
5.784624411563868
 11
-40.2631595874667
 21
6.32558495578175
 72
     1
 10
-40.2631595874667
 20
6.32558495578175
 11
-41.39560116414052
 21
6.32558495578175
 72
     1
 10
-41.39560116414052
 20
6.32558495578175
 11
-41.60708121761633
 21
5.784624411563868
 72
     1
 10
-41.60708121761633
 20
5.784624411563868
 11
-42.84758562786931
 21
5.784624411563868
 72
     1
 10
-42.84758562786931
 20
5.784624411563868
 11
-41.44963258093
 21
8.838433935374951
 72
     1
 10
-41.44963258093
 20
8.838433935374951
 11
-40.2091281706773
 21
8.838433935374951
 72
     1
 10
-40.2091281706773
 20
8.838433935374951
 11
-38.811175123737
 21
5.784624411563868
 72
     1
 10
-38.811175123737
 20
5.784624411563868
 11
-40.05167953399092
 21
5.784624411563868
 97
        8
330
1B9
330
1BA
330
171
330
1BB
330
170
330
173
330
1B8
330
172
 92
       16
 93
        3
 72
     1
 10
-41.12954561299551
 20
7.006148221088353
 11
-40.82938037580311
 21
7.773963187075054
 72
     1
 10
-40.82938037580311
 20
7.773963187075054
 11
-40.52921513861301
 21
7.006148221088353
 72
     1
 10
-40.52921513861301
 20
7.006148221088353
 11
-41.12954561299551
 21
7.006148221088353
 97
        3
330
16F
330
1BD
330
1BC
 75
     1
 76
     0
 52
45.0
 41
0.1
 77
     0
 78
     1
 53
45.0
 43
0.0
 44
0.0
 45
-0.0707106781186548
 46
0.0707106781186548
 79
     0
 98
        1
 10
0.0
 20
0.0
  0
HATCH
  5
23C
330
71
100
AcDbEntity
  8
1
  6
Continuous
 62
     2
100
AcDbHatch
 10
0.0
 20
0.0
 30
0.0
210
0.0
220
0.0
230
1.0
  2
_USER
 70
     0
 71
     1
 91
        2
 92
        1
 93
        8
 72
     1
 10
-40.05167953399092
 20
5.784624411563868
 11
-40.2631595874667
 21
6.32558495578175
 72
     1
 10
-40.2631595874667
 20
6.32558495578175
 11
-41.39560116414052
 21
6.32558495578175
 72
     1
 10
-41.39560116414052
 20
6.32558495578175
 11
-41.60708121761633
 21
5.784624411563868
 72
     1
 10
-41.60708121761633
 20
5.784624411563868
 11
-42.84758562786931
 21
5.784624411563868
 72
     1
 10
-42.84758562786931
 20
5.784624411563868
 11
-41.44963258093
 21
8.838433935374951
 72
     1
 10
-41.44963258093
 20
8.838433935374951
 11
-40.2091281706773
 21
8.838433935374951
 72
     1
 10
-40.2091281706773
 20
8.838433935374951
 11
-38.811175123737
 21
5.784624411563868
 72
     1
 10
-38.811175123737
 20
5.784624411563868
 11
-40.05167953399092
 21
5.784624411563868
 97
        8
330
1B9
330
1BA
330
171
330
1BB
330
170
330
173
330
1B8
330
172
 92
       16
 93
        3
 72
     1
 10
-41.12954561299551
 20
7.006148221088353
 11
-40.82938037580311
 21
7.773963187075054
 72
     1
 10
-40.82938037580311
 20
7.773963187075054
 11
-40.52921513861301
 21
7.006148221088353
 72
     1
 10
-40.52921513861301
 20
7.006148221088353
 11
-41.12954561299551
 21
7.006148221088353
 97
        3
330
16F
330
1BD
330
1BC
 75
     1
 76
     0
 52
45.0
 41
0.1
 77
     0
 78
     1
 53
45.0
 43
0.0
 44
0.0
 45
-0.0707106781186548
 46
0.0707106781186548
 79
     0
 98
        1
 10
0.0
 20
0.0
  0
HATCH
  5
23D
330
71
100
AcDbEntity
  8
1
  6
Continuous
 62
     2
100
AcDbHatch
 10
0.0
 20
0.0
 30
0.0
210
0.0
220
0.0
230
1.0
  2
_USER
 70
     0
 71
     1
 91
        1
 92
        1
 93
        4
 72
     1
 10
-38.42073112020501
 20
9.14381488773816
 11
-39.6612355304579
 21
9.14381488773816
 72
     1
 10
-39.6612355304579
 20
9.14381488773816
 11
-39.6612355304579
 21
12.19762441154936
 72
     1
 10
-39.6612355304579
 20
12.19762441154936
 11
-38.42073112020501
 21
12.19762441154936
 72
     1
 10
-38.42073112020501
 20
12.19762441154936
 11
-38.42073112020501
 21
9.14381488773816
 97
        4
330
16C
330
16E
330
1BE
330
16D
 75
     1
 76
     0
 52
45.0
 41
0.1
 77
     0
 78
     1
 53
45.0
 43
0.0
 44
0.0
 45
-0.0707106781186548
 46
0.0707106781186548
 79
     0
 98
        1
 10
0.0
 20
0.0
  0
HATCH
  5
23E
330
71
100
AcDbEntity
  8
1
  6
Continuous
 62
     2
100
AcDbHatch
 10
0.0
 20
0.0
 30
0.0
210
0.0
220
0.0
230
1.0
  2
_USER
 70
     0
 71
     1
 91
        1
 92
        1
 93
        4
 72
     1
 10
-38.42073112020501
 20
9.14381488773816
 11
-39.6612355304579
 21
9.14381488773816
 72
     1
 10
-39.6612355304579
 20
9.14381488773816
 11
-39.6612355304579
 21
12.19762441154936
 72
     1
 10
-39.6612355304579
 20
12.19762441154936
 11
-38.42073112020501
 21
12.19762441154936
 72
     1
 10
-38.42073112020501
 20
12.19762441154936
 11
-38.42073112020501
 21
9.14381488773816
 97
        4
330
16C
330
16E
330
1BE
330
16D
 75
     1
 76
     0
 52
45.0
 41
0.1
 77
     0
 78
     1
 53
45.0
 43
0.0
 44
0.0
 45
-0.0707106781186548
 46
0.0707106781186548
 79
     0
 98
        1
 10
0.0
 20
0.0
  0
HATCH
  5
23F
330
71
100
AcDbEntity
  8
1
  6
Continuous
 62
     2
100
AcDbHatch
 10
0.0
 20
0.0
 30
0.0
210
0.0
220
0.0
230
1.0
  2
_USER
 70
     0
 71
     1
 91
        1
 92
        1
 93
       12
 72
     1
 10
-34.1982449545342
 20
12.19762441154936
 11
-35.50077458530072
 21
10.72467388151316
 72
     1
 10
-35.50077458530072
 20
10.72467388151316
 11
-34.10282153836042
 21
9.14381488773816
 72
     1
 10
-34.10282153836042
 20
9.14381488773816
 11
-35.50554575610872
 21
9.14381488773816
 72
     1
 10
-35.50554575610872
 20
9.14381488773816
 11
-36.20213669417421
 21
9.931546673031875
 72
     1
 10
-36.20213669417421
 20
9.931546673031875
 11
-36.89872763223991
 21
9.14381488773816
 72
     1
 10
-36.89872763223991
 20
9.14381488773816
 11
-38.30145184998813
 21
9.14381488773816
 72
     1
 10
-38.30145184998813
 20
9.14381488773816
 11
-36.90349880304783
 21
10.72467388151316
 72
     1
 10
-36.90349880304783
 20
10.72467388151316
 11
-38.20602843381531
 21
12.19762441154936
 72
     1
 10
-38.20602843381531
 20
12.19762441154936
 11
-36.80330421606601
 21
12.19762441154936
 72
     1
 10
-36.80330421606601
 20
12.19762441154936
 11
-36.20213669417421
 21
11.51780108999387
 72
     1
 10
-36.20213669417421
 20
11.51780108999387
 11
-35.60096917228142
 21
12.19762441154936
 72
     1
 10
-35.60096917228142
 20
12.19762441154936
 11
-34.1982449545342
 21
12.19762441154936
 97
       12
330
167
330
166
330
165
330
1C2
330
1C3
330
1BF
330
1C0
330
16B
330
16A
330
169
330
168
330
1C1
 75
     1
 76
     0
 52
45.0
 41
0.1
 77
     0
 78
     1
 53
45.0
 43
0.0
 44
0.0
 45
-0.0707106781186548
 46
0.0707106781186548
 79
     0
 98
        1
 10
0.0
 20
0.0
  0
HATCH
  5
240
330
71
100
AcDbEntity
  8
1
  6
Continuous
 62
     2
100
AcDbHatch
 10
0.0
 20
0.0
 30
0.0
210
0.0
220
0.0
230
1.0
  2
_USER
 70
     0
 71
     1
 91
        1
 92
        1
 93
       12
 72
     1
 10
-34.1982449545342
 20
12.19762441154936
 11
-35.50077458530072
 21
10.72467388151316
 72
     1
 10
-35.50077458530072
 20
10.72467388151316
 11
-34.10282153836042
 21
9.14381488773816
 72
     1
 10
-34.10282153836042
 20
9.14381488773816
 11
-35.50554575610872
 21
9.14381488773816
 72
     1
 10
-35.50554575610872
 20
9.14381488773816
 11
-36.20213669417421
 21
9.931546673031875
 72
     1
 10
-36.20213669417421
 20
9.931546673031875
 11
-36.89872763223991
 21
9.14381488773816
 72
     1
 10
-36.89872763223991
 20
9.14381488773816
 11
-38.30145184998813
 21
9.14381488773816
 72
     1
 10
-38.30145184998813
 20
9.14381488773816
 11
-36.90349880304783
 21
10.72467388151316
 72
     1
 10
-36.90349880304783
 20
10.72467388151316
 11
-38.20602843381531
 21
12.19762441154936
 72
     1
 10
-38.20602843381531
 20
12.19762441154936
 11
-36.80330421606601
 21
12.19762441154936
 72
     1
 10
-36.80330421606601
 20
12.19762441154936
 11
-36.20213669417421
 21
11.51780108999387
 72
     1
 10
-36.20213669417421
 20
11.51780108999387
 11
-35.60096917228142
 21
12.19762441154936
 72
     1
 10
-35.60096917228142
 20
12.19762441154936
 11
-34.1982449545342
 21
12.19762441154936
 97
       12
330
167
330
166
330
165
330
1C2
330
1C3
330
1BF
330
1C0
330
16B
330
16A
330
169
330
168
330
1C1
 75
     1
 76
     0
 52
45.0
 41
0.1
 77
     0
 78
     1
 53
45.0
 43
0.0
 44
0.0
 45
-0.0707106781186548
 46
0.0707106781186548
 79
     0
 98
        1
 10
0.0
 20
0.0
  0
HATCH
  5
241
330
71
100
AcDbEntity
  8
1
  6
Continuous
 62
     2
100
AcDbHatch
 10
0.0
 20
0.0
 30
0.0
210
0.0
220
0.0
230
1.0
  2
_USER
 70
     0
 71
     1
 91
        2
 92
        1
 93
        6
 72
     1
 10
-53.21598036868022
 20
10.08689312888197
 11
-53.9747479564605
 21
10.08689312888197
 72
     1
 10
-53.9747479564605
 20
10.08689312888197
 11
-53.9747479564605
 21
9.14381488773816
 72
     1
 10
-53.9747479564605
 20
9.14381488773816
 11
-55.21525236671462
 21
9.14381488773816
 72
     1
 10
-55.21525236671462
 20
9.14381488773816
 11
-55.21525236671462
 21
12.19762441154936
 72
     1
 10
-55.21525236671462
 20
12.19762441154936
 11
-53.21598036868022
 21
12.19762441154936
 72
     2
 10
-53.21598036868022
 20
11.14225877021568
 40
1.05536564133371
 50
270.0
 51
450.0
 73
     0
 97
        6
330
18F
330
18E
330
19B
330
19A
330
190
330
1E0
 92
       16
 93
        4
 72
     2
 10
-53.65745289491861
 20
11.18165474143817
 40
0.35286382467112
 50
270.0
 51
450.0
 73
     1
 72
     1
 10
-53.65745289491861
 20
11.53451856610926
 11
-53.9747479564605
 21
11.53451856610926
 72
     1
 10
-53.9747479564605
 20
11.53451856610926
 11
-53.9747479564605
 21
10.82879091676705
 72
     1
 10
-53.9747479564605
 20
10.82879091676705
 11
-53.65745289491861
 21
10.82879091676705
 97
        4
330
1F4
330
18C
330
19C
330
18D
 75
     1
 76
     0
 52
45.0
 41
0.1
 77
     0
 78
     1
 53
45.0
 43
0.0
 44
0.0
 45
-0.0707106781186548
 46
0.0707106781186548
 79
     0
 98
        1
 10
0.0
 20
0.0
  0
HATCH
  5
242
330
71
100
AcDbEntity
  8
1
  6
Continuous
 62
     2
100
AcDbHatch
 10
0.0
 20
0.0
 30
0.0
210
0.0
220
0.0
230
1.0
  2
_USER
 70
     0
 71
     1
 91
        2
 92
        1
 93
        6
 72
     1
 10
-53.21598036868022
 20
10.08689312888197
 11
-53.9747479564605
 21
10.08689312888197
 72
     1
 10
-53.9747479564605
 20
10.08689312888197
 11
-53.9747479564605
 21
9.14381488773816
 72
     1
 10
-53.9747479564605
 20
9.14381488773816
 11
-55.21525236671462
 21
9.14381488773816
 72
     1
 10
-55.21525236671462
 20
9.14381488773816
 11
-55.21525236671462
 21
12.19762441154936
 72
     1
 10
-55.21525236671462
 20
12.19762441154936
 11
-53.21598036868022
 21
12.19762441154936
 72
     2
 10
-53.21598036868022
 20
11.14225877021568
 40
1.05536564133371
 50
270.0
 51
450.0
 73
     0
 97
        6
330
18F
330
18E
330
19B
330
19A
330
190
330
1E0
 92
       16
 93
        4
 72
     2
 10
-53.65745289491861
 20
11.18165474143817
 40
0.35286382467112
 50
270.0
 51
450.0
 73
     1
 72
     1
 10
-53.65745289491861
 20
11.53451856610926
 11
-53.9747479564605
 21
11.53451856610926
 72
     1
 10
-53.9747479564605
 20
11.53451856610926
 11
-53.9747479564605
 21
10.82879091676705
 72
     1
 10
-53.9747479564605
 20
10.82879091676705
 11
-53.65745289491861
 21
10.82879091676705
 97
        4
330
1F4
330
18C
330
19C
330
18D
 75
     1
 76
     0
 52
45.0
 41
0.1
 77
     0
 78
     1
 53
45.0
 43
0.0
 44
0.0
 45
-0.0707106781186548
 46
0.0707106781186548
 79
     0
 98
        1
 10
0.0
 20
0.0
  0
HATCH
  5
243
330
71
100
AcDbEntity
  8
1
  6
Continuous
 62
     2
100
AcDbHatch
 10
0.0
 20
0.0
 30
0.0
210
0.0
220
0.0
230
1.0
  2
_USER
 70
     0
 71
     1
 91
        2
 92
        1
 93
        4
 72
     2
 10
-50.65943762032111
 20
6.772954163166361
 40
2.065479772208564
 50
62.45185182430654
 51
117.5481481756666
 73
     1
 72
     2
 10
-50.94037751215441
 20
7.311529173469154
 40
1.45803408365149
 50
117.5481481756624
 51
242.4518518243375
 73
     1
 72
     2
 10
-50.65943762032111
 20
7.850104183772459
 40
2.065479772208513
 50
242.4518518243401
 51
297.5481481756869
 73
     1
 72
     2
 10
-50.37849772848782
 20
7.311529173469154
 40
1.458034083652006
 50
297.5481481757013
 51
422.4518518242987
 73
     1
 97
        4
330
1EC
330
1EB
330
1ED
330
1EA
 92
       16
 93
        4
 72
     2
 10
-50.85917765666753
 20
7.311529173469154
 40
0.7717997786797003
 50
321.879580202842
 51
398.120419797153
 73
     1
 72
     2
 10
-50.65943762032111
 20
7.468260351589663
 40
0.5179085730132943
 50
38.12041979714752
 51
141.8795802028598
 73
     1
 72
     2
 10
-50.45969758397501
 20
7.311529173469154
 40
0.7717997786794744
 50
141.8795802028369
 51
218.120419797168
 73
     1
 72
     2
 10
-50.65943762032111
 20
7.154797995349156
 40
0.5179085730137466
 50
218.1204197971922
 51
321.8795802028005
 73
     1
 97
        4
330
208
330
205
330
206
330
207
 75
     1
 76
     0
 52
45.0
 41
0.1
 77
     0
 78
     1
 53
45.0
 43
0.0
 44
0.0
 45
-0.0707106781186548
 46
0.0707106781186548
 79
     0
 98
        1
 10
0.0
 20
0.0
  0
HATCH
  5
244
330
71
100
AcDbEntity
  8
1
  6
Continuous
 62
     2
100
AcDbHatch
 10
0.0
 20
0.0
 30
0.0
210
0.0
220
0.0
230
1.0
  2
_USER
 70
     0
 71
     1
 91
        2
 92
        1
 93
        4
 72
     2
 10
-50.65943762032111
 20
6.772954163166361
 40
2.065479772208564
 50
62.45185182430654
 51
117.5481481756666
 73
     1
 72
     2
 10
-50.94037751215441
 20
7.311529173469154
 40
1.45803408365149
 50
117.5481481756624
 51
242.4518518243375
 73
     1
 72
     2
 10
-50.65943762032111
 20
7.850104183772459
 40
2.065479772208513
 50
242.4518518243401
 51
297.5481481756869
 73
     1
 72
     2
 10
-50.37849772848782
 20
7.311529173469154
 40
1.458034083652006
 50
297.5481481757013
 51
422.4518518242987
 73
     1
 97
        4
330
1EC
330
1EB
330
1ED
330
1EA
 92
       16
 93
        4
 72
     2
 10
-50.85917765666753
 20
7.311529173469154
 40
0.7717997786797003
 50
321.879580202842
 51
398.120419797153
 73
     1
 72
     2
 10
-50.65943762032111
 20
7.468260351589663
 40
0.5179085730132943
 50
38.12041979714752
 51
141.8795802028598
 73
     1
 72
     2
 10
-50.45969758397501
 20
7.311529173469154
 40
0.7717997786794744
 50
141.8795802028369
 51
218.120419797168
 73
     1
 72
     2
 10
-50.65943762032111
 20
7.154797995349156
 40
0.5179085730137466
 50
218.1204197971922
 51
321.8795802028005
 73
     1
 97
        4
330
208
330
205
330
206
330
207
 75
     1
 76
     0
 52
45.0
 41
0.1
 77
     0
 78
     1
 53
45.0
 43
0.0
 44
0.0
 45
-0.0707106781186548
 46
0.0707106781186548
 79
     0
 98
        1
 10
0.0
 20
0.0
  0
HATCH
  5
245
330
71
100
AcDbEntity
  8
1
  6
Continuous
 62
     2
100
AcDbHatch
 10
0.0
 20
0.0
 30
0.0
210
0.0
220
0.0
230
1.0
  2
_USER
 70
     0
 71
     1
 91
        2
 92
        1
 93
       12
 72
     1
 10
-43.76444242591182
 20
11.49961080610638
 11
-45.1003702523395
 21
11.49961080610638
 72
     1
 10
-45.1003702523395
 20
11.49961080610638
 11
-45.1003702523395
 21
11.01972645236467
 72
     1
 10
-45.1003702523395
 20
11.01972645236467
 11
-43.76444242591182
 21
11.01972645236467
 72
     1
 10
-43.76444242591182
 20
11.01972645236467
 11
-43.76444242591182
 21
10.32171284692237
 72
     1
 10
-43.76444242591182
 20
10.32171284692237
 11
-45.1003702523395
 21
10.32171284692237
 72
     1
 10
-45.1003702523395
 20
10.32171284692237
 11
-45.1003702523395
 21
9.841828493180657
 72
     1
 10
-45.1003702523395
 20
9.841828493180657
 11
-43.76444242591182
 21
9.841828493180657
 72
     1
 10
-43.76444242591182
 20
9.841828493180657
 11
-43.76444242591182
 21
9.14381488773816
 72
     1
 10
-43.76444242591182
 20
9.14381488773816
 11
-46.91476214969282
 21
9.14381488773816
 72
     2
 10
-46.91476214969282
 20
10.67071964964347
 40
1.52690476190589
 50
90.0
 51
270.0
 73
     0
 72
     1
 10
-46.91476214969282
 20
12.19762441154936
 11
-43.76444242591182
 21
12.19762441154936
 72
     1
 10
-43.76444242591182
 20
12.19762441154936
 11
-43.76444242591182
 21
11.49961080610638
 97
       12
330
1A3
330
1F5
330
1A4
330
1A5
330
1A6
330
1A7
330
184
330
183
330
182
330
181
330
1A8
330
1A2
 92
       16
 93
        4
 72
     2
 10
-46.69849013952762
 20
10.82745082776395
 40
0.517908573013521
 50
38.12041979714382
 51
141.8795802028489
 73
     1
 72
     2
 10
-46.49875010318132
 20
10.67071964964347
 40
0.7717997786796724
 50
141.8795802028404
 51
218.120419797156
 73
     1
 72
     2
 10
-46.69849013952762
 20
10.51398847152305
 40
0.5179085730134372
 50
218.1204197971511
 51
321.8795802028562
 73
     1
 72
     2
 10
-46.89823017587381
 20
10.67071964964347
 40
0.7717997786796351
 50
321.879580202844
 51
398.1204197971596
 73
     1
 97
        4
330
1EF
330
1EE
330
1E9
330
1E8
 75
     1
 76
     0
 52
45.0
 41
0.1
 77
     0
 78
     1
 53
45.0
 43
0.0
 44
0.0
 45
-0.0707106781186548
 46
0.0707106781186548
 79
     0
 98
        1
 10
0.0
 20
0.0
  0
HATCH
  5
246
330
71
100
AcDbEntity
  8
1
  6
Continuous
 62
     2
100
AcDbHatch
 10
0.0
 20
0.0
 30
0.0
210
0.0
220
0.0
230
1.0
  2
_USER
 70
     0
 71
     1
 91
        2
 92
        1
 93
       12
 72
     1
 10
-43.76444242591182
 20
11.49961080610638
 11
-45.1003702523395
 21
11.49961080610638
 72
     1
 10
-45.1003702523395
 20
11.49961080610638
 11
-45.1003702523395
 21
11.01972645236467
 72
     1
 10
-45.1003702523395
 20
11.01972645236467
 11
-43.76444242591182
 21
11.01972645236467
 72
     1
 10
-43.76444242591182
 20
11.01972645236467
 11
-43.76444242591182
 21
10.32171284692237
 72
     1
 10
-43.76444242591182
 20
10.32171284692237
 11
-45.1003702523395
 21
10.32171284692237
 72
     1
 10
-45.1003702523395
 20
10.32171284692237
 11
-45.1003702523395
 21
9.841828493180657
 72
     1
 10
-45.1003702523395
 20
9.841828493180657
 11
-43.76444242591182
 21
9.841828493180657
 72
     1
 10
-43.76444242591182
 20
9.841828493180657
 11
-43.76444242591182
 21
9.14381488773816
 72
     1
 10
-43.76444242591182
 20
9.14381488773816
 11
-46.91476214969282
 21
9.14381488773816
 72
     2
 10
-46.91476214969282
 20
10.67071964964347
 40
1.52690476190589
 50
90.0
 51
270.0
 73
     0
 72
     1
 10
-46.91476214969282
 20
12.19762441154936
 11
-43.76444242591182
 21
12.19762441154936
 72
     1
 10
-43.76444242591182
 20
12.19762441154936
 11
-43.76444242591182
 21
11.49961080610638
 97
       12
330
1A3
330
1F5
330
1A4
330
1A5
330
1A6
330
1A7
330
184
330
183
330
182
330
181
330
1A8
330
1A2
 92
       16
 93
        4
 72
     2
 10
-46.69849013952762
 20
10.82745082776395
 40
0.517908573013521
 50
38.12041979714382
 51
141.8795802028489
 73
     1
 72
     2
 10
-46.49875010318132
 20
10.67071964964347
 40
0.7717997786796724
 50
141.8795802028404
 51
218.120419797156
 73
     1
 72
     2
 10
-46.69849013952762
 20
10.51398847152305
 40
0.5179085730134372
 50
218.1204197971511
 51
321.8795802028562
 73
     1
 72
     2
 10
-46.89823017587381
 20
10.67071964964347
 40
0.7717997786796351
 50
321.879580202844
 51
398.1204197971596
 73
     1
 97
        4
330
1EF
330
1EE
330
1E9
330
1E8
 75
     1
 76
     0
 52
45.0
 41
0.1
 77
     0
 78
     1
 53
45.0
 43
0.0
 44
0.0
 45
-0.0707106781186548
 46
0.0707106781186548
 79
     0
 98
        1
 10
0.0
 20
0.0
  0
HATCH
  5
247
330
71
100
AcDbEntity
  8
1
  6
Continuous
 62
     2
100
AcDbHatch
 10
0.0
 20
0.0
 30
0.0
210
0.0
220
0.0
230
1.0
  2
_USER
 70
     0
 71
     1
 91
        4
 92
        1
 93
        8
 72
     1
 10
-55.69236944758143
 20
11.77337979614737
 11
-55.69236944758143
 21
6.208869026947156
 72
     2
 10
-56.11661406296531
 20
6.208869026947156
 40
0.4242446153832873
 50
0.0
 51
90.0
 73
     0
 72
     1
 10
-56.11661406296531
 20
5.784624411563868
 11
-61.58992615368211
 21
5.784624411563868
 72
     2
 10
-61.58992615368211
 20
6.208869026947156
 40
0.4242446153828112
 50
90.0
 51
180.0
 73
     0
 72
     1
 10
-62.01417076906492
 20
6.208869026947156
 11
-62.01417076906492
 21
11.77337979614737
 72
     2
 10
-61.58992615368211
 20
11.77337979614737
 40
0.4242446153837989
 50
180.0
 51
270.0
 73
     0
 72
     1
 10
-61.58992615368211
 20
12.19762441153117
 11
-56.11661406296531
 21
12.19762441153117
 72
     2
 10
-56.11661406296531
 20
11.77337979614737
 40
0.4242446153838841
 50
270.0
 51
360.0
 73
     0
 97
        8
330
197
330
1E5
330
198
330
1F0
330
195
330
1E7
330
196
330
1E6
 92
       16
 93
        1
 72
     2
 10
-58.97034050316461
 20
9.454497567791861
 40
0.4709789327785074
 50
0.0
 51
360.0
 73
     1
 97
        1
330
20B
 92
       16
 93
        8
 72
     2
 10
-58.42048279040392
 20
8.345355967823451
 40
0.3157169230765328
 50
115.3740086783519
 51
180.0
 73
     1
 72
     1
 10
-58.73619971348072
 20
8.345355967823451
 11
-58.73619971348072
 21
7.763504561128372
 72
     2
 10
-58.42048279040392
 20
7.763504561128372
 40
0.3157169230767991
 50
180.0
 51
269.8110329574542
 73
     1
 72
     2
 10
-58.4148666550939
 20
9.46633950869736
 40
2.018561131933265
 50
269.8110329575858
 51
450.1889670424142
 73
     1
 72
     2
 10
-58.42048279040392
 20
11.16917445626646
 40
0.3157169230760746
 50
90.18896704254594
 51
180.0
 73
     1
 72
     1
 10
-58.73619971348072
 20
11.16917445626646
 11
-58.73619971348072
 21
10.56363916775968
 72
     2
 10
-58.42048279040392
 20
10.56363916775968
 40
0.3157169230767991
 50
180.0
 51
244.6259913216483
 73
     1
 72
     2
 10
-58.9465254884918
 20
9.454497567791861
 40
0.911848150144459
 50
295.3740086781925
 51
424.6259913218236
 73
     0
 97
        8
330
1FD
330
15E
330
1FA
330
1FB
330
1D9
330
15D
330
1FC
330
1D8
 92
       16
 93
       12
 72
     2
 10
-60.99603147693563
 20
6.812896890197465
 40
0.3157169230756836
 50
180.0
 51
270.0
 73
     1
 72
     1
 10
-60.99603147693563
 20
6.497179967120758
 11
-59.520198215926
 21
6.497179967120758
 72
     2
 10
-59.520198215926
 20
6.812896890197465
 40
0.3157169230767076
 50
270.0
 51
360.0
 73
     1
 72
     1
 10
-59.20448129284941
 20
6.812896890197465
 11
-59.20448129284941
 21
8.34366782172907
 72
     2
 10
-59.520198215926
 20
8.34366782172907
 40
0.315716923076593
 50
0.0
 51
64.8055893514591
 73
     1
 72
     2
 10
-58.99761376835102
 20
9.454497567791861
 40
0.9118975235576118
 50
115.1944106485114
 51
244.8055893514727
 73
     0
 72
     2
 10
-59.520198215926
 20
10.56532731385406
 40
0.3157169230761249
 50
295.1944106485408
 51
360.0
 73
     1
 72
     1
 10
-59.20448129284941
 20
10.56532731385406
 11
-59.20448129284941
 21
11.16935193291457
 72
     2
 10
-59.520198215926
 20
11.16935193291457
 40
0.315716923076593
 50
0.0
 51
90.0
 73
     1
 72
     1
 10
-59.520198215926
 20
11.48506885599076
 11
-60.99603147693563
 21
11.48506885599076
 72
     2
 10
-60.99603147693563
 20
11.16935193291457
 40
0.3157169230761898
 50
90.0
 51
180.0
 73
     1
 72
     1
 10
-61.31174840001131
 20
11.16935193291457
 11
-61.31174840001131
 21
6.812896890197465
 97
       12
330
1E1
330
199
330
1E4
330
194
330
1F1
330
1F2
330
1E3
330
193
330
1E2
330
192
330
1F3
330
191
 75
     1
 76
     0
 52
45.0
 41
0.1
 77
     0
 78
     1
 53
45.0
 43
0.0
 44
0.0
 45
-0.0707106781186548
 46
0.0707106781186548
 79
     0
 98
        1
 10
0.0
 20
0.0
  0
HATCH
  5
248
330
71
100
AcDbEntity
  8
1
  6
Continuous
 62
     2
100
AcDbHatch
 10
0.0
 20
0.0
 30
0.0
210
0.0
220
0.0
230
1.0
  2
_USER
 70
     0
 71
     1
 91
        4
 92
        1
 93
        8
 72
     1
 10
-55.69236944758143
 20
11.77337979614737
 11
-55.69236944758143
 21
6.208869026947156
 72
     2
 10
-56.11661406296531
 20
6.208869026947156
 40
0.4242446153832873
 50
0.0
 51
90.0
 73
     0
 72
     1
 10
-56.11661406296531
 20
5.784624411563868
 11
-61.58992615368211
 21
5.784624411563868
 72
     2
 10
-61.58992615368211
 20
6.208869026947156
 40
0.4242446153828112
 50
90.0
 51
180.0
 73
     0
 72
     1
 10
-62.01417076906492
 20
6.208869026947156
 11
-62.01417076906492
 21
11.77337979614737
 72
     2
 10
-61.58992615368211
 20
11.77337979614737
 40
0.4242446153837989
 50
180.0
 51
270.0
 73
     0
 72
     1
 10
-61.58992615368211
 20
12.19762441153117
 11
-56.11661406296531
 21
12.19762441153117
 72
     2
 10
-56.11661406296531
 20
11.77337979614737
 40
0.4242446153838841
 50
270.0
 51
360.0
 73
     0
 97
        8
330
197
330
1E5
330
198
330
1F0
330
195
330
1E7
330
196
330
1E6
 92
       16
 93
        1
 72
     2
 10
-58.97034050316461
 20
9.454497567791861
 40
0.4709789327785074
 50
0.0
 51
360.0
 73
     1
 97
        1
330
20B
 92
       16
 93
        8
 72
     2
 10
-58.42048279040392
 20
8.345355967823451
 40
0.3157169230765328
 50
115.3740086783519
 51
180.0
 73
     1
 72
     1
 10
-58.73619971348072
 20
8.345355967823451
 11
-58.73619971348072
 21
7.763504561128372
 72
     2
 10
-58.42048279040392
 20
7.763504561128372
 40
0.3157169230767991
 50
180.0
 51
269.8110329574542
 73
     1
 72
     2
 10
-58.4148666550939
 20
9.46633950869736
 40
2.018561131933265
 50
269.8110329575858
 51
450.1889670424142
 73
     1
 72
     2
 10
-58.42048279040392
 20
11.16917445626646
 40
0.3157169230760746
 50
90.18896704254594
 51
180.0
 73
     1
 72
     1
 10
-58.73619971348072
 20
11.16917445626646
 11
-58.73619971348072
 21
10.56363916775968
 72
     2
 10
-58.42048279040392
 20
10.56363916775968
 40
0.3157169230767991
 50
180.0
 51
244.6259913216483
 73
     1
 72
     2
 10
-58.9465254884918
 20
9.454497567791861
 40
0.911848150144459
 50
295.3740086781925
 51
424.6259913218236
 73
     0
 97
        8
330
1FD
330
15E
330
1FA
330
1FB
330
1D9
330
15D
330
1FC
330
1D8
 92
       16
 93
       12
 72
     2
 10
-60.99603147693563
 20
6.812896890197465
 40
0.3157169230756836
 50
180.0
 51
270.0
 73
     1
 72
     1
 10
-60.99603147693563
 20
6.497179967120758
 11
-59.520198215926
 21
6.497179967120758
 72
     2
 10
-59.520198215926
 20
6.812896890197465
 40
0.3157169230767076
 50
270.0
 51
360.0
 73
     1
 72
     1
 10
-59.20448129284941
 20
6.812896890197465
 11
-59.20448129284941
 21
8.34366782172907
 72
     2
 10
-59.520198215926
 20
8.34366782172907
 40
0.315716923076593
 50
0.0
 51
64.8055893514591
 73
     1
 72
     2
 10
-58.99761376835102
 20
9.454497567791861
 40
0.9118975235576118
 50
115.1944106485114
 51
244.8055893514727
 73
     0
 72
     2
 10
-59.520198215926
 20
10.56532731385406
 40
0.3157169230761249
 50
295.1944106485408
 51
360.0
 73
     1
 72
     1
 10
-59.20448129284941
 20
10.56532731385406
 11
-59.20448129284941
 21
11.16935193291457
 72
     2
 10
-59.520198215926
 20
11.16935193291457
 40
0.315716923076593
 50
0.0
 51
90.0
 73
     1
 72
     1
 10
-59.520198215926
 20
11.48506885599076
 11
-60.99603147693563
 21
11.48506885599076
 72
     2
 10
-60.99603147693563
 20
11.16935193291457
 40
0.3157169230761898
 50
90.0
 51
180.0
 73
     1
 72
     1
 10
-61.31174840001131
 20
11.16935193291457
 11
-61.31174840001131
 21
6.812896890197465
 97
       12
330
1E1
330
199
330
1E4
330
194
330
1F1
330
1F2
330
1E3
330
193
330
1E2
330
192
330
1F3
330
191
 75
     1
 76
     0
 52
45.0
 41
0.1
 77
     0
 78
     1
 53
45.0
 43
0.0
 44
0.0
 45
-0.0707106781186548
 46
0.0707106781186548
 79
     0
 98
        1
 10
0.0
 20
0.0
  0
HATCH
  5
249
330
71
100
AcDbEntity
  8
1
  6
Continuous
 62
     2
100
AcDbHatch
 10
0.0
 20
0.0
 30
0.0
210
0.0
220
0.0
230
1.0
  2
_USER
 70
     0
 71
     1
 91
        1
 92
        1
 93
       18
 72
     1
 10
-34.10282153836042
 20
8.05316862925136
 11
-34.9139205758338
 21
8.05316862925136
 72
     1
 10
-34.9139205758338
 20
8.05316862925136
 11
-34.9139205758338
 21
5.784624411563868
 72
     1
 10
-34.9139205758338
 20
5.784624411563868
 11
-36.10671327800151
 21
5.784624411563868
 72
     1
 10
-36.10671327800151
 20
5.784624411563868
 11
-36.10671327800151
 21
8.05316862925136
 72
     1
 10
-36.10671327800151
 20
8.05316862925136
 11
-37.21035257756961
 21
8.05316862925136
 72
     2
 10
-37.21035257756961
 20
7.098645622425266
 40
0.9545230068260935
 50
90.0
 51
109.337143219432
 73
     1
 72
     2
 10
-37.35702257567331
 20
7.516600602808154
 40
0.5115800601944143
 50
109.3371432194853
 51
151.4785267424225
 73
     1
 72
     2
 10
-36.97966531759192
 20
7.311529173469154
 40
0.9410597353348924
 50
151.4785267423624
 51
208.5214732576695
 73
     1
 72
     2
 10
-37.35702257567331
 20
7.106457744130665
 40
0.5115800601960215
 50
208.5214732576866
 51
246.6277221118442
 73
     1
 72
     2
 10
-37.20058254297021
 20
7.468449762840663
 40
0.9059297849852829
 50
246.6277221118178
 51
288.4480761180817
 73
     1
 72
     2
 10
-37.61875027663211
 20
8.721995538877252
 40
2.227384008972746
 50
288.4480761181335
 51
301.9309089499397
 73
     1
 72
     1
 10
-36.4406952346082
 20
6.831644819727472
 11
-36.4406952346082
 21
5.959127812924152
 72
     2
 10
-37.77662315172492
 20
10.62421011872556
 40
4.852596863498828
 50
74.02000874166129
 51
84.8418552303636
 73
     0
 72
     2
 10
-37.4877670569891
 20
7.424319535503969
 40
1.639695123940448
 50
84.84185523032356
 51
164.9381082228988
 73
     0
 72
     2
 10
-37.90689490045071
 20
7.311529173469154
 40
1.205656168393002
 50
164.9381082229041
 51
195.0618917770972
 73
     0
 72
     2
 10
-37.4877670569891
 20
7.198738811434254
 40
1.639695123940214
 50
195.061891777105
 51
270.0
 73
     0
 72
     1
 10
-37.4877670569891
 20
8.838433935374468
 11
-34.10282153836042
 21
8.838433935374951
 72
     1
 10
-34.10282153836042
 20
8.838433935374951
 11
-34.10282153836042
 21
8.05316862925136
 97
       18
330
160
330
1F6
330
1F7
330
1DF
330
1DE
330
1C4
330
1DD
330
1DC
330
1F8
330
1DB
330
1F9
330
1DA
330
1C5
330
15F
330
164
330
163
330
162
330
161
 75
     1
 76
     0
 52
45.0
 41
0.1
 77
     0
 78
     1
 53
45.0
 43
0.0
 44
0.0
 45
-0.0707106781186548
 46
0.0707106781186548
 79
     0
 98
        1
 10
0.0
 20
0.0
  0
HATCH
  5
24A
330
71
100
AcDbEntity
  8
1
  6
Continuous
 62
     2
100
AcDbHatch
 10
0.0
 20
0.0
 30
0.0
210
0.0
220
0.0
230
1.0
  2
_USER
 70
     0
 71
     1
 91
        1
 92
        1
 93
       18
 72
     1
 10
-34.10282153836042
 20
8.05316862925136
 11
-34.9139205758338
 21
8.05316862925136
 72
     1
 10
-34.9139205758338
 20
8.05316862925136
 11
-34.9139205758338
 21
5.784624411563868
 72
     1
 10
-34.9139205758338
 20
5.784624411563868
 11
-36.10671327800151
 21
5.784624411563868
 72
     1
 10
-36.10671327800151
 20
5.784624411563868
 11
-36.10671327800151
 21
8.05316862925136
 72
     1
 10
-36.10671327800151
 20
8.05316862925136
 11
-37.21035257756961
 21
8.05316862925136
 72
     2
 10
-37.21035257756961
 20
7.098645622425266
 40
0.9545230068260935
 50
90.0
 51
109.337143219432
 73
     1
 72
     2
 10
-37.35702257567331
 20
7.516600602808154
 40
0.5115800601944143
 50
109.3371432194853
 51
151.4785267424225
 73
     1
 72
     2
 10
-36.97966531759192
 20
7.311529173469154
 40
0.9410597353348924
 50
151.4785267423624
 51
208.5214732576695
 73
     1
 72
     2
 10
-37.35702257567331
 20
7.106457744130665
 40
0.5115800601960215
 50
208.5214732576866
 51
246.6277221118442
 73
     1
 72
     2
 10
-37.20058254297021
 20
7.468449762840663
 40
0.9059297849852829
 50
246.6277221118178
 51
288.4480761180817
 73
     1
 72
     2
 10
-37.61875027663211
 20
8.721995538877252
 40
2.227384008972746
 50
288.4480761181335
 51
301.9309089499397
 73
     1
 72
     1
 10
-36.4406952346082
 20
6.831644819727472
 11
-36.4406952346082
 21
5.959127812924152
 72
     2
 10
-37.77662315172492
 20
10.62421011872556
 40
4.852596863498828
 50
74.02000874166129
 51
84.8418552303636
 73
     0
 72
     2
 10
-37.4877670569891
 20
7.424319535503969
 40
1.639695123940448
 50
84.84185523032356
 51
164.9381082228988
 73
     0
 72
     2
 10
-37.90689490045071
 20
7.311529173469154
 40
1.205656168393002
 50
164.9381082229041
 51
195.0618917770972
 73
     0
 72
     2
 10
-37.4877670569891
 20
7.198738811434254
 40
1.639695123940214
 50
195.061891777105
 51
270.0
 73
     0
 72
     1
 10
-37.4877670569891
 20
8.838433935374468
 11
-34.10282153836042
 21
8.838433935374951
 72
     1
 10
-34.10282153836042
 20
8.838433935374951
 11
-34.10282153836042
 21
8.05316862925136
 97
       18
330
160
330
1F6
330
1F7
330
1DF
330
1DE
330
1C4
330
1DD
330
1DC
330
1F8
330
1DB
330
1F9
330
1DA
330
1C5
330
15F
330
164
330
163
330
162
330
161
 75
     1
 76
     0
 52
45.0
 41
0.1
 77
     0
 78
     1
 53
45.0
 43
0.0
 44
0.0
 45
-0.0707106781186548
 46
0.0707106781186548
 79
     0
 98
        1
 10
0.0
 20
0.0
  0
HATCH
  5
24B
330
71
100
AcDbEntity
  8
1
  6
Continuous
 62
     2
100
AcDbHatch
 10
0.0
 20
0.0
 30
0.0
210
0.0
220
0.0
230
1.0
  2
_USER
 70
     0
 71
     1
 91
        1
 92
        1
 93
       14
 72
     2
 10
-53.59046853624201
 20
7.198738811434254
 40
1.639695123940506
 50
84.84185523036261
 51
164.9381082228865
 73
     1
 72
     2
 10
-54.00959637970482
 20
7.311529173469154
 40
1.205656168390944
 50
164.9381082228765
 51
195.0618917770948
 73
     1
 72
     2
 10
-53.59046853624201
 20
7.424319535503969
 40
1.639695123939394
 50
195.0618917770895
 51
275.1581447696393
 73
     1
 72
     2
 10
-53.87932463097792
 20
10.62421011872556
 40
4.852596863498142
 50
275.1581447696249
 51
285.9799912583529
 73
     1
 72
     1
 10
-52.54339671386012
 20
5.959127812924749
 11
-52.54339671386012
 21
6.831644819727956
 72
     2
 10
-53.721451755885
 20
8.721995538877849
 40
2.227384008972734
 50
58.0690910500407
 51
71.55192388186738
 73
     0
 72
     2
 10
-53.3032840222242
 20
7.468449762840663
 40
0.905929784984922
 50
71.5519238818424
 51
113.3722778881294
 73
     0
 72
     2
 10
-53.45972405492623
 20
7.106457744130665
 40
0.5115800601948092
 50
113.3722778881726
 51
151.4785267423049
 73
     0
 72
     2
 10
-53.08236679684592
 20
7.311529173469154
 40
0.9410597353332607
 50
151.4785267422945
 51
208.5214732577329
 73
     0
 72
     2
 10
-53.45972405492623
 20
7.516600602808154
 40
0.5115800601948779
 50
208.5214732576952
 51
246.6277221118009
 73
     0
 72
     2
 10
-53.3032840222242
 20
7.154608584097559
 40
0.9059297849853184
 50
246.6277221118706
 51
288.4480761181457
 73
     0
 72
     2
 10
-53.721451755885
 20
5.901062808060971
 40
2.227384008973478
 50
288.4480761181326
 51
301.9309089499593
 73
     0
 72
     1
 10
-52.54339671386012
 20
7.791413527210864
 11
-52.54339671386012
 21
8.663930534014156
 72
     2
 10
-53.87932463097792
 20
3.998848228213262
 40
4.852596863498068
 50
74.02000874164739
 51
84.84185523037506
 73
     1
 97
       14
330
1FE
330
1FF
330
200
330
201
330
1C6
330
1D7
330
1D6
330
1D5
330
202
330
203
330
1D4
330
204
330
1C7
330
1D3
 75
     1
 76
     0
 52
45.0
 41
0.1
 77
     0
 78
     1
 53
45.0
 43
0.0
 44
0.0
 45
-0.0707106781186548
 46
0.0707106781186548
 79
     0
 98
        1
 10
0.0
 20
0.0
  0
HATCH
  5
24C
330
71
100
AcDbEntity
  8
1
  6
Continuous
 62
     2
100
AcDbHatch
 10
0.0
 20
0.0
 30
0.0
210
0.0
220
0.0
230
1.0
  2
_USER
 70
     0
 71
     1
 91
        1
 92
        1
 93
       14
 72
     2
 10
-53.59046853624201
 20
7.198738811434254
 40
1.639695123940506
 50
84.84185523036261
 51
164.9381082228865
 73
     1
 72
     2
 10
-54.00959637970482
 20
7.311529173469154
 40
1.205656168390944
 50
164.9381082228765
 51
195.0618917770948
 73
     1
 72
     2
 10
-53.59046853624201
 20
7.424319535503969
 40
1.639695123939394
 50
195.0618917770895
 51
275.1581447696393
 73
     1
 72
     2
 10
-53.87932463097792
 20
10.62421011872556
 40
4.852596863498142
 50
275.1581447696249
 51
285.9799912583529
 73
     1
 72
     1
 10
-52.54339671386012
 20
5.959127812924749
 11
-52.54339671386012
 21
6.831644819727956
 72
     2
 10
-53.721451755885
 20
8.721995538877849
 40
2.227384008972734
 50
58.0690910500407
 51
71.55192388186738
 73
     0
 72
     2
 10
-53.3032840222242
 20
7.468449762840663
 40
0.905929784984922
 50
71.5519238818424
 51
113.3722778881294
 73
     0
 72
     2
 10
-53.45972405492623
 20
7.106457744130665
 40
0.5115800601948092
 50
113.3722778881726
 51
151.4785267423049
 73
     0
 72
     2
 10
-53.08236679684592
 20
7.311529173469154
 40
0.9410597353332607
 50
151.4785267422945
 51
208.5214732577329
 73
     0
 72
     2
 10
-53.45972405492623
 20
7.516600602808154
 40
0.5115800601948779
 50
208.5214732576952
 51
246.6277221118009
 73
     0
 72
     2
 10
-53.3032840222242
 20
7.154608584097559
 40
0.9059297849853184
 50
246.6277221118706
 51
288.4480761181457
 73
     0
 72
     2
 10
-53.721451755885
 20
5.901062808060971
 40
2.227384008973478
 50
288.4480761181326
 51
301.9309089499593
 73
     0
 72
     1
 10
-52.54339671386012
 20
7.791413527210864
 11
-52.54339671386012
 21
8.663930534014156
 72
     2
 10
-53.87932463097792
 20
3.998848228213262
 40
4.852596863498068
 50
74.02000874164739
 51
84.84185523037506
 73
     1
 97
       14
330
1FE
330
1FF
330
200
330
201
330
1C6
330
1D7
330
1D6
330
1D5
330
202
330
203
330
1D4
330
204
330
1C7
330
1D3
 75
     1
 76
     0
 52
45.0
 41
0.1
 77
     0
 78
     1
 53
45.0
 43
0.0
 44
0.0
 45
-0.0707106781186548
 46
0.0707106781186548
 79
     0
 98
        1
 10
0.0
 20
0.0
  0
ENDBLK
  5
73
330
71
100
AcDbEntity
  8
0
100
AcDbBlockEnd
  0
BLOCK
  5
75
330
74
100
AcDbEntity
  8
0
100
AcDbBlockBegin
  2
_punkt
 70
     0
 10
63.29397887112249
 20
-1.50887558845244
 30
0.0
  3
_punkt
  1

  0
LINE
  5
24D
330
74
100
AcDbEntity
  8
1
  6
Continuous
 62
     2
100
AcDbLine
 10
63.29397887112249
 20
-1.50887558845244
 30
0.0
 11
68.29397887112148
 21
-1.50887558845244
 31
0.0
  0
LINE
  5
24E
330
74
100
AcDbEntity
  8
1
  6
Continuous
 62
     2
100
AcDbLine
 10
63.29397887112249
 20
-1.50887558845244
 30
0.0
 11
63.29397887112249
 21
-6.50887558845255
 31
0.0
  0
ENDBLK
  5
76
330
74
100
AcDbEntity
  8
0
100
AcDbBlockEnd
  0
BLOCK
  5
7A
330
77
100
AcDbEntity
  8
0
100
AcDbBlockBegin
  2
A4I_CS
 70
     0
 10
63.29397887112249
 20
-6.50887558845255
 30
0.0
  3
A4I_CS
  1

  0
INSERT
  5
78
330
77
100
AcDbEntity
  8
1
100
AcDbBlockReference
  2
_rahmen
 10
63.29397887112249
 20
-6.50887558845255
 30
0.0
  0
INSERT
  5
79
330
77
100
AcDbEntity
  8
1
100
AcDbBlockReference
  2
_punkt
 10
63.29397887112249
 20
-1.50887558845244
 30
0.0
  0
ENDBLK
  5
7B
330
77
100
AcDbEntity
  8
0
100
AcDbBlockEnd
  0
BLOCK
  5
84
330
7C
100
AcDbEntity
  8
0
100
AcDbBlockBegin
  2
1
 70
     0
 10
0.0
 20
0.0
 30
0.0
  3
1
  1

  0
INSERT
  5
7D
330
7C
100
AcDbEntity
  8
0
100
AcDbBlockReference
  2
AllgSicht1
 10
3.00000000000085
 20
74.0
 30
0.0
  0
INSERT
  5
7E
330
7C
100
AcDbEntity
  8
0
100
AcDbBlockReference
  2
Drfsicht1
 10
-135.0
 20
86.99999999999488
 30
0.0
  0
INSERT
  5
7F
330
7C
100
AcDbEntity
  8
0
100
AcDbBlockReference
  2
Rckans1
 10
-22.00000190734778
 20
138.9000001251698
 30
0.0
  0
INSERT
  5
80
330
7C
100
AcDbEntity
  8
0
100
AcDbBlockReference
  2
SA_Links1
 10
-78.50000095366431
 20
138.9000001251698
 30
0.0
  0
INSERT
  5
81
330
7C
100
AcDbEntity
  8
0
100
AcDbBlockReference
  2
SA_Rechts1
 10
-191.4999990463304
 20
138.9000001251698
 30
0.0
  0
INSERT
  5
82
330
7C
100
AcDbEntity
  8
0
100
AcDbBlockReference
  2
Vordans1
 10
-135.0
 20
138.9000001251698
 30
0.0
  0
INSERT
  5
83
330
7C
100
AcDbEntity
  8
0
100
AcDbBlockReference
  2
A4I_CS
 10
63.29397887112249
 20
-6.50887558845255
 30
0.0
  0
ENDBLK
  5
85
330
7C
100
AcDbEntity
  8
0
100
AcDbBlockEnd
  0
BLOCK
  5
C3
330
BA
100
AcDbEntity
  8
0
100
AcDbBlockBegin
  2
*D17
 70
     1
 10
0.0
 20
0.0
 30
0.0
  3
*D17
  1

  0
LINE
  5
BB
330
BA
100
AcDbEntity
  8
1
  6
Continuous
 62
     2
100
AcDbLine
 10
-91.05759697890224
 20
74.69519544582555
 30
0.0
 11
-91.05759697890224
 21
86.60000000595036
 31
0.0
  0
LINE
  5
BC
330
BA
100
AcDbEntity
  8
1
  6
Continuous
 62
     2
100
AcDbLine
 10
-91.05759697890224
 20
86.60000000595036
 30
0.0
 11
-91.05759697890224
 21
87.40000000595035
 31
0.0
  0
LINE
  5
BD
330
BA
100
AcDbEntity
  8
1
  6
Continuous
 62
     2
100
AcDbLine
 10
-91.05759697890224
 20
87.40000000595035
 30
0.0
 11
-91.05759697890224
 21
94.40000000595035
 31
0.0
  0
LINE
  5
BE
330
BA
100
AcDbEntity
  8
1
  6
Continuous
 62
     2
100
AcDbLine
 10
-101.0575969789022
 20
86.60000000595036
 30
0.0
 11
-89.05759697890224
 21
86.60000000595036
 31
0.0
  0
LINE
  5
BF
330
BA
100
AcDbEntity
  8
1
  6
Continuous
 62
     2
100
AcDbLine
 10
-101.0575969789022
 20
87.40000000595035
 30
0.0
 11
-89.05759697890224
 21
87.40000000595035
 31
0.0
  0
SOLID
  5
C0
330
BA
100
AcDbEntity
  8
1
 62
     2
100
AcDbTrace
 10
-90.59681323734635
 20
83.10000000595036
 30
0.0
 11
-91.51838072045813
 21
83.10000000595036
 31
0.0
 12
-91.05759697890224
 22
86.60000000595036
 32
0.0
 13
-91.05759697890224
 23
86.60000000595036
 33
0.0
  0
SOLID
  5
C1
330
BA
100
AcDbEntity
  8
1
 62
     2
100
AcDbTrace
 10
-91.51838072045813
 20
90.90000000595035
 30
0.0
 11
-90.59681323734635
 21
90.90000000595035
 31
0.0
 12
-91.05759697890224
 22
87.40000000595035
 32
0.0
 13
-91.05759697890224
 23
87.40000000595035
 33
0.0
  0
MTEXT
  5
C2
330
BA
100
AcDbEntity
  8
1
 62
     3
100
AcDbMText
 10
-93.40759697890223
 20
74.69519544582555
 30
0.0
 40
3.5
 41
0.0
 71
     7
 72
     1
  1
0,8
  7
CONVERTER_11
 11
0.0
 21
1.0
 31
0.0
 73
     1
 44
0.60024009603842
  0
ENDBLK
  5
C4
330
BA
100
AcDbEntity
  8
0
100
AcDbBlockEnd
  0
BLOCK
  5
107
330
100
100
AcDbEntity
  8
0
100
AcDbBlockBegin
  2
*D18
 70
     1
 10
0.0
 20
0.0
 30
0.0
  3
*D18
  1

  0
LINE
  5
101
330
100
100
AcDbEntity
  8
1
  6
Continuous
 62
     2
100
AcDbLine
 10
-169.5000005722046
 20
106.0764803081791
 30
0.0
 11
-100.5000005722046
 21
106.0764803081791
 31
0.0
  0
LINE
  5
102
330
100
100
AcDbEntity
  8
1
  6
Continuous
 62
     2
100
AcDbLine
 10
-169.5000005722046
 20
122.39999995262
 30
0.0
 11
-169.5000005722046
 21
104.0764803081791
 31
0.0
  0
LINE
  5
103
330
100
100
AcDbEntity
  8
1
  6
Continuous
 62
     2
100
AcDbLine
 10
-100.5000005722046
 20
122.39999995262
 30
0.0
 11
-100.5000005722046
 21
104.0764803081791
 31
0.0
  0
SOLID
  5
104
330
100
100
AcDbEntity
  8
1
 62
     2
100
AcDbTrace
 10
-166.0000005722046
 20
106.537264049735
 30
0.0
 11
-166.0000005722046
 21
105.6156965666232
 31
0.0
 12
-169.5000005722046
 22
106.0764803081791
 32
0.0
 13
-169.5000005722046
 23
106.0764803081791
 33
0.0
  0
SOLID
  5
105
330
100
100
AcDbEntity
  8
1
 62
     2
100
AcDbTrace
 10
-104.0000005722046
 20
105.6156965666232
 30
0.0
 11
-104.0000005722046
 21
106.537264049735
 31
0.0
 12
-100.5000005722046
 22
106.0764803081791
 32
0.0
 13
-100.5000005722046
 23
106.0764803081791
 33
0.0
  0
MTEXT
  5
106
330
100
100
AcDbEntity
  8
1
 62
     3
100
AcDbMText
 10
-137.6250000000001
 20
108.0764803081791
 30
0.0
 40
3.5
 41
0.0
 71
     7
 72
     1
  1
69
  7
CONVERTER_11
 11
0.9999999999970619
 21
2.424068405545306E-6
 31
0.0
 73
     1
 44
0.60024009603842
  0
ENDBLK
  5
108
330
100
100
AcDbEntity
  8
0
100
AcDbBlockEnd
  0
BLOCK
  5
112
330
10B
100
AcDbEntity
  8
0
100
AcDbBlockBegin
  2
*D19
 70
     1
 10
0.0
 20
0.0
 30
0.0
  3
*D19
  1

  0
LINE
  5
10C
330
10B
100
AcDbEntity
  8
1
  6
Continuous
 62
     2
100
AcDbLine
 10
-91.05759697890227
 20
117.39999995262
 30
0.0
 11
-91.05759697890227
 21
160.3999999526201
 31
0.0
  0
LINE
  5
10D
330
10B
100
AcDbEntity
  8
1
  6
Continuous
 62
     2
100
AcDbLine
 10
-105.5000005722046
 20
117.39999995262
 30
0.0
 11
-89.05759697890227
 21
117.39999995262
 31
0.0
  0
LINE
  5
10E
330
10B
100
AcDbEntity
  8
1
  6
Continuous
 62
     2
100
AcDbLine
 10
-119.5000005722047
 20
160.3999999526201
 30
0.0
 11
-89.05759697890227
 21
160.3999999526201
 31
0.0
  0
SOLID
  5
10F
330
10B
100
AcDbEntity
  8
1
 62
     2
100
AcDbTrace
 10
-91.51838072045815
 20
120.89999995262
 30
0.0
 11
-90.59681323734638
 21
120.89999995262
 31
0.0
 12
-91.05759697890227
 22
117.39999995262
 32
0.0
 13
-91.05759697890227
 23
117.39999995262
 33
0.0
  0
SOLID
  5
110
330
10B
100
AcDbEntity
  8
1
 62
     2
100
AcDbTrace
 10
-90.59681323734638
 20
156.8999999526201
 30
0.0
 11
-91.51838072045815
 21
156.8999999526201
 31
0.0
 12
-91.05759697890227
 22
160.3999999526201
 32
0.0
 13
-91.05759697890227
 23
160.3999999526201
 33
0.0
  0
MTEXT
  5
111
330
10B
100
AcDbEntity
  8
1
 62
     3
100
AcDbMText
 10
-93.05759697890227
 20
136.4004602539571
 30
0.0
 40
3.5
 41
0.0
 71
     7
 72
     1
  1
43
  7
CONVERTER_11
 11
0.0
 21
1.0
 31
0.0
 73
     1
 44
0.60024009603842
  0
ENDBLK
  5
113
330
10B
100
AcDbEntity
  8
0
100
AcDbBlockEnd
  0
ENDSEC
  0
SECTION
  2
ENTITIES
  0
INSERT
  5
86
330
1F
100
AcDbEntity
  8
1
100
AcDbBlockReference
  2
1
 10
0.0
 20
0.0
 30
0.0
  0
ENDSEC
  0
SECTION
  2
OBJECTS
  0
DICTIONARY
  5
C
330
0
100
AcDbDictionary
281
     1
  3
ACAD_GROUP
350
D
  3
ACAD_LAYOUT
350
1A
  3
ACAD_MATERIAL
350
3B
  3
ACAD_MLEADERSTYLE
350
276
  3
ACAD_MLINESTYLE
350
17
  3
ACAD_PLOTSETTINGS
350
19
  3
ACAD_PLOTSTYLENAME
350
E
  3
ACAD_TABLESTYLE
350
275
  3
ACAD_VISUALSTYLE
350
2A
  0
DICTIONARY
  5
D
102
{ACAD_REACTORS
330
C
102
}
330
C
100
AcDbDictionary
281
     1
  0
DICTIONARY
  5
1A
102
{ACAD_REACTORS
330
C
102
}
330
C
100
AcDbDictionary
281
     1
  3
Layout1
350
1E
  3
Layout2
350
26
  3
Model
350
22
  0
DICTIONARY
  5
3B
102
{ACAD_REACTORS
330
C
102
}
330
C
100
AcDbDictionary
281
     1
  3
ByBlock
350
3D
  3
ByLayer
350
3C
  3
Global
350
3E
  0
DICTIONARY
  5
276
102
{ACAD_REACTORS
330
C
102
}
330
C
100
AcDbDictionary
281
     1
  0
DICTIONARY
  5
17
102
{ACAD_REACTORS
330
C
102
}
330
C
100
AcDbDictionary
281
     1
  3
Standard
350
18
  0
DICTIONARY
  5
19
102
{ACAD_REACTORS
330
C
102
}
330
C
100
AcDbDictionary
281
     1
  0
ACDBDICTIONARYWDFLT
  5
E
102
{ACAD_REACTORS
330
C
102
}
330
C
100
AcDbDictionary
281
     1
  3
Normal
350
F
100
AcDbDictionaryWithDefault
340
F
  0
DICTIONARY
  5
275
102
{ACAD_REACTORS
330
C
102
}
330
C
100
AcDbDictionary
281
     1
  0
DICTIONARY
  5
2A
102
{ACAD_REACTORS
330
C
102
}
330
C
100
AcDbDictionary
281
     1
  3
2dWireframe
350
2F
  3
3D Hidden
350
31
  3
3dWireframe
350
30
  3
Basic
350
32
  3
Brighten
350
36
  3
ColorChange
350
3A
  3
Conceptual
350
34
  3
Dim
350
35
  3
Facepattern
350
39
  3
Flat
350
2B
  3
FlatWithEdges
350
2C
  3
Gouraud
350
2D
  3
GouraudWithEdges
350
2E
  3
Linepattern
350
38
  3
Realistic
350
33
  3
Thicken
350
37
  0
LAYOUT
  5
1E
102
{ACAD_REACTORS
330
1A
102
}
330
1A
100
AcDbPlotSettings
  1

  2
none_device
  4

  6

 40
0.0
 41
0.0
 42
0.0
 43
0.0
 44
0.0
 45
0.0
 46
0.0
 47
0.0
 48
0.0
 49
0.0
140
0.0
141
0.0
142
1.0
143
1.0
 70
   688
 72
     0
 73
     0
 74
     5
  7

 75
    16
 76
     0
 77
     2
 78
   300
147
1.0
148
0.0
149
0.0
100
AcDbLayout
  1
Layout1
 70
     1
 71
     1
 10
0.0
 20
0.0
 11
12.0
 21
9.0
 12
0.0
 22
0.0
 32
0.0
 14
1.00000000000000E+20
 24
1.00000000000000E+20
 34
1.00000000000000E+20
 15
-1.00000000000000E+20
 25
-1.00000000000000E+20
 35
-1.00000000000000E+20
146
0.0
 13
0.0
 23
0.0
 33
0.0
 16
1.0
 26
0.0
 36
0.0
 17
0.0
 27
1.0
 37
0.0
 76
     0
330
1B
  0
LAYOUT
  5
26
102
{ACAD_REACTORS
330
1A
102
}
330
1A
100
AcDbPlotSettings
  1

  2
none_device
  4

  6

 40
0.0
 41
0.0
 42
0.0
 43
0.0
 44
0.0
 45
0.0
 46
0.0
 47
0.0
 48
0.0
 49
0.0
140
0.0
141
0.0
142
1.0
143
1.0
 70
   688
 72
     0
 73
     0
 74
     5
  7

 75
    16
 76
     0
 77
     2
 78
   300
147
1.0
148
0.0
149
0.0
100
AcDbLayout
  1
Layout2
 70
     1
 71
     2
 10
0.0
 20
0.0
 11
0.0
 21
0.0
 12
0.0
 22
0.0
 32
0.0
 14
0.0
 24
0.0
 34
0.0
 15
0.0
 25
0.0
 35
0.0
146
0.0
 13
0.0
 23
0.0
 33
0.0
 16
1.0
 26
0.0
 36
0.0
 17
0.0
 27
1.0
 37
0.0
 76
     0
330
23
  0
LAYOUT
  5
22
102
{ACAD_REACTORS
330
1A
102
}
330
1A
100
AcDbPlotSettings
  1

  2
none_device
  4

  6

 40
0.0
 41
0.0
 42
0.0
 43
0.0
 44
0.0
 45
0.0
 46
0.0
 47
0.0
 48
0.0
 49
0.0
140
0.0
141
0.0
142
1.0
143
1.0
 70
  1712
 72
     0
 73
     0
 74
     0
  7

 75
     0
 76
     0
 77
     2
 78
   300
147
1.0
148
0.0
149
0.0
100
AcDbLayout
  1
Model
 70
     1
 71
     0
 10
0.0
 20
0.0
 11
12.0
 21
9.0
 12
0.0
 22
0.0
 32
0.0
 14
-228.7060211288766
 24
-6.50887558845255
 34
0.0
 15
68.29397887112148
 25
203.4911244115476
 35
0.0
146
0.0
 13
0.0
 23
0.0
 33
0.0
 16
1.0
 26
0.0
 36
0.0
 17
0.0
 27
1.0
 37
0.0
 76
     0
330
1F
331
29
  0
MATERIAL
  5
3D
102
{ACAD_REACTORS
330
3B
102
}
102
{ACAD_XDICTIONARY
360
271
102
}
330
3B
100
AcDbMaterial
  1
ByBlock
  0
MATERIAL
  5
3C
102
{ACAD_REACTORS
330
3B
102
}
102
{ACAD_XDICTIONARY
360
26F
102
}
330
3B
100
AcDbMaterial
  1
ByLayer
  0
MATERIAL
  5
3E
102
{ACAD_REACTORS
330
3B
102
}
102
{ACAD_XDICTIONARY
360
273
102
}
330
3B
100
AcDbMaterial
  1
Global
  0
MLINESTYLE
  5
18
102
{ACAD_REACTORS
330
17
102
}
330
17
100
AcDbMlineStyle
  2
Standard
 70
     0
  3

 62
   256
 51
90.0
 52
90.0
 71
     2
 49
0.5
 62
   256
  6
BYLAYER
 49
-0.5
 62
   256
  6
BYLAYER
  0
ACDBPLACEHOLDER
  5
F
102
{ACAD_REACTORS
330
E
102
}
330
E
  0
VISUALSTYLE
  5
2F
102
{ACAD_REACTORS
330
2A
102
}
102
{ACAD_XDICTIONARY
360
257
102
}
330
2A
100
AcDbVisualStyle
  2
2dWireframe
 70
     4
 71
     0
 72
     2
 73
     0
 90
        0
 40
-0.6
 41
-30.0
 62
     5
 63
     7
421
 16777215
 74
     1
 91
        4
 64
     7
 65
   257
 75
     1
175
     1
 42
1.0
 92
        0
 66
   257
 43
1.0
 76
     1
 77
     6
 78
     2
 67
     7
 79
     5
170
     0
171
     0
290
     0
174
     0
 93
        1
 44
0.0
173
     0
291
     0
 45
0.0
1001
ACAD
1000
AcDbSavedByObjectVersion
1070
     0
  0
VISUALSTYLE
  5
31
102
{ACAD_REACTORS
330
2A
102
}
102
{ACAD_XDICTIONARY
360
25B
102
}
330
2A
100
AcDbVisualStyle
  2
3D Hidden
 70
     6
 71
     1
 72
     2
 73
     2
 90
        0
 40
-0.6
 41
-30.0
 62
     5
 63
     7
421
 16777215
 74
     2
 91
        2
 64
     7
 65
   257
 75
     2
175
     1
 42
40.0
 92
        0
 66
   257
 43
1.0
 76
     1
 77
     6
 78
     2
 67
     7
 79
     3
170
     0
171
     0
290
     0
174
     0
 93
        1
 44
0.0
173
     0
291
     0
 45
0.0
1001
ACAD
1000
AcDbSavedByObjectVersion
1070
     0
  0
VISUALSTYLE
  5
30
102
{ACAD_REACTORS
330
2A
102
}
102
{ACAD_XDICTIONARY
360
259
102
}
330
2A
100
AcDbVisualStyle
  2
3dWireframe
 70
     5
 71
     0
 72
     2
 73
     0
 90
        0
 40
-0.6
 41
-30.0
 62
     5
 63
     7
421
 16777215
 74
     1
 91
        4
 64
     7
 65
   257
 75
     1
175
     1
 42
1.0
 92
        0
 66
   257
 43
1.0
 76
     1
 77
     6
 78
     2
 67
     7
 79
     5
170
     0
171
     0
290
     0
174
     0
 93
        1
 44
0.0
173
     0
291
     0
 45
0.0
1001
ACAD
1000
AcDbSavedByObjectVersion
1070
     0
  0
VISUALSTYLE
  5
32
102
{ACAD_REACTORS
330
2A
102
}
102
{ACAD_XDICTIONARY
360
25D
102
}
330
2A
100
AcDbVisualStyle
  2
Basic
 70
     7
 71
     1
 72
     0
 73
     1
 90
        0
 40
-0.6
 41
-30.0
 62
     5
 63
     7
421
 16777215
 74
     0
 91
        4
 64
     7
 65
   257
 75
     1
175
     1
 42
1.0
 92
        8
 66
     7
 43
1.0
 76
     1
 77
     6
 78
     2
 67
     7
 79
     5
170
     0
171
     0
290
     0
174
     0
 93
        1
 44
0.0
173
     0
291
     1
 45
0.0
1001
ACAD
1000
AcDbSavedByObjectVersion
1070
     0
  0
VISUALSTYLE
  5
36
102
{ACAD_REACTORS
330
2A
102
}
102
{ACAD_XDICTIONARY
360
265
102
}
330
2A
100
AcDbVisualStyle
  2
Brighten
 70
    12
 71
     2
 72
     2
 73
     0
 90
        0
 40
-0.6
 41
-30.0
 62
     5
 63
     7
421
 16777215
 74
     1
 91
        4
 64
     7
 65
   257
 75
     1
175
     1
 42
1.0
 92
        8
 66
     7
 43
1.0
 76
     1
 77
     6
 78
     2
 67
     7
 79
     5
170
     0
171
     0
290
     0
174
     0
 93
        1
 44
50.0
173
     0
291
     1
 45
0.0
1001
ACAD
1000
AcDbSavedByObjectVersion
1070
     0
  0
VISUALSTYLE
  5
3A
102
{ACAD_REACTORS
330
2A
102
}
102
{ACAD_XDICTIONARY
360
26D
102
}
330
2A
100
AcDbVisualStyle
  2
ColorChange
 70
    16
 71
     2
 72
     2
 73
     3
 90
        0
 40
-0.6
 41
-30.0
 62
     5
 63
     8
421
  8421504
 74
     1
 91
        4
 64
     7
 65
   257
 75
     1
175
     1
 42
1.0
 92
        8
 66
     8
424
  8421504
 43
1.0
 76
     1
 77
     6
 78
     2
 67
     7
 79
     5
170
     0
171
     0
290
     0
174
     0
 93
        1
 44
0.0
173
     0
291
     1
 45
0.0
1001
ACAD
1000
AcDbSavedByObjectVersion
1070
     0
  0
VISUALSTYLE
  5
34
102
{ACAD_REACTORS
330
2A
102
}
102
{ACAD_XDICTIONARY
360
261
102
}
330
2A
100
AcDbVisualStyle
  2
Conceptual
 70
     9
 71
     3
 72
     2
 73
     0
 90
        0
 40
-0.6
 41
-30.0
 62
     5
 63
     7
421
 16777215
 74
     2
 91
        2
 64
     7
 65
   257
 75
     1
175
     1
 42
40.0
 92
        8
 66
     7
 43
1.0
 76
     1
 77
     6
 78
     2
 67
     7
 79
     3
170
     0
171
     0
290
     0
174
     0
 93
        1
 44
0.0
173
     0
291
     0
 45
0.0
1001
ACAD
1000
AcDbSavedByObjectVersion
1070
     0
  0
VISUALSTYLE
  5
35
102
{ACAD_REACTORS
330
2A
102
}
102
{ACAD_XDICTIONARY
360
263
102
}
330
2A
100
AcDbVisualStyle
  2
Dim
 70
    11
 71
     2
 72
     2
 73
     0
 90
        0
 40
-0.6
 41
-30.0
 62
     5
 63
     7
421
 16777215
 74
     1
 91
        4
 64
     7
 65
   257
 75
     1
175
     1
 42
1.0
 92
        8
 66
     7
 43
1.0
 76
     1
 77
     6
 78
     2
 67
     7
 79
     5
170
     0
171
     0
290
     0
174
     0
 93
        1
 44
-50.0
173
     0
291
     1
 45
0.0
1001
ACAD
1000
AcDbSavedByObjectVersion
1070
     0
  0
VISUALSTYLE
  5
39
102
{ACAD_REACTORS
330
2A
102
}
102
{ACAD_XDICTIONARY
360
26B
102
}
330
2A
100
AcDbVisualStyle
  2
Facepattern
 70
    15
 71
     2
 72
     2
 73
     0
 90
        0
 40
-0.6
 41
-30.0
 62
     5
 63
     7
421
 16777215
 74
     1
 91
        4
 64
     7
 65
   257
 75
     1
175
     1
 42
1.0
 92
        8
 66
     7
 43
1.0
 76
     1
 77
     6
 78
     2
 67
     7
 79
     5
170
     0
171
     0
290
     0
174
     0
 93
        1
 44
0.0
173
     0
291
     1
 45
0.0
1001
ACAD
1000
AcDbSavedByObjectVersion
1070
     0
  0
VISUALSTYLE
  5
2B
102
{ACAD_REACTORS
330
2A
102
}
102
{ACAD_XDICTIONARY
360
24F
102
}
330
2A
100
AcDbVisualStyle
  2
Flat
 70
     0
 71
     2
 72
     1
 73
     1
 90
        2
 40
-0.6
 41
30.0
 62
     5
 63
     7
421
 16777215
 74
     0
 91
        4
 64
     7
 65
   257
 75
     1
175
     1
 42
1.0
 92
        8
 66
     7
 43
1.0
 76
     1
 77
     6
 78
     2
 67
     7
 79
     5
170
     0
171
     0
290
     0
174
     0
 93
       13
 44
0.0
173
     0
291
     1
 45
0.0
1001
ACAD
1000
AcDbSavedByObjectVersion
1070
     0
  0
VISUALSTYLE
  5
2C
102
{ACAD_REACTORS
330
2A
102
}
102
{ACAD_XDICTIONARY
360
251
102
}
330
2A
100
AcDbVisualStyle
  2
FlatWithEdges
 70
     1
 71
     2
 72
     1
 73
     1
 90
        2
 40
-0.6
 41
30.0
 62
     5
 63
     7
421
 16777215
 74
     1
 91
        4
 64
     7
 65
   257
 75
     1
175
     1
 42
1.0
 92
        0
 66
   257
 43
1.0
 76
     1
 77
     6
 78
     2
 67
     7
 79
     5
170
     0
171
     0
290
     0
174
     0
 93
       13
 44
0.0
173
     0
291
     1
 45
0.0
1001
ACAD
1000
AcDbSavedByObjectVersion
1070
     0
  0
VISUALSTYLE
  5
2D
102
{ACAD_REACTORS
330
2A
102
}
102
{ACAD_XDICTIONARY
360
253
102
}
330
2A
100
AcDbVisualStyle
  2
Gouraud
 70
     2
 71
     2
 72
     2
 73
     1
 90
        2
 40
-0.6
 41
30.0
 62
     5
 63
     7
421
 16777215
 74
     0
 91
        4
 64
     7
 65
   257
 75
     1
175
     1
 42
1.0
 92
        0
 66
     7
 43
1.0
 76
     1
 77
     6
 78
     2
 67
     7
 79
     5
170
     0
171
     0
290
     0
174
     0
 93
       13
 44
0.0
173
     0
291
     1
 45
0.0
1001
ACAD
1000
AcDbSavedByObjectVersion
1070
     0
  0
VISUALSTYLE
  5
2E
102
{ACAD_REACTORS
330
2A
102
}
102
{ACAD_XDICTIONARY
360
255
102
}
330
2A
100
AcDbVisualStyle
  2
GouraudWithEdges
 70
     3
 71
     2
 72
     2
 73
     1
 90
        2
 40
-0.6
 41
30.0
 62
     5
 63
     7
421
 16777215
 74
     1
 91
        4
 64
     7
 65
   257
 75
     1
175
     1
 42
1.0
 92
        0
 66
   257
 43
1.0
 76
     1
 77
     6
 78
     2
 67
     7
 79
     5
170
     0
171
     0
290
     0
174
     0
 93
       13
 44
0.0
173
     0
291
     1
 45
0.0
1001
ACAD
1000
AcDbSavedByObjectVersion
1070
     0
  0
VISUALSTYLE
  5
38
102
{ACAD_REACTORS
330
2A
102
}
102
{ACAD_XDICTIONARY
360
269
102
}
330
2A
100
AcDbVisualStyle
  2
Linepattern
 70
    14
 71
     2
 72
     2
 73
     0
 90
        0
 40
-0.6
 41
-30.0
 62
     5
 63
     7
421
 16777215
 74
     1
 91
        4
 64
     7
 65
   257
 75
     7
175
     7
 42
1.0
 92
        8
 66
     7
 43
1.0
 76
     1
 77
     6
 78
     2
 67
     7
 79
     5
170
     0
171
     0
290
     0
174
     0
 93
        1
 44
0.0
173
     0
291
     1
 45
0.0
1001
ACAD
1000
AcDbSavedByObjectVersion
1070
     0
  0
VISUALSTYLE
  5
33
102
{ACAD_REACTORS
330
2A
102
}
102
{ACAD_XDICTIONARY
360
25F
102
}
330
2A
100
AcDbVisualStyle
  2
Realistic
 70
     8
 71
     2
 72
     2
 73
     0
 90
        0
 40
-0.6
 41
-30.0
 62
     5
 63
     7
421
 16777215
 74
     1
 91
        0
 64
     7
 65
   257
 75
     1
175
     1
 42
1.0
 92
        8
 66
     8
424
  7895160
 43
1.0
 76
     1
 77
     6
 78
     2
 67
     7
 79
     5
170
     0
171
     0
290
     0
174
     0
 93
       13
 44
0.0
173
     0
291
     0
 45
0.0
1001
ACAD
1000
AcDbSavedByObjectVersion
1070
     0
  0
VISUALSTYLE
  5
37
102
{ACAD_REACTORS
330
2A
102
}
102
{ACAD_XDICTIONARY
360
267
102
}
330
2A
100
AcDbVisualStyle
  2
Thicken
 70
    13
 71
     2
 72
     2
 73
     0
 90
        0
 40
-0.6
 41
-30.0
 62
     5
 63
     7
421
 16777215
 74
     1
 91
        4
 64
     7
 65
   257
 75
     1
175
     1
 42
1.0
 92
       12
 66
     7
 43
1.0
 76
     1
 77
     6
 78
     2
 67
     7
 79
     5
170
     0
171
     0
290
     0
174
     0
 93
        1
 44
0.0
173
     0
291
     1
 45
0.0
1001
ACAD
1000
AcDbSavedByObjectVersion
1070
     0
  0
DICTIONARY
  5
271
330
3D
100
AcDbDictionary
280
     1
281
     1
  3
ACAD_XREC_ROUNDTRIP
360
272
  0
DICTIONARY
  5
26F
330
3C
100
AcDbDictionary
280
     1
281
     1
  3
ACAD_XREC_ROUNDTRIP
360
270
  0
DICTIONARY
  5
273
330
3E
100
AcDbDictionary
280
     1
281
     1
  3
ACAD_XREC_ROUNDTRIP
360
274
  0
DICTIONARY
  5
257
330
2F
100
AcDbDictionary
280
     1
281
     1
  3
ACAD_XREC_ROUNDTRIP
360
258
  0
DICTIONARY
  5
25B
330
31
100
AcDbDictionary
280
     1
281
     1
  3
ACAD_XREC_ROUNDTRIP
360
25C
  0
DICTIONARY
  5
259
330
30
100
AcDbDictionary
280
     1
281
     1
  3
ACAD_XREC_ROUNDTRIP
360
25A
  0
DICTIONARY
  5
25D
330
32
100
AcDbDictionary
280
     1
281
     1
  3
ACAD_XREC_ROUNDTRIP
360
25E
  0
DICTIONARY
  5
265
330
36
100
AcDbDictionary
280
     1
281
     1
  3
ACAD_XREC_ROUNDTRIP
360
266
  0
DICTIONARY
  5
26D
330
3A
100
AcDbDictionary
280
     1
281
     1
  3
ACAD_XREC_ROUNDTRIP
360
26E
  0
DICTIONARY
  5
261
330
34
100
AcDbDictionary
280
     1
281
     1
  3
ACAD_XREC_ROUNDTRIP
360
262
  0
DICTIONARY
  5
263
330
35
100
AcDbDictionary
280
     1
281
     1
  3
ACAD_XREC_ROUNDTRIP
360
264
  0
DICTIONARY
  5
26B
330
39
100
AcDbDictionary
280
     1
281
     1
  3
ACAD_XREC_ROUNDTRIP
360
26C
  0
DICTIONARY
  5
24F
330
2B
100
AcDbDictionary
280
     1
281
     1
  3
ACAD_XREC_ROUNDTRIP
360
250
  0
DICTIONARY
  5
251
330
2C
100
AcDbDictionary
280
     1
281
     1
  3
ACAD_XREC_ROUNDTRIP
360
252
  0
DICTIONARY
  5
253
330
2D
100
AcDbDictionary
280
     1
281
     1
  3
ACAD_XREC_ROUNDTRIP
360
254
  0
DICTIONARY
  5
255
330
2E
100
AcDbDictionary
280
     1
281
     1
  3
ACAD_XREC_ROUNDTRIP
360
256
  0
DICTIONARY
  5
269
330
38
100
AcDbDictionary
280
     1
281
     1
  3
ACAD_XREC_ROUNDTRIP
360
26A
  0
DICTIONARY
  5
25F
330
33
100
AcDbDictionary
280
     1
281
     1
  3
ACAD_XREC_ROUNDTRIP
360
260
  0
DICTIONARY
  5
267
330
37
100
AcDbDictionary
280
     1
281
     1
  3
ACAD_XREC_ROUNDTRIP
360
268
  0
XRECORD
  5
272
102
{ACAD_REACTORS
330
271
102
}
330
271
100
AcDbXrecord
280
     1
102
MATERIAL
148
0.0
149
0.0
149
0.0
 93
        0
 94
      127
282
     0
 72
     1
 77
     1
171
     1
175
     1
179
     1
273
     0
  0
XRECORD
  5
270
102
{ACAD_REACTORS
330
26F
102
}
330
26F
100
AcDbXrecord
280
     1
102
MATERIAL
148
0.0
149
0.0
149
0.0
 93
        0
 94
      127
282
     0
 72
     1
 77
     1
171
     1
175
     1
179
     1
273
     0
  0
XRECORD
  5
274
102
{ACAD_REACTORS
330
273
102
}
330
273
100
AcDbXrecord
280
     1
102
MATERIAL
148
0.0
149
0.0
149
0.0
 93
        0
 94
      127
282
     0
 72
     1
 77
     1
171
     1
175
     1
179
     1
273
     0
  0
XRECORD
  5
258
102
{ACAD_REACTORS
330
257
102
}
330
257
100
AcDbXrecord
280
     1
102
RTVSPropertyOp0
 70
     1
102
RTVSPropertyOp1
 70
     1
102
RTVSPropertyOp2
 70
     1
102
RTVSPropertyOp3
 70
     1
102
RTVSPropertyOp4
 70
     1
102
RTVSPropertyOp5
 70
     1
102
RTVSPropertyOp6
 70
     1
102
RTVSPropertyOp7
 70
     1
102
RTVSPropertyOp8
 70
     1
102
RTVSPropertyOp9
 70
     1
102
RTVSPropertyOp10
 70
     1
102
RTVSPropertyOp11
 70
     1
102
RTVSPropertyOp12
 70
     1
102
RTVSPropertyOp13
 70
     1
102
RTVSPropertyOp14
 70
     1
102
RTVSPropertyOp15
 70
     1
102
RTVSPropertyOp16
 70
     1
102
RTVSPropertyOp17
 70
     1
102
RTVSPropertyOp18
 70
     1
102
RTVSPropertyOp19
 70
     1
102
RTVSPropertyOp20
 70
     1
102
RTVSPropertyOp21
 70
     1
102
RTVSPropertyOp22
 70
     1
102
RTVSPropertyOp23
 70
     1
102
RTVSPropertyOp24
 70
     1
102
RTVSPropertyOp25
 70
     1
102
RTVSPropertyOp26
 70
     1
102
RTVSPropertyOp27
 70
     1
102
RTVSPropertyOp28
 70
     1
102
RTVSPropertyOp29
 70
     1
102
RTVSPropertyOp30
 70
     1
102
RTVSPropertyOp31
 70
     1
102
RTVSPropertyOp32
 70
     1
  0
XRECORD
  5
25C
102
{ACAD_REACTORS
330
25B
102
}
330
25B
100
AcDbXrecord
280
     1
102
RTVSPropertyOp0
 70
     1
102
RTVSPropertyOp1
 70
     1
102
RTVSPropertyOp2
 70
     1
102
RTVSPropertyOp3
 70
     1
102
RTVSPropertyOp4
 70
     1
102
RTVSPropertyOp5
 70
     1
102
RTVSPropertyOp6
 70
     1
102
RTVSPropertyOp7
 70
     1
102
RTVSPropertyOp8
 70
     1
102
RTVSPropertyOp9
 70
     1
102
RTVSPropertyOp10
 70
     1
102
RTVSPropertyOp11
 70
     1
102
RTVSPropertyOp12
 70
     1
102
RTVSPropertyOp13
 70
     1
102
RTVSPropertyOp14
 70
     1
102
RTVSPropertyOp15
 70
     1
102
RTVSPropertyOp16
 70
     1
102
RTVSPropertyOp17
 70
     1
102
RTVSPropertyOp18
 70
     1
102
RTVSPropertyOp19
 70
     1
102
RTVSPropertyOp20
 70
     1
102
RTVSPropertyOp21
 70
     1
102
RTVSPropertyOp22
 70
     1
102
RTVSPropertyOp23
 70
     1
102
RTVSPropertyOp24
 70
     1
102
RTVSPropertyOp25
 70
     1
102
RTVSPropertyOp26
 70
     1
102
RTVSPropertyOp27
 70
     1
102
RTVSPropertyOp28
 70
     1
102
RTVSPropertyOp29
 70
     1
102
RTVSPropertyOp30
 70
     1
102
RTVSPropertyOp31
 70
     1
102
RTVSPropertyOp32
 70
     1
  0
XRECORD
  5
25A
102
{ACAD_REACTORS
330
259
102
}
330
259
100
AcDbXrecord
280
     1
102
RTVSPropertyOp0
 70
     1
102
RTVSPropertyOp1
 70
     1
102
RTVSPropertyOp2
 70
     1
102
RTVSPropertyOp3
 70
     1
102
RTVSPropertyOp4
 70
     1
102
RTVSPropertyOp5
 70
     1
102
RTVSPropertyOp6
 70
     1
102
RTVSPropertyOp7
 70
     1
102
RTVSPropertyOp8
 70
     1
102
RTVSPropertyOp9
 70
     1
102
RTVSPropertyOp10
 70
     1
102
RTVSPropertyOp11
 70
     1
102
RTVSPropertyOp12
 70
     1
102
RTVSPropertyOp13
 70
     1
102
RTVSPropertyOp14
 70
     1
102
RTVSPropertyOp15
 70
     1
102
RTVSPropertyOp16
 70
     1
102
RTVSPropertyOp17
 70
     1
102
RTVSPropertyOp18
 70
     1
102
RTVSPropertyOp19
 70
     1
102
RTVSPropertyOp20
 70
     1
102
RTVSPropertyOp21
 70
     1
102
RTVSPropertyOp22
 70
     1
102
RTVSPropertyOp23
 70
     1
102
RTVSPropertyOp24
 70
     1
102
RTVSPropertyOp25
 70
     1
102
RTVSPropertyOp26
 70
     1
102
RTVSPropertyOp27
 70
     1
102
RTVSPropertyOp28
 70
     1
102
RTVSPropertyOp29
 70
     1
102
RTVSPropertyOp30
 70
     1
102
RTVSPropertyOp31
 70
     1
102
RTVSPropertyOp32
 70
     1
  0
XRECORD
  5
25E
102
{ACAD_REACTORS
330
25D
102
}
330
25D
100
AcDbXrecord
280
     1
102
RTVSPropertyOp0
 70
     1
102
RTVSPropertyOp1
 70
     1
102
RTVSPropertyOp2
 70
     1
102
RTVSPropertyOp3
 70
     1
102
RTVSPropertyOp4
 70
     1
102
RTVSPropertyOp5
 70
     1
102
RTVSPropertyOp6
 70
     1
102
RTVSPropertyOp7
 70
     1
102
RTVSPropertyOp8
 70
     1
102
RTVSPropertyOp9
 70
     1
102
RTVSPropertyOp10
 70
     1
102
RTVSPropertyOp11
 70
     1
102
RTVSPropertyOp12
 70
     1
102
RTVSPropertyOp13
 70
     1
102
RTVSPropertyOp14
 70
     1
102
RTVSPropertyOp15
 70
     1
102
RTVSPropertyOp16
 70
     1
102
RTVSPropertyOp17
 70
     1
102
RTVSPropertyOp18
 70
     1
102
RTVSPropertyOp19
 70
     1
102
RTVSPropertyOp20
 70
     1
102
RTVSPropertyOp21
 70
     1
102
RTVSPropertyOp22
 70
     1
102
RTVSPropertyOp23
 70
     1
102
RTVSPropertyOp24
 70
     1
102
RTVSPropertyOp25
 70
     1
102
RTVSPropertyOp26
 70
     1
102
RTVSPropertyOp27
 70
     1
102
RTVSPropertyOp28
 70
     1
102
RTVSPropertyOp29
 70
     1
102
RTVSPropertyOp30
 70
     1
102
RTVSPropertyOp31
 70
     1
102
RTVSPropertyOp32
 70
     1
  0
XRECORD
  5
266
102
{ACAD_REACTORS
330
265
102
}
330
265
100
AcDbXrecord
280
     1
102
RTVSPropertyOp0
 70
     1
102
RTVSPropertyOp1
 70
     1
102
RTVSPropertyOp2
 70
     1
102
RTVSPropertyOp3
 70
     1
102
RTVSPropertyOp4
 70
     1
102
RTVSPropertyOp5
 70
     1
102
RTVSPropertyOp6
 70
     1
102
RTVSPropertyOp7
 70
     1
102
RTVSPropertyOp8
 70
     1
102
RTVSPropertyOp9
 70
     1
102
RTVSPropertyOp10
 70
     1
102
RTVSPropertyOp11
 70
     1
102
RTVSPropertyOp12
 70
     1
102
RTVSPropertyOp13
 70
     1
102
RTVSPropertyOp14
 70
     1
102
RTVSPropertyOp15
 70
     1
102
RTVSPropertyOp16
 70
     1
102
RTVSPropertyOp17
 70
     1
102
RTVSPropertyOp18
 70
     1
102
RTVSPropertyOp19
 70
     1
102
RTVSPropertyOp20
 70
     1
102
RTVSPropertyOp21
 70
     1
102
RTVSPropertyOp22
 70
     1
102
RTVSPropertyOp23
 70
     1
102
RTVSPropertyOp24
 70
     1
102
RTVSPropertyOp25
 70
     1
102
RTVSPropertyOp26
 70
     1
102
RTVSPropertyOp27
 70
     1
102
RTVSPropertyOp28
 70
     1
102
RTVSPropertyOp29
 70
     1
102
RTVSPropertyOp30
 70
     1
102
RTVSPropertyOp31
 70
     1
102
RTVSPropertyOp32
 70
     1
  0
XRECORD
  5
26E
102
{ACAD_REACTORS
330
26D
102
}
330
26D
100
AcDbXrecord
280
     1
102
RTVSPropertyOp0
 70
     1
102
RTVSPropertyOp1
 70
     1
102
RTVSPropertyOp2
 70
     1
102
RTVSPropertyOp3
 70
     1
102
RTVSPropertyOp4
 70
     1
102
RTVSPropertyOp5
 70
     1
102
RTVSPropertyOp6
 70
     1
102
RTVSPropertyOp7
 70
     1
102
RTVSPropertyOp8
 70
     1
102
RTVSPropertyOp9
 70
     1
102
RTVSPropertyOp10
 70
     1
102
RTVSPropertyOp11
 70
     1
102
RTVSPropertyOp12
 70
     1
102
RTVSPropertyOp13
 70
     1
102
RTVSPropertyOp14
 70
     1
102
RTVSPropertyOp15
 70
     1
102
RTVSPropertyOp16
 70
     1
102
RTVSPropertyOp17
 70
     1
102
RTVSPropertyOp18
 70
     1
102
RTVSPropertyOp19
 70
     1
102
RTVSPropertyOp20
 70
     1
102
RTVSPropertyOp21
 70
     1
102
RTVSPropertyOp22
 70
     1
102
RTVSPropertyOp23
 70
     1
102
RTVSPropertyOp24
 70
     1
102
RTVSPropertyOp25
 70
     1
102
RTVSPropertyOp26
 70
     1
102
RTVSPropertyOp27
 70
     1
102
RTVSPropertyOp28
 70
     1
102
RTVSPropertyOp29
 70
     1
102
RTVSPropertyOp30
 70
     1
102
RTVSPropertyOp31
 70
     1
102
RTVSPropertyOp32
 70
     1
  0
XRECORD
  5
262
102
{ACAD_REACTORS
330
261
102
}
330
261
100
AcDbXrecord
280
     1
102
RTVSPropertyOp0
 70
     1
102
RTVSPropertyOp1
 70
     1
102
RTVSPropertyOp2
 70
     1
102
RTVSPropertyOp3
 70
     1
102
RTVSPropertyOp4
 70
     1
102
RTVSPropertyOp5
 70
     1
102
RTVSPropertyOp6
 70
     1
102
RTVSPropertyOp7
 70
     1
102
RTVSPropertyOp8
 70
     1
102
RTVSPropertyOp9
 70
     1
102
RTVSPropertyOp10
 70
     1
102
RTVSPropertyOp11
 70
     1
102
RTVSPropertyOp12
 70
     1
102
RTVSPropertyOp13
 70
     1
102
RTVSPropertyOp14
 70
     1
102
RTVSPropertyOp15
 70
     1
102
RTVSPropertyOp16
 70
     1
102
RTVSPropertyOp17
 70
     1
102
RTVSPropertyOp18
 70
     1
102
RTVSPropertyOp19
 70
     1
102
RTVSPropertyOp20
 70
     1
102
RTVSPropertyOp21
 70
     1
102
RTVSPropertyOp22
 70
     1
102
RTVSPropertyOp23
 70
     1
102
RTVSPropertyOp24
 70
     1
102
RTVSPropertyOp25
 70
     1
102
RTVSPropertyOp26
 70
     1
102
RTVSPropertyOp27
 70
     1
102
RTVSPropertyOp28
 70
     1
102
RTVSPropertyOp29
 70
     1
102
RTVSPropertyOp30
 70
     1
102
RTVSPropertyOp31
 70
     1
102
RTVSPropertyOp32
 70
     1
  0
XRECORD
  5
264
102
{ACAD_REACTORS
330
263
102
}
330
263
100
AcDbXrecord
280
     1
102
RTVSPropertyOp0
 70
     1
102
RTVSPropertyOp1
 70
     1
102
RTVSPropertyOp2
 70
     1
102
RTVSPropertyOp3
 70
     1
102
RTVSPropertyOp4
 70
     1
102
RTVSPropertyOp5
 70
     1
102
RTVSPropertyOp6
 70
     1
102
RTVSPropertyOp7
 70
     1
102
RTVSPropertyOp8
 70
     1
102
RTVSPropertyOp9
 70
     1
102
RTVSPropertyOp10
 70
     1
102
RTVSPropertyOp11
 70
     1
102
RTVSPropertyOp12
 70
     1
102
RTVSPropertyOp13
 70
     1
102
RTVSPropertyOp14
 70
     1
102
RTVSPropertyOp15
 70
     1
102
RTVSPropertyOp16
 70
     1
102
RTVSPropertyOp17
 70
     1
102
RTVSPropertyOp18
 70
     1
102
RTVSPropertyOp19
 70
     1
102
RTVSPropertyOp20
 70
     1
102
RTVSPropertyOp21
 70
     1
102
RTVSPropertyOp22
 70
     1
102
RTVSPropertyOp23
 70
     1
102
RTVSPropertyOp24
 70
     1
102
RTVSPropertyOp25
 70
     1
102
RTVSPropertyOp26
 70
     1
102
RTVSPropertyOp27
 70
     1
102
RTVSPropertyOp28
 70
     1
102
RTVSPropertyOp29
 70
     1
102
RTVSPropertyOp30
 70
     1
102
RTVSPropertyOp31
 70
     1
102
RTVSPropertyOp32
 70
     1
  0
XRECORD
  5
26C
102
{ACAD_REACTORS
330
26B
102
}
330
26B
100
AcDbXrecord
280
     1
102
RTVSPropertyOp0
 70
     1
102
RTVSPropertyOp1
 70
     1
102
RTVSPropertyOp2
 70
     1
102
RTVSPropertyOp3
 70
     1
102
RTVSPropertyOp4
 70
     1
102
RTVSPropertyOp5
 70
     1
102
RTVSPropertyOp6
 70
     1
102
RTVSPropertyOp7
 70
     1
102
RTVSPropertyOp8
 70
     1
102
RTVSPropertyOp9
 70
     1
102
RTVSPropertyOp10
 70
     1
102
RTVSPropertyOp11
 70
     1
102
RTVSPropertyOp12
 70
     1
102
RTVSPropertyOp13
 70
     1
102
RTVSPropertyOp14
 70
     1
102
RTVSPropertyOp15
 70
     1
102
RTVSPropertyOp16
 70
     1
102
RTVSPropertyOp17
 70
     1
102
RTVSPropertyOp18
 70
     1
102
RTVSPropertyOp19
 70
     1
102
RTVSPropertyOp20
 70
     1
102
RTVSPropertyOp21
 70
     1
102
RTVSPropertyOp22
 70
     1
102
RTVSPropertyOp23
 70
     1
102
RTVSPropertyOp24
 70
     1
102
RTVSPropertyOp25
 70
     1
102
RTVSPropertyOp26
 70
     1
102
RTVSPropertyOp27
 70
     1
102
RTVSPropertyOp28
 70
     1
102
RTVSPropertyOp29
 70
     1
102
RTVSPropertyOp30
 70
     1
102
RTVSPropertyOp31
 70
     1
102
RTVSPropertyOp32
 70
     1
  0
XRECORD
  5
250
102
{ACAD_REACTORS
330
24F
102
}
330
24F
100
AcDbXrecord
280
     1
102
RTVSPropertyOp0
 70
     1
102
RTVSPropertyOp1
 70
     1
102
RTVSPropertyOp2
 70
     1
102
RTVSPropertyOp3
 70
     1
102
RTVSPropertyOp4
 70
     1
102
RTVSPropertyOp5
 70
     1
102
RTVSPropertyOp6
 70
     1
102
RTVSPropertyOp7
 70
     1
102
RTVSPropertyOp8
 70
     1
102
RTVSPropertyOp9
 70
     1
102
RTVSPropertyOp10
 70
     1
102
RTVSPropertyOp11
 70
     1
102
RTVSPropertyOp12
 70
     1
102
RTVSPropertyOp13
 70
     1
102
RTVSPropertyOp14
 70
     1
102
RTVSPropertyOp15
 70
     1
102
RTVSPropertyOp16
 70
     1
102
RTVSPropertyOp17
 70
     1
102
RTVSPropertyOp18
 70
     1
102
RTVSPropertyOp19
 70
     1
102
RTVSPropertyOp20
 70
     1
102
RTVSPropertyOp21
 70
     1
102
RTVSPropertyOp22
 70
     1
102
RTVSPropertyOp23
 70
     1
102
RTVSPropertyOp24
 70
     1
102
RTVSPropertyOp25
 70
     1
102
RTVSPropertyOp26
 70
     1
102
RTVSPropertyOp27
 70
     1
102
RTVSPropertyOp28
 70
     1
102
RTVSPropertyOp29
 70
     1
102
RTVSPropertyOp30
 70
     1
102
RTVSPropertyOp31
 70
     1
102
RTVSPropertyOp32
 70
     1
  0
XRECORD
  5
252
102
{ACAD_REACTORS
330
251
102
}
330
251
100
AcDbXrecord
280
     1
102
RTVSPropertyOp0
 70
     1
102
RTVSPropertyOp1
 70
     1
102
RTVSPropertyOp2
 70
     1
102
RTVSPropertyOp3
 70
     1
102
RTVSPropertyOp4
 70
     1
102
RTVSPropertyOp5
 70
     1
102
RTVSPropertyOp6
 70
     1
102
RTVSPropertyOp7
 70
     1
102
RTVSPropertyOp8
 70
     1
102
RTVSPropertyOp9
 70
     1
102
RTVSPropertyOp10
 70
     1
102
RTVSPropertyOp11
 70
     1
102
RTVSPropertyOp12
 70
     1
102
RTVSPropertyOp13
 70
     1
102
RTVSPropertyOp14
 70
     1
102
RTVSPropertyOp15
 70
     1
102
RTVSPropertyOp16
 70
     1
102
RTVSPropertyOp17
 70
     1
102
RTVSPropertyOp18
 70
     1
102
RTVSPropertyOp19
 70
     1
102
RTVSPropertyOp20
 70
     1
102
RTVSPropertyOp21
 70
     1
102
RTVSPropertyOp22
 70
     1
102
RTVSPropertyOp23
 70
     1
102
RTVSPropertyOp24
 70
     1
102
RTVSPropertyOp25
 70
     1
102
RTVSPropertyOp26
 70
     1
102
RTVSPropertyOp27
 70
     1
102
RTVSPropertyOp28
 70
     1
102
RTVSPropertyOp29
 70
     1
102
RTVSPropertyOp30
 70
     1
102
RTVSPropertyOp31
 70
     1
102
RTVSPropertyOp32
 70
     1
  0
XRECORD
  5
254
102
{ACAD_REACTORS
330
253
102
}
330
253
100
AcDbXrecord
280
     1
102
RTVSPropertyOp0
 70
     1
102
RTVSPropertyOp1
 70
     1
102
RTVSPropertyOp2
 70
     1
102
RTVSPropertyOp3
 70
     1
102
RTVSPropertyOp4
 70
     1
102
RTVSPropertyOp5
 70
     1
102
RTVSPropertyOp6
 70
     1
102
RTVSPropertyOp7
 70
     1
102
RTVSPropertyOp8
 70
     1
102
RTVSPropertyOp9
 70
     1
102
RTVSPropertyOp10
 70
     1
102
RTVSPropertyOp11
 70
     1
102
RTVSPropertyOp12
 70
     1
102
RTVSPropertyOp13
 70
     1
102
RTVSPropertyOp14
 70
     1
102
RTVSPropertyOp15
 70
     1
102
RTVSPropertyOp16
 70
     1
102
RTVSPropertyOp17
 70
     1
102
RTVSPropertyOp18
 70
     1
102
RTVSPropertyOp19
 70
     1
102
RTVSPropertyOp20
 70
     1
102
RTVSPropertyOp21
 70
     1
102
RTVSPropertyOp22
 70
     1
102
RTVSPropertyOp23
 70
     1
102
RTVSPropertyOp24
 70
     1
102
RTVSPropertyOp25
 70
     1
102
RTVSPropertyOp26
 70
     1
102
RTVSPropertyOp27
 70
     1
102
RTVSPropertyOp28
 70
     1
102
RTVSPropertyOp29
 70
     1
102
RTVSPropertyOp30
 70
     1
102
RTVSPropertyOp31
 70
     1
102
RTVSPropertyOp32
 70
     1
  0
XRECORD
  5
256
102
{ACAD_REACTORS
330
255
102
}
330
255
100
AcDbXrecord
280
     1
102
RTVSPropertyOp0
 70
     1
102
RTVSPropertyOp1
 70
     1
102
RTVSPropertyOp2
 70
     1
102
RTVSPropertyOp3
 70
     1
102
RTVSPropertyOp4
 70
     1
102
RTVSPropertyOp5
 70
     1
102
RTVSPropertyOp6
 70
     1
102
RTVSPropertyOp7
 70
     1
102
RTVSPropertyOp8
 70
     1
102
RTVSPropertyOp9
 70
     1
102
RTVSPropertyOp10
 70
     1
102
RTVSPropertyOp11
 70
     1
102
RTVSPropertyOp12
 70
     1
102
RTVSPropertyOp13
 70
     1
102
RTVSPropertyOp14
 70
     1
102
RTVSPropertyOp15
 70
     1
102
RTVSPropertyOp16
 70
     1
102
RTVSPropertyOp17
 70
     1
102
RTVSPropertyOp18
 70
     1
102
RTVSPropertyOp19
 70
     1
102
RTVSPropertyOp20
 70
     1
102
RTVSPropertyOp21
 70
     1
102
RTVSPropertyOp22
 70
     1
102
RTVSPropertyOp23
 70
     1
102
RTVSPropertyOp24
 70
     1
102
RTVSPropertyOp25
 70
     1
102
RTVSPropertyOp26
 70
     1
102
RTVSPropertyOp27
 70
     1
102
RTVSPropertyOp28
 70
     1
102
RTVSPropertyOp29
 70
     1
102
RTVSPropertyOp30
 70
     1
102
RTVSPropertyOp31
 70
     1
102
RTVSPropertyOp32
 70
     1
  0
XRECORD
  5
26A
102
{ACAD_REACTORS
330
269
102
}
330
269
100
AcDbXrecord
280
     1
102
RTVSPropertyOp0
 70
     1
102
RTVSPropertyOp1
 70
     1
102
RTVSPropertyOp2
 70
     1
102
RTVSPropertyOp3
 70
     1
102
RTVSPropertyOp4
 70
     1
102
RTVSPropertyOp5
 70
     1
102
RTVSPropertyOp6
 70
     1
102
RTVSPropertyOp7
 70
     1
102
RTVSPropertyOp8
 70
     1
102
RTVSPropertyOp9
 70
     1
102
RTVSPropertyOp10
 70
     1
102
RTVSPropertyOp11
 70
     1
102
RTVSPropertyOp12
 70
     1
102
RTVSPropertyOp13
 70
     1
102
RTVSPropertyOp14
 70
     1
102
RTVSPropertyOp15
 70
     1
102
RTVSPropertyOp16
 70
     1
102
RTVSPropertyOp17
 70
     1
102
RTVSPropertyOp18
 70
     1
102
RTVSPropertyOp19
 70
     1
102
RTVSPropertyOp20
 70
     1
102
RTVSPropertyOp21
 70
     1
102
RTVSPropertyOp22
 70
     1
102
RTVSPropertyOp23
 70
     1
102
RTVSPropertyOp24
 70
     1
102
RTVSPropertyOp25
 70
     1
102
RTVSPropertyOp26
 70
     1
102
RTVSPropertyOp27
 70
     1
102
RTVSPropertyOp28
 70
     1
102
RTVSPropertyOp29
 70
     1
102
RTVSPropertyOp30
 70
     1
102
RTVSPropertyOp31
 70
     1
102
RTVSPropertyOp32
 70
     1
  0
XRECORD
  5
260
102
{ACAD_REACTORS
330
25F
102
}
330
25F
100
AcDbXrecord
280
     1
102
RTVSPropertyOp0
 70
     1
102
RTVSPropertyOp1
 70
     1
102
RTVSPropertyOp2
 70
     1
102
RTVSPropertyOp3
 70
     1
102
RTVSPropertyOp4
 70
     1
102
RTVSPropertyOp5
 70
     1
102
RTVSPropertyOp6
 70
     1
102
RTVSPropertyOp7
 70
     1
102
RTVSPropertyOp8
 70
     1
102
RTVSPropertyOp9
 70
     1
102
RTVSPropertyOp10
 70
     1
102
RTVSPropertyOp11
 70
     1
102
RTVSPropertyOp12
 70
     1
102
RTVSPropertyOp13
 70
     1
102
RTVSPropertyOp14
 70
     1
102
RTVSPropertyOp15
 70
     1
102
RTVSPropertyOp16
 70
     1
102
RTVSPropertyOp17
 70
     1
102
RTVSPropertyOp18
 70
     1
102
RTVSPropertyOp19
 70
     1
102
RTVSPropertyOp20
 70
     1
102
RTVSPropertyOp21
 70
     1
102
RTVSPropertyOp22
 70
     1
102
RTVSPropertyOp23
 70
     1
102
RTVSPropertyOp24
 70
     1
102
RTVSPropertyOp25
 70
     1
102
RTVSPropertyOp26
 70
     1
102
RTVSPropertyOp27
 70
     1
102
RTVSPropertyOp28
 70
     1
102
RTVSPropertyOp29
 70
     1
102
RTVSPropertyOp30
 70
     1
102
RTVSPropertyOp31
 70
     1
102
RTVSPropertyOp32
 70
     1
  0
XRECORD
  5
268
102
{ACAD_REACTORS
330
267
102
}
330
267
100
AcDbXrecord
280
     1
102
RTVSPropertyOp0
 70
     1
102
RTVSPropertyOp1
 70
     1
102
RTVSPropertyOp2
 70
     1
102
RTVSPropertyOp3
 70
     1
102
RTVSPropertyOp4
 70
     1
102
RTVSPropertyOp5
 70
     1
102
RTVSPropertyOp6
 70
     1
102
RTVSPropertyOp7
 70
     1
102
RTVSPropertyOp8
 70
     1
102
RTVSPropertyOp9
 70
     1
102
RTVSPropertyOp10
 70
     1
102
RTVSPropertyOp11
 70
     1
102
RTVSPropertyOp12
 70
     1
102
RTVSPropertyOp13
 70
     1
102
RTVSPropertyOp14
 70
     1
102
RTVSPropertyOp15
 70
     1
102
RTVSPropertyOp16
 70
     1
102
RTVSPropertyOp17
 70
     1
102
RTVSPropertyOp18
 70
     1
102
RTVSPropertyOp19
 70
     1
102
RTVSPropertyOp20
 70
     1
102
RTVSPropertyOp21
 70
     1
102
RTVSPropertyOp22
 70
     1
102
RTVSPropertyOp23
 70
     1
102
RTVSPropertyOp24
 70
     1
102
RTVSPropertyOp25
 70
     1
102
RTVSPropertyOp26
 70
     1
102
RTVSPropertyOp27
 70
     1
102
RTVSPropertyOp28
 70
     1
102
RTVSPropertyOp29
 70
     1
102
RTVSPropertyOp30
 70
     1
102
RTVSPropertyOp31
 70
     1
102
RTVSPropertyOp32
 70
     1
  0
ENDSEC
  0
EOF
