  0
SECTION
  2
HEADER
  9
$ACADVER
  1
AC1018
  9
$ACADMAINTVER
 70
     0
  9
$DWGCODEPAGE
  3
ANSI_1252
  9
$INSBASE
 10
0.0
 20
0.0
 30
0.0
  9
$EXTMIN
 10
-227.8640968748204
 20
14.30917989210593
 30
0.0
  9
$EXTMAX
 10
69.13590312517766
 20
224.309179892106
 30
0.0
  9
$LIMMIN
 10
0.0
 20
0.0
  9
$LIMMAX
 10
12.0
 20
9.0
  9
$ORTHOMODE
 70
     0
  9
$REGENMODE
 70
     1
  9
$FILLMODE
 70
     1
  9
$QTEXTMODE
 70
     0
  9
$MIRRTEXT
 70
     1
  9
$LTSCALE
 40
1.0
  9
$ATTMODE
 70
     1
  9
$TEXTSIZE
 40
0.2
  9
$TRACEWID
 40
0.05
  9
$TEXTSTYLE
  7
Standard
  9
$CLAYER
  8
0
  9
$CELTYPE
  6
ByLayer
  9
$CECOLOR
 62
   256
  9
$CELTSCALE
 40
1.0
  9
$DISPSILH
 70
     0
  9
$DIMSCALE
 40
1.0
  9
$DIMASZ
 40
0.18
  9
$DIMEXO
 40
0.0625
  9
$DIMDLI
 40
0.38
  9
$DIMRND
 40
0.0
  9
$DIMDLE
 40
0.0
  9
$DIMEXE
 40
0.18
  9
$DIMTP
 40
0.0
  9
$DIMTM
 40
0.0
  9
$DIMTXT
 40
0.18
  9
$DIMCEN
 40
0.09
  9
$DIMTSZ
 40
0.0
  9
$DIMTOL
 70
     0
  9
$DIMLIM
 70
     0
  9
$DIMTIH
 70
     1
  9
$DIMTOH
 70
     1
  9
$DIMSE1
 70
     0
  9
$DIMSE2
 70
     0
  9
$DIMTAD
 70
     0
  9
$DIMZIN
 70
     0
  9
$DIMBLK
  1

  9
$DIMASO
 70
     1
  9
$DIMSHO
 70
     1
  9
$DIMPOST
  1

  9
$DIMAPOST
  1

  9
$DIMALT
 70
     0
  9
$DIMALTD
 70
     2
  9
$DIMALTF
 40
25.4
  9
$DIMLFAC
 40
1.0
  9
$DIMTOFL
 70
     0
  9
$DIMTVP
 40
0.0
  9
$DIMTIX
 70
     0
  9
$DIMSOXD
 70
     0
  9
$DIMSAH
 70
     0
  9
$DIMBLK1
  1

  9
$DIMBLK2
  1

  9
$DIMSTYLE
  2
Standard
  9
$DIMCLRD
 70
     0
  9
$DIMCLRE
 70
     0
  9
$DIMCLRT
 70
     0
  9
$DIMTFAC
 40
1.0
  9
$DIMGAP
 40
0.09
  9
$DIMJUST
 70
     0
  9
$DIMSD1
 70
     0
  9
$DIMSD2
 70
     0
  9
$DIMTOLJ
 70
     1
  9
$DIMTZIN
 70
     0
  9
$DIMALTZ
 70
     0
  9
$DIMALTTZ
 70
     0
  9
$DIMUPT
 70
     0
  9
$DIMDEC
 70
     4
  9
$DIMTDEC
 70
     4
  9
$DIMALTU
 70
     2
  9
$DIMALTTD
 70
     2
  9
$DIMTXSTY
  7
Standard
  9
$DIMAUNIT
 70
     0
  9
$DIMADEC
 70
     0
  9
$DIMALTRND
 40
0.0
  9
$DIMAZIN
 70
     0
  9
$DIMDSEP
 70
    46
  9
$DIMATFIT
 70
     3
  9
$DIMFRAC
 70
     0
  9
$DIMLDRBLK
  1

  9
$DIMLUNIT
 70
     2
  9
$DIMLWD
 70
    -2
  9
$DIMLWE
 70
    -2
  9
$DIMTMOVE
 70
     0
  9
$LUNITS
 70
     2
  9
$LUPREC
 70
     4
  9
$SKETCHINC
 40
0.1
  9
$FILLETRAD
 40
0.5
  9
$AUNITS
 70
     0
  9
$AUPREC
 70
     0
  9
$MENU
  1
.
  9
$ELEVATION
 40
0.0
  9
$PELEVATION
 40
0.0
  9
$THICKNESS
 40
0.0
  9
$LIMCHECK
 70
     0
  9
$CHAMFERA
 40
0.5
  9
$CHAMFERB
 40
0.5
  9
$CHAMFERC
 40
1.0
  9
$CHAMFERD
 40
0.0
  9
$SKPOLY
 70
     0
  9
$TDCREATE
 40
2458157.945249155
  9
$TDUCREATE
 40
2458157.903582489
  9
$TDUPDATE
 40
2458157.945249699
  9
$TDUUPDATE
 40
2458157.903583033
  9
$TDINDWG
 40
0.0000000116
  9
$TDUSRTIMER
 40
0.0000000116
  9
$USRTIMER
 70
     1
  9
$ANGBASE
 50
0.0
  9
$ANGDIR
 70
     0
  9
$PDMODE
 70
     0
  9
$PDSIZE
 40
0.0
  9
$PLINEWID
 40
0.0
  9
$SPLFRAME
 70
     0
  9
$SPLINETYPE
 70
     6
  9
$SPLINESEGS
 70
     8
  9
$HANDSEED
  5
424
  9
$SURFTAB1
 70
     6
  9
$SURFTAB2
 70
     6
  9
$SURFTYPE
 70
     6
  9
$SURFU
 70
     6
  9
$SURFV
 70
     6
  9
$UCSBASE
  2

  9
$UCSNAME
  2

  9
$UCSORG
 10
0.0
 20
0.0
 30
0.0
  9
$UCSXDIR
 10
1.0
 20
0.0
 30
0.0
  9
$UCSYDIR
 10
0.0
 20
1.0
 30
0.0
  9
$UCSORTHOREF
  2

  9
$UCSORTHOVIEW
 70
     0
  9
$UCSORGTOP
 10
0.0
 20
0.0
 30
0.0
  9
$UCSORGBOTTOM
 10
0.0
 20
0.0
 30
0.0
  9
$UCSORGLEFT
 10
0.0
 20
0.0
 30
0.0
  9
$UCSORGRIGHT
 10
0.0
 20
0.0
 30
0.0
  9
$UCSORGFRONT
 10
0.0
 20
0.0
 30
0.0
  9
$UCSORGBACK
 10
0.0
 20
0.0
 30
0.0
  9
$PUCSBASE
  2

  9
$PUCSNAME
  2

  9
$PUCSORG
 10
0.0
 20
0.0
 30
0.0
  9
$PUCSXDIR
 10
1.0
 20
0.0
 30
0.0
  9
$PUCSYDIR
 10
0.0
 20
1.0
 30
0.0
  9
$PUCSORTHOREF
  2

  9
$PUCSORTHOVIEW
 70
     0
  9
$PUCSORGTOP
 10
0.0
 20
0.0
 30
0.0
  9
$PUCSORGBOTTOM
 10
0.0
 20
0.0
 30
0.0
  9
$PUCSORGLEFT
 10
0.0
 20
0.0
 30
0.0
  9
$PUCSORGRIGHT
 10
0.0
 20
0.0
 30
0.0
  9
$PUCSORGFRONT
 10
0.0
 20
0.0
 30
0.0
  9
$PUCSORGBACK
 10
0.0
 20
0.0
 30
0.0
  9
$USERI1
 70
     0
  9
$USERI2
 70
     0
  9
$USERI3
 70
     0
  9
$USERI4
 70
     0
  9
$USERI5
 70
     0
  9
$USERR1
 40
18.1
  9
$USERR2
 40
0.0
  9
$USERR3
 40
0.0
  9
$USERR4
 40
0.0
  9
$USERR5
 40
0.0
  9
$WORLDVIEW
 70
     1
  9
$SHADEDGE
 70
     3
  9
$SHADEDIF
 70
    70
  9
$TILEMODE
 70
     1
  9
$MAXACTVP
 70
    64
  9
$PINSBASE
 10
0.0
 20
0.0
 30
0.0
  9
$PLIMCHECK
 70
     0
  9
$PEXTMIN
 10
1.00000000000000E+20
 20
1.00000000000000E+20
 30
1.00000000000000E+20
  9
$PEXTMAX
 10
-1.00000000000000E+20
 20
-1.00000000000000E+20
 30
-1.00000000000000E+20
  9
$PLIMMIN
 10
0.0
 20
0.0
  9
$PLIMMAX
 10
12.0
 20
9.0
  9
$UNITMODE
 70
     0
  9
$VISRETAIN
 70
     1
  9
$PLINEGEN
 70
     0
  9
$PSLTSCALE
 70
     1
  9
$TREEDEPTH
 70
  3020
  9
$CMLSTYLE
  2
Standard
  9
$CMLJUST
 70
     0
  9
$CMLSCALE
 40
1.0
  9
$PROXYGRAPHICS
 70
     1
  9
$MEASUREMENT
 70
     1
  9
$CELWEIGHT
370
    -1
  9
$ENDCAPS
280
     0
  9
$JOINSTYLE
280
     0
  9
$LWDISPLAY
290
     0
  9
$INSUNITS
 70
     4
  9
$HYPERLINKBASE
  1

  9
$STYLESHEET
  1

  9
$XEDIT
290
     1
  9
$CEPSNTYPE
380
     0
  9
$PSTYLEMODE
290
     1
  9
$FINGERPRINTGUID
  2
{0131CBBA-DA9F-4290-B46A-6D3D511B9329}
  9
$VERSIONGUID
  2
{FAEB1C32-E019-11D5-929B-00C0DF256EC4}
  9
$EXTNAMES
290
     1
  9
$PSVPSCALE
 40
0.0
  9
$OLESTARTUP
290
     0
  9
$SORTENTS
280
   127
  9
$INDEXCTL
280
     0
  9
$HIDETEXT
280
     1
  9
$XCLIPFRAME
290
     0
  9
$HALOGAP
280
     0
  9
$OBSCOLOR
 70
   257
  9
$OBSLTYPE
280
     0
  9
$INTERSECTIONDISPLAY
280
     0
  9
$INTERSECTIONCOLOR
 70
   257
  9
$DIMASSOC
280
     2
  9
$PROJECTNAME
  1

  0
ENDSEC
  0
SECTION
  2
CLASSES
  0
CLASS
  1
ACDBDICTIONARYWDFLT
  2
AcDbDictionaryWithDefault
  3
ObjectDBX Classes
 90
        0
 91
        4
280
     0
281
     0
  0
CLASS
  1
VISUALSTYLE
  2
AcDbVisualStyle
  3
ObjectDBX Classes
 90
     4095
 91
        4
280
     0
281
     0
  0
CLASS
  1
MATERIAL
  2
AcDbMaterial
  3
ObjectDBX Classes
 90
     1153
 91
        4
280
     0
281
     0
  0
ENDSEC
  0
SECTION
  2
TABLES
  0
TABLE
  2
VPORT
  5
8
330
0
100
AcDbSymbolTable
 70
     1
  0
VPORT
  5
29
330
8
100
AcDbSymbolTableRecord
100
AcDbViewportTableRecord
  2
*Active
 70
     0
 10
0.0
 20
0.0
 11
1.0
 21
1.0
 12
-79.36409687482137
 22
119.309179892106
 13
0.0
 23
0.0
 14
0.5
 24
0.5
 15
0.5
 25
0.5
 16
0.0
 26
0.0
 36
1.0
 17
0.0
 27
0.0
 37
0.0
 40
231.0000000000001
 41
1.60267857142857
 42
50.0
 43
0.0
 44
0.0
 50
0.0
 51
0.0
 71
     0
 72
   100
 73
     1
 74
     3
 75
     0
 76
     0
 77
     0
 78
     0
281
     0
 65
     1
110
0.0
120
0.0
130
0.0
111
1.0
121
0.0
131
0.0
112
0.0
122
1.0
132
0.0
 79
     0
146
0.0
  0
ENDTAB
  0
TABLE
  2
LTYPE
  5
5
330
0
100
AcDbSymbolTable
 70
     8
  0
LTYPE
  5
14
330
5
100
AcDbSymbolTableRecord
100
AcDbLinetypeTableRecord
  2
ByBlock
 70
     0
  3

 72
    65
 73
     0
 40
0.0
  0
LTYPE
  5
15
330
5
100
AcDbSymbolTableRecord
100
AcDbLinetypeTableRecord
  2
ByLayer
 70
     0
  3

 72
    65
 73
     0
 40
0.0
  0
LTYPE
  5
16
330
5
100
AcDbSymbolTableRecord
100
AcDbLinetypeTableRecord
  2
Continuous
 70
     0
  3
Solid line
 72
    65
 73
     0
 40
0.0
  0
LTYPE
  5
3F
330
5
100
AcDbSymbolTableRecord
100
AcDbLinetypeTableRecord
  2
DASHED
 70
     0
  3
Dashed
 72
    65
 73
     2
 40
15.0
 49
7.0
 74
     0
 49
-8.0
 74
     0
  0
LTYPE
  5
40
330
5
100
AcDbSymbolTableRecord
100
AcDbLinetypeTableRecord
  2
DOTTED
 70
     0
  3
Dotted
 72
    65
 73
     2
 40
1.0
 49
0.0
 74
     0
 49
-1.0
 74
     0
  0
LTYPE
  5
41
330
5
100
AcDbSymbolTableRecord
100
AcDbLinetypeTableRecord
  2
DOT_CENTER
 70
     0
  3
Dot_Center
 72
    65
 73
     4
 40
14.0
 49
12.0
 74
     0
 49
-1.0
 74
     0
 49
0.0
 74
     0
 49
-1.0
 74
     0
  0
LTYPE
  5
42
330
5
100
AcDbSymbolTableRecord
100
AcDbLinetypeTableRecord
  2
LONG_DASHED
 70
     0
  3
Long_Dashed
 72
    65
 73
     2
 40
15.0
 49
10.0
 74
     0
 49
-5.0
 74
     0
  0
LTYPE
  5
43
330
5
100
AcDbSymbolTableRecord
100
AcDbLinetypeTableRecord
  2
DASH_CENTER
 70
     0
  3
Dash_Center
 72
    65
 73
     4
 40
14.0
 49
11.0
 74
     0
 49
-1.0
 74
     0
 49
1.0
 74
     0
 49
-1.0
 74
     0
  0
LTYPE
  5
44
330
5
100
AcDbSymbolTableRecord
100
AcDbLinetypeTableRecord
  2
PHANTOM
 70
     0
  3
Phantom
 72
    65
 73
     6
 40
13.0
 49
10.0
 74
     0
 49
-1.0
 74
     0
 49
0.0
 74
     0
 49
-1.0
 74
     0
 49
0.0
 74
     0
 49
-1.0
 74
     0
  0
LTYPE
  5
45
330
5
100
AcDbSymbolTableRecord
100
AcDbLinetypeTableRecord
  2
CENTER_DASH_DASH
 70
     0
  3
Center_Dash_Dash
 72
    65
 73
     6
 40
14.0
 49
9.0
 74
     0
 49
-1.0
 74
     0
 49
1.0
 74
     0
 49
-1.0
 74
     0
 49
1.0
 74
     0
 49
-1.0
 74
     0
  0
ENDTAB
  0
TABLE
  2
LAYER
  5
2
330
0
100
AcDbSymbolTable
 70
     2
  0
LAYER
  5
10
330
2
100
AcDbSymbolTableRecord
100
AcDbLayerTableRecord
  2
0
 70
     0
 62
     7
  6
Continuous
370
    -3
390
F
  0
LAYER
  5
46
330
2
100
AcDbSymbolTableRecord
100
AcDbLayerTableRecord
  2
1
 70
     0
 62
     7
  6
Continuous
370
    -3
390
F
  0
ENDTAB
  0
TABLE
  2
STYLE
  5
3
330
0
100
AcDbSymbolTable
 70
     5
  0
STYLE
  5
11
330
3
100
AcDbSymbolTableRecord
100
AcDbTextStyleTableRecord
  2
Standard
 70
     0
 40
0.0
 41
1.0
 50
0.0
 71
     0
 42
0.2
  3
txt
  4

  0
STYLE
  5
AA
330
3
100
AcDbSymbolTableRecord
100
AcDbTextStyleTableRecord
  2
CONVERTER_11
 70
     0
 40
0.0
 41
0.9
 50
0.0
 71
     0
 42
0.2
  3
txt.shx
  4

  0
STYLE
  5
3BA
330
3
100
AcDbSymbolTableRecord
100
AcDbTextStyleTableRecord
  2
CONVERTER_12
 70
     0
 40
0.0
 41
0.81
 50
0.0
 71
     0
 42
0.2
  3
txt.shx
  4

  0
STYLE
  5
3C0
330
3
100
AcDbSymbolTableRecord
100
AcDbTextStyleTableRecord
  2
CONVERTER_13
 70
     0
 40
0.0
 41
0.855
 50
0.0
 71
     0
 42
0.2
  3
txt.shx
  4

  0
STYLE
  5
3C3
330
3
100
AcDbSymbolTableRecord
100
AcDbTextStyleTableRecord
  2
CONVERTER_14
 70
     0
 40
0.0
 41
0.72
 50
0.0
 71
     0
 42
0.2
  3
txt.shx
  4

  0
ENDTAB
  0
TABLE
  2
VIEW
  5
6
330
0
100
AcDbSymbolTable
 70
     0
  0
ENDTAB
  0
TABLE
  2
UCS
  5
7
330
0
100
AcDbSymbolTable
 70
     0
  0
ENDTAB
  0
TABLE
  2
APPID
  5
9
330
0
100
AcDbSymbolTable
 70
     1
  0
APPID
  5
12
330
9
100
AcDbSymbolTableRecord
100
AcDbRegAppTableRecord
  2
ACAD
 70
     0
  0
ENDTAB
  0
TABLE
  2
DIMSTYLE
  5
A
330
0
100
AcDbSymbolTable
 70
     2
100
AcDbDimStyleTable
  0
DIMSTYLE
105
27
330
A
100
AcDbSymbolTableRecord
100
AcDbDimStyleTableRecord
  2
Standard
 70
     0
178
     0
340
11
  0
DIMSTYLE
105
2C1
102
{ACAD_REACTORS
330
2C2
102
}
330
A
100
AcDbSymbolTableRecord
100
AcDbDimStyleTableRecord
  2
ME10_DIM_10
 70
     0
 41
1.75
 42
0.0
 44
0.75
 73
     0
 74
     0
 77
     1
 78
     8
140
1.75
147
0.75
172
     1
173
     1
174
     1
175
     1
176
     2
177
     2
271
     2
178
     3
271
     2
340
AA
  0
ENDTAB
  0
TABLE
  2
BLOCK_RECORD
  5
1
330
0
100
AcDbSymbolTable
 70
    20
  0
BLOCK_RECORD
  5
1F
330
1
100
AcDbSymbolTableRecord
100
AcDbBlockTableRecord
  2
*Model_Space
340
22
  0
BLOCK_RECORD
  5
1B
330
1
100
AcDbSymbolTableRecord
100
AcDbBlockTableRecord
  2
*Paper_Space
340
1E
  0
BLOCK_RECORD
  5
23
330
1
100
AcDbSymbolTableRecord
100
AcDbBlockTableRecord
  2
*Paper_Space0
340
26
  0
BLOCK_RECORD
  5
47
330
1
100
AcDbSymbolTableRecord
100
AcDbBlockTableRecord
  2
EB_3-8-select__1
340
0
102
{BLKREFS
331
4B
102
}
  0
BLOCK_RECORD
  5
4A
330
1
100
AcDbSymbolTableRecord
100
AcDbBlockTableRecord
  2
Back1
340
0
102
{BLKREFS
331
7D
102
}
  0
BLOCK_RECORD
  5
4E
330
1
100
AcDbSymbolTableRecord
100
AcDbBlockTableRecord
  2
EB_3-8-select__2
340
0
102
{BLKREFS
331
52
102
}
  0
BLOCK_RECORD
  5
51
330
1
100
AcDbSymbolTableRecord
100
AcDbBlockTableRecord
  2
Front1
340
0
102
{BLKREFS
331
7E
102
}
  0
BLOCK_RECORD
  5
55
330
1
100
AcDbSymbolTableRecord
100
AcDbBlockTableRecord
  2
EB_3-8-select__3
340
0
102
{BLKREFS
331
59
102
}
  0
BLOCK_RECORD
  5
58
330
1
100
AcDbSymbolTableRecord
100
AcDbBlockTableRecord
  2
Gen1
340
0
102
{BLKREFS
331
7F
102
}
  0
BLOCK_RECORD
  5
5C
330
1
100
AcDbSymbolTableRecord
100
AcDbBlockTableRecord
  2
EB_3-8-select__4
340
0
102
{BLKREFS
331
60
102
}
  0
BLOCK_RECORD
  5
5F
330
1
100
AcDbSymbolTableRecord
100
AcDbBlockTableRecord
  2
Left1
340
0
102
{BLKREFS
331
80
102
}
  0
BLOCK_RECORD
  5
63
330
1
100
AcDbSymbolTableRecord
100
AcDbBlockTableRecord
  2
EB_3-8-select__5
340
0
102
{BLKREFS
331
67
102
}
  0
BLOCK_RECORD
  5
66
330
1
100
AcDbSymbolTableRecord
100
AcDbBlockTableRecord
  2
Right1
340
0
102
{BLKREFS
331
81
102
}
  0
BLOCK_RECORD
  5
6A
330
1
100
AcDbSymbolTableRecord
100
AcDbBlockTableRecord
  2
EB_3-8-select__6
340
0
102
{BLKREFS
331
6E
102
}
  0
BLOCK_RECORD
  5
6D
330
1
100
AcDbSymbolTableRecord
100
AcDbBlockTableRecord
  2
Top1
340
0
102
{BLKREFS
331
82
102
}
  0
BLOCK_RECORD
  5
71
330
1
100
AcDbSymbolTableRecord
100
AcDbBlockTableRecord
  2
_rahmen
340
0
102
{BLKREFS
331
78
102
}
  0
BLOCK_RECORD
  5
74
330
1
100
AcDbSymbolTableRecord
100
AcDbBlockTableRecord
  2
_punkt
340
0
102
{BLKREFS
331
79
102
}
  0
BLOCK_RECORD
  5
77
330
1
100
AcDbSymbolTableRecord
100
AcDbBlockTableRecord
  2
A4I_CS
340
0
102
{BLKREFS
331
83
102
}
  0
BLOCK_RECORD
  5
7C
330
1
100
AcDbSymbolTableRecord
100
AcDbBlockTableRecord
  2
1
340
0
102
{BLKREFS
331
86
102
}
  0
BLOCK_RECORD
  5
D0
330
1
100
AcDbSymbolTableRecord
100
AcDbBlockTableRecord
  2
*D17
340
0
102
{BLKREFS
331
D9
102
}
  0
BLOCK_RECORD
  5
DA
330
1
100
AcDbSymbolTableRecord
100
AcDbBlockTableRecord
  2
*D18
340
0
102
{BLKREFS
331
E3
102
}
  0
BLOCK_RECORD
  5
2B8
330
1
100
AcDbSymbolTableRecord
100
AcDbBlockTableRecord
  2
*D19
340
0
  0
ENDTAB
  0
ENDSEC
  0
SECTION
  2
BLOCKS
  0
BLOCK
  5
20
330
1F
100
AcDbEntity
  8
0
100
AcDbBlockBegin
  2
*Model_Space
 70
     0
 10
0.0
 20
0.0
 30
0.0
  3
*Model_Space
  1

  0
ENDBLK
  5
21
330
1F
100
AcDbEntity
  8
0
100
AcDbBlockEnd
  0
BLOCK
  5
1C
330
1B
100
AcDbEntity
 67
     1
  8
0
100
AcDbBlockBegin
  2
*Paper_Space
 70
     0
 10
0.0
 20
0.0
 30
0.0
  3
*Paper_Space
  1

  0
ENDBLK
  5
1D
330
1B
100
AcDbEntity
 67
     1
  8
0
100
AcDbBlockEnd
  0
BLOCK
  5
24
330
23
100
AcDbEntity
  8
0
100
AcDbBlockBegin
  2
*Paper_Space0
 70
     0
 10
0.0
 20
0.0
 30
0.0
  3
*Paper_Space0
  1

  0
ENDBLK
  5
25
330
23
100
AcDbEntity
  8
0
100
AcDbBlockEnd
  0
BLOCK
  5
48
330
47
100
AcDbEntity
  8
0
100
AcDbBlockBegin
  2
EB_3-8-select__1
 70
     0
 10
-1.78590582629525
 20
79.94001568644758
 30
0.0
  3
EB_3-8-select__1
  1

  0
LINE
  5
87
330
47
100
AcDbEntity
  8
0
  6
Continuous
 62
     7
100
AcDbLine
 10
-0.37333725205773
 20
80.05845281272386
 30
0.0
 11
-1.41902900854487
 21
80.05845281272386
 31
0.0
  0
LINE
  5
88
330
47
100
AcDbEntity
  8
0
  6
Continuous
 62
     2
100
AcDbLine
 10
-0.37333725205773
 20
80.05845281272386
 30
0.0
 11
-0.7402140698081
 21
81.25845281272385
 31
0.0
  0
LINE
  5
89
330
47
100
AcDbEntity
  8
0
  6
Continuous
 62
     7
100
AcDbLine
 10
-1.78590582629525
 20
81.25845281272386
 30
0.0
 11
-0.7402140698081
 21
81.25845281272385
 31
0.0
  0
LINE
  5
8A
330
47
100
AcDbEntity
  8
0
  6
Continuous
 62
     7
100
AcDbLine
 10
-1.41902900854487
 20
80.05845281272386
 30
0.0
 11
-1.78590582629525
 21
81.25845281272386
 31
0.0
  0
LINE
  5
8B
330
47
100
AcDbEntity
  8
0
  6
Continuous
 62
     7
100
AcDbLine
 10
1.35116944316531
 20
81.25845281272376
 30
0.0
 11
1.71804626091577
 21
80.05845281272359
 31
0.0
  0
LINE
  5
8C
330
47
100
AcDbEntity
  8
0
  6
Continuous
 62
     7
100
AcDbLine
 10
22.33995357183144
 20
83.57853339822047
 30
0.0
 11
21.57978713955236
 21
86.06492576372436
 31
0.0
  0
LINE
  5
8D
330
47
100
AcDbEntity
  8
0
  6
Continuous
 62
     7
100
AcDbLine
 10
1.71804626091577
 20
80.05845281272359
 30
0.0
 11
8.43207623760071
 21
80.05845281272381
 31
0.0
  0
LINE
  5
8E
330
47
100
AcDbEntity
  8
0
  6
Continuous
 62
     7
100
AcDbLine
 10
10.86429650027615
 20
80.07007294154812
 30
0.0
 11
10.48177459788975
 21
79.95312425965867
 31
0.0
  0
LINE
  5
8F
330
47
100
AcDbEntity
  8
0
  6
Continuous
 62
     7
100
AcDbLine
 10
16.70445513270616
 20
81.48959650529706
 30
0.0
 11
16.6021250360532
 21
81.82430316988412
 31
0.0
  0
LINE
  5
90
330
47
100
AcDbEntity
  8
0
  6
Continuous
 62
     7
100
AcDbLine
 10
16.70445513270616
 20
81.48959650529706
 30
0.0
 11
22.10757700389733
 21
83.14149663698045
 31
0.0
  0
LINE
  5
91
330
47
100
AcDbEntity
  8
0
  6
Continuous
 62
     7
100
AcDbLine
 10
14.39734471521047
 20
81.15023417992586
 30
0.0
 11
10.86429650027615
 21
80.07007294154812
 31
0.0
  0
LINE
  5
92
330
47
100
AcDbEntity
  8
0
  6
Continuous
 62
     7
100
AcDbLine
 10
16.6021250360532
 20
81.82430316988412
 30
0.0
 11
15.84195860377412
 21
84.31069553538802
 31
0.0
  0
LINE
  5
93
330
47
100
AcDbEntity
  8
0
  6
Continuous
 62
     7
100
AcDbLine
 10
13.63717828293127
 20
83.63662654543012
 30
0.0
 11
14.39734471521047
 21
81.15023417992586
 31
0.0
  0
LINE
  5
94
330
47
100
AcDbEntity
  8
0
  6
Continuous
 62
     7
100
AcDbLine
 10
16.6021250360532
 20
81.82430316988412
 30
0.0
 11
14.39734471521047
 21
81.15023417992586
 31
0.0
  0
LINE
  5
95
330
47
100
AcDbEntity
  8
0
  6
Continuous
 62
     7
100
AcDbLine
 10
12.97304433588516
 20
83.43358042121989
 30
0.0
 11
13.17770452919107
 21
82.76416709204575
 31
0.0
  0
LINE
  5
96
330
47
100
AcDbEntity
  8
0
  6
Continuous
 62
     7
100
AcDbLine
 10
12.97304433588516
 20
83.43358042121989
 30
0.0
 11
13.63717828293127
 21
83.63662654543012
 31
0.0
  0
LINE
  5
97
330
47
100
AcDbEntity
  8
0
  6
Continuous
 62
     7
100
AcDbLine
 10
13.63717828293127
 20
83.63662654543012
 30
0.0
 11
15.84195860377412
 21
84.31069553538802
 31
0.0
  0
LINE
  5
98
330
47
100
AcDbEntity
  8
0
  6
Continuous
 62
     7
100
AcDbLine
 10
15.84195860377412
 20
84.31069553538802
 30
0.0
 11
15.73962850712116
 21
84.64540219997508
 31
0.0
  0
LINE
  5
99
330
47
100
AcDbEntity
  8
0
  6
Continuous
 62
     7
100
AcDbLine
 10
15.73962850712116
 20
84.64540219997508
 30
0.0
 11
21.14275037831234
 21
86.29730233165847
 31
0.0
  0
LINE
  5
9A
330
47
100
AcDbEntity
  8
0
  6
Continuous
 62
     7
100
AcDbLine
 10
0.6841854644506
 20
80.05845281272386
 30
0.0
 11
-0.37333725205773
 21
80.05845281272386
 31
0.0
  0
LINE
  5
9B
330
47
100
AcDbEntity
  8
0
  6
Continuous
 62
     7
100
AcDbLine
 10
0.6841854644506
 20
80.05845281272386
 30
0.0
 11
1.71804626091577
 21
80.05845281272359
 31
0.0
  0
LINE
  5
9C
330
47
100
AcDbEntity
  8
0
  6
Continuous
 62
     7
100
AcDbLine
 10
10.30879026130162
 20
81.88705197787746
 30
0.0
 11
13.17770452919107
 21
82.76416709204575
 31
0.0
  0
LINE
  5
9D
330
47
100
AcDbEntity
  8
0
  6
Continuous
 62
     7
100
AcDbLine
 10
10.86429650027615
 20
80.07007294154812
 30
0.0
 11
10.65963630696889
 21
80.73948627072181
 31
0.0
  0
LINE
  5
9E
330
47
100
AcDbEntity
  8
0
  6
Continuous
 62
     7
100
AcDbLine
 10
10.65963630696889
 20
80.73948627072181
 30
0.0
 11
10.30879026130162
 21
81.88705197787746
 31
0.0
  0
LINE
  5
9F
330
47
100
AcDbEntity
  8
0
  6
Continuous
 62
     7
100
AcDbLine
 10
9.99022297779503
 20
80.534826077416
 30
0.0
 11
10.10717165968402
 21
80.15230417503076
 31
0.0
  0
LINE
  5
A0
330
47
100
AcDbEntity
  8
0
  6
Continuous
 62
     7
100
AcDbLine
 10
9.99022297779503
 20
80.534826077416
 30
0.0
 11
10.65963630696889
 21
80.73948627072181
 31
0.0
  0
LINE
  5
A1
330
47
100
AcDbEntity
  8
0
  6
Continuous
 62
     7
100
AcDbLine
 10
8.43207623760071
 20
80.05845281272381
 30
0.0
 11
9.99022297779503
 21
80.534826077416
 31
0.0
  0
LINE
  5
A2
330
47
100
AcDbEntity
  8
0
  6
Continuous
 62
     7
100
AcDbLine
 10
10.30879026130162
 20
81.88705197787746
 30
0.0
 11
8.25273503598216
 21
81.25845281272393
 31
0.0
  0
LINE
  5
A3
330
47
100
AcDbEntity
  8
0
  6
Continuous
 62
     2
100
AcDbLine
 10
0.31730864670019
 20
81.25845281272383
 30
0.0
 11
0.6841854644506
 21
80.05845281272386
 31
0.0
  0
LINE
  5
A4
330
47
100
AcDbEntity
  8
0
  6
Continuous
 62
     7
100
AcDbLine
 10
-0.7402140698081
 20
81.25845281272385
 30
0.0
 11
0.31730864670019
 21
81.25845281272383
 31
0.0
  0
LINE
  5
A5
330
47
100
AcDbEntity
  8
0
  6
Continuous
 62
     7
100
AcDbLine
 10
1.35116944316531
 20
81.25845281272376
 30
0.0
 11
0.31730864670019
 21
81.25845281272383
 31
0.0
  0
LINE
  5
A6
330
47
100
AcDbEntity
  8
0
  6
Continuous
 62
     7
100
AcDbLine
 10
8.25273503598216
 20
81.25845281272393
 30
0.0
 11
1.35116944316531
 21
81.25845281272376
 31
0.0
  0
ARC
  5
A7
330
47
100
AcDbEntity
  8
0
  6
Continuous
 62
     7
100
AcDbCircle
 10
22.00524690724438
 20
83.47620330156752
 30
0.0
 40
0.3500000000000085
100
AcDbArc
 50
286.9999999999981
 51
16.99999999999874
  0
ARC
  5
A8
330
47
100
AcDbEntity
  8
0
  6
Continuous
 62
     7
100
AcDbCircle
 10
21.24508047496529
 20
85.96259566707141
 30
0.0
 40
0.3500000000000017
100
AcDbArc
 50
16.9999999999984
 51
106.9999999999993
  0
ARC
  5
A9
330
47
100
AcDbEntity
  8
0
  6
Continuous
 62
     7
100
AcDbCircle
 10
10.39406308647293
 20
80.24001568644758
 30
0.0
 40
0.2999999999999961
100
AcDbArc
 50
196.9999999999987
 51
286.9999999999998
  0
ENDBLK
  5
49
330
47
100
AcDbEntity
  8
0
100
AcDbBlockEnd
  0
BLOCK
  5
4C
330
4A
100
AcDbEntity
  8
0
100
AcDbBlockBegin
  2
Back1
 70
     0
 10
10.328189
 20
83.13252300000002
 30
0.0
  3
Back1
  1

  0
INSERT
  5
4B
330
4A
100
AcDbEntity
  8
0
100
AcDbBlockReference
  2
EB_3-8-select__1
 10
-1.78590582629525
 20
79.94001568644758
 30
0.0
  0
MTEXT
  5
AB
330
4A
100
AcDbEntity
  8
1
 62
     6
100
AcDbMText
 10
10.32818897607962
 20
73.79999922872673
 30
0.0
 40
2.5
 41
0.0
 71
     2
 72
     1
  1
 
  7
CONVERTER_11
 73
     1
 44
1.32052821128451
  0
ENDBLK
  5
4D
330
4A
100
AcDbEntity
  8
0
100
AcDbBlockEnd
  0
BLOCK
  5
4F
330
4E
100
AcDbEntity
  8
0
100
AcDbBlockBegin
  2
EB_3-8-select__2
 70
     0
 10
-68.52705790724428
 20
79.94001568644751
 30
0.0
  3
EB_3-8-select__2
  1

  0
LINE
  5
AC
330
4E
100
AcDbEntity
  8
0
  6
Continuous
 62
     7
100
AcDbLine
 10
-45.43159693019167
 20
81.25845281272368
 30
0.0
 11
-44.38590517370373
 21
81.25845281272356
 31
0.0
  0
LINE
  5
AD
330
4E
100
AcDbEntity
  8
0
  6
Continuous
 62
     7
100
AcDbLine
 10
-44.75278199145406
 20
80.05845281272369
 30
0.0
 11
-44.38590517370373
 21
81.25845281272356
 31
0.0
  0
LINE
  5
AE
330
4E
100
AcDbEntity
  8
0
  6
Continuous
 62
     7
100
AcDbLine
 10
-44.75278199145406
 20
80.05845281272369
 30
0.0
 11
-45.79847374794205
 21
80.05845281272369
 31
0.0
  0
LINE
  5
AF
330
4E
100
AcDbEntity
  8
0
  6
Continuous
 62
     2
100
AcDbLine
 10
-45.79847374794205
 20
80.05845281272369
 30
0.0
 11
-45.43159693019167
 21
81.25845281272368
 31
0.0
  0
LINE
  5
B0
330
4E
100
AcDbEntity
  8
0
  6
Continuous
 62
     2
100
AcDbLine
 10
-46.85599646444953
 20
80.05845281272369
 30
0.0
 11
-46.48911964669913
 21
81.25845281272362
 31
0.0
  0
LINE
  5
B1
330
4E
100
AcDbEntity
  8
0
  6
Continuous
 62
     7
100
AcDbLine
 10
-47.52298044316613
 20
81.2584528127237
 30
0.0
 11
-47.88985726091653
 21
80.05845281272374
 31
0.0
  0
LINE
  5
B2
330
4E
100
AcDbEntity
  8
0
  6
Continuous
 62
     7
100
AcDbLine
 10
-47.88985726091653
 20
80.05845281272374
 30
0.0
 11
-46.85599646444953
 21
80.05845281272369
 31
0.0
  0
LINE
  5
B3
330
4E
100
AcDbEntity
  8
0
  6
Continuous
 62
     7
100
AcDbLine
 10
-46.48911964669913
 20
81.25845281272362
 30
0.0
 11
-47.52298044316613
 21
81.2584528127237
 31
0.0
  0
LINE
  5
B4
330
4E
100
AcDbEntity
  8
0
  6
Continuous
 62
     7
100
AcDbLine
 10
-46.48911964669913
 20
81.25845281272362
 30
0.0
 11
-45.43159693019167
 21
81.25845281272368
 31
0.0
  0
LINE
  5
B5
330
4E
100
AcDbEntity
  8
0
  6
Continuous
 62
     7
100
AcDbLine
 10
-45.79847374794205
 20
80.05845281272369
 30
0.0
 11
-46.85599646444953
 21
80.05845281272369
 31
0.0
  0
LINE
  5
B6
330
4E
100
AcDbEntity
  8
0
  6
Continuous
 62
     7
100
AcDbLine
 10
-62.77393603605312
 20
81.82430316988399
 30
0.0
 11
-62.87626613270607
 21
81.48959650529693
 31
0.0
  0
LINE
  5
B7
330
4E
100
AcDbEntity
  8
0
  6
Continuous
 62
     7
100
AcDbLine
 10
-56.83144730697215
 20
80.73948627072272
 30
0.0
 11
-57.03610750027536
 21
80.07007294154778
 31
0.0
  0
LINE
  5
B8
330
4E
100
AcDbEntity
  8
0
  6
Continuous
 62
     7
100
AcDbLine
 10
-57.03610750027536
 20
80.07007294154778
 30
0.0
 11
-60.56915571520678
 21
81.15023417992464
 31
0.0
  0
LINE
  5
B9
330
4E
100
AcDbEntity
  8
0
  6
Continuous
 62
     7
100
AcDbLine
 10
-68.27938800389724
 20
83.14149663698034
 30
0.0
 11
-62.87626613270607
 21
81.48959650529693
 31
0.0
  0
LINE
  5
BA
330
4E
100
AcDbEntity
  8
0
  6
Continuous
 62
     7
100
AcDbLine
 10
-59.34951552919083
 20
82.76416709204557
 30
0.0
 11
-59.14485533588491
 21
83.43358042121972
 31
0.0
  0
LINE
  5
BB
330
4E
100
AcDbEntity
  8
0
  6
Continuous
 62
     7
100
AcDbLine
 10
-59.34951552919083
 20
82.76416709204557
 30
0.0
 11
-56.48060126130488
 21
81.88705197787837
 31
0.0
  0
LINE
  5
BC
330
4E
100
AcDbEntity
  8
0
  6
Continuous
 62
     7
100
AcDbLine
 10
-56.16203397779501
 20
80.53482607741589
 30
0.0
 11
-54.60388723760079
 21
80.05845281272374
 31
0.0
  0
LINE
  5
BD
330
4E
100
AcDbEntity
  8
0
  6
Continuous
 62
     7
100
AcDbLine
 10
-56.83144730697215
 20
80.73948627072272
 30
0.0
 11
-56.16203397779501
 21
80.53482607741589
 31
0.0
  0
LINE
  5
BE
330
4E
100
AcDbEntity
  8
0
  6
Continuous
 62
     7
100
AcDbLine
 10
-59.14485533588491
 20
83.43358042121972
 30
0.0
 11
-59.80898928292759
 21
83.6366265454289
 31
0.0
  0
LINE
  5
BF
330
4E
100
AcDbEntity
  8
0
  6
Continuous
 62
     7
100
AcDbLine
 10
-61.91143950712108
 20
84.64540219997495
 30
0.0
 11
-62.01376960377403
 21
84.3106955353879
 31
0.0
  0
LINE
  5
C0
330
4E
100
AcDbEntity
  8
0
  6
Continuous
 62
     7
100
AcDbLine
 10
-67.31456137831225
 20
86.29730233165836
 30
0.0
 11
-61.91143950712108
 21
84.64540219997495
 31
0.0
  0
LINE
  5
C1
330
4E
100
AcDbEntity
  8
0
  6
Continuous
 62
     7
100
AcDbLine
 10
-54.42454603598147
 20
81.25845281272362
 30
0.0
 11
-56.48060126130488
 21
81.88705197787837
 31
0.0
  0
LINE
  5
C2
330
4E
100
AcDbEntity
  8
0
  6
Continuous
 62
     7
100
AcDbLine
 10
-47.88985726091653
 20
80.05845281272374
 30
0.0
 11
-54.60388723760079
 21
80.05845281272374
 31
0.0
  0
LINE
  5
C3
330
4E
100
AcDbEntity
  8
0
  6
Continuous
 62
     7
100
AcDbLine
 10
-62.77393603605312
 20
81.82430316988399
 30
0.0
 11
-60.56915571520678
 21
81.15023417992464
 31
0.0
  0
LINE
  5
C4
330
4E
100
AcDbEntity
  8
0
  6
Continuous
 62
     7
100
AcDbLine
 10
-62.01376960377403
 20
84.3106955353879
 30
0.0
 11
-59.80898928292759
 21
83.6366265454289
 31
0.0
  0
LINE
  5
C5
330
4E
100
AcDbEntity
  8
0
  6
Continuous
 62
     7
100
AcDbLine
 10
-60.56915571520678
 20
81.15023417992464
 30
0.0
 11
-59.80898928292759
 21
83.6366265454289
 31
0.0
  0
LINE
  5
C6
330
4E
100
AcDbEntity
  8
0
  6
Continuous
 62
     7
100
AcDbLine
 10
-62.01376960377403
 20
84.3106955353879
 30
0.0
 11
-62.77393603605312
 21
81.82430316988399
 31
0.0
  0
LINE
  5
C7
330
4E
100
AcDbEntity
  8
0
  6
Continuous
 62
     7
100
AcDbLine
 10
-67.75159813955226
 20
86.06492576372425
 30
0.0
 11
-68.51176457183135
 21
83.57853339822036
 31
0.0
  0
LINE
  5
C8
330
4E
100
AcDbEntity
  8
0
  6
Continuous
 62
     7
100
AcDbLine
 10
-56.2789826596841
 20
80.1523041750307
 30
0.0
 11
-56.16203397779501
 21
80.53482607741589
 31
0.0
  0
LINE
  5
C9
330
4E
100
AcDbEntity
  8
0
  6
Continuous
 62
     7
100
AcDbLine
 10
-56.48060126130488
 20
81.88705197787837
 30
0.0
 11
-56.83144730697215
 21
80.73948627072272
 31
0.0
  0
LINE
  5
CA
330
4E
100
AcDbEntity
  8
0
  6
Continuous
 62
     7
100
AcDbLine
 10
-56.65358559788983
 20
79.9531242596586
 30
0.0
 11
-57.03610750027536
 21
80.07007294154778
 31
0.0
  0
LINE
  5
CB
330
4E
100
AcDbEntity
  8
0
  6
Continuous
 62
     7
100
AcDbLine
 10
-47.52298044316613
 20
81.2584528127237
 30
0.0
 11
-54.42454603598147
 21
81.25845281272362
 31
0.0
  0
ARC
  5
CC
330
4E
100
AcDbEntity
  8
0
  6
Continuous
 62
     7
100
AcDbCircle
 10
-68.17705790724429
 20
83.4762033015674
 30
0.0
 40
0.349999999999999
100
AcDbArc
 50
162.999999999999
 51
253.0000000000013
  0
ARC
  5
CD
330
4E
100
AcDbEntity
  8
0
  6
Continuous
 62
     7
100
AcDbCircle
 10
-67.4168914749652
 20
85.9625956670713
 30
0.0
 40
0.3499999999999949
100
AcDbArc
 50
73.00000000000126
 51
163.0000000000013
  0
ARC
  5
CE
330
4E
100
AcDbEntity
  8
0
  6
Continuous
 62
     7
100
AcDbCircle
 10
-56.56587408647301
 20
80.2400156864475
 30
0.0
 40
0.3000000000000015
100
AcDbArc
 50
253.0000000000002
 51
343.0000000000015
  0
ENDBLK
  5
50
330
4E
100
AcDbEntity
  8
0
100
AcDbBlockEnd
  0
BLOCK
  5
53
330
51
100
AcDbEntity
  8
0
100
AcDbBlockBegin
  2
Front1
 70
     0
 10
-56.49999999999992
 20
83.1325229999999
 30
0.0
  3
Front1
  1

  0
INSERT
  5
52
330
51
100
AcDbEntity
  8
0
100
AcDbBlockReference
  2
EB_3-8-select__2
 10
-68.52705790724428
 20
79.94001568644751
 30
0.0
  0
MTEXT
  5
CF
330
51
100
AcDbEntity
  8
1
 62
     6
100
AcDbMText
 10
-56.50000000007998
 20
73.79999922872673
 30
0.0
 40
2.5
 41
0.0
 71
     2
 72
     1
  1
 
  7
CONVERTER_11
 73
     1
 44
1.32052821128451
  0
INSERT
  5
D9
330
51
100
AcDbEntity
  8
1
100
AcDbBlockReference
  2
*D17
 10
0.0
 20
0.0
 30
0.0
  0
INSERT
  5
E3
330
51
100
AcDbEntity
  8
1
100
AcDbBlockReference
  2
*D18
 10
0.0
 20
0.0
 30
0.0
  0
ENDBLK
  5
54
330
51
100
AcDbEntity
  8
0
100
AcDbBlockEnd
  0
BLOCK
  5
56
330
55
100
AcDbEntity
  8
0
100
AcDbBlockBegin
  2
EB_3-8-select__3
 70
     0
 10
-21.56867576162708
 20
42.13258039896788
 30
0.0
  3
EB_3-8-select__3
  1

  0
LINE
  5
E4
330
55
100
AcDbEntity
  8
0
  6
Continuous
 62
     7
100
AcDbLine
 10
-10.60031802116261
 20
44.46635226734097
 30
0.0
 11
-10.97487703889178
 21
44.62495155908619
 31
0.0
  0
LINE
  5
E5
330
55
100
AcDbEntity
  8
0
  6
Continuous
 62
     7
100
AcDbLine
 10
-8.5765972741137
 20
47.62157527113774
 30
0.0
 11
-8.52625701485635
 21
47.77380975055506
 31
0.0
  0
LINE
  5
E6
330
55
100
AcDbEntity
  8
0
  6
Continuous
 62
     7
100
AcDbLine
 10
-8.65113074262812
 20
47.66554736106161
 30
0.0
 11
-8.52625701485635
 21
47.77380975055506
 31
0.0
  0
LINE
  5
E7
330
55
100
AcDbEntity
  8
0
  6
Continuous
 62
     7
100
AcDbLine
 10
-7.5080921987094
 20
56.2845090624083
 30
0.0
 11
-8.09203920609504
 21
54.5185891011674
 31
0.0
  0
LINE
  5
E8
330
55
100
AcDbEntity
  8
0
  6
Continuous
 62
     7
100
AcDbLine
 10
-10.61603857201202
 20
49.96500328863186
 30
0.0
 11
-10.79126519710564
 21
49.43509870640088
 31
0.0
  0
LINE
  5
E9
330
55
100
AcDbEntity
  8
0
  6
Continuous
 62
     7
100
AcDbLine
 10
-10.24430163282781
 20
44.57450476234627
 30
0.0
 11
-10.17437628832899
 21
44.7859666931128
 31
0.0
  0
LINE
  5
EA
330
55
100
AcDbEntity
  8
0
  6
Continuous
 62
     2
100
AcDbLine
 10
-10.07084526684869
 20
44.72488708045943
 30
0.0
 11
-10.24430163282781
 21
44.57450476234627
 31
0.0
  0
LINE
  5
EB
330
55
100
AcDbEntity
  8
0
  6
Continuous
 62
     7
100
AcDbLine
 10
-10.04713129827017
 20
44.7108966842039
 30
0.0
 11
-10.29938558107061
 21
44.49219854886956
 31
0.0
  0
LINE
  5
EC
330
55
100
AcDbEntity
  8
0
  6
Continuous
 62
     7
100
AcDbLine
 10
-10.79965041379864
 20
45.15485614131672
 30
0.0
 11
-8.86778119195239
 21
44.01512215550092
 31
0.0
  0
LINE
  5
ED
330
55
100
AcDbEntity
  8
0
  6
Continuous
 62
     7
100
AcDbLine
 10
-9.06422008624797
 20
51.31039098808426
 30
0.0
 11
-9.23944671134161
 21
50.78048640585327
 31
0.0
  0
LINE
  5
EE
330
55
100
AcDbEntity
  8
0
  6
Continuous
 62
     7
100
AcDbLine
 10
-9.69183716619416
 20
51.60542398898004
 30
0.0
 11
-9.06422008624797
 21
51.31039098808426
 31
0.0
  0
LINE
  5
EF
330
55
100
AcDbEntity
  8
0
  6
Continuous
 62
     7
100
AcDbLine
 10
-10.34267891654194
 20
49.63720696926499
 30
0.0
 11
-9.69183716619416
 21
51.60542398898004
 31
0.0
  0
LINE
  5
F0
330
55
100
AcDbEntity
  8
0
  6
Continuous
 62
     7
100
AcDbLine
 10
-8.52625701485635
 20
47.77380975055506
 30
0.0
 11
-10.79126519710564
 21
49.43509870640088
 31
0.0
  0
LINE
  5
F1
330
55
100
AcDbEntity
  8
0
  6
Continuous
 62
     7
100
AcDbLine
 10
2.67884675788946
 20
46.9736028375011
 30
0.0
 11
3.59499062331608
 21
46.71283103553203
 31
0.0
  0
LINE
  5
F2
330
55
100
AcDbEntity
  8
0
  6
Continuous
 62
     7
100
AcDbLine
 10
3.28087684495469
 20
45.7629164297657
 30
0.0
 11
2.364732979528
 21
46.02368823173477
 31
0.0
  0
LINE
  5
F3
330
55
100
AcDbEntity
  8
0
  6
Continuous
 62
     7
100
AcDbLine
 10
0.49812217459665
 20
44.02792377611227
 30
0.0
 11
-0.41802169082997
 21
44.28869557808135
 31
0.0
  0
LINE
  5
F4
330
55
100
AcDbEntity
  8
0
  6
Continuous
 62
     7
100
AcDbLine
 10
-2.73722746444348
 20
43.30944140793497
 30
0.0
 11
-8.71613163453441
 21
45.01128068566563
 31
0.0
  0
LINE
  5
F5
330
55
100
AcDbEntity
  8
0
  6
Continuous
 62
     2
100
AcDbLine
 10
2.364732979528
 20
46.02368823173477
 30
0.0
 11
2.67884675788946
 21
46.9736028375011
 31
0.0
  0
LINE
  5
F6
330
55
100
AcDbEntity
  8
0
  6
Continuous
 62
     2
100
AcDbLine
 10
3.28087684495469
 20
45.7629164297657
 30
0.0
 11
3.59499062331608
 21
46.71283103553203
 31
0.0
  0
LINE
  5
F7
330
55
100
AcDbEntity
  8
0
  6
Continuous
 62
     7
100
AcDbLine
 10
1.35863080644323
 20
46.8604477832964
 30
0.0
 11
1.04451702808181
 21
45.91053317753012
 31
0.0
  0
LINE
  5
F8
330
55
100
AcDbEntity
  8
0
  6
Continuous
 62
     7
100
AcDbLine
 10
-0.88909629343406
 20
44.9117247724271
 30
0.0
 11
-6.86800046352494
 21
46.61356405015774
 31
0.0
  0
LINE
  5
F9
330
55
100
AcDbEntity
  8
0
  6
Continuous
 62
     7
100
AcDbLine
 10
4.80182902964205
 20
46.09980560103994
 30
0.0
 11
5.11594280800342
 21
47.04972020680627
 31
0.0
  0
LINE
  5
FA
330
55
100
AcDbEntity
  8
0
  6
Continuous
 62
     7
100
AcDbLine
 10
-20.5228686388166
 20
52.01709058385418
 30
0.0
 11
-15.83696813792269
 21
49.25257630171448
 31
0.0
  0
LINE
  5
FB
330
55
100
AcDbEntity
  8
0
  6
Continuous
 62
     7
100
AcDbLine
 10
-16.35065049082961
 20
47.21427929197084
 30
0.0
 11
-15.69980874048184
 21
49.1824963116859
 31
0.0
  0
LINE
  5
FC
330
55
100
AcDbEntity
  8
0
  6
Continuous
 62
     7
100
AcDbLine
 10
-15.83696813792269
 20
49.25257630171448
 30
0.0
 11
-16.66303651336409
 21
46.75445469976847
 31
0.0
  0
LINE
  5
FD
330
55
100
AcDbEntity
  8
0
  6
Continuous
 62
     7
100
AcDbLine
 10
-16.66303651336409
 20
46.75445469976847
 30
0.0
 11
-16.22093077606441
 21
47.13774928368854
 31
0.0
  0
LINE
  5
FE
330
55
100
AcDbEntity
  8
0
  6
Continuous
 62
     7
100
AcDbLine
 10
-11.13921950416177
 20
49.13343105069284
 30
0.0
 11
-10.79126519710564
 21
49.43509870640088
 31
0.0
  0
LINE
  5
FF
330
55
100
AcDbEntity
  8
0
  6
Continuous
 62
     7
100
AcDbLine
 10
-12.98735067517211
 20
47.53114768619997
 30
0.0
 11
-11.13921950416177
 21
49.13343105069284
 31
0.0
  0
LINE
  5
100
330
55
100
AcDbEntity
  8
0
  6
Continuous
 62
     7
100
AcDbLine
 10
-14.43853718744172
 20
46.08620059391127
 30
0.0
 11
-13.78769543709394
 21
48.05441761362631
 31
0.0
  0
LINE
  5
101
330
55
100
AcDbEntity
  8
0
  6
Continuous
 62
     7
100
AcDbLine
 10
-13.16007835713351
 20
47.75938461272384
 30
0.0
 11
-13.33530498222715
 21
47.22948003049286
 31
0.0
  0
LINE
  5
102
330
55
100
AcDbEntity
  8
0
  6
Continuous
 62
     7
100
AcDbLine
 10
-10.97487703889178
 20
44.62495155908619
 30
0.0
 11
-11.09975076666271
 21
44.5166891695935
 31
0.0
  0
LINE
  5
103
330
55
100
AcDbEntity
  8
0
  6
Continuous
 62
     7
100
AcDbLine
 10
-10.97487703889178
 20
44.62495155908619
 30
0.0
 11
-10.79965041379864
 21
45.15485614131672
 31
0.0
  0
LINE
  5
104
330
55
100
AcDbEntity
  8
0
  6
Continuous
 62
     7
100
AcDbLine
 10
-10.79965041379864
 20
45.15485614131672
 30
0.0
 11
-10.49926191363813
 21
46.06326399656982
 31
0.0
  0
LINE
  5
105
330
55
100
AcDbEntity
  8
0
  6
Continuous
 62
     7
100
AcDbLine
 10
-10.62413564140857
 20
45.95500160707756
 30
0.0
 11
-11.09975076666271
 21
44.5166891695935
 31
0.0
  0
LINE
  5
106
330
55
100
AcDbEntity
  8
0
  6
Continuous
 62
     7
100
AcDbLine
 10
-13.33530498222715
 20
47.22948003049286
 30
0.0
 11
-10.62413564140857
 21
45.95500160707756
 31
0.0
  0
LINE
  5
107
330
55
100
AcDbEntity
  8
0
  6
Continuous
 62
     7
100
AcDbLine
 10
-13.33530498222715
 20
47.22948003049286
 30
0.0
 11
-12.98735067517211
 21
47.53114768619997
 31
0.0
  0
LINE
  5
108
330
55
100
AcDbEntity
  8
0
  6
Continuous
 62
     7
100
AcDbLine
 10
-13.78769543709394
 20
48.05441761362631
 30
0.0
 11
-13.16007835713351
 21
47.75938461272384
 31
0.0
  0
LINE
  5
109
330
55
100
AcDbEntity
  8
0
  6
Continuous
 62
     7
100
AcDbLine
 10
-11.09975076666271
 20
44.5166891695935
 30
0.0
 11
-14.43853718744172
 21
46.08620059391127
 31
0.0
  0
LINE
  5
10A
330
55
100
AcDbEntity
  8
0
  6
Continuous
 62
     7
100
AcDbLine
 10
-13.16007835713351
 20
47.75938461272384
 30
0.0
 11
-10.61603857201202
 21
49.96500328863186
 31
0.0
  0
LINE
  5
10B
330
55
100
AcDbEntity
  8
0
  6
Continuous
 62
     7
100
AcDbLine
 10
-10.61603857201202
 20
49.96500328863186
 30
0.0
 11
-11.14037240832717
 21
50.34958027085787
 31
0.0
  0
LINE
  5
10C
330
55
100
AcDbEntity
  8
0
  6
Continuous
 62
     7
100
AcDbLine
 10
-11.14037240832717
 20
50.34958027085787
 30
0.0
 11
-13.05248571173858
 21
51.47765896893132
 31
0.0
  0
LINE
  5
10D
330
55
100
AcDbEntity
  8
0
  6
Continuous
 62
     7
100
AcDbLine
 10
-13.05248571173858
 20
51.47765896893132
 30
0.0
 11
-15.69980874048184
 21
49.1824963116859
 31
0.0
  0
LINE
  5
10E
330
55
100
AcDbEntity
  8
0
  6
Continuous
 62
     7
100
AcDbLine
 10
-13.78769543709394
 20
48.05441761362631
 30
0.0
 11
-15.69980874048184
 21
49.1824963116859
 31
0.0
  0
LINE
  5
10F
330
55
100
AcDbEntity
  8
0
  6
Continuous
 62
     7
100
AcDbLine
 10
-14.43853718744172
 20
46.08620059391127
 30
0.0
 11
-16.35065049082961
 21
47.21427929197084
 31
0.0
  0
LINE
  5
110
330
55
100
AcDbEntity
  8
0
  6
Continuous
 62
     7
100
AcDbLine
 10
-21.348937014258
 20
49.51896898190816
 30
0.0
 11
-16.66303651336409
 21
46.75445469976847
 31
0.0
  0
LINE
  5
111
330
55
100
AcDbEntity
  8
0
  6
Continuous
 62
     2
100
AcDbLine
 10
-10.49926191363813
 20
46.06326399656982
 30
0.0
 11
-12.98735067517211
 21
47.53114768619997
 31
0.0
  0
LINE
  5
112
330
55
100
AcDbEntity
  8
0
  6
Continuous
 62
     2
100
AcDbLine
 10
-4.55527247174035
 20
51.21655373642243
 30
0.0
 11
-7.04336123327613
 21
52.68443742605332
 31
0.0
  0
LINE
  5
113
330
55
100
AcDbEntity
  8
0
  6
Continuous
 62
     7
100
AcDbLine
 10
-2.94865586656569
 20
57.45159302158674
 30
0.0
 11
-2.42432203024043
 21
57.06701603935332
 31
0.0
  0
LINE
  5
114
330
55
100
AcDbEntity
  8
0
  6
Continuous
 62
     2
100
AcDbLine
 10
-0.45941420085332
 20
54.76756011178262
 30
0.0
 11
-2.94750296239039
 21
56.23544380141412
 31
0.0
  0
LINE
  5
115
330
55
100
AcDbEntity
  8
0
  6
Continuous
 62
     7
100
AcDbLine
 10
-4.79563413340023
 20
54.63316043692169
 30
0.0
 11
-2.94750296239039
 21
56.23544380141412
 31
0.0
  0
LINE
  5
116
330
55
100
AcDbEntity
  8
0
  6
Continuous
 62
     7
100
AcDbLine
 10
-1.9826597465914
 20
51.88797944385575
 30
0.0
 11
-2.05258509105671
 21
51.6765175130673
 31
0.0
  0
LINE
  5
117
330
55
100
AcDbEntity
  8
0
  6
Continuous
 62
     7
100
AcDbLine
 10
-2.60793387202383
 20
52.25686889203772
 30
0.0
 11
-0.67606465017981
 21
51.11713490622324
 31
0.0
  0
LINE
  5
118
330
55
100
AcDbEntity
  8
0
  6
Continuous
 62
     7
100
AcDbLine
 10
-2.43241909963491
 20
53.05701435779752
 30
0.0
 11
-2.90803422488909
 21
51.61870192031348
 31
0.0
  0
LINE
  5
119
330
55
100
AcDbEntity
  8
0
  6
Continuous
 62
     7
100
AcDbLine
 10
-2.42432203024043
 20
57.06701603935332
 30
0.0
 11
-4.96836181536233
 21
54.86139736344496
 31
0.0
  0
LINE
  5
11A
330
55
100
AcDbEntity
  8
0
  6
Continuous
 62
     7
100
AcDbLine
 10
-0.33454047308274
 20
54.87582250127503
 30
0.0
 11
-2.59954865533406
 21
56.53711145712234
 31
0.0
  0
LINE
  5
11B
330
55
100
AcDbEntity
  8
0
  6
Continuous
 62
     7
100
AcDbLine
 10
-2.94865586656569
 20
57.45159302158674
 30
0.0
 11
-4.86076916996613
 21
58.57967171965372
 31
0.0
  0
LINE
  5
11C
330
55
100
AcDbEntity
  8
0
  6
Continuous
 62
     7
100
AcDbLine
 10
-4.43039874396968
 20
51.32481612591493
 30
0.0
 11
-6.69540692621992
 21
52.98610508176145
 31
0.0
  0
LINE
  5
11D
330
55
100
AcDbEntity
  8
0
  6
Continuous
 62
     7
100
AcDbLine
 10
-0.45941420085332
 20
54.76756011178262
 30
0.0
 11
1.32371607824697
 21
53.71557680088045
 31
0.0
  0
LINE
  5
11E
330
55
100
AcDbEntity
  8
0
  6
Continuous
 62
     7
100
AcDbLine
 10
-5.95127302738345
 20
48.26190305956532
 30
0.0
 11
-6.20352731018511
 21
48.04320492422993
 31
0.0
  0
LINE
  5
11F
330
55
100
AcDbEntity
  8
0
  6
Continuous
 62
     7
100
AcDbLine
 10
-4.6202733636477
 20
48.56228706102707
 30
0.0
 11
-6.40340364275036
 21
49.61427037193064
 31
0.0
  0
LINE
  5
120
330
55
100
AcDbEntity
  8
0
  6
Continuous
 62
     2
100
AcDbLine
 10
-5.97498699596197
 20
48.27589345582086
 30
0.0
 11
-6.14844336194231
 21
48.12551113770664
 31
0.0
  0
LINE
  5
121
330
55
100
AcDbEntity
  8
0
  6
Continuous
 62
     7
100
AcDbLine
 10
-2.42432203024043
 20
57.06701603935332
 30
0.0
 11
-2.59954865533406
 21
56.53711145712234
 31
0.0
  0
LINE
  5
122
330
55
100
AcDbEntity
  8
0
  6
Continuous
 62
     7
100
AcDbLine
 10
-2.73722746444348
 20
43.30944140793497
 30
0.0
 11
-3.0513412428049
 21
42.35952680216869
 31
0.0
  0
LINE
  5
123
330
55
100
AcDbEntity
  8
0
  6
Continuous
 62
     7
100
AcDbLine
 10
-2.94750296239039
 20
56.23544380141412
 30
0.0
 11
-2.59954865533406
 21
56.53711145712234
 31
0.0
  0
LINE
  5
124
330
55
100
AcDbEntity
  8
0
  6
Continuous
 62
     7
100
AcDbLine
 10
-2.77214219263821
 20
50.16457042551917
 30
0.0
 11
-4.6202733636477
 21
48.56228706102707
 31
0.0
  0
LINE
  5
125
330
55
100
AcDbEntity
  8
0
  6
Continuous
 62
     7
100
AcDbLine
 10
-6.70379214291087
 20
48.70586251667753
 30
0.0
 11
-4.77192292106567
 21
47.56612853086235
 31
0.0
  0
LINE
  5
126
330
55
100
AcDbEntity
  8
0
  6
Continuous
 62
     2
100
AcDbLine
 10
-8.65113074262812
 20
47.66554736106161
 30
0.0
 11
-11.13921950416177
 21
49.13343105069284
 31
0.0
  0
LINE
  5
127
330
55
100
AcDbEntity
  8
0
  6
Continuous
 62
     7
100
AcDbLine
 10
-9.69183716619416
 20
51.60542398898004
 30
0.0
 11
-11.60395046959526
 21
52.73350268704741
 31
0.0
  0
LINE
  5
128
330
55
100
AcDbEntity
  8
0
  6
Continuous
 62
     7
100
AcDbLine
 10
-12.1878974769812
 20
50.96758272580563
 30
0.0
 11
-11.60395046959526
 21
52.73350268704741
 31
0.0
  0
LINE
  5
129
330
55
100
AcDbEntity
  8
0
  6
Continuous
 62
     7
100
AcDbLine
 10
-6.50445975027711
 20
48.01735864270135
 30
0.0
 11
-6.8790187680051
 21
48.17595793444606
 31
0.0
  0
LINE
  5
12A
330
55
100
AcDbEntity
  8
0
  6
Continuous
 62
     7
100
AcDbLine
 10
-8.89149240428598
 20
51.0821540615609
 30
0.0
 11
-7.04336123327613
 21
52.68443742605332
 31
0.0
  0
LINE
  5
12B
330
55
100
AcDbEntity
  8
0
  6
Continuous
 62
     7
100
AcDbLine
 10
-6.70379214291087
 20
48.70586251667753
 30
0.0
 11
-6.40340364275036
 21
49.61427037193064
 31
0.0
  0
LINE
  5
12C
330
55
100
AcDbEntity
  8
0
  6
Continuous
 62
     7
100
AcDbLine
 10
-6.56625679290912
 20
53.37666928626276
 30
0.0
 11
-6.2468206456537
 21
53.18821334462415
 31
0.0
  0
LINE
  5
12D
330
55
100
AcDbEntity
  8
0
  6
Continuous
 62
     7
100
AcDbLine
 10
-6.86800046352494
 20
46.61356405015774
 30
0.0
 11
-8.65113074262812
 21
47.66554736106161
 31
0.0
  0
LINE
  5
12E
330
55
100
AcDbEntity
  8
0
  6
Continuous
 62
     7
100
AcDbLine
 10
-6.8790187680051
 20
48.17595793444606
 30
0.0
 11
-6.70379214291087
 21
48.70586251667753
 31
0.0
  0
LINE
  5
12F
330
55
100
AcDbEntity
  8
0
  6
Continuous
 62
     7
100
AcDbLine
 10
-6.8790187680051
 20
48.17595793444606
 30
0.0
 11
-7.00389249577602
 21
48.06769554495338
 31
0.0
  0
LINE
  5
130
330
55
100
AcDbEntity
  8
0
  6
Continuous
 62
     7
100
AcDbLine
 10
-6.52827737052185
 20
49.50600798243742
 30
0.0
 11
-7.00389249577602
 21
48.06769554495338
 31
0.0
  0
LINE
  5
131
330
55
100
AcDbEntity
  8
0
  6
Continuous
 62
     7
100
AcDbLine
 10
-8.71613163453441
 20
45.01128068566563
 30
0.0
 11
-10.49926191363813
 21
46.06326399656982
 31
0.0
  0
LINE
  5
132
330
55
100
AcDbEntity
  8
0
  6
Continuous
 62
     7
100
AcDbLine
 10
-10.62413564140857
 20
45.95500160707756
 30
0.0
 11
-10.49926191363813
 21
46.06326399656982
 31
0.0
  0
LINE
  5
133
330
55
100
AcDbEntity
  8
0
  6
Continuous
 62
     7
100
AcDbLine
 10
-6.86800046352494
 20
46.61356405015774
 30
0.0
 11
-8.71613163453441
 21
45.01128068566563
 31
0.0
  0
LINE
  5
134
330
55
100
AcDbEntity
  8
0
  6
Continuous
 62
     7
100
AcDbLine
 10
-7.00389249577602
 20
48.06769554495338
 30
0.0
 11
-10.34267891654194
 21
49.63720696926499
 31
0.0
  0
LINE
  5
135
330
55
100
AcDbEntity
  8
0
  6
Continuous
 62
     7
100
AcDbLine
 10
-9.06422008624797
 20
51.31039098808426
 30
0.0
 11
-6.52018030112629
 21
53.51600966399244
 31
0.0
  0
LINE
  5
136
330
55
100
AcDbEntity
  8
0
  6
Continuous
 62
     2
100
AcDbLine
 10
-0.81498142593202
 20
42.21191005440427
 30
0.0
 11
-0.50086764757064
 21
43.16182466017059
 31
0.0
  0
LINE
  5
137
330
55
100
AcDbEntity
  8
0
  6
Continuous
 62
     7
100
AcDbLine
 10
-0.88909629343406
 20
44.9117247724271
 30
0.0
 11
-0.95234319934661
 21
44.72045917430765
 31
0.0
  0
LINE
  5
138
330
55
100
AcDbEntity
  8
0
  6
Continuous
 62
     2
100
AcDbLine
 10
-1.73112529135871
 20
42.47268185637334
 30
0.0
 11
-1.41701151299729
 21
43.42259646213964
 31
0.0
  0
LINE
  5
139
330
55
100
AcDbEntity
  8
0
  6
Continuous
 62
     7
100
AcDbLine
 10
-1.41701151299729
 20
43.42259646213964
 30
0.0
 11
-0.50086764757064
 21
43.16182466017059
 31
0.0
  0
LINE
  5
13A
330
55
100
AcDbEntity
  8
0
  6
Continuous
 62
     7
100
AcDbLine
 10
1.04451702808181
 20
45.91053317753012
 30
0.0
 11
-4.77192292106567
 21
47.56612853086235
 31
0.0
  0
LINE
  5
13B
330
55
100
AcDbEntity
  8
0
  6
Continuous
 62
     7
100
AcDbLine
 10
-6.14844336194231
 20
48.12551113770664
 30
0.0
 11
-6.078518017443
 21
48.33697306847466
 31
0.0
  0
LINE
  5
13C
330
55
100
AcDbEntity
  8
0
  6
Continuous
 62
     7
100
AcDbLine
 10
-3.0513412428049
 20
42.35952680216869
 30
0.0
 11
-8.86778119195239
 21
44.01512215550092
 31
0.0
  0
LINE
  5
13D
330
55
100
AcDbEntity
  8
0
  6
Continuous
 62
     7
100
AcDbLine
 10
1.35863080644323
 20
46.8604477832964
 30
0.0
 11
-4.6202733636477
 21
48.56228706102707
 31
0.0
  0
LINE
  5
13E
330
55
100
AcDbEntity
  8
0
  6
Continuous
 62
     7
100
AcDbLine
 10
-0.81498142593202
 20
42.21191005440427
 30
0.0
 11
-1.73112529135871
 21
42.47268185637334
 31
0.0
  0
LINE
  5
13F
330
55
100
AcDbEntity
  8
0
  6
Continuous
 62
     7
100
AcDbLine
 10
0.70597075875533
 20
42.54879922567851
 30
0.0
 11
1.02008453711672
 21
43.49871383144483
 31
0.0
  0
LINE
  5
140
330
55
100
AcDbEntity
  8
0
  6
Continuous
 62
     7
100
AcDbLine
 10
-8.956627440852
 20
55.02866534429283
 30
0.0
 11
-11.60395046959526
 21
52.73350268704741
 31
0.0
  0
LINE
  5
141
330
55
100
AcDbEntity
  8
0
  6
Continuous
 62
     7
100
AcDbLine
 10
-7.04451413745149
 20
53.9005866462258
 30
0.0
 11
-8.956627440852
 21
55.02866534429283
 31
0.0
  0
LINE
  5
142
330
55
100
AcDbEntity
  8
0
  6
Continuous
 62
     7
100
AcDbLine
 10
-4.72660892664176
 20
58.50052195778942
 30
0.0
 11
-4.54838314743165
 21
59.03949631185611
 31
0.0
  0
LINE
  5
143
330
55
100
AcDbEntity
  8
0
  6
Continuous
 62
     7
100
AcDbLine
 10
-6.52018030112629
 20
53.51600966399244
 30
0.0
 11
-6.69540692621992
 21
52.98610508176145
 31
0.0
  0
LINE
  5
144
330
55
100
AcDbEntity
  8
0
  6
Continuous
 62
     7
100
AcDbLine
 10
-6.52018030112629
 20
53.51600966399244
 30
0.0
 11
-7.04451413745149
 21
53.9005866462258
 31
0.0
  0
LINE
  5
145
330
55
100
AcDbEntity
  8
0
  6
Continuous
 62
     7
100
AcDbLine
 10
-7.04336123327613
 20
52.68443742605332
 30
0.0
 11
-6.69540692621992
 21
52.98610508176145
 31
0.0
  0
LINE
  5
146
330
55
100
AcDbEntity
  8
0
  6
Continuous
 62
     7
100
AcDbLine
 10
-7.5080921987094
 20
56.2845090624083
 30
0.0
 11
-5.59597889530583
 21
55.15643036433948
 31
0.0
  0
LINE
  5
147
330
55
100
AcDbEntity
  8
0
  6
Continuous
 62
     2
100
AcDbLine
 10
-1.87912872507611
 20
51.82689983118175
 30
0.0
 11
-2.05258509105671
 21
51.6765175130673
 31
0.0
  0
LINE
  5
148
330
55
100
AcDbEntity
  8
0
  6
Continuous
 62
     7
100
AcDbLine
 10
-2.78316049711816
 20
51.72696430980616
 30
0.0
 11
-2.60793387202383
 21
52.25686889203772
 31
0.0
  0
LINE
  5
149
330
55
100
AcDbEntity
  8
0
  6
Continuous
 62
     7
100
AcDbLine
 10
-2.78316049711816
 20
51.72696430980616
 30
0.0
 11
-2.90803422488909
 21
51.61870192031348
 31
0.0
  0
LINE
  5
14A
330
55
100
AcDbEntity
  8
0
  6
Continuous
 62
     7
100
AcDbLine
 10
-4.96836181536233
 20
54.86139736344496
 30
0.0
 11
-5.59597889530583
 21
55.15643036433948
 31
0.0
  0
LINE
  5
14B
330
55
100
AcDbEntity
  8
0
  6
Continuous
 62
     7
100
AcDbLine
 10
-5.14358844045596
 20
54.33149278121397
 30
0.0
 11
-4.79563413340023
 21
54.63316043692169
 31
0.0
  0
LINE
  5
14C
330
55
100
AcDbEntity
  8
0
  6
Continuous
 62
     7
100
AcDbLine
 10
-5.14358844045596
 20
54.33149278121397
 30
0.0
 11
-4.96836181536233
 21
54.86139736344496
 31
0.0
  0
LINE
  5
14D
330
55
100
AcDbEntity
  8
0
  6
Continuous
 62
     7
100
AcDbLine
 10
-0.45941420085332
 20
54.76756011178262
 30
0.0
 11
-0.33454047308274
 21
54.87582250127503
 31
0.0
  0
LINE
  5
14E
330
55
100
AcDbEntity
  8
0
  6
Continuous
 62
     7
100
AcDbLine
 10
-0.5244150927625
 20
52.11329343638834
 30
0.0
 11
-2.30754537186333
 21
53.16527674729083
 31
0.0
  0
LINE
  5
14F
330
55
100
AcDbEntity
  8
0
  6
Continuous
 62
     7
100
AcDbLine
 10
-2.60793387202383
 20
52.25686889203772
 30
0.0
 11
-2.30754537186333
 21
53.16527674729083
 31
0.0
  0
LINE
  5
150
330
55
100
AcDbEntity
  8
0
  6
Continuous
 62
     7
100
AcDbLine
 10
-0.38488073233995
 20
54.72358802185811
 30
0.0
 11
-0.33454047308274
 21
54.87582250127503
 31
0.0
  0
LINE
  5
151
330
55
100
AcDbEntity
  8
0
  6
Continuous
 62
     7
100
AcDbLine
 10
-2.43241909963491
 20
53.05701435779752
 30
0.0
 11
-2.30754537186333
 21
53.16527674729083
 31
0.0
  0
LINE
  5
152
330
55
100
AcDbEntity
  8
0
  6
Continuous
 62
     7
100
AcDbLine
 10
-5.14358844045596
 20
54.33149278121397
 30
0.0
 11
-2.43241909963491
 21
53.05701435779752
 31
0.0
  0
LINE
  5
153
330
55
100
AcDbEntity
  8
0
  6
Continuous
 62
     7
100
AcDbLine
 10
-6.2468206456537
 20
53.18821334462415
 30
0.0
 11
-5.59597889530583
 21
55.15643036433948
 31
0.0
  0
LINE
  5
154
330
55
100
AcDbEntity
  8
0
  6
Continuous
 62
     7
100
AcDbLine
 10
-2.90803422488909
 20
51.61870192031348
 30
0.0
 11
-6.2468206456537
 21
53.18821334462415
 31
0.0
  0
LINE
  5
155
330
55
100
AcDbEntity
  8
0
  6
Continuous
 62
     2
100
AcDbLine
 10
-2.30754537186333
 20
53.16527674729083
 30
0.0
 11
-4.79563413340023
 21
54.63316043692169
 31
0.0
  0
LINE
  5
156
330
55
100
AcDbEntity
  8
0
  6
Continuous
 62
     7
100
AcDbLine
 10
-7.5080921987094
 20
56.2845090624083
 30
0.0
 11
-4.86076916996613
 21
58.57967171965372
 31
0.0
  0
LINE
  5
157
330
55
100
AcDbEntity
  8
0
  6
Continuous
 62
     7
100
AcDbLine
 10
-4.54838314743165
 20
59.03949631185611
 30
0.0
 11
-9.23428364832556
 21
61.8040105939958
 31
0.0
  0
LINE
  5
158
330
55
100
AcDbEntity
  8
0
  6
Continuous
 62
     2
100
AcDbLine
 10
-9.23428364832556
 20
61.8040105939958
 30
0.0
 11
-20.5228686388166
 21
52.01709058385418
 31
0.0
  0
LINE
  5
159
330
55
100
AcDbEntity
  8
0
  6
Continuous
 62
     7
100
AcDbLine
 10
-20.83975418754298
 20
52.01658912317267
 30
0.0
 11
-9.55116919705194
 21
61.80350913331429
 31
0.0
  0
LINE
  5
15A
330
55
100
AcDbEntity
  8
0
  6
Continuous
 62
     7
100
AcDbLine
 10
-20.90075897354268
 20
51.92339138986238
 30
0.0
 11
-21.55160072389045
 21
49.95517437014734
 31
0.0
  0
LINE
  5
15B
330
55
100
AcDbEntity
  8
0
  6
Continuous
 62
     7
100
AcDbLine
 10
-2.40860147939151
 20
51.568365018062
 30
0.0
 11
-2.78316049711816
 21
51.72696430980616
 31
0.0
  0
LINE
  5
15C
330
55
100
AcDbEntity
  8
0
  6
Continuous
 62
     7
100
AcDbLine
 10
-10.34267891654194
 20
49.63720696926499
 30
0.0
 11
-10.66211506379495
 21
49.82566291090186
 31
0.0
  0
LINE
  5
15D
330
55
100
AcDbEntity
  8
0
  6
Continuous
 62
     7
100
AcDbLine
 10
8.68983871636992
 20
51.12993652683432
 30
0.0
 11
7.77369485094331
 21
51.39070832880342
 31
0.0
  0
LINE
  5
15E
330
55
100
AcDbEntity
  8
0
  6
Continuous
 62
     7
100
AcDbLine
 10
-4.48073900322693
 20
51.17258164649788
 30
0.0
 11
-4.43039874396968
 21
51.32481612591493
 31
0.0
  0
LINE
  5
15F
330
55
100
AcDbEntity
  8
0
  6
Continuous
 62
     7
100
AcDbLine
 10
-4.55527247174035
 20
51.21655373642243
 30
0.0
 11
-4.43039874396968
 21
51.32481612591493
 31
0.0
  0
LINE
  5
160
330
55
100
AcDbEntity
  8
0
  6
Continuous
 62
     7
100
AcDbLine
 10
-9.23944671134161
 20
50.78048640585327
 30
0.0
 11
-8.89149240428598
 21
51.0821540615609
 31
0.0
  0
LINE
  5
161
330
55
100
AcDbEntity
  8
0
  6
Continuous
 62
     7
100
AcDbLine
 10
-6.52827737052185
 20
49.50600798243742
 30
0.0
 11
-6.40340364275036
 21
49.61427037193064
 31
0.0
  0
LINE
  5
162
330
55
100
AcDbEntity
  8
0
  6
Continuous
 62
     7
100
AcDbLine
 10
5.4544890773298
 20
50.41145415865707
 30
0.0
 11
5.14037529896839
 21
49.46153955289078
 31
0.0
  0
LINE
  5
163
330
55
100
AcDbEntity
  8
0
  6
Continuous
 62
     7
100
AcDbLine
 10
-9.23944671134161
 20
50.78048640585327
 30
0.0
 11
-6.52827737052185
 21
49.50600798243742
 31
0.0
  0
LINE
  5
164
330
55
100
AcDbEntity
  8
0
  6
Continuous
 62
     7
100
AcDbLine
 10
6.774705028776
 20
50.52460921286171
 30
0.0
 11
7.69084889420263
 21
50.26383741089263
 31
0.0
  0
LINE
  5
165
330
55
100
AcDbEntity
  8
0
  6
Continuous
 62
     7
100
AcDbLine
 10
8.89768730052862
 20
49.65081197640063
 30
0.0
 11
9.21180107888998
 21
50.60072658216686
 31
0.0
  0
LINE
  5
166
330
55
100
AcDbEntity
  8
0
  6
Continuous
 62
     7
100
AcDbLine
 10
-4.55527247174035
 20
51.21655373642243
 30
0.0
 11
-2.77214219263821
 21
50.16457042551917
 31
0.0
  0
LINE
  5
167
330
55
100
AcDbEntity
  8
0
  6
Continuous
 62
     2
100
AcDbLine
 10
-6.40340364275036
 20
49.61427037193064
 30
0.0
 11
-8.89149240428598
 21
51.0821540615609
 31
0.0
  0
LINE
  5
168
330
55
100
AcDbEntity
  8
0
  6
Continuous
 62
     7
100
AcDbLine
 10
-1.85541475649759
 20
51.81290943492621
 30
0.0
 11
-2.10766903929951
 21
51.5942112995906
 31
0.0
  0
LINE
  5
169
330
55
100
AcDbEntity
  8
0
  6
Continuous
 62
     7
100
AcDbLine
 10
3.20676197745264
 20
48.46273114778853
 30
0.0
 11
3.14351507154009
 21
48.27146554966909
 31
0.0
  0
LINE
  5
16A
330
55
100
AcDbEntity
  8
0
  6
Continuous
 62
     7
100
AcDbLine
 10
7.37673511584127
 20
49.31392280512638
 30
0.0
 11
6.46059125041459
 21
49.57469460709545
 31
0.0
  0
LINE
  5
16B
330
55
100
AcDbEntity
  8
0
  6
Continuous
 62
     7
100
AcDbLine
 10
4.59398044548337
 20
47.5789301514737
 30
0.0
 11
3.67783658005673
 21
47.83970195344278
 31
0.0
  0
LINE
  5
16C
330
55
100
AcDbEntity
  8
0
  6
Continuous
 62
     7
100
AcDbLine
 10
7.30262024833921
 20
52.0137375231492
 30
0.0
 11
7.23937334242667
 21
51.82247192502975
 31
0.0
  0
LINE
  5
16D
330
55
100
AcDbEntity
  8
0
  6
Continuous
 62
     2
100
AcDbLine
 10
6.46059125041459
 20
49.57469460709545
 30
0.0
 11
6.774705028776
 21
50.52460921286171
 31
0.0
  0
LINE
  5
16E
330
55
100
AcDbEntity
  8
0
  6
Continuous
 62
     7
100
AcDbLine
 10
-0.67606465017981
 20
51.11713490622324
 30
0.0
 11
5.14037529896839
 21
49.46153955289078
 31
0.0
  0
LINE
  5
16F
330
55
100
AcDbEntity
  8
0
  6
Continuous
 62
     7
100
AcDbLine
 10
1.32371607824697
 20
53.71557680088045
 30
0.0
 11
-0.5244150927625
 21
52.11329343638834
 31
0.0
  0
LINE
  5
170
330
55
100
AcDbEntity
  8
0
  6
Continuous
 62
     7
100
AcDbLine
 10
1.32371607824697
 20
53.71557680088045
 30
0.0
 11
7.30262024833921
 21
52.0137375231492
 31
0.0
  0
LINE
  5
171
330
55
100
AcDbEntity
  8
0
  6
Continuous
 62
     7
100
AcDbLine
 10
5.4544890773298
 20
50.41145415865707
 30
0.0
 11
-0.5244150927625
 21
52.11329343638834
 31
0.0
  0
LINE
  5
172
330
55
100
AcDbEntity
  8
0
  6
Continuous
 62
     2
100
AcDbLine
 10
7.37673511584127
 20
49.31392280512638
 30
0.0
 11
7.69084889420263
 21
50.26383741089263
 31
0.0
  0
LINE
  5
173
330
55
100
AcDbEntity
  8
0
  6
Continuous
 62
     7
100
AcDbLine
 10
3.20676197745264
 20
48.46273114778853
 30
0.0
 11
-2.77214219263821
 21
50.16457042551917
 31
0.0
  0
LINE
  5
174
330
55
100
AcDbEntity
  8
0
  6
Continuous
 62
     7
100
AcDbLine
 10
-4.54838314743165
 20
59.03949631185611
 30
0.0
 11
-15.83696813792269
 21
49.25257630171448
 31
0.0
  0
SPLINE
  5
175
330
55
100
AcDbEntity
  8
0
  6
Continuous
 62
     7
100
AcDbSpline
210
0.0
220
0.0
230
1.0
 70
     8
 71
     3
 72
     9
 73
     5
 74
     3
 42
0.000000001
 43
0.0000000001
 44
0.00000001
 40
0.0
 40
0.0
 40
0.0
 40
0.0
 40
0.0501508913911242
 40
0.0999509432292878
 40
0.0999509432292878
 40
0.0999509432292878
 40
0.0999509432292878
 10
-10.29938558107061
 20
44.49219854886956
 30
0.0
 10
-10.28736514750885
 20
44.5040873718243
 30
0.0
 10
-10.26340838707029
 20
44.52778185935771
 30
0.0
 10
-10.25065562400564
 20
44.55896694586879
 30
0.0
 10
-10.24430163282781
 20
44.57450476234627
 30
0.0
 11
-10.29938558107061
 21
44.49219854886956
 31
0.0
 11
-10.26614498524139
 21
44.52975084349305
 31
0.0
 11
-10.24430163282781
 21
44.57450476234627
 31
0.0
  0
SPLINE
  5
176
330
55
100
AcDbEntity
  8
0
  6
Continuous
 62
     7
100
AcDbSpline
210
0.0
220
0.0
230
1.0
 70
     8
 71
     3
 72
    11
 73
     7
 74
     5
 42
0.000000001
 43
0.0000000001
 44
0.00000001
 40
0.0
 40
0.0
 40
0.0
 40
0.0
 40
0.0863029024219932
 40
0.1685349827336219
 40
0.24525950383404
 40
0.3166993593640909
 40
0.3166993593640909
 40
0.3166993593640909
 40
0.3166993593640909
 10
-10.60031802116261
 20
44.46635226734097
 30
0.0
 10
-10.573027067861
 20
44.45676487729168
 30
0.0
 10
-10.51973244457497
 20
44.43804233892588
 30
0.0
 10
-10.4371544588784
 20
44.43492649582159
 30
0.0
 10
-10.36008817087857
 20
44.4500508034035
 30
0.0
 10
-10.3191328494708
 20
44.47848738431859
 30
0.0
 10
-10.29938558107061
 20
44.49219854886956
 30
0.0
 11
-10.60031802116261
 21
44.46635226734097
 31
0.0
 11
-10.51754036147751
 21
44.44193813186787
 31
0.0
 11
-10.43539376421685
 21
44.43818953163898
 31
0.0
 11
-10.36062787304313
 21
44.45541492536406
 31
0.0
 11
-10.29938558107061
 21
44.49219854886956
 31
0.0
  0
SPLINE
  5
177
330
55
100
AcDbEntity
  8
0
  6
Continuous
 62
     7
100
AcDbSpline
210
0.0
220
0.0
230
1.0
 70
     8
 71
     3
 72
    11
 73
     7
 74
     5
 42
0.000000001
 43
0.0000000001
 44
0.00000001
 40
0.0
 40
0.0
 40
0.0
 40
0.0
 40
0.0758734506762576
 40
0.1560961660268636
 40
0.2431304814569571
 40
0.3369806642752038
 40
0.3369806642752038
 40
0.3369806642752038
 40
0.3369806642752038
 10
-9.55116919705194
 20
61.80350913331429
 30
0.0
 10
-9.530025838907383
 20
61.81795084642968
 30
0.0
 10
-9.486527122948132
 20
61.84766209669708
 30
0.0
 10
-9.403755898730282
 20
61.85841702260233
 30
0.0
 10
-9.316485077471416
 20
61.84568568853352
 30
0.0
 10
-9.262363898737703
 20
61.81824693458405
 30
0.0
 10
-9.234283648325558
 20
61.8040105939958
 30
0.0
 11
-9.55116919705194
 21
61.80350913331429
 31
0.0
 11
-9.485460934147795
 21
61.84144599036125
 31
0.0
 11
-9.406313622753324
 21
61.85453750577486
 31
0.0
 11
-9.320230160143005
 21
61.84170746248225
 31
0.0
 11
-9.234283648325558
 21
61.8040105939958
 31
0.0
  0
SPLINE
  5
178
330
55
100
AcDbEntity
  8
0
  6
Continuous
 62
     7
100
AcDbSpline
210
0.0
220
0.0
230
1.0
 70
     8
 71
     3
 72
    13
 73
     9
 74
     7
 42
0.000000001
 43
0.0000000001
 44
0.00000001
 40
0.0
 40
0.0
 40
0.0
 40
0.0
 40
0.1823230216689154
 40
0.4149378097185514
 40
0.697840117979015
 40
1.015320807887711
 40
1.344271328816941
 40
1.65947622677521
 40
1.65947622677521
 40
1.65947622677521
 40
1.65947622677521
 10
4.80182902964205
 20
46.09980560103994
 30
0.0
 10
4.771123399314956
 20
46.04622900597265
 30
0.0
 10
4.701242320330316
 20
45.92429732262645
 30
0.0
 10
4.488992039652198
 20
45.80879923716626
 30
0.0
 10
4.225359611757055
 20
45.72425844603093
 30
0.0
 10
3.915813814745711
 20
45.68696225097834
 30
0.0
 10
3.593566691460802
 20
45.69238086071161
 30
0.0
 10
3.383613396716865
 20
45.73974144667904
 30
0.0
 10
3.28087684495469
 20
45.7629164297657
 30
0.0
 11
4.80182902964205
 21
46.09980560103994
 31
0.0
 11
4.698837684196027
 21
45.9493580391804
 31
0.0
 11
4.502992624055892
 21
45.82384168423289
 31
0.0
 11
4.234090694479714
 21
45.73594704470806
 31
0.0
 11
3.919319356393352
 21
45.69455872227168
 31
0.0
 11
3.590500435201018
 21
45.70386260476408
 31
0.0
 11
3.28087684495469
 21
45.7629164297657
 31
0.0
  0
SPLINE
  5
179
330
55
100
AcDbEntity
  8
0
  6
Continuous
 62
     7
100
AcDbSpline
210
0.0
220
0.0
230
1.0
 70
     8
 71
     3
 72
    13
 73
     9
 74
     7
 42
0.000000001
 43
0.0000000001
 44
0.00000001
 40
0.0
 40
0.0
 40
0.0
 40
0.0
 40
0.3152048979582664
 40
0.6441554188875022
 40
0.9616361087961953
 40
1.244538417056658
 40
1.477153205106297
 40
1.659476226775203
 40
1.659476226775203
 40
1.659476226775203
 40
1.659476226775203
 10
3.594990623316079
 20
46.71283103553203
 30
0.0
 10
3.697727175078252
 20
46.68965605244537
 30
0.0
 10
3.907680469822188
 20
46.64229546647791
 30
0.0
 10
4.229927593107096
 20
46.63687685674468
 30
0.0
 10
4.539473390118444
 20
46.67417305179724
 30
0.0
 10
4.803105818013581
 20
46.75871384293261
 30
0.0
 10
5.015356098691694
 20
46.87421192839278
 30
0.0
 10
5.085237177676333
 20
46.99614361173899
 30
0.0
 10
5.115942808003425
 20
47.04972020680627
 30
0.0
 11
3.594990623316079
 21
46.71283103553203
 31
0.0
 11
3.904614213562401
 21
46.65377721053039
 31
0.0
 11
4.23343313475474
 21
46.644473328038
 31
0.0
 11
4.548204472841102
 21
46.68586165047438
 31
0.0
 11
4.817106402417274
 21
46.77375628999922
 31
0.0
 11
5.012951462557408
 21
46.89927264494674
 31
0.0
 11
5.115942808003425
 21
47.04972020680627
 31
0.0
  0
SPLINE
  5
17A
330
55
100
AcDbEntity
  8
0
  6
Continuous
 62
     7
100
AcDbSpline
210
0.0
220
0.0
230
1.0
 70
     8
 71
     3
 72
    13
 73
     9
 74
     7
 42
0.000000001
 43
0.0000000001
 44
0.00000001
 40
0.0
 40
0.0
 40
0.0
 40
0.0
 40
0.2314755042612895
 40
0.4740268204753287
 40
0.7174655587788147
 40
0.9515165603191023
 40
1.166852131148598
 40
1.356275366439708
 40
1.356275366439708
 40
1.356275366439708
 40
1.356275366439708
 10
2.67884675788946
 20
46.9736028375011
 30
0.0
 10
2.603730637254687
 20
46.99167871939495
 30
0.0
 10
2.449904180940558
 20
47.02869537682005
 30
0.0
 10
2.210654019045822
 20
47.04767964517374
 30
0.0
 10
1.970208543284545
 20
47.04223377966968
 30
0.0
 10
1.741463607014345
 20
47.0083403063381
 30
0.0
 10
1.534313097858738
 20
46.95303577043119
 30
0.0
 10
1.414637727643941
 20
46.88996452638527
 30
0.0
 10
1.35863080644323
 20
46.8604477832964
 30
0.0
 11
2.67884675788946
 21
46.9736028375011
 31
0.0
 11
2.452486104524194
 21
47.02199460233815
 31
0.0
 11
2.210893380880407
 21
47.04353749027025
 31
0.0
 11
1.967541640458766
 21
47.03702981910148
 31
0.0
 11
1.736002068806229
 21
47.00283479151841
 31
0.0
 11
1.529187347128287
 21
46.94285912391449
 31
0.0
 11
1.35863080644323
 21
46.8604477832964
 31
0.0
  0
SPLINE
  5
17B
330
55
100
AcDbEntity
  8
0
  6
Continuous
 62
     7
100
AcDbSpline
210
0.0
220
0.0
230
1.0
 70
     8
 71
     3
 72
    13
 73
     9
 74
     7
 42
0.000000001
 43
0.0000000001
 44
0.00000001
 40
0.0
 40
0.0
 40
0.0
 40
0.0
 40
0.1894232352910922
 40
0.4047588061205863
 40
0.6388098076608756
 40
0.8822485459643682
 40
1.124799862178409
 40
1.356275366439668
 40
1.356275366439668
 40
1.356275366439668
 40
1.356275366439668
 10
1.044517028081813
 20
45.91053317753012
 30
0.0
 10
1.100523949282521
 20
45.94004992061897
 30
0.0
 10
1.220199319497315
 20
46.00312116466489
 30
0.0
 10
1.427349828652915
 20
46.05842570057179
 30
0.0
 10
1.656094764923115
 20
46.09231917390339
 30
0.0
 10
1.896540240684396
 20
46.09776503940745
 30
0.0
 10
2.135790402579126
 20
46.07878077105376
 30
0.0
 10
2.289616858893241
 20
46.04176411362864
 30
0.0
 10
2.364732979528
 20
46.02368823173477
 30
0.0
 11
1.044517028081813
 21
45.91053317753012
 31
0.0
 11
1.215073568766858
 21
45.99294451814819
 31
0.0
 11
1.421888290444798
 21
46.05292018575211
 31
0.0
 11
1.653427862097335
 21
46.08711521333519
 31
0.0
 11
1.896779602518983
 21
46.09362288450396
 31
0.0
 11
2.138372326162771
 21
46.07207999657185
 31
0.0
 11
2.364732979528
 21
46.02368823173477
 31
0.0
  0
SPLINE
  5
17C
330
55
100
AcDbEntity
  8
0
  6
Continuous
 62
     7
100
AcDbSpline
210
0.0
220
0.0
230
1.0
 70
     8
 71
     3
 72
     9
 73
     5
 74
     3
 42
0.000000001
 43
0.0000000001
 44
0.00000001
 40
0.0
 40
0.0
 40
0.0
 40
0.0
 40
0.0552057460919517
 40
0.1071075219681686
 40
0.1071075219681686
 40
0.1071075219681686
 40
0.1071075219681686
 10
-0.8890962934340649
 20
44.9117247724271
 30
0.0
 10
-0.8998534197000722
 20
44.89669164866235
 30
0.0
 10
-0.9207238593549436
 20
44.86752509795667
 30
0.0
 10
-0.9336973936668922
 20
44.83410171099391
 30
0.0
 10
-0.939984053350031
 20
44.81790552274879
 30
0.0
 11
-0.8890962934340649
 21
44.9117247724271
 31
0.0
 11
-0.9192697596446706
 21
44.86549451792979
 31
0.0
 11
-0.939984053350031
 21
44.81790552274879
 31
0.0
  0
SPLINE
  5
17D
330
55
100
AcDbEntity
  8
0
  6
Continuous
 62
     7
100
AcDbSpline
210
0.0
220
0.0
230
1.0
 70
     8
 71
     3
 72
    11
 73
     7
 74
     5
 42
0.000000001
 43
0.0000000001
 44
0.00000001
 40
0.0
 40
0.0
 40
0.0
 40
0.0
 40
0.1537316357735152
 40
0.3291274694902714
 40
0.5508213610159093
 40
0.819325435342135
 40
0.819325435342135
 40
0.819325435342135
 40
0.819325435342135
 10
1.020084537116716
 20
43.49871383144483
 30
0.0
 10
1.026872239093541
 20
43.55127796354132
 30
0.0
 10
1.041404166909591
 20
43.66381367965464
 30
0.0
 10
0.9230831372907136
 20
43.82169054075187
 30
0.0
 10
0.7394276009740823
 20
43.94694293299666
 30
0.0
 10
0.5835199826779129
 20
43.99926472041128
 30
0.0
 10
0.4981221745966451
 20
44.02792377611227
 30
0.0
 11
1.020084537116716
 21
43.49871383144483
 31
0.0
 11
1.021852598041537
 21
43.65243530481013
 31
0.0
 11
0.9282932808114168
 21
43.80079417886253
 31
0.0
 11
0.7481204789636333
 21
43.92996826502497
 31
0.0
 11
0.4981221745966451
 21
44.02792377611227
 31
0.0
  0
SPLINE
  5
17E
330
55
100
AcDbEntity
  8
0
  6
Continuous
 62
     7
100
AcDbSpline
210
0.0
220
0.0
230
1.0
 70
     8
 71
     3
 72
    11
 73
     7
 74
     5
 42
0.000000001
 43
0.0000000001
 44
0.00000001
 40
0.0
 40
0.0
 40
0.0
 40
0.0
 40
0.1537316357735154
 40
0.3291274694902706
 40
0.5508213610159044
 40
0.8193254353421326
 40
0.8193254353421326
 40
0.8193254353421326
 40
0.8193254353421326
 10
-0.939984053350031
 20
44.81790552274879
 30
0.0
 10
-0.9467717553268613
 20
44.7653413906523
 30
0.0
 10
-0.9613036831429211
 20
44.65280567453899
 30
0.0
 10
-0.8429826535240439
 20
44.49492881344175
 30
0.0
 10
-0.6593271172074072
 20
44.36967642119696
 30
0.0
 10
-0.5034194989112414
 20
44.31735463378233
 30
0.0
 10
-0.4180216908299741
 20
44.28869557808135
 30
0.0
 11
-0.939984053350031
 21
44.81790552274879
 31
0.0
 11
-0.9417521142748644
 21
44.66418404938349
 31
0.0
 11
-0.8481927970447458
 21
44.51582517533109
 31
0.0
 11
-0.6680199951969623
 21
44.38665108916866
 31
0.0
 11
-0.4180216908299741
 21
44.28869557808135
 31
0.0
  0
SPLINE
  5
17F
330
55
100
AcDbEntity
  8
0
  6
Continuous
 62
     7
100
AcDbSpline
210
0.0
220
0.0
230
1.0
 70
     8
 71
     3
 72
    13
 73
     9
 74
     7
 42
0.000000001
 43
0.0000000001
 44
0.00000001
 40
0.0
 40
0.0
 40
0.0
 40
0.0
 40
0.0755003830730202
 40
0.156891251479237
 40
0.2436191333703345
 40
0.3339054681170248
 40
0.4252586277005881
 40
0.5149867204472734
 40
0.5149867204472734
 40
0.5149867204472734
 40
0.5149867204472734
 10
-21.55160072389045
 20
49.95517437014734
 30
0.0
 10
-21.55727745689933
 20
49.93048741726751
 30
0.0
 10
-21.56907380305049
 20
49.87918745085322
 30
0.0
 10
-21.55892591685426
 20
49.79718812724553
 30
0.0
 10
-21.53091084600564
 20
49.71526268457236
 30
0.0
 10
-21.48435792924512
 20
49.63823187748867
 30
0.0
 10
-21.42394884408971
 20
49.5697385469399
 30
0.0
 10
-21.37379091730637
 20
49.53579061405873
 30
0.0
 10
-21.348937014258
 20
49.51896898190816
 30
0.0
 11
-21.55160072389045
 21
49.95517437014734
 31
0.0
 11
-21.56438568730596
 21
49.88076433756425
 31
0.0
 11
-21.55651763332673
 21
49.79975466005179
 31
0.0
 11
-21.52853244870143
 21
49.71766595522439
 31
0.0
 11
-21.48233756717606
 21
49.64009240668859
 31
0.0
 11
-21.42108084213034
 21
49.57232063178311
 31
0.0
 11
-21.348937014258
 21
49.51896898190816
 31
0.0
  0
SPLINE
  5
180
330
55
100
AcDbEntity
  8
0
  6
Continuous
 62
     7
100
AcDbSpline
210
0.0
220
0.0
230
1.0
 70
     8
 71
     3
 72
     9
 73
     5
 74
     3
 42
0.000000001
 43
0.0000000001
 44
0.00000001
 40
0.0
 40
0.0
 40
0.0
 40
0.0
 40
0.0501508913911159
 40
0.0999509432292799
 40
0.0999509432292799
 40
0.0999509432292799
 40
0.0999509432292799
 10
-6.203527310185109
 20
48.04320492422993
 30
0.0
 10
-6.191506876623347
 20
48.05509374718468
 30
0.0
 10
-6.167550116184799
 20
48.07878823471806
 30
0.0
 10
-6.154797353120136
 20
48.10997332122916
 30
0.0
 10
-6.148443361942313
 20
48.12551113770664
 30
0.0
 11
-6.203527310185109
 21
48.04320492422993
 31
0.0
 11
-6.170286714355898
 21
48.08075721885342
 31
0.0
 11
-6.148443361942313
 21
48.12551113770664
 31
0.0
  0
SPLINE
  5
181
330
55
100
AcDbEntity
  8
0
  6
Continuous
 62
     7
100
AcDbSpline
210
0.0
220
0.0
230
1.0
 70
     8
 71
     3
 72
    11
 73
     7
 74
     5
 42
0.000000001
 43
0.0000000001
 44
0.00000001
 40
0.0
 40
0.0
 40
0.0
 40
0.0
 40
0.0863029024219955
 40
0.1685349827336239
 40
0.2452595038340462
 40
0.3166993593640911
 40
0.3166993593640911
 40
0.3166993593640911
 40
0.3166993593640911
 10
-6.504459750277107
 20
48.01735864270135
 30
0.0
 10
-6.477168796975499
 20
48.00777125265207
 30
0.0
 10
-6.423874173689471
 20
47.98904871428624
 30
0.0
 10
-6.341296187992897
 20
47.98593287118195
 30
0.0
 10
-6.264229899993074
 20
48.0010571787639
 30
0.0
 10
-6.223274578585294
 20
48.02949375967896
 30
0.0
 10
-6.203527310185109
 20
48.04320492422993
 30
0.0
 11
-6.504459750277107
 21
48.01735864270135
 31
0.0
 11
-6.421682090592011
 21
47.99294450722824
 31
0.0
 11
-6.339535493331354
 21
47.98919590699936
 31
0.0
 11
-6.264769602157628
 21
48.00642130072444
 31
0.0
 11
-6.203527310185109
 21
48.04320492422993
 31
0.0
  0
SPLINE
  5
182
330
55
100
AcDbEntity
  8
0
  6
Continuous
 62
     7
100
AcDbSpline
210
0.0
220
0.0
230
1.0
 70
     8
 71
     3
 72
    13
 73
     9
 74
     7
 42
0.000000001
 43
0.0000000001
 44
0.00000001
 40
0.0
 40
0.0
 40
0.0
 40
0.0
 40
0.1894232352910816
 40
0.40475880612058
 40
0.6388098076608744
 40
0.8822485459643672
 40
1.124799862178407
 40
1.356275366439665
 40
1.356275366439665
 40
1.356275366439665
 40
1.356275366439665
 10
-3.051341242804895
 20
42.35952680216869
 30
0.0
 10
-2.995334321604192
 20
42.38904354525754
 30
0.0
 10
-2.875658951389401
 20
42.45211478930347
 30
0.0
 10
-2.6685084422338
 20
42.50741932521036
 30
0.0
 10
-2.439763505963594
 20
42.54131279854194
 30
0.0
 10
-2.199318030202313
 20
42.54675866404601
 30
0.0
 10
-1.960067868307583
 20
42.52777439569232
 30
0.0
 10
-1.806241411993469
 20
42.49075773826721
 30
0.0
 10
-1.731125291358708
 20
42.47268185637334
 30
0.0
 11
-3.051341242804895
 21
42.35952680216869
 31
0.0
 11
-2.880784702119862
 21
42.44193814278676
 31
0.0
 11
-2.673969980441917
 21
42.50191381039068
 31
0.0
 11
-2.442430408789374
 21
42.53610883797375
 31
0.0
 11
-2.199078668367726
 21
42.54261650914251
 31
0.0
 11
-1.957485944723937
 21
42.52107362121041
 31
0.0
 11
-1.731125291358708
 21
42.47268185637334
 31
0.0
  0
SPLINE
  5
183
330
55
100
AcDbEntity
  8
0
  6
Continuous
 62
     7
100
AcDbSpline
210
0.0
220
0.0
230
1.0
 70
     8
 71
     3
 72
    13
 73
     9
 74
     7
 42
0.000000001
 43
0.0000000001
 44
0.00000001
 40
0.0
 40
0.0
 40
0.0
 40
0.0
 40
0.2314755042612575
 40
0.4740268204752914
 40
0.7174655587787769
 40
0.9515165603190647
 40
1.166852131148561
 40
1.356275366439667
 40
1.356275366439667
 40
1.356275366439667
 40
1.356275366439667
 10
-1.417011512997291
 20
43.42259646213964
 30
0.0
 10
-1.492127633632051
 20
43.44067234403349
 30
0.0
 10
-1.645954089946163
 20
43.47768900145861
 30
0.0
 10
-1.885204251840889
 20
43.49667326981231
 30
0.0
 10
-2.125649727602163
 20
43.49122740430823
 30
0.0
 10
-2.354394663872364
 20
43.45733393097665
 30
0.0
 10
-2.561545173027968
 20
43.40202939506975
 30
0.0
 10
-2.681220543242767
 20
43.33895815102382
 30
0.0
 10
-2.737227464443478
 20
43.30944140793497
 30
0.0
 11
-1.417011512997291
 21
43.42259646213964
 31
0.0
 11
-1.64337216636252
 21
43.47098822697671
 31
0.0
 11
-1.884964890006302
 21
43.49253111490881
 31
0.0
 11
-2.128316630427942
 21
43.48602344374004
 31
0.0
 11
-2.359856202080479
 21
43.45182841615697
 31
0.0
 11
-2.566670923758421
 21
43.39185274855305
 31
0.0
 11
-2.737227464443478
 21
43.30944140793497
 31
0.0
  0
SPLINE
  5
184
330
55
100
AcDbEntity
  8
0
  6
Continuous
 62
     7
100
AcDbSpline
210
0.0
220
0.0
230
1.0
 70
     8
 71
     3
 72
    13
 73
     9
 74
     7
 42
0.000000001
 43
0.0000000001
 44
0.00000001
 40
0.0
 40
0.0
 40
0.0
 40
0.0
 40
0.315204897958265
 40
0.6441554188875007
 40
0.9616361087961955
 40
1.244538417056664
 40
1.4771532051063
 40
1.659476226775209
 40
1.659476226775209
 40
1.659476226775209
 40
1.659476226775209
 10
-0.5008676475706437
 20
43.16182466017059
 30
0.0
 10
-0.3981310958084707
 20
43.13864967708391
 30
0.0
 10
-0.1881778010645351
 20
43.09128909111647
 30
0.0
 10
0.134069322220375
 20
43.08587048138325
 30
0.0
 10
0.443615119231724
 20
43.12316667643582
 30
0.0
 10
0.7072475471268607
 20
43.20770746757116
 30
0.0
 10
0.9194978278049805
 20
43.32320555303136
 30
0.0
 10
0.9893789067896219
 20
43.44513723637753
 30
0.0
 10
1.020084537116716
 20
43.49871383144483
 30
0.0
 11
-0.5008676475706437
 21
43.16182466017059
 31
0.0
 11
-0.1912440573243215
 21
43.10277083516896
 31
0.0
 11
0.1375748638680179
 21
43.09346695267656
 31
0.0
 11
0.4523462019543798
 21
43.13485527511295
 31
0.0
 11
0.7212481315305581
 21
43.22274991463779
 31
0.0
 11
0.917093191670693
 21
43.3482662695853
 31
0.0
 11
1.020084537116716
 21
43.49871383144483
 31
0.0
  0
SPLINE
  5
185
330
55
100
AcDbEntity
  8
0
  6
Continuous
 62
     7
100
AcDbSpline
210
0.0
220
0.0
230
1.0
 70
     8
 71
     3
 72
    13
 73
     9
 74
     7
 42
0.000000001
 43
0.0000000001
 44
0.00000001
 40
0.0
 40
0.0
 40
0.0
 40
0.0
 40
0.1823230216689058
 40
0.4149378097185414
 40
0.697840117979006
 40
1.015320807887699
 40
1.34427132881693
 40
1.6594762267752
 40
1.6594762267752
 40
1.6594762267752
 40
1.6594762267752
 10
0.7059707587553277
 20
42.54879922567851
 30
0.0
 10
0.6752651284282358
 20
42.49522263061122
 30
0.0
 10
0.6053840494435989
 20
42.37329094726503
 30
0.0
 10
0.3931337687654787
 20
42.25779286180484
 30
0.0
 10
0.1295013408703499
 20
42.1732520706695
 30
0.0
 10
-0.180044456140999
 20
42.13595587561692
 30
0.0
 10
-0.5022915794259071
 20
42.14137448535016
 30
0.0
 10
-0.7122448741698434
 20
42.18873507131762
 30
0.0
 10
-0.814981425932018
 20
42.21191005440427
 30
0.0
 11
0.7059707587553277
 21
42.54879922567851
 31
0.0
 11
0.6029794133093107
 21
42.39835166381898
 31
0.0
 11
0.4071343531691767
 21
42.27283530887146
 31
0.0
 11
0.1382324235930046
 21
42.18494066934662
 31
0.0
 11
-0.1765389144933565
 21
42.14355234691024
 31
0.0
 11
-0.5053578356856905
 21
42.15285622940264
 31
0.0
 11
-0.814981425932018
 21
42.21191005440427
 31
0.0
  0
SPLINE
  5
186
330
55
100
AcDbEntity
  8
0
  6
Continuous
 62
     7
100
AcDbSpline
210
0.0
220
0.0
230
1.0
 70
     8
 71
     3
 72
     9
 73
     5
 74
     3
 42
0.000000001
 43
0.0000000001
 44
0.00000001
 40
0.0
 40
0.0
 40
0.0
 40
0.0
 40
0.0570982102602556
 40
0.1124134637683553
 40
0.1124134637683553
 40
0.1124134637683553
 40
0.1124134637683553
 10
-20.90075897354268
 20
51.92339138986238
 30
0.0
 10
-20.89362737750819
 20
51.9412733309652
 30
0.0
 10
-20.87958686054098
 20
51.97647881944862
 30
0.0
 10
-20.8528906098953
 20
52.00336115008555
 30
0.0
 10
-20.83975418754298
 20
52.01658912317267
 30
0.0
 11
-20.90075897354268
 21
51.92339138986238
 31
0.0
 11
-20.87609908263057
 21
51.97488989031631
 31
0.0
 11
-20.83975418754298
 21
52.01658912317267
 31
0.0
  0
SPLINE
  5
187
330
55
100
AcDbEntity
  8
0
  6
Continuous
 62
     7
100
AcDbSpline
210
0.0
220
0.0
230
1.0
 70
     8
 71
     3
 72
    11
 73
     7
 74
     5
 42
0.000000001
 43
0.0000000001
 44
0.00000001
 40
0.0
 40
0.0
 40
0.0
 40
0.0
 40
0.0758734506762607
 40
0.1560961660268719
 40
0.2431304814569612
 40
0.3369806642751986
 40
0.3369806642751986
 40
0.3369806642751986
 40
0.3369806642751986
 10
-20.83975418754298
 20
52.01658912317267
 30
0.0
 10
-20.81861082939842
 20
52.03103083628807
 30
0.0
 10
-20.77511211343917
 20
52.06074208655546
 30
0.0
 10
-20.69234088922131
 20
52.07149701246068
 30
0.0
 10
-20.60507006796245
 20
52.05876567839191
 30
0.0
 10
-20.55094888922875
 20
52.03132692444243
 30
0.0
 10
-20.5228686388166
 20
52.01709058385418
 30
0.0
 11
-20.83975418754298
 21
52.01658912317267
 31
0.0
 11
-20.77404592463883
 21
52.05452598021963
 31
0.0
 11
-20.69489861324436
 21
52.06761749563324
 31
0.0
 11
-20.60881515063404
 21
52.05478745234062
 31
0.0
 11
-20.5228686388166
 21
52.01709058385418
 31
0.0
  0
SPLINE
  5
188
330
55
100
AcDbEntity
  8
0
  6
Continuous
 62
     7
100
AcDbSpline
210
0.0
220
0.0
230
1.0
 70
     8
 71
     3
 72
    13
 73
     9
 74
     7
 42
0.000000001
 43
0.0000000001
 44
0.00000001
 40
0.0
 40
0.0
 40
0.0
 40
0.0
 40
0.1894232352911016
 40
0.4047588061205974
 40
0.6388098076608935
 40
0.8822485459643918
 40
1.124799862178432
 40
1.356275366439692
 40
1.356275366439692
 40
1.356275366439692
 40
1.356275366439692
 10
5.140375298968394
 20
49.46153955289078
 30
0.0
 10
5.196382220169102
 20
49.49105629597964
 30
0.0
 10
5.316057590383889
 20
49.55412754002555
 30
0.0
 10
5.523208099539498
 20
49.6094320759325
 30
0.0
 10
5.751953035809704
 20
49.64332554926407
 30
0.0
 10
5.99239851157099
 20
49.64877141476813
 30
0.0
 10
6.23164867346572
 20
49.62978714641444
 30
0.0
 10
6.385475129779836
 20
49.59277048898932
 30
0.0
 10
6.460591250414595
 20
49.57469460709545
 30
0.0
 11
5.140375298968394
 21
49.46153955289078
 31
0.0
 11
5.310931839653438
 21
49.54395089350887
 31
0.0
 11
5.517746561331379
 21
49.6039265611128
 31
0.0
 11
5.749286132983924
 21
49.63812158869587
 31
0.0
 11
5.992637873405577
 21
49.64462925986464
 31
0.0
 11
6.234230597049366
 21
49.62308637193253
 31
0.0
 11
6.460591250414595
 21
49.57469460709545
 31
0.0
  0
SPLINE
  5
189
330
55
100
AcDbEntity
  8
0
  6
Continuous
 62
     7
100
AcDbSpline
210
0.0
220
0.0
230
1.0
 70
     8
 71
     3
 72
    13
 73
     9
 74
     7
 42
0.000000001
 43
0.0000000001
 44
0.00000001
 40
0.0
 40
0.0
 40
0.0
 40
0.0
 40
0.2314755042612596
 40
0.4740268204752952
 40
0.7174655587787873
 40
0.9515165603190825
 40
1.166852131148578
 40
1.356275366439687
 40
1.356275366439687
 40
1.356275366439687
 40
1.356275366439687
 10
6.774705028775998
 20
50.52460921286171
 30
0.0
 10
6.699588908141237
 20
50.54268509475556
 30
0.0
 10
6.545762451827128
 20
50.57970175218072
 30
0.0
 10
6.306512289932398
 20
50.5986860205344
 30
0.0
 10
6.066066814171117
 20
50.59324015503034
 30
0.0
 10
5.837321877900913
 20
50.55934668169876
 30
0.0
 10
5.630171368745307
 20
50.50404214579187
 30
0.0
 10
5.510495998530508
 20
50.44097090174593
 30
0.0
 10
5.454489077329797
 20
50.41145415865707
 30
0.0
 11
6.774705028775998
 21
50.52460921286171
 31
0.0
 11
6.54834437541077
 21
50.5730009776988
 31
0.0
 11
6.306751651766987
 21
50.59454386563091
 31
0.0
 11
6.06339991134534
 21
50.58803619446215
 31
0.0
 11
5.831860339692795
 21
50.55384116687908
 31
0.0
 11
5.625045618014854
 21
50.49386549927516
 31
0.0
 11
5.454489077329797
 21
50.41145415865707
 31
0.0
  0
SPLINE
  5
18A
330
55
100
AcDbEntity
  8
0
  6
Continuous
 62
     7
100
AcDbSpline
210
0.0
220
0.0
230
1.0
 70
     8
 71
     3
 72
    13
 73
     9
 74
     7
 42
0.000000001
 43
0.0000000001
 44
0.00000001
 40
0.0
 40
0.0
 40
0.0
 40
0.0
 40
0.3152048979582624
 40
0.6441554188874927
 40
0.9616361087961789
 40
1.244538417056635
 40
1.477153205106278
 40
1.659476226775195
 40
1.659476226775195
 40
1.659476226775195
 40
1.659476226775195
 10
7.690848894202631
 20
50.26383741089263
 30
0.0
 10
7.793585445964805
 20
50.24066242780597
 30
0.0
 10
8.003538740708738
 20
50.19330184183853
 30
0.0
 10
8.325785863993639
 20
50.18788323210526
 30
0.0
 10
8.635331661004983
 20
50.22517942715785
 30
0.0
 10
8.898964088900122
 20
50.30972021829317
 30
0.0
 10
9.111214369578235
 20
50.42521830375338
 30
0.0
 10
9.18109544856288
 20
50.54714998709955
 30
0.0
 10
9.211801078889977
 20
50.60072658216686
 30
0.0
 11
7.690848894202631
 21
50.26383741089263
 31
0.0
 11
8.000472484448952
 21
50.20478358589101
 31
0.0
 11
8.329291405641285
 21
50.1954797033986
 31
0.0
 11
8.644062743727641
 21
50.23686802583497
 31
0.0
 11
8.912964673303811
 21
50.3247626653598
 31
0.0
 11
9.108809733443948
 21
50.45027902030732
 31
0.0
 11
9.211801078889977
 21
50.60072658216686
 31
0.0
  0
SPLINE
  5
18B
330
55
100
AcDbEntity
  8
0
  6
Continuous
 62
     7
100
AcDbSpline
210
0.0
220
0.0
230
1.0
 70
     8
 71
     3
 72
    11
 73
     7
 74
     5
 42
0.000000001
 43
0.0000000001
 44
0.00000001
 40
0.0
 40
0.0
 40
0.0
 40
0.0
 40
0.1537316357735223
 40
0.3291274694902744
 40
0.5508213610159115
 40
0.8193254353421398
 40
0.8193254353421398
 40
0.8193254353421398
 40
0.8193254353421398
 10
9.211801078889977
 20
50.60072658216686
 30
0.0
 10
9.218588780866805
 20
50.65329071426336
 30
0.0
 10
9.233120708682849
 20
50.76582643037665
 30
0.0
 10
9.114799679063985
 20
50.92370329147391
 30
0.0
 10
8.931144142747348
 20
51.04895568371869
 30
0.0
 10
8.775236524451183
 20
51.10127747113333
 30
0.0
 10
8.68983871636992
 20
51.12993652683432
 30
0.0
 11
9.211801078889977
 21
50.60072658216686
 31
0.0
 11
9.213569139814798
 21
50.75444805553216
 31
0.0
 11
9.120009822584684
 21
50.90280692958456
 31
0.0
 11
8.939837020736903
 21
51.031981015747
 31
0.0
 11
8.68983871636992
 21
51.12993652683432
 31
0.0
  0
SPLINE
  5
18C
330
55
100
AcDbEntity
  8
0
  6
Continuous
 62
     7
100
AcDbSpline
210
0.0
220
0.0
230
1.0
 70
     8
 71
     3
 72
    13
 73
     9
 74
     7
 42
0.000000001
 43
0.0000000001
 44
0.00000001
 40
0.0
 40
0.0
 40
0.0
 40
0.0
 40
0.1823230216689118
 40
0.4149378097185517
 40
0.6978401179790138
 40
1.015320807887705
 40
1.344271328816941
 40
1.659476226775206
 40
1.659476226775206
 40
1.659476226775206
 40
1.659476226775206
 10
8.897687300528617
 20
49.65081197640063
 30
0.0
 10
8.866981670201522
 20
49.59723538133333
 30
0.0
 10
8.797100591216891
 20
49.47530369798717
 30
0.0
 10
8.58485031053877
 20
49.35980561252694
 30
0.0
 10
8.321217882643639
 20
49.27526482139161
 30
0.0
 10
8.011672085632284
 20
49.23796862633904
 30
0.0
 10
7.689424962347383
 20
49.24338723607227
 30
0.0
 10
7.479471667603445
 20
49.29074782203973
 30
0.0
 10
7.376735115841271
 20
49.31392280512638
 30
0.0
 11
8.897687300528617
 21
49.65081197640063
 31
0.0
 11
8.794695955082599
 21
49.5003644145411
 31
0.0
 11
8.598850894942466
 21
49.37484805959357
 31
0.0
 11
8.329948965366293
 21
49.28695342006873
 31
0.0
 11
8.015177627279932
 21
49.24556509763237
 31
0.0
 11
7.686358706087593
 21
49.25486898012475
 31
0.0
 11
7.376735115841271
 21
49.31392280512638
 31
0.0
  0
SPLINE
  5
18D
330
55
100
AcDbEntity
  8
0
  6
Continuous
 62
     7
100
AcDbSpline
210
0.0
220
0.0
230
1.0
 70
     8
 71
     3
 72
     9
 73
     5
 74
     3
 42
0.000000001
 43
0.0000000001
 44
0.00000001
 40
0.0
 40
0.0
 40
0.0
 40
0.0
 40
0.0501508913911207
 40
0.0999509432292786
 40
0.0999509432292786
 40
0.0999509432292786
 40
0.0999509432292786
 10
-2.107669039299509
 20
51.5942112995906
 30
0.0
 10
-2.095648605737747
 20
51.60610012254534
 30
0.0
 10
-2.071691845299204
 20
51.62979461007876
 30
0.0
 10
-2.058939082234537
 20
51.66097969658981
 30
0.0
 10
-2.052585091056713
 20
51.6765175130673
 30
0.0
 11
-2.107669039299509
 21
51.5942112995906
 31
0.0
 11
-2.074428443470298
 21
51.63176359421409
 31
0.0
 11
-2.052585091056713
 21
51.6765175130673
 31
0.0
  0
SPLINE
  5
18E
330
55
100
AcDbEntity
  8
0
  6
Continuous
 62
     7
100
AcDbSpline
210
0.0
220
0.0
230
1.0
 70
     8
 71
     3
 72
    11
 73
     7
 74
     5
 42
0.000000001
 43
0.0000000001
 44
0.00000001
 40
0.0
 40
0.0
 40
0.0
 40
0.0
 40
0.0863029024219939
 40
0.1685349827336223
 40
0.2452595038340442
 40
0.3166993593640928
 40
0.3166993593640928
 40
0.3166993593640928
 40
0.3166993593640928
 10
-2.408601479391507
 20
51.568365018062
 30
0.0
 10
-2.381310526089897
 20
51.55877762801271
 30
0.0
 10
-2.328015902803868
 20
51.54005508964686
 30
0.0
 10
-2.245437917107299
 20
51.53693924654264
 30
0.0
 10
-2.168371629107471
 20
51.55206355412457
 30
0.0
 10
-2.127416307699693
 20
51.58050013503961
 30
0.0
 10
-2.107669039299509
 20
51.5942112995906
 30
0.0
 11
-2.408601479391507
 21
51.568365018062
 31
0.0
 11
-2.325823819706411
 21
51.5439508825889
 31
0.0
 11
-2.243677222445754
 21
51.54020228236001
 31
0.0
 11
-2.168911331272028
 21
51.5574276760851
 31
0.0
 11
-2.107669039299509
 21
51.5942112995906
 31
0.0
  0
SPLINE
  5
18F
330
55
100
AcDbEntity
  8
0
  6
Continuous
 62
     7
100
AcDbSpline
210
0.0
220
0.0
230
1.0
 70
     8
 71
     3
 72
     9
 73
     5
 74
     3
 42
0.000000001
 43
0.0000000001
 44
0.00000001
 40
0.0
 40
0.0
 40
0.0
 40
0.0
 40
0.055205746091946
 40
0.1071075219681696
 40
0.1071075219681696
 40
0.1071075219681696
 40
0.1071075219681696
 10
3.206761977452644
 20
48.46273114778853
 30
0.0
 10
3.196004851186637
 20
48.44769802402379
 30
0.0
 10
3.17513441153176
 20
48.4185314733181
 30
0.0
 10
3.162160877219815
 20
48.38510808635535
 30
0.0
 10
3.155874217536677
 20
48.36891189811022
 30
0.0
 11
3.206761977452644
 21
48.46273114778853
 31
0.0
 11
3.176588511242038
 21
48.41650089329123
 31
0.0
 11
3.155874217536677
 21
48.36891189811022
 31
0.0
  0
SPLINE
  5
190
330
55
100
AcDbEntity
  8
0
  6
Continuous
 62
     7
100
AcDbSpline
210
0.0
220
0.0
230
1.0
 70
     8
 71
     3
 72
    11
 73
     7
 74
     5
 42
0.000000001
 43
0.0000000001
 44
0.00000001
 40
0.0
 40
0.0
 40
0.0
 40
0.0
 40
0.1537316357735154
 40
0.3291274694902649
 40
0.550821361015903
 40
0.8193254353421312
 40
0.8193254353421312
 40
0.8193254353421312
 40
0.8193254353421312
 10
3.155874217536677
 20
48.36891189811022
 30
0.0
 10
3.149086515559846
 20
48.31634776601373
 30
0.0
 10
3.134554587743785
 20
48.20381204990043
 30
0.0
 10
3.252875617362668
 20
48.04593518880316
 30
0.0
 10
3.436531153679306
 20
47.92068279655842
 30
0.0
 10
3.592438771975469
 20
47.86836100914376
 30
0.0
 10
3.677836580056734
 20
47.83970195344278
 30
0.0
 11
3.155874217536677
 21
48.36891189811022
 31
0.0
 11
3.154106156611844
 21
48.21519042474493
 31
0.0
 11
3.247665473841963
 21
48.06683155069253
 31
0.0
 11
3.427838275689751
 21
47.9376574645301
 31
0.0
 11
3.677836580056734
 21
47.83970195344278
 31
0.0
  0
SPLINE
  5
191
330
55
100
AcDbEntity
  8
0
  6
Continuous
 62
     7
100
AcDbSpline
210
0.0
220
0.0
230
1.0
 70
     8
 71
     3
 72
    11
 73
     7
 74
     5
 42
0.000000001
 43
0.0000000001
 44
0.00000001
 40
0.0
 40
0.0
 40
0.0
 40
0.0
 40
0.1537316357735083
 40
0.3291274694902696
 40
0.5508213610159076
 40
0.819325435342128
 40
0.819325435342128
 40
0.819325435342128
 40
0.819325435342128
 10
5.115942808003425
 20
47.04972020680627
 30
0.0
 10
5.122730509980253
 20
47.10228433890275
 30
0.0
 10
5.137262437796314
 20
47.21482005501608
 30
0.0
 10
5.018941408177438
 20
47.37269691611331
 30
0.0
 10
4.835285871860799
 20
47.4979493083581
 30
0.0
 10
4.679378253564631
 20
47.55027109577271
 30
0.0
 10
4.593980445483368
 20
47.5789301514737
 30
0.0
 11
5.115942808003425
 21
47.04972020680627
 31
0.0
 11
5.117710868928258
 21
47.20344168017156
 31
0.0
 11
5.024151551698139
 21
47.35180055422397
 31
0.0
 11
4.843978749850351
 21
47.4809746403864
 31
0.0
 11
4.593980445483368
 21
47.5789301514737
 31
0.0
  0
SPLINE
  5
192
330
55
100
AcDbEntity
  8
0
  6
Continuous
 62
     7
100
AcDbSpline
210
0.0
220
0.0
230
1.0
 70
     8
 71
     3
 72
     9
 73
     5
 74
     3
 42
0.000000001
 43
0.0000000001
 44
0.00000001
 40
0.0
 40
0.0
 40
0.0
 40
0.0
 40
0.0552057460919449
 40
0.1071075219681546
 40
0.1071075219681546
 40
0.1071075219681546
 40
0.1071075219681546
 10
7.30262024833921
 20
52.0137375231492
 30
0.0
 10
7.291863122073208
 20
51.99870439938445
 30
0.0
 10
7.270992682418346
 20
51.9695378486788
 30
0.0
 10
7.258019148106398
 20
51.93611446171602
 30
0.0
 10
7.251732488423258
 20
51.9199182734709
 30
0.0
 11
7.30262024833921
 21
52.0137375231492
 31
0.0
 11
7.272446782128617
 21
51.96750726865189
 31
0.0
 11
7.251732488423258
 21
51.9199182734709
 31
0.0
  0
SPLINE
  5
193
330
55
100
AcDbEntity
  8
0
  6
Continuous
 62
     7
100
AcDbSpline
210
0.0
220
0.0
230
1.0
 70
     8
 71
     3
 72
    11
 73
     7
 74
     5
 42
0.000000001
 43
0.0000000001
 44
0.00000001
 40
0.0
 40
0.0
 40
0.0
 40
0.0
 40
0.1537316357735296
 40
0.3291274694902909
 40
0.5508213610159287
 40
0.819325435342162
 40
0.819325435342162
 40
0.819325435342162
 40
0.819325435342162
 10
7.251732488423258
 20
51.9199182734709
 30
0.0
 10
7.244944786446427
 20
51.86735414137439
 30
0.0
 10
7.230412858630363
 20
51.75481842526107
 30
0.0
 10
7.348733888249248
 20
51.59694156416386
 30
0.0
 10
7.532389424565881
 20
51.47168917191905
 30
0.0
 10
7.68829704286205
 20
51.41936738450441
 30
0.0
 10
7.773694850943315
 20
51.39070832880342
 30
0.0
 11
7.251732488423258
 21
51.9199182734709
 31
0.0
 11
7.249964427498425
 21
51.76619680010559
 31
0.0
 11
7.343523744728543
 21
51.61783792605318
 31
0.0
 11
7.523696546576327
 21
51.48866383989074
 31
0.0
 11
7.773694850943315
 21
51.39070832880342
 31
0.0
  0
ENDBLK
  5
57
330
55
100
AcDbEntity
  8
0
100
AcDbBlockEnd
  0
BLOCK
  5
5A
330
58
100
AcDbEntity
  8
0
100
AcDbBlockBegin
  2
Gen1
 70
     0
 10
-5.50000000000021
 20
51.5
 30
0.0
  3
Gen1
  1

  0
INSERT
  5
59
330
58
100
AcDbEntity
  8
0
100
AcDbBlockReference
  2
EB_3-8-select__3
 10
-21.56867576162708
 20
42.13258039896788
 30
0.0
  0
MTEXT
  5
194
330
58
100
AcDbEntity
  8
1
 62
     6
100
AcDbMText
 10
-5.49727083304401
 20
35.56947601170668
 30
0.0
 40
2.5
 41
0.0
 71
     2
 72
     1
  1
 
  7
CONVERTER_11
 73
     1
 44
1.32052821128451
  0
ENDBLK
  5
5B
330
58
100
AcDbEntity
  8
0
100
AcDbBlockEnd
  0
BLOCK
  5
5D
330
5C
100
AcDbEntity
  8
0
100
AcDbBlockBegin
  2
EB_3-8-select__4
 70
     0
 10
-34.38590609531767
 20
79.94001568644751
 30
0.0
  3
EB_3-8-select__4
  1

  0
LINE
  5
195
330
5C
100
AcDbEntity
  8
0
  6
Continuous
 62
     7
100
AcDbLine
 10
-16.6313964857282
 20
79.94001568644757
 30
0.0
 11
-13.14041570490687
 21
79.94001568644757
 31
0.0
  0
LINE
  5
196
330
5C
100
AcDbEntity
  8
0
  6
Continuous
 62
     7
100
AcDbLine
 10
-33.03139648572789
 20
79.94001568644751
 30
0.0
 11
-29.54041570490542
 21
79.94001568644751
 31
0.0
  0
LINE
  5
197
330
5C
100
AcDbEntity
  8
0
  6
Continuous
 62
     7
100
AcDbLine
 10
-24.83139648572777
 20
79.94001568644751
 30
0.0
 11
-21.34041570490591
 21
79.94001568644751
 31
0.0
  0
LINE
  5
198
330
5C
100
AcDbEntity
  8
0
  6
Continuous
 62
     7
100
AcDbLine
 10
-29.43590609531766
 20
80.05845281272374
 30
0.0
 11
-29.44442274574767
 21
80.05845281272374
 31
0.0
  0
LINE
  5
199
330
5C
100
AcDbEntity
  8
0
  6
Continuous
 62
     7
100
AcDbLine
 10
-33.12738944488577
 20
80.05845281272374
 30
0.0
 11
-33.13590609531768
 21
80.05845281272374
 31
0.0
  0
LINE
  5
19A
330
5C
100
AcDbEntity
  8
0
  6
Continuous
 62
     7
100
AcDbLine
 10
-13.04442274574913
 20
80.05845281272377
 30
0.0
 11
-13.03590609531617
 21
80.0584528127238
 31
0.0
  0
LINE
  5
19B
330
5C
100
AcDbEntity
  8
0
  6
Continuous
 62
     2
100
AcDbLine
 10
-16.6501918096032
 20
79.95312425965865
 30
0.0
 11
-13.12162038103189
 21
79.95312425965864
 31
0.0
  0
LINE
  5
19C
330
5C
100
AcDbEntity
  8
0
  6
Continuous
 62
     7
100
AcDbLine
 10
-33.385906095317
 20
80.07007294154762
 30
0.0
 11
-33.13590609531703
 21
80.07007294154764
 31
0.0
  0
LINE
  5
19D
330
5C
100
AcDbEntity
  8
0
  6
Continuous
 62
     7
100
AcDbLine
 10
-29.43590609531628
 20
80.07007294154783
 30
0.0
 11
-29.18590609531631
 21
80.07007294154783
 31
0.0
  0
LINE
  5
19E
330
5C
100
AcDbEntity
  8
0
  6
Continuous
 62
     7
100
AcDbLine
 10
-13.03590609531716
 20
80.07007294154866
 30
0.0
 11
-12.78590609531717
 21
80.07007294154866
 31
0.0
  0
LINE
  5
19F
330
5C
100
AcDbEntity
  8
0
  6
Continuous
 62
     7
100
AcDbLine
 10
-33.13590609531768
 20
80.05845281272374
 30
0.0
 11
-33.13590609531703
 21
80.07007294154764
 31
0.0
  0
LINE
  5
1A0
330
5C
100
AcDbEntity
  8
0
  6
Continuous
 62
     7
100
AcDbLine
 10
-25.73590609531757
 20
81.15023417992612
 30
0.0
 11
-25.18590609531718
 21
80.07007294154803
 31
0.0
  0
LINE
  5
1A1
330
5C
100
AcDbEntity
  8
0
  6
Continuous
 62
     7
100
AcDbLine
 10
-21.23590609531647
 20
80.07007294154823
 30
0.0
 11
-21.23590609531765
 21
80.05845281272374
 31
0.0
  0
LINE
  5
1A2
330
5C
100
AcDbEntity
  8
0
  6
Continuous
 62
     7
100
AcDbLine
 10
-24.93590609531766
 20
80.05845281272374
 30
0.0
 11
-24.92738944488566
 21
80.05845281272374
 31
0.0
  0
LINE
  5
1A3
330
5C
100
AcDbEntity
  8
0
  6
Continuous
 62
     7
100
AcDbLine
 10
-21.24442274574815
 20
80.05845281272374
 30
0.0
 11
-21.23590609531765
 21
80.05845281272374
 31
0.0
  0
LINE
  5
1A4
330
5C
100
AcDbEntity
  8
0
  6
Continuous
 62
     7
100
AcDbLine
 10
-24.93590609531766
 20
80.05845281272374
 30
0.0
 11
-24.93590609531722
 21
80.07007294154805
 31
0.0
  0
LINE
  5
1A5
330
5C
100
AcDbEntity
  8
0
  6
Continuous
 62
     7
100
AcDbLine
 10
-24.93590609531722
 20
80.07007294154805
 30
0.0
 11
-24.85019180960277
 21
79.9531242596586
 31
0.0
  0
LINE
  5
1A6
330
5C
100
AcDbEntity
  8
0
  6
Continuous
 62
     7
100
AcDbLine
 10
-29.52162038103045
 20
79.95312425965861
 30
0.0
 11
-29.43590609531628
 21
80.07007294154783
 31
0.0
  0
LINE
  5
1A7
330
5C
100
AcDbEntity
  8
0
  6
Continuous
 62
     7
100
AcDbLine
 10
-21.32162038103093
 20
79.95312425965861
 30
0.0
 11
-21.23590609531647
 21
80.07007294154823
 31
0.0
  0
LINE
  5
1A8
330
5C
100
AcDbEntity
  8
0
  6
Continuous
 62
     7
100
AcDbLine
 10
-17.53590609531611
 20
81.15023417992228
 30
0.0
 11
-16.98590609531789
 21
80.07007294154846
 31
0.0
  0
LINE
  5
1A9
330
5C
100
AcDbEntity
  8
0
  6
Continuous
 62
     7
100
AcDbLine
 10
-25.18590609531718
 20
80.07007294154803
 30
0.0
 11
-24.93590609531722
 21
80.07007294154805
 31
0.0
  0
LINE
  5
1AA
330
5C
100
AcDbEntity
  8
0
  6
Continuous
 62
     7
100
AcDbLine
 10
-29.18590609531631
 20
80.07007294154783
 30
0.0
 11
-28.63590609531767
 21
81.1502341799247
 31
0.0
  0
LINE
  5
1AB
330
5C
100
AcDbEntity
  8
0
  6
Continuous
 62
     7
100
AcDbLine
 10
-20.98590609531648
 20
80.07007294154826
 30
0.0
 11
-20.43590609531762
 21
81.15023417992592
 31
0.0
  0
LINE
  5
1AC
330
5C
100
AcDbEntity
  8
0
  6
Continuous
 62
     7
100
AcDbLine
 10
-17.53590609531611
 20
81.48959650529699
 30
0.0
 11
-17.53590609531611
 21
81.15023417992228
 31
0.0
  0
LINE
  5
1AD
330
5C
100
AcDbEntity
  8
0
  6
Continuous
 62
     7
100
AcDbLine
 10
-34.38590609531767
 20
86.0649257637243
 30
0.0
 11
-34.38590609531767
 21
86.31259566707135
 31
0.0
  0
LINE
  5
1AE
330
5C
100
AcDbEntity
  8
0
  6
Continuous
 62
     7
100
AcDbLine
 10
-11.78590609531611
 20
83.5785333982204
 30
0.0
 11
-11.78590609531611
 21
83.14149663698038
 31
0.0
  0
LINE
  5
1AF
330
5C
100
AcDbEntity
  8
0
  6
Continuous
 62
     7
100
AcDbLine
 10
-34.38590609531767
 20
83.5785333982204
 30
0.0
 11
-34.38590609531767
 21
83.14149663698038
 31
0.0
  0
LINE
  5
1B0
330
5C
100
AcDbEntity
  8
0
  6
Continuous
 62
     2
100
AcDbLine
 10
-11.78590609531611
 20
83.5785333982204
 30
0.0
 11
-34.38590609531767
 21
83.5785333982204
 31
0.0
  0
LINE
  5
1B1
330
5C
100
AcDbEntity
  8
0
  6
Continuous
 62
     7
100
AcDbLine
 10
-34.38590609531767
 20
83.5785333982204
 30
0.0
 11
-34.38590609531767
 21
86.0649257637243
 31
0.0
  0
LINE
  5
1B2
330
5C
100
AcDbEntity
  8
0
  6
Continuous
 62
     7
100
AcDbLine
 10
-34.38590609531767
 20
81.48959650529699
 30
0.0
 11
-34.38590609531767
 21
83.14149663698038
 31
0.0
  0
LINE
  5
1B3
330
5C
100
AcDbEntity
  8
0
  6
Continuous
 62
     7
100
AcDbLine
 10
-12.23590609531615
 20
81.15023417993056
 30
0.0
 11
-12.23590609531615
 21
81.48959650529699
 31
0.0
  0
LINE
  5
1B4
330
5C
100
AcDbEntity
  8
0
  6
Continuous
 62
     7
100
AcDbLine
 10
-33.93590609531762
 20
81.48959650529699
 30
0.0
 11
-33.93590609531762
 21
81.15023417992579
 31
0.0
  0
LINE
  5
1B5
330
5C
100
AcDbEntity
  8
0
  6
Continuous
 62
     7
100
AcDbLine
 10
-11.78590609531611
 20
81.48959650529699
 30
0.0
 11
-34.38590609531767
 21
81.48959650529699
 31
0.0
  0
LINE
  5
1B6
330
5C
100
AcDbEntity
  8
0
  6
Continuous
 62
     2
100
AcDbLine
 10
-11.78590609531611
 20
83.14149663698038
 30
0.0
 11
-34.38590609531767
 21
83.14149663698038
 31
0.0
  0
LINE
  5
1B7
330
5C
100
AcDbEntity
  8
0
  6
Continuous
 62
     2
100
AcDbLine
 10
-34.38590609531767
 20
86.0649257637243
 30
0.0
 11
-11.78590609531611
 21
86.06492576372429
 31
0.0
  0
LINE
  5
1B8
330
5C
100
AcDbEntity
  8
0
  6
Continuous
 62
     7
100
AcDbLine
 10
-11.78590609531611
 20
86.31259566707135
 30
0.0
 11
-34.38590609531767
 21
86.31259566707135
 31
0.0
  0
LINE
  5
1B9
330
5C
100
AcDbEntity
  8
0
  6
Continuous
 62
     7
100
AcDbLine
 10
-25.73590609531757
 20
81.48959650529699
 30
0.0
 11
-25.73590609531757
 21
81.15023417992612
 31
0.0
  0
LINE
  5
1BA
330
5C
100
AcDbEntity
  8
0
  6
Continuous
 62
     7
100
AcDbLine
 10
-20.43590609531762
 20
81.15023417992592
 30
0.0
 11
-20.43590609531762
 21
81.48959650529699
 31
0.0
  0
LINE
  5
1BB
330
5C
100
AcDbEntity
  8
0
  6
Continuous
 62
     7
100
AcDbLine
 10
-28.63590609531767
 20
81.48959650529699
 30
0.0
 11
-28.63590609531767
 21
81.1502341799247
 31
0.0
  0
LINE
  5
1BC
330
5C
100
AcDbEntity
  8
0
  6
Continuous
 62
     7
100
AcDbLine
 10
-11.78590609531611
 20
83.14149663698038
 30
0.0
 11
-11.78590609531611
 21
81.48959650529699
 31
0.0
  0
LINE
  5
1BD
330
5C
100
AcDbEntity
  8
0
  6
Continuous
 62
     7
100
AcDbLine
 10
-11.78590609531611
 20
86.06492576372429
 30
0.0
 11
-11.78590609531611
 21
83.5785333982204
 31
0.0
  0
LINE
  5
1BE
330
5C
100
AcDbEntity
  8
0
  6
Continuous
 62
     7
100
AcDbLine
 10
-11.78590609531611
 20
86.06492576372429
 30
0.0
 11
-11.78590609531611
 21
86.31259566707135
 31
0.0
  0
LINE
  5
1BF
330
5C
100
AcDbEntity
  8
0
  6
Continuous
 62
     7
100
AcDbLine
 10
-16.73590609531618
 20
80.0584528127238
 30
0.0
 11
-16.73590609531792
 21
80.07007294154846
 31
0.0
  0
LINE
  5
1C0
330
5C
100
AcDbEntity
  8
0
  6
Continuous
 62
     7
100
AcDbLine
 10
-16.73590609531618
 20
80.0584528127238
 30
0.0
 11
-16.72738944488607
 21
80.05845281272377
 31
0.0
  0
LINE
  5
1C1
330
5C
100
AcDbEntity
  8
0
  6
Continuous
 62
     7
100
AcDbLine
 10
-16.98590609531789
 20
80.07007294154846
 30
0.0
 11
-16.73590609531792
 21
80.07007294154846
 31
0.0
  0
LINE
  5
1C2
330
5C
100
AcDbEntity
  8
0
  6
Continuous
 62
     7
100
AcDbLine
 10
-21.23590609531647
 20
80.07007294154823
 30
0.0
 11
-20.98590609531648
 21
80.07007294154826
 31
0.0
  0
LINE
  5
1C3
330
5C
100
AcDbEntity
  8
0
  6
Continuous
 62
     7
100
AcDbLine
 10
-13.03590609531716
 20
80.07007294154866
 30
0.0
 11
-13.03590609531617
 21
80.0584528127238
 31
0.0
  0
LINE
  5
1C4
330
5C
100
AcDbEntity
  8
0
  6
Continuous
 62
     7
100
AcDbLine
 10
-29.43590609531628
 20
80.07007294154783
 30
0.0
 11
-29.43590609531766
 21
80.05845281272374
 31
0.0
  0
LINE
  5
1C5
330
5C
100
AcDbEntity
  8
0
  6
Continuous
 62
     2
100
AcDbLine
 10
-33.0501918096029
 20
79.95312425965861
 30
0.0
 11
-29.52162038103045
 21
79.95312425965861
 31
0.0
  0
LINE
  5
1C6
330
5C
100
AcDbEntity
  8
0
  6
Continuous
 62
     2
100
AcDbLine
 10
-24.85019180960277
 20
79.9531242596586
 30
0.0
 11
-21.32162038103093
 21
79.95312425965861
 31
0.0
  0
LINE
  5
1C7
330
5C
100
AcDbEntity
  8
0
  6
Continuous
 62
     7
100
AcDbLine
 10
-16.73590609531792
 20
80.07007294154846
 30
0.0
 11
-16.6501918096032
 21
79.95312425965865
 31
0.0
  0
LINE
  5
1C8
330
5C
100
AcDbEntity
  8
0
  6
Continuous
 62
     7
100
AcDbLine
 10
-13.12162038103189
 20
79.95312425965864
 30
0.0
 11
-13.03590609531716
 21
80.07007294154866
 31
0.0
  0
LINE
  5
1C9
330
5C
100
AcDbEntity
  8
0
  6
Continuous
 62
     7
100
AcDbLine
 10
-33.13590609531703
 20
80.07007294154764
 30
0.0
 11
-33.0501918096029
 21
79.95312425965861
 31
0.0
  0
LINE
  5
1CA
330
5C
100
AcDbEntity
  8
0
  6
Continuous
 62
     7
100
AcDbLine
 10
-33.93590609531762
 20
81.15023417992579
 30
0.0
 11
-33.385906095317
 21
80.07007294154762
 31
0.0
  0
LINE
  5
1CB
330
5C
100
AcDbEntity
  8
0
  6
Continuous
 62
     7
100
AcDbLine
 10
-12.78590609531717
 20
80.07007294154866
 30
0.0
 11
-12.23590609531615
 21
81.15023417993056
 31
0.0
  0
SPLINE
  5
1CC
330
5C
100
AcDbEntity
  8
0
  6
Continuous
 62
     7
100
AcDbSpline
210
0.0
220
0.0
230
1.0
 70
     8
 71
     3
 72
     9
 73
     5
 74
     3
 42
0.000000001
 43
0.0000000001
 44
0.00000001
 40
0.0
 40
0.0
 40
0.0
 40
0.0
 40
0.0098602145825402
 40
0.0235200101856749
 40
0.0235200101856749
 40
0.0235200101856749
 40
0.0235200101856749
 10
-33.03139648572789
 20
79.94001568644751
 30
0.0
 10
-33.03466433726344
 20
79.94084939894891
 30
0.0
 10
-33.04245928141383
 20
79.94283810862261
 30
0.0
 10
-33.04735089659059
 20
79.94934514005459
 30
0.0
 10
-33.0501918096029
 20
79.95312425965861
 30
0.0
 11
-33.03139648572789
 21
79.94001568644751
 31
0.0
 11
-33.04068977611412
 21
79.94331093005641
 31
0.0
 11
-33.0501918096029
 21
79.95312425965861
 31
0.0
  0
SPLINE
  5
1CD
330
5C
100
AcDbEntity
  8
0
  6
Continuous
 62
     7
100
AcDbSpline
210
0.0
220
0.0
230
1.0
 70
     8
 71
     3
 72
     9
 73
     5
 74
     3
 42
0.000000001
 43
0.0000000001
 44
0.00000001
 40
0.0
 40
0.0
 40
0.0
 40
0.0
 40
0.0136597956031096
 40
0.0235200101856378
 40
0.0235200101856378
 40
0.0235200101856378
 40
0.0235200101856378
 10
-29.52162038103045
 20
79.95312425965861
 30
0.0
 10
-29.52446129404275
 20
79.94934514005459
 30
0.0
 10
-29.5293529092195
 20
79.94283810862264
 30
0.0
 10
-29.53714785336987
 20
79.94084939894891
 30
0.0
 10
-29.54041570490542
 20
79.94001568644751
 30
0.0
 11
-29.52162038103045
 21
79.95312425965861
 31
0.0
 11
-29.53112241451921
 21
79.94331093005643
 31
0.0
 11
-29.54041570490542
 21
79.94001568644751
 31
0.0
  0
SPLINE
  5
1CE
330
5C
100
AcDbEntity
  8
0
  6
Continuous
 62
     7
100
AcDbSpline
210
0.0
220
0.0
230
1.0
 70
     8
 71
     3
 72
     9
 73
     5
 74
     3
 42
0.000000001
 43
0.0000000001
 44
0.00000001
 40
0.0
 40
0.0
 40
0.0
 40
0.0
 40
0.0136597956031056
 40
0.0235200101856274
 40
0.0235200101856274
 40
0.0235200101856274
 40
0.0235200101856274
 10
-13.12162038103189
 20
79.95312425965864
 30
0.0
 10
-13.1244612940442
 20
79.94934514005463
 30
0.0
 10
-13.12935290922095
 20
79.94283810862265
 30
0.0
 10
-13.13714785337133
 20
79.940849398949
 30
0.0
 10
-13.14041570490687
 20
79.94001568644757
 30
0.0
 11
-13.12162038103189
 21
79.95312425965864
 31
0.0
 11
-13.13112241452066
 21
79.94331093005647
 31
0.0
 11
-13.14041570490687
 21
79.94001568644757
 31
0.0
  0
SPLINE
  5
1CF
330
5C
100
AcDbEntity
  8
0
  6
Continuous
 62
     7
100
AcDbSpline
210
0.0
220
0.0
230
1.0
 70
     8
 71
     3
 72
     9
 73
     5
 74
     3
 42
0.000000001
 43
0.0000000001
 44
0.00000001
 40
0.0
 40
0.0
 40
0.0
 40
0.0
 40
0.013659795603117
 40
0.0235200101856452
 40
0.0235200101856452
 40
0.0235200101856452
 40
0.0235200101856452
 10
-21.32162038103093
 20
79.95312425965861
 30
0.0
 10
-21.32446129404325
 20
79.94934514005458
 30
0.0
 10
-21.32935290921998
 20
79.94283810862261
 30
0.0
 10
-21.33714785337037
 20
79.94084939894894
 30
0.0
 10
-21.34041570490591
 20
79.94001568644751
 30
0.0
 11
-21.32162038103093
 21
79.95312425965861
 31
0.0
 11
-21.3311224145197
 21
79.94331093005643
 31
0.0
 11
-21.34041570490591
 21
79.94001568644751
 31
0.0
  0
SPLINE
  5
1D0
330
5C
100
AcDbEntity
  8
0
  6
Continuous
 62
     7
100
AcDbSpline
210
0.0
220
0.0
230
1.0
 70
     8
 71
     3
 72
     9
 73
     5
 74
     3
 42
0.000000001
 43
0.0000000001
 44
0.00000001
 40
0.0
 40
0.0
 40
0.0
 40
0.0
 40
0.0098602145825349
 40
0.0235200101856491
 40
0.0235200101856491
 40
0.0235200101856491
 40
0.0235200101856491
 10
-16.6313964857282
 20
79.94001568644757
 30
0.0
 10
-16.63466433726374
 20
79.940849398949
 30
0.0
 10
-16.64245928141413
 20
79.94283810862268
 30
0.0
 10
-16.64735089659089
 20
79.94934514005463
 30
0.0
 10
-16.6501918096032
 20
79.95312425965865
 30
0.0
 11
-16.6313964857282
 21
79.94001568644757
 31
0.0
 11
-16.64068977611442
 21
79.94331093005648
 31
0.0
 11
-16.6501918096032
 21
79.95312425965865
 31
0.0
  0
SPLINE
  5
1D1
330
5C
100
AcDbEntity
  8
0
  6
Continuous
 62
     7
100
AcDbSpline
210
0.0
220
0.0
230
1.0
 70
     8
 71
     3
 72
     9
 73
     5
 74
     3
 42
0.000000001
 43
0.0000000001
 44
0.00000001
 40
0.0
 40
0.0
 40
0.0
 40
0.0
 40
0.0098602145825335
 40
0.0235200101856555
 40
0.0235200101856555
 40
0.0235200101856555
 40
0.0235200101856555
 10
-24.83139648572777
 20
79.94001568644751
 30
0.0
 10
-24.83466433726331
 20
79.94084939894891
 30
0.0
 10
-24.84245928141371
 20
79.94283810862262
 30
0.0
 10
-24.84735089659046
 20
79.94934514005456
 30
0.0
 10
-24.85019180960277
 20
79.9531242596586
 30
0.0
 11
-24.83139648572777
 21
79.94001568644751
 31
0.0
 11
-24.84068977611399
 21
79.94331093005641
 31
0.0
 11
-24.85019180960277
 21
79.9531242596586
 31
0.0
  0
ENDBLK
  5
5E
330
5C
100
AcDbEntity
  8
0
100
AcDbBlockEnd
  0
BLOCK
  5
61
330
5F
100
AcDbEntity
  8
0
100
AcDbBlockBegin
  2
Left1
 70
     0
 10
-23.08590600000017
 20
83.13252299999996
 30
0.0
  3
Left1
  1

  0
INSERT
  5
60
330
5F
100
AcDbEntity
  8
0
100
AcDbBlockReference
  2
EB_3-8-select__4
 10
-34.38590609531767
 20
79.94001568644751
 30
0.0
  0
MTEXT
  5
1D2
330
5F
100
AcDbEntity
  8
1
 62
     6
100
AcDbMText
 10
-23.08590551195016
 20
73.79999922872673
 30
0.0
 40
2.5
 41
0.0
 71
     2
 72
     1
  1
 
  7
CONVERTER_11
 73
     1
 44
1.32052821128451
  0
ENDBLK
  5
62
330
5F
100
AcDbEntity
  8
0
100
AcDbBlockEnd
  0
BLOCK
  5
64
330
63
100
AcDbEntity
  8
0
100
AcDbBlockBegin
  2
EB_3-8-select__5
 70
     0
 10
-105.7140939046843
 20
79.94001568644755
 30
0.0
  3
EB_3-8-select__5
  1

  0
LINE
  5
1D3
330
63
100
AcDbEntity
  8
0
  6
Continuous
 62
     7
100
AcDbLine
 10
-83.11409390468273
 20
84.64540219997505
 30
0.0
 11
-83.11409390468273
 21
86.29730233165846
 31
0.0
  0
LINE
  5
1D4
330
63
100
AcDbEntity
  8
0
  6
Continuous
 62
     7
100
AcDbLine
 10
-84.11409390468339
 20
80.07007294154766
 30
0.0
 11
-84.11409390468339
 21
81.88705197787745
 31
0.0
  0
LINE
  5
1D5
330
63
100
AcDbEntity
  8
0
  6
Continuous
 62
     7
100
AcDbLine
 10
-83.56409390468278
 20
83.63662654543009
 30
0.0
 11
-83.56409390468278
 21
81.15023417992585
 31
0.0
  0
LINE
  5
1D6
330
63
100
AcDbEntity
  8
0
  6
Continuous
 62
     7
100
AcDbLine
 10
-83.11409390468273
 20
81.48959650529703
 30
0.0
 11
-83.11409390468273
 21
84.64540219997505
 31
0.0
  0
LINE
  5
1D7
330
63
100
AcDbEntity
  8
0
  6
Continuous
 62
     7
100
AcDbLine
 10
-83.56409390468278
 20
81.15023417992585
 30
0.0
 11
-84.11409390468339
 21
80.07007294154766
 31
0.0
  0
LINE
  5
1D8
330
63
100
AcDbEntity
  8
0
  6
Continuous
 62
     7
100
AcDbLine
 10
-83.11409390468273
 20
86.31259566707139
 30
0.0
 11
-83.11409390468273
 21
86.29730233165846
 31
0.0
  0
LINE
  5
1D9
330
63
100
AcDbEntity
  8
0
  6
Continuous
 62
     7
100
AcDbLine
 10
-96.5140939046839
 20
81.88705197787804
 30
0.0
 11
-96.5140939046839
 21
80.0700729415483
 31
0.0
  0
LINE
  5
1DA
330
63
100
AcDbEntity
  8
0
  6
Continuous
 62
     7
100
AcDbLine
 10
-96.5140939046839
 20
80.0700729415483
 30
0.0
 11
-97.06409390468276
 21
81.15023417992596
 31
0.0
  0
LINE
  5
1DB
330
63
100
AcDbEntity
  8
0
  6
Continuous
 62
     7
100
AcDbLine
 10
-92.3140939046832
 20
80.07007294154809
 30
0.0
 11
-92.3140939046832
 21
81.88705197787786
 31
0.0
  0
LINE
  5
1DC
330
63
100
AcDbEntity
  8
0
  6
Continuous
 62
     7
100
AcDbLine
 10
-100.5140939046825
 20
80.0700729415485
 30
0.0
 11
-100.7640939046825
 21
80.07007294154852
 31
0.0
  0
LINE
  5
1DD
330
63
100
AcDbEntity
  8
0
  6
Continuous
 62
     7
100
AcDbLine
 10
-104.4640939046832
 20
80.0700729415487
 30
0.0
 11
-104.4640939046842
 21
81.2584528127238
 31
0.0
  0
LINE
  5
1DE
330
63
100
AcDbEntity
  8
0
  6
Continuous
 62
     7
100
AcDbLine
 10
-100.5140939046825
 20
80.0700729415485
 30
0.0
 11
-100.5140939046825
 21
81.88705197787827
 31
0.0
  0
LINE
  5
1DF
330
63
100
AcDbEntity
  8
0
  6
Continuous
 62
     7
100
AcDbLine
 10
-88.31409390468409
 20
80.07007294154788
 30
0.0
 11
-88.86409390468273
 21
81.15023417992474
 31
0.0
  0
LINE
  5
1E0
330
63
100
AcDbEntity
  8
0
  6
Continuous
 62
     7
100
AcDbLine
 10
-92.3140939046832
 20
80.07007294154809
 30
0.0
 11
-92.56409390468318
 21
80.07007294154809
 31
0.0
  0
LINE
  5
1E1
330
63
100
AcDbEntity
  8
0
  6
Continuous
 62
     7
100
AcDbLine
 10
-104.4640939046832
 20
80.0700729415487
 30
0.0
 11
-104.7140939046832
 21
80.07007294154872
 31
0.0
  0
LINE
  5
1E2
330
63
100
AcDbEntity
  8
0
  6
Continuous
 62
     7
100
AcDbLine
 10
-99.96409390468429
 20
81.15023417992232
 30
0.0
 11
-100.5140939046825
 21
80.0700729415485
 31
0.0
  0
LINE
  5
1E3
330
63
100
AcDbEntity
  8
0
  6
Continuous
 62
     7
100
AcDbLine
 10
-104.7140939046832
 20
81.88705197787847
 30
0.0
 11
-104.7140939046832
 21
80.07007294154872
 31
0.0
  0
LINE
  5
1E4
330
63
100
AcDbEntity
  8
0
  6
Continuous
 62
     7
100
AcDbLine
 10
-88.31409390468409
 20
81.88705197787763
 30
0.0
 11
-88.31409390468409
 21
80.07007294154788
 31
0.0
  0
LINE
  5
1E5
330
63
100
AcDbEntity
  8
0
  6
Continuous
 62
     7
100
AcDbLine
 10
-88.06409390468411
 20
80.07007294154788
 30
0.0
 11
-88.06409390468274
 21
81.25845281272373
 31
0.0
  0
LINE
  5
1E6
330
63
100
AcDbEntity
  8
0
  6
Continuous
 62
     7
100
AcDbLine
 10
-91.76409390468282
 20
81.15023417992617
 30
0.0
 11
-92.3140939046832
 21
80.07007294154809
 31
0.0
  0
LINE
  5
1E7
330
63
100
AcDbEntity
  8
0
  6
Continuous
 62
     2
100
AcDbLine
 10
-88.06409390468272
 20
81.88705197787763
 30
0.0
 11
-88.06409390468411
 21
82.76416709204568
 31
0.0
  0
LINE
  5
1E8
330
63
100
AcDbEntity
  8
0
  6
Continuous
 62
     7
100
AcDbLine
 10
-88.86409390468273
 20
84.31069553538799
 30
0.0
 11
-83.56409390468278
 21
84.31069553538799
 31
0.0
  0
LINE
  5
1E9
330
63
100
AcDbEntity
  8
0
  6
Continuous
 62
     7
100
AcDbLine
 10
-88.86409390468273
 20
84.31069553538799
 30
0.0
 11
-88.86409390468273
 21
83.636626545429
 31
0.0
  0
LINE
  5
1EA
330
63
100
AcDbEntity
  8
0
  6
Continuous
 62
     7
100
AcDbLine
 10
-83.66748158825067
 20
83.43358042121982
 30
0.0
 11
-83.66748158825067
 21
82.76416709204568
 31
0.0
  0
LINE
  5
1EB
330
63
100
AcDbEntity
  8
0
  6
Continuous
 62
     7
100
AcDbLine
 10
-84.36409390468336
 20
82.76416709204568
 30
0.0
 11
-83.66748158825067
 21
82.76416709204568
 31
0.0
  0
LINE
  5
1EC
330
63
100
AcDbEntity
  8
0
  6
Continuous
 62
     7
100
AcDbLine
 10
-84.11409390468339
 20
81.88705197787745
 30
0.0
 11
-83.66748158825067
 21
82.76416709204568
 31
0.0
  0
LINE
  5
1ED
330
63
100
AcDbEntity
  8
0
  6
Continuous
 62
     7
100
AcDbLine
 10
-83.56409390468278
 20
83.63662654543009
 30
0.0
 11
-83.56409390468278
 21
84.31069553538799
 31
0.0
  0
LINE
  5
1EE
330
63
100
AcDbEntity
  8
0
  6
Continuous
 62
     7
100
AcDbLine
 10
-83.56409390468278
 20
83.63662654543009
 30
0.0
 11
-83.66748158825067
 21
83.43358042121982
 31
0.0
  0
LINE
  5
1EF
330
63
100
AcDbEntity
  8
0
  6
Continuous
 62
     7
100
AcDbLine
 10
-101.6140939046843
 20
80.05845281272383
 30
0.0
 11
-101.6140939046843
 21
81.2584528127238
 31
0.0
  0
LINE
  5
1F0
330
63
100
AcDbEntity
  8
0
  6
Continuous
 62
     7
100
AcDbLine
 10
-103.6140939046843
 20
80.05845281272383
 30
0.0
 11
-103.6140939046843
 21
81.2584528127238
 31
0.0
  0
LINE
  5
1F1
330
63
100
AcDbEntity
  8
0
  6
Continuous
 62
     7
100
AcDbLine
 10
-84.3640939046827
 20
81.25845281272392
 30
0.0
 11
-85.21409390468273
 21
81.25845281272369
 31
0.0
  0
LINE
  5
1F2
330
63
100
AcDbEntity
  8
0
  6
Continuous
 62
     7
100
AcDbLine
 10
-84.3640939046827
 20
81.25845281272392
 30
0.0
 11
-84.36409390468336
 21
80.07007294154768
 31
0.0
  0
LINE
  5
1F3
330
63
100
AcDbEntity
  8
0
  6
Continuous
 62
     7
100
AcDbLine
 10
-100.7640939046825
 20
80.07007294154852
 30
0.0
 11
-100.7640939046842
 21
81.2584528127238
 31
0.0
  0
LINE
  5
1F4
330
63
100
AcDbEntity
  8
0
  6
Continuous
 62
     7
100
AcDbLine
 10
-96.26409390468393
 20
80.07007294154829
 30
0.0
 11
-96.26409390468277
 21
81.25845281272375
 31
0.0
  0
LINE
  5
1F5
330
63
100
AcDbEntity
  8
0
  6
Continuous
 62
     7
100
AcDbLine
 10
-95.41409390468277
 20
80.05845281272379
 30
0.0
 11
-95.41409390468277
 21
81.25845281272377
 31
0.0
  0
LINE
  5
1F6
330
63
100
AcDbEntity
  8
0
  6
Continuous
 62
     7
100
AcDbLine
 10
-104.4640939046842
 20
80.05845281272384
 30
0.0
 11
-103.6140939046843
 21
80.05845281272383
 31
0.0
  0
LINE
  5
1F7
330
63
100
AcDbEntity
  8
0
  6
Continuous
 62
     7
100
AcDbLine
 10
-104.4640939046832
 20
80.0700729415487
 30
0.0
 11
-104.4640939046842
 21
80.05845281272384
 31
0.0
  0
LINE
  5
1F8
330
63
100
AcDbEntity
  8
0
  6
Continuous
 62
     7
100
AcDbLine
 10
-92.66860351427263
 20
79.94001568644755
 30
0.0
 11
-96.15958429509449
 21
79.94001568644755
 31
0.0
  0
LINE
  5
1F9
330
63
100
AcDbEntity
  8
0
  6
Continuous
 62
     7
100
AcDbLine
 10
-96.26409390468393
 20
80.07007294154829
 30
0.0
 11
-96.26409390468277
 21
80.0584528127238
 31
0.0
  0
LINE
  5
1FA
330
63
100
AcDbEntity
  8
0
  6
Continuous
 62
     7
100
AcDbLine
 10
-96.26409390468393
 20
80.07007294154829
 30
0.0
 11
-96.5140939046839
 21
80.0700729415483
 31
0.0
  0
LINE
  5
1FB
330
63
100
AcDbEntity
  8
0
  6
Continuous
 62
     7
100
AcDbLine
 10
-100.8686035142722
 20
79.94001568644761
 30
0.0
 11
-104.3595842950935
 21
79.94001568644761
 31
0.0
  0
LINE
  5
1FC
330
63
100
AcDbEntity
  8
0
  6
Continuous
 62
     7
100
AcDbLine
 10
-100.7640939046825
 20
80.07007294154852
 30
0.0
 11
-100.7640939046842
 21
80.05845281272384
 31
0.0
  0
LINE
  5
1FD
330
63
100
AcDbEntity
  8
0
  6
Continuous
 62
     7
100
AcDbLine
 10
-100.7726105551143
 20
80.05845281272383
 30
0.0
 11
-100.8498081903972
 21
79.9531242596587
 31
0.0
  0
LINE
  5
1FE
330
63
100
AcDbEntity
  8
0
  6
Continuous
 62
     7
100
AcDbLine
 10
-93.41409390468276
 20
80.05845281272379
 30
0.0
 11
-95.41409390468277
 21
80.05845281272379
 31
0.0
  0
LINE
  5
1FF
330
63
100
AcDbEntity
  8
0
  6
Continuous
 62
     7
100
AcDbLine
 10
-96.26409390468277
 20
80.0584528127238
 30
0.0
 11
-95.41409390468277
 21
80.05845281272379
 31
0.0
  0
LINE
  5
200
330
63
100
AcDbEntity
  8
0
  6
Continuous
 62
     7
100
AcDbLine
 10
-93.41409390468276
 20
80.05845281272379
 30
0.0
 11
-92.56409390468274
 21
80.05845281272379
 31
0.0
  0
LINE
  5
201
330
63
100
AcDbEntity
  8
0
  6
Continuous
 62
     7
100
AcDbLine
 10
-101.6140939046843
 20
80.05845281272383
 30
0.0
 11
-100.7640939046842
 21
80.05845281272384
 31
0.0
  0
LINE
  5
202
330
63
100
AcDbEntity
  8
0
  6
Continuous
 62
     7
100
AcDbLine
 10
-101.6140939046843
 20
80.05845281272383
 30
0.0
 11
-103.6140939046843
 21
80.05845281272383
 31
0.0
  0
LINE
  5
203
330
63
100
AcDbEntity
  8
0
  6
Continuous
 62
     7
100
AcDbLine
 10
-84.36409390468336
 20
80.07007294154768
 30
0.0
 11
-84.3640939046827
 21
80.05845281272356
 31
0.0
  0
LINE
  5
204
330
63
100
AcDbEntity
  8
0
  6
Continuous
 62
     7
100
AcDbLine
 10
-84.37261055511462
 20
80.05845281272379
 30
0.0
 11
-84.44980819039749
 21
79.95312425965865
 31
0.0
  0
LINE
  5
205
330
63
100
AcDbEntity
  8
0
  6
Continuous
 62
     7
100
AcDbLine
 10
-85.21409390468273
 20
80.05845281272379
 30
0.0
 11
-84.3640939046827
 21
80.05845281272356
 31
0.0
  0
LINE
  5
206
330
63
100
AcDbEntity
  8
0
  6
Continuous
 62
     7
100
AcDbLine
 10
-88.06409390468274
 20
80.05845281272379
 30
0.0
 11
-87.21409390468281
 21
80.05845281272379
 31
0.0
  0
LINE
  5
207
330
63
100
AcDbEntity
  8
0
  6
Continuous
 62
     7
100
AcDbLine
 10
-85.21409390468273
 20
80.05845281272379
 30
0.0
 11
-87.21409390468281
 21
80.05845281272379
 31
0.0
  0
LINE
  5
208
330
63
100
AcDbEntity
  8
0
  6
Continuous
 62
     7
100
AcDbLine
 10
-88.06409390468411
 20
80.07007294154788
 30
0.0
 11
-88.06409390468274
 21
80.05845281272379
 31
0.0
  0
LINE
  5
209
330
63
100
AcDbEntity
  8
0
  6
Continuous
 62
     7
100
AcDbLine
 10
-84.11409390468339
 20
80.07007294154766
 30
0.0
 11
-84.36409390468336
 21
80.07007294154768
 31
0.0
  0
LINE
  5
20A
330
63
100
AcDbEntity
  8
0
  6
Continuous
 62
     7
100
AcDbLine
 10
-88.06409390468411
 20
80.07007294154788
 30
0.0
 11
-88.31409390468409
 21
80.07007294154788
 31
0.0
  0
LINE
  5
20B
330
63
100
AcDbEntity
  8
0
  6
Continuous
 62
     7
100
AcDbLine
 10
-92.57261055511474
 20
80.05845281272379
 30
0.0
 11
-92.64980819039762
 21
79.95312425965865
 31
0.0
  0
LINE
  5
20C
330
63
100
AcDbEntity
  8
0
  6
Continuous
 62
     7
100
AcDbLine
 10
-104.3783796189685
 20
79.9531242596587
 30
0.0
 11
-104.4555772542513
 21
80.05845281272383
 31
0.0
  0
LINE
  5
20D
330
63
100
AcDbEntity
  8
0
  6
Continuous
 62
     7
100
AcDbLine
 10
-87.97837961896994
 20
79.95312425965865
 30
0.0
 11
-88.05557725425271
 21
80.05845281272379
 31
0.0
  0
LINE
  5
20E
330
63
100
AcDbEntity
  8
0
  6
Continuous
 62
     7
100
AcDbLine
 10
-96.17837961896947
 20
79.95312425965865
 30
0.0
 11
-96.25557725425223
 21
80.05845281272379
 31
0.0
  0
LINE
  5
20F
330
63
100
AcDbEntity
  8
0
  6
Continuous
 62
     7
100
AcDbLine
 10
-84.46860351427249
 20
79.94001568644755
 30
0.0
 11
-87.95958429509497
 21
79.94001568644755
 31
0.0
  0
LINE
  5
210
330
63
100
AcDbEntity
  8
0
  6
Continuous
 62
     7
100
AcDbLine
 10
-105.7140939046843
 20
81.48959650529703
 30
0.0
 11
-105.2640939046842
 21
81.48959650529703
 31
0.0
  0
LINE
  5
211
330
63
100
AcDbEntity
  8
0
  6
Continuous
 62
     7
100
AcDbLine
 10
-83.56409390468278
 20
81.48959650529703
 30
0.0
 11
-83.11409390468273
 21
81.48959650529703
 31
0.0
  0
LINE
  5
212
330
63
100
AcDbEntity
  8
0
  6
Continuous
 62
     7
100
AcDbLine
 10
-87.21409390468281
 20
81.2584528127237
 30
0.0
 11
-88.06409390468274
 21
81.25845281272373
 31
0.0
  0
LINE
  5
213
330
63
100
AcDbEntity
  8
0
  6
Continuous
 62
     7
100
AcDbLine
 10
-84.3640939046827
 20
81.88705197787745
 30
0.0
 11
-84.3640939046827
 21
81.25845281272392
 31
0.0
  0
LINE
  5
214
330
63
100
AcDbEntity
  8
0
  6
Continuous
 62
     7
100
AcDbLine
 10
-88.06409390468274
 20
81.25845281272373
 30
0.0
 11
-88.06409390468272
 21
81.88705197787763
 31
0.0
  0
LINE
  5
215
330
63
100
AcDbEntity
  8
0
  6
Continuous
 62
     7
100
AcDbLine
 10
-84.3640939046827
 20
81.88705197787745
 30
0.0
 11
-84.11409390468339
 21
81.88705197787745
 31
0.0
  0
LINE
  5
216
330
63
100
AcDbEntity
  8
0
  6
Continuous
 62
     7
100
AcDbLine
 10
-88.31409390468409
 20
81.88705197787763
 30
0.0
 11
-88.06409390468272
 21
81.88705197787763
 31
0.0
  0
LINE
  5
217
330
63
100
AcDbEntity
  8
0
  6
Continuous
 62
     7
100
AcDbLine
 10
-87.21409390468281
 20
81.2584528127237
 30
0.0
 11
-85.21409390468273
 21
81.25845281272369
 31
0.0
  0
LINE
  5
218
330
63
100
AcDbEntity
  8
0
  6
Continuous
 62
     7
100
AcDbLine
 10
-99.96409390468429
 20
83.63662654542622
 30
0.0
 11
-99.96409390468429
 21
81.15023417992232
 31
0.0
  0
LINE
  5
219
330
63
100
AcDbEntity
  8
0
  6
Continuous
 62
     7
100
AcDbLine
 10
-100.7640939046825
 20
82.76416709204572
 30
0.0
 11
-100.0674815882502
 21
82.76416709204572
 31
0.0
  0
LINE
  5
21A
330
63
100
AcDbEntity
  8
0
  6
Continuous
 62
     7
100
AcDbLine
 10
-100.7640939046842
 20
81.2584528127238
 30
0.0
 11
-101.6140939046843
 21
81.2584528127238
 31
0.0
  0
LINE
  5
21B
330
63
100
AcDbEntity
  8
0
  6
Continuous
 62
     7
100
AcDbLine
 10
-103.6140939046843
 20
81.2584528127238
 30
0.0
 11
-101.6140939046843
 21
81.2584528127238
 31
0.0
  0
LINE
  5
21C
330
63
100
AcDbEntity
  8
0
  6
Continuous
 62
     7
100
AcDbLine
 10
-105.1607062211144
 20
82.76416709204572
 30
0.0
 11
-104.4640939046842
 21
82.76416709204572
 31
0.0
  0
LINE
  5
21D
330
63
100
AcDbEntity
  8
0
  6
Continuous
 62
     7
100
AcDbLine
 10
-104.4640939046842
 20
82.76416709204572
 30
0.0
 11
-100.7640939046825
 21
82.76416709204572
 31
0.0
  0
LINE
  5
21E
330
63
100
AcDbEntity
  8
0
  6
Continuous
 62
     7
100
AcDbLine
 10
-105.1607062211144
 20
83.43358042121986
 30
0.0
 11
-100.0674815882502
 21
83.43358042121986
 31
0.0
  0
LINE
  5
21F
330
63
100
AcDbEntity
  8
0
  6
Continuous
 62
     7
100
AcDbLine
 10
-95.41409390468277
 20
81.25845281272377
 30
0.0
 11
-96.26409390468277
 21
81.25845281272375
 31
0.0
  0
LINE
  5
220
330
63
100
AcDbEntity
  8
0
  6
Continuous
 62
     7
100
AcDbLine
 10
-96.96070622111525
 20
83.43358042121982
 30
0.0
 11
-96.96070622111525
 21
82.76416709204567
 31
0.0
  0
LINE
  5
221
330
63
100
AcDbEntity
  8
0
  6
Continuous
 62
     7
100
AcDbLine
 10
-95.41409390468277
 20
81.25845281272377
 30
0.0
 11
-93.41409390468276
 21
81.25845281272377
 31
0.0
  0
LINE
  5
222
330
63
100
AcDbEntity
  8
0
  6
Continuous
 62
     7
100
AcDbLine
 10
-92.56409390468274
 20
81.25845281272375
 30
0.0
 11
-93.41409390468276
 21
81.25845281272377
 31
0.0
  0
LINE
  5
223
330
63
100
AcDbEntity
  8
0
  6
Continuous
 62
     7
100
AcDbLine
 10
-97.06409390468276
 20
81.15023417992596
 30
0.0
 11
-97.06409390468276
 21
83.63662654542986
 31
0.0
  0
LINE
  5
224
330
63
100
AcDbEntity
  8
0
  6
Continuous
 62
     7
100
AcDbLine
 10
-100.0674815882502
 20
83.43358042121986
 30
0.0
 11
-100.0674815882502
 21
82.76416709204572
 31
0.0
  0
LINE
  5
225
330
63
100
AcDbEntity
  8
0
  6
Continuous
 62
     7
100
AcDbLine
 10
-100.0674815882502
 20
83.43358042121986
 30
0.0
 11
-99.96409390468429
 21
83.63662654542622
 31
0.0
  0
LINE
  5
226
330
63
100
AcDbEntity
  8
0
  6
Continuous
 62
     7
100
AcDbLine
 10
-100.7640939046842
 20
81.2584528127238
 30
0.0
 11
-100.7640939046842
 21
81.88705197787827
 31
0.0
  0
LINE
  5
227
330
63
100
AcDbEntity
  8
0
  6
Continuous
 62
     7
100
AcDbLine
 10
-88.86409390468273
 20
81.15023417992474
 30
0.0
 11
-88.86409390468273
 21
83.636626545429
 31
0.0
  0
LINE
  5
228
330
63
100
AcDbEntity
  8
0
  6
Continuous
 62
     7
100
AcDbLine
 10
-91.76409390468282
 20
83.63662654543008
 30
0.0
 11
-91.76409390468282
 21
81.15023417992617
 31
0.0
  0
LINE
  5
229
330
63
100
AcDbEntity
  8
0
  6
Continuous
 62
     7
100
AcDbLine
 10
-99.96409390468429
 20
81.48959650529703
 30
0.0
 11
-97.06409390468276
 21
81.48959650529703
 31
0.0
  0
LINE
  5
22A
330
63
100
AcDbEntity
  8
0
  6
Continuous
 62
     7
100
AcDbLine
 10
-104.7140939046832
 20
81.88705197787847
 30
0.0
 11
-104.4640939046842
 21
81.88705197787847
 31
0.0
  0
LINE
  5
22B
330
63
100
AcDbEntity
  8
0
  6
Continuous
 62
     7
100
AcDbLine
 10
-91.76409390468282
 20
81.48959650529703
 30
0.0
 11
-88.86409390468273
 21
81.48959650529703
 31
0.0
  0
LINE
  5
22C
330
63
100
AcDbEntity
  8
0
  6
Continuous
 62
     7
100
AcDbLine
 10
-97.06409390468276
 20
83.63662654542986
 30
0.0
 11
-96.96070622111525
 21
83.43358042121982
 31
0.0
  0
LINE
  5
22D
330
63
100
AcDbEntity
  8
0
  6
Continuous
 62
     7
100
AcDbLine
 10
-96.26409390468277
 20
81.25845281272375
 30
0.0
 11
-96.26409390468275
 21
81.88705197787804
 31
0.0
  0
LINE
  5
22E
330
63
100
AcDbEntity
  8
0
  6
Continuous
 62
     7
100
AcDbLine
 10
-104.4640939046842
 20
81.2584528127238
 30
0.0
 11
-104.4640939046842
 21
81.88705197787847
 31
0.0
  0
LINE
  5
22F
330
63
100
AcDbEntity
  8
0
  6
Continuous
 62
     7
100
AcDbLine
 10
-105.2640939046842
 20
81.1502341799306
 30
0.0
 11
-105.2640939046842
 21
83.63662654543451
 31
0.0
  0
LINE
  5
230
330
63
100
AcDbEntity
  8
0
  6
Continuous
 62
     7
100
AcDbLine
 10
-103.6140939046843
 20
81.2584528127238
 30
0.0
 11
-104.4640939046842
 21
81.2584528127238
 31
0.0
  0
LINE
  5
231
330
63
100
AcDbEntity
  8
0
  6
Continuous
 62
     7
100
AcDbLine
 10
-96.96070622111525
 20
82.76416709204567
 30
0.0
 11
-96.5140939046839
 21
81.88705197787804
 31
0.0
  0
LINE
  5
232
330
63
100
AcDbEntity
  8
0
  6
Continuous
 62
     7
100
AcDbLine
 10
-91.76409390468282
 20
84.31069553538799
 30
0.0
 11
-97.06409390468276
 21
84.31069553538799
 31
0.0
  0
LINE
  5
233
330
63
100
AcDbEntity
  8
0
  6
Continuous
 62
     7
100
AcDbLine
 10
-88.76070622111564
 20
82.76416709204568
 30
0.0
 11
-88.76070622111564
 21
83.43358042121982
 31
0.0
  0
LINE
  5
234
330
63
100
AcDbEntity
  8
0
  6
Continuous
 62
     7
100
AcDbLine
 10
-88.76070622111564
 20
82.76416709204568
 30
0.0
 11
-88.06409390468411
 21
82.76416709204568
 31
0.0
  0
LINE
  5
235
330
63
100
AcDbEntity
  8
0
  6
Continuous
 62
     7
100
AcDbLine
 10
-88.06409390468411
 20
82.76416709204568
 30
0.0
 11
-84.36409390468336
 21
82.76416709204568
 31
0.0
  0
LINE
  5
236
330
63
100
AcDbEntity
  8
0
  6
Continuous
 62
     7
100
AcDbLine
 10
-105.1607062211144
 20
83.43358042121986
 30
0.0
 11
-105.1607062211144
 21
82.76416709204572
 31
0.0
  0
LINE
  5
237
330
63
100
AcDbEntity
  8
0
  6
Continuous
 62
     7
100
AcDbLine
 10
-83.11409390468273
 20
84.64540219997505
 30
0.0
 11
-105.7140939046843
 21
84.64540219997505
 31
0.0
  0
LINE
  5
238
330
63
100
AcDbEntity
  8
0
  6
Continuous
 62
     2
100
AcDbLine
 10
-104.4640939046842
 20
81.88705197787847
 30
0.0
 11
-104.4640939046842
 21
82.76416709204572
 31
0.0
  0
LINE
  5
239
330
63
100
AcDbEntity
  8
0
  6
Continuous
 62
     2
100
AcDbLine
 10
-100.7640939046842
 20
81.88705197787827
 30
0.0
 11
-100.7640939046825
 21
82.76416709204572
 31
0.0
  0
LINE
  5
23A
330
63
100
AcDbEntity
  8
0
  6
Continuous
 62
     7
100
AcDbLine
 10
-91.8674815882507
 20
83.43358042121982
 30
0.0
 11
-91.8674815882507
 21
82.76416709204567
 31
0.0
  0
LINE
  5
23B
330
63
100
AcDbEntity
  8
0
  6
Continuous
 62
     7
100
AcDbLine
 10
-100.5140939046825
 20
81.88705197787827
 30
0.0
 11
-100.0674815882502
 21
82.76416709204572
 31
0.0
  0
LINE
  5
23C
330
63
100
AcDbEntity
  8
0
  6
Continuous
 62
     7
100
AcDbLine
 10
-96.96070622111525
 20
83.43358042121982
 30
0.0
 11
-91.8674815882507
 21
83.43358042121982
 31
0.0
  0
LINE
  5
23D
330
63
100
AcDbEntity
  8
0
  6
Continuous
 62
     7
100
AcDbLine
 10
-97.06409390468276
 20
83.63662654542986
 30
0.0
 11
-97.06409390468276
 21
84.31069553538799
 31
0.0
  0
LINE
  5
23E
330
63
100
AcDbEntity
  8
0
  6
Continuous
 62
     7
100
AcDbLine
 10
-91.76409390468282
 20
83.63662654543008
 30
0.0
 11
-91.76409390468282
 21
84.31069553538799
 31
0.0
  0
LINE
  5
23F
330
63
100
AcDbEntity
  8
0
  6
Continuous
 62
     7
100
AcDbLine
 10
-91.8674815882507
 20
83.43358042121982
 30
0.0
 11
-91.76409390468282
 21
83.63662654543008
 31
0.0
  0
LINE
  5
240
330
63
100
AcDbEntity
  8
0
  6
Continuous
 62
     7
100
AcDbLine
 10
-105.7140939046843
 20
84.64540219997505
 30
0.0
 11
-105.7140939046843
 21
81.48959650529703
 31
0.0
  0
LINE
  5
241
330
63
100
AcDbEntity
  8
0
  6
Continuous
 62
     2
100
AcDbLine
 10
-96.26409390468275
 20
81.88705197787804
 30
0.0
 11
-96.26409390468393
 21
82.76416709204567
 31
0.0
  0
LINE
  5
242
330
63
100
AcDbEntity
  8
0
  6
Continuous
 62
     7
100
AcDbLine
 10
-100.7640939046842
 20
81.88705197787827
 30
0.0
 11
-100.5140939046825
 21
81.88705197787827
 31
0.0
  0
LINE
  5
243
330
63
100
AcDbEntity
  8
0
  6
Continuous
 62
     7
100
AcDbLine
 10
-96.5140939046839
 20
81.88705197787804
 30
0.0
 11
-96.26409390468275
 21
81.88705197787804
 31
0.0
  0
LINE
  5
244
330
63
100
AcDbEntity
  8
0
  6
Continuous
 62
     7
100
AcDbLine
 10
-96.96070622111525
 20
82.76416709204567
 30
0.0
 11
-96.26409390468393
 21
82.76416709204567
 31
0.0
  0
LINE
  5
245
330
63
100
AcDbEntity
  8
0
  6
Continuous
 62
     7
100
AcDbLine
 10
-92.56409390468318
 20
82.76416709204568
 30
0.0
 11
-91.8674815882507
 21
82.76416709204567
 31
0.0
  0
LINE
  5
246
330
63
100
AcDbEntity
  8
0
  6
Continuous
 62
     7
100
AcDbLine
 10
-96.26409390468393
 20
82.76416709204567
 30
0.0
 11
-92.56409390468318
 21
82.76416709204568
 31
0.0
  0
LINE
  5
247
330
63
100
AcDbEntity
  8
0
  6
Continuous
 62
     2
100
AcDbLine
 10
-92.56409390468274
 20
81.88705197787786
 30
0.0
 11
-92.56409390468318
 21
82.76416709204568
 31
0.0
  0
LINE
  5
248
330
63
100
AcDbEntity
  8
0
  6
Continuous
 62
     7
100
AcDbLine
 10
-92.56409390468274
 20
81.88705197787786
 30
0.0
 11
-92.3140939046832
 21
81.88705197787786
 31
0.0
  0
LINE
  5
249
330
63
100
AcDbEntity
  8
0
  6
Continuous
 62
     7
100
AcDbLine
 10
-88.76070622111564
 20
82.76416709204568
 30
0.0
 11
-88.31409390468409
 21
81.88705197787763
 31
0.0
  0
LINE
  5
24A
330
63
100
AcDbEntity
  8
0
  6
Continuous
 62
     7
100
AcDbLine
 10
-105.1607062211144
 20
82.76416709204572
 30
0.0
 11
-104.7140939046832
 21
81.88705197787847
 31
0.0
  0
LINE
  5
24B
330
63
100
AcDbEntity
  8
0
  6
Continuous
 62
     7
100
AcDbLine
 10
-92.3140939046832
 20
81.88705197787786
 30
0.0
 11
-91.8674815882507
 21
82.76416709204567
 31
0.0
  0
LINE
  5
24C
330
63
100
AcDbEntity
  8
0
  6
Continuous
 62
     7
100
AcDbLine
 10
-105.7140939046843
 20
86.31259566707139
 30
0.0
 11
-105.7140939046843
 21
86.29730233165846
 31
0.0
  0
LINE
  5
24D
330
63
100
AcDbEntity
  8
0
  6
Continuous
 62
     7
100
AcDbLine
 10
-105.2640939046842
 20
83.63662654543451
 30
0.0
 11
-105.2640939046842
 21
84.31069553538799
 31
0.0
  0
LINE
  5
24E
330
63
100
AcDbEntity
  8
0
  6
Continuous
 62
     7
100
AcDbLine
 10
-88.76070622111564
 20
83.43358042121982
 30
0.0
 11
-88.86409390468273
 21
83.636626545429
 31
0.0
  0
LINE
  5
24F
330
63
100
AcDbEntity
  8
0
  6
Continuous
 62
     7
100
AcDbLine
 10
-83.66748158825067
 20
83.43358042121982
 30
0.0
 11
-88.76070622111564
 21
83.43358042121982
 31
0.0
  0
LINE
  5
250
330
63
100
AcDbEntity
  8
0
  6
Continuous
 62
     7
100
AcDbLine
 10
-105.2640939046842
 20
83.63662654543451
 30
0.0
 11
-105.1607062211144
 21
83.43358042121986
 31
0.0
  0
LINE
  5
251
330
63
100
AcDbEntity
  8
0
  6
Continuous
 62
     7
100
AcDbLine
 10
-99.96409390468429
 20
83.63662654542622
 30
0.0
 11
-99.96409390468429
 21
84.31069553538799
 31
0.0
  0
LINE
  5
252
330
63
100
AcDbEntity
  8
0
  6
Continuous
 62
     7
100
AcDbLine
 10
-99.96409390468429
 20
84.31069553538799
 30
0.0
 11
-105.2640939046842
 21
84.31069553538799
 31
0.0
  0
LINE
  5
253
330
63
100
AcDbEntity
  8
0
  6
Continuous
 62
     7
100
AcDbLine
 10
-105.7140939046843
 20
86.29730233165846
 30
0.0
 11
-105.7140939046843
 21
84.64540219997505
 31
0.0
  0
LINE
  5
254
330
63
100
AcDbEntity
  8
0
  6
Continuous
 62
     2
100
AcDbLine
 10
-83.11409390468273
 20
86.29730233165846
 30
0.0
 11
-105.7140939046843
 21
86.29730233165846
 31
0.0
  0
LINE
  5
255
330
63
100
AcDbEntity
  8
0
  6
Continuous
 62
     7
100
AcDbLine
 10
-105.7140939046843
 20
86.31259566707139
 30
0.0
 11
-83.11409390468273
 21
86.31259566707139
 31
0.0
  0
LINE
  5
256
330
63
100
AcDbEntity
  8
0
  6
Continuous
 62
     7
100
AcDbLine
 10
-92.56409390468274
 20
81.88705197787786
 30
0.0
 11
-92.56409390468274
 21
81.25845281272375
 31
0.0
  0
LINE
  5
257
330
63
100
AcDbEntity
  8
0
  6
Continuous
 62
     7
100
AcDbLine
 10
-92.56409390468318
 20
80.07007294154809
 30
0.0
 11
-92.56409390468274
 21
80.05845281272379
 31
0.0
  0
LINE
  5
258
330
63
100
AcDbEntity
  8
0
  6
Continuous
 62
     7
100
AcDbLine
 10
-92.56409390468318
 20
80.07007294154809
 30
0.0
 11
-92.56409390468274
 21
81.25845281272375
 31
0.0
  0
LINE
  5
259
330
63
100
AcDbEntity
  8
0
  6
Continuous
 62
     7
100
AcDbLine
 10
-93.41409390468276
 20
80.05845281272379
 30
0.0
 11
-93.41409390468276
 21
81.25845281272377
 31
0.0
  0
LINE
  5
25A
330
63
100
AcDbEntity
  8
0
  6
Continuous
 62
     7
100
AcDbLine
 10
-87.21409390468281
 20
80.05845281272379
 30
0.0
 11
-87.21409390468281
 21
81.2584528127237
 31
0.0
  0
LINE
  5
25B
330
63
100
AcDbEntity
  8
0
  6
Continuous
 62
     7
100
AcDbLine
 10
-85.21409390468273
 20
80.05845281272379
 30
0.0
 11
-85.21409390468273
 21
81.25845281272369
 31
0.0
  0
LINE
  5
25C
330
63
100
AcDbEntity
  8
0
  6
Continuous
 62
     2
100
AcDbLine
 10
-84.3640939046827
 20
81.88705197787745
 30
0.0
 11
-84.36409390468336
 21
82.76416709204568
 31
0.0
  0
LINE
  5
25D
330
63
100
AcDbEntity
  8
0
  6
Continuous
 62
     7
100
AcDbLine
 10
-104.7140939046832
 20
80.07007294154872
 30
0.0
 11
-105.2640939046842
 21
81.1502341799306
 31
0.0
  0
SPLINE
  5
25E
330
63
100
AcDbEntity
  8
0
  6
Continuous
 62
     7
100
AcDbSpline
210
0.0
220
0.0
230
1.0
 70
     8
 71
     3
 72
     9
 73
     5
 74
     3
 42
0.000000001
 43
0.0000000001
 44
0.00000001
 40
0.0
 40
0.0
 40
0.0
 40
0.0
 40
0.0098602145825469
 40
0.0235200101856565
 40
0.0235200101856565
 40
0.0235200101856565
 40
0.0235200101856565
 10
-100.8686035142722
 20
79.94001568644761
 30
0.0
 10
-100.8653356627366
 20
79.94084939894901
 30
0.0
 10
-100.8575407185862
 20
79.9428381086227
 30
0.0
 10
-100.8526491034095
 20
79.94934514005467
 30
0.0
 10
-100.8498081903972
 20
79.9531242596587
 30
0.0
 11
-100.8686035142722
 21
79.94001568644761
 31
0.0
 11
-100.859310223886
 21
79.94331093005651
 31
0.0
 11
-100.8498081903972
 21
79.9531242596587
 31
0.0
  0
SPLINE
  5
25F
330
63
100
AcDbEntity
  8
0
  6
Continuous
 62
     7
100
AcDbSpline
210
0.0
220
0.0
230
1.0
 70
     8
 71
     3
 72
     9
 73
     5
 74
     3
 42
0.000000001
 43
0.0000000001
 44
0.00000001
 40
0.0
 40
0.0
 40
0.0
 40
0.0
 40
0.0136597956031297
 40
0.0235200101856498
 40
0.0235200101856498
 40
0.0235200101856498
 40
0.0235200101856498
 10
-96.17837961896947
 20
79.95312425965865
 30
0.0
 10
-96.17553870595715
 20
79.94934514005462
 30
0.0
 10
-96.17064709078042
 20
79.94283810862265
 30
0.0
 10
-96.16285214663003
 20
79.94084939894897
 30
0.0
 10
-96.15958429509449
 20
79.94001568644755
 30
0.0
 11
-96.17837961896947
 21
79.95312425965865
 31
0.0
 11
-96.1688775854807
 21
79.94331093005646
 31
0.0
 11
-96.15958429509449
 21
79.94001568644755
 31
0.0
  0
SPLINE
  5
260
330
63
100
AcDbEntity
  8
0
  6
Continuous
 62
     7
100
AcDbSpline
210
0.0
220
0.0
230
1.0
 70
     8
 71
     3
 72
     9
 73
     5
 74
     3
 42
0.000000001
 43
0.0000000001
 44
0.00000001
 40
0.0
 40
0.0
 40
0.0
 40
0.0
 40
0.0136597956030994
 40
0.0235200101856511
 40
0.0235200101856511
 40
0.0235200101856511
 40
0.0235200101856511
 10
-104.3783796189685
 20
79.9531242596587
 30
0.0
 10
-104.3755387059562
 20
79.94934514005469
 30
0.0
 10
-104.3706470907794
 20
79.94283810862274
 30
0.0
 10
-104.3628521466291
 20
79.94084939894903
 30
0.0
 10
-104.3595842950935
 20
79.94001568644761
 30
0.0
 11
-104.3783796189685
 21
79.9531242596587
 31
0.0
 11
-104.3688775854797
 21
79.94331093005653
 31
0.0
 11
-104.3595842950935
 21
79.94001568644761
 31
0.0
  0
SPLINE
  5
261
330
63
100
AcDbEntity
  8
0
  6
Continuous
 62
     7
100
AcDbSpline
210
0.0
220
0.0
230
1.0
 70
     8
 71
     3
 72
    11
 73
     7
 74
     5
 42
0.000000001
 43
0.0000000001
 44
0.00000001
 40
0.0
 40
0.0
 40
0.0
 40
0.0
 40
0.0501460571364017
 40
0.0888305607127366
 40
0.1149795040761242
 40
0.1306545705195012
 40
0.1306545705195012
 40
0.1306545705195012
 40
0.1306545705195012
 10
-100.9101228495854
 20
80.05845281272383
 30
0.0
 10
-100.908344967553
 20
80.04170547981877
 30
0.0
 10
-100.9051955664795
 20
80.01203864349885
 30
0.0
 10
-100.8957065071348
 20
79.97583622631545
 30
0.0
 10
-100.8865796812281
 20
79.94826119007945
 30
0.0
 10
-100.8735040762612
 20
79.94226352399244
 30
0.0
 10
-100.8686035142722
 20
79.94001568644761
 30
0.0
 11
-100.9101228495854
 21
80.05845281272383
 31
0.0
 11
-100.9034566190343
 21
80.00875183025677
 31
0.0
 11
-100.8939601945945
 21
79.97125104766756
 31
0.0
 11
-100.882134533831
 21
79.94792892741765
 31
0.0
 11
-100.8686035142722
 21
79.94001568644761
 31
0.0
  0
SPLINE
  5
262
330
63
100
AcDbEntity
  8
0
  6
Continuous
 62
     7
100
AcDbSpline
210
0.0
220
0.0
230
1.0
 70
     8
 71
     3
 72
    11
 73
     7
 74
     5
 42
0.000000001
 43
0.0000000001
 44
0.00000001
 40
0.0
 40
0.0
 40
0.0
 40
0.0
 40
0.0156750664433034
 40
0.0418240098066781
 40
0.0805085133830098
 40
0.1306545705194198
 40
0.1306545705194198
 40
0.1306545705194198
 40
0.1306545705194198
 10
-104.3595842950935
 20
79.94001568644761
 30
0.0
 10
-104.3546837331046
 20
79.94226352399244
 30
0.0
 10
-104.3416081281376
 20
79.9482611900795
 30
0.0
 10
-104.332481302231
 20
79.97583622631544
 30
0.0
 10
-104.3229922428863
 20
80.0120386434989
 30
0.0
 10
-104.3198428418128
 20
80.04170547981872
 30
0.0
 10
-104.3180649597804
 20
80.05845281272383
 30
0.0
 11
-104.3595842950935
 21
79.94001568644761
 31
0.0
 11
-104.3460532755347
 21
79.94792892741765
 31
0.0
 11
-104.3342276147714
 21
79.97125104766756
 31
0.0
 11
-104.3247311903314
 21
80.00875183025676
 31
0.0
 11
-104.3180649597804
 21
80.05845281272383
 31
0.0
  0
SPLINE
  5
263
330
63
100
AcDbEntity
  8
0
  6
Continuous
 62
     7
100
AcDbSpline
210
0.0
220
0.0
230
1.0
 70
     8
 71
     3
 72
    11
 73
     7
 74
     5
 42
0.000000001
 43
0.0000000001
 44
0.00000001
 40
0.0
 40
0.0
 40
0.0
 40
0.0
 40
0.015675066443328
 40
0.0418240098067153
 40
0.0805085133830538
 40
0.1306545705194676
 40
0.1306545705194676
 40
0.1306545705194676
 40
0.1306545705194676
 10
-87.95958429509497
 20
79.94001568644755
 30
0.0
 10
-87.95468373310602
 20
79.9422635239924
 30
0.0
 10
-87.94160812813904
 20
79.94826119007939
 30
0.0
 10
-87.93248130223253
 20
79.97583622631542
 30
0.0
 10
-87.92299224288769
 20
80.01203864349884
 30
0.0
 10
-87.91984284181423
 20
80.0417054798187
 30
0.0
 10
-87.91806495978184
 20
80.0584528127238
 30
0.0
 11
-87.95958429509497
 21
79.94001568644755
 31
0.0
 11
-87.94605327553619
 21
79.94792892741759
 31
0.0
 11
-87.9342276147728
 21
79.97125104766752
 31
0.0
 11
-87.9247311903329
 21
80.00875183025673
 31
0.0
 11
-87.91806495978184
 21
80.0584528127238
 31
0.0
  0
SPLINE
  5
264
330
63
100
AcDbEntity
  8
0
  6
Continuous
 62
     7
100
AcDbSpline
210
0.0
220
0.0
230
1.0
 70
     8
 71
     3
 72
     9
 73
     5
 74
     3
 42
0.000000001
 43
0.0000000001
 44
0.00000001
 40
0.0
 40
0.0
 40
0.0
 40
0.0
 40
0.0136597956031099
 40
0.0235200101856435
 40
0.0235200101856435
 40
0.0235200101856435
 40
0.0235200101856435
 10
-87.97837961896994
 20
79.95312425965865
 30
0.0
 10
-87.97553870595765
 20
79.94934514005463
 30
0.0
 10
-87.9706470907809
 20
79.94283810862264
 30
0.0
 10
-87.96285214663052
 20
79.94084939894897
 30
0.0
 10
-87.95958429509497
 20
79.94001568644755
 30
0.0
 11
-87.97837961896994
 21
79.95312425965865
 31
0.0
 11
-87.9688775854812
 21
79.94331093005646
 31
0.0
 11
-87.95958429509497
 21
79.94001568644755
 31
0.0
  0
SPLINE
  5
265
330
63
100
AcDbEntity
  8
0
  6
Continuous
 62
     7
100
AcDbSpline
210
0.0
220
0.0
230
1.0
 70
     8
 71
     3
 72
     9
 73
     5
 74
     3
 42
0.000000001
 43
0.0000000001
 44
0.00000001
 40
0.0
 40
0.0
 40
0.0
 40
0.0
 40
0.0098602145825564
 40
0.0235200101856558
 40
0.0235200101856558
 40
0.0235200101856558
 40
0.0235200101856558
 10
-84.46860351427249
 20
79.94001568644755
 30
0.0
 10
-84.46533566273693
 20
79.94084939894897
 30
0.0
 10
-84.45754071858657
 20
79.94283810862271
 30
0.0
 10
-84.4526491034098
 20
79.94934514005463
 30
0.0
 10
-84.44980819039749
 20
79.95312425965865
 30
0.0
 11
-84.46860351427249
 21
79.94001568644755
 31
0.0
 11
-84.45931022388625
 21
79.94331093005648
 31
0.0
 11
-84.44980819039749
 21
79.95312425965865
 31
0.0
  0
SPLINE
  5
266
330
63
100
AcDbEntity
  8
0
  6
Continuous
 62
     7
100
AcDbSpline
210
0.0
220
0.0
230
1.0
 70
     8
 71
     3
 72
    11
 73
     7
 74
     5
 42
0.000000001
 43
0.0000000001
 44
0.00000001
 40
0.0
 40
0.0
 40
0.0
 40
0.0
 40
0.0501460571364139
 40
0.0888305607127593
 40
0.1149795040761531
 40
0.1306545705194933
 40
0.1306545705194933
 40
0.1306545705194933
 40
0.1306545705194933
 10
-84.51012284958567
 20
80.0584528127238
 30
0.0
 10
-84.5083449675533
 20
80.04170547981873
 30
0.0
 10
-84.50519556647983
 20
80.01203864349881
 30
0.0
 10
-84.49570650713495
 20
79.97583622631541
 30
0.0
 10
-84.48657968122842
 20
79.94826119007942
 30
0.0
 10
-84.47350407626146
 20
79.9422635239924
 30
0.0
 10
-84.46860351427249
 20
79.94001568644755
 30
0.0
 11
-84.51012284958567
 21
80.0584528127238
 31
0.0
 11
-84.50345661903461
 21
80.00875183025673
 31
0.0
 11
-84.49396019459469
 21
79.97125104766752
 31
0.0
 11
-84.48213453383129
 21
79.94792892741759
 31
0.0
 11
-84.46860351427249
 21
79.94001568644755
 31
0.0
  0
SPLINE
  5
267
330
63
100
AcDbEntity
  8
0
  6
Continuous
 62
     7
100
AcDbSpline
210
0.0
220
0.0
230
1.0
 70
     8
 71
     3
 72
    11
 73
     7
 74
     5
 42
0.000000001
 43
0.0000000001
 44
0.00000001
 40
0.0
 40
0.0
 40
0.0
 40
0.0
 40
0.050146057136412
 40
0.0888305607127436
 40
0.1149795040761439
 40
0.1306545705194718
 40
0.1306545705194718
 40
0.1306545705194718
 40
0.1306545705194718
 10
-92.7101228495858
 20
80.05845281272379
 30
0.0
 10
-92.70834496755344
 20
80.04170547981872
 30
0.0
 10
-92.70519556647993
 20
80.01203864349878
 30
0.0
 10
-92.69570650713517
 20
79.97583622631541
 30
0.0
 10
-92.68657968122852
 20
79.94826119007942
 30
0.0
 10
-92.67350407626161
 20
79.94226352399238
 30
0.0
 10
-92.66860351427263
 20
79.94001568644755
 30
0.0
 11
-92.7101228495858
 21
80.05845281272379
 31
0.0
 11
-92.70345661903475
 21
80.00875183025671
 31
0.0
 11
-92.69396019459484
 21
79.97125104766752
 31
0.0
 11
-92.68213453383142
 21
79.94792892741759
 31
0.0
 11
-92.66860351427263
 21
79.94001568644755
 31
0.0
  0
SPLINE
  5
268
330
63
100
AcDbEntity
  8
0
  6
Continuous
 62
     7
100
AcDbSpline
210
0.0
220
0.0
230
1.0
 70
     8
 71
     3
 72
     9
 73
     5
 74
     3
 42
0.000000001
 43
0.0000000001
 44
0.00000001
 40
0.0
 40
0.0
 40
0.0
 40
0.0
 40
0.009860214582543
 40
0.0235200101856622
 40
0.0235200101856622
 40
0.0235200101856622
 40
0.0235200101856622
 10
-92.66860351427263
 20
79.94001568644755
 30
0.0
 10
-92.66533566273708
 20
79.94084939894897
 30
0.0
 10
-92.65754071858672
 20
79.94283810862268
 30
0.0
 10
-92.65264910340993
 20
79.94934514005465
 30
0.0
 10
-92.64980819039762
 20
79.95312425965865
 30
0.0
 11
-92.66860351427263
 21
79.94001568644755
 31
0.0
 11
-92.65931022388641
 21
79.94331093005648
 31
0.0
 11
-92.64980819039762
 21
79.95312425965865
 31
0.0
  0
SPLINE
  5
269
330
63
100
AcDbEntity
  8
0
  6
Continuous
 62
     7
100
AcDbSpline
210
0.0
220
0.0
230
1.0
 70
     8
 71
     3
 72
    11
 73
     7
 74
     5
 42
0.000000001
 43
0.0000000001
 44
0.00000001
 40
0.0
 40
0.0
 40
0.0
 40
0.0
 40
0.015675066443328
 40
0.0418240098067218
 40
0.0805085133830602
 40
0.1306545705194581
 40
0.1306545705194581
 40
0.1306545705194581
 40
0.1306545705194581
 10
-96.15958429509449
 20
79.94001568644755
 30
0.0
 10
-96.15468373310554
 20
79.9422635239924
 30
0.0
 10
-96.14160812813856
 20
79.94826119007942
 30
0.0
 10
-96.13248130223204
 20
79.97583622631542
 30
0.0
 10
-96.1229922428872
 20
80.01203864349881
 30
0.0
 10
-96.11984284181376
 20
80.04170547981873
 30
0.0
 10
-96.11806495978136
 20
80.05845281272379
 30
0.0
 11
-96.15958429509449
 21
79.94001568644755
 31
0.0
 11
-96.1460532755357
 21
79.94792892741759
 31
0.0
 11
-96.1342276147723
 21
79.97125104766752
 31
0.0
 11
-96.12473119033241
 21
80.00875183025673
 31
0.0
 11
-96.11806495978136
 21
80.05845281272379
 31
0.0
  0
ENDBLK
  5
65
330
63
100
AcDbEntity
  8
0
100
AcDbBlockEnd
  0
BLOCK
  5
68
330
66
100
AcDbEntity
  8
0
100
AcDbBlockBegin
  2
Right1
 70
     0
 10
-94.41409400000023
 20
83.132523
 30
0.0
  3
Right1
  1

  0
INSERT
  5
67
330
66
100
AcDbEntity
  8
0
100
AcDbBlockReference
  2
EB_3-8-select__5
 10
-105.7140939046843
 20
79.94001568644755
 30
0.0
  0
MTEXT
  5
26A
330
66
100
AcDbEntity
  8
1
 62
     6
100
AcDbMText
 10
-94.41409448805007
 20
73.79999922872679
 30
0.0
 40
2.5
 41
0.0
 71
     2
 72
     1
  1
 
  7
CONVERTER_11
 73
     1
 44
1.32052821128451
  0
ENDBLK
  5
69
330
66
100
AcDbEntity
  8
0
100
AcDbBlockEnd
  0
BLOCK
  5
6B
330
6A
100
AcDbEntity
  8
0
100
AcDbBlockBegin
  2
EB_3-8-select__6
 70
     0
 10
-68.52705790732435
 20
38.70000009526603
 30
0.0
  3
EB_3-8-select__6
  1

  0
LINE
  5
26B
330
6A
100
AcDbEntity
  8
0
  6
Continuous
 62
     7
100
AcDbLine
 10
-68.51176457191141
 20
38.70000009526603
 30
0.0
 11
-68.52705790732435
 21
38.70000009526603
 31
0.0
  0
LINE
  5
26C
330
6A
100
AcDbEntity
  8
0
  6
Continuous
 62
     7
100
AcDbLine
 10
-67.75159813963232
 20
38.70000009526603
 30
0.0
 11
-68.51176457191141
 21
38.70000009526603
 31
0.0
  0
LINE
  5
26D
330
6A
100
AcDbEntity
  8
0
  6
Continuous
 62
     7
100
AcDbLine
 10
-56.48060126138159
 20
60.05000009526761
 30
0.0
 11
-56.48060126138159
 21
60.30000009526693
 31
0.0
  0
LINE
  5
26E
330
6A
100
AcDbEntity
  8
0
  6
Continuous
 62
     7
100
AcDbLine
 10
-59.14485533596498
 20
60.74661241169965
 30
0.0
 11
-59.14485533596498
 21
55.65338777883467
 31
0.0
  0
LINE
  5
26F
330
6A
100
AcDbEntity
  8
0
  6
Continuous
 62
     7
100
AcDbLine
 10
-67.31456137839231
 20
38.70000009526603
 30
0.0
 11
-61.91143950720114
 21
38.70000009526603
 31
0.0
  0
LINE
  5
270
330
6A
100
AcDbEntity
  8
0
  6
Continuous
 62
     7
100
AcDbLine
 10
-67.75159813963232
 20
38.70000009526603
 30
0.0
 11
-67.31456137839231
 21
38.70000009526603
 31
0.0
  0
LINE
  5
271
330
6A
100
AcDbEntity
  8
0
  6
Continuous
 62
     7
100
AcDbLine
 10
-46.48911964678017
 20
40.800000095266
 30
0.0
 11
-45.43159693027189
 21
40.80000009526606
 31
0.0
  0
LINE
  5
272
330
6A
100
AcDbEntity
  8
0
  6
Continuous
 62
     7
100
AcDbLine
 10
-45.43159693027172
 20
51.00000009526756
 30
0.0
 11
-46.48911964678001
 21
51.00000009526755
 31
0.0
  0
LINE
  5
273
330
6A
100
AcDbEntity
  8
0
  6
Continuous
 62
     7
100
AcDbLine
 10
-46.48911964677919
 20
57.20000009526751
 30
0.0
 11
-45.43159693027094
 21
57.20000009526757
 31
0.0
  0
LINE
  5
274
330
6A
100
AcDbEntity
  8
0
  6
Continuous
 62
     7
100
AcDbLine
 10
-46.48911964678001
 20
49.00000009526748
 30
0.0
 11
-45.43159693027174
 21
49.00000009526754
 31
0.0
  0
LINE
  5
275
330
6A
100
AcDbEntity
  8
0
  6
Continuous
 62
     7
100
AcDbLine
 10
-45.43159693027188
 20
42.80000009526609
 30
0.0
 11
-46.48911964678017
 21
42.80000009526607
 31
0.0
  0
LINE
  5
276
330
6A
100
AcDbEntity
  8
0
  6
Continuous
 62
     7
100
AcDbLine
 10
-47.52298044324618
 20
39.95000009526608
 30
0.0
 11
-54.42454603606153
 21
39.95000009526609
 31
0.0
  0
LINE
  5
277
330
6A
100
AcDbEntity
  8
0
  6
Continuous
 62
     7
100
AcDbLine
 10
-54.42454603606153
 20
43.65000009526611
 30
0.0
 11
-54.42454603606153
 21
39.95000009526609
 31
0.0
  0
LINE
  5
278
330
6A
100
AcDbEntity
  8
0
  6
Continuous
 62
     7
100
AcDbLine
 10
-47.52298044324604
 20
48.15000009526755
 30
0.0
 11
-54.42454603606137
 21
48.15000009526756
 31
0.0
  0
LINE
  5
279
330
6A
100
AcDbEntity
  8
0
  6
Continuous
 62
     7
100
AcDbLine
 10
-54.42454603606137
 20
51.85000009526758
 30
0.0
 11
-54.42454603606137
 21
48.15000009526756
 31
0.0
  0
LINE
  5
27A
330
6A
100
AcDbEntity
  8
0
  6
Continuous
 62
     7
100
AcDbLine
 10
-47.52298044324611
 20
51.85000009526758
 30
0.0
 11
-54.42454603606137
 21
51.85000009526758
 31
0.0
  0
LINE
  5
27B
330
6A
100
AcDbEntity
  8
0
  6
Continuous
 62
     7
100
AcDbLine
 10
-47.52298044324627
 20
43.65000009526611
 30
0.0
 11
-54.42454603606153
 21
43.65000009526611
 31
0.0
  0
LINE
  5
27C
330
6A
100
AcDbEntity
  8
0
  6
Continuous
 62
     7
100
AcDbLine
 10
-54.42454603606153
 20
43.65000009526611
 30
0.0
 11
-56.48060126138432
 21
43.65000009526611
 31
0.0
  0
LINE
  5
27D
330
6A
100
AcDbEntity
  8
0
  6
Continuous
 62
     7
100
AcDbLine
 10
-56.48060126138159
 20
60.05000009526761
 30
0.0
 11
-54.42454603606214
 21
60.05000009526761
 31
0.0
  0
LINE
  5
27E
330
6A
100
AcDbEntity
  8
0
  6
Continuous
 62
     7
100
AcDbLine
 10
-54.42454603606214
 20
56.35000009526759
 30
0.0
 11
-56.48060126138221
 21
56.3500000952676
 31
0.0
  0
LINE
  5
27F
330
6A
100
AcDbEntity
  8
0
  6
Continuous
 62
     7
100
AcDbLine
 10
-54.42454603606214
 20
60.05000009526761
 30
0.0
 11
-54.42454603606214
 21
56.35000009526759
 31
0.0
  0
LINE
  5
280
330
6A
100
AcDbEntity
  8
0
  6
Continuous
 62
     7
100
AcDbLine
 10
-61.91143950720114
 20
61.30000009526759
 30
0.0
 11
-61.91143950720114
 21
38.70000009526603
 31
0.0
  0
LINE
  5
281
330
6A
100
AcDbEntity
  8
0
  6
Continuous
 62
     7
100
AcDbLine
 10
-54.42454603606153
 20
39.95000009526609
 30
0.0
 11
-56.48060126138494
 21
39.95000009526609
 31
0.0
  0
LINE
  5
282
330
6A
100
AcDbEntity
  8
0
  6
Continuous
 62
     7
100
AcDbLine
 10
-45.43159693027093
 20
59.20000009526759
 30
0.0
 11
-46.48911964677919
 21
59.20000009526758
 31
0.0
  0
LINE
  5
283
330
6A
100
AcDbEntity
  8
0
  6
Continuous
 62
     7
100
AcDbLine
 10
-56.48060126138295
 20
51.85000009526758
 30
0.0
 11
-54.42454603606137
 21
51.85000009526758
 31
0.0
  0
LINE
  5
284
330
6A
100
AcDbEntity
  8
0
  6
Continuous
 62
     7
100
AcDbLine
 10
-54.42454603606214
 20
60.05000009526761
 30
0.0
 11
-47.52298044324529
 21
60.05000009526761
 31
0.0
  0
LINE
  5
285
330
6A
100
AcDbEntity
  8
0
  6
Continuous
 62
     7
100
AcDbLine
 10
-54.42454603606137
 20
48.15000009526756
 30
0.0
 11
-56.48060126138358
 21
48.15000009526756
 31
0.0
  0
LINE
  5
286
330
6A
100
AcDbEntity
  8
0
  6
Continuous
 62
     2
100
AcDbLine
 10
-68.51176457191141
 20
38.70000009526603
 30
0.0
 11
-68.51176457191141
 21
61.30000009526759
 31
0.0
  0
LINE
  5
287
330
6A
100
AcDbEntity
  8
0
  6
Continuous
 62
     2
100
AcDbLine
 10
-67.75159813963232
 20
61.30000009526759
 30
0.0
 11
-67.75159813963232
 21
38.70000009526603
 31
0.0
  0
LINE
  5
288
330
6A
100
AcDbEntity
  8
0
  6
Continuous
 62
     2
100
AcDbLine
 10
-67.31456137839231
 20
61.30000009526759
 30
0.0
 11
-67.31456137839231
 21
38.70000009526603
 31
0.0
  0
LINE
  5
289
330
6A
100
AcDbEntity
  8
0
  6
Continuous
 62
     7
100
AcDbLine
 10
-61.91143950720114
 20
61.30000009526759
 30
0.0
 11
-67.31456137839231
 21
61.30000009526759
 31
0.0
  0
LINE
  5
28A
330
6A
100
AcDbEntity
  8
0
  6
Continuous
 62
     7
100
AcDbLine
 10
-59.80898928301125
 20
60.85000009526755
 30
0.0
 11
-61.91143950720114
 21
60.85000009526754
 31
0.0
  0
LINE
  5
28B
330
6A
100
AcDbEntity
  8
0
  6
Continuous
 62
     7
100
AcDbLine
 10
-59.14485533596513
 20
39.28524783266771
 30
0.0
 11
-56.48060126138498
 21
39.70000009526709
 31
0.0
  0
LINE
  5
28C
330
6A
100
AcDbEntity
  8
0
  6
Continuous
 62
     7
100
AcDbLine
 10
-56.48060126138498
 20
39.70000009526709
 30
0.0
 11
-56.48060126138494
 21
39.95000009526609
 31
0.0
  0
LINE
  5
28D
330
6A
100
AcDbEntity
  8
0
  6
Continuous
 62
     7
100
AcDbLine
 10
-59.80898928302571
 20
39.15000009526607
 30
0.0
 11
-59.14485533596513
 21
39.25338777883594
 31
0.0
  0
LINE
  5
28E
330
6A
100
AcDbEntity
  8
0
  6
Continuous
 62
     2
100
AcDbLine
 10
-56.48060126138494
 20
39.95000009526609
 30
0.0
 11
-59.14485533596513
 21
39.95000009526609
 31
0.0
  0
LINE
  5
28F
330
6A
100
AcDbEntity
  8
0
  6
Continuous
 62
     7
100
AcDbLine
 10
-56.48060126138432
 20
43.65000009526611
 30
0.0
 11
-56.48060126138432
 21
43.90000009526781
 31
0.0
  0
LINE
  5
290
330
6A
100
AcDbEntity
  8
0
  6
Continuous
 62
     2
100
AcDbLine
 10
-56.48060126138432
 20
43.65000009526611
 30
0.0
 11
-59.14485533596513
 21
43.65000009526783
 31
0.0
  0
LINE
  5
291
330
6A
100
AcDbEntity
  8
0
  6
Continuous
 62
     7
100
AcDbLine
 10
-59.14485533596513
 20
39.25338777883594
 30
0.0
 11
-59.14485533596513
 21
44.34661241170013
 31
0.0
  0
LINE
  5
292
330
6A
100
AcDbEntity
  8
0
  6
Continuous
 62
     7
100
AcDbLine
 10
-59.80898928302571
 20
39.15000009526607
 30
0.0
 11
-61.91143950720114
 21
39.15000009526607
 31
0.0
  0
LINE
  5
293
330
6A
100
AcDbEntity
  8
0
  6
Continuous
 62
     7
100
AcDbLine
 10
-59.14485533596498
 20
52.54661241169962
 30
0.0
 11
-59.80898928301117
 21
52.6500000952675
 31
0.0
  0
LINE
  5
294
330
6A
100
AcDbEntity
  8
0
  6
Continuous
 62
     7
100
AcDbLine
 10
-59.80898928301049
 20
47.35000009526755
 30
0.0
 11
-59.14485533596498
 21
47.45338777883506
 31
0.0
  0
LINE
  5
295
330
6A
100
AcDbEntity
  8
0
  6
Continuous
 62
     7
100
AcDbLine
 10
-59.80898928301049
 20
47.35000009526755
 30
0.0
 11
-61.91143950720114
 21
47.35000009526755
 31
0.0
  0
LINE
  5
296
330
6A
100
AcDbEntity
  8
0
  6
Continuous
 62
     7
100
AcDbLine
 10
-59.80898928301117
 20
52.6500000952675
 30
0.0
 11
-61.91143950720114
 21
52.6500000952675
 31
0.0
  0
LINE
  5
297
330
6A
100
AcDbEntity
  8
0
  6
Continuous
 62
     7
100
AcDbLine
 10
-59.80898928299861
 20
44.45000009526603
 30
0.0
 11
-61.91143950720114
 21
44.45000009526603
 31
0.0
  0
LINE
  5
298
330
6A
100
AcDbEntity
  8
0
  6
Continuous
 62
     7
100
AcDbLine
 10
-56.48060126138295
 20
51.85000009526758
 30
0.0
 11
-56.48060126138295
 21
52.10000009526711
 31
0.0
  0
LINE
  5
299
330
6A
100
AcDbEntity
  8
0
  6
Continuous
 62
     7
100
AcDbLine
 10
-56.48060126138221
 20
56.10000009526623
 30
0.0
 11
-56.48060126138221
 21
56.3500000952676
 31
0.0
  0
LINE
  5
29A
330
6A
100
AcDbEntity
  8
0
  6
Continuous
 62
     7
100
AcDbLine
 10
-56.48060126138358
 20
47.90000009526641
 30
0.0
 11
-56.48060126138358
 21
48.15000009526756
 31
0.0
  0
LINE
  5
29B
330
6A
100
AcDbEntity
  8
0
  6
Continuous
 62
     2
100
AcDbLine
 10
-56.48060126138358
 20
48.15000009526756
 30
0.0
 11
-59.14485533596498
 21
48.15000009526639
 31
0.0
  0
LINE
  5
29C
330
6A
100
AcDbEntity
  8
0
  6
Continuous
 62
     7
100
AcDbLine
 10
-59.14485533596498
 20
47.45338777883506
 30
0.0
 11
-59.14485533596498
 21
52.54661241169962
 31
0.0
  0
LINE
  5
29D
330
6A
100
AcDbEntity
  8
0
  6
Continuous
 62
     2
100
AcDbLine
 10
-56.48060126138295
 20
51.85000009526758
 30
0.0
 11
-59.14485533596498
 21
51.85000009526714
 31
0.0
  0
LINE
  5
29E
330
6A
100
AcDbEntity
  8
0
  6
Continuous
 62
     2
100
AcDbLine
 10
-56.48060126138221
 20
56.3500000952676
 30
0.0
 11
-59.14485533596498
 21
56.35000009526621
 31
0.0
  0
LINE
  5
29F
330
6A
100
AcDbEntity
  8
0
  6
Continuous
 62
     2
100
AcDbLine
 10
-56.48060126138159
 20
60.05000009526761
 30
0.0
 11
-59.14485533596498
 21
60.05000009526696
 31
0.0
  0
LINE
  5
2A0
330
6A
100
AcDbEntity
  8
0
  6
Continuous
 62
     7
100
AcDbLine
 10
-59.14485533596513
 20
44.34661241170013
 30
0.0
 11
-59.80898928299861
 21
44.45000009526603
 31
0.0
  0
LINE
  5
2A1
330
6A
100
AcDbEntity
  8
0
  6
Continuous
 62
     7
100
AcDbLine
 10
-59.14485533596498
 20
47.48524783266684
 30
0.0
 11
-56.48060126138358
 21
47.90000009526641
 31
0.0
  0
LINE
  5
2A2
330
6A
100
AcDbEntity
  8
0
  6
Continuous
 62
     7
100
AcDbLine
 10
-59.14485533596498
 20
55.68524783266645
 30
0.0
 11
-56.48060126138221
 21
56.10000009526623
 31
0.0
  0
LINE
  5
2A3
330
6A
100
AcDbEntity
  8
0
  6
Continuous
 62
     7
100
AcDbLine
 10
-56.48060126138432
 20
43.90000009526781
 30
0.0
 11
-59.14485533596513
 21
44.31475235786828
 31
0.0
  0
LINE
  5
2A4
330
6A
100
AcDbEntity
  8
0
  6
Continuous
 62
     7
100
AcDbLine
 10
-56.48060126138295
 20
52.10000009526711
 30
0.0
 11
-59.14485533596498
 21
52.51475235786777
 31
0.0
  0
LINE
  5
2A5
330
6A
100
AcDbEntity
  8
0
  6
Continuous
 62
     7
100
AcDbLine
 10
-68.52705790732435
 20
61.30000009526759
 30
0.0
 11
-68.52705790732435
 21
38.70000009526603
 31
0.0
  0
LINE
  5
2A6
330
6A
100
AcDbEntity
  8
0
  6
Continuous
 62
     7
100
AcDbLine
 10
-47.52298044324521
 20
56.35000009526758
 30
0.0
 11
-54.42454603606214
 21
56.35000009526759
 31
0.0
  0
LINE
  5
2A7
330
6A
100
AcDbEntity
  8
0
  6
Continuous
 62
     7
100
AcDbLine
 10
-61.91143950720114
 20
55.55000009526759
 30
0.0
 11
-59.80898928300766
 21
55.55000009526759
 31
0.0
  0
LINE
  5
2A8
330
6A
100
AcDbEntity
  8
0
  6
Continuous
 62
     7
100
AcDbLine
 10
-59.14485533596498
 20
55.65338777883467
 30
0.0
 11
-59.80898928300766
 21
55.55000009526759
 31
0.0
  0
LINE
  5
2A9
330
6A
100
AcDbEntity
  8
0
  6
Continuous
 62
     7
100
AcDbLine
 10
-68.51176457191141
 20
61.30000009526759
 30
0.0
 11
-68.52705790732435
 21
61.30000009526759
 31
0.0
  0
LINE
  5
2AA
330
6A
100
AcDbEntity
  8
0
  6
Continuous
 62
     7
100
AcDbLine
 10
-59.80898928301125
 20
60.85000009526755
 30
0.0
 11
-59.14485533596498
 21
60.74661241169965
 31
0.0
  0
LINE
  5
2AB
330
6A
100
AcDbEntity
  8
0
  6
Continuous
 62
     7
100
AcDbLine
 10
-56.48060126138159
 20
60.30000009526693
 30
0.0
 11
-59.14485533596498
 21
60.7147523578678
 31
0.0
  0
LINE
  5
2AC
330
6A
100
AcDbEntity
  8
0
  6
Continuous
 62
     7
100
AcDbLine
 10
-68.51176457191141
 20
61.30000009526759
 30
0.0
 11
-67.75159813963232
 21
61.30000009526759
 31
0.0
  0
LINE
  5
2AD
330
6A
100
AcDbEntity
  8
0
  6
Continuous
 62
     7
100
AcDbLine
 10
-67.75159813963232
 20
61.30000009526759
 30
0.0
 11
-67.31456137839231
 21
61.30000009526759
 31
0.0
  0
SPLINE
  5
2AE
330
6A
100
AcDbEntity
  8
0
  6
Continuous
 62
     7
100
AcDbSpline
210
0.0
220
0.0
230
1.0
 70
     8
 71
     3
 72
    13
 73
     9
 74
     7
 42
0.000000001
 43
0.0000000001
 44
0.00000001
 40
0.0
 40
0.0
 40
0.0
 40
0.0
 40
0.2467954704887189
 40
0.4924592540862063
 40
0.7360955666244144
 40
0.9772389009089901
 40
1.215966509720376
 40
1.452896779435991
 40
1.452896779435991
 40
1.452896779435991
 40
1.452896779435991
 10
-46.48911964678017
 20
40.800000095266
 30
0.0
 10
-46.57156524600131
 20
40.79460356770407
 30
0.0
 10
-46.73607838639421
 20
40.78383524408168
 30
0.0
 10
-46.96935478764263
 20
40.6981387734806
 30
0.0
 10
-47.17642637945765
 20
40.56641251614691
 30
0.0
 10
-47.34427074850795
 20
40.39058418983709
 30
0.0
 10
-47.46874454733083
 20
40.18249615341238
 30
0.0
 10
-47.5049474150635
 20
40.02730331011166
 30
0.0
 10
-47.52298044324618
 20
39.95000009526608
 30
0.0
 11
-46.48911964678017
 21
40.800000095266
 31
0.0
 11
-46.73433481728289
 21
40.77211596043441
 31
0.0
 11
-46.96587490088265
 21
40.69001915634324
 31
0.0
 11
-47.17082716890831
 21
40.55828752924856
 31
0.0
 11
-47.33776217402004
 21
40.38426795342766
 31
0.0
 11
-47.45736985382501
 21
40.17766477013727
 31
0.0
 11
-47.52298044324618
 21
39.95000009526608
 31
0.0
  0
SPLINE
  5
2AF
330
6A
100
AcDbEntity
  8
0
  6
Continuous
 62
     7
100
AcDbSpline
210
0.0
220
0.0
230
1.0
 70
     8
 71
     3
 72
    13
 73
     9
 74
     7
 42
0.000000001
 43
0.0000000001
 44
0.00000001
 40
0.0
 40
0.0
 40
0.0
 40
0.0
 40
0.246795470488711
 40
0.4924592540862185
 40
0.7360955666244245
 40
0.9772389009090054
 40
1.215966509720395
 40
1.452896779436008
 40
1.452896779436008
 40
1.452896779436008
 40
1.452896779436008
 10
-46.48911964677919
 20
57.20000009526751
 30
0.0
 10
-46.57156524600032
 20
57.19460356770561
 30
0.0
 10
-46.73607838639323
 20
57.18383524408318
 30
0.0
 10
-46.96935478764167
 20
57.09813877348212
 30
0.0
 10
-47.17642637945666
 20
56.96641251614842
 30
0.0
 10
-47.34427074850697
 20
56.79058418983859
 30
0.0
 10
-47.46874454732989
 20
56.5824961534139
 30
0.0
 10
-47.50494741506254
 20
56.42730331011317
 30
0.0
 10
-47.52298044324521
 20
56.35000009526758
 30
0.0
 11
-46.48911964677919
 21
57.20000009526751
 31
0.0
 11
-46.7343348172819
 21
57.17211596043592
 31
0.0
 11
-46.96587490088169
 21
57.09001915634476
 31
0.0
 11
-47.17082716890734
 21
56.95828752925007
 31
0.0
 11
-47.33776217401907
 21
56.78426795342916
 31
0.0
 11
-47.45736985382405
 21
56.57766477013877
 31
0.0
 11
-47.52298044324521
 21
56.35000009526758
 31
0.0
  0
SPLINE
  5
2B0
330
6A
100
AcDbEntity
  8
0
  6
Continuous
 62
     7
100
AcDbSpline
210
0.0
220
0.0
230
1.0
 70
     8
 71
     3
 72
    13
 73
     9
 74
     7
 42
0.000000001
 43
0.0000000001
 44
0.00000001
 40
0.0
 40
0.0
 40
0.0
 40
0.0
 40
0.2369302697156384
 40
0.4756578785270564
 40
0.7168012128116573
 40
0.9604375253498929
 40
1.206101308947414
 40
1.452896779436154
 40
1.452896779436154
 40
1.452896779436154
 40
1.452896779436154
 10
-47.52298044324611
 20
51.85000009526758
 30
0.0
 10
-47.50494741506344
 20
51.77269688042198
 30
0.0
 10
-47.46874454733079
 20
51.61750403712126
 30
0.0
 10
-47.34427074850788
 20
51.4094160006965
 30
0.0
 10
-47.17642637945754
 20
51.23358767438668
 30
0.0
 10
-46.96935478764254
 20
51.10186141705293
 30
0.0
 10
-46.73607838639407
 20
51.01616494645188
 30
0.0
 10
-46.57156524600116
 20
51.00539662282947
 30
0.0
 10
-46.48911964678001
 20
51.00000009526755
 30
0.0
 11
-47.52298044324611
 21
51.85000009526758
 31
0.0
 11
-47.45736985382496
 21
51.62233542039636
 31
0.0
 11
-47.33776217401997
 21
51.41573223710594
 31
0.0
 11
-47.17082716890823
 21
51.24171266128502
 31
0.0
 11
-46.96587490088255
 21
51.10998103419031
 31
0.0
 11
-46.73433481728275
 21
51.02788423009915
 31
0.0
 11
-46.48911964678001
 21
51.00000009526755
 31
0.0
  0
SPLINE
  5
2B1
330
6A
100
AcDbEntity
  8
0
  6
Continuous
 62
     7
100
AcDbSpline
210
0.0
220
0.0
230
1.0
 70
     8
 71
     3
 72
    13
 73
     9
 74
     7
 42
0.000000001
 43
0.0000000001
 44
0.00000001
 40
0.0
 40
0.0
 40
0.0
 40
0.0
 40
0.2369302697156384
 40
0.4756578785270502
 40
0.7168012128116561
 40
0.9604375253498857
 40
1.206101308947411
 40
1.452896779436151
 40
1.452896779436151
 40
1.452896779436151
 40
1.452896779436151
 10
-47.52298044324627
 20
43.65000009526611
 30
0.0
 10
-47.5049474150636
 20
43.57269688042052
 30
0.0
 10
-47.46874454733094
 20
43.41750403711976
 30
0.0
 10
-47.34427074850805
 20
43.20941600069506
 30
0.0
 10
-47.17642637945769
 20
43.03358767438522
 30
0.0
 10
-46.96935478764269
 20
42.90186141705146
 30
0.0
 10
-46.73607838639423
 20
42.8161649464504
 30
0.0
 10
-46.57156524600132
 20
42.80539662282798
 30
0.0
 10
-46.48911964678017
 20
42.80000009526607
 30
0.0
 11
-47.52298044324627
 21
43.65000009526611
 31
0.0
 11
-47.45736985382511
 21
43.42233542039489
 31
0.0
 11
-47.33776217402013
 21
43.21573223710448
 31
0.0
 11
-47.17082716890837
 21
43.04171266128355
 31
0.0
 11
-46.96587490088271
 21
42.90998103418885
 31
0.0
 11
-46.73433481728291
 21
42.82788423009767
 31
0.0
 11
-46.48911964678017
 21
42.80000009526607
 31
0.0
  0
SPLINE
  5
2B2
330
6A
100
AcDbEntity
  8
0
  6
Continuous
 62
     7
100
AcDbSpline
210
0.0
220
0.0
230
1.0
 70
     8
 71
     3
 72
    13
 73
     9
 74
     7
 42
0.000000001
 43
0.0000000001
 44
0.00000001
 40
0.0
 40
0.0
 40
0.0
 40
0.0
 40
0.2369302697156384
 40
0.4756578785270564
 40
0.7168012128116623
 40
0.9604375253498919
 40
1.20610130894742
 40
1.452896779436152
 40
1.452896779436152
 40
1.452896779436152
 40
1.452896779436152
 10
-47.52298044324529
 20
60.05000009526761
 30
0.0
 10
-47.50494741506262
 20
59.97269688042201
 30
0.0
 10
-47.46874454732995
 20
59.81750403712127
 30
0.0
 10
-47.34427074850707
 20
59.60941600069654
 30
0.0
 10
-47.17642637945671
 20
59.43358767438671
 30
0.0
 10
-46.96935478764172
 20
59.30186141705297
 30
0.0
 10
-46.73607838639325
 20
59.21616494645191
 30
0.0
 10
-46.57156524600034
 20
59.2053966228295
 30
0.0
 10
-46.48911964677919
 20
59.20000009526758
 30
0.0
 11
-47.52298044324529
 21
60.05000009526761
 31
0.0
 11
-47.45736985382413
 21
59.82233542039639
 31
0.0
 11
-47.33776217401915
 21
59.61573223710597
 31
0.0
 11
-47.17082716890739
 21
59.44171266128505
 31
0.0
 11
-46.96587490088173
 21
59.30998103419034
 31
0.0
 11
-46.73433481728192
 21
59.22788423009918
 31
0.0
 11
-46.48911964677919
 21
59.20000009526758
 31
0.0
  0
SPLINE
  5
2B3
330
6A
100
AcDbEntity
  8
0
  6
Continuous
 62
     7
100
AcDbSpline
210
0.0
220
0.0
230
1.0
 70
     8
 71
     3
 72
    13
 73
     9
 74
     7
 42
0.000000001
 43
0.0000000001
 44
0.00000001
 40
0.0
 40
0.0
 40
0.0
 40
0.0
 40
0.2467954704887047
 40
0.4924592540862142
 40
0.7360955666244181
 40
0.977238900908999
 40
1.215966509720386
 40
1.452896779436008
 40
1.452896779436008
 40
1.452896779436008
 40
1.452896779436008
 10
-46.48911964678001
 20
49.00000009526748
 30
0.0
 10
-46.57156524600115
 20
48.99460356770557
 30
0.0
 10
-46.73607838639404
 20
48.98383524408314
 30
0.0
 10
-46.96935478764249
 20
48.89813877348211
 30
0.0
 10
-47.17642637945748
 20
48.76641251614839
 30
0.0
 10
-47.3442707485078
 20
48.59058418983855
 30
0.0
 10
-47.46874454733072
 20
48.38249615341387
 30
0.0
 10
-47.50494741506337
 20
48.22730331011313
 30
0.0
 10
-47.52298044324604
 20
48.15000009526755
 30
0.0
 11
-46.48911964678001
 21
49.00000009526748
 31
0.0
 11
-46.73433481728271
 21
48.97211596043589
 31
0.0
 11
-46.96587490088251
 21
48.89001915634474
 31
0.0
 11
-47.17082716890815
 21
48.75828752925004
 31
0.0
 11
-47.33776217401989
 21
48.58426795342913
 31
0.0
 11
-47.45736985382487
 21
48.37766477013875
 31
0.0
 11
-47.52298044324604
 21
48.15000009526755
 31
0.0
  0
SPLINE
  5
2B4
330
6A
100
AcDbEntity
  8
0
  6
Continuous
 62
     7
100
AcDbSpline
210
0.0
220
0.0
230
1.0
 70
     8
 71
     3
 72
    17
 73
    13
 74
    11
 42
0.000000001
 43
0.0000000001
 44
0.00000001
 40
0.0
 40
0.0
 40
0.0
 40
0.0
 40
0.3268219416693096
 40
0.6510914500598124
 40
0.9711877953332939
 40
1.287055978562102
 40
1.600282395604793
 40
1.913508812647484
 40
2.229376995876304
 40
2.549473341149791
 40
2.873742849540291
 40
3.200564791209592
 40
3.200564791209592
 40
3.200564791209592
 40
3.200564791209592
 10
-45.43159693027094
 20
57.20000009526757
 30
0.0
 10
-45.32224482949172
 20
57.20951528697702
 30
0.0
 10
-45.10439465442302
 20
57.22847137042537
 30
0.0
 10
-44.80856942790186
 20
57.37750721590749
 30
0.0
 10
-44.57290263573186
 20
57.60039043493268
 30
0.0
 10
-44.42095572076165
 20
57.88459456097485
 30
0.0
 10
-44.36845475687035
 20
58.20000009526755
 30
0.0
 10
-44.42095572076168
 20
58.51540562956031
 30
0.0
 10
-44.57290263573186
 20
58.79960975560248
 30
0.0
 10
-44.80856942790185
 20
59.02249297462765
 30
0.0
 10
-45.10439465442299
 20
59.17152882010983
 30
0.0
 10
-45.32224482949169
 20
59.19048490355811
 30
0.0
 10
-45.43159693027093
 20
59.20000009526759
 30
0.0
 11
-45.43159693027094
 21
57.20000009526757
 31
0.0
 11
-45.1084606639894
 21
57.24894433640816
 31
0.0
 11
-44.81695473736397
 21
57.39098310089263
 31
0.0
 11
-44.58561520214817
 21
57.61221531109612
 31
0.0
 11
-44.4370849712277
 21
57.89098310089261
 31
0.0
 11
-44.38590600658844
 21
58.20000009526757
 31
0.0
 11
-44.4370849712277
 21
58.50901708964253
 31
0.0
 11
-44.58561520214817
 21
58.78778487943903
 31
0.0
 11
-44.81695473736397
 21
59.00901708964253
 31
0.0
 11
-45.1084606639894
 21
59.15105585412701
 31
0.0
 11
-45.43159693027093
 21
59.20000009526759
 31
0.0
  0
SPLINE
  5
2B5
330
6A
100
AcDbEntity
  8
0
  6
Continuous
 62
     7
100
AcDbSpline
210
0.0
220
0.0
230
1.0
 70
     8
 71
     3
 72
    17
 73
    13
 74
    11
 42
0.000000001
 43
0.0000000001
 44
0.00000001
 40
0.0
 40
0.0
 40
0.0
 40
0.0
 40
0.3268219416693086
 40
0.651091450059808
 40
0.9711877953332944
 40
1.287055978562112
 40
1.600282395604796
 40
1.91350881264748
 40
2.229376995876301
 40
2.549473341149792
 40
2.873742849540298
 40
3.200564791209592
 40
3.200564791209592
 40
3.200564791209592
 40
3.200564791209592
 10
-45.43159693027174
 20
49.00000009526754
 30
0.0
 10
-45.32224482949251
 20
49.009515286977
 30
0.0
 10
-45.10439465442379
 20
49.02847137042529
 30
0.0
 10
-44.80856942790266
 20
49.17750721590747
 30
0.0
 10
-44.57290263573266
 20
49.40039043493265
 30
0.0
 10
-44.42095572076246
 20
49.68459456097482
 30
0.0
 10
-44.36845475687115
 20
50.00000009526755
 30
0.0
 10
-44.42095572076247
 20
50.31540562956026
 30
0.0
 10
-44.57290263573265
 20
50.59960975560244
 30
0.0
 10
-44.80856942790266
 20
50.82249297462764
 30
0.0
 10
-45.1043946544238
 20
50.9715288201098
 30
0.0
 10
-45.32224482949248
 20
50.99048490355809
 30
0.0
 10
-45.43159693027172
 20
51.00000009526756
 30
0.0
 11
-45.43159693027174
 21
49.00000009526754
 31
0.0
 11
-45.1084606639902
 21
49.04894433640812
 31
0.0
 11
-44.81695473736477
 21
49.19098310089259
 31
0.0
 11
-44.58561520214897
 21
49.4122153110961
 31
0.0
 11
-44.4370849712285
 21
49.69098310089259
 31
0.0
 11
-44.38590600658924
 21
50.00000009526754
 31
0.0
 11
-44.4370849712285
 21
50.3090170896425
 31
0.0
 11
-44.58561520214896
 21
50.587784879439
 31
0.0
 11
-44.81695473736477
 21
50.80901708964251
 31
0.0
 11
-45.1084606639902
 21
50.95105585412698
 31
0.0
 11
-45.43159693027172
 21
51.00000009526756
 31
0.0
  0
SPLINE
  5
2B6
330
6A
100
AcDbEntity
  8
0
  6
Continuous
 62
     7
100
AcDbSpline
210
0.0
220
0.0
230
1.0
 70
     8
 71
     3
 72
    17
 73
    13
 74
    11
 42
0.000000001
 43
0.0000000001
 44
0.00000001
 40
0.0
 40
0.0
 40
0.0
 40
0.0
 40
0.3268219416692945
 40
0.6510914500598066
 40
0.9711877953332982
 40
1.287055978562109
 40
1.6002823956048
 40
1.913508812647489
 40
2.229376995876306
 40
2.549473341149798
 40
2.873742849540313
 40
3.200564791209608
 40
3.200564791209608
 40
3.200564791209608
 40
3.200564791209608
 10
-45.43159693027189
 20
40.80000009526606
 30
0.0
 10
-45.32224482949265
 20
40.8095152869755
 30
0.0
 10
-45.10439465442396
 20
40.82847137042384
 30
0.0
 10
-44.80856942790281
 20
40.97750721590597
 30
0.0
 10
-44.5729026357328
 20
41.20039043493117
 30
0.0
 10
-44.42095572076263
 20
41.48459456097336
 30
0.0
 10
-44.36845475687131
 20
41.80000009526607
 30
0.0
 10
-44.42095572076259
 20
42.11540562955879
 30
0.0
 10
-44.5729026357328
 20
42.39960975560101
 30
0.0
 10
-44.8085694279028
 20
42.62249297462615
 30
0.0
 10
-45.10439465442395
 20
42.77152882010832
 30
0.0
 10
-45.32224482949265
 20
42.79048490355663
 30
0.0
 10
-45.43159693027188
 20
42.80000009526609
 30
0.0
 11
-45.43159693027189
 21
40.80000009526606
 31
0.0
 11
-45.10846066399036
 21
40.84894433640664
 31
0.0
 11
-44.81695473736492
 21
40.99098310089111
 31
0.0
 11
-44.58561520214911
 21
41.21221531109462
 31
0.0
 11
-44.43708497122866
 21
41.49098310089111
 31
0.0
 11
-44.38590600658939
 21
41.80000009526607
 31
0.0
 11
-44.43708497122864
 21
42.10901708964103
 31
0.0
 11
-44.5856152021491
 21
42.38778487943753
 31
0.0
 11
-44.81695473736492
 21
42.60901708964103
 31
0.0
 11
-45.10846066399036
 21
42.75105585412551
 31
0.0
 11
-45.43159693027188
 21
42.80000009526609
 31
0.0
  0
ENDBLK
  5
6C
330
6A
100
AcDbEntity
  8
0
100
AcDbBlockEnd
  0
BLOCK
  5
6F
330
6D
100
AcDbEntity
  8
0
100
AcDbBlockBegin
  2
Top1
 70
     0
 10
-56.50000000007998
 20
49.99999999995009
 30
0.0
  3
Top1
  1

  0
INSERT
  5
6E
330
6D
100
AcDbEntity
  8
0
100
AcDbBlockReference
  2
EB_3-8-select__6
 10
-68.52705790732435
 20
38.70000009526603
 30
0.0
  0
MTEXT
  5
2B7
330
6D
100
AcDbEntity
  8
1
 62
     6
100
AcDbMText
 10
-56.50000000007998
 20
36.20000028605227
 30
0.0
 40
2.5
 41
0.0
 71
     2
 72
     1
  1
 
  7
CONVERTER_11
 73
     1
 44
1.32052821128451
  0
DIMENSION
  5
2C2
330
6D
100
AcDbEntity
  8
1
100
AcDbDimension
  2
*D19
 10
-74.82504639669796
 20
38.70000009526603
 30
0.0
 11
-76.53754639669796
 21
50.82767048000011
 31
0.0
 70
    32
  1
<>
 71
     5
 42
-1.0
 53
90.0
  3
ME10_DIM_10
100
AcDbAlignedDimension
 13
-61.91143950720114
 23
61.30000009526759
 33
0.0
 14
-67.31456137839231
 24
38.70000009526603
 34
0.0
 50
90.0
100
AcDbRotatedDimension
  0
ENDBLK
  5
70
330
6D
100
AcDbEntity
  8
0
100
AcDbBlockEnd
  0
BLOCK
  5
72
330
71
100
AcDbEntity
  8
0
100
AcDbBlockBegin
  2
_rahmen
 70
     0
 10
64.13590312517867
 20
14.30917989210593
 30
0.0
  3
_rahmen
  1

  0
LINE
  5
2C3
330
71
100
AcDbEntity
  8
1
  6
DOT_CENTER
 62
     2
100
AcDbLine
 10
-61.42224651500874
 20
40.43417989210596
 30
0.0
 11
-55.92224651500874
 21
40.43417989210596
 31
0.0
  0
LINE
  5
2C4
330
71
100
AcDbEntity
  8
1
  6
PHANTOM
 62
     2
100
AcDbLine
 10
-52.67224651500874
 20
43.18417989210596
 30
0.0
 11
-52.67224651500874
 21
37.68417989210596
 31
0.0
  0
LINE
  5
2C5
330
71
100
AcDbEntity
  8
1
  6
PHANTOM
 62
     2
100
AcDbLine
 10
-49.92224651500874
 20
40.43417989210596
 30
0.0
 11
-55.42224651500874
 21
40.43417989210596
 31
0.0
  0
LINE
  5
2C6
330
71
100
AcDbEntity
  8
1
  6
Continuous
 62
     7
100
AcDbLine
 10
-1.10890140157133
 20
27.80917989210596
 30
0.0
 11
-1.10890140157133
 21
36.30917989210604
 31
0.0
  0
LINE
  5
2C7
330
71
100
AcDbEntity
  8
1
  6
Continuous
 62
     6
100
AcDbLine
 10
-29.00890140157142
 20
36.30917989210604
 30
0.0
 11
64.13590312518036
 21
36.30917989210604
 31
0.0
  0
LINE
  5
2C8
330
71
100
AcDbEntity
  8
1
  6
Continuous
 62
     7
100
AcDbLine
 10
-65.40890140157134
 20
36.30917989210604
 30
0.0
 11
-65.40890140157134
 21
44.80917989210604
 31
0.0
  0
LINE
  5
2C9
330
71
100
AcDbEntity
  8
1
  6
Continuous
 62
     7
100
AcDbLine
 10
-29.00890140157142
 20
36.30917989210604
 30
0.0
 11
-29.00890140157142
 21
44.80917989210604
 31
0.0
  0
LINE
  5
2CA
330
71
100
AcDbEntity
  8
1
  6
Continuous
 62
     7
100
AcDbLine
 10
28.71749484350156
 20
44.80917989210604
 30
0.0
 11
28.71749484350156
 21
36.30917989210604
 31
0.0
  0
LINE
  5
2CB
330
71
100
AcDbEntity
  8
1
  6
Continuous
 62
     7
100
AcDbLine
 10
55.21749484350116
 20
44.80917989210604
 30
0.0
 11
55.21749484350116
 21
36.30917989210604
 31
0.0
  0
LINE
  5
2CC
330
71
100
AcDbEntity
  8
1
  6
Continuous
 62
     6
100
AcDbLine
 10
-134.4089014015713
 20
19.30917989210604
 30
0.0
 11
-179.3640968748213
 21
19.30917989210604
 31
0.0
  0
LINE
  5
2CD
330
71
100
AcDbEntity
  8
1
  6
Continuous
 62
     7
100
AcDbLine
 10
64.13590312517996
 20
27.80917989210604
 30
0.0
 11
-29.00890140157142
 21
27.80917989210604
 31
0.0
  0
LINE
  5
2CE
102
{ACAD_REACTORS
330
3E0
330
3E1
102
}
330
71
100
AcDbEntity
  8
0
  6
Continuous
 62
     2
100
AcDbLine
 10
-51.70147245980394
 20
28.60946900776935
 30
0.0
 11
-51.70147245980394
 21
29.48198601457264
 31
0.0
  0
LINE
  5
2CF
102
{ACAD_REACTORS
330
3E0
330
3E1
102
}
330
71
100
AcDbEntity
  8
0
  6
Continuous
 62
     2
100
AcDbLine
 10
-51.70147245980394
 20
27.64970030028644
 30
0.0
 11
-51.70147245980394
 21
26.77718329348323
 31
0.0
  0
LINE
  5
2D0
102
{ACAD_REACTORS
330
3E2
330
3E3
102
}
330
71
100
AcDbEntity
  8
0
  6
Continuous
 62
     2
100
AcDbLine
 10
-36.36842832351343
 20
28.87122410980985
 30
0.0
 11
-35.26478902394533
 21
28.87122410980985
 31
0.0
  0
LINE
  5
2D1
102
{ACAD_REACTORS
330
3E2
330
3E3
102
}
330
71
100
AcDbEntity
  8
0
  6
Continuous
 62
     2
100
AcDbLine
 10
-35.59877098055202
 20
27.64970030028596
 30
0.0
 11
-35.59877098055202
 21
26.77718329348264
 31
0.0
  0
LINE
  5
2D2
102
{ACAD_REACTORS
330
3EC
330
3ED
102
}
330
71
100
AcDbEntity
  8
0
  6
Continuous
 62
     2
100
AcDbLine
 10
-37.45952759593195
 20
29.96187036829664
 30
0.0
 11
-36.06157454899164
 21
31.54272936207164
 31
0.0
  0
LINE
  5
2D3
102
{ACAD_REACTORS
330
3EC
330
3ED
102
}
330
71
100
AcDbEntity
  8
0
  6
Continuous
 62
     2
100
AcDbLine
 10
-37.36410417975912
 20
33.01567989210784
 30
0.0
 11
-36.06157454899164
 21
31.54272936207164
 31
0.0
  0
LINE
  5
2D4
102
{ACAD_REACTORS
330
3EC
330
3ED
102
}
330
71
100
AcDbEntity
  8
0
  6
Continuous
 62
     2
100
AcDbLine
 10
-34.75904491822524
 20
33.01567989210784
 30
0.0
 11
-33.35632070047802
 21
33.01567989210784
 31
0.0
  0
LINE
  5
2D5
102
{ACAD_REACTORS
330
3EC
330
3ED
102
}
330
71
100
AcDbEntity
  8
0
  6
Continuous
 62
     2
100
AcDbLine
 10
-36.05680337818373
 20
29.96187036829664
 30
0.0
 11
-35.36021244011803
 21
30.74960215359036
 31
0.0
  0
LINE
  5
2D6
102
{ACAD_REACTORS
330
3EC
330
3ED
102
}
330
71
100
AcDbEntity
  8
0
  6
Continuous
 62
     2
100
AcDbLine
 10
-36.05680337818373
 20
29.96187036829664
 30
0.0
 11
-37.45952759593195
 21
29.96187036829664
 31
0.0
  0
LINE
  5
2D7
102
{ACAD_REACTORS
330
3EE
330
3EF
102
}
330
71
100
AcDbEntity
  8
0
  6
Continuous
 62
     2
100
AcDbLine
 10
-37.57880686614882
 20
29.96187036829664
 30
0.0
 11
-38.81931127640172
 21
29.96187036829664
 31
0.0
  0
LINE
  5
2D8
102
{ACAD_REACTORS
330
3F0
330
3F1
102
}
330
71
100
AcDbEntity
  8
0
  6
Continuous
 62
     2
100
AcDbLine
 10
-39.68729088455683
 20
27.82420370164684
 30
0.0
 11
-39.98745612174693
 21
28.59201866763354
 31
0.0
  0
LINE
  5
2D9
102
{ACAD_REACTORS
330
3F0
330
3F1
102
}
330
71
100
AcDbEntity
  8
0
  6
Continuous
 62
     2
100
AcDbLine
 10
-40.28762135893933
 20
27.82420370164684
 30
0.0
 11
-39.68729088455683
 21
27.82420370164684
 31
0.0
  0
LINE
  5
2DA
102
{ACAD_REACTORS
330
3F0
330
3F1
102
}
330
71
100
AcDbEntity
  8
0
  6
Continuous
 62
     2
100
AcDbLine
 10
-42.00566137381313
 20
26.60267989212235
 30
0.0
 11
-40.76515696356015
 21
26.60267989212235
 31
0.0
  0
LINE
  5
2DB
102
{ACAD_REACTORS
330
3F0
330
3F1
102
}
330
71
100
AcDbEntity
  8
0
  6
Continuous
 62
     2
100
AcDbLine
 10
-40.60770832687382
 20
29.65648941593344
 30
0.0
 11
-39.36720391662112
 21
29.65648941593344
 31
0.0
  0
LINE
  5
2DC
102
{ACAD_REACTORS
330
3F0
330
3F1
102
}
330
71
100
AcDbEntity
  8
0
  6
Continuous
 62
     2
100
AcDbLine
 10
-39.36720391662112
 20
29.65648941593344
 30
0.0
 11
-37.96925086968082
 21
26.60267989212235
 31
0.0
  0
LINE
  5
2DD
102
{ACAD_REACTORS
330
3F0
330
3F1
102
}
330
71
100
AcDbEntity
  8
0
  6
Continuous
 62
     2
100
AcDbLine
 10
-39.20975527993474
 20
26.60267989212235
 30
0.0
 11
-39.42123533341052
 21
27.14364043634024
 31
0.0
  0
LINE
  5
2DE
102
{ACAD_REACTORS
330
3F2
330
3F3
102
}
330
71
100
AcDbEntity
  8
0
  6
Continuous
 62
     2
100
AcDbLine
 10
-43.35207447552074
 20
26.60267989212235
 30
0.0
 11
-42.15928177335422
 21
26.60267989212235
 31
0.0
  0
LINE
  5
2DF
102
{ACAD_REACTORS
330
3F2
330
3F3
102
}
330
71
100
AcDbEntity
  8
0
  6
Continuous
 62
     2
100
AcDbLine
 10
-43.35207447552074
 20
28.87122410980985
 30
0.0
 11
-43.35207447552074
 21
26.60267989212235
 31
0.0
  0
LINE
  5
2E0
102
{ACAD_REACTORS
330
3F2
330
3F3
102
}
330
71
100
AcDbEntity
  8
0
  6
Continuous
 62
     2
100
AcDbLine
 10
-44.16317351299534
 20
29.65648941593344
 30
0.0
 11
-44.16317351299534
 21
28.87122410980985
 31
0.0
  0
LINE
  5
2E1
102
{ACAD_REACTORS
330
3F4
330
3F5
102
}
330
71
100
AcDbEntity
  8
0
  6
Continuous
 62
     2
100
AcDbLine
 10
-42.68395963142274
 20
29.96187036829664
 30
0.0
 11
-41.49116692925622
 21
29.96187036829664
 31
0.0
  0
LINE
  5
2E2
102
{ACAD_REACTORS
330
3F4
330
3F5
102
}
330
71
100
AcDbEntity
  8
0
  6
Continuous
 62
     2
100
AcDbLine
 10
-40.25066251900222
 20
31.70690438190266
 30
0.0
 11
-41.49116692925622
 21
33.01567989210784
 31
0.0
  0
LINE
  5
2E3
102
{ACAD_REACTORS
330
3F4
330
3F5
102
}
330
71
100
AcDbEntity
  8
0
  6
Continuous
 62
     2
100
AcDbLine
 10
-39.05786981683562
 20
33.01567989210784
 30
0.0
 11
-40.25066251900222
 21
33.01567989210784
 31
0.0
  0
LINE
  5
2E4
102
{ACAD_REACTORS
330
3F4
330
3F5
102
}
330
71
100
AcDbEntity
  8
0
  6
Continuous
 62
     2
100
AcDbLine
 10
-39.05786981683562
 20
29.96187036829664
 30
0.0
 11
-39.05786981683562
 21
33.01567989210784
 31
0.0
  0
LINE
  5
2E5
102
{ACAD_REACTORS
330
3F4
330
3F5
102
}
330
71
100
AcDbEntity
  8
0
  6
Continuous
 62
     2
100
AcDbLine
 10
-40.25066251900222
 20
29.96187036829664
 30
0.0
 11
-39.05786981683562
 21
29.96187036829664
 31
0.0
  0
LINE
  5
2E6
102
{ACAD_REACTORS
330
3F4
330
3F5
102
}
330
71
100
AcDbEntity
  8
0
  6
Continuous
 62
     2
100
AcDbLine
 10
-41.49116692925622
 20
31.27064587850134
 30
0.0
 11
-40.25066251900222
 21
29.96187036829664
 31
0.0
  0
LINE
  5
2E7
102
{ACAD_REACTORS
330
3F6
330
3F7
102
}
330
71
100
AcDbEntity
  8
0
  6
Continuous
 62
     2
100
AcDbLine
 10
-45.49910133942194
 20
28.34771390572834
 30
0.0
 11
-46.73960574967484
 21
29.65648941593344
 31
0.0
  0
LINE
  5
2E8
102
{ACAD_REACTORS
330
3F6
330
3F7
102
}
330
71
100
AcDbEntity
  8
0
  6
Continuous
 62
     2
100
AcDbLine
 10
-45.49910133942194
 20
29.65648941593344
 30
0.0
 11
-45.49910133942194
 21
28.34771390572834
 31
0.0
  0
LINE
  5
2E9
102
{ACAD_REACTORS
330
3F6
330
3F7
102
}
330
71
100
AcDbEntity
  8
0
  6
Continuous
 62
     2
100
AcDbLine
 10
-44.30630863725554
 20
29.65648941593344
 30
0.0
 11
-45.49910133942194
 21
29.65648941593344
 31
0.0
  0
LINE
  5
2EA
102
{ACAD_REACTORS
330
3F6
330
3F7
102
}
330
71
100
AcDbEntity
  8
0
  6
Continuous
 62
     2
100
AcDbLine
 10
-44.30630863725554
 20
26.60267989212235
 30
0.0
 11
-44.30630863725554
 21
29.65648941593344
 31
0.0
  0
LINE
  5
2EB
102
{ACAD_REACTORS
330
3F6
330
3F7
102
}
330
71
100
AcDbEntity
  8
0
  6
Continuous
 62
     2
100
AcDbLine
 10
-46.73960574967484
 20
27.91145540232694
 30
0.0
 11
-45.49910133942194
 21
26.60267989212235
 31
0.0
  0
LINE
  5
2EC
102
{ACAD_REACTORS
330
3F6
330
3F7
102
}
330
71
100
AcDbEntity
  8
0
  6
Continuous
 62
     2
100
AcDbLine
 10
-46.73960574967484
 20
26.60267989212235
 30
0.0
 11
-46.73960574967484
 21
27.91145540232694
 31
0.0
  0
LINE
  5
2ED
102
{ACAD_REACTORS
330
3E6
330
3E7
102
}
330
71
100
AcDbEntity
  8
0
  6
Continuous
 62
     2
100
AcDbLine
 10
-44.25844599828332
 20
32.31766628666486
 30
0.0
 11
-42.92251817185564
 21
32.31766628666486
 31
0.0
  0
LINE
  5
2EE
102
{ACAD_REACTORS
330
3E6
330
3E7
102
}
330
71
100
AcDbEntity
  8
0
  6
Continuous
 62
     2
100
AcDbLine
 10
-44.25844599828332
 20
30.65988397373914
 30
0.0
 11
-44.25844599828332
 21
31.13976832748085
 31
0.0
  0
LINE
  5
2EF
102
{ACAD_REACTORS
330
3E6
330
3E7
102
}
330
71
100
AcDbEntity
  8
0
  6
Continuous
 62
     2
100
AcDbLine
 10
-42.92251817185564
 20
30.65988397373914
 30
0.0
 11
-44.25844599828332
 21
30.65988397373914
 31
0.0
  0
LINE
  5
2F0
102
{ACAD_REACTORS
330
3E6
330
3E7
102
}
330
71
100
AcDbEntity
  8
0
  6
Continuous
 62
     2
100
AcDbLine
 10
-42.92251817185564
 20
29.96187036829664
 30
0.0
 11
-42.92251817185564
 21
30.65988397373914
 31
0.0
  0
LINE
  5
2F1
102
{ACAD_REACTORS
330
3E6
330
3E7
102
}
330
71
100
AcDbEntity
  8
0
  6
Continuous
 62
     2
100
AcDbLine
 10
-46.07283789563664
 20
29.96187036829664
 30
0.0
 11
-42.92251817185564
 21
29.96187036829664
 31
0.0
  0
LINE
  5
2F2
102
{ACAD_REACTORS
330
3E6
330
3E7
102
}
330
71
100
AcDbEntity
  8
0
  6
Continuous
 62
     2
100
AcDbLine
 10
-46.07283789563664
 20
33.01567989210784
 30
0.0
 11
-42.92251817185564
 21
33.01567989210784
 31
0.0
  0
LINE
  5
2F3
102
{ACAD_REACTORS
330
3E6
330
3E7
102
}
330
71
100
AcDbEntity
  8
0
  6
Continuous
 62
     2
100
AcDbLine
 10
-42.92251817185564
 20
32.31766628666486
 30
0.0
 11
-42.92251817185564
 21
33.01567989210784
 31
0.0
  0
LINE
  5
2F4
102
{ACAD_REACTORS
330
3F8
330
3F9
102
}
330
71
100
AcDbEntity
  8
0
  6
Continuous
 62
     2
100
AcDbLine
 10
-48.93419339077664
 20
31.94684655877325
 30
0.0
 11
-48.93419339077664
 21
33.01567989210784
 31
0.0
  0
LINE
  5
2F5
102
{ACAD_REACTORS
330
3F8
330
3F9
102
}
330
71
100
AcDbEntity
  8
0
  6
Continuous
 62
     2
100
AcDbLine
 10
-48.93419339077664
 20
33.01567989210784
 30
0.0
 11
-47.74140068861024
 21
33.01567989210784
 31
0.0
  0
LINE
  5
2F6
102
{ACAD_REACTORS
330
3F8
330
3F9
102
}
330
71
100
AcDbEntity
  8
0
  6
Continuous
 62
     2
100
AcDbLine
 10
-48.93419339077664
 20
31.09614247714046
 30
0.0
 11
-49.98385096868412
 21
31.09614247714046
 31
0.0
  0
LINE
  5
2F7
102
{ACAD_REACTORS
330
3F8
330
3F9
102
}
330
71
100
AcDbEntity
  8
0
  6
Continuous
 62
     2
100
AcDbLine
 10
-49.98385096868412
 20
31.09614247714046
 30
0.0
 11
-49.98385096868412
 21
29.96187036829664
 31
0.0
  0
LINE
  5
2F8
102
{ACAD_REACTORS
330
3F8
330
3F9
102
}
330
71
100
AcDbEntity
  8
0
  6
Continuous
 62
     2
100
AcDbLine
 10
-51.17664367085072
 20
33.01567989210784
 30
0.0
 11
-51.17664367085072
 21
29.96187036829664
 31
0.0
  0
LINE
  5
2F9
102
{ACAD_REACTORS
330
3EA
330
3EB
102
}
330
71
100
AcDbEntity
  8
0
  6
Continuous
 62
     2
100
AcDbLine
 10
-53.13282370240432
 20
31.64684639732553
 30
0.0
 11
-53.13282370240432
 21
32.35257404666774
 31
0.0
  0
LINE
  5
2FA
102
{ACAD_REACTORS
330
3EA
330
3EB
102
}
330
71
100
AcDbEntity
  8
0
  6
Continuous
 62
     2
100
AcDbLine
 10
-54.37332811265844
 20
29.96187036829664
 30
0.0
 11
-53.13282370240432
 21
29.96187036829664
 31
0.0
  0
LINE
  5
2FB
102
{ACAD_REACTORS
330
3EA
330
3EB
102
}
330
71
100
AcDbEntity
  8
0
  6
Continuous
 62
     2
100
AcDbLine
 10
-53.13282370240432
 20
29.96187036829664
 30
0.0
 11
-53.13282370240432
 21
30.90494860944045
 31
0.0
  0
LINE
  5
2FC
102
{ACAD_REACTORS
330
3E4
330
3E5
102
}
330
71
100
AcDbEntity
  8
0
  6
Continuous
 62
     2
100
AcDbLine
 10
-58.67827396186982
 20
27.31523544767924
 30
0.0
 11
-60.15410722287945
 21
27.31523544767924
 31
0.0
  0
LINE
  5
2FD
102
{ACAD_REACTORS
330
3E4
330
3E5
102
}
330
71
100
AcDbEntity
  8
0
  6
Continuous
 62
     2
100
AcDbLine
 10
-61.17224651500874
 20
32.59143527670585
 30
0.0
 11
-61.17224651500874
 21
27.02692450750564
 31
0.0
  0
LINE
  5
2FE
102
{ACAD_REACTORS
330
3E4
330
3E5
102
}
330
71
100
AcDbEntity
  8
0
  6
Continuous
 62
     2
100
AcDbLine
 10
-60.74800189962593
 20
33.01567989208965
 30
0.0
 11
-55.27468980890913
 21
33.01567989208965
 31
0.0
  0
LINE
  5
2FF
102
{ACAD_REACTORS
330
3E4
330
3E5
102
}
330
71
100
AcDbEntity
  8
0
  6
Continuous
 62
     2
100
AcDbLine
 10
-54.85044519352525
 20
32.59143527670585
 30
0.0
 11
-54.85044519352525
 21
27.02692450750564
 31
0.0
  0
LINE
  5
300
102
{ACAD_REACTORS
330
3E4
330
3E5
102
}
330
71
100
AcDbEntity
  8
0
  6
Continuous
 62
     2
100
AcDbLine
 10
-55.27468980890913
 20
26.60267989212235
 30
0.0
 11
-60.74800189962593
 21
26.60267989212235
 31
0.0
  0
LINE
  5
301
102
{ACAD_REACTORS
330
3E4
330
3E5
102
}
330
71
100
AcDbEntity
  8
0
  6
Continuous
 62
     2
100
AcDbLine
 10
-58.36255703879323
 20
27.63095237075595
 30
0.0
 11
-58.36255703879323
 21
29.16172330228756
 31
0.0
  0
LINE
  5
302
102
{ACAD_REACTORS
330
3E4
330
3E5
102
}
330
71
100
AcDbEntity
  8
0
  6
Continuous
 62
     2
100
AcDbLine
 10
-58.36255703879323
 20
31.38338279441254
 30
0.0
 11
-58.36255703879323
 21
31.98740741347305
 31
0.0
  0
LINE
  5
303
102
{ACAD_REACTORS
330
3E4
330
3E5
102
}
330
71
100
AcDbEntity
  8
0
  6
Continuous
 62
     2
100
AcDbLine
 10
-60.15410722287945
 20
32.30312433654925
 30
0.0
 11
-58.67827396186982
 21
32.30312433654925
 31
0.0
  0
LINE
  5
304
102
{ACAD_REACTORS
330
3E4
330
3E5
102
}
330
71
100
AcDbEntity
  8
0
  6
Continuous
 62
     2
100
AcDbLine
 10
-60.46982414595513
 20
31.98740741347305
 30
0.0
 11
-60.46982414595513
 21
27.63095237075595
 31
0.0
  0
LINE
  5
305
102
{ACAD_REACTORS
330
3EA
330
3EB
102
}
330
71
100
AcDbEntity
  8
0
  6
Continuous
 62
     2
100
AcDbLine
 10
-53.13282370240432
 20
30.90494860944045
 30
0.0
 11
-52.37405611462404
 21
30.90494860944045
 31
0.0
  0
LINE
  5
306
102
{ACAD_REACTORS
330
3EA
330
3EB
102
}
330
71
100
AcDbEntity
  8
0
  6
Continuous
 62
     2
100
AcDbLine
 10
-54.37332811265844
 20
33.01567989210784
 30
0.0
 11
-52.37405611462404
 21
33.01567989210784
 31
0.0
  0
LINE
  5
307
102
{ACAD_REACTORS
330
3EA
330
3EB
102
}
330
71
100
AcDbEntity
  8
0
  6
Continuous
 62
     2
100
AcDbLine
 10
-54.37332811265844
 20
33.01567989210784
 30
0.0
 11
-54.37332811265844
 21
29.96187036829664
 31
0.0
  0
LINE
  5
308
102
{ACAD_REACTORS
330
3EA
330
3EB
102
}
330
71
100
AcDbEntity
  8
0
  6
Continuous
 62
     2
100
AcDbLine
 10
-53.13282370240432
 20
31.64684639732553
 30
0.0
 11
-52.81552864086243
 21
31.64684639732553
 31
0.0
  0
LINE
  5
309
102
{ACAD_REACTORS
330
3EA
330
3EB
102
}
330
71
100
AcDbEntity
  8
0
  6
Continuous
 62
     2
100
AcDbLine
 10
-53.13282370240432
 20
32.35257404666774
 30
0.0
 11
-52.81552864086243
 21
32.35257404666774
 31
0.0
  0
LINE
  5
30A
102
{ACAD_REACTORS
330
3F8
330
3F9
102
}
330
71
100
AcDbEntity
  8
0
  6
Continuous
 62
     2
100
AcDbLine
 10
-49.98385096868412
 20
31.94684655877325
 30
0.0
 11
-48.93419339077664
 21
31.94684655877325
 31
0.0
  0
LINE
  5
30B
102
{ACAD_REACTORS
330
3F8
330
3F9
102
}
330
71
100
AcDbEntity
  8
0
  6
Continuous
 62
     2
100
AcDbLine
 10
-49.98385096868412
 20
33.01567989210784
 30
0.0
 11
-49.98385096868412
 21
31.94684655877325
 31
0.0
  0
LINE
  5
30C
102
{ACAD_REACTORS
330
3F8
330
3F9
102
}
330
71
100
AcDbEntity
  8
0
  6
Continuous
 62
     2
100
AcDbLine
 10
-51.17664367085072
 20
33.01567989210784
 30
0.0
 11
-49.98385096868412
 21
33.01567989210784
 31
0.0
  0
LINE
  5
30D
102
{ACAD_REACTORS
330
3F8
330
3F9
102
}
330
71
100
AcDbEntity
  8
0
  6
Continuous
 62
     2
100
AcDbLine
 10
-49.98385096868412
 20
29.96187036829664
 30
0.0
 11
-51.17664367085072
 21
29.96187036829664
 31
0.0
  0
LINE
  5
30E
102
{ACAD_REACTORS
330
3F8
330
3F9
102
}
330
71
100
AcDbEntity
  8
0
  6
Continuous
 62
     2
100
AcDbLine
 10
-48.93419339077664
 20
29.96187036829664
 30
0.0
 11
-48.93419339077664
 21
31.09614247714046
 31
0.0
  0
LINE
  5
30F
102
{ACAD_REACTORS
330
3F8
330
3F9
102
}
330
71
100
AcDbEntity
  8
0
  6
Continuous
 62
     2
100
AcDbLine
 10
-47.74140068861024
 20
29.96187036829664
 30
0.0
 11
-48.93419339077664
 21
29.96187036829664
 31
0.0
  0
LINE
  5
310
102
{ACAD_REACTORS
330
3F8
330
3F9
102
}
330
71
100
AcDbEntity
  8
0
  6
Continuous
 62
     2
100
AcDbLine
 10
-47.74140068861024
 20
33.01567989210784
 30
0.0
 11
-47.74140068861024
 21
29.96187036829664
 31
0.0
  0
LINE
  5
311
102
{ACAD_REACTORS
330
3E6
330
3E7
102
}
330
71
100
AcDbEntity
  8
0
  6
Continuous
 62
     2
100
AcDbLine
 10
-44.25844599828332
 20
31.13976832748085
 30
0.0
 11
-42.92251817185564
 21
31.13976832748085
 31
0.0
  0
LINE
  5
312
102
{ACAD_REACTORS
330
3E6
330
3E7
102
}
330
71
100
AcDbEntity
  8
0
  6
Continuous
 62
     2
100
AcDbLine
 10
-42.92251817185564
 20
31.13976832748085
 30
0.0
 11
-42.92251817185564
 21
31.83778193292315
 31
0.0
  0
LINE
  5
313
102
{ACAD_REACTORS
330
3E6
330
3E7
102
}
330
71
100
AcDbEntity
  8
0
  6
Continuous
 62
     2
100
AcDbLine
 10
-42.92251817185564
 20
31.83778193292315
 30
0.0
 11
-44.25844599828332
 21
31.83778193292315
 31
0.0
  0
LINE
  5
314
102
{ACAD_REACTORS
330
3E6
330
3E7
102
}
330
71
100
AcDbEntity
  8
0
  6
Continuous
 62
     2
100
AcDbLine
 10
-44.25844599828332
 20
31.83778193292315
 30
0.0
 11
-44.25844599828332
 21
32.31766628666486
 31
0.0
  0
LINE
  5
315
102
{ACAD_REACTORS
330
3F6
330
3F7
102
}
330
71
100
AcDbEntity
  8
0
  6
Continuous
 62
     2
100
AcDbLine
 10
-47.93239845184243
 20
26.60267989212235
 30
0.0
 11
-46.73960574967484
 21
26.60267989212235
 31
0.0
  0
LINE
  5
316
102
{ACAD_REACTORS
330
3F6
330
3F7
102
}
330
71
100
AcDbEntity
  8
0
  6
Continuous
 62
     2
100
AcDbLine
 10
-45.49910133942194
 20
26.60267989212235
 30
0.0
 11
-44.30630863725554
 21
26.60267989212235
 31
0.0
  0
LINE
  5
317
102
{ACAD_REACTORS
330
3F6
330
3F7
102
}
330
71
100
AcDbEntity
  8
0
  6
Continuous
 62
     2
100
AcDbLine
 10
-46.73960574967484
 20
29.65648941593344
 30
0.0
 11
-47.93239845184243
 21
29.65648941593344
 31
0.0
  0
LINE
  5
318
102
{ACAD_REACTORS
330
3F6
330
3F7
102
}
330
71
100
AcDbEntity
  8
0
  6
Continuous
 62
     2
100
AcDbLine
 10
-47.93239845184243
 20
29.65648941593344
 30
0.0
 11
-47.93239845184243
 21
26.60267989212235
 31
0.0
  0
LINE
  5
319
102
{ACAD_REACTORS
330
3F4
330
3F5
102
}
330
71
100
AcDbEntity
  8
0
  6
Continuous
 62
     2
100
AcDbLine
 10
-40.25066251900222
 20
33.01567989210784
 30
0.0
 11
-40.25066251900222
 21
31.70690438190266
 31
0.0
  0
LINE
  5
31A
102
{ACAD_REACTORS
330
3F4
330
3F5
102
}
330
71
100
AcDbEntity
  8
0
  6
Continuous
 62
     2
100
AcDbLine
 10
-41.49116692925622
 20
33.01567989210784
 30
0.0
 11
-42.68395963142274
 21
33.01567989210784
 31
0.0
  0
LINE
  5
31B
102
{ACAD_REACTORS
330
3F4
330
3F5
102
}
330
71
100
AcDbEntity
  8
0
  6
Continuous
 62
     2
100
AcDbLine
 10
-42.68395963142274
 20
33.01567989210784
 30
0.0
 11
-42.68395963142274
 21
29.96187036829664
 31
0.0
  0
LINE
  5
31C
102
{ACAD_REACTORS
330
3F4
330
3F5
102
}
330
71
100
AcDbEntity
  8
0
  6
Continuous
 62
     2
100
AcDbLine
 10
-41.49116692925622
 20
29.96187036829664
 30
0.0
 11
-41.49116692925622
 21
31.27064587850134
 31
0.0
  0
LINE
  5
31D
102
{ACAD_REACTORS
330
3F2
330
3F3
102
}
330
71
100
AcDbEntity
  8
0
  6
Continuous
 62
     2
100
AcDbLine
 10
-42.15928177335422
 20
26.60267989212235
 30
0.0
 11
-42.15928177335422
 21
28.87122410980985
 31
0.0
  0
LINE
  5
31E
102
{ACAD_REACTORS
330
3F2
330
3F3
102
}
330
71
100
AcDbEntity
  8
0
  6
Continuous
 62
     2
100
AcDbLine
 10
-42.15928177335422
 20
28.87122410980985
 30
0.0
 11
-41.34818273588172
 21
28.87122410980985
 31
0.0
  0
LINE
  5
31F
102
{ACAD_REACTORS
330
3F2
330
3F3
102
}
330
71
100
AcDbEntity
  8
0
  6
Continuous
 62
     2
100
AcDbLine
 10
-41.34818273588172
 20
28.87122410980985
 30
0.0
 11
-41.34818273588172
 21
29.65648941593344
 31
0.0
  0
LINE
  5
320
102
{ACAD_REACTORS
330
3F2
330
3F3
102
}
330
71
100
AcDbEntity
  8
0
  6
Continuous
 62
     2
100
AcDbLine
 10
-41.34818273588172
 20
29.65648941593344
 30
0.0
 11
-44.16317351299534
 21
29.65648941593344
 31
0.0
  0
LINE
  5
321
102
{ACAD_REACTORS
330
3F2
330
3F3
102
}
330
71
100
AcDbEntity
  8
0
  6
Continuous
 62
     2
100
AcDbLine
 10
-44.16317351299534
 20
28.87122410980985
 30
0.0
 11
-43.35207447552074
 21
28.87122410980985
 31
0.0
  0
LINE
  5
322
102
{ACAD_REACTORS
330
3F0
330
3F1
102
}
330
71
100
AcDbEntity
  8
0
  6
Continuous
 62
     2
100
AcDbLine
 10
-40.55367691008433
 20
27.14364043634024
 30
0.0
 11
-39.42123533341052
 21
27.14364043634024
 31
0.0
  0
LINE
  5
323
102
{ACAD_REACTORS
330
3F0
330
3F1
102
}
330
71
100
AcDbEntity
  8
0
  6
Continuous
 62
     2
100
AcDbLine
 10
-37.96925086968082
 20
26.60267989212235
 30
0.0
 11
-39.20975527993474
 21
26.60267989212235
 31
0.0
  0
LINE
  5
324
102
{ACAD_REACTORS
330
3F0
330
3F1
102
}
330
71
100
AcDbEntity
  8
0
  6
Continuous
 62
     2
100
AcDbLine
 10
-40.60770832687382
 20
29.65648941593344
 30
0.0
 11
-42.00566137381313
 21
26.60267989212235
 31
0.0
  0
LINE
  5
325
102
{ACAD_REACTORS
330
3F0
330
3F1
102
}
330
71
100
AcDbEntity
  8
0
  6
Continuous
 62
     2
100
AcDbLine
 10
-40.76515696356015
 20
26.60267989212235
 30
0.0
 11
-40.55367691008433
 21
27.14364043634024
 31
0.0
  0
LINE
  5
326
102
{ACAD_REACTORS
330
3F0
330
3F1
102
}
330
71
100
AcDbEntity
  8
0
  6
Continuous
 62
     2
100
AcDbLine
 10
-40.28762135893933
 20
27.82420370164684
 30
0.0
 11
-39.98745612174693
 21
28.59201866763354
 31
0.0
  0
LINE
  5
327
102
{ACAD_REACTORS
330
3EE
330
3EF
102
}
330
71
100
AcDbEntity
  8
0
  6
Continuous
 62
     2
100
AcDbLine
 10
-38.81931127640172
 20
29.96187036829664
 30
0.0
 11
-38.81931127640172
 21
33.01567989210784
 31
0.0
  0
LINE
  5
328
102
{ACAD_REACTORS
330
3EE
330
3EF
102
}
330
71
100
AcDbEntity
  8
0
  6
Continuous
 62
     2
100
AcDbLine
 10
-37.57880686614882
 20
33.01567989210784
 30
0.0
 11
-37.57880686614882
 21
29.96187036829664
 31
0.0
  0
LINE
  5
329
102
{ACAD_REACTORS
330
3EE
330
3EF
102
}
330
71
100
AcDbEntity
  8
0
  6
Continuous
 62
     2
100
AcDbLine
 10
-38.81931127640172
 20
33.01567989210784
 30
0.0
 11
-37.57880686614882
 21
33.01567989210784
 31
0.0
  0
LINE
  5
32A
102
{ACAD_REACTORS
330
3EC
330
3ED
102
}
330
71
100
AcDbEntity
  8
0
  6
Continuous
 62
     2
100
AcDbLine
 10
-35.36021244011803
 20
30.74960215359036
 30
0.0
 11
-34.66362150205254
 21
29.96187036829664
 31
0.0
  0
LINE
  5
32B
102
{ACAD_REACTORS
330
3EC
330
3ED
102
}
330
71
100
AcDbEntity
  8
0
  6
Continuous
 62
     2
100
AcDbLine
 10
-34.66362150205254
 20
29.96187036829664
 30
0.0
 11
-33.26089728430424
 21
29.96187036829664
 31
0.0
  0
LINE
  5
32C
102
{ACAD_REACTORS
330
3EC
330
3ED
102
}
330
71
100
AcDbEntity
  8
0
  6
Continuous
 62
     2
100
AcDbLine
 10
-34.65885033124454
 20
31.54272936207164
 30
0.0
 11
-33.26089728430424
 21
29.96187036829664
 31
0.0
  0
LINE
  5
32D
102
{ACAD_REACTORS
330
3EC
330
3ED
102
}
330
71
100
AcDbEntity
  8
0
  6
Continuous
 62
     2
100
AcDbLine
 10
-34.65885033124454
 20
31.54272936207164
 30
0.0
 11
-33.35632070047802
 21
33.01567989210784
 31
0.0
  0
LINE
  5
32E
102
{ACAD_REACTORS
330
3EC
330
3ED
102
}
330
71
100
AcDbEntity
  8
0
  6
Continuous
 62
     2
100
AcDbLine
 10
-35.36021244011803
 20
32.33585657055235
 30
0.0
 11
-34.75904491822524
 21
33.01567989210784
 31
0.0
  0
LINE
  5
32F
102
{ACAD_REACTORS
330
3EC
330
3ED
102
}
330
71
100
AcDbEntity
  8
0
  6
Continuous
 62
     2
100
AcDbLine
 10
-35.96137996200983
 20
33.01567989210784
 30
0.0
 11
-35.36021244011803
 21
32.33585657055235
 31
0.0
  0
LINE
  5
330
102
{ACAD_REACTORS
330
3EC
330
3ED
102
}
330
71
100
AcDbEntity
  8
0
  6
Continuous
 62
     2
100
AcDbLine
 10
-35.96137996200983
 20
33.01567989210784
 30
0.0
 11
-37.36410417975912
 21
33.01567989210784
 31
0.0
  0
LINE
  5
331
102
{ACAD_REACTORS
330
3E2
330
3E3
102
}
330
71
100
AcDbEntity
  8
0
  6
Continuous
 62
     2
100
AcDbLine
 10
-35.26478902394533
 20
26.60267989212235
 30
0.0
 11
-34.07199632177762
 21
26.60267989212235
 31
0.0
  0
LINE
  5
332
102
{ACAD_REACTORS
330
3E2
330
3E3
102
}
330
71
100
AcDbEntity
  8
0
  6
Continuous
 62
     2
100
AcDbLine
 10
-34.07199632177762
 20
26.60267989212235
 30
0.0
 11
-34.07199632177762
 21
28.87122410980985
 31
0.0
  0
LINE
  5
333
102
{ACAD_REACTORS
330
3E2
330
3E3
102
}
330
71
100
AcDbEntity
  8
0
  6
Continuous
 62
     2
100
AcDbLine
 10
-34.07199632177762
 20
28.87122410980985
 30
0.0
 11
-33.26089728430424
 21
28.87122410980985
 31
0.0
  0
LINE
  5
334
102
{ACAD_REACTORS
330
3E2
330
3E3
102
}
330
71
100
AcDbEntity
  8
0
  6
Continuous
 62
     2
100
AcDbLine
 10
-33.26089728430424
 20
28.87122410980985
 30
0.0
 11
-33.26089728430424
 21
29.65648941593344
 31
0.0
  0
LINE
  5
335
102
{ACAD_REACTORS
330
3E2
330
3E3
102
}
330
71
100
AcDbEntity
  8
0
  6
Continuous
 62
     2
100
AcDbLine
 10
-36.64584280293292
 20
29.65648941593295
 30
0.0
 11
-33.26089728430424
 21
29.65648941593344
 31
0.0
  0
LINE
  5
336
102
{ACAD_REACTORS
330
3E2
330
3E3
102
}
330
71
100
AcDbEntity
  8
0
  6
Continuous
 62
     2
100
AcDbLine
 10
-35.26478902394533
 20
28.87122410980985
 30
0.0
 11
-35.26478902394533
 21
26.60267989212235
 31
0.0
  0
LINE
  5
337
102
{ACAD_REACTORS
330
3E4
330
3E5
102
}
330
71
100
AcDbEntity
  8
0
  6
Continuous
 62
     2
100
AcDbLine
 10
-57.89427545942453
 20
28.58156004168686
 30
0.0
 11
-57.89427545942453
 21
29.16341144838194
 31
0.0
  0
LINE
  5
338
102
{ACAD_REACTORS
330
3E4
330
3E5
102
}
330
71
100
AcDbEntity
  8
0
  6
Continuous
 62
     2
100
AcDbLine
 10
-57.89427545942453
 20
31.38169464831816
 30
0.0
 11
-57.89427545942453
 21
31.98722993682495
 31
0.0
  0
LINE
  5
339
330
71
100
AcDbEntity
  8
1
  6
Continuous
 62
     6
100
AcDbLine
 10
-79.36409687482131
 20
19.30917989210604
 30
0.0
 11
-65.40890140157134
 21
19.30917989210593
 31
0.0
  0
LINE
  5
33A
330
71
100
AcDbEntity
  8
1
  6
Continuous
 62
     6
100
AcDbLine
 10
-129.3640968748215
 20
19.30917989210604
 30
0.0
 11
-134.4089014015713
 21
19.30917989210604
 31
0.0
  0
LINE
  5
33B
330
71
100
AcDbEntity
  8
1
  6
Continuous
 62
     6
100
AcDbLine
 10
20.63590312517866
 20
19.30917989210604
 30
0.0
 11
64.13590312517867
 21
19.30917989210604
 31
0.0
  0
LINE
  5
33C
330
71
100
AcDbEntity
  8
1
  6
Continuous
 62
     6
100
AcDbLine
 10
-29.36409687482134
 20
19.30917989210604
 30
0.0
 11
-47.20890140157133
 21
19.30917989210604
 31
0.0
  0
LINE
  5
33D
330
71
100
AcDbEntity
  8
1
  6
Continuous
 62
     2
100
AcDbLine
 10
64.13590312517867
 20
19.30917989210604
 30
0.0
 11
69.13590312517766
 21
19.30917989210604
 31
0.0
  0
LINE
  5
33E
330
71
100
AcDbEntity
  8
1
  6
Continuous
 62
     2
100
AcDbLine
 10
64.13590312517867
 20
19.30917989210604
 30
0.0
 11
64.13590312517867
 21
14.30917989210593
 31
0.0
  0
LINE
  5
33F
330
71
100
AcDbEntity
  8
1
  6
Continuous
 62
     6
100
AcDbLine
 10
-65.40890140157134
 20
36.30917989210604
 30
0.0
 11
-29.00890140157142
 21
36.30917989210604
 31
0.0
  0
LINE
  5
340
330
71
100
AcDbEntity
  8
1
  6
Continuous
 62
     2
100
AcDbLine
 10
69.13590312517766
 20
14.30917989210593
 30
0.0
 11
69.13590312517766
 21
19.30917989210604
 31
0.0
  0
LINE
  5
341
330
71
100
AcDbEntity
  8
1
  6
Continuous
 62
     2
100
AcDbLine
 10
69.13590312517766
 20
14.30917989210593
 30
0.0
 11
64.13590312517867
 21
14.30917989210593
 31
0.0
  0
LINE
  5
342
330
71
100
AcDbEntity
  8
1
  6
Continuous
 62
     2
100
AcDbLine
 10
64.13590312517867
 20
14.30917989210593
 30
0.0
 11
20.63590312517866
 21
14.30917989210593
 31
0.0
  0
LINE
  5
343
330
71
100
AcDbEntity
  8
1
  6
Continuous
 62
     6
100
AcDbLine
 10
64.13590312518036
 20
36.30917989210604
 30
0.0
 11
64.13590312517957
 21
69.30917989210616
 31
0.0
  0
LINE
  5
344
330
71
100
AcDbEntity
  8
1
  6
Continuous
 62
     2
100
AcDbLine
 10
69.13590312517766
 20
224.309179892106
 30
0.0
 11
-79.36409687482131
 21
224.309179892106
 31
0.0
  0
LINE
  5
345
330
71
100
AcDbEntity
  8
1
  6
Continuous
 62
     6
100
AcDbLine
 10
64.13590312517766
 20
204.309179892106
 30
0.0
 11
-222.8640968748204
 21
204.309179892106
 31
0.0
  0
LINE
  5
346
330
71
100
AcDbEntity
  8
1
  6
Continuous
 62
     2
100
AcDbLine
 10
64.13590312517957
 20
69.30917989210616
 30
0.0
 11
69.13590312517766
 21
69.30917989210616
 31
0.0
  0
LINE
  5
347
330
71
100
AcDbEntity
  8
1
  6
Continuous
 62
     6
100
AcDbLine
 10
64.13590312517957
 20
69.30917989210616
 30
0.0
 11
64.13590312517907
 21
119.309179892106
 31
0.0
  0
LINE
  5
348
330
71
100
AcDbEntity
  8
1
  6
Continuous
 62
     2
100
AcDbLine
 10
69.13590312517766
 20
69.30917989210616
 30
0.0
 11
69.13590312517766
 21
119.309179892106
 31
0.0
  0
LINE
  5
349
330
71
100
AcDbEntity
  8
1
  6
Continuous
 62
     2
100
AcDbLine
 10
64.13590312517907
 20
119.309179892106
 30
0.0
 11
69.13590312517766
 21
119.309179892106
 31
0.0
  0
LINE
  5
34A
330
71
100
AcDbEntity
  8
1
  6
Continuous
 62
     6
100
AcDbLine
 10
64.13590312517907
 20
119.309179892106
 30
0.0
 11
64.13590312517786
 21
169.309179892106
 31
0.0
  0
LINE
  5
34B
330
71
100
AcDbEntity
  8
1
  6
Continuous
 62
     2
100
AcDbLine
 10
69.13590312517766
 20
119.309179892106
 30
0.0
 11
69.13590312517766
 21
169.309179892106
 31
0.0
  0
LINE
  5
34C
330
71
100
AcDbEntity
  8
1
  6
Continuous
 62
     2
100
AcDbLine
 10
64.13590312517786
 20
169.309179892106
 30
0.0
 11
69.13590312517766
 21
169.309179892106
 31
0.0
  0
LINE
  5
34D
330
71
100
AcDbEntity
  8
1
  6
Continuous
 62
     6
100
AcDbLine
 10
64.13590312517786
 20
169.309179892106
 30
0.0
 11
64.13590312517766
 21
204.309179892106
 31
0.0
  0
LINE
  5
34E
330
71
100
AcDbEntity
  8
1
  6
Continuous
 62
     2
100
AcDbLine
 10
69.13590312517766
 20
169.309179892106
 30
0.0
 11
69.13590312517766
 21
224.309179892106
 31
0.0
  0
LINE
  5
34F
330
71
100
AcDbEntity
  8
1
  6
Continuous
 62
     2
100
AcDbLine
 10
69.13590312517766
 20
19.30917989210604
 30
0.0
 11
69.13590312517766
 21
69.30917989210616
 31
0.0
  0
LINE
  5
350
330
71
100
AcDbEntity
  8
1
  6
Continuous
 62
     2
100
AcDbLine
 10
-79.36409687482131
 20
224.309179892106
 30
0.0
 11
-227.8640968748204
 21
224.309179892106
 31
0.0
  0
LINE
  5
351
330
71
100
AcDbEntity
  8
1
  6
Continuous
 62
     2
100
AcDbLine
 10
-79.36409687482131
 20
224.309179892106
 30
0.0
 11
-79.36409687482131
 21
215.1004880474047
 31
0.0
  0
LINE
  5
352
330
71
100
AcDbEntity
  8
1
  6
Continuous
 62
     2
100
AcDbLine
 10
-227.8640968748204
 20
14.30917989210593
 30
0.0
 11
-222.8640968748194
 21
14.30917989210593
 31
0.0
  0
LINE
  5
353
330
71
100
AcDbEntity
  8
1
  6
Continuous
 62
     2
100
AcDbLine
 10
-227.8640968748204
 20
224.309179892106
 30
0.0
 11
-227.8640968748204
 21
169.309179892106
 31
0.0
  0
LINE
  5
354
330
71
100
AcDbEntity
  8
1
  6
Continuous
 62
     6
100
AcDbLine
 10
-222.8640968748204
 20
204.309179892106
 30
0.0
 11
-222.8640968748204
 21
169.309179892106
 31
0.0
  0
LINE
  5
355
330
71
100
AcDbEntity
  8
1
  6
Continuous
 62
     2
100
AcDbLine
 10
-227.8640968748204
 20
169.309179892106
 30
0.0
 11
-222.8640968748204
 21
169.309179892106
 31
0.0
  0
LINE
  5
356
330
71
100
AcDbEntity
  8
1
  6
Continuous
 62
     2
100
AcDbLine
 10
-227.8640968748204
 20
169.309179892106
 30
0.0
 11
-227.8640968748204
 21
119.309179892106
 31
0.0
  0
LINE
  5
357
330
71
100
AcDbEntity
  8
1
  6
Continuous
 62
     6
100
AcDbLine
 10
-222.8640968748204
 20
169.309179892106
 30
0.0
 11
-222.8640968748198
 21
119.309179892106
 31
0.0
  0
LINE
  5
358
330
71
100
AcDbEntity
  8
1
  6
Continuous
 62
     2
100
AcDbLine
 10
-227.8640968748204
 20
119.309179892106
 30
0.0
 11
-222.8640968748198
 21
119.309179892106
 31
0.0
  0
LINE
  5
359
330
71
100
AcDbEntity
  8
1
  6
Continuous
 62
     2
100
AcDbLine
 10
-227.8640968748204
 20
119.309179892106
 30
0.0
 11
-227.8640968748204
 21
69.30917989210616
 31
0.0
  0
LINE
  5
35A
330
71
100
AcDbEntity
  8
1
  6
Continuous
 62
     6
100
AcDbLine
 10
-222.8640968748198
 20
119.309179892106
 30
0.0
 11
-222.8640968748196
 21
69.30917989210616
 31
0.0
  0
LINE
  5
35B
330
71
100
AcDbEntity
  8
1
  6
Continuous
 62
     2
100
AcDbLine
 10
-227.8640968748204
 20
69.30917989210616
 30
0.0
 11
-222.8640968748196
 21
69.30917989210616
 31
0.0
  0
LINE
  5
35C
330
71
100
AcDbEntity
  8
1
  6
Continuous
 62
     2
100
AcDbLine
 10
-227.8640968748204
 20
69.30917989210616
 30
0.0
 11
-227.8640968748204
 21
19.30917989210604
 31
0.0
  0
LINE
  5
35D
330
71
100
AcDbEntity
  8
1
  6
Continuous
 62
     6
100
AcDbLine
 10
-222.8640968748196
 20
69.30917989210616
 30
0.0
 11
-222.8640968748194
 21
19.30917989210604
 31
0.0
  0
LINE
  5
35E
330
71
100
AcDbEntity
  8
1
  6
Continuous
 62
     2
100
AcDbLine
 10
-179.3640968748213
 20
14.30917989210593
 30
0.0
 11
-179.3640968748213
 21
19.30917989210604
 31
0.0
  0
LINE
  5
35F
330
71
100
AcDbEntity
  8
1
  6
Continuous
 62
     2
100
AcDbLine
 10
-179.3640968748213
 20
14.30917989210593
 30
0.0
 11
-129.3640968748215
 21
14.30917989210593
 31
0.0
  0
LINE
  5
360
330
71
100
AcDbEntity
  8
1
  6
Continuous
 62
     2
100
AcDbLine
 10
-129.3640968748215
 20
14.30917989210593
 30
0.0
 11
-129.3640968748215
 21
19.30917989210604
 31
0.0
  0
LINE
  5
361
330
71
100
AcDbEntity
  8
1
  6
Continuous
 62
     2
100
AcDbLine
 10
-129.3640968748215
 20
14.30917989210593
 30
0.0
 11
-79.36409687482131
 21
14.30917989210593
 31
0.0
  0
LINE
  5
362
330
71
100
AcDbEntity
  8
1
  6
Continuous
 62
     2
100
AcDbLine
 10
-79.36409687482131
 20
14.30917989210593
 30
0.0
 11
-79.36409687482131
 21
19.30917989210604
 31
0.0
  0
LINE
  5
363
330
71
100
AcDbEntity
  8
1
  6
Continuous
 62
     2
100
AcDbLine
 10
-79.36409687482131
 20
14.30917989210593
 30
0.0
 11
-29.36409687482134
 21
14.30917989210593
 31
0.0
  0
LINE
  5
364
330
71
100
AcDbEntity
  8
1
  6
Continuous
 62
     2
100
AcDbLine
 10
-29.36409687482134
 20
14.30917989210593
 30
0.0
 11
-29.36409687482134
 21
19.30917989210604
 31
0.0
  0
LINE
  5
365
330
71
100
AcDbEntity
  8
1
  6
Continuous
 62
     2
100
AcDbLine
 10
20.63590312517866
 20
14.30917989210593
 30
0.0
 11
20.63590312517866
 21
19.30917989210604
 31
0.0
  0
LINE
  5
366
330
71
100
AcDbEntity
  8
1
  6
Continuous
 62
     2
100
AcDbLine
 10
20.63590312517866
 20
14.30917989210593
 30
0.0
 11
-29.36409687482134
 21
14.30917989210593
 31
0.0
  0
LINE
  5
367
330
71
100
AcDbEntity
  8
1
  6
Continuous
 62
     2
100
AcDbLine
 10
-222.8640968748194
 20
19.30917989210604
 30
0.0
 11
-222.8640968748194
 21
14.30917989210593
 31
0.0
  0
LINE
  5
368
330
71
100
AcDbEntity
  8
1
  6
Continuous
 62
     2
100
AcDbLine
 10
-222.8640968748194
 20
14.30917989210593
 30
0.0
 11
-179.3640968748213
 21
14.30917989210593
 31
0.0
  0
LINE
  5
369
330
71
100
AcDbEntity
  8
1
  6
Continuous
 62
     2
100
AcDbLine
 10
-222.8640968748194
 20
19.30917989210604
 30
0.0
 11
-227.8640968748204
 21
19.30917989210604
 31
0.0
  0
LINE
  5
36A
330
71
100
AcDbEntity
  8
1
  6
Continuous
 62
     2
100
AcDbLine
 10
-227.8640968748204
 20
19.30917989210604
 30
0.0
 11
-227.8640968748204
 21
14.30917989210593
 31
0.0
  0
LINE
  5
36B
330
71
100
AcDbEntity
  8
1
  6
Continuous
 62
     6
100
AcDbLine
 10
64.13590312517867
 20
19.30917989210604
 30
0.0
 11
64.13590312517996
 21
27.80917989210604
 31
0.0
  0
LINE
  5
36C
330
71
100
AcDbEntity
  8
1
  6
Continuous
 62
     6
100
AcDbLine
 10
-29.00890140157142
 20
19.30917989210593
 30
0.0
 11
20.63590312517866
 21
19.30917989210604
 31
0.0
  0
LINE
  5
36D
330
71
100
AcDbEntity
  8
1
  6
Continuous
 62
     6
100
AcDbLine
 10
-181.6640968748216
 20
19.30917989210593
 30
0.0
 11
-179.3640968748213
 21
19.30917989210604
 31
0.0
  0
LINE
  5
36E
330
71
100
AcDbEntity
  8
1
  6
Continuous
 62
     6
100
AcDbLine
 10
-79.36409687482131
 20
19.30917989210604
 30
0.0
 11
-129.3640968748215
 21
19.30917989210604
 31
0.0
  0
LINE
  5
36F
330
71
100
AcDbEntity
  8
1
  6
Continuous
 62
     7
100
AcDbLine
 10
-65.40890140157134
 20
36.30917989210604
 30
0.0
 11
-65.40890140157134
 21
23.55917989210593
 31
0.0
  0
LINE
  5
370
330
71
100
AcDbEntity
  8
1
  6
Continuous
 62
     7
100
AcDbLine
 10
-29.00890140157142
 20
36.30917989210604
 30
0.0
 11
-29.00890140157142
 21
23.55917989210604
 31
0.0
  0
LINE
  5
371
330
71
100
AcDbEntity
  8
1
  6
Continuous
 62
     6
100
AcDbLine
 10
-181.6640968748216
 20
19.30917989210593
 30
0.0
 11
-187.8640968748196
 21
19.30917989210604
 31
0.0
  0
LINE
  5
372
330
71
100
AcDbEntity
  8
1
  6
Continuous
 62
     6
100
AcDbLine
 10
-29.00890140157142
 20
19.30917989210593
 30
0.0
 11
-29.36409687482134
 21
19.30917989210604
 31
0.0
  0
LINE
  5
373
330
71
100
AcDbEntity
  8
1
  6
Continuous
 62
     6
100
AcDbLine
 10
64.13590312518036
 20
36.30917989210604
 30
0.0
 11
64.13590312517996
 21
27.80917989210604
 31
0.0
  0
LINE
  5
374
330
71
100
AcDbEntity
  8
1
  6
Continuous
 62
     6
100
AcDbLine
 10
-187.8640968748196
 20
19.30917989210604
 30
0.0
 11
-222.8640968748194
 21
19.30917989210604
 31
0.0
  0
LINE
  5
375
330
71
100
AcDbEntity
  8
1
  6
Continuous
 62
     2
100
AcDbLine
 10
-61.17224651500874
 20
41.68417989210596
 30
0.0
 11
-56.17224651500874
 21
42.93417989210596
 31
0.0
  0
LINE
  5
376
330
71
100
AcDbEntity
  8
1
  6
Continuous
 62
     2
100
AcDbLine
 10
-61.17224651500874
 20
39.18417989210596
 30
0.0
 11
-61.17224651500874
 21
41.68417989210596
 31
0.0
  0
LINE
  5
377
330
71
100
AcDbEntity
  8
1
  6
Continuous
 62
     2
100
AcDbLine
 10
-56.17224651500874
 20
37.93417989210596
 30
0.0
 11
-61.17224651500874
 21
39.18417989210596
 31
0.0
  0
LINE
  5
378
330
71
100
AcDbEntity
  8
1
  6
Continuous
 62
     2
100
AcDbLine
 10
-56.17224651500874
 20
42.93417989210596
 30
0.0
 11
-56.17224651500874
 21
37.93417989210596
 31
0.0
  0
LINE
  5
379
330
71
100
AcDbEntity
  8
1
  6
Continuous
 62
     7
100
AcDbLine
 10
-65.40890140157134
 20
23.55917989210593
 30
0.0
 11
-47.20890140157133
 21
23.55917989210604
 31
0.0
  0
LINE
  5
37A
330
71
100
AcDbEntity
  8
1
  6
Continuous
 62
     7
100
AcDbLine
 10
-65.40890140157134
 20
23.55917989210593
 30
0.0
 11
-65.40890140157134
 21
19.30917989210593
 31
0.0
  0
LINE
  5
37B
330
71
100
AcDbEntity
  8
1
  6
Continuous
 62
     7
100
AcDbLine
 10
-29.00890140157142
 20
23.55917989210604
 30
0.0
 11
-29.00890140157142
 21
19.30917989210593
 31
0.0
  0
LINE
  5
37C
330
71
100
AcDbEntity
  8
1
  6
Continuous
 62
     7
100
AcDbLine
 10
-47.20890140157133
 20
23.55917989210604
 30
0.0
 11
-47.20890140157133
 21
19.30917989210604
 31
0.0
  0
LINE
  5
37D
330
71
100
AcDbEntity
  8
1
  6
Continuous
 62
     6
100
AcDbLine
 10
-47.20890140157133
 20
19.30917989210604
 30
0.0
 11
-65.40890140157134
 21
19.30917989210593
 31
0.0
  0
LINE
  5
37E
330
71
100
AcDbEntity
  8
1
  6
Continuous
 62
     7
100
AcDbLine
 10
-47.20890140157133
 20
23.55917989210604
 30
0.0
 11
-29.00890140157142
 21
23.55917989210604
 31
0.0
  0
LINE
  5
37F
330
71
100
AcDbEntity
  8
1
  6
Continuous
 62
     6
100
AcDbLine
 10
-65.40890140157134
 20
44.80917989210604
 30
0.0
 11
64.13590312518036
 21
44.80917989210604
 31
0.0
  0
ARC
  5
380
102
{ACAD_REACTORS
330
3E8
330
3E9
102
}
330
71
100
AcDbEntity
  8
0
  6
Continuous
 62
     2
100
AcDbCircle
 10
-50.01725340261135
 20
28.12958465402764
 30
0.0
 40
0.7717997786796947
100
AcDbArc
 50
321.8795802028417
 51
38.12041979715308
  0
ARC
  5
381
102
{ACAD_REACTORS
330
3E8
330
3E9
102
}
330
71
100
AcDbEntity
  8
0
  6
Continuous
 62
     2
100
AcDbCircle
 10
-49.81751336626493
 20
27.97285347590764
 30
0.0
 40
0.5179085730137409
100
AcDbArc
 50
218.1204197971927
 51
321.8795802028005
  0
ARC
  5
382
102
{ACAD_REACTORS
330
3E8
330
3E9
102
}
330
71
100
AcDbEntity
  8
0
  6
Continuous
 62
     2
100
AcDbCircle
 10
-49.61777332991883
 20
28.12958465402764
 30
0.0
 40
0.7717997786794666
100
AcDbArc
 50
141.8795802028368
 51
218.1204197971684
  0
ARC
  5
383
102
{ACAD_REACTORS
330
3E8
330
3E9
102
}
330
71
100
AcDbEntity
  8
0
  6
Continuous
 62
     2
100
AcDbCircle
 10
-49.81751336626493
 20
28.28631583214815
 30
0.0
 40
0.5179085730132899
100
AcDbArc
 50
38.1204197971469
 51
141.8795802028599
  0
ARC
  5
384
102
{ACAD_REACTORS
330
3E0
330
3E1
102
}
330
71
100
AcDbEntity
  8
0
  6
Continuous
 62
     2
100
AcDbCircle
 10
-52.87952750182882
 20
26.71911828861946
 30
0.0
 40
2.227384008973474
100
AcDbArc
 50
58.06909105004068
 51
71.5519238818674
  0
ARC
  5
385
102
{ACAD_REACTORS
330
3E0
330
3E1
102
}
330
71
100
AcDbEntity
  8
0
  6
Continuous
 62
     2
100
AcDbCircle
 10
-52.61779980087005
 20
28.33465608336664
 30
0.0
 40
0.5115800601948783
100
AcDbArc
 50
113.3722778881983
 51
151.4785267423037
  0
ARC
  5
386
102
{ACAD_REACTORS
330
3E0
330
3E1
102
}
330
71
100
AcDbEntity
  8
0
  6
Continuous
 62
     2
100
AcDbCircle
 10
-52.24044254278974
 20
28.12958465402764
 30
0.0
 40
0.9410597353332483
100
AcDbArc
 50
151.4785267422667
 51
208.5214732577059
  0
ARC
  5
387
102
{ACAD_REACTORS
330
3E0
330
3E1
102
}
330
71
100
AcDbEntity
  8
0
  6
Continuous
 62
     2
100
AcDbCircle
 10
-53.03740037692174
 20
31.44226559928404
 30
0.0
 40
4.852596863498134
100
AcDbArc
 50
275.1581447696249
 51
285.9799912583529
  0
ARC
  5
388
102
{ACAD_REACTORS
330
3E0
330
3E1
102
}
330
71
100
AcDbEntity
  8
0
  6
Continuous
 62
     2
100
AcDbCircle
 10
-52.74854428218583
 20
28.24237501606245
 30
0.0
 40
1.639695123939386
100
AcDbArc
 50
195.0618917770894
 51
275.1581447696393
  0
ARC
  5
389
102
{ACAD_REACTORS
330
3E0
330
3E1
102
}
330
71
100
AcDbEntity
  8
0
  6
Continuous
 62
     2
100
AcDbCircle
 10
-53.16767212564864
 20
28.12958465402764
 30
0.0
 40
1.205656168390937
100
AcDbArc
 50
164.9381082228764
 51
195.0618917770949
  0
ARC
  5
38A
102
{ACAD_REACTORS
330
3E0
330
3E1
102
}
330
71
100
AcDbEntity
  8
0
  6
Continuous
 62
     2
100
AcDbCircle
 10
-52.74854428218583
 20
28.01679429199274
 30
0.0
 40
1.639695123940506
100
AcDbArc
 50
84.84185523036261
 51
164.9381082228864
  0
ARC
  5
38B
102
{ACAD_REACTORS
330
3E4
330
3E5
102
}
330
71
100
AcDbEntity
  8
0
  6
Continuous
 62
     2
100
AcDbCircle
 10
-57.57855853634774
 20
29.16341144838194
 30
0.0
 40
0.315716923076536
100
AcDbArc
 50
115.3740086783516
 51
180.0
  0
ARC
  5
38C
102
{ACAD_REACTORS
330
3E4
330
3E5
102
}
330
71
100
AcDbEntity
  8
0
  6
Continuous
 62
     2
100
AcDbCircle
 10
-57.57855853634774
 20
31.38169464831816
 30
0.0
 40
0.3157169230767849
100
AcDbArc
 50
180.0
 51
244.6259913216482
  0
ARC
  5
38D
102
{ACAD_REACTORS
330
3E4
330
3E5
102
}
330
71
100
AcDbEntity
  8
0
  6
Continuous
 62
     2
100
AcDbCircle
 10
-57.57294240103772
 20
30.28439498925584
 30
0.0
 40
2.018561131933259
100
AcDbArc
 50
269.8110329575858
 51
90.18896704241416
  0
ARC
  5
38E
102
{ACAD_REACTORS
330
3E4
330
3E5
102
}
330
71
100
AcDbEntity
  8
0
  6
Continuous
 62
     2
100
AcDbCircle
 10
-57.57855853634774
 20
28.58156004168686
 30
0.0
 40
0.3157169230767849
100
AcDbArc
 50
180.0
 51
269.8110329574542
  0
ARC
  5
38F
102
{ACAD_REACTORS
330
3E2
330
3E3
102
}
330
71
100
AcDbEntity
  8
0
  6
Continuous
 62
     2
100
AcDbCircle
 10
-36.51509832161713
 20
28.33465608336664
 30
0.0
 40
0.5115800601944109
100
AcDbArc
 50
109.3371432194854
 51
151.4785267424225
  0
ARC
  5
390
102
{ACAD_REACTORS
330
3E2
330
3E3
102
}
330
71
100
AcDbEntity
  8
0
  6
Continuous
 62
     2
100
AcDbCircle
 10
-36.51509832161713
 20
27.92451322468915
 30
0.0
 40
0.5115800601960215
100
AcDbArc
 50
208.5214732576866
 51
246.6277221118438
  0
ARC
  5
391
102
{ACAD_REACTORS
330
3E2
330
3E3
102
}
330
71
100
AcDbEntity
  8
0
  6
Continuous
 62
     2
100
AcDbCircle
 10
-37.06497064639453
 20
28.12958465402764
 30
0.0
 40
1.205656168393002
100
AcDbArc
 50
164.9381082229028
 51
195.0618917770958
  0
ARC
  5
392
102
{ACAD_REACTORS
330
3E2
330
3E3
102
}
330
71
100
AcDbEntity
  8
0
  6
Continuous
 62
     2
100
AcDbCircle
 10
-36.64584280293292
 20
28.01679429199274
 30
0.0
 40
1.639695123940211
100
AcDbArc
 50
90.0
 51
164.938108222895
  0
ARC
  5
393
102
{ACAD_REACTORS
330
3E6
330
3E7
102
}
330
71
100
AcDbEntity
  8
0
  6
Continuous
 62
     2
100
AcDbCircle
 10
-46.07283789563664
 20
31.48877513020196
 30
0.0
 40
1.526904761905879
100
AcDbArc
 50
90.0
 51
270.0
  0
ARC
  5
394
102
{ACAD_REACTORS
330
3EA
330
3EB
102
}
330
71
100
AcDbEntity
  8
0
  6
Continuous
 62
     2
100
AcDbCircle
 10
-52.81552864086243
 20
31.99971022199665
 30
0.0
 40
0.3528638246711218
100
AcDbArc
 50
270.0
 51
90.0
  0
ARC
  5
395
102
{ACAD_REACTORS
330
3E4
330
3E5
102
}
330
71
100
AcDbEntity
  8
0
  6
Continuous
 62
     2
100
AcDbCircle
 10
-60.15410722287945
 20
31.98740741347305
 30
0.0
 40
0.3157169230762022
100
AcDbArc
 50
90.0
 51
180.0
  0
ARC
  5
396
102
{ACAD_REACTORS
330
3E4
330
3E5
102
}
330
71
100
AcDbEntity
  8
0
  6
Continuous
 62
     2
100
AcDbCircle
 10
-58.15568951429484
 20
30.27255304835035
 30
0.0
 40
0.9118975235576084
100
AcDbArc
 50
115.1944106485279
 51
244.8055893514882
  0
ARC
  5
397
102
{ACAD_REACTORS
330
3E4
330
3E5
102
}
330
71
100
AcDbEntity
  8
0
  6
Continuous
 62
     2
100
AcDbCircle
 10
-58.67827396186982
 20
29.16172330228756
 30
0.0
 40
0.315716923076593
100
AcDbArc
 50
0.0
 51
64.80558935146027
  0
ARC
  5
398
102
{ACAD_REACTORS
330
3E4
330
3E5
102
}
330
71
100
AcDbEntity
  8
0
  6
Continuous
 62
     2
100
AcDbCircle
 10
-60.74800189962593
 20
27.02692450750564
 30
0.0
 40
0.4242446153828041
100
AcDbArc
 50
180.0
 51
270.0
  0
ARC
  5
399
102
{ACAD_REACTORS
330
3E6
330
3E7
102
}
330
71
100
AcDbEntity
  8
0
  6
Continuous
 62
     2
100
AcDbCircle
 10
-45.85656588547144
 20
31.64550630832244
 30
0.0
 40
0.5179085730135343
100
AcDbArc
 50
38.12041979714316
 51
141.8795802028486
  0
ARC
  5
39A
102
{ACAD_REACTORS
330
3E6
330
3E7
102
}
330
71
100
AcDbEntity
  8
0
  6
Continuous
 62
     2
100
AcDbCircle
 10
-45.65682584912514
 20
31.48877513020196
 30
0.0
 40
0.7717997786796724
100
AcDbArc
 50
141.8795802028404
 51
218.1204197971562
  0
ARC
  5
39B
102
{ACAD_REACTORS
330
3E8
330
3E9
102
}
330
71
100
AcDbEntity
  8
0
  6
Continuous
 62
     2
100
AcDbCircle
 10
-49.81751336626493
 20
28.66815966433094
 30
0.0
 40
2.065479772208505
100
AcDbArc
 50
242.4518518243401
 51
297.5481481756871
  0
ARC
  5
39C
102
{ACAD_REACTORS
330
3E8
330
3E9
102
}
330
71
100
AcDbEntity
  8
0
  6
Continuous
 62
     2
100
AcDbCircle
 10
-49.81751336626493
 20
27.59100964372485
 30
0.0
 40
2.065479772208568
100
AcDbArc
 50
62.45185182430637
 51
117.5481481756664
  0
ARC
  5
39D
102
{ACAD_REACTORS
330
3E8
330
3E9
102
}
330
71
100
AcDbEntity
  8
0
  6
Continuous
 62
     2
100
AcDbCircle
 10
-50.09845325809823
 20
28.12958465402764
 30
0.0
 40
1.458034083651493
100
AcDbArc
 50
117.5481481756624
 51
242.4518518243375
  0
ARC
  5
39E
102
{ACAD_REACTORS
330
3E8
330
3E9
102
}
330
71
100
AcDbEntity
  8
0
  6
Continuous
 62
     2
100
AcDbCircle
 10
-49.53657347443163
 20
28.12958465402764
 30
0.0
 40
1.458034083651999
100
AcDbArc
 50
297.5481481757009
 51
62.45185182429926
  0
ARC
  5
39F
102
{ACAD_REACTORS
330
3E6
330
3E7
102
}
330
71
100
AcDbEntity
  8
0
  6
Continuous
 62
     2
100
AcDbCircle
 10
-45.85656588547144
 20
31.33204395208153
 30
0.0
 40
0.5179085730134327
100
AcDbArc
 50
218.1204197971505
 51
321.8795802028578
  0
ARC
  5
3A0
102
{ACAD_REACTORS
330
3E6
330
3E7
102
}
330
71
100
AcDbEntity
  8
0
  6
Continuous
 62
     2
100
AcDbCircle
 10
-46.05630592181763
 20
31.48877513020196
 30
0.0
 40
0.7717997786796486
100
AcDbArc
 50
321.8795802028444
 51
38.12041979715892
  0
ARC
  5
3A1
102
{ACAD_REACTORS
330
3E4
330
3E5
102
}
330
71
100
AcDbEntity
  8
0
  6
Continuous
 62
     2
100
AcDbCircle
 10
-55.27468980890913
 20
27.02692450750564
 30
0.0
 40
0.4242446153832908
100
AcDbArc
 50
270.0
 51
0.0
  0
ARC
  5
3A2
102
{ACAD_REACTORS
330
3E4
330
3E5
102
}
330
71
100
AcDbEntity
  8
0
  6
Continuous
 62
     2
100
AcDbCircle
 10
-55.27468980890913
 20
32.59143527670585
 30
0.0
 40
0.424244615383877
100
AcDbArc
 50
0.0
 51
90.0
  0
ARC
  5
3A3
102
{ACAD_REACTORS
330
3E4
330
3E5
102
}
330
71
100
AcDbEntity
  8
0
  6
Continuous
 62
     2
100
AcDbCircle
 10
-60.74800189962593
 20
32.59143527670585
 30
0.0
 40
0.4242446153837989
100
AcDbArc
 50
90.0
 51
180.0
  0
ARC
  5
3A4
102
{ACAD_REACTORS
330
3E4
330
3E5
102
}
330
71
100
AcDbEntity
  8
0
  6
Continuous
 62
     2
100
AcDbCircle
 10
-58.67827396186982
 20
27.63095237075595
 30
0.0
 40
0.3157169230767103
100
AcDbArc
 50
270.0
 51
0.0
  0
ARC
  5
3A5
102
{ACAD_REACTORS
330
3E4
330
3E5
102
}
330
71
100
AcDbEntity
  8
0
  6
Continuous
 62
     2
100
AcDbCircle
 10
-58.67827396186982
 20
31.38338279441254
 30
0.0
 40
0.3157169230761203
100
AcDbArc
 50
295.1944106485397
 51
0.0
  0
ARC
  5
3A6
102
{ACAD_REACTORS
330
3E4
330
3E5
102
}
330
71
100
AcDbEntity
  8
0
  6
Continuous
 62
     2
100
AcDbCircle
 10
-58.67827396186982
 20
31.98740741347305
 30
0.0
 40
0.315716923076593
100
AcDbArc
 50
0.0
 51
90.0
  0
ARC
  5
3A7
102
{ACAD_REACTORS
330
3E4
330
3E5
102
}
330
71
100
AcDbEntity
  8
0
  6
Continuous
 62
     2
100
AcDbCircle
 10
-60.15410722287945
 20
27.63095237075595
 30
0.0
 40
0.3157169230756764
100
AcDbArc
 50
180.0
 51
270.0
  0
ARC
  5
3A8
102
{ACAD_REACTORS
330
3EA
330
3EB
102
}
330
71
100
AcDbEntity
  8
0
  6
Continuous
 62
     2
100
AcDbCircle
 10
-52.37405611462404
 20
31.96031425077416
 30
0.0
 40
1.055365641333712
100
AcDbArc
 50
270.0
 51
90.0
  0
ARC
  5
3A9
102
{ACAD_REACTORS
330
3E2
330
3E3
102
}
330
71
100
AcDbEntity
  8
0
  6
Continuous
 62
     2
100
AcDbCircle
 10
-36.64584280293292
 20
28.24237501606245
 30
0.0
 40
1.639695123940446
100
AcDbArc
 50
195.061891777101
 51
275.1581447696762
  0
ARC
  5
3AA
102
{ACAD_REACTORS
330
3E2
330
3E3
102
}
330
71
100
AcDbEntity
  8
0
  6
Continuous
 62
     2
100
AcDbCircle
 10
-36.93469889766874
 20
31.44226559928404
 30
0.0
 40
4.852596863498825
100
AcDbArc
 50
275.1581447696364
 51
285.9799912583387
  0
ARC
  5
3AB
102
{ACAD_REACTORS
330
3E2
330
3E3
102
}
330
71
100
AcDbEntity
  8
0
  6
Continuous
 62
     2
100
AcDbCircle
 10
-36.77682602257593
 20
29.54005101943574
 30
0.0
 40
2.227384008972746
100
AcDbArc
 50
288.4480761181335
 51
301.9309089499397
  0
ARC
  5
3AC
102
{ACAD_REACTORS
330
3E2
330
3E3
102
}
330
71
100
AcDbEntity
  8
0
  6
Continuous
 62
     2
100
AcDbCircle
 10
-36.35865828891403
 20
28.28650524339915
 30
0.0
 40
0.9059297849852797
100
AcDbArc
 50
246.6277221118177
 51
288.4480761180817
  0
ARC
  5
3AD
102
{ACAD_REACTORS
330
3E2
330
3E3
102
}
330
71
100
AcDbEntity
  8
0
  6
Continuous
 62
     2
100
AcDbCircle
 10
-36.13774106353574
 20
28.12958465402764
 30
0.0
 40
0.9410597353348924
100
AcDbArc
 50
151.4785267423624
 51
208.5214732576695
  0
ARC
  5
3AE
102
{ACAD_REACTORS
330
3E2
330
3E3
102
}
330
71
100
AcDbEntity
  8
0
  6
Continuous
 62
     2
100
AcDbCircle
 10
-36.36842832351343
 20
27.91670110298375
 30
0.0
 40
0.9545230068261006
100
AcDbArc
 50
90.0
 51
109.3371432194321
  0
ARC
  5
3AF
102
{ACAD_REACTORS
330
3E4
330
3E5
102
}
330
71
100
AcDbEntity
  8
0
  6
Continuous
 62
     2
100
AcDbCircle
 10
-57.57855853634774
 20
31.98722993682495
 30
0.0
 40
0.3157169230760675
100
AcDbArc
 50
90.18896704254594
 51
180.0
  0
ARC
  5
3B0
102
{ACAD_REACTORS
330
3E4
330
3E5
102
}
330
71
100
AcDbEntity
  8
0
  6
Continuous
 62
     2
100
AcDbCircle
 10
-58.10460123443562
 20
30.27255304835035
 30
0.0
 40
0.9118481501444557
100
AcDbArc
 50
295.3740086781766
 51
64.62599132180736
  0
ARC
  5
3B1
102
{ACAD_REACTORS
330
3E0
330
3E1
102
}
330
71
100
AcDbEntity
  8
0
  6
Continuous
 62
     2
100
AcDbCircle
 10
-52.87952750182882
 20
29.54005101943633
 30
0.0
 40
2.227384008972734
100
AcDbArc
 50
288.4480761181326
 51
301.9309089499593
  0
ARC
  5
3B2
102
{ACAD_REACTORS
330
3E0
330
3E1
102
}
330
71
100
AcDbEntity
  8
0
  6
Continuous
 62
     2
100
AcDbCircle
 10
-52.46135976816802
 20
28.28650524339915
 30
0.0
 40
0.905929784984916
100
AcDbArc
 50
246.6277221118709
 51
288.4480761181579
  0
ARC
  5
3B3
102
{ACAD_REACTORS
330
3E0
330
3E1
102
}
330
71
100
AcDbEntity
  8
0
  6
Continuous
 62
     2
100
AcDbCircle
 10
-52.61779980087005
 20
27.92451322468915
 30
0.0
 40
0.511580060194791
100
AcDbArc
 50
208.5214732576963
 51
246.6277221118278
  0
ARC
  5
3B4
102
{ACAD_REACTORS
330
3E0
330
3E1
102
}
330
71
100
AcDbEntity
  8
0
  6
Continuous
 62
     2
100
AcDbCircle
 10
-52.46135976816802
 20
27.97266406465604
 30
0.0
 40
0.9059297849853273
100
AcDbArc
 50
71.55192388185405
 51
113.3722778881288
  0
ARC
  5
3B5
102
{ACAD_REACTORS
330
3E0
330
3E1
102
}
330
71
100
AcDbEntity
  8
0
  6
Continuous
 62
     2
100
AcDbCircle
 10
-53.03740037692174
 20
24.81690370877175
 30
0.0
 40
4.852596863498064
100
AcDbArc
 50
74.02000874164737
 51
84.84185523037513
  0
CIRCLE
  5
3B6
102
{ACAD_REACTORS
330
3E4
330
3E5
102
}
330
71
100
AcDbEntity
  8
0
  6
Continuous
 62
     2
100
AcDbCircle
 10
-58.12841624910843
 20
30.27255304835035
 30
0.0
 40
0.4709789327785145
  0
CIRCLE
  5
3B7
330
71
100
AcDbEntity
  8
1
  6
Continuous
 62
     2
100
AcDbCircle
 10
-52.67224651500874
 20
40.43417989210596
 30
0.0
 40
1.249999999999915
  0
CIRCLE
  5
3B8
330
71
100
AcDbEntity
  8
1
  6
Continuous
 62
     2
100
AcDbCircle
 10
-52.67224651500874
 20
40.43417989210596
 30
0.0
 40
2.5
  0
TEXT
  5
3B9
330
71
100
AcDbEntity
  8
1
 62
     7
100
AcDbText
 10
-10.03535367955755
 20
37.60917989210594
 30
0.0
 40
2.5
  1
/
 41
0.9
  7
CONVERTER_11
100
AcDbText
  0
TEXT
  5
3BB
330
71
100
AcDbEntity
  8
1
 62
     7
100
AcDbText
 10
-7.87898918251554
 20
37.60917989210594
 30
0.0
 40
2.5
  1
00
 41
0.81
  7
CONVERTER_12
100
AcDbText
  0
TEXT
  5
3BC
330
71
100
AcDbEntity
  8
1
 62
     3
100
AcDbText
 10
29.71749484350156
 20
37.60917989210594
 30
0.0
 40
2.5
  1
20.01.2018
 41
0.81
  7
CONVERTER_12
100
AcDbText
  0
MTEXT
  5
3BD
330
71
100
AcDbEntity
  8
1
 62
     2
100
AcDbMText
 10
29.71749484350156
 20
43.80917989210596
 30
0.0
 40
1.8
 41
0.0
 71
     1
 72
     1
  1
date
  7
CONVERTER_11
 73
     1
 44
1.32052821128451
  0
MTEXT
  5
3BE
330
71
100
AcDbEntity
  8
1
 62
     2
100
AcDbMText
 10
-0.10890140157133
 20
35.30917989210596
 30
0.0
 40
1.8
 41
0.0
 71
     1
 72
     1
  1
document-type
  7
CONVERTER_11
 73
     1
 44
1.20048019207683
  0
TEXT
  5
3BF
330
71
100
AcDbEntity
  8
1
 62
     3
100
AcDbText
 10
-0.10890140157133
 20
29.10917989210594
 30
0.0
 40
2.5
  1
TECDOC 2D_Productdrawing
 41
0.81
  7
CONVERTER_12
100
AcDbText
  0
MTEXT
  5
3C1
330
71
100
AcDbEntity
  8
1
 62
     2
100
AcDbMText
 10
-27.90890140157134
 20
43.80917989210604
 30
0.0
 40
1.8
 41
0.0
 71
     1
 72
     1
  1
document-No. / RI
  7
CONVERTER_13
 73
     1
 44
1.32052821128451
  0
TEXT
  5
3C2
330
71
100
AcDbEntity
  8
1
 62
     7
100
AcDbText
 10
-27.90890140157134
 20
37.60917989210594
 30
0.0
 40
2.5
  1
00485521
 41
0.81
  7
CONVERTER_12
100
AcDbText
  0
MTEXT
  5
3C4
330
71
100
AcDbEntity
  8
1
 62
     3
100
AcDbMText
 10
59.67669898434097
 20
37.60917989210614
 30
0.0
 40
2.5
 41
0.0
 71
     8
 72
     1
  1
2:1
  7
CONVERTER_14
 73
     1
 44
1.32052821128451
  0
MTEXT
  5
3C5
330
71
100
AcDbEntity
  8
1
 62
     2
100
AcDbMText
 10
56.31749484350138
 20
43.80917989210604
 30
0.0
 40
1.8
 41
0.0
 71
     1
 72
     1
  1
scale
  7
CONVERTER_11
 73
     1
 44
1.20048019207683
  0
MTEXT
  5
3C6
330
71
100
AcDbEntity
  8
1
 62
     2
100
AcDbMText
 10
-27.90890140157134
 20
35.30917989210604
 30
0.0
 40
1.8
 41
0.0
 71
     1
 72
     1
  1
ident.-No.
  7
CONVERTER_11
 73
     1
 44
1.20048019207683
  0
TEXT
  5
3C7
330
71
100
AcDbEntity
  8
1
 62
     7
100
AcDbText
 10
-27.50890140157162
 20
29.10917989210594
 30
0.0
 40
2.5
  1
0202141
 41
0.81
  7
CONVERTER_12
100
AcDbText
  0
MTEXT
  5
3C8
330
71
100
AcDbEntity
  8
1
 62
     2
100
AcDbMText
 10
-99.84691612661885
 20
32.05917989210596
 30
0.0
 40
2.0
 41
0.0
 71
     5
 72
     1
  1
General Information\P- Simplified representation\P- Document excluded from change process\P- Linear dimensions [mm]
  7
CONVERTER_11
 73
     1
 44
1.20048019207683
  0
MTEXT
  5
3C9
330
71
100
AcDbEntity
  8
1
 62
     7
100
AcDbMText
 10
66.63590312517766
 20
94.30917989210795
 30
0.0
 40
3.5
 41
0.0
 71
     5
 72
     1
  1
C
  7
CONVERTER_11
 73
     1
 44
1.20048019207683
  0
MTEXT
  5
3CA
330
71
100
AcDbEntity
  8
1
 62
     7
100
AcDbMText
 10
66.63590312517766
 20
196.809179892106
 30
0.0
 40
3.5
 41
0.0
 71
     5
 72
     1
  1
A
  7
CONVERTER_11
 73
     1
 44
1.20048019207683
  0
MTEXT
  5
3CB
330
71
100
AcDbEntity
  8
1
 62
     7
100
AcDbMText
 10
66.63590312517766
 20
144.309179892108
 30
0.0
 40
3.5
 41
0.0
 71
     5
 72
     1
  1
B
  7
CONVERTER_11
 73
     1
 44
1.20048019207683
  0
MTEXT
  5
3CC
330
71
100
AcDbEntity
  8
1
 62
     7
100
AcDbMText
 10
66.63590312517766
 20
41.80917989210604
 30
0.0
 40
3.5
 41
0.0
 71
     5
 72
     1
  1
D
  7
CONVERTER_11
 73
     1
 44
1.20048019207683
  0
MTEXT
  5
3CD
330
71
100
AcDbEntity
  8
1
 62
     7
100
AcDbMText
 10
-203.6140968748209
 20
16.80917989210593
 30
0.0
 40
3.5
 41
0.0
 71
     5
 72
     1
  1
1
  7
CONVERTER_11
 73
     1
 44
1.20048019207683
  0
MTEXT
  5
3CE
330
71
100
AcDbEntity
  8
1
 62
     7
100
AcDbMText
 10
-154.3640968748213
 20
16.80917989210593
 30
0.0
 40
3.5
 41
0.0
 71
     5
 72
     1
  1
2
  7
CONVERTER_11
 73
     1
 44
1.20048019207683
  0
MTEXT
  5
3CF
330
71
100
AcDbEntity
  8
1
 62
     7
100
AcDbMText
 10
-104.3640968748213
 20
16.80917989210593
 30
0.0
 40
3.5
 41
0.0
 71
     5
 72
     1
  1
3
  7
CONVERTER_11
 73
     1
 44
1.20048019207683
  0
MTEXT
  5
3D0
330
71
100
AcDbEntity
  8
1
 62
     7
100
AcDbMText
 10
-54.36409687482143
 20
16.80917989210593
 30
0.0
 40
3.5
 41
0.0
 71
     5
 72
     1
  1
4
  7
CONVERTER_11
 73
     1
 44
1.20048019207683
  0
MTEXT
  5
3D1
330
71
100
AcDbEntity
  8
1
 62
     7
100
AcDbMText
 10
-4.36409687482134
 20
16.80917989210593
 30
0.0
 40
3.5
 41
0.0
 71
     5
 72
     1
  1
5
  7
CONVERTER_11
 73
     1
 44
1.20048019207683
  0
MTEXT
  5
3D2
330
71
100
AcDbEntity
  8
1
 62
     7
100
AcDbMText
 10
44.88590312517786
 20
16.80917989210593
 30
0.0
 40
3.5
 41
0.0
 71
     5
 72
     1
  1
6
  7
CONVERTER_11
 73
     1
 44
1.20048019207683
  0
MTEXT
  5
3D3
330
71
100
AcDbEntity
  8
1
 62
     7
100
AcDbMText
 10
-225.3640968748204
 20
196.809179892106
 30
0.0
 40
3.5
 41
0.0
 71
     5
 72
     1
  1
A
  7
CONVERTER_11
 73
     1
 44
1.20048019207683
  0
MTEXT
  5
3D4
330
71
100
AcDbEntity
  8
1
 62
     7
100
AcDbMText
 10
-225.3640968748204
 20
144.309179892106
 30
0.0
 40
3.5
 41
0.0
 71
     5
 72
     1
  1
B
  7
CONVERTER_11
 73
     1
 44
1.20048019207683
  0
MTEXT
  5
3D5
330
71
100
AcDbEntity
  8
1
 62
     7
100
AcDbMText
 10
-225.3640968748204
 20
94.30917989210604
 30
0.0
 40
3.5
 41
0.0
 71
     5
 72
     1
  1
C
  7
CONVERTER_11
 73
     1
 44
1.20048019207683
  0
MTEXT
  5
3D6
330
71
100
AcDbEntity
  8
1
 62
     7
100
AcDbMText
 10
-225.3640968748204
 20
41.80917989210604
 30
0.0
 40
3.5
 41
0.0
 71
     5
 72
     1
  1
D
  7
CONVERTER_11
 73
     1
 44
1.20048019207683
  0
MTEXT
  5
3D7
330
71
100
AcDbEntity
  8
1
 62
     3
100
AcDbMText
 10
-39.20890140157144
 20
40.43417989210604
 30
0.0
 40
2.5
 41
0.0
 71
     5
 72
     1
  1
DIN A4
  7
CONVERTER_11
 73
     1
 44
1.20048019207683
  0
MTEXT
  5
3D8
330
71
100
AcDbEntity
  8
1
 62
     2
100
AcDbMText
 10
-28.00890140157142
 20
26.80917989210604
 30
0.0
 40
1.8
 41
0.0
 71
     1
 72
     1
  1
description
  7
CONVERTER_11
 73
     1
 44
1.20048019207683
  0
MTEXT
  5
3D9
330
71
100
AcDbEntity
  8
1
 62
     7
100
AcDbMText
 10
17.56350086180416
 20
22.55917989210627
 30
0.0
 40
3.0
 41
0.0
 71
     5
 72
     1
  1
EB  3- 8
  7
CONVERTER_12
 73
     1
 44
1.20048019207683
  0
TEXT
  5
3DA
330
71
100
AcDbEntity
  8
1
 62
     2
100
AcDbText
 10
-40.97359259175784
 20
20.55917989210593
 30
0.0
 40
1.8
  1
1
 41
0.9
  7
CONVERTER_11
100
AcDbText
  0
TEXT
  5
3DB
330
71
100
AcDbEntity
  8
1
 62
     2
100
AcDbText
 10
-55.76263643122934
 20
20.50993123830403
 30
0.0
 40
1.8
  1
1
 41
0.9
  7
CONVERTER_11
100
AcDbText
  0
TEXT
  5
3DC
330
71
100
AcDbEntity
  8
1
 62
     2
100
AcDbText
 10
-64.40890140157134
 20
20.55016267711437
 30
0.0
 40
1.8
  1
page
 41
0.9
  7
CONVERTER_11
100
AcDbText
  0
TEXT
  5
3DD
330
71
100
AcDbEntity
  8
1
 62
     2
100
AcDbText
 10
-46.20890140157152
 20
20.55016267711443
 30
0.0
 40
1.8
  1
of
 41
0.9
  7
CONVERTER_11
100
AcDbText
  0
MTEXT
  5
3DE
330
71
100
AcDbEntity
  8
1
 62
     3
100
AcDbMText
 10
-40.00591924996144
 20
206.1004880474048
 30
0.0
 40
1.8
 41
0.0
 71
     7
 72
     1
  3
Transfer or duplication of this document as well as the utilisation or\Pcommunication of its content are not permitted unless express consent\Pis granted. Violations give rise to claims for damages. All rights reserved\Pin case of patent, utility mo
  1
del or design patent registrations.
  7
CONVERTER_11
 73
     1
 44
0.99639855942377
  0
MTEXT
  5
3DF
330
71
100
AcDbEntity
  8
1
 62
     3
100
AcDbMText
 10
-222.8590290887495
 20
206.1004880474048
 30
0.0
 40
1.8
 41
0.0
 71
     7
 72
     1
  3
Weitergabe sowie Vervielf\U+00e4ltigung dieses Dokuments, Verwertung und \PMitteilung seines Inhalts sind verboten, soweit nicht ausdr\U+00fccklich gestattet. \PZuwiderhandlungen verpflichten zu Schadenersatz. Alle Rechte f\U+00fcr den Fall\Pder Pat
  1
ent-, Gebrauchsmuster- oder Designeintragung vorbehalten.
  7
CONVERTER_11
 73
     1
 44
0.99639855942377
  0
HATCH
  5
3E0
330
71
100
AcDbEntity
  8
1
  6
Continuous
 62
     2
100
AcDbHatch
 10
0.0
 20
0.0
 30
0.0
210
0.0
220
0.0
230
1.0
  2
_USER
 70
     0
 71
     1
 91
        1
 92
        1
 93
       14
 72
     2
 10
-53.16767212564864
 20
28.12958465402764
 40
1.205656168390937
 50
164.9381082228764
 51
195.0618917770949
 73
     1
 72
     2
 10
-52.74854428218583
 20
28.24237501606245
 40
1.639695123939386
 50
195.0618917770894
 51
275.1581447696393
 73
     1
 72
     2
 10
-53.03740037692174
 20
31.44226559928404
 40
4.852596863498134
 50
275.1581447696249
 51
285.9799912583529
 73
     1
 72
     1
 10
-51.70147245980394
 20
26.77718329348323
 11
-51.70147245980394
 21
27.64970030028644
 72
     2
 10
-52.87952750182882
 20
29.54005101943633
 40
2.227384008972734
 50
58.06909105004065
 51
71.55192388186738
 73
     0
 72
     2
 10
-52.46135976816802
 20
28.28650524339915
 40
0.905929784984916
 50
71.55192388184209
 51
113.3722778881291
 73
     0
 72
     2
 10
-52.61779980087005
 20
27.92451322468915
 40
0.511580060194791
 50
113.3722778881722
 51
151.4785267423037
 73
     0
 72
     2
 10
-52.24044254278974
 20
28.12958465402764
 40
0.9410597353332483
 50
151.4785267422941
 51
208.5214732577333
 73
     0
 72
     2
 10
-52.61779980087005
 20
28.33465608336664
 40
0.5115800601948783
 50
208.5214732576963
 51
246.6277221118017
 73
     0
 72
     2
 10
-52.46135976816802
 20
27.97266406465604
 40
0.9059297849853273
 50
246.6277221118712
 51
288.4480761181459
 73
     0
 72
     2
 10
-52.87952750182882
 20
26.71911828861946
 40
2.227384008973474
 50
288.4480761181326
 51
301.9309089499593
 73
     0
 72
     1
 10
-51.70147245980394
 20
28.60946900776935
 11
-51.70147245980394
 21
29.48198601457264
 72
     2
 10
-53.03740037692174
 20
24.81690370877175
 40
4.852596863498064
 50
74.02000874164737
 51
84.84185523037513
 73
     1
 72
     2
 10
-52.74854428218583
 20
28.01679429199274
 40
1.639695123940506
 50
84.84185523036261
 51
164.9381082228864
 73
     1
 97
       14
330
3B5
330
2CE
330
384
330
3B4
330
385
330
386
330
3B3
330
3B2
330
3B1
330
2CF
330
387
330
388
330
389
330
38A
 75
     1
 76
     0
 52
45.0
 41
0.1
 77
     0
 78
     1
 53
45.0
 43
0.0
 44
0.0
 45
-0.0707106781186548
 46
0.0707106781186548
 79
     0
 98
        1
 10
0.0
 20
0.0
  0
HATCH
  5
3E1
330
71
100
AcDbEntity
  8
1
  6
Continuous
 62
     2
100
AcDbHatch
 10
0.0
 20
0.0
 30
0.0
210
0.0
220
0.0
230
1.0
  2
_USER
 70
     0
 71
     1
 91
        1
 92
        1
 93
       14
 72
     2
 10
-53.16767212564864
 20
28.12958465402764
 40
1.205656168390937
 50
164.9381082228764
 51
195.0618917770949
 73
     1
 72
     2
 10
-52.74854428218583
 20
28.24237501606245
 40
1.639695123939386
 50
195.0618917770894
 51
275.1581447696393
 73
     1
 72
     2
 10
-53.03740037692174
 20
31.44226559928404
 40
4.852596863498134
 50
275.1581447696249
 51
285.9799912583529
 73
     1
 72
     1
 10
-51.70147245980394
 20
26.77718329348323
 11
-51.70147245980394
 21
27.64970030028644
 72
     2
 10
-52.87952750182882
 20
29.54005101943633
 40
2.227384008972734
 50
58.06909105004065
 51
71.55192388186738
 73
     0
 72
     2
 10
-52.46135976816802
 20
28.28650524339915
 40
0.905929784984916
 50
71.55192388184209
 51
113.3722778881291
 73
     0
 72
     2
 10
-52.61779980087005
 20
27.92451322468915
 40
0.511580060194791
 50
113.3722778881722
 51
151.4785267423037
 73
     0
 72
     2
 10
-52.24044254278974
 20
28.12958465402764
 40
0.9410597353332483
 50
151.4785267422941
 51
208.5214732577333
 73
     0
 72
     2
 10
-52.61779980087005
 20
28.33465608336664
 40
0.5115800601948783
 50
208.5214732576963
 51
246.6277221118017
 73
     0
 72
     2
 10
-52.46135976816802
 20
27.97266406465604
 40
0.9059297849853273
 50
246.6277221118712
 51
288.4480761181459
 73
     0
 72
     2
 10
-52.87952750182882
 20
26.71911828861946
 40
2.227384008973474
 50
288.4480761181326
 51
301.9309089499593
 73
     0
 72
     1
 10
-51.70147245980394
 20
28.60946900776935
 11
-51.70147245980394
 21
29.48198601457264
 72
     2
 10
-53.03740037692174
 20
24.81690370877175
 40
4.852596863498064
 50
74.02000874164737
 51
84.84185523037513
 73
     1
 72
     2
 10
-52.74854428218583
 20
28.01679429199274
 40
1.639695123940506
 50
84.84185523036261
 51
164.9381082228864
 73
     1
 97
       14
330
3B5
330
2CE
330
384
330
3B4
330
385
330
386
330
3B3
330
3B2
330
3B1
330
2CF
330
387
330
388
330
389
330
38A
 75
     1
 76
     0
 52
45.0
 41
0.1
 77
     0
 78
     1
 53
45.0
 43
0.0
 44
0.0
 45
-0.0707106781186548
 46
0.0707106781186548
 79
     0
 98
        1
 10
0.0
 20
0.0
  0
HATCH
  5
3E2
330
71
100
AcDbEntity
  8
1
  6
Continuous
 62
     2
100
AcDbHatch
 10
0.0
 20
0.0
 30
0.0
210
0.0
220
0.0
230
1.0
  2
_USER
 70
     0
 71
     1
 91
        1
 92
        1
 93
       18
 72
     2
 10
-36.64584280293292
 20
28.01679429199274
 40
1.639695123940211
 50
90.0
 51
164.938108222895
 73
     1
 72
     2
 10
-37.06497064639453
 20
28.12958465402764
 40
1.205656168393002
 50
164.9381082229028
 51
195.0618917770958
 73
     1
 72
     2
 10
-36.64584280293292
 20
28.24237501606245
 40
1.639695123940446
 50
195.061891777101
 51
275.1581447696762
 73
     1
 72
     2
 10
-36.93469889766874
 20
31.44226559928404
 40
4.852596863498825
 50
275.1581447696364
 51
285.9799912583387
 73
     1
 72
     1
 10
-35.59877098055202
 20
26.77718329348264
 11
-35.59877098055202
 21
27.64970030028596
 72
     2
 10
-36.77682602257593
 20
29.54005101943574
 40
2.227384008972746
 50
58.06909105006029
 51
71.55192388186651
 73
     0
 72
     2
 10
-36.35865828891403
 20
28.28650524339915
 40
0.9059297849852797
 50
71.55192388191827
 51
113.3722778881823
 73
     0
 72
     2
 10
-36.51509832161713
 20
27.92451322468915
 40
0.5115800601960215
 50
113.3722778881561
 51
151.4785267423134
 73
     0
 72
     2
 10
-36.13774106353574
 20
28.12958465402764
 40
0.9410597353348924
 50
151.4785267423305
 51
208.5214732576376
 73
     0
 72
     2
 10
-36.51509832161713
 20
28.33465608336664
 40
0.5115800601944109
 50
208.5214732575775
 51
250.6628567805146
 73
     0
 72
     2
 10
-36.36842832351343
 20
27.91670110298375
 40
0.9545230068261006
 50
250.6628567805679
 51
270.0
 73
     0
 72
     1
 10
-36.36842832351343
 20
28.87122410980985
 11
-35.26478902394533
 21
28.87122410980985
 72
     1
 10
-35.26478902394533
 20
28.87122410980985
 11
-35.26478902394533
 21
26.60267989212235
 72
     1
 10
-35.26478902394533
 20
26.60267989212235
 11
-34.07199632177762
 21
26.60267989212235
 72
     1
 10
-34.07199632177762
 20
26.60267989212235
 11
-34.07199632177762
 21
28.87122410980985
 72
     1
 10
-34.07199632177762
 20
28.87122410980985
 11
-33.26089728430424
 21
28.87122410980985
 72
     1
 10
-33.26089728430424
 20
28.87122410980985
 11
-33.26089728430424
 21
29.65648941593344
 72
     1
 10
-33.26089728430424
 20
29.65648941593344
 11
-36.64584280293292
 21
29.65648941593295
 97
       18
330
334
330
333
330
332
330
331
330
336
330
2D0
330
3AE
330
38F
330
3AD
330
390
330
3AC
330
3AB
330
2D1
330
3AA
330
3A9
330
391
330
392
330
335
 75
     1
 76
     0
 52
45.0
 41
0.1
 77
     0
 78
     1
 53
45.0
 43
0.0
 44
0.0
 45
-0.0707106781186548
 46
0.0707106781186548
 79
     0
 98
        1
 10
0.0
 20
0.0
  0
HATCH
  5
3E3
330
71
100
AcDbEntity
  8
1
  6
Continuous
 62
     2
100
AcDbHatch
 10
0.0
 20
0.0
 30
0.0
210
0.0
220
0.0
230
1.0
  2
_USER
 70
     0
 71
     1
 91
        1
 92
        1
 93
       18
 72
     2
 10
-36.64584280293292
 20
28.01679429199274
 40
1.639695123940211
 50
90.0
 51
164.938108222895
 73
     1
 72
     2
 10
-37.06497064639453
 20
28.12958465402764
 40
1.205656168393002
 50
164.9381082229028
 51
195.0618917770958
 73
     1
 72
     2
 10
-36.64584280293292
 20
28.24237501606245
 40
1.639695123940446
 50
195.061891777101
 51
275.1581447696762
 73
     1
 72
     2
 10
-36.93469889766874
 20
31.44226559928404
 40
4.852596863498825
 50
275.1581447696364
 51
285.9799912583387
 73
     1
 72
     1
 10
-35.59877098055202
 20
26.77718329348264
 11
-35.59877098055202
 21
27.64970030028596
 72
     2
 10
-36.77682602257593
 20
29.54005101943574
 40
2.227384008972746
 50
58.06909105006029
 51
71.55192388186651
 73
     0
 72
     2
 10
-36.35865828891403
 20
28.28650524339915
 40
0.9059297849852797
 50
71.55192388191827
 51
113.3722778881823
 73
     0
 72
     2
 10
-36.51509832161713
 20
27.92451322468915
 40
0.5115800601960215
 50
113.3722778881561
 51
151.4785267423134
 73
     0
 72
     2
 10
-36.13774106353574
 20
28.12958465402764
 40
0.9410597353348924
 50
151.4785267423305
 51
208.5214732576376
 73
     0
 72
     2
 10
-36.51509832161713
 20
28.33465608336664
 40
0.5115800601944109
 50
208.5214732575775
 51
250.6628567805146
 73
     0
 72
     2
 10
-36.36842832351343
 20
27.91670110298375
 40
0.9545230068261006
 50
250.6628567805679
 51
270.0
 73
     0
 72
     1
 10
-36.36842832351343
 20
28.87122410980985
 11
-35.26478902394533
 21
28.87122410980985
 72
     1
 10
-35.26478902394533
 20
28.87122410980985
 11
-35.26478902394533
 21
26.60267989212235
 72
     1
 10
-35.26478902394533
 20
26.60267989212235
 11
-34.07199632177762
 21
26.60267989212235
 72
     1
 10
-34.07199632177762
 20
26.60267989212235
 11
-34.07199632177762
 21
28.87122410980985
 72
     1
 10
-34.07199632177762
 20
28.87122410980985
 11
-33.26089728430424
 21
28.87122410980985
 72
     1
 10
-33.26089728430424
 20
28.87122410980985
 11
-33.26089728430424
 21
29.65648941593344
 72
     1
 10
-33.26089728430424
 20
29.65648941593344
 11
-36.64584280293292
 21
29.65648941593295
 97
       18
330
334
330
333
330
332
330
331
330
336
330
2D0
330
3AE
330
38F
330
3AD
330
390
330
3AC
330
3AB
330
2D1
330
3AA
330
3A9
330
391
330
392
330
335
 75
     1
 76
     0
 52
45.0
 41
0.1
 77
     0
 78
     1
 53
45.0
 43
0.0
 44
0.0
 45
-0.0707106781186548
 46
0.0707106781186548
 79
     0
 98
        1
 10
0.0
 20
0.0
  0
HATCH
  5
3E4
330
71
100
AcDbEntity
  8
1
  6
Continuous
 62
     2
100
AcDbHatch
 10
0.0
 20
0.0
 30
0.0
210
0.0
220
0.0
230
1.0
  2
_USER
 70
     0
 71
     1
 91
        4
 92
        1
 93
        8
 72
     2
 10
-60.74800189962593
 20
32.59143527670585
 40
0.4242446153837989
 50
90.0
 51
180.0
 73
     1
 72
     1
 10
-61.17224651500874
 20
32.59143527670585
 11
-61.17224651500874
 21
27.02692450750564
 72
     2
 10
-60.74800189962593
 20
27.02692450750564
 40
0.4242446153828041
 50
180.0
 51
270.0
 73
     1
 72
     1
 10
-60.74800189962593
 20
26.60267989212235
 11
-55.27468980890913
 21
26.60267989212235
 72
     2
 10
-55.27468980890913
 20
27.02692450750564
 40
0.4242446153832908
 50
270.0
 51
360.0
 73
     1
 72
     1
 10
-54.85044519352525
 20
27.02692450750564
 11
-54.85044519352525
 21
32.59143527670585
 72
     2
 10
-55.27468980890913
 20
32.59143527670585
 40
0.424244615383877
 50
0.0
 51
90.0
 73
     1
 72
     1
 10
-55.27468980890913
 20
33.01567989208965
 11
-60.74800189962593
 21
33.01567989208965
 97
        8
330
3A2
330
2FF
330
3A1
330
300
330
398
330
2FD
330
3A3
330
2FE
 92
       16
 93
        1
 72
     2
 10
-58.12841624910843
 20
30.27255304835035
 40
0.4709789327785145
 50
0.0
 51
360.0
 73
     1
 97
        1
330
3B6
 92
       16
 93
        8
 72
     2
 10
-58.10460123443562
 20
30.27255304835035
 40
0.9118481501444557
 50
295.3740086781766
 51
424.6259913218074
 73
     1
 72
     2
 10
-57.57855853634774
 20
31.38169464831816
 40
0.3157169230767849
 50
115.3740086783518
 51
180.0
 73
     0
 72
     1
 10
-57.89427545942453
 20
31.38169464831816
 11
-57.89427545942453
 21
31.98722993682495
 72
     2
 10
-57.57855853634774
 20
31.98722993682495
 40
0.3157169230760675
 50
180.0
 51
269.8110329574541
 73
     0
 72
     2
 10
-57.57294240103772
 20
30.28439498925584
 40
2.018561131933259
 50
269.8110329575858
 51
450.1889670424142
 73
     0
 72
     2
 10
-57.57855853634774
 20
28.58156004168686
 40
0.3157169230767849
 50
90.18896704254585
 51
180.0
 73
     0
 72
     1
 10
-57.89427545942453
 20
28.58156004168686
 11
-57.89427545942453
 21
29.16341144838194
 72
     2
 10
-57.57855853634774
 20
29.16341144838194
 40
0.315716923076536
 50
180.0
 51
244.6259913216484
 73
     0
 97
        8
330
3B0
330
38C
330
338
330
3AF
330
38D
330
38E
330
337
330
38B
 92
       16
 93
       12
 72
     1
 10
-60.15410722287945
 20
27.31523544767924
 11
-58.67827396186982
 21
27.31523544767924
 72
     2
 10
-58.67827396186982
 20
27.63095237075595
 40
0.3157169230767103
 50
270.0
 51
360.0
 73
     1
 72
     1
 10
-58.36255703879323
 20
27.63095237075595
 11
-58.36255703879323
 21
29.16172330228756
 72
     2
 10
-58.67827396186982
 20
29.16172330228756
 40
0.315716923076593
 50
0.0
 51
64.80558935146027
 73
     1
 72
     2
 10
-58.15568951429484
 20
30.27255304835035
 40
0.9118975235576084
 50
115.1944106485118
 51
244.8055893514721
 73
     0
 72
     2
 10
-58.67827396186982
 20
31.38338279441254
 40
0.3157169230761203
 50
295.1944106485397
 51
360.0
 73
     1
 72
     1
 10
-58.36255703879323
 20
31.38338279441254
 11
-58.36255703879323
 21
31.98740741347305
 72
     2
 10
-58.67827396186982
 20
31.98740741347305
 40
0.315716923076593
 50
0.0
 51
90.0
 73
     1
 72
     1
 10
-58.67827396186982
 20
32.30312433654925
 11
-60.15410722287945
 21
32.30312433654925
 72
     2
 10
-60.15410722287945
 20
31.98740741347305
 40
0.3157169230762022
 50
90.0
 51
180.0
 73
     1
 72
     1
 10
-60.46982414595513
 20
31.98740741347305
 11
-60.46982414595513
 21
27.63095237075595
 72
     2
 10
-60.15410722287945
 20
27.63095237075595
 40
0.3157169230756764
 50
180.0
 51
270.0
 73
     1
 97
       12
330
304
330
395
330
303
330
3A6
330
302
330
3A5
330
396
330
397
330
301
330
3A4
330
2FC
330
3A7
 75
     1
 76
     0
 52
45.0
 41
0.1
 77
     0
 78
     1
 53
45.0
 43
0.0
 44
0.0
 45
-0.0707106781186548
 46
0.0707106781186548
 79
     0
 98
        1
 10
0.0
 20
0.0
  0
HATCH
  5
3E5
330
71
100
AcDbEntity
  8
1
  6
Continuous
 62
     2
100
AcDbHatch
 10
0.0
 20
0.0
 30
0.0
210
0.0
220
0.0
230
1.0
  2
_USER
 70
     0
 71
     1
 91
        4
 92
        1
 93
        8
 72
     2
 10
-60.74800189962593
 20
32.59143527670585
 40
0.4242446153837989
 50
90.0
 51
180.0
 73
     1
 72
     1
 10
-61.17224651500874
 20
32.59143527670585
 11
-61.17224651500874
 21
27.02692450750564
 72
     2
 10
-60.74800189962593
 20
27.02692450750564
 40
0.4242446153828041
 50
180.0
 51
270.0
 73
     1
 72
     1
 10
-60.74800189962593
 20
26.60267989212235
 11
-55.27468980890913
 21
26.60267989212235
 72
     2
 10
-55.27468980890913
 20
27.02692450750564
 40
0.4242446153832908
 50
270.0
 51
360.0
 73
     1
 72
     1
 10
-54.85044519352525
 20
27.02692450750564
 11
-54.85044519352525
 21
32.59143527670585
 72
     2
 10
-55.27468980890913
 20
32.59143527670585
 40
0.424244615383877
 50
0.0
 51
90.0
 73
     1
 72
     1
 10
-55.27468980890913
 20
33.01567989208965
 11
-60.74800189962593
 21
33.01567989208965
 97
        8
330
3A2
330
2FF
330
3A1
330
300
330
398
330
2FD
330
3A3
330
2FE
 92
       16
 93
        1
 72
     2
 10
-58.12841624910843
 20
30.27255304835035
 40
0.4709789327785145
 50
0.0
 51
360.0
 73
     1
 97
        1
330
3B6
 92
       16
 93
        8
 72
     2
 10
-58.10460123443562
 20
30.27255304835035
 40
0.9118481501444557
 50
295.3740086781766
 51
424.6259913218074
 73
     1
 72
     2
 10
-57.57855853634774
 20
31.38169464831816
 40
0.3157169230767849
 50
115.3740086783518
 51
180.0
 73
     0
 72
     1
 10
-57.89427545942453
 20
31.38169464831816
 11
-57.89427545942453
 21
31.98722993682495
 72
     2
 10
-57.57855853634774
 20
31.98722993682495
 40
0.3157169230760675
 50
180.0
 51
269.8110329574541
 73
     0
 72
     2
 10
-57.57294240103772
 20
30.28439498925584
 40
2.018561131933259
 50
269.8110329575858
 51
450.1889670424142
 73
     0
 72
     2
 10
-57.57855853634774
 20
28.58156004168686
 40
0.3157169230767849
 50
90.18896704254585
 51
180.0
 73
     0
 72
     1
 10
-57.89427545942453
 20
28.58156004168686
 11
-57.89427545942453
 21
29.16341144838194
 72
     2
 10
-57.57855853634774
 20
29.16341144838194
 40
0.315716923076536
 50
180.0
 51
244.6259913216484
 73
     0
 97
        8
330
3B0
330
38C
330
338
330
3AF
330
38D
330
38E
330
337
330
38B
 92
       16
 93
       12
 72
     1
 10
-60.15410722287945
 20
27.31523544767924
 11
-58.67827396186982
 21
27.31523544767924
 72
     2
 10
-58.67827396186982
 20
27.63095237075595
 40
0.3157169230767103
 50
270.0
 51
360.0
 73
     1
 72
     1
 10
-58.36255703879323
 20
27.63095237075595
 11
-58.36255703879323
 21
29.16172330228756
 72
     2
 10
-58.67827396186982
 20
29.16172330228756
 40
0.315716923076593
 50
0.0
 51
64.80558935146027
 73
     1
 72
     2
 10
-58.15568951429484
 20
30.27255304835035
 40
0.9118975235576084
 50
115.1944106485118
 51
244.8055893514721
 73
     0
 72
     2
 10
-58.67827396186982
 20
31.38338279441254
 40
0.3157169230761203
 50
295.1944106485397
 51
360.0
 73
     1
 72
     1
 10
-58.36255703879323
 20
31.38338279441254
 11
-58.36255703879323
 21
31.98740741347305
 72
     2
 10
-58.67827396186982
 20
31.98740741347305
 40
0.315716923076593
 50
0.0
 51
90.0
 73
     1
 72
     1
 10
-58.67827396186982
 20
32.30312433654925
 11
-60.15410722287945
 21
32.30312433654925
 72
     2
 10
-60.15410722287945
 20
31.98740741347305
 40
0.3157169230762022
 50
90.0
 51
180.0
 73
     1
 72
     1
 10
-60.46982414595513
 20
31.98740741347305
 11
-60.46982414595513
 21
27.63095237075595
 72
     2
 10
-60.15410722287945
 20
27.63095237075595
 40
0.3157169230756764
 50
180.0
 51
270.0
 73
     1
 97
       12
330
304
330
395
330
303
330
3A6
330
302
330
3A5
330
396
330
397
330
301
330
3A4
330
2FC
330
3A7
 75
     1
 76
     0
 52
45.0
 41
0.1
 77
     0
 78
     1
 53
45.0
 43
0.0
 44
0.0
 45
-0.0707106781186548
 46
0.0707106781186548
 79
     0
 98
        1
 10
0.0
 20
0.0
  0
HATCH
  5
3E6
330
71
100
AcDbEntity
  8
1
  6
Continuous
 62
     2
100
AcDbHatch
 10
0.0
 20
0.0
 30
0.0
210
0.0
220
0.0
230
1.0
  2
_USER
 70
     0
 71
     1
 91
        2
 92
        1
 93
       12
 72
     2
 10
-46.07283789563664
 20
31.48877513020196
 40
1.526904761905879
 50
90.0
 51
270.0
 73
     1
 72
     1
 10
-46.07283789563664
 20
29.96187036829664
 11
-42.92251817185564
 21
29.96187036829664
 72
     1
 10
-42.92251817185564
 20
29.96187036829664
 11
-42.92251817185564
 21
30.65988397373914
 72
     1
 10
-42.92251817185564
 20
30.65988397373914
 11
-44.25844599828332
 21
30.65988397373914
 72
     1
 10
-44.25844599828332
 20
30.65988397373914
 11
-44.25844599828332
 21
31.13976832748085
 72
     1
 10
-44.25844599828332
 20
31.13976832748085
 11
-42.92251817185564
 21
31.13976832748085
 72
     1
 10
-42.92251817185564
 20
31.13976832748085
 11
-42.92251817185564
 21
31.83778193292315
 72
     1
 10
-42.92251817185564
 20
31.83778193292315
 11
-44.25844599828332
 21
31.83778193292315
 72
     1
 10
-44.25844599828332
 20
31.83778193292315
 11
-44.25844599828332
 21
32.31766628666486
 72
     1
 10
-44.25844599828332
 20
32.31766628666486
 11
-42.92251817185564
 21
32.31766628666486
 72
     1
 10
-42.92251817185564
 20
32.31766628666486
 11
-42.92251817185564
 21
33.01567989210784
 72
     1
 10
-42.92251817185564
 20
33.01567989210784
 11
-46.07283789563664
 21
33.01567989210784
 97
       12
330
2F3
330
2ED
330
314
330
313
330
312
330
311
330
2EE
330
2EF
330
2F0
330
2F1
330
393
330
2F2
 92
       16
 93
        4
 72
     2
 10
-45.65682584912514
 20
31.48877513020196
 40
0.7717997786796724
 50
141.8795802028404
 51
218.1204197971562
 73
     1
 72
     2
 10
-45.85656588547144
 20
31.33204395208153
 40
0.5179085730134327
 50
218.1204197971505
 51
321.8795802028578
 73
     1
 72
     2
 10
-46.05630592181763
 20
31.48877513020196
 40
0.7717997786796486
 50
321.8795802028444
 51
398.1204197971589
 73
     1
 72
     2
 10
-45.85656588547144
 20
31.64550630832244
 40
0.5179085730135343
 50
38.12041979714316
 51
141.8795802028486
 73
     1
 97
        4
330
3A0
330
39F
330
39A
330
399
 75
     1
 76
     0
 52
45.0
 41
0.1
 77
     0
 78
     1
 53
45.0
 43
0.0
 44
0.0
 45
-0.0707106781186548
 46
0.0707106781186548
 79
     0
 98
        1
 10
0.0
 20
0.0
  0
HATCH
  5
3E7
330
71
100
AcDbEntity
  8
1
  6
Continuous
 62
     2
100
AcDbHatch
 10
0.0
 20
0.0
 30
0.0
210
0.0
220
0.0
230
1.0
  2
_USER
 70
     0
 71
     1
 91
        2
 92
        1
 93
       12
 72
     2
 10
-46.07283789563664
 20
31.48877513020196
 40
1.526904761905879
 50
90.0
 51
270.0
 73
     1
 72
     1
 10
-46.07283789563664
 20
29.96187036829664
 11
-42.92251817185564
 21
29.96187036829664
 72
     1
 10
-42.92251817185564
 20
29.96187036829664
 11
-42.92251817185564
 21
30.65988397373914
 72
     1
 10
-42.92251817185564
 20
30.65988397373914
 11
-44.25844599828332
 21
30.65988397373914
 72
     1
 10
-44.25844599828332
 20
30.65988397373914
 11
-44.25844599828332
 21
31.13976832748085
 72
     1
 10
-44.25844599828332
 20
31.13976832748085
 11
-42.92251817185564
 21
31.13976832748085
 72
     1
 10
-42.92251817185564
 20
31.13976832748085
 11
-42.92251817185564
 21
31.83778193292315
 72
     1
 10
-42.92251817185564
 20
31.83778193292315
 11
-44.25844599828332
 21
31.83778193292315
 72
     1
 10
-44.25844599828332
 20
31.83778193292315
 11
-44.25844599828332
 21
32.31766628666486
 72
     1
 10
-44.25844599828332
 20
32.31766628666486
 11
-42.92251817185564
 21
32.31766628666486
 72
     1
 10
-42.92251817185564
 20
32.31766628666486
 11
-42.92251817185564
 21
33.01567989210784
 72
     1
 10
-42.92251817185564
 20
33.01567989210784
 11
-46.07283789563664
 21
33.01567989210784
 97
       12
330
2F3
330
2ED
330
314
330
313
330
312
330
311
330
2EE
330
2EF
330
2F0
330
2F1
330
393
330
2F2
 92
       16
 93
        4
 72
     2
 10
-45.65682584912514
 20
31.48877513020196
 40
0.7717997786796724
 50
141.8795802028404
 51
218.1204197971562
 73
     1
 72
     2
 10
-45.85656588547144
 20
31.33204395208153
 40
0.5179085730134327
 50
218.1204197971505
 51
321.8795802028578
 73
     1
 72
     2
 10
-46.05630592181763
 20
31.48877513020196
 40
0.7717997786796486
 50
321.8795802028444
 51
398.1204197971589
 73
     1
 72
     2
 10
-45.85656588547144
 20
31.64550630832244
 40
0.5179085730135343
 50
38.12041979714316
 51
141.8795802028486
 73
     1
 97
        4
330
3A0
330
39F
330
39A
330
399
 75
     1
 76
     0
 52
45.0
 41
0.1
 77
     0
 78
     1
 53
45.0
 43
0.0
 44
0.0
 45
-0.0707106781186548
 46
0.0707106781186548
 79
     0
 98
        1
 10
0.0
 20
0.0
  0
HATCH
  5
3E8
330
71
100
AcDbEntity
  8
1
  6
Continuous
 62
     2
100
AcDbHatch
 10
0.0
 20
0.0
 30
0.0
210
0.0
220
0.0
230
1.0
  2
_USER
 70
     0
 71
     1
 91
        2
 92
        1
 93
        4
 72
     2
 10
-50.09845325809823
 20
28.12958465402764
 40
1.458034083651493
 50
117.5481481756624
 51
242.4518518243375
 73
     1
 72
     2
 10
-49.81751336626493
 20
28.66815966433094
 40
2.065479772208505
 50
242.4518518243401
 51
297.5481481756871
 73
     1
 72
     2
 10
-49.53657347443163
 20
28.12958465402764
 40
1.458034083651999
 50
297.5481481757009
 51
422.4518518242993
 73
     1
 72
     2
 10
-49.81751336626493
 20
27.59100964372485
 40
2.065479772208568
 50
62.45185182430637
 51
117.5481481756664
 73
     1
 97
        4
330
39E
330
39B
330
39D
330
39C
 92
       16
 93
        4
 72
     2
 10
-49.81751336626493
 20
28.28631583214815
 40
0.5179085730132899
 50
38.1204197971469
 51
141.8795802028599
 73
     1
 72
     2
 10
-49.61777332991883
 20
28.12958465402764
 40
0.7717997786794666
 50
141.8795802028368
 51
218.1204197971684
 73
     1
 72
     2
 10
-49.81751336626493
 20
27.97285347590764
 40
0.5179085730137409
 50
218.1204197971927
 51
321.8795802028005
 73
     1
 72
     2
 10
-50.01725340261135
 20
28.12958465402764
 40
0.7717997786796947
 50
321.8795802028417
 51
398.120419797153
 73
     1
 97
        4
330
381
330
382
330
383
330
380
 75
     1
 76
     0
 52
45.0
 41
0.1
 77
     0
 78
     1
 53
45.0
 43
0.0
 44
0.0
 45
-0.0707106781186548
 46
0.0707106781186548
 79
     0
 98
        1
 10
0.0
 20
0.0
  0
HATCH
  5
3E9
330
71
100
AcDbEntity
  8
1
  6
Continuous
 62
     2
100
AcDbHatch
 10
0.0
 20
0.0
 30
0.0
210
0.0
220
0.0
230
1.0
  2
_USER
 70
     0
 71
     1
 91
        2
 92
        1
 93
        4
 72
     2
 10
-50.09845325809823
 20
28.12958465402764
 40
1.458034083651493
 50
117.5481481756624
 51
242.4518518243375
 73
     1
 72
     2
 10
-49.81751336626493
 20
28.66815966433094
 40
2.065479772208505
 50
242.4518518243401
 51
297.5481481756871
 73
     1
 72
     2
 10
-49.53657347443163
 20
28.12958465402764
 40
1.458034083651999
 50
297.5481481757009
 51
422.4518518242993
 73
     1
 72
     2
 10
-49.81751336626493
 20
27.59100964372485
 40
2.065479772208568
 50
62.45185182430637
 51
117.5481481756664
 73
     1
 97
        4
330
39E
330
39B
330
39D
330
39C
 92
       16
 93
        4
 72
     2
 10
-49.81751336626493
 20
28.28631583214815
 40
0.5179085730132899
 50
38.1204197971469
 51
141.8795802028599
 73
     1
 72
     2
 10
-49.61777332991883
 20
28.12958465402764
 40
0.7717997786794666
 50
141.8795802028368
 51
218.1204197971684
 73
     1
 72
     2
 10
-49.81751336626493
 20
27.97285347590764
 40
0.5179085730137409
 50
218.1204197971927
 51
321.8795802028005
 73
     1
 72
     2
 10
-50.01725340261135
 20
28.12958465402764
 40
0.7717997786796947
 50
321.8795802028417
 51
398.120419797153
 73
     1
 97
        4
330
381
330
382
330
383
330
380
 75
     1
 76
     0
 52
45.0
 41
0.1
 77
     0
 78
     1
 53
45.0
 43
0.0
 44
0.0
 45
-0.0707106781186548
 46
0.0707106781186548
 79
     0
 98
        1
 10
0.0
 20
0.0
  0
HATCH
  5
3EA
330
71
100
AcDbEntity
  8
1
  6
Continuous
 62
     2
100
AcDbHatch
 10
0.0
 20
0.0
 30
0.0
210
0.0
220
0.0
230
1.0
  2
_USER
 70
     0
 71
     1
 91
        2
 92
        1
 93
        6
 72
     1
 10
-54.37332811265844
 20
33.01567989210784
 11
-54.37332811265844
 21
29.96187036829664
 72
     1
 10
-54.37332811265844
 20
29.96187036829664
 11
-53.13282370240432
 21
29.96187036829664
 72
     1
 10
-53.13282370240432
 20
29.96187036829664
 11
-53.13282370240432
 21
30.90494860944045
 72
     1
 10
-53.13282370240432
 20
30.90494860944045
 11
-52.37405611462404
 21
30.90494860944045
 72
     2
 10
-52.37405611462404
 20
31.96031425077416
 40
1.055365641333712
 50
270.0
 51
450.0
 73
     1
 72
     1
 10
-52.37405611462404
 20
33.01567989210784
 11
-54.37332811265844
 21
33.01567989210784
 97
        6
330
3A8
330
305
330
2FB
330
2FA
330
307
330
306
 92
       16
 93
        4
 72
     1
 10
-52.81552864086243
 20
32.35257404666774
 11
-53.13282370240432
 21
32.35257404666774
 72
     1
 10
-53.13282370240432
 20
32.35257404666774
 11
-53.13282370240432
 21
31.64684639732553
 72
     1
 10
-53.13282370240432
 20
31.64684639732553
 11
-52.81552864086243
 21
31.64684639732553
 72
     2
 10
-52.81552864086243
 20
31.99971022199665
 40
0.3528638246711218
 50
270.0
 51
450.0
 73
     1
 97
        4
330
308
330
2F9
330
309
330
394
 75
     1
 76
     0
 52
45.0
 41
0.1
 77
     0
 78
     1
 53
45.0
 43
0.0
 44
0.0
 45
-0.0707106781186548
 46
0.0707106781186548
 79
     0
 98
        1
 10
0.0
 20
0.0
  0
HATCH
  5
3EB
330
71
100
AcDbEntity
  8
1
  6
Continuous
 62
     2
100
AcDbHatch
 10
0.0
 20
0.0
 30
0.0
210
0.0
220
0.0
230
1.0
  2
_USER
 70
     0
 71
     1
 91
        2
 92
        1
 93
        6
 72
     1
 10
-54.37332811265844
 20
33.01567989210784
 11
-54.37332811265844
 21
29.96187036829664
 72
     1
 10
-54.37332811265844
 20
29.96187036829664
 11
-53.13282370240432
 21
29.96187036829664
 72
     1
 10
-53.13282370240432
 20
29.96187036829664
 11
-53.13282370240432
 21
30.90494860944045
 72
     1
 10
-53.13282370240432
 20
30.90494860944045
 11
-52.37405611462404
 21
30.90494860944045
 72
     2
 10
-52.37405611462404
 20
31.96031425077416
 40
1.055365641333712
 50
270.0
 51
450.0
 73
     1
 72
     1
 10
-52.37405611462404
 20
33.01567989210784
 11
-54.37332811265844
 21
33.01567989210784
 97
        6
330
3A8
330
305
330
2FB
330
2FA
330
307
330
306
 92
       16
 93
        4
 72
     1
 10
-52.81552864086243
 20
32.35257404666774
 11
-53.13282370240432
 21
32.35257404666774
 72
     1
 10
-53.13282370240432
 20
32.35257404666774
 11
-53.13282370240432
 21
31.64684639732553
 72
     1
 10
-53.13282370240432
 20
31.64684639732553
 11
-52.81552864086243
 21
31.64684639732553
 72
     2
 10
-52.81552864086243
 20
31.99971022199665
 40
0.3528638246711218
 50
270.0
 51
450.0
 73
     1
 97
        4
330
308
330
2F9
330
309
330
394
 75
     1
 76
     0
 52
45.0
 41
0.1
 77
     0
 78
     1
 53
45.0
 43
0.0
 44
0.0
 45
-0.0707106781186548
 46
0.0707106781186548
 79
     0
 98
        1
 10
0.0
 20
0.0
  0
HATCH
  5
3EC
330
71
100
AcDbEntity
  8
1
  6
Continuous
 62
     2
100
AcDbHatch
 10
0.0
 20
0.0
 30
0.0
210
0.0
220
0.0
230
1.0
  2
_USER
 70
     0
 71
     1
 91
        1
 92
        1
 93
       12
 72
     1
 10
-34.75904491822524
 20
33.01567989210784
 11
-33.35632070047802
 21
33.01567989210784
 72
     1
 10
-33.35632070047802
 20
33.01567989210784
 11
-34.65885033124454
 21
31.54272936207164
 72
     1
 10
-34.65885033124454
 20
31.54272936207164
 11
-33.26089728430424
 21
29.96187036829664
 72
     1
 10
-33.26089728430424
 20
29.96187036829664
 11
-34.66362150205254
 21
29.96187036829664
 72
     1
 10
-34.66362150205254
 20
29.96187036829664
 11
-35.36021244011803
 21
30.74960215359036
 72
     1
 10
-35.36021244011803
 20
30.74960215359036
 11
-36.05680337818373
 21
29.96187036829664
 72
     1
 10
-36.05680337818373
 20
29.96187036829664
 11
-37.45952759593195
 21
29.96187036829664
 72
     1
 10
-37.45952759593195
 20
29.96187036829664
 11
-36.06157454899164
 21
31.54272936207164
 72
     1
 10
-36.06157454899164
 20
31.54272936207164
 11
-37.36410417975912
 21
33.01567989210784
 72
     1
 10
-37.36410417975912
 20
33.01567989210784
 11
-35.96137996200983
 21
33.01567989210784
 72
     1
 10
-35.96137996200983
 20
33.01567989210784
 11
-35.36021244011803
 21
32.33585657055235
 72
     1
 10
-35.36021244011803
 20
32.33585657055235
 11
-34.75904491822524
 21
33.01567989210784
 97
       12
330
2D4
330
32D
330
32C
330
32B
330
32A
330
2D5
330
2D6
330
2D2
330
2D3
330
330
330
32F
330
32E
 75
     1
 76
     0
 52
45.0
 41
0.1
 77
     0
 78
     1
 53
45.0
 43
0.0
 44
0.0
 45
-0.0707106781186548
 46
0.0707106781186548
 79
     0
 98
        1
 10
0.0
 20
0.0
  0
HATCH
  5
3ED
330
71
100
AcDbEntity
  8
1
  6
Continuous
 62
     2
100
AcDbHatch
 10
0.0
 20
0.0
 30
0.0
210
0.0
220
0.0
230
1.0
  2
_USER
 70
     0
 71
     1
 91
        1
 92
        1
 93
       12
 72
     1
 10
-34.75904491822524
 20
33.01567989210784
 11
-33.35632070047802
 21
33.01567989210784
 72
     1
 10
-33.35632070047802
 20
33.01567989210784
 11
-34.65885033124454
 21
31.54272936207164
 72
     1
 10
-34.65885033124454
 20
31.54272936207164
 11
-33.26089728430424
 21
29.96187036829664
 72
     1
 10
-33.26089728430424
 20
29.96187036829664
 11
-34.66362150205254
 21
29.96187036829664
 72
     1
 10
-34.66362150205254
 20
29.96187036829664
 11
-35.36021244011803
 21
30.74960215359036
 72
     1
 10
-35.36021244011803
 20
30.74960215359036
 11
-36.05680337818373
 21
29.96187036829664
 72
     1
 10
-36.05680337818373
 20
29.96187036829664
 11
-37.45952759593195
 21
29.96187036829664
 72
     1
 10
-37.45952759593195
 20
29.96187036829664
 11
-36.06157454899164
 21
31.54272936207164
 72
     1
 10
-36.06157454899164
 20
31.54272936207164
 11
-37.36410417975912
 21
33.01567989210784
 72
     1
 10
-37.36410417975912
 20
33.01567989210784
 11
-35.96137996200983
 21
33.01567989210784
 72
     1
 10
-35.96137996200983
 20
33.01567989210784
 11
-35.36021244011803
 21
32.33585657055235
 72
     1
 10
-35.36021244011803
 20
32.33585657055235
 11
-34.75904491822524
 21
33.01567989210784
 97
       12
330
2D4
330
32D
330
32C
330
32B
330
32A
330
2D5
330
2D6
330
2D2
330
2D3
330
330
330
32F
330
32E
 75
     1
 76
     0
 52
45.0
 41
0.1
 77
     0
 78
     1
 53
45.0
 43
0.0
 44
0.0
 45
-0.0707106781186548
 46
0.0707106781186548
 79
     0
 98
        1
 10
0.0
 20
0.0
  0
HATCH
  5
3EE
330
71
100
AcDbEntity
  8
1
  6
Continuous
 62
     2
100
AcDbHatch
 10
0.0
 20
0.0
 30
0.0
210
0.0
220
0.0
230
1.0
  2
_USER
 70
     0
 71
     1
 91
        1
 92
        1
 93
        4
 72
     1
 10
-37.57880686614882
 20
33.01567989210784
 11
-37.57880686614882
 21
29.96187036829664
 72
     1
 10
-37.57880686614882
 20
29.96187036829664
 11
-38.81931127640172
 21
29.96187036829664
 72
     1
 10
-38.81931127640172
 20
29.96187036829664
 11
-38.81931127640172
 21
33.01567989210784
 72
     1
 10
-38.81931127640172
 20
33.01567989210784
 11
-37.57880686614882
 21
33.01567989210784
 97
        4
330
328
330
2D7
330
327
330
329
 75
     1
 76
     0
 52
45.0
 41
0.1
 77
     0
 78
     1
 53
45.0
 43
0.0
 44
0.0
 45
-0.0707106781186548
 46
0.0707106781186548
 79
     0
 98
        1
 10
0.0
 20
0.0
  0
HATCH
  5
3EF
330
71
100
AcDbEntity
  8
1
  6
Continuous
 62
     2
100
AcDbHatch
 10
0.0
 20
0.0
 30
0.0
210
0.0
220
0.0
230
1.0
  2
_USER
 70
     0
 71
     1
 91
        1
 92
        1
 93
        4
 72
     1
 10
-37.57880686614882
 20
33.01567989210784
 11
-37.57880686614882
 21
29.96187036829664
 72
     1
 10
-37.57880686614882
 20
29.96187036829664
 11
-38.81931127640172
 21
29.96187036829664
 72
     1
 10
-38.81931127640172
 20
29.96187036829664
 11
-38.81931127640172
 21
33.01567989210784
 72
     1
 10
-38.81931127640172
 20
33.01567989210784
 11
-37.57880686614882
 21
33.01567989210784
 97
        4
330
328
330
2D7
330
327
330
329
 75
     1
 76
     0
 52
45.0
 41
0.1
 77
     0
 78
     1
 53
45.0
 43
0.0
 44
0.0
 45
-0.0707106781186548
 46
0.0707106781186548
 79
     0
 98
        1
 10
0.0
 20
0.0
  0
HATCH
  5
3F0
330
71
100
AcDbEntity
  8
1
  6
Continuous
 62
     2
100
AcDbHatch
 10
0.0
 20
0.0
 30
0.0
210
0.0
220
0.0
230
1.0
  2
_USER
 70
     0
 71
     1
 91
        2
 92
        1
 93
        8
 72
     1
 10
-37.96925086968082
 20
26.60267989212235
 11
-39.20975527993474
 21
26.60267989212235
 72
     1
 10
-39.20975527993474
 20
26.60267989212235
 11
-39.42123533341052
 21
27.14364043634024
 72
     1
 10
-39.42123533341052
 20
27.14364043634024
 11
-40.55367691008433
 21
27.14364043634024
 72
     1
 10
-40.55367691008433
 20
27.14364043634024
 11
-40.76515696356015
 21
26.60267989212235
 72
     1
 10
-40.76515696356015
 20
26.60267989212235
 11
-42.00566137381313
 21
26.60267989212235
 72
     1
 10
-42.00566137381313
 20
26.60267989212235
 11
-40.60770832687382
 21
29.65648941593344
 72
     1
 10
-40.60770832687382
 20
29.65648941593344
 11
-39.36720391662112
 21
29.65648941593344
 72
     1
 10
-39.36720391662112
 20
29.65648941593344
 11
-37.96925086968082
 21
26.60267989212235
 97
        8
330
323
330
2DD
330
322
330
325
330
2DA
330
324
330
2DB
330
2DC
 92
       16
 93
        3
 72
     1
 10
-40.28762135893933
 20
27.82420370164684
 11
-39.68729088455683
 21
27.82420370164684
 72
     1
 10
-39.68729088455683
 20
27.82420370164684
 11
-39.98745612174693
 21
28.59201866763354
 72
     1
 10
-39.98745612174693
 20
28.59201866763354
 11
-40.28762135893933
 21
27.82420370164684
 97
        3
330
2D9
330
2D8
330
326
 75
     1
 76
     0
 52
45.0
 41
0.1
 77
     0
 78
     1
 53
45.0
 43
0.0
 44
0.0
 45
-0.0707106781186548
 46
0.0707106781186548
 79
     0
 98
        1
 10
0.0
 20
0.0
  0
HATCH
  5
3F1
330
71
100
AcDbEntity
  8
1
  6
Continuous
 62
     2
100
AcDbHatch
 10
0.0
 20
0.0
 30
0.0
210
0.0
220
0.0
230
1.0
  2
_USER
 70
     0
 71
     1
 91
        2
 92
        1
 93
        8
 72
     1
 10
-37.96925086968082
 20
26.60267989212235
 11
-39.20975527993474
 21
26.60267989212235
 72
     1
 10
-39.20975527993474
 20
26.60267989212235
 11
-39.42123533341052
 21
27.14364043634024
 72
     1
 10
-39.42123533341052
 20
27.14364043634024
 11
-40.55367691008433
 21
27.14364043634024
 72
     1
 10
-40.55367691008433
 20
27.14364043634024
 11
-40.76515696356015
 21
26.60267989212235
 72
     1
 10
-40.76515696356015
 20
26.60267989212235
 11
-42.00566137381313
 21
26.60267989212235
 72
     1
 10
-42.00566137381313
 20
26.60267989212235
 11
-40.60770832687382
 21
29.65648941593344
 72
     1
 10
-40.60770832687382
 20
29.65648941593344
 11
-39.36720391662112
 21
29.65648941593344
 72
     1
 10
-39.36720391662112
 20
29.65648941593344
 11
-37.96925086968082
 21
26.60267989212235
 97
        8
330
323
330
2DD
330
322
330
325
330
2DA
330
324
330
2DB
330
2DC
 92
       16
 93
        3
 72
     1
 10
-40.28762135893933
 20
27.82420370164684
 11
-39.68729088455683
 21
27.82420370164684
 72
     1
 10
-39.68729088455683
 20
27.82420370164684
 11
-39.98745612174693
 21
28.59201866763354
 72
     1
 10
-39.98745612174693
 20
28.59201866763354
 11
-40.28762135893933
 21
27.82420370164684
 97
        3
330
2D9
330
2D8
330
326
 75
     1
 76
     0
 52
45.0
 41
0.1
 77
     0
 78
     1
 53
45.0
 43
0.0
 44
0.0
 45
-0.0707106781186548
 46
0.0707106781186548
 79
     0
 98
        1
 10
0.0
 20
0.0
  0
HATCH
  5
3F2
330
71
100
AcDbEntity
  8
1
  6
Continuous
 62
     2
100
AcDbHatch
 10
0.0
 20
0.0
 30
0.0
210
0.0
220
0.0
230
1.0
  2
_USER
 70
     0
 71
     1
 91
        1
 92
        1
 93
        8
 72
     1
 10
-44.16317351299534
 20
29.65648941593344
 11
-44.16317351299534
 21
28.87122410980985
 72
     1
 10
-44.16317351299534
 20
28.87122410980985
 11
-43.35207447552074
 21
28.87122410980985
 72
     1
 10
-43.35207447552074
 20
28.87122410980985
 11
-43.35207447552074
 21
26.60267989212235
 72
     1
 10
-43.35207447552074
 20
26.60267989212235
 11
-42.15928177335422
 21
26.60267989212235
 72
     1
 10
-42.15928177335422
 20
26.60267989212235
 11
-42.15928177335422
 21
28.87122410980985
 72
     1
 10
-42.15928177335422
 20
28.87122410980985
 11
-41.34818273588172
 21
28.87122410980985
 72
     1
 10
-41.34818273588172
 20
28.87122410980985
 11
-41.34818273588172
 21
29.65648941593344
 72
     1
 10
-41.34818273588172
 20
29.65648941593344
 11
-44.16317351299534
 21
29.65648941593344
 97
        8
330
31F
330
31E
330
31D
330
2DE
330
2DF
330
321
330
2E0
330
320
 75
     1
 76
     0
 52
45.0
 41
0.1
 77
     0
 78
     1
 53
45.0
 43
0.0
 44
0.0
 45
-0.0707106781186548
 46
0.0707106781186548
 79
     0
 98
        1
 10
0.0
 20
0.0
  0
HATCH
  5
3F3
330
71
100
AcDbEntity
  8
1
  6
Continuous
 62
     2
100
AcDbHatch
 10
0.0
 20
0.0
 30
0.0
210
0.0
220
0.0
230
1.0
  2
_USER
 70
     0
 71
     1
 91
        1
 92
        1
 93
        8
 72
     1
 10
-44.16317351299534
 20
29.65648941593344
 11
-44.16317351299534
 21
28.87122410980985
 72
     1
 10
-44.16317351299534
 20
28.87122410980985
 11
-43.35207447552074
 21
28.87122410980985
 72
     1
 10
-43.35207447552074
 20
28.87122410980985
 11
-43.35207447552074
 21
26.60267989212235
 72
     1
 10
-43.35207447552074
 20
26.60267989212235
 11
-42.15928177335422
 21
26.60267989212235
 72
     1
 10
-42.15928177335422
 20
26.60267989212235
 11
-42.15928177335422
 21
28.87122410980985
 72
     1
 10
-42.15928177335422
 20
28.87122410980985
 11
-41.34818273588172
 21
28.87122410980985
 72
     1
 10
-41.34818273588172
 20
28.87122410980985
 11
-41.34818273588172
 21
29.65648941593344
 72
     1
 10
-41.34818273588172
 20
29.65648941593344
 11
-44.16317351299534
 21
29.65648941593344
 97
        8
330
31F
330
31E
330
31D
330
2DE
330
2DF
330
321
330
2E0
330
320
 75
     1
 76
     0
 52
45.0
 41
0.1
 77
     0
 78
     1
 53
45.0
 43
0.0
 44
0.0
 45
-0.0707106781186548
 46
0.0707106781186548
 79
     0
 98
        1
 10
0.0
 20
0.0
  0
HATCH
  5
3F4
330
71
100
AcDbEntity
  8
1
  6
Continuous
 62
     2
100
AcDbHatch
 10
0.0
 20
0.0
 30
0.0
210
0.0
220
0.0
230
1.0
  2
_USER
 70
     0
 71
     1
 91
        1
 92
        1
 93
       10
 72
     1
 10
-41.49116692925622
 20
33.01567989210784
 11
-42.68395963142274
 21
33.01567989210784
 72
     1
 10
-42.68395963142274
 20
33.01567989210784
 11
-42.68395963142274
 21
29.96187036829664
 72
     1
 10
-42.68395963142274
 20
29.96187036829664
 11
-41.49116692925622
 21
29.96187036829664
 72
     1
 10
-41.49116692925622
 20
29.96187036829664
 11
-41.49116692925622
 21
31.27064587850134
 72
     1
 10
-41.49116692925622
 20
31.27064587850134
 11
-40.25066251900222
 21
29.96187036829664
 72
     1
 10
-40.25066251900222
 20
29.96187036829664
 11
-39.05786981683562
 21
29.96187036829664
 72
     1
 10
-39.05786981683562
 20
29.96187036829664
 11
-39.05786981683562
 21
33.01567989210784
 72
     1
 10
-39.05786981683562
 20
33.01567989210784
 11
-40.25066251900222
 21
33.01567989210784
 72
     1
 10
-40.25066251900222
 20
33.01567989210784
 11
-40.25066251900222
 21
31.70690438190266
 72
     1
 10
-40.25066251900222
 20
31.70690438190266
 11
-41.49116692925622
 21
33.01567989210784
 97
       10
330
319
330
2E3
330
2E4
330
2E5
330
2E6
330
31C
330
2E1
330
31B
330
31A
330
2E2
 75
     1
 76
     0
 52
45.0
 41
0.1
 77
     0
 78
     1
 53
45.0
 43
0.0
 44
0.0
 45
-0.0707106781186548
 46
0.0707106781186548
 79
     0
 98
        1
 10
0.0
 20
0.0
  0
HATCH
  5
3F5
330
71
100
AcDbEntity
  8
1
  6
Continuous
 62
     2
100
AcDbHatch
 10
0.0
 20
0.0
 30
0.0
210
0.0
220
0.0
230
1.0
  2
_USER
 70
     0
 71
     1
 91
        1
 92
        1
 93
       10
 72
     1
 10
-41.49116692925622
 20
33.01567989210784
 11
-42.68395963142274
 21
33.01567989210784
 72
     1
 10
-42.68395963142274
 20
33.01567989210784
 11
-42.68395963142274
 21
29.96187036829664
 72
     1
 10
-42.68395963142274
 20
29.96187036829664
 11
-41.49116692925622
 21
29.96187036829664
 72
     1
 10
-41.49116692925622
 20
29.96187036829664
 11
-41.49116692925622
 21
31.27064587850134
 72
     1
 10
-41.49116692925622
 20
31.27064587850134
 11
-40.25066251900222
 21
29.96187036829664
 72
     1
 10
-40.25066251900222
 20
29.96187036829664
 11
-39.05786981683562
 21
29.96187036829664
 72
     1
 10
-39.05786981683562
 20
29.96187036829664
 11
-39.05786981683562
 21
33.01567989210784
 72
     1
 10
-39.05786981683562
 20
33.01567989210784
 11
-40.25066251900222
 21
33.01567989210784
 72
     1
 10
-40.25066251900222
 20
33.01567989210784
 11
-40.25066251900222
 21
31.70690438190266
 72
     1
 10
-40.25066251900222
 20
31.70690438190266
 11
-41.49116692925622
 21
33.01567989210784
 97
       10
330
319
330
2E3
330
2E4
330
2E5
330
2E6
330
31C
330
2E1
330
31B
330
31A
330
2E2
 75
     1
 76
     0
 52
45.0
 41
0.1
 77
     0
 78
     1
 53
45.0
 43
0.0
 44
0.0
 45
-0.0707106781186548
 46
0.0707106781186548
 79
     0
 98
        1
 10
0.0
 20
0.0
  0
HATCH
  5
3F6
330
71
100
AcDbEntity
  8
1
  6
Continuous
 62
     2
100
AcDbHatch
 10
0.0
 20
0.0
 30
0.0
210
0.0
220
0.0
230
1.0
  2
_USER
 70
     0
 71
     1
 91
        1
 92
        1
 93
       10
 72
     1
 10
-46.73960574967484
 20
29.65648941593344
 11
-47.93239845184243
 21
29.65648941593344
 72
     1
 10
-47.93239845184243
 20
29.65648941593344
 11
-47.93239845184243
 21
26.60267989212235
 72
     1
 10
-47.93239845184243
 20
26.60267989212235
 11
-46.73960574967484
 21
26.60267989212235
 72
     1
 10
-46.73960574967484
 20
26.60267989212235
 11
-46.73960574967484
 21
27.91145540232694
 72
     1
 10
-46.73960574967484
 20
27.91145540232694
 11
-45.49910133942194
 21
26.60267989212235
 72
     1
 10
-45.49910133942194
 20
26.60267989212235
 11
-44.30630863725554
 21
26.60267989212235
 72
     1
 10
-44.30630863725554
 20
26.60267989212235
 11
-44.30630863725554
 21
29.65648941593344
 72
     1
 10
-44.30630863725554
 20
29.65648941593344
 11
-45.49910133942194
 21
29.65648941593344
 72
     1
 10
-45.49910133942194
 20
29.65648941593344
 11
-45.49910133942194
 21
28.34771390572834
 72
     1
 10
-45.49910133942194
 20
28.34771390572834
 11
-46.73960574967484
 21
29.65648941593344
 97
       10
330
2E8
330
2E9
330
2EA
330
316
330
2EB
330
2EC
330
315
330
318
330
317
330
2E7
 75
     1
 76
     0
 52
45.0
 41
0.1
 77
     0
 78
     1
 53
45.0
 43
0.0
 44
0.0
 45
-0.0707106781186548
 46
0.0707106781186548
 79
     0
 98
        1
 10
0.0
 20
0.0
  0
HATCH
  5
3F7
330
71
100
AcDbEntity
  8
1
  6
Continuous
 62
     2
100
AcDbHatch
 10
0.0
 20
0.0
 30
0.0
210
0.0
220
0.0
230
1.0
  2
_USER
 70
     0
 71
     1
 91
        1
 92
        1
 93
       10
 72
     1
 10
-46.73960574967484
 20
29.65648941593344
 11
-47.93239845184243
 21
29.65648941593344
 72
     1
 10
-47.93239845184243
 20
29.65648941593344
 11
-47.93239845184243
 21
26.60267989212235
 72
     1
 10
-47.93239845184243
 20
26.60267989212235
 11
-46.73960574967484
 21
26.60267989212235
 72
     1
 10
-46.73960574967484
 20
26.60267989212235
 11
-46.73960574967484
 21
27.91145540232694
 72
     1
 10
-46.73960574967484
 20
27.91145540232694
 11
-45.49910133942194
 21
26.60267989212235
 72
     1
 10
-45.49910133942194
 20
26.60267989212235
 11
-44.30630863725554
 21
26.60267989212235
 72
     1
 10
-44.30630863725554
 20
26.60267989212235
 11
-44.30630863725554
 21
29.65648941593344
 72
     1
 10
-44.30630863725554
 20
29.65648941593344
 11
-45.49910133942194
 21
29.65648941593344
 72
     1
 10
-45.49910133942194
 20
29.65648941593344
 11
-45.49910133942194
 21
28.34771390572834
 72
     1
 10
-45.49910133942194
 20
28.34771390572834
 11
-46.73960574967484
 21
29.65648941593344
 97
       10
330
2E8
330
2E9
330
2EA
330
316
330
2EB
330
2EC
330
315
330
318
330
317
330
2E7
 75
     1
 76
     0
 52
45.0
 41
0.1
 77
     0
 78
     1
 53
45.0
 43
0.0
 44
0.0
 45
-0.0707106781186548
 46
0.0707106781186548
 79
     0
 98
        1
 10
0.0
 20
0.0
  0
HATCH
  5
3F8
330
71
100
AcDbEntity
  8
1
  6
Continuous
 62
     2
100
AcDbHatch
 10
0.0
 20
0.0
 30
0.0
210
0.0
220
0.0
230
1.0
  2
_USER
 70
     0
 71
     1
 91
        1
 92
        1
 93
       12
 72
     1
 10
-47.74140068861024
 20
33.01567989210784
 11
-47.74140068861024
 21
29.96187036829664
 72
     1
 10
-47.74140068861024
 20
29.96187036829664
 11
-48.93419339077664
 21
29.96187036829664
 72
     1
 10
-48.93419339077664
 20
29.96187036829664
 11
-48.93419339077664
 21
31.09614247714046
 72
     1
 10
-48.93419339077664
 20
31.09614247714046
 11
-49.98385096868412
 21
31.09614247714046
 72
     1
 10
-49.98385096868412
 20
31.09614247714046
 11
-49.98385096868412
 21
29.96187036829664
 72
     1
 10
-49.98385096868412
 20
29.96187036829664
 11
-51.17664367085072
 21
29.96187036829664
 72
     1
 10
-51.17664367085072
 20
29.96187036829664
 11
-51.17664367085072
 21
33.01567989210784
 72
     1
 10
-51.17664367085072
 20
33.01567989210784
 11
-49.98385096868412
 21
33.01567989210784
 72
     1
 10
-49.98385096868412
 20
33.01567989210784
 11
-49.98385096868412
 21
31.94684655877325
 72
     1
 10
-49.98385096868412
 20
31.94684655877325
 11
-48.93419339077664
 21
31.94684655877325
 72
     1
 10
-48.93419339077664
 20
31.94684655877325
 11
-48.93419339077664
 21
33.01567989210784
 72
     1
 10
-48.93419339077664
 20
33.01567989210784
 11
-47.74140068861024
 21
33.01567989210784
 97
       12
330
310
330
30F
330
30E
330
2F6
330
2F7
330
30D
330
2F8
330
30C
330
30B
330
30A
330
2F4
330
2F5
 75
     1
 76
     0
 52
45.0
 41
0.1
 77
     0
 78
     1
 53
45.0
 43
0.0
 44
0.0
 45
-0.0707106781186548
 46
0.0707106781186548
 79
     0
 98
        1
 10
0.0
 20
0.0
  0
HATCH
  5
3F9
330
71
100
AcDbEntity
  8
1
  6
Continuous
 62
     2
100
AcDbHatch
 10
0.0
 20
0.0
 30
0.0
210
0.0
220
0.0
230
1.0
  2
_USER
 70
     0
 71
     1
 91
        1
 92
        1
 93
       12
 72
     1
 10
-47.74140068861024
 20
33.01567989210784
 11
-47.74140068861024
 21
29.96187036829664
 72
     1
 10
-47.74140068861024
 20
29.96187036829664
 11
-48.93419339077664
 21
29.96187036829664
 72
     1
 10
-48.93419339077664
 20
29.96187036829664
 11
-48.93419339077664
 21
31.09614247714046
 72
     1
 10
-48.93419339077664
 20
31.09614247714046
 11
-49.98385096868412
 21
31.09614247714046
 72
     1
 10
-49.98385096868412
 20
31.09614247714046
 11
-49.98385096868412
 21
29.96187036829664
 72
     1
 10
-49.98385096868412
 20
29.96187036829664
 11
-51.17664367085072
 21
29.96187036829664
 72
     1
 10
-51.17664367085072
 20
29.96187036829664
 11
-51.17664367085072
 21
33.01567989210784
 72
     1
 10
-51.17664367085072
 20
33.01567989210784
 11
-49.98385096868412
 21
33.01567989210784
 72
     1
 10
-49.98385096868412
 20
33.01567989210784
 11
-49.98385096868412
 21
31.94684655877325
 72
     1
 10
-49.98385096868412
 20
31.94684655877325
 11
-48.93419339077664
 21
31.94684655877325
 72
     1
 10
-48.93419339077664
 20
31.94684655877325
 11
-48.93419339077664
 21
33.01567989210784
 72
     1
 10
-48.93419339077664
 20
33.01567989210784
 11
-47.74140068861024
 21
33.01567989210784
 97
       12
330
310
330
30F
330
30E
330
2F6
330
2F7
330
30D
330
2F8
330
30C
330
30B
330
30A
330
2F4
330
2F5
 75
     1
 76
     0
 52
45.0
 41
0.1
 77
     0
 78
     1
 53
45.0
 43
0.0
 44
0.0
 45
-0.0707106781186548
 46
0.0707106781186548
 79
     0
 98
        1
 10
0.0
 20
0.0
  0
ENDBLK
  5
73
330
71
100
AcDbEntity
  8
0
100
AcDbBlockEnd
  0
BLOCK
  5
75
330
74
100
AcDbEntity
  8
0
100
AcDbBlockBegin
  2
_punkt
 70
     0
 10
64.13590312517867
 20
19.30917989210604
 30
0.0
  3
_punkt
  1

  0
LINE
  5
3FA
330
74
100
AcDbEntity
  8
1
  6
Continuous
 62
     2
100
AcDbLine
 10
64.13590312517867
 20
19.30917989210604
 30
0.0
 11
64.13590312517867
 21
14.30917989210593
 31
0.0
  0
LINE
  5
3FB
330
74
100
AcDbEntity
  8
1
  6
Continuous
 62
     2
100
AcDbLine
 10
64.13590312517867
 20
19.30917989210604
 30
0.0
 11
69.13590312517766
 21
19.30917989210604
 31
0.0
  0
ENDBLK
  5
76
330
74
100
AcDbEntity
  8
0
100
AcDbBlockEnd
  0
BLOCK
  5
7A
330
77
100
AcDbEntity
  8
0
100
AcDbBlockBegin
  2
A4I_CS
 70
     0
 10
64.13590312517867
 20
14.30917989210593
 30
0.0
  3
A4I_CS
  1

  0
INSERT
  5
78
330
77
100
AcDbEntity
  8
1
100
AcDbBlockReference
  2
_rahmen
 10
64.13590312517867
 20
14.30917989210593
 30
0.0
  0
INSERT
  5
79
330
77
100
AcDbEntity
  8
1
100
AcDbBlockReference
  2
_punkt
 10
64.13590312517867
 20
19.30917989210604
 30
0.0
  0
ENDBLK
  5
7B
330
77
100
AcDbEntity
  8
0
100
AcDbBlockEnd
  0
BLOCK
  5
84
330
7C
100
AcDbEntity
  8
0
100
AcDbBlockBegin
  2
1
 70
     0
 10
0.0
 20
0.0
 30
0.0
  3
1
  1

  0
INSERT
  5
7D
330
7C
100
AcDbEntity
  8
0
100
AcDbBlockReference
  2
Back1
 10
20.656378
 20
166.265046
 30
0.0
 41
2.0
 42
2.0
 43
2.0
  0
INSERT
  5
7E
330
7C
100
AcDbEntity
  8
0
100
AcDbBlockReference
  2
Front1
 10
-112.9999999999998
 20
166.2650459999998
 30
0.0
 41
2.0
 42
2.0
 43
2.0
  0
INSERT
  5
7F
330
7C
100
AcDbEntity
  8
0
100
AcDbBlockReference
  2
Gen1
 10
-11.00000000000043
 20
103.0
 30
0.0
 41
2.0
 42
2.0
 43
2.0
  0
INSERT
  5
80
330
7C
100
AcDbEntity
  8
0
100
AcDbBlockReference
  2
Left1
 10
-46.17181200000034
 20
166.2650459999999
 30
0.0
 41
2.0
 42
2.0
 43
2.0
  0
INSERT
  5
81
330
7C
100
AcDbEntity
  8
0
100
AcDbBlockReference
  2
Right1
 10
-188.8281880000005
 20
166.265046
 30
0.0
 41
2.0
 42
2.0
 43
2.0
  0
INSERT
  5
82
330
7C
100
AcDbEntity
  8
0
100
AcDbBlockReference
  2
Top1
 10
-113.00000000016
 20
99.99999999990018
 30
0.0
 41
2.0
 42
2.0
 43
2.0
  0
INSERT
  5
83
330
7C
100
AcDbEntity
  8
0
100
AcDbBlockReference
  2
A4I_CS
 10
64.13590312517867
 20
14.30917989210593
 30
0.0
  0
ENDBLK
  5
85
330
7C
100
AcDbEntity
  8
0
100
AcDbBlockEnd
  0
BLOCK
  5
D7
330
D0
100
AcDbEntity
  8
0
100
AcDbBlockBegin
  2
*D17
 70
     1
 10
0.0
 20
0.0
 30
0.0
  3
*D17
  1

  0
LINE
  5
D1
330
D0
100
AcDbEntity
  8
1
  6
Continuous
 62
     2
100
AcDbLine
 10
-44.38590517370373
 20
73.79999922872673
 30
0.0
 11
-68.52705790724428
 21
73.79999922872673
 31
0.0
  0
LINE
  5
D2
330
D0
100
AcDbEntity
  8
1
  6
Continuous
 62
     2
100
AcDbLine
 10
-44.38590517370373
 20
81.25845281272356
 30
0.0
 11
-44.38590517370373
 21
73.04999922872673
 31
0.0
  0
LINE
  5
D3
330
D0
100
AcDbEntity
  8
1
  6
Continuous
 62
     2
100
AcDbLine
 10
-68.52705790724428
 20
83.4762033015674
 30
0.0
 11
-68.52705790724428
 21
73.04999922872673
 31
0.0
  0
SOLID
  5
D4
330
D0
100
AcDbEntity
  8
1
 62
     2
100
AcDbTrace
 10
-46.13590517370373
 20
73.5696073579488
 30
0.0
 11
-46.13590517370373
 21
74.03039109950467
 31
0.0
 12
-44.38590517370373
 22
73.79999922872673
 32
0.0
 13
-44.38590517370373
 23
73.79999922872673
 33
0.0
  0
SOLID
  5
D5
330
D0
100
AcDbEntity
  8
1
 62
     2
100
AcDbTrace
 10
-66.77705790724428
 20
74.03039109950467
 30
0.0
 11
-66.77705790724428
 21
73.5696073579488
 31
0.0
 12
-68.52705790724428
 22
73.79999922872673
 32
0.0
 13
-68.52705790724428
 23
73.79999922872673
 33
0.0
  0
MTEXT
  5
D6
330
D0
100
AcDbEntity
  8
1
 62
     3
100
AcDbMText
 10
-59.43125000007998
 20
74.72499922872674
 30
0.0
 40
1.75
 41
0.0
 71
     7
 72
     1
  1
24,14
  7
CONVERTER_11
 11
0.9999999999970619
 21
2.424068405545306E-6
 31
0.0
 73
     1
 44
0.60024009603842
  0
ENDBLK
  5
D8
330
D0
100
AcDbEntity
  8
0
100
AcDbBlockEnd
  0
BLOCK
  5
E1
330
DA
100
AcDbEntity
  8
0
100
AcDbBlockBegin
  2
*D18
 70
     1
 10
0.0
 20
0.0
 30
0.0
  3
*D18
  1

  0
LINE
  5
DB
330
DA
100
AcDbEntity
  8
1
  6
Continuous
 62
     2
100
AcDbLine
 10
-74.82504639669796
 20
79.94001568644751
 30
0.0
 11
-74.82504639669796
 21
86.31259566707129
 31
0.0
  0
LINE
  5
DC
330
DA
100
AcDbEntity
  8
1
  6
Continuous
 62
     2
100
AcDbLine
 10
-56.56587408647302
 20
79.94001568644751
 30
0.0
 11
-75.57504639669796
 21
79.94001568644751
 31
0.0
  0
LINE
  5
DD
330
DA
100
AcDbEntity
  8
1
  6
Continuous
 62
     2
100
AcDbLine
 10
-67.4168914749652
 20
86.31259566707129
 30
0.0
 11
-75.57504639669796
 21
86.31259566707129
 31
0.0
  0
SOLID
  5
DE
330
DA
100
AcDbEntity
  8
1
 62
     2
100
AcDbTrace
 10
-75.05543826747589
 20
81.69001568644751
 30
0.0
 11
-74.59465452592002
 21
81.69001568644751
 31
0.0
 12
-74.82504639669796
 22
79.94001568644751
 32
0.0
 13
-74.82504639669796
 23
79.94001568644751
 33
0.0
  0
SOLID
  5
DF
330
DA
100
AcDbEntity
  8
1
 62
     2
100
AcDbTrace
 10
-74.59465452592002
 20
84.56259566707129
 30
0.0
 11
-75.05543826747589
 21
84.56259566707129
 31
0.0
 12
-74.82504639669796
 22
86.31259566707129
 32
0.0
 13
-74.82504639669796
 23
86.31259566707129
 33
0.0
  0
MTEXT
  5
E0
330
DA
100
AcDbEntity
  8
1
 62
     3
100
AcDbMText
 10
-75.75004639669797
 20
80.811547755448
 30
0.0
 40
1.75
 41
0.0
 71
     7
 72
     1
  1
6,37
  7
CONVERTER_11
 11
0.0
 21
1.0
 31
0.0
 73
     1
 44
0.60024009603842
  0
ENDBLK
  5
E2
330
DA
100
AcDbEntity
  8
0
100
AcDbBlockEnd
  0
BLOCK
  5
2BF
330
2B8
100
AcDbEntity
  8
0
100
AcDbBlockBegin
  2
*D19
 70
     1
 10
0.0
 20
0.0
 30
0.0
  3
*D19
  1

  0
LINE
  5
2B9
330
2B8
100
AcDbEntity
  8
1
  6
Continuous
 62
     2
100
AcDbLine
 10
-74.82504639669796
 20
38.70000009526603
 30
0.0
 11
-74.82504639669796
 21
61.30000009526759
 31
0.0
  0
LINE
  5
2BA
330
2B8
100
AcDbEntity
  8
1
  6
Continuous
 62
     2
100
AcDbLine
 10
-67.31456137839231
 20
38.70000009526603
 30
0.0
 11
-75.57504639669796
 21
38.70000009526603
 31
0.0
  0
LINE
  5
2BB
330
2B8
100
AcDbEntity
  8
1
  6
Continuous
 62
     2
100
AcDbLine
 10
-61.91143950720113
 20
61.30000009526759
 30
0.0
 11
-75.57504639669796
 21
61.30000009526759
 31
0.0
  0
SOLID
  5
2BC
330
2B8
100
AcDbEntity
  8
1
 62
     2
100
AcDbTrace
 10
-75.05543826747589
 20
40.45000009526603
 30
0.0
 11
-74.59465452592002
 21
40.45000009526603
 31
0.0
 12
-74.82504639669796
 22
38.70000009526603
 32
0.0
 13
-74.82504639669796
 23
38.70000009526603
 33
0.0
  0
SOLID
  5
2BD
330
2B8
100
AcDbEntity
  8
1
 62
     2
100
AcDbTrace
 10
-74.59465452592002
 20
59.55000009526759
 30
0.0
 11
-75.05543826747589
 21
59.55000009526759
 31
0.0
 12
-74.82504639669796
 22
61.30000009526759
 32
0.0
 13
-74.82504639669796
 23
61.30000009526759
 33
0.0
  0
MTEXT
  5
2BE
330
2B8
100
AcDbEntity
  8
1
 62
     3
100
AcDbMText
 10
-75.75004639669797
 20
48.42142048000011
 30
0.0
 40
1.75
 41
0.0
 71
     7
 72
     1
  1
22,6
  7
CONVERTER_11
 11
0.0
 21
1.0
 31
0.0
 73
     1
 44
0.60024009603842
  0
ENDBLK
  5
2C0
330
2B8
100
AcDbEntity
  8
0
100
AcDbBlockEnd
  0
ENDSEC
  0
SECTION
  2
ENTITIES
  0
INSERT
  5
86
330
1F
100
AcDbEntity
  8
1
100
AcDbBlockReference
  2
1
 10
0.0
 20
0.0
 30
0.0
  0
ENDSEC
  0
SECTION
  2
OBJECTS
  0
DICTIONARY
  5
C
330
0
100
AcDbDictionary
281
     1
  3
ACAD_GROUP
350
D
  3
ACAD_LAYOUT
350
1A
  3
ACAD_MATERIAL
350
3B
  3
ACAD_MLEADERSTYLE
350
423
  3
ACAD_MLINESTYLE
350
17
  3
ACAD_PLOTSETTINGS
350
19
  3
ACAD_PLOTSTYLENAME
350
E
  3
ACAD_TABLESTYLE
350
422
  3
ACAD_VISUALSTYLE
350
2A
  0
DICTIONARY
  5
D
102
{ACAD_REACTORS
330
C
102
}
330
C
100
AcDbDictionary
281
     1
  0
DICTIONARY
  5
1A
102
{ACAD_REACTORS
330
C
102
}
330
C
100
AcDbDictionary
281
     1
  3
Layout1
350
1E
  3
Layout2
350
26
  3
Model
350
22
  0
DICTIONARY
  5
3B
102
{ACAD_REACTORS
330
C
102
}
330
C
100
AcDbDictionary
281
     1
  3
ByBlock
350
3D
  3
ByLayer
350
3C
  3
Global
350
3E
  0
DICTIONARY
  5
423
102
{ACAD_REACTORS
330
C
102
}
330
C
100
AcDbDictionary
281
     1
  0
DICTIONARY
  5
17
102
{ACAD_REACTORS
330
C
102
}
330
C
100
AcDbDictionary
281
     1
  3
Standard
350
18
  0
DICTIONARY
  5
19
102
{ACAD_REACTORS
330
C
102
}
330
C
100
AcDbDictionary
281
     1
  0
ACDBDICTIONARYWDFLT
  5
E
102
{ACAD_REACTORS
330
C
102
}
330
C
100
AcDbDictionary
281
     1
  3
Normal
350
F
100
AcDbDictionaryWithDefault
340
F
  0
DICTIONARY
  5
422
102
{ACAD_REACTORS
330
C
102
}
330
C
100
AcDbDictionary
281
     1
  0
DICTIONARY
  5
2A
102
{ACAD_REACTORS
330
C
102
}
330
C
100
AcDbDictionary
281
     1
  3
2dWireframe
350
2F
  3
3D Hidden
350
31
  3
3dWireframe
350
30
  3
Basic
350
32
  3
Brighten
350
36
  3
ColorChange
350
3A
  3
Conceptual
350
34
  3
Dim
350
35
  3
Facepattern
350
39
  3
Flat
350
2B
  3
FlatWithEdges
350
2C
  3
Gouraud
350
2D
  3
GouraudWithEdges
350
2E
  3
Linepattern
350
38
  3
Realistic
350
33
  3
Thicken
350
37
  0
LAYOUT
  5
1E
102
{ACAD_REACTORS
330
1A
102
}
330
1A
100
AcDbPlotSettings
  1

  2
none_device
  4

  6

 40
0.0
 41
0.0
 42
0.0
 43
0.0
 44
0.0
 45
0.0
 46
0.0
 47
0.0
 48
0.0
 49
0.0
140
0.0
141
0.0
142
1.0
143
1.0
 70
   688
 72
     0
 73
     0
 74
     5
  7

 75
    16
 76
     0
 77
     2
 78
   300
147
1.0
148
0.0
149
0.0
100
AcDbLayout
  1
Layout1
 70
     1
 71
     1
 10
0.0
 20
0.0
 11
12.0
 21
9.0
 12
0.0
 22
0.0
 32
0.0
 14
1.00000000000000E+20
 24
1.00000000000000E+20
 34
1.00000000000000E+20
 15
-1.00000000000000E+20
 25
-1.00000000000000E+20
 35
-1.00000000000000E+20
146
0.0
 13
0.0
 23
0.0
 33
0.0
 16
1.0
 26
0.0
 36
0.0
 17
0.0
 27
1.0
 37
0.0
 76
     0
330
1B
  0
LAYOUT
  5
26
102
{ACAD_REACTORS
330
1A
102
}
330
1A
100
AcDbPlotSettings
  1

  2
none_device
  4

  6

 40
0.0
 41
0.0
 42
0.0
 43
0.0
 44
0.0
 45
0.0
 46
0.0
 47
0.0
 48
0.0
 49
0.0
140
0.0
141
0.0
142
1.0
143
1.0
 70
   688
 72
     0
 73
     0
 74
     5
  7

 75
    16
 76
     0
 77
     2
 78
   300
147
1.0
148
0.0
149
0.0
100
AcDbLayout
  1
Layout2
 70
     1
 71
     2
 10
0.0
 20
0.0
 11
0.0
 21
0.0
 12
0.0
 22
0.0
 32
0.0
 14
0.0
 24
0.0
 34
0.0
 15
0.0
 25
0.0
 35
0.0
146
0.0
 13
0.0
 23
0.0
 33
0.0
 16
1.0
 26
0.0
 36
0.0
 17
0.0
 27
1.0
 37
0.0
 76
     0
330
23
  0
LAYOUT
  5
22
102
{ACAD_REACTORS
330
1A
102
}
330
1A
100
AcDbPlotSettings
  1

  2
none_device
  4

  6

 40
0.0
 41
0.0
 42
0.0
 43
0.0
 44
0.0
 45
0.0
 46
0.0
 47
0.0
 48
0.0
 49
0.0
140
0.0
141
0.0
142
1.0
143
1.0
 70
  1712
 72
     0
 73
     0
 74
     0
  7

 75
     0
 76
     0
 77
     2
 78
   300
147
1.0
148
0.0
149
0.0
100
AcDbLayout
  1
Model
 70
     1
 71
     0
 10
0.0
 20
0.0
 11
12.0
 21
9.0
 12
0.0
 22
0.0
 32
0.0
 14
-227.8640968748204
 24
14.30917989210593
 34
0.0
 15
69.13590312517766
 25
224.309179892106
 35
0.0
146
0.0
 13
0.0
 23
0.0
 33
0.0
 16
1.0
 26
0.0
 36
0.0
 17
0.0
 27
1.0
 37
0.0
 76
     0
330
1F
331
29
  0
MATERIAL
  5
3D
102
{ACAD_REACTORS
330
3B
102
}
102
{ACAD_XDICTIONARY
360
41E
102
}
330
3B
100
AcDbMaterial
  1
ByBlock
  0
MATERIAL
  5
3C
102
{ACAD_REACTORS
330
3B
102
}
102
{ACAD_XDICTIONARY
360
41C
102
}
330
3B
100
AcDbMaterial
  1
ByLayer
  0
MATERIAL
  5
3E
102
{ACAD_REACTORS
330
3B
102
}
102
{ACAD_XDICTIONARY
360
420
102
}
330
3B
100
AcDbMaterial
  1
Global
  0
MLINESTYLE
  5
18
102
{ACAD_REACTORS
330
17
102
}
330
17
100
AcDbMlineStyle
  2
Standard
 70
     0
  3

 62
   256
 51
90.0
 52
90.0
 71
     2
 49
0.5
 62
   256
  6
BYLAYER
 49
-0.5
 62
   256
  6
BYLAYER
  0
ACDBPLACEHOLDER
  5
F
102
{ACAD_REACTORS
330
E
102
}
330
E
  0
VISUALSTYLE
  5
2F
102
{ACAD_REACTORS
330
2A
102
}
102
{ACAD_XDICTIONARY
360
404
102
}
330
2A
100
AcDbVisualStyle
  2
2dWireframe
 70
     4
 71
     0
 72
     2
 73
     0
 90
        0
 40
-0.6
 41
-30.0
 62
     5
 63
     7
421
 16777215
 74
     1
 91
        4
 64
     7
 65
   257
 75
     1
175
     1
 42
1.0
 92
        0
 66
   257
 43
1.0
 76
     1
 77
     6
 78
     2
 67
     7
 79
     5
170
     0
171
     0
290
     0
174
     0
 93
        1
 44
0.0
173
     0
291
     0
 45
0.0
1001
ACAD
1000
AcDbSavedByObjectVersion
1070
     0
  0
VISUALSTYLE
  5
31
102
{ACAD_REACTORS
330
2A
102
}
102
{ACAD_XDICTIONARY
360
408
102
}
330
2A
100
AcDbVisualStyle
  2
3D Hidden
 70
     6
 71
     1
 72
     2
 73
     2
 90
        0
 40
-0.6
 41
-30.0
 62
     5
 63
     7
421
 16777215
 74
     2
 91
        2
 64
     7
 65
   257
 75
     2
175
     1
 42
40.0
 92
        0
 66
   257
 43
1.0
 76
     1
 77
     6
 78
     2
 67
     7
 79
     3
170
     0
171
     0
290
     0
174
     0
 93
        1
 44
0.0
173
     0
291
     0
 45
0.0
1001
ACAD
1000
AcDbSavedByObjectVersion
1070
     0
  0
VISUALSTYLE
  5
30
102
{ACAD_REACTORS
330
2A
102
}
102
{ACAD_XDICTIONARY
360
406
102
}
330
2A
100
AcDbVisualStyle
  2
3dWireframe
 70
     5
 71
     0
 72
     2
 73
     0
 90
        0
 40
-0.6
 41
-30.0
 62
     5
 63
     7
421
 16777215
 74
     1
 91
        4
 64
     7
 65
   257
 75
     1
175
     1
 42
1.0
 92
        0
 66
   257
 43
1.0
 76
     1
 77
     6
 78
     2
 67
     7
 79
     5
170
     0
171
     0
290
     0
174
     0
 93
        1
 44
0.0
173
     0
291
     0
 45
0.0
1001
ACAD
1000
AcDbSavedByObjectVersion
1070
     0
  0
VISUALSTYLE
  5
32
102
{ACAD_REACTORS
330
2A
102
}
102
{ACAD_XDICTIONARY
360
40A
102
}
330
2A
100
AcDbVisualStyle
  2
Basic
 70
     7
 71
     1
 72
     0
 73
     1
 90
        0
 40
-0.6
 41
-30.0
 62
     5
 63
     7
421
 16777215
 74
     0
 91
        4
 64
     7
 65
   257
 75
     1
175
     1
 42
1.0
 92
        8
 66
     7
 43
1.0
 76
     1
 77
     6
 78
     2
 67
     7
 79
     5
170
     0
171
     0
290
     0
174
     0
 93
        1
 44
0.0
173
     0
291
     1
 45
0.0
1001
ACAD
1000
AcDbSavedByObjectVersion
1070
     0
  0
VISUALSTYLE
  5
36
102
{ACAD_REACTORS
330
2A
102
}
102
{ACAD_XDICTIONARY
360
412
102
}
330
2A
100
AcDbVisualStyle
  2
Brighten
 70
    12
 71
     2
 72
     2
 73
     0
 90
        0
 40
-0.6
 41
-30.0
 62
     5
 63
     7
421
 16777215
 74
     1
 91
        4
 64
     7
 65
   257
 75
     1
175
     1
 42
1.0
 92
        8
 66
     7
 43
1.0
 76
     1
 77
     6
 78
     2
 67
     7
 79
     5
170
     0
171
     0
290
     0
174
     0
 93
        1
 44
50.0
173
     0
291
     1
 45
0.0
1001
ACAD
1000
AcDbSavedByObjectVersion
1070
     0
  0
VISUALSTYLE
  5
3A
102
{ACAD_REACTORS
330
2A
102
}
102
{ACAD_XDICTIONARY
360
41A
102
}
330
2A
100
AcDbVisualStyle
  2
ColorChange
 70
    16
 71
     2
 72
     2
 73
     3
 90
        0
 40
-0.6
 41
-30.0
 62
     5
 63
     8
421
  8421504
 74
     1
 91
        4
 64
     7
 65
   257
 75
     1
175
     1
 42
1.0
 92
        8
 66
     8
424
  8421504
 43
1.0
 76
     1
 77
     6
 78
     2
 67
     7
 79
     5
170
     0
171
     0
290
     0
174
     0
 93
        1
 44
0.0
173
     0
291
     1
 45
0.0
1001
ACAD
1000
AcDbSavedByObjectVersion
1070
     0
  0
VISUALSTYLE
  5
34
102
{ACAD_REACTORS
330
2A
102
}
102
{ACAD_XDICTIONARY
360
40E
102
}
330
2A
100
AcDbVisualStyle
  2
Conceptual
 70
     9
 71
     3
 72
     2
 73
     0
 90
        0
 40
-0.6
 41
-30.0
 62
     5
 63
     7
421
 16777215
 74
     2
 91
        2
 64
     7
 65
   257
 75
     1
175
     1
 42
40.0
 92
        8
 66
     7
 43
1.0
 76
     1
 77
     6
 78
     2
 67
     7
 79
     3
170
     0
171
     0
290
     0
174
     0
 93
        1
 44
0.0
173
     0
291
     0
 45
0.0
1001
ACAD
1000
AcDbSavedByObjectVersion
1070
     0
  0
VISUALSTYLE
  5
35
102
{ACAD_REACTORS
330
2A
102
}
102
{ACAD_XDICTIONARY
360
410
102
}
330
2A
100
AcDbVisualStyle
  2
Dim
 70
    11
 71
     2
 72
     2
 73
     0
 90
        0
 40
-0.6
 41
-30.0
 62
     5
 63
     7
421
 16777215
 74
     1
 91
        4
 64
     7
 65
   257
 75
     1
175
     1
 42
1.0
 92
        8
 66
     7
 43
1.0
 76
     1
 77
     6
 78
     2
 67
     7
 79
     5
170
     0
171
     0
290
     0
174
     0
 93
        1
 44
-50.0
173
     0
291
     1
 45
0.0
1001
ACAD
1000
AcDbSavedByObjectVersion
1070
     0
  0
VISUALSTYLE
  5
39
102
{ACAD_REACTORS
330
2A
102
}
102
{ACAD_XDICTIONARY
360
418
102
}
330
2A
100
AcDbVisualStyle
  2
Facepattern
 70
    15
 71
     2
 72
     2
 73
     0
 90
        0
 40
-0.6
 41
-30.0
 62
     5
 63
     7
421
 16777215
 74
     1
 91
        4
 64
     7
 65
   257
 75
     1
175
     1
 42
1.0
 92
        8
 66
     7
 43
1.0
 76
     1
 77
     6
 78
     2
 67
     7
 79
     5
170
     0
171
     0
290
     0
174
     0
 93
        1
 44
0.0
173
     0
291
     1
 45
0.0
1001
ACAD
1000
AcDbSavedByObjectVersion
1070
     0
  0
VISUALSTYLE
  5
2B
102
{ACAD_REACTORS
330
2A
102
}
102
{ACAD_XDICTIONARY
360
3FC
102
}
330
2A
100
AcDbVisualStyle
  2
Flat
 70
     0
 71
     2
 72
     1
 73
     1
 90
        2
 40
-0.6
 41
30.0
 62
     5
 63
     7
421
 16777215
 74
     0
 91
        4
 64
     7
 65
   257
 75
     1
175
     1
 42
1.0
 92
        8
 66
     7
 43
1.0
 76
     1
 77
     6
 78
     2
 67
     7
 79
     5
170
     0
171
     0
290
     0
174
     0
 93
       13
 44
0.0
173
     0
291
     1
 45
0.0
1001
ACAD
1000
AcDbSavedByObjectVersion
1070
     0
  0
VISUALSTYLE
  5
2C
102
{ACAD_REACTORS
330
2A
102
}
102
{ACAD_XDICTIONARY
360
3FE
102
}
330
2A
100
AcDbVisualStyle
  2
FlatWithEdges
 70
     1
 71
     2
 72
     1
 73
     1
 90
        2
 40
-0.6
 41
30.0
 62
     5
 63
     7
421
 16777215
 74
     1
 91
        4
 64
     7
 65
   257
 75
     1
175
     1
 42
1.0
 92
        0
 66
   257
 43
1.0
 76
     1
 77
     6
 78
     2
 67
     7
 79
     5
170
     0
171
     0
290
     0
174
     0
 93
       13
 44
0.0
173
     0
291
     1
 45
0.0
1001
ACAD
1000
AcDbSavedByObjectVersion
1070
     0
  0
VISUALSTYLE
  5
2D
102
{ACAD_REACTORS
330
2A
102
}
102
{ACAD_XDICTIONARY
360
400
102
}
330
2A
100
AcDbVisualStyle
  2
Gouraud
 70
     2
 71
     2
 72
     2
 73
     1
 90
        2
 40
-0.6
 41
30.0
 62
     5
 63
     7
421
 16777215
 74
     0
 91
        4
 64
     7
 65
   257
 75
     1
175
     1
 42
1.0
 92
        0
 66
     7
 43
1.0
 76
     1
 77
     6
 78
     2
 67
     7
 79
     5
170
     0
171
     0
290
     0
174
     0
 93
       13
 44
0.0
173
     0
291
     1
 45
0.0
1001
ACAD
1000
AcDbSavedByObjectVersion
1070
     0
  0
VISUALSTYLE
  5
2E
102
{ACAD_REACTORS
330
2A
102
}
102
{ACAD_XDICTIONARY
360
402
102
}
330
2A
100
AcDbVisualStyle
  2
GouraudWithEdges
 70
     3
 71
     2
 72
     2
 73
     1
 90
        2
 40
-0.6
 41
30.0
 62
     5
 63
     7
421
 16777215
 74
     1
 91
        4
 64
     7
 65
   257
 75
     1
175
     1
 42
1.0
 92
        0
 66
   257
 43
1.0
 76
     1
 77
     6
 78
     2
 67
     7
 79
     5
170
     0
171
     0
290
     0
174
     0
 93
       13
 44
0.0
173
     0
291
     1
 45
0.0
1001
ACAD
1000
AcDbSavedByObjectVersion
1070
     0
  0
VISUALSTYLE
  5
38
102
{ACAD_REACTORS
330
2A
102
}
102
{ACAD_XDICTIONARY
360
416
102
}
330
2A
100
AcDbVisualStyle
  2
Linepattern
 70
    14
 71
     2
 72
     2
 73
     0
 90
        0
 40
-0.6
 41
-30.0
 62
     5
 63
     7
421
 16777215
 74
     1
 91
        4
 64
     7
 65
   257
 75
     7
175
     7
 42
1.0
 92
        8
 66
     7
 43
1.0
 76
     1
 77
     6
 78
     2
 67
     7
 79
     5
170
     0
171
     0
290
     0
174
     0
 93
        1
 44
0.0
173
     0
291
     1
 45
0.0
1001
ACAD
1000
AcDbSavedByObjectVersion
1070
     0
  0
VISUALSTYLE
  5
33
102
{ACAD_REACTORS
330
2A
102
}
102
{ACAD_XDICTIONARY
360
40C
102
}
330
2A
100
AcDbVisualStyle
  2
Realistic
 70
     8
 71
     2
 72
     2
 73
     0
 90
        0
 40
-0.6
 41
-30.0
 62
     5
 63
     7
421
 16777215
 74
     1
 91
        0
 64
     7
 65
   257
 75
     1
175
     1
 42
1.0
 92
        8
 66
     8
424
  7895160
 43
1.0
 76
     1
 77
     6
 78
     2
 67
     7
 79
     5
170
     0
171
     0
290
     0
174
     0
 93
       13
 44
0.0
173
     0
291
     0
 45
0.0
1001
ACAD
1000
AcDbSavedByObjectVersion
1070
     0
  0
VISUALSTYLE
  5
37
102
{ACAD_REACTORS
330
2A
102
}
102
{ACAD_XDICTIONARY
360
414
102
}
330
2A
100
AcDbVisualStyle
  2
Thicken
 70
    13
 71
     2
 72
     2
 73
     0
 90
        0
 40
-0.6
 41
-30.0
 62
     5
 63
     7
421
 16777215
 74
     1
 91
        4
 64
     7
 65
   257
 75
     1
175
     1
 42
1.0
 92
       12
 66
     7
 43
1.0
 76
     1
 77
     6
 78
     2
 67
     7
 79
     5
170
     0
171
     0
290
     0
174
     0
 93
        1
 44
0.0
173
     0
291
     1
 45
0.0
1001
ACAD
1000
AcDbSavedByObjectVersion
1070
     0
  0
DICTIONARY
  5
41E
330
3D
100
AcDbDictionary
280
     1
281
     1
  3
ACAD_XREC_ROUNDTRIP
360
41F
  0
DICTIONARY
  5
41C
330
3C
100
AcDbDictionary
280
     1
281
     1
  3
ACAD_XREC_ROUNDTRIP
360
41D
  0
DICTIONARY
  5
420
330
3E
100
AcDbDictionary
280
     1
281
     1
  3
ACAD_XREC_ROUNDTRIP
360
421
  0
DICTIONARY
  5
404
330
2F
100
AcDbDictionary
280
     1
281
     1
  3
ACAD_XREC_ROUNDTRIP
360
405
  0
DICTIONARY
  5
408
330
31
100
AcDbDictionary
280
     1
281
     1
  3
ACAD_XREC_ROUNDTRIP
360
409
  0
DICTIONARY
  5
406
330
30
100
AcDbDictionary
280
     1
281
     1
  3
ACAD_XREC_ROUNDTRIP
360
407
  0
DICTIONARY
  5
40A
330
32
100
AcDbDictionary
280
     1
281
     1
  3
ACAD_XREC_ROUNDTRIP
360
40B
  0
DICTIONARY
  5
412
330
36
100
AcDbDictionary
280
     1
281
     1
  3
ACAD_XREC_ROUNDTRIP
360
413
  0
DICTIONARY
  5
41A
330
3A
100
AcDbDictionary
280
     1
281
     1
  3
ACAD_XREC_ROUNDTRIP
360
41B
  0
DICTIONARY
  5
40E
330
34
100
AcDbDictionary
280
     1
281
     1
  3
ACAD_XREC_ROUNDTRIP
360
40F
  0
DICTIONARY
  5
410
330
35
100
AcDbDictionary
280
     1
281
     1
  3
ACAD_XREC_ROUNDTRIP
360
411
  0
DICTIONARY
  5
418
330
39
100
AcDbDictionary
280
     1
281
     1
  3
ACAD_XREC_ROUNDTRIP
360
419
  0
DICTIONARY
  5
3FC
330
2B
100
AcDbDictionary
280
     1
281
     1
  3
ACAD_XREC_ROUNDTRIP
360
3FD
  0
DICTIONARY
  5
3FE
330
2C
100
AcDbDictionary
280
     1
281
     1
  3
ACAD_XREC_ROUNDTRIP
360
3FF
  0
DICTIONARY
  5
400
330
2D
100
AcDbDictionary
280
     1
281
     1
  3
ACAD_XREC_ROUNDTRIP
360
401
  0
DICTIONARY
  5
402
330
2E
100
AcDbDictionary
280
     1
281
     1
  3
ACAD_XREC_ROUNDTRIP
360
403
  0
DICTIONARY
  5
416
330
38
100
AcDbDictionary
280
     1
281
     1
  3
ACAD_XREC_ROUNDTRIP
360
417
  0
DICTIONARY
  5
40C
330
33
100
AcDbDictionary
280
     1
281
     1
  3
ACAD_XREC_ROUNDTRIP
360
40D
  0
DICTIONARY
  5
414
330
37
100
AcDbDictionary
280
     1
281
     1
  3
ACAD_XREC_ROUNDTRIP
360
415
  0
XRECORD
  5
41F
102
{ACAD_REACTORS
330
41E
102
}
330
41E
100
AcDbXrecord
280
     1
102
MATERIAL
148
0.0
149
0.0
149
0.0
 93
        0
 94
      127
282
     0
 72
     1
 77
     1
171
     1
175
     1
179
     1
273
     0
  0
XRECORD
  5
41D
102
{ACAD_REACTORS
330
41C
102
}
330
41C
100
AcDbXrecord
280
     1
102
MATERIAL
148
0.0
149
0.0
149
0.0
 93
        0
 94
      127
282
     0
 72
     1
 77
     1
171
     1
175
     1
179
     1
273
     0
  0
XRECORD
  5
421
102
{ACAD_REACTORS
330
420
102
}
330
420
100
AcDbXrecord
280
     1
102
MATERIAL
148
0.0
149
0.0
149
0.0
 93
        0
 94
      127
282
     0
 72
     1
 77
     1
171
     1
175
     1
179
     1
273
     0
  0
XRECORD
  5
405
102
{ACAD_REACTORS
330
404
102
}
330
404
100
AcDbXrecord
280
     1
102
RTVSPropertyOp0
 70
     1
102
RTVSPropertyOp1
 70
     1
102
RTVSPropertyOp2
 70
     1
102
RTVSPropertyOp3
 70
     1
102
RTVSPropertyOp4
 70
     1
102
RTVSPropertyOp5
 70
     1
102
RTVSPropertyOp6
 70
     1
102
RTVSPropertyOp7
 70
     1
102
RTVSPropertyOp8
 70
     1
102
RTVSPropertyOp9
 70
     1
102
RTVSPropertyOp10
 70
     1
102
RTVSPropertyOp11
 70
     1
102
RTVSPropertyOp12
 70
     1
102
RTVSPropertyOp13
 70
     1
102
RTVSPropertyOp14
 70
     1
102
RTVSPropertyOp15
 70
     1
102
RTVSPropertyOp16
 70
     1
102
RTVSPropertyOp17
 70
     1
102
RTVSPropertyOp18
 70
     1
102
RTVSPropertyOp19
 70
     1
102
RTVSPropertyOp20
 70
     1
102
RTVSPropertyOp21
 70
     1
102
RTVSPropertyOp22
 70
     1
102
RTVSPropertyOp23
 70
     1
102
RTVSPropertyOp24
 70
     1
102
RTVSPropertyOp25
 70
     1
102
RTVSPropertyOp26
 70
     1
102
RTVSPropertyOp27
 70
     1
102
RTVSPropertyOp28
 70
     1
102
RTVSPropertyOp29
 70
     1
102
RTVSPropertyOp30
 70
     1
102
RTVSPropertyOp31
 70
     1
102
RTVSPropertyOp32
 70
     1
  0
XRECORD
  5
409
102
{ACAD_REACTORS
330
408
102
}
330
408
100
AcDbXrecord
280
     1
102
RTVSPropertyOp0
 70
     1
102
RTVSPropertyOp1
 70
     1
102
RTVSPropertyOp2
 70
     1
102
RTVSPropertyOp3
 70
     1
102
RTVSPropertyOp4
 70
     1
102
RTVSPropertyOp5
 70
     1
102
RTVSPropertyOp6
 70
     1
102
RTVSPropertyOp7
 70
     1
102
RTVSPropertyOp8
 70
     1
102
RTVSPropertyOp9
 70
     1
102
RTVSPropertyOp10
 70
     1
102
RTVSPropertyOp11
 70
     1
102
RTVSPropertyOp12
 70
     1
102
RTVSPropertyOp13
 70
     1
102
RTVSPropertyOp14
 70
     1
102
RTVSPropertyOp15
 70
     1
102
RTVSPropertyOp16
 70
     1
102
RTVSPropertyOp17
 70
     1
102
RTVSPropertyOp18
 70
     1
102
RTVSPropertyOp19
 70
     1
102
RTVSPropertyOp20
 70
     1
102
RTVSPropertyOp21
 70
     1
102
RTVSPropertyOp22
 70
     1
102
RTVSPropertyOp23
 70
     1
102
RTVSPropertyOp24
 70
     1
102
RTVSPropertyOp25
 70
     1
102
RTVSPropertyOp26
 70
     1
102
RTVSPropertyOp27
 70
     1
102
RTVSPropertyOp28
 70
     1
102
RTVSPropertyOp29
 70
     1
102
RTVSPropertyOp30
 70
     1
102
RTVSPropertyOp31
 70
     1
102
RTVSPropertyOp32
 70
     1
  0
XRECORD
  5
407
102
{ACAD_REACTORS
330
406
102
}
330
406
100
AcDbXrecord
280
     1
102
RTVSPropertyOp0
 70
     1
102
RTVSPropertyOp1
 70
     1
102
RTVSPropertyOp2
 70
     1
102
RTVSPropertyOp3
 70
     1
102
RTVSPropertyOp4
 70
     1
102
RTVSPropertyOp5
 70
     1
102
RTVSPropertyOp6
 70
     1
102
RTVSPropertyOp7
 70
     1
102
RTVSPropertyOp8
 70
     1
102
RTVSPropertyOp9
 70
     1
102
RTVSPropertyOp10
 70
     1
102
RTVSPropertyOp11
 70
     1
102
RTVSPropertyOp12
 70
     1
102
RTVSPropertyOp13
 70
     1
102
RTVSPropertyOp14
 70
     1
102
RTVSPropertyOp15
 70
     1
102
RTVSPropertyOp16
 70
     1
102
RTVSPropertyOp17
 70
     1
102
RTVSPropertyOp18
 70
     1
102
RTVSPropertyOp19
 70
     1
102
RTVSPropertyOp20
 70
     1
102
RTVSPropertyOp21
 70
     1
102
RTVSPropertyOp22
 70
     1
102
RTVSPropertyOp23
 70
     1
102
RTVSPropertyOp24
 70
     1
102
RTVSPropertyOp25
 70
     1
102
RTVSPropertyOp26
 70
     1
102
RTVSPropertyOp27
 70
     1
102
RTVSPropertyOp28
 70
     1
102
RTVSPropertyOp29
 70
     1
102
RTVSPropertyOp30
 70
     1
102
RTVSPropertyOp31
 70
     1
102
RTVSPropertyOp32
 70
     1
  0
XRECORD
  5
40B
102
{ACAD_REACTORS
330
40A
102
}
330
40A
100
AcDbXrecord
280
     1
102
RTVSPropertyOp0
 70
     1
102
RTVSPropertyOp1
 70
     1
102
RTVSPropertyOp2
 70
     1
102
RTVSPropertyOp3
 70
     1
102
RTVSPropertyOp4
 70
     1
102
RTVSPropertyOp5
 70
     1
102
RTVSPropertyOp6
 70
     1
102
RTVSPropertyOp7
 70
     1
102
RTVSPropertyOp8
 70
     1
102
RTVSPropertyOp9
 70
     1
102
RTVSPropertyOp10
 70
     1
102
RTVSPropertyOp11
 70
     1
102
RTVSPropertyOp12
 70
     1
102
RTVSPropertyOp13
 70
     1
102
RTVSPropertyOp14
 70
     1
102
RTVSPropertyOp15
 70
     1
102
RTVSPropertyOp16
 70
     1
102
RTVSPropertyOp17
 70
     1
102
RTVSPropertyOp18
 70
     1
102
RTVSPropertyOp19
 70
     1
102
RTVSPropertyOp20
 70
     1
102
RTVSPropertyOp21
 70
     1
102
RTVSPropertyOp22
 70
     1
102
RTVSPropertyOp23
 70
     1
102
RTVSPropertyOp24
 70
     1
102
RTVSPropertyOp25
 70
     1
102
RTVSPropertyOp26
 70
     1
102
RTVSPropertyOp27
 70
     1
102
RTVSPropertyOp28
 70
     1
102
RTVSPropertyOp29
 70
     1
102
RTVSPropertyOp30
 70
     1
102
RTVSPropertyOp31
 70
     1
102
RTVSPropertyOp32
 70
     1
  0
XRECORD
  5
413
102
{ACAD_REACTORS
330
412
102
}
330
412
100
AcDbXrecord
280
     1
102
RTVSPropertyOp0
 70
     1
102
RTVSPropertyOp1
 70
     1
102
RTVSPropertyOp2
 70
     1
102
RTVSPropertyOp3
 70
     1
102
RTVSPropertyOp4
 70
     1
102
RTVSPropertyOp5
 70
     1
102
RTVSPropertyOp6
 70
     1
102
RTVSPropertyOp7
 70
     1
102
RTVSPropertyOp8
 70
     1
102
RTVSPropertyOp9
 70
     1
102
RTVSPropertyOp10
 70
     1
102
RTVSPropertyOp11
 70
     1
102
RTVSPropertyOp12
 70
     1
102
RTVSPropertyOp13
 70
     1
102
RTVSPropertyOp14
 70
     1
102
RTVSPropertyOp15
 70
     1
102
RTVSPropertyOp16
 70
     1
102
RTVSPropertyOp17
 70
     1
102
RTVSPropertyOp18
 70
     1
102
RTVSPropertyOp19
 70
     1
102
RTVSPropertyOp20
 70
     1
102
RTVSPropertyOp21
 70
     1
102
RTVSPropertyOp22
 70
     1
102
RTVSPropertyOp23
 70
     1
102
RTVSPropertyOp24
 70
     1
102
RTVSPropertyOp25
 70
     1
102
RTVSPropertyOp26
 70
     1
102
RTVSPropertyOp27
 70
     1
102
RTVSPropertyOp28
 70
     1
102
RTVSPropertyOp29
 70
     1
102
RTVSPropertyOp30
 70
     1
102
RTVSPropertyOp31
 70
     1
102
RTVSPropertyOp32
 70
     1
  0
XRECORD
  5
41B
102
{ACAD_REACTORS
330
41A
102
}
330
41A
100
AcDbXrecord
280
     1
102
RTVSPropertyOp0
 70
     1
102
RTVSPropertyOp1
 70
     1
102
RTVSPropertyOp2
 70
     1
102
RTVSPropertyOp3
 70
     1
102
RTVSPropertyOp4
 70
     1
102
RTVSPropertyOp5
 70
     1
102
RTVSPropertyOp6
 70
     1
102
RTVSPropertyOp7
 70
     1
102
RTVSPropertyOp8
 70
     1
102
RTVSPropertyOp9
 70
     1
102
RTVSPropertyOp10
 70
     1
102
RTVSPropertyOp11
 70
     1
102
RTVSPropertyOp12
 70
     1
102
RTVSPropertyOp13
 70
     1
102
RTVSPropertyOp14
 70
     1
102
RTVSPropertyOp15
 70
     1
102
RTVSPropertyOp16
 70
     1
102
RTVSPropertyOp17
 70
     1
102
RTVSPropertyOp18
 70
     1
102
RTVSPropertyOp19
 70
     1
102
RTVSPropertyOp20
 70
     1
102
RTVSPropertyOp21
 70
     1
102
RTVSPropertyOp22
 70
     1
102
RTVSPropertyOp23
 70
     1
102
RTVSPropertyOp24
 70
     1
102
RTVSPropertyOp25
 70
     1
102
RTVSPropertyOp26
 70
     1
102
RTVSPropertyOp27
 70
     1
102
RTVSPropertyOp28
 70
     1
102
RTVSPropertyOp29
 70
     1
102
RTVSPropertyOp30
 70
     1
102
RTVSPropertyOp31
 70
     1
102
RTVSPropertyOp32
 70
     1
  0
XRECORD
  5
40F
102
{ACAD_REACTORS
330
40E
102
}
330
40E
100
AcDbXrecord
280
     1
102
RTVSPropertyOp0
 70
     1
102
RTVSPropertyOp1
 70
     1
102
RTVSPropertyOp2
 70
     1
102
RTVSPropertyOp3
 70
     1
102
RTVSPropertyOp4
 70
     1
102
RTVSPropertyOp5
 70
     1
102
RTVSPropertyOp6
 70
     1
102
RTVSPropertyOp7
 70
     1
102
RTVSPropertyOp8
 70
     1
102
RTVSPropertyOp9
 70
     1
102
RTVSPropertyOp10
 70
     1
102
RTVSPropertyOp11
 70
     1
102
RTVSPropertyOp12
 70
     1
102
RTVSPropertyOp13
 70
     1
102
RTVSPropertyOp14
 70
     1
102
RTVSPropertyOp15
 70
     1
102
RTVSPropertyOp16
 70
     1
102
RTVSPropertyOp17
 70
     1
102
RTVSPropertyOp18
 70
     1
102
RTVSPropertyOp19
 70
     1
102
RTVSPropertyOp20
 70
     1
102
RTVSPropertyOp21
 70
     1
102
RTVSPropertyOp22
 70
     1
102
RTVSPropertyOp23
 70
     1
102
RTVSPropertyOp24
 70
     1
102
RTVSPropertyOp25
 70
     1
102
RTVSPropertyOp26
 70
     1
102
RTVSPropertyOp27
 70
     1
102
RTVSPropertyOp28
 70
     1
102
RTVSPropertyOp29
 70
     1
102
RTVSPropertyOp30
 70
     1
102
RTVSPropertyOp31
 70
     1
102
RTVSPropertyOp32
 70
     1
  0
XRECORD
  5
411
102
{ACAD_REACTORS
330
410
102
}
330
410
100
AcDbXrecord
280
     1
102
RTVSPropertyOp0
 70
     1
102
RTVSPropertyOp1
 70
     1
102
RTVSPropertyOp2
 70
     1
102
RTVSPropertyOp3
 70
     1
102
RTVSPropertyOp4
 70
     1
102
RTVSPropertyOp5
 70
     1
102
RTVSPropertyOp6
 70
     1
102
RTVSPropertyOp7
 70
     1
102
RTVSPropertyOp8
 70
     1
102
RTVSPropertyOp9
 70
     1
102
RTVSPropertyOp10
 70
     1
102
RTVSPropertyOp11
 70
     1
102
RTVSPropertyOp12
 70
     1
102
RTVSPropertyOp13
 70
     1
102
RTVSPropertyOp14
 70
     1
102
RTVSPropertyOp15
 70
     1
102
RTVSPropertyOp16
 70
     1
102
RTVSPropertyOp17
 70
     1
102
RTVSPropertyOp18
 70
     1
102
RTVSPropertyOp19
 70
     1
102
RTVSPropertyOp20
 70
     1
102
RTVSPropertyOp21
 70
     1
102
RTVSPropertyOp22
 70
     1
102
RTVSPropertyOp23
 70
     1
102
RTVSPropertyOp24
 70
     1
102
RTVSPropertyOp25
 70
     1
102
RTVSPropertyOp26
 70
     1
102
RTVSPropertyOp27
 70
     1
102
RTVSPropertyOp28
 70
     1
102
RTVSPropertyOp29
 70
     1
102
RTVSPropertyOp30
 70
     1
102
RTVSPropertyOp31
 70
     1
102
RTVSPropertyOp32
 70
     1
  0
XRECORD
  5
419
102
{ACAD_REACTORS
330
418
102
}
330
418
100
AcDbXrecord
280
     1
102
RTVSPropertyOp0
 70
     1
102
RTVSPropertyOp1
 70
     1
102
RTVSPropertyOp2
 70
     1
102
RTVSPropertyOp3
 70
     1
102
RTVSPropertyOp4
 70
     1
102
RTVSPropertyOp5
 70
     1
102
RTVSPropertyOp6
 70
     1
102
RTVSPropertyOp7
 70
     1
102
RTVSPropertyOp8
 70
     1
102
RTVSPropertyOp9
 70
     1
102
RTVSPropertyOp10
 70
     1
102
RTVSPropertyOp11
 70
     1
102
RTVSPropertyOp12
 70
     1
102
RTVSPropertyOp13
 70
     1
102
RTVSPropertyOp14
 70
     1
102
RTVSPropertyOp15
 70
     1
102
RTVSPropertyOp16
 70
     1
102
RTVSPropertyOp17
 70
     1
102
RTVSPropertyOp18
 70
     1
102
RTVSPropertyOp19
 70
     1
102
RTVSPropertyOp20
 70
     1
102
RTVSPropertyOp21
 70
     1
102
RTVSPropertyOp22
 70
     1
102
RTVSPropertyOp23
 70
     1
102
RTVSPropertyOp24
 70
     1
102
RTVSPropertyOp25
 70
     1
102
RTVSPropertyOp26
 70
     1
102
RTVSPropertyOp27
 70
     1
102
RTVSPropertyOp28
 70
     1
102
RTVSPropertyOp29
 70
     1
102
RTVSPropertyOp30
 70
     1
102
RTVSPropertyOp31
 70
     1
102
RTVSPropertyOp32
 70
     1
  0
XRECORD
  5
3FD
102
{ACAD_REACTORS
330
3FC
102
}
330
3FC
100
AcDbXrecord
280
     1
102
RTVSPropertyOp0
 70
     1
102
RTVSPropertyOp1
 70
     1
102
RTVSPropertyOp2
 70
     1
102
RTVSPropertyOp3
 70
     1
102
RTVSPropertyOp4
 70
     1
102
RTVSPropertyOp5
 70
     1
102
RTVSPropertyOp6
 70
     1
102
RTVSPropertyOp7
 70
     1
102
RTVSPropertyOp8
 70
     1
102
RTVSPropertyOp9
 70
     1
102
RTVSPropertyOp10
 70
     1
102
RTVSPropertyOp11
 70
     1
102
RTVSPropertyOp12
 70
     1
102
RTVSPropertyOp13
 70
     1
102
RTVSPropertyOp14
 70
     1
102
RTVSPropertyOp15
 70
     1
102
RTVSPropertyOp16
 70
     1
102
RTVSPropertyOp17
 70
     1
102
RTVSPropertyOp18
 70
     1
102
RTVSPropertyOp19
 70
     1
102
RTVSPropertyOp20
 70
     1
102
RTVSPropertyOp21
 70
     1
102
RTVSPropertyOp22
 70
     1
102
RTVSPropertyOp23
 70
     1
102
RTVSPropertyOp24
 70
     1
102
RTVSPropertyOp25
 70
     1
102
RTVSPropertyOp26
 70
     1
102
RTVSPropertyOp27
 70
     1
102
RTVSPropertyOp28
 70
     1
102
RTVSPropertyOp29
 70
     1
102
RTVSPropertyOp30
 70
     1
102
RTVSPropertyOp31
 70
     1
102
RTVSPropertyOp32
 70
     1
  0
XRECORD
  5
3FF
102
{ACAD_REACTORS
330
3FE
102
}
330
3FE
100
AcDbXrecord
280
     1
102
RTVSPropertyOp0
 70
     1
102
RTVSPropertyOp1
 70
     1
102
RTVSPropertyOp2
 70
     1
102
RTVSPropertyOp3
 70
     1
102
RTVSPropertyOp4
 70
     1
102
RTVSPropertyOp5
 70
     1
102
RTVSPropertyOp6
 70
     1
102
RTVSPropertyOp7
 70
     1
102
RTVSPropertyOp8
 70
     1
102
RTVSPropertyOp9
 70
     1
102
RTVSPropertyOp10
 70
     1
102
RTVSPropertyOp11
 70
     1
102
RTVSPropertyOp12
 70
     1
102
RTVSPropertyOp13
 70
     1
102
RTVSPropertyOp14
 70
     1
102
RTVSPropertyOp15
 70
     1
102
RTVSPropertyOp16
 70
     1
102
RTVSPropertyOp17
 70
     1
102
RTVSPropertyOp18
 70
     1
102
RTVSPropertyOp19
 70
     1
102
RTVSPropertyOp20
 70
     1
102
RTVSPropertyOp21
 70
     1
102
RTVSPropertyOp22
 70
     1
102
RTVSPropertyOp23
 70
     1
102
RTVSPropertyOp24
 70
     1
102
RTVSPropertyOp25
 70
     1
102
RTVSPropertyOp26
 70
     1
102
RTVSPropertyOp27
 70
     1
102
RTVSPropertyOp28
 70
     1
102
RTVSPropertyOp29
 70
     1
102
RTVSPropertyOp30
 70
     1
102
RTVSPropertyOp31
 70
     1
102
RTVSPropertyOp32
 70
     1
  0
XRECORD
  5
401
102
{ACAD_REACTORS
330
400
102
}
330
400
100
AcDbXrecord
280
     1
102
RTVSPropertyOp0
 70
     1
102
RTVSPropertyOp1
 70
     1
102
RTVSPropertyOp2
 70
     1
102
RTVSPropertyOp3
 70
     1
102
RTVSPropertyOp4
 70
     1
102
RTVSPropertyOp5
 70
     1
102
RTVSPropertyOp6
 70
     1
102
RTVSPropertyOp7
 70
     1
102
RTVSPropertyOp8
 70
     1
102
RTVSPropertyOp9
 70
     1
102
RTVSPropertyOp10
 70
     1
102
RTVSPropertyOp11
 70
     1
102
RTVSPropertyOp12
 70
     1
102
RTVSPropertyOp13
 70
     1
102
RTVSPropertyOp14
 70
     1
102
RTVSPropertyOp15
 70
     1
102
RTVSPropertyOp16
 70
     1
102
RTVSPropertyOp17
 70
     1
102
RTVSPropertyOp18
 70
     1
102
RTVSPropertyOp19
 70
     1
102
RTVSPropertyOp20
 70
     1
102
RTVSPropertyOp21
 70
     1
102
RTVSPropertyOp22
 70
     1
102
RTVSPropertyOp23
 70
     1
102
RTVSPropertyOp24
 70
     1
102
RTVSPropertyOp25
 70
     1
102
RTVSPropertyOp26
 70
     1
102
RTVSPropertyOp27
 70
     1
102
RTVSPropertyOp28
 70
     1
102
RTVSPropertyOp29
 70
     1
102
RTVSPropertyOp30
 70
     1
102
RTVSPropertyOp31
 70
     1
102
RTVSPropertyOp32
 70
     1
  0
XRECORD
  5
403
102
{ACAD_REACTORS
330
402
102
}
330
402
100
AcDbXrecord
280
     1
102
RTVSPropertyOp0
 70
     1
102
RTVSPropertyOp1
 70
     1
102
RTVSPropertyOp2
 70
     1
102
RTVSPropertyOp3
 70
     1
102
RTVSPropertyOp4
 70
     1
102
RTVSPropertyOp5
 70
     1
102
RTVSPropertyOp6
 70
     1
102
RTVSPropertyOp7
 70
     1
102
RTVSPropertyOp8
 70
     1
102
RTVSPropertyOp9
 70
     1
102
RTVSPropertyOp10
 70
     1
102
RTVSPropertyOp11
 70
     1
102
RTVSPropertyOp12
 70
     1
102
RTVSPropertyOp13
 70
     1
102
RTVSPropertyOp14
 70
     1
102
RTVSPropertyOp15
 70
     1
102
RTVSPropertyOp16
 70
     1
102
RTVSPropertyOp17
 70
     1
102
RTVSPropertyOp18
 70
     1
102
RTVSPropertyOp19
 70
     1
102
RTVSPropertyOp20
 70
     1
102
RTVSPropertyOp21
 70
     1
102
RTVSPropertyOp22
 70
     1
102
RTVSPropertyOp23
 70
     1
102
RTVSPropertyOp24
 70
     1
102
RTVSPropertyOp25
 70
     1
102
RTVSPropertyOp26
 70
     1
102
RTVSPropertyOp27
 70
     1
102
RTVSPropertyOp28
 70
     1
102
RTVSPropertyOp29
 70
     1
102
RTVSPropertyOp30
 70
     1
102
RTVSPropertyOp31
 70
     1
102
RTVSPropertyOp32
 70
     1
  0
XRECORD
  5
417
102
{ACAD_REACTORS
330
416
102
}
330
416
100
AcDbXrecord
280
     1
102
RTVSPropertyOp0
 70
     1
102
RTVSPropertyOp1
 70
     1
102
RTVSPropertyOp2
 70
     1
102
RTVSPropertyOp3
 70
     1
102
RTVSPropertyOp4
 70
     1
102
RTVSPropertyOp5
 70
     1
102
RTVSPropertyOp6
 70
     1
102
RTVSPropertyOp7
 70
     1
102
RTVSPropertyOp8
 70
     1
102
RTVSPropertyOp9
 70
     1
102
RTVSPropertyOp10
 70
     1
102
RTVSPropertyOp11
 70
     1
102
RTVSPropertyOp12
 70
     1
102
RTVSPropertyOp13
 70
     1
102
RTVSPropertyOp14
 70
     1
102
RTVSPropertyOp15
 70
     1
102
RTVSPropertyOp16
 70
     1
102
RTVSPropertyOp17
 70
     1
102
RTVSPropertyOp18
 70
     1
102
RTVSPropertyOp19
 70
     1
102
RTVSPropertyOp20
 70
     1
102
RTVSPropertyOp21
 70
     1
102
RTVSPropertyOp22
 70
     1
102
RTVSPropertyOp23
 70
     1
102
RTVSPropertyOp24
 70
     1
102
RTVSPropertyOp25
 70
     1
102
RTVSPropertyOp26
 70
     1
102
RTVSPropertyOp27
 70
     1
102
RTVSPropertyOp28
 70
     1
102
RTVSPropertyOp29
 70
     1
102
RTVSPropertyOp30
 70
     1
102
RTVSPropertyOp31
 70
     1
102
RTVSPropertyOp32
 70
     1
  0
XRECORD
  5
40D
102
{ACAD_REACTORS
330
40C
102
}
330
40C
100
AcDbXrecord
280
     1
102
RTVSPropertyOp0
 70
     1
102
RTVSPropertyOp1
 70
     1
102
RTVSPropertyOp2
 70
     1
102
RTVSPropertyOp3
 70
     1
102
RTVSPropertyOp4
 70
     1
102
RTVSPropertyOp5
 70
     1
102
RTVSPropertyOp6
 70
     1
102
RTVSPropertyOp7
 70
     1
102
RTVSPropertyOp8
 70
     1
102
RTVSPropertyOp9
 70
     1
102
RTVSPropertyOp10
 70
     1
102
RTVSPropertyOp11
 70
     1
102
RTVSPropertyOp12
 70
     1
102
RTVSPropertyOp13
 70
     1
102
RTVSPropertyOp14
 70
     1
102
RTVSPropertyOp15
 70
     1
102
RTVSPropertyOp16
 70
     1
102
RTVSPropertyOp17
 70
     1
102
RTVSPropertyOp18
 70
     1
102
RTVSPropertyOp19
 70
     1
102
RTVSPropertyOp20
 70
     1
102
RTVSPropertyOp21
 70
     1
102
RTVSPropertyOp22
 70
     1
102
RTVSPropertyOp23
 70
     1
102
RTVSPropertyOp24
 70
     1
102
RTVSPropertyOp25
 70
     1
102
RTVSPropertyOp26
 70
     1
102
RTVSPropertyOp27
 70
     1
102
RTVSPropertyOp28
 70
     1
102
RTVSPropertyOp29
 70
     1
102
RTVSPropertyOp30
 70
     1
102
RTVSPropertyOp31
 70
     1
102
RTVSPropertyOp32
 70
     1
  0
XRECORD
  5
415
102
{ACAD_REACTORS
330
414
102
}
330
414
100
AcDbXrecord
280
     1
102
RTVSPropertyOp0
 70
     1
102
RTVSPropertyOp1
 70
     1
102
RTVSPropertyOp2
 70
     1
102
RTVSPropertyOp3
 70
     1
102
RTVSPropertyOp4
 70
     1
102
RTVSPropertyOp5
 70
     1
102
RTVSPropertyOp6
 70
     1
102
RTVSPropertyOp7
 70
     1
102
RTVSPropertyOp8
 70
     1
102
RTVSPropertyOp9
 70
     1
102
RTVSPropertyOp10
 70
     1
102
RTVSPropertyOp11
 70
     1
102
RTVSPropertyOp12
 70
     1
102
RTVSPropertyOp13
 70
     1
102
RTVSPropertyOp14
 70
     1
102
RTVSPropertyOp15
 70
     1
102
RTVSPropertyOp16
 70
     1
102
RTVSPropertyOp17
 70
     1
102
RTVSPropertyOp18
 70
     1
102
RTVSPropertyOp19
 70
     1
102
RTVSPropertyOp20
 70
     1
102
RTVSPropertyOp21
 70
     1
102
RTVSPropertyOp22
 70
     1
102
RTVSPropertyOp23
 70
     1
102
RTVSPropertyOp24
 70
     1
102
RTVSPropertyOp25
 70
     1
102
RTVSPropertyOp26
 70
     1
102
RTVSPropertyOp27
 70
     1
102
RTVSPropertyOp28
 70
     1
102
RTVSPropertyOp29
 70
     1
102
RTVSPropertyOp30
 70
     1
102
RTVSPropertyOp31
 70
     1
102
RTVSPropertyOp32
 70
     1
  0
ENDSEC
  0
EOF
