  0
SECTION
  2
HEADER
  9
$ACADVER
  1
AC1018
  9
$ACADMAINTVER
 70
     0
  9
$DWGCODEPAGE
  3
ANSI_1252
  9
$INSBASE
 10
0.0
 20
0.0
 30
0.0
  9
$EXTMIN
 10
-457.7082196961705
 20
-314.224989179649
 30
0.0
  9
$EXTMAX
 10
-37.70821969617208
 20
-17.22498917964902
 30
0.0
  9
$LIMMIN
 10
0.0
 20
0.0
  9
$LIMMAX
 10
12.0
 20
9.0
  9
$ORTHOMODE
 70
     0
  9
$REGENMODE
 70
     1
  9
$FILLMODE
 70
     1
  9
$QTEXTMODE
 70
     0
  9
$MIRRTEXT
 70
     1
  9
$LTSCALE
 40
1.0
  9
$ATTMODE
 70
     1
  9
$TEXTSIZE
 40
0.2
  9
$TRACEWID
 40
0.05
  9
$TEXTSTYLE
  7
Standard
  9
$CLAYER
  8
0
  9
$CELTYPE
  6
ByLayer
  9
$CECOLOR
 62
   256
  9
$CELTSCALE
 40
1.0
  9
$DISPSILH
 70
     0
  9
$DIMSCALE
 40
1.0
  9
$DIMASZ
 40
0.18
  9
$DIMEXO
 40
0.0625
  9
$DIMDLI
 40
0.38
  9
$DIMRND
 40
0.0
  9
$DIMDLE
 40
0.0
  9
$DIMEXE
 40
0.18
  9
$DIMTP
 40
0.0
  9
$DIMTM
 40
0.0
  9
$DIMTXT
 40
0.18
  9
$DIMCEN
 40
0.09
  9
$DIMTSZ
 40
0.0
  9
$DIMTOL
 70
     0
  9
$DIMLIM
 70
     0
  9
$DIMTIH
 70
     1
  9
$DIMTOH
 70
     1
  9
$DIMSE1
 70
     0
  9
$DIMSE2
 70
     0
  9
$DIMTAD
 70
     0
  9
$DIMZIN
 70
     0
  9
$DIMBLK
  1

  9
$DIMASO
 70
     1
  9
$DIMSHO
 70
     1
  9
$DIMPOST
  1

  9
$DIMAPOST
  1

  9
$DIMALT
 70
     0
  9
$DIMALTD
 70
     2
  9
$DIMALTF
 40
25.4
  9
$DIMLFAC
 40
1.0
  9
$DIMTOFL
 70
     0
  9
$DIMTVP
 40
0.0
  9
$DIMTIX
 70
     0
  9
$DIMSOXD
 70
     0
  9
$DIMSAH
 70
     0
  9
$DIMBLK1
  1

  9
$DIMBLK2
  1

  9
$DIMSTYLE
  2
Standard
  9
$DIMCLRD
 70
     0
  9
$DIMCLRE
 70
     0
  9
$DIMCLRT
 70
     0
  9
$DIMTFAC
 40
1.0
  9
$DIMGAP
 40
0.09
  9
$DIMJUST
 70
     0
  9
$DIMSD1
 70
     0
  9
$DIMSD2
 70
     0
  9
$DIMTOLJ
 70
     1
  9
$DIMTZIN
 70
     0
  9
$DIMALTZ
 70
     0
  9
$DIMALTTZ
 70
     0
  9
$DIMUPT
 70
     0
  9
$DIMDEC
 70
     4
  9
$DIMTDEC
 70
     4
  9
$DIMALTU
 70
     2
  9
$DIMALTTD
 70
     2
  9
$DIMTXSTY
  7
Standard
  9
$DIMAUNIT
 70
     0
  9
$DIMADEC
 70
     0
  9
$DIMALTRND
 40
0.0
  9
$DIMAZIN
 70
     0
  9
$DIMDSEP
 70
    46
  9
$DIMATFIT
 70
     3
  9
$DIMFRAC
 70
     0
  9
$DIMLDRBLK
  1

  9
$DIMLUNIT
 70
     2
  9
$DIMLWD
 70
    -2
  9
$DIMLWE
 70
    -2
  9
$DIMTMOVE
 70
     0
  9
$LUNITS
 70
     2
  9
$LUPREC
 70
     4
  9
$SKETCHINC
 40
0.1
  9
$FILLETRAD
 40
0.5
  9
$AUNITS
 70
     0
  9
$AUPREC
 70
     0
  9
$MENU
  1
.
  9
$ELEVATION
 40
0.0
  9
$PELEVATION
 40
0.0
  9
$THICKNESS
 40
0.0
  9
$LIMCHECK
 70
     0
  9
$CHAMFERA
 40
0.5
  9
$CHAMFERB
 40
0.5
  9
$CHAMFERC
 40
1.0
  9
$CHAMFERD
 40
0.0
  9
$SKPOLY
 70
     0
  9
$TDCREATE
 40
2458157.942893276
  9
$TDUCREATE
 40
2458157.901226609
  9
$TDUPDATE
 40
2458157.942893808
  9
$TDUUPDATE
 40
2458157.901227141
  9
$TDINDWG
 40
0.0000000116
  9
$TDUSRTIMER
 40
0.0000000116
  9
$USRTIMER
 70
     1
  9
$ANGBASE
 50
0.0
  9
$ANGDIR
 70
     0
  9
$PDMODE
 70
     0
  9
$PDSIZE
 40
0.0
  9
$PLINEWID
 40
0.0
  9
$SPLFRAME
 70
     0
  9
$SPLINETYPE
 70
     6
  9
$SPLINESEGS
 70
     8
  9
$HANDSEED
  5
3DE
  9
$SURFTAB1
 70
     6
  9
$SURFTAB2
 70
     6
  9
$SURFTYPE
 70
     6
  9
$SURFU
 70
     6
  9
$SURFV
 70
     6
  9
$UCSBASE
  2

  9
$UCSNAME
  2

  9
$UCSORG
 10
0.0
 20
0.0
 30
0.0
  9
$UCSXDIR
 10
1.0
 20
0.0
 30
0.0
  9
$UCSYDIR
 10
0.0
 20
1.0
 30
0.0
  9
$UCSORTHOREF
  2

  9
$UCSORTHOVIEW
 70
     0
  9
$UCSORGTOP
 10
0.0
 20
0.0
 30
0.0
  9
$UCSORGBOTTOM
 10
0.0
 20
0.0
 30
0.0
  9
$UCSORGLEFT
 10
0.0
 20
0.0
 30
0.0
  9
$UCSORGRIGHT
 10
0.0
 20
0.0
 30
0.0
  9
$UCSORGFRONT
 10
0.0
 20
0.0
 30
0.0
  9
$UCSORGBACK
 10
0.0
 20
0.0
 30
0.0
  9
$PUCSBASE
  2

  9
$PUCSNAME
  2

  9
$PUCSORG
 10
0.0
 20
0.0
 30
0.0
  9
$PUCSXDIR
 10
1.0
 20
0.0
 30
0.0
  9
$PUCSYDIR
 10
0.0
 20
1.0
 30
0.0
  9
$PUCSORTHOREF
  2

  9
$PUCSORTHOVIEW
 70
     0
  9
$PUCSORGTOP
 10
0.0
 20
0.0
 30
0.0
  9
$PUCSORGBOTTOM
 10
0.0
 20
0.0
 30
0.0
  9
$PUCSORGLEFT
 10
0.0
 20
0.0
 30
0.0
  9
$PUCSORGRIGHT
 10
0.0
 20
0.0
 30
0.0
  9
$PUCSORGFRONT
 10
0.0
 20
0.0
 30
0.0
  9
$PUCSORGBACK
 10
0.0
 20
0.0
 30
0.0
  9
$USERI1
 70
     0
  9
$USERI2
 70
     0
  9
$USERI3
 70
     0
  9
$USERI4
 70
     0
  9
$USERI5
 70
     0
  9
$USERR1
 40
18.1
  9
$USERR2
 40
0.0
  9
$USERR3
 40
0.0
  9
$USERR4
 40
0.0
  9
$USERR5
 40
0.0
  9
$WORLDVIEW
 70
     1
  9
$SHADEDGE
 70
     3
  9
$SHADEDIF
 70
    70
  9
$TILEMODE
 70
     1
  9
$MAXACTVP
 70
    64
  9
$PINSBASE
 10
0.0
 20
0.0
 30
0.0
  9
$PLIMCHECK
 70
     0
  9
$PEXTMIN
 10
1.00000000000000E+20
 20
1.00000000000000E+20
 30
1.00000000000000E+20
  9
$PEXTMAX
 10
-1.00000000000000E+20
 20
-1.00000000000000E+20
 30
-1.00000000000000E+20
  9
$PLIMMIN
 10
0.0
 20
0.0
  9
$PLIMMAX
 10
12.0
 20
9.0
  9
$UNITMODE
 70
     0
  9
$VISRETAIN
 70
     1
  9
$PLINEGEN
 70
     0
  9
$PSLTSCALE
 70
     1
  9
$TREEDEPTH
 70
  3020
  9
$CMLSTYLE
  2
Standard
  9
$CMLJUST
 70
     0
  9
$CMLSCALE
 40
1.0
  9
$PROXYGRAPHICS
 70
     1
  9
$MEASUREMENT
 70
     1
  9
$CELWEIGHT
370
    -1
  9
$ENDCAPS
280
     0
  9
$JOINSTYLE
280
     0
  9
$LWDISPLAY
290
     0
  9
$INSUNITS
 70
     4
  9
$HYPERLINKBASE
  1

  9
$STYLESHEET
  1

  9
$XEDIT
290
     1
  9
$CEPSNTYPE
380
     0
  9
$PSTYLEMODE
290
     1
  9
$FINGERPRINTGUID
  2
{13D8D8E8-F7E9-4055-8AF4-B965432E35F3}
  9
$VERSIONGUID
  2
{FAEB1C32-E019-11D5-929B-00C0DF256EC4}
  9
$EXTNAMES
290
     1
  9
$PSVPSCALE
 40
0.0
  9
$OLESTARTUP
290
     0
  9
$SORTENTS
280
   127
  9
$INDEXCTL
280
     0
  9
$HIDETEXT
280
     1
  9
$XCLIPFRAME
290
     0
  9
$HALOGAP
280
     0
  9
$OBSCOLOR
 70
   257
  9
$OBSLTYPE
280
     0
  9
$INTERSECTIONDISPLAY
280
     0
  9
$INTERSECTIONCOLOR
 70
   257
  9
$DIMASSOC
280
     2
  9
$PROJECTNAME
  1

  0
ENDSEC
  0
SECTION
  2
CLASSES
  0
CLASS
  1
ACDBDICTIONARYWDFLT
  2
AcDbDictionaryWithDefault
  3
ObjectDBX Classes
 90
        0
 91
        4
280
     0
281
     0
  0
CLASS
  1
VISUALSTYLE
  2
AcDbVisualStyle
  3
ObjectDBX Classes
 90
     4095
 91
        4
280
     0
281
     0
  0
CLASS
  1
MATERIAL
  2
AcDbMaterial
  3
ObjectDBX Classes
 90
     1153
 91
        4
280
     0
281
     0
  0
ENDSEC
  0
SECTION
  2
TABLES
  0
TABLE
  2
VPORT
  5
8
330
0
100
AcDbSymbolTable
 70
     1
  0
VPORT
  5
29
330
8
100
AcDbSymbolTableRecord
100
AcDbViewportTableRecord
  2
*Active
 70
     0
 10
0.0
 20
0.0
 11
1.0
 21
1.0
 12
-247.7082196961713
 22
-165.724989179649
 13
0.0
 23
0.0
 14
0.5
 24
0.5
 15
0.5
 25
0.5
 16
0.0
 26
0.0
 36
1.0
 17
0.0
 27
0.0
 37
0.0
 40
326.7
 41
1.60267857142857
 42
50.0
 43
0.0
 44
0.0
 50
0.0
 51
0.0
 71
     0
 72
   100
 73
     1
 74
     3
 75
     0
 76
     0
 77
     0
 78
     0
281
     0
 65
     1
110
0.0
120
0.0
130
0.0
111
1.0
121
0.0
131
0.0
112
0.0
122
1.0
132
0.0
 79
     0
146
0.0
  0
ENDTAB
  0
TABLE
  2
LTYPE
  5
5
330
0
100
AcDbSymbolTable
 70
     8
  0
LTYPE
  5
14
330
5
100
AcDbSymbolTableRecord
100
AcDbLinetypeTableRecord
  2
ByBlock
 70
     0
  3

 72
    65
 73
     0
 40
0.0
  0
LTYPE
  5
15
330
5
100
AcDbSymbolTableRecord
100
AcDbLinetypeTableRecord
  2
ByLayer
 70
     0
  3

 72
    65
 73
     0
 40
0.0
  0
LTYPE
  5
16
330
5
100
AcDbSymbolTableRecord
100
AcDbLinetypeTableRecord
  2
Continuous
 70
     0
  3
Solid line
 72
    65
 73
     0
 40
0.0
  0
LTYPE
  5
3F
330
5
100
AcDbSymbolTableRecord
100
AcDbLinetypeTableRecord
  2
DASHED
 70
     0
  3
Dashed
 72
    65
 73
     2
 40
15.0
 49
7.0
 74
     0
 49
-8.0
 74
     0
  0
LTYPE
  5
40
330
5
100
AcDbSymbolTableRecord
100
AcDbLinetypeTableRecord
  2
DOTTED
 70
     0
  3
Dotted
 72
    65
 73
     2
 40
1.0
 49
0.0
 74
     0
 49
-1.0
 74
     0
  0
LTYPE
  5
41
330
5
100
AcDbSymbolTableRecord
100
AcDbLinetypeTableRecord
  2
DOT_CENTER
 70
     0
  3
Dot_Center
 72
    65
 73
     4
 40
14.0
 49
12.0
 74
     0
 49
-1.0
 74
     0
 49
0.0
 74
     0
 49
-1.0
 74
     0
  0
LTYPE
  5
42
330
5
100
AcDbSymbolTableRecord
100
AcDbLinetypeTableRecord
  2
LONG_DASHED
 70
     0
  3
Long_Dashed
 72
    65
 73
     2
 40
15.0
 49
10.0
 74
     0
 49
-5.0
 74
     0
  0
LTYPE
  5
43
330
5
100
AcDbSymbolTableRecord
100
AcDbLinetypeTableRecord
  2
DASH_CENTER
 70
     0
  3
Dash_Center
 72
    65
 73
     4
 40
14.0
 49
11.0
 74
     0
 49
-1.0
 74
     0
 49
1.0
 74
     0
 49
-1.0
 74
     0
  0
LTYPE
  5
44
330
5
100
AcDbSymbolTableRecord
100
AcDbLinetypeTableRecord
  2
PHANTOM
 70
     0
  3
Phantom
 72
    65
 73
     6
 40
13.0
 49
10.0
 74
     0
 49
-1.0
 74
     0
 49
0.0
 74
     0
 49
-1.0
 74
     0
 49
0.0
 74
     0
 49
-1.0
 74
     0
  0
LTYPE
  5
45
330
5
100
AcDbSymbolTableRecord
100
AcDbLinetypeTableRecord
  2
CENTER_DASH_DASH
 70
     0
  3
Center_Dash_Dash
 72
    65
 73
     6
 40
14.0
 49
9.0
 74
     0
 49
-1.0
 74
     0
 49
1.0
 74
     0
 49
-1.0
 74
     0
 49
1.0
 74
     0
 49
-1.0
 74
     0
  0
ENDTAB
  0
TABLE
  2
LAYER
  5
2
330
0
100
AcDbSymbolTable
 70
     2
  0
LAYER
  5
10
330
2
100
AcDbSymbolTableRecord
100
AcDbLayerTableRecord
  2
0
 70
     0
 62
     7
  6
Continuous
370
    -3
390
F
  0
LAYER
  5
46
330
2
100
AcDbSymbolTableRecord
100
AcDbLayerTableRecord
  2
1
 70
     0
 62
     7
  6
Continuous
370
    -3
390
F
  0
ENDTAB
  0
TABLE
  2
STYLE
  5
3
330
0
100
AcDbSymbolTable
 70
     5
  0
STYLE
  5
11
330
3
100
AcDbSymbolTableRecord
100
AcDbTextStyleTableRecord
  2
Standard
 70
     0
 40
0.0
 41
1.0
 50
0.0
 71
     0
 42
0.2
  3
txt
  4

  0
STYLE
  5
A1
330
3
100
AcDbSymbolTableRecord
100
AcDbTextStyleTableRecord
  2
CONVERTER_11
 70
     0
 40
0.0
 41
0.9
 50
0.0
 71
     0
 42
0.2
  3
txt.shx
  4

  0
STYLE
  5
382
330
3
100
AcDbSymbolTableRecord
100
AcDbTextStyleTableRecord
  2
CONVERTER_12
 70
     0
 40
0.0
 41
0.81
 50
0.0
 71
     0
 42
0.2
  3
txt.shx
  4

  0
STYLE
  5
388
330
3
100
AcDbSymbolTableRecord
100
AcDbTextStyleTableRecord
  2
CONVERTER_13
 70
     0
 40
0.0
 41
0.855
 50
0.0
 71
     0
 42
0.2
  3
txt.shx
  4

  0
STYLE
  5
38B
330
3
100
AcDbSymbolTableRecord
100
AcDbTextStyleTableRecord
  2
CONVERTER_14
 70
     0
 40
0.0
 41
0.72
 50
0.0
 71
     0
 42
0.2
  3
txt.shx
  4

  0
ENDTAB
  0
TABLE
  2
VIEW
  5
6
330
0
100
AcDbSymbolTable
 70
     0
  0
ENDTAB
  0
TABLE
  2
UCS
  5
7
330
0
100
AcDbSymbolTable
 70
     0
  0
ENDTAB
  0
TABLE
  2
APPID
  5
9
330
0
100
AcDbSymbolTable
 70
     1
  0
APPID
  5
12
330
9
100
AcDbSymbolTableRecord
100
AcDbRegAppTableRecord
  2
ACAD
 70
     0
  0
ENDTAB
  0
TABLE
  2
DIMSTYLE
  5
A
330
0
100
AcDbSymbolTable
 70
     4
100
AcDbDimStyleTable
  0
DIMSTYLE
105
27
330
A
100
AcDbSymbolTableRecord
100
AcDbDimStyleTableRecord
  2
Standard
 70
     0
178
     0
340
11
  0
DIMSTYLE
105
C7
102
{ACAD_REACTORS
330
C8
102
}
330
A
100
AcDbSymbolTableRecord
100
AcDbDimStyleTableRecord
  2
ME10_DIM_10
 70
     0
 41
3.5
 42
0.0
 44
1.5
 73
     0
 74
     0
 77
     1
 78
     8
140
3.5
147
1.5
172
     1
173
     1
174
     1
175
     1
176
     2
177
     2
178
     3
340
A1
  0
DIMSTYLE
105
D2
102
{ACAD_REACTORS
330
D3
102
}
330
A
100
AcDbSymbolTableRecord
100
AcDbDimStyleTableRecord
  2
ME10_DIM_11
 70
     0
 41
3.5
 42
0.0
 44
1.5
 73
     0
 74
     0
 77
     1
 78
     8
140
3.5
147
1.5
172
     1
173
     1
174
     1
175
     1
176
     2
177
     2
178
     3
340
A1
  0
DIMSTYLE
105
267
102
{ACAD_REACTORS
330
268
102
}
330
A
100
AcDbSymbolTableRecord
100
AcDbDimStyleTableRecord
  2
ME10_DIM_12
 70
     0
 41
3.5
 42
0.0
 44
1.5
 73
     0
 74
     0
 77
     1
 78
     8
140
3.5
147
1.5
172
     1
173
     1
174
     1
175
     1
176
     2
177
     2
178
     3
340
A1
  0
ENDTAB
  0
TABLE
  2
BLOCK_RECORD
  5
1
330
0
100
AcDbSymbolTable
 70
    20
  0
BLOCK_RECORD
  5
1F
330
1
100
AcDbSymbolTableRecord
100
AcDbBlockTableRecord
  2
*Model_Space
340
22
  0
BLOCK_RECORD
  5
1B
330
1
100
AcDbSymbolTableRecord
100
AcDbBlockTableRecord
  2
*Paper_Space
340
1E
  0
BLOCK_RECORD
  5
23
330
1
100
AcDbSymbolTableRecord
100
AcDbBlockTableRecord
  2
*Paper_Space0
340
26
  0
BLOCK_RECORD
  5
47
330
1
100
AcDbSymbolTableRecord
100
AcDbBlockTableRecord
  2
EB_3-36_UKH-select__1
340
0
102
{BLKREFS
331
4B
102
}
  0
BLOCK_RECORD
  5
4A
330
1
100
AcDbSymbolTableRecord
100
AcDbBlockTableRecord
  2
Back1
340
0
102
{BLKREFS
331
7D
102
}
  0
BLOCK_RECORD
  5
4E
330
1
100
AcDbSymbolTableRecord
100
AcDbBlockTableRecord
  2
EB_3-36_UKH-select__2
340
0
102
{BLKREFS
331
52
102
}
  0
BLOCK_RECORD
  5
51
330
1
100
AcDbSymbolTableRecord
100
AcDbBlockTableRecord
  2
Front1
340
0
102
{BLKREFS
331
7E
102
}
  0
BLOCK_RECORD
  5
55
330
1
100
AcDbSymbolTableRecord
100
AcDbBlockTableRecord
  2
EB_3-36_UKH-select__3
340
0
102
{BLKREFS
331
59
102
}
  0
BLOCK_RECORD
  5
58
330
1
100
AcDbSymbolTableRecord
100
AcDbBlockTableRecord
  2
Gen1
340
0
102
{BLKREFS
331
7F
102
}
  0
BLOCK_RECORD
  5
5C
330
1
100
AcDbSymbolTableRecord
100
AcDbBlockTableRecord
  2
EB_3-36_UKH-select__4
340
0
102
{BLKREFS
331
60
102
}
  0
BLOCK_RECORD
  5
5F
330
1
100
AcDbSymbolTableRecord
100
AcDbBlockTableRecord
  2
Left1
340
0
102
{BLKREFS
331
80
102
}
  0
BLOCK_RECORD
  5
63
330
1
100
AcDbSymbolTableRecord
100
AcDbBlockTableRecord
  2
EB_3-36_UKH-select__5
340
0
102
{BLKREFS
331
67
102
}
  0
BLOCK_RECORD
  5
66
330
1
100
AcDbSymbolTableRecord
100
AcDbBlockTableRecord
  2
Right1
340
0
102
{BLKREFS
331
81
102
}
  0
BLOCK_RECORD
  5
6A
330
1
100
AcDbSymbolTableRecord
100
AcDbBlockTableRecord
  2
EB_3-36_UKH-select__6
340
0
102
{BLKREFS
331
6E
102
}
  0
BLOCK_RECORD
  5
6D
330
1
100
AcDbSymbolTableRecord
100
AcDbBlockTableRecord
  2
Top1
340
0
102
{BLKREFS
331
82
102
}
  0
BLOCK_RECORD
  5
71
330
1
100
AcDbSymbolTableRecord
100
AcDbBlockTableRecord
  2
_rahmen
340
0
102
{BLKREFS
331
78
102
}
  0
BLOCK_RECORD
  5
74
330
1
100
AcDbSymbolTableRecord
100
AcDbBlockTableRecord
  2
_punkt
340
0
102
{BLKREFS
331
79
102
}
  0
BLOCK_RECORD
  5
77
330
1
100
AcDbSymbolTableRecord
100
AcDbBlockTableRecord
  2
A3I_CS
340
0
102
{BLKREFS
331
83
102
}
  0
BLOCK_RECORD
  5
7C
330
1
100
AcDbSymbolTableRecord
100
AcDbBlockTableRecord
  2
1
340
0
102
{BLKREFS
331
86
102
}
  0
BLOCK_RECORD
  5
BE
330
1
100
AcDbSymbolTableRecord
100
AcDbBlockTableRecord
  2
*D17
340
0
  0
BLOCK_RECORD
  5
C9
330
1
100
AcDbSymbolTableRecord
100
AcDbBlockTableRecord
  2
*D18
340
0
  0
BLOCK_RECORD
  5
25E
330
1
100
AcDbSymbolTableRecord
100
AcDbBlockTableRecord
  2
*D19
340
0
  0
ENDTAB
  0
ENDSEC
  0
SECTION
  2
BLOCKS
  0
BLOCK
  5
20
330
1F
100
AcDbEntity
  8
0
100
AcDbBlockBegin
  2
*Model_Space
 70
     0
 10
0.0
 20
0.0
 30
0.0
  3
*Model_Space
  1

  0
ENDBLK
  5
21
330
1F
100
AcDbEntity
  8
0
100
AcDbBlockEnd
  0
BLOCK
  5
1C
330
1B
100
AcDbEntity
 67
     1
  8
0
100
AcDbBlockBegin
  2
*Paper_Space
 70
     0
 10
0.0
 20
0.0
 30
0.0
  3
*Paper_Space
  1

  0
ENDBLK
  5
1D
330
1B
100
AcDbEntity
 67
     1
  8
0
100
AcDbBlockEnd
  0
BLOCK
  5
24
330
23
100
AcDbEntity
  8
0
100
AcDbBlockBegin
  2
*Paper_Space0
 70
     0
 10
0.0
 20
0.0
 30
0.0
  3
*Paper_Space0
  1

  0
ENDBLK
  5
25
330
23
100
AcDbEntity
  8
0
100
AcDbBlockEnd
  0
BLOCK
  5
48
330
47
100
AcDbEntity
  8
0
100
AcDbBlockBegin
  2
EB_3-36_UKH-select__1
 70
     0
 10
-107.7749960525245
 20
-112.3000029270161
 30
0.0
  3
EB_3-36_UKH-select__1
  1

  0
LINE
  5
87
330
47
100
AcDbEntity
  8
0
  6
Continuous
 62
     7
100
AcDbLine
 10
-72.02499605252451
 20
-104.4500029270161
 30
0.0
 11
-64.82499605252453
 21
-97.25000292701611
 31
0.0
  0
LINE
  5
88
330
47
100
AcDbEntity
  8
0
  6
Continuous
 62
     7
100
AcDbLine
 10
-70.92499605252452
 20
-88.40275974058257
 30
0.0
 11
-70.9249960525245
 21
-86.99724611344966
 31
0.0
  0
LINE
  5
89
330
47
100
AcDbEntity
  8
0
  6
Continuous
 62
     7
100
AcDbLine
 10
-66.87499605252451
 20
-86.20000292701611
 30
0.0
 11
-66.87499605252451
 21
-89.20000292701611
 31
0.0
  0
LINE
  5
8A
330
47
100
AcDbEntity
  8
0
  6
Continuous
 62
     7
100
AcDbLine
 10
-66.87499605252451
 20
-84.65897752323168
 30
0.0
 11
-66.87499605252451
 21
-86.20000292701611
 31
0.0
  0
LINE
  5
8B
330
47
100
AcDbEntity
  8
0
  6
Continuous
 62
     7
100
AcDbLine
 10
-70.9249960525245
 20
-86.99724611344966
 30
0.0
 11
-66.87499605252451
 21
-84.65897752323168
 31
0.0
  0
LINE
  5
8C
330
47
100
AcDbEntity
  8
0
  6
Continuous
 62
     7
100
AcDbLine
 10
-64.82499605252453
 20
-89.20000292701611
 30
0.0
 11
-66.87499605252451
 21
-89.20000292701611
 31
0.0
  0
LINE
  5
8D
330
47
100
AcDbEntity
  8
0
  6
Continuous
 62
     7
100
AcDbLine
 10
-66.87499605252451
 20
-90.74102833080055
 30
0.0
 11
-70.92499605252452
 21
-88.40275974058257
 31
0.0
  0
LINE
  5
8E
330
47
100
AcDbEntity
  8
0
  6
Continuous
 62
     7
100
AcDbLine
 10
-72.02499605252451
 20
-112.3000029270161
 30
0.0
 11
-72.02499605252451
 21
-106.0500029270161
 31
0.0
  0
LINE
  5
8F
330
47
100
AcDbEntity
  8
0
  6
Continuous
 62
     7
100
AcDbLine
 10
-72.02499605252451
 20
-106.0500029270161
 30
0.0
 11
-72.02499605252451
 21
-104.4500029270161
 31
0.0
  0
LINE
  5
90
330
47
100
AcDbEntity
  8
0
  6
Continuous
 62
     7
100
AcDbLine
 10
-74.27499605252451
 20
-108.3000029270161
 30
0.0
 11
-72.02499605252451
 21
-106.0500029270161
 31
0.0
  0
LINE
  5
91
330
47
100
AcDbEntity
  8
0
  6
Continuous
 62
     7
100
AcDbLine
 10
-58.12499605252451
 20
-104.0557424476792
 30
0.0
 11
-66.36925653186147
 21
-112.3000029270161
 31
0.0
  0
LINE
  5
92
330
47
100
AcDbEntity
  8
0
  6
Continuous
 62
     7
100
AcDbLine
 10
-66.87499605252451
 20
-89.20000292701611
 30
0.0
 11
-66.87499605252451
 21
-90.74102833080055
 31
0.0
  0
LINE
  5
93
330
47
100
AcDbEntity
  8
0
  6
Continuous
 62
     7
100
AcDbLine
 10
-66.87499605252451
 20
-86.20000292701611
 30
0.0
 11
-64.82499605252453
 21
-86.20000292701611
 31
0.0
  0
LINE
  5
94
330
47
100
AcDbEntity
  8
0
  6
Continuous
 62
     7
100
AcDbLine
 10
-64.82499605252453
 20
-86.20000292701611
 30
0.0
 11
-64.82499605252453
 21
-89.20000292701611
 31
0.0
  0
LINE
  5
95
330
47
100
AcDbEntity
  8
0
  6
Continuous
 62
     7
100
AcDbLine
 10
-64.82499605252453
 20
-89.20000292701611
 30
0.0
 11
-64.82499605252453
 21
-97.25000292701611
 31
0.0
  0
LINE
  5
96
330
47
100
AcDbEntity
  8
0
  6
Continuous
 62
     7
100
AcDbLine
 10
-64.82499605252453
 20
-68.70000292701611
 30
0.0
 11
-64.82499605252453
 21
-86.20000292701611
 31
0.0
  0
LINE
  5
97
330
47
100
AcDbEntity
  8
0
  6
Continuous
 62
     7
100
AcDbLine
 10
-64.82499605252453
 20
-68.70000292701611
 30
0.0
 11
-58.12499605252451
 21
-68.70000292701611
 31
0.0
  0
LINE
  5
98
330
47
100
AcDbEntity
  8
0
  6
Continuous
 62
     7
100
AcDbLine
 10
-58.12499605252451
 20
-104.0557424476792
 30
0.0
 11
-58.12499605252451
 21
-68.70000292701611
 31
0.0
  0
LINE
  5
99
330
47
100
AcDbEntity
  8
0
  6
Continuous
 62
     7
100
AcDbLine
 10
-77.47499605252453
 20
-112.3000029270161
 30
0.0
 11
-107.7749960525245
 21
-112.3000029270161
 31
0.0
  0
LINE
  5
9A
330
47
100
AcDbEntity
  8
0
  6
Continuous
 62
     7
100
AcDbLine
 10
-107.7749960525245
 20
-108.3000029270161
 30
0.0
 11
-77.47499605252453
 21
-108.3000029270161
 31
0.0
  0
LINE
  5
9B
330
47
100
AcDbEntity
  8
0
  6
Continuous
 62
     7
100
AcDbLine
 10
-77.47499605252453
 20
-112.3000029270161
 30
0.0
 11
-77.47499605252453
 21
-108.3000029270161
 31
0.0
  0
LINE
  5
9C
330
47
100
AcDbEntity
  8
0
  6
Continuous
 62
     7
100
AcDbLine
 10
-107.7749960525245
 20
-112.3000029270161
 30
0.0
 11
-107.7749960525245
 21
-108.3000029270161
 31
0.0
  0
LINE
  5
9D
330
47
100
AcDbEntity
  8
0
  6
Continuous
 62
     7
100
AcDbLine
 10
-72.61814180303212
 20
-112.3000029270161
 30
0.0
 11
-77.47499605252453
 21
-112.3000029270161
 31
0.0
  0
LINE
  5
9E
330
47
100
AcDbEntity
  8
0
  6
Continuous
 62
     7
100
AcDbLine
 10
-77.47499605252453
 20
-108.3000029270161
 30
0.0
 11
-74.27499605252451
 21
-108.3000029270161
 31
0.0
  0
LINE
  5
9F
330
47
100
AcDbEntity
  8
0
  6
Continuous
 62
     7
100
AcDbLine
 10
-66.36925653186147
 20
-112.3000029270161
 30
0.0
 11
-72.02499605252451
 21
-112.3000029270161
 31
0.0
  0
LINE
  5
A0
330
47
100
AcDbEntity
  8
0
  6
Continuous
 62
     7
100
AcDbLine
 10
-72.61814180303212
 20
-112.3000029270161
 30
0.0
 11
-72.02499605252451
 21
-111.7068571765085
 31
0.0
  0
ENDBLK
  5
49
330
47
100
AcDbEntity
  8
0
100
AcDbBlockEnd
  0
BLOCK
  5
4C
330
4A
100
AcDbEntity
  8
0
100
AcDbBlockBegin
  2
Back1
 70
     0
 10
-82.94999694855221
 20
-90.49999858203853
 30
0.0
  3
Back1
  1

  0
INSERT
  5
4B
330
4A
100
AcDbEntity
  8
0
100
AcDbBlockReference
  2
EB_3-36_UKH-select__1
 10
-107.7749960525245
 20
-112.3000029270161
 30
0.0
  0
MTEXT
  5
A2
330
4A
100
AcDbEntity
  8
1
 62
     6
100
AcDbMText
 10
-82.94999694855221
 20
-117.2999989354286
 30
0.0
 40
5.0
 41
0.0
 71
     2
 72
     1
  1
 
  7
CONVERTER_11
 73
     1
 44
1.32052821128451
  0
ENDBLK
  5
4D
330
4A
100
AcDbEntity
  8
0
100
AcDbBlockEnd
  0
BLOCK
  5
4F
330
4E
100
AcDbEntity
  8
0
100
AcDbBlockBegin
  2
EB_3-36_UKH-select__2
 70
     0
 10
-296.8250008957176
 20
-112.300002927016
 30
0.0
  3
EB_3-36_UKH-select__2
  1

  0
LINE
  5
A3
330
4E
100
AcDbEntity
  8
0
  6
Continuous
 62
     7
100
AcDbLine
 10
-290.1250008957176
 20
-86.20000292701587
 30
0.0
 11
-290.1250008957176
 21
-89.20000292701587
 31
0.0
  0
LINE
  5
A4
330
4E
100
AcDbEntity
  8
0
  6
Continuous
 62
     7
100
AcDbLine
 10
-290.1250008957176
 20
-89.20000292701587
 30
0.0
 11
-290.1250008957176
 21
-97.25000292701598
 31
0.0
  0
LINE
  5
A5
330
4E
100
AcDbEntity
  8
0
  6
Continuous
 62
     7
100
AcDbLine
 10
-290.1250008957176
 20
-68.70000292701592
 30
0.0
 11
-290.1250008957176
 21
-86.20000292701587
 31
0.0
  0
LINE
  5
A6
330
4E
100
AcDbEntity
  8
0
  6
Continuous
 62
     7
100
AcDbLine
 10
-282.9250008957176
 20
-112.3000029270159
 30
0.0
 11
-282.9250008957176
 21
-106.0500029270159
 31
0.0
  0
LINE
  5
A7
330
4E
100
AcDbEntity
  8
0
  6
Continuous
 62
     7
100
AcDbLine
 10
-288.5807404163807
 20
-112.3000029270159
 30
0.0
 11
-282.9250008957176
 21
-112.3000029270159
 31
0.0
  0
LINE
  5
A8
330
4E
100
AcDbEntity
  8
0
  6
Continuous
 62
     7
100
AcDbLine
 10
-288.5807404163807
 20
-112.3000029270159
 30
0.0
 11
-296.8250008957176
 21
-104.055742447679
 31
0.0
  0
LINE
  5
A9
330
4E
100
AcDbEntity
  8
0
  6
Continuous
 62
     7
100
AcDbLine
 10
-284.0250008957175
 20
-86.99724611344948
 30
0.0
 11
-284.0250008957176
 21
-88.40275974058238
 31
0.0
  0
LINE
  5
AA
330
4E
100
AcDbEntity
  8
0
  6
Continuous
 62
     7
100
AcDbLine
 10
-288.0750008957176
 20
-90.74102833080038
 30
0.0
 11
-288.0750008957176
 21
-89.20000292701587
 31
0.0
  0
LINE
  5
AB
330
4E
100
AcDbEntity
  8
0
  6
Continuous
 62
     7
100
AcDbLine
 10
-284.0250008957176
 20
-88.40275974058238
 30
0.0
 11
-288.0750008957176
 21
-90.74102833080038
 31
0.0
  0
LINE
  5
AC
330
4E
100
AcDbEntity
  8
0
  6
Continuous
 62
     7
100
AcDbLine
 10
-277.4750008957176
 20
-108.3000029270159
 30
0.0
 11
-247.1750008957176
 21
-108.300002927016
 31
0.0
  0
LINE
  5
AD
330
4E
100
AcDbEntity
  8
0
  6
Continuous
 62
     7
100
AcDbLine
 10
-247.1750008957176
 20
-112.300002927016
 30
0.0
 11
-277.4750008957176
 21
-112.3000029270159
 31
0.0
  0
LINE
  5
AE
330
4E
100
AcDbEntity
  8
0
  6
Continuous
 62
     7
100
AcDbLine
 10
-247.1750008957176
 20
-108.300002927016
 30
0.0
 11
-247.1750008957176
 21
-112.300002927016
 31
0.0
  0
LINE
  5
AF
330
4E
100
AcDbEntity
  8
0
  6
Continuous
 62
     7
100
AcDbLine
 10
-277.4750008957176
 20
-112.3000029270159
 30
0.0
 11
-277.4750008957176
 21
-108.3000029270159
 31
0.0
  0
LINE
  5
B0
330
4E
100
AcDbEntity
  8
0
  6
Continuous
 62
     7
100
AcDbLine
 10
-280.6750008957176
 20
-108.3000029270159
 30
0.0
 11
-277.4750008957176
 21
-108.3000029270159
 31
0.0
  0
LINE
  5
B1
330
4E
100
AcDbEntity
  8
0
  6
Continuous
 62
     7
100
AcDbLine
 10
-277.4750008957176
 20
-112.3000029270159
 30
0.0
 11
-282.3318551452099
 21
-112.3000029270159
 31
0.0
  0
LINE
  5
B2
330
4E
100
AcDbEntity
  8
0
  6
Continuous
 62
     7
100
AcDbLine
 10
-282.3318551452099
 20
-112.3000029270159
 30
0.0
 11
-282.9250008957176
 21
-111.7068571765083
 31
0.0
  0
LINE
  5
B3
330
4E
100
AcDbEntity
  8
0
  6
Continuous
 62
     7
100
AcDbLine
 10
-282.9250008957176
 20
-106.0500029270159
 30
0.0
 11
-280.6750008957176
 21
-108.3000029270159
 31
0.0
  0
LINE
  5
B4
330
4E
100
AcDbEntity
  8
0
  6
Continuous
 62
     7
100
AcDbLine
 10
-290.1250008957176
 20
-68.70000292701592
 30
0.0
 11
-296.8250008957176
 21
-68.70000292701592
 31
0.0
  0
LINE
  5
B5
330
4E
100
AcDbEntity
  8
0
  6
Continuous
 62
     7
100
AcDbLine
 10
-282.9250008957176
 20
-106.0500029270159
 30
0.0
 11
-282.9250008957176
 21
-104.4500029270159
 31
0.0
  0
LINE
  5
B6
330
4E
100
AcDbEntity
  8
0
  6
Continuous
 62
     7
100
AcDbLine
 10
-282.9250008957176
 20
-104.4500029270159
 30
0.0
 11
-290.1250008957176
 21
-97.25000292701598
 31
0.0
  0
LINE
  5
B7
330
4E
100
AcDbEntity
  8
0
  6
Continuous
 62
     7
100
AcDbLine
 10
-288.0750008957176
 20
-84.65897752323148
 30
0.0
 11
-284.0250008957175
 21
-86.99724611344948
 31
0.0
  0
LINE
  5
B8
330
4E
100
AcDbEntity
  8
0
  6
Continuous
 62
     7
100
AcDbLine
 10
-290.1250008957176
 20
-86.20000292701587
 30
0.0
 11
-288.0750008957176
 21
-86.20000292701587
 31
0.0
  0
LINE
  5
B9
330
4E
100
AcDbEntity
  8
0
  6
Continuous
 62
     7
100
AcDbLine
 10
-288.0750008957176
 20
-89.20000292701587
 30
0.0
 11
-290.1250008957176
 21
-89.20000292701587
 31
0.0
  0
LINE
  5
BA
330
4E
100
AcDbEntity
  8
0
  6
Continuous
 62
     7
100
AcDbLine
 10
-288.0750008957176
 20
-86.20000292701587
 30
0.0
 11
-288.0750008957176
 21
-84.65897752323148
 31
0.0
  0
LINE
  5
BB
330
4E
100
AcDbEntity
  8
0
  6
Continuous
 62
     7
100
AcDbLine
 10
-288.0750008957176
 20
-86.20000292701587
 30
0.0
 11
-288.0750008957176
 21
-89.20000292701587
 31
0.0
  0
LINE
  5
BC
330
4E
100
AcDbEntity
  8
0
  6
Continuous
 62
     7
100
AcDbLine
 10
-296.8250008957176
 20
-68.70000292701592
 30
0.0
 11
-296.8250008957176
 21
-104.055742447679
 31
0.0
  0
ENDBLK
  5
50
330
4E
100
AcDbEntity
  8
0
100
AcDbBlockEnd
  0
BLOCK
  5
53
330
51
100
AcDbEntity
  8
0
100
AcDbBlockBegin
  2
Front1
 70
     0
 10
-271.9999999996899
 20
-90.49999858203837
 30
0.0
  3
Front1
  1

  0
INSERT
  5
52
330
51
100
AcDbEntity
  8
0
100
AcDbBlockReference
  2
EB_3-36_UKH-select__2
 10
-296.8250008957176
 20
-112.300002927016
 30
0.0
  0
MTEXT
  5
BD
330
51
100
AcDbEntity
  8
1
 62
     6
100
AcDbMText
 10
-271.99999999969
 20
-117.2999989354286
 30
0.0
 40
5.0
 41
0.0
 71
     2
 72
     1
  1
 
  7
CONVERTER_11
 73
     1
 44
1.32052821128451
  0
DIMENSION
  5
C8
330
51
100
AcDbEntity
  8
1
100
AcDbDimension
  2
*D17
 10
-296.8250008957176
 20
-125.8442171666607
 30
0.0
 11
-271.7502308036929
 21
-122.4192171666607
 31
0.0
 70
    32
  1
<>
 71
     5
 42
-1.0
 53
0.00013888888889
  3
ME10_DIM_10
100
AcDbAlignedDimension
 13
-247.1750008957176
 23
-112.300002927016
 33
0.0
 14
-296.8250008957176
 24
-104.055742447679
 34
0.0
100
AcDbRotatedDimension
  0
DIMENSION
  5
D3
330
51
100
AcDbEntity
  8
1
100
AcDbDimension
  2
*D18
 10
-307.531438285636
 20
-112.3000029270159
 30
0.0
 11
-310.956438285636
 21
-88.76443776696735
 31
0.0
 70
    32
  1
<>
 71
     5
 42
-1.0
 53
90.0
  3
ME10_DIM_11
100
AcDbAlignedDimension
 13
-290.1250008957176
 23
-68.70000292701592
 33
0.0
 14
-282.9250008957176
 24
-112.3000029270159
 34
0.0
 50
90.0
100
AcDbRotatedDimension
  0
ENDBLK
  5
54
330
51
100
AcDbEntity
  8
0
100
AcDbBlockEnd
  0
BLOCK
  5
56
330
55
100
AcDbEntity
  8
0
100
AcDbBlockBegin
  2
EB_3-36_UKH-select__3
 70
     0
 10
-192.3490814247155
 20
-243.97847254463
 30
0.0
  3
EB_3-36_UKH-select__3
  1

  0
LINE
  5
D4
330
55
100
AcDbEntity
  8
0
  6
Continuous
 62
     7
100
AcDbLine
 10
-100.3759201268182
 20
-198.7286451968931
 30
0.0
 11
-100.3759201268182
 21
-202.1927468120308
 31
0.0
  0
LINE
  5
D5
330
55
100
AcDbEntity
  8
0
  6
Continuous
 62
     7
100
AcDbLine
 10
-112.6259201268181
 20
-209.3374563932525
 30
0.0
 11
-112.6259201268181
 21
-212.8015580083902
 31
0.0
  0
LINE
  5
D6
330
55
100
AcDbEntity
  8
0
  6
Continuous
 62
     7
100
AcDbLine
 10
-118.3759201268181
 20
-217.7812040801507
 30
0.0
 11
-118.3759201268181
 21
-214.317102465013
 31
0.0
  0
LINE
  5
D7
330
55
100
AcDbEntity
  8
0
  6
Continuous
 62
     7
100
AcDbLine
 10
-131.2113283121118
 20
-189.081022699392
 30
0.0
 11
-131.2113283121118
 21
-187.8183880625199
 31
0.0
  0
LINE
  5
D8
330
55
100
AcDbEntity
  8
0
  6
Continuous
 62
     7
100
AcDbLine
 10
-126.6164898614866
 20
-191.1536451968931
 30
0.0
 11
-127.1164898614866
 21
-191.5866578987853
 31
0.0
  0
LINE
  5
D9
330
55
100
AcDbEntity
  8
0
  6
Continuous
 62
     7
100
AcDbLine
 10
-127.1164898614866
 20
-191.5866578987853
 30
0.0
 11
-129.8877711535968
 21
-190.7866578987853
 31
0.0
  0
LINE
  5
DA
330
55
100
AcDbEntity
  8
0
  6
Continuous
 62
     7
100
AcDbLine
 10
-112.6259201268181
 20
-212.8015580083902
 30
0.0
 11
-100.3759201268182
 21
-202.1927468120308
 31
0.0
  0
LINE
  5
DB
330
55
100
AcDbEntity
  8
0
  6
Continuous
 62
     7
100
AcDbLine
 10
-112.6259201268181
 20
-209.3374563932525
 30
0.0
 11
-100.3759201268182
 21
-198.7286451968931
 31
0.0
  0
LINE
  5
DC
330
55
100
AcDbEntity
  8
0
  6
Continuous
 62
     7
100
AcDbLine
 10
-126.6164898614866
 20
-191.1536451968931
 30
0.0
 11
-100.3759201268182
 21
-198.7286451968931
 31
0.0
  0
LINE
  5
DD
330
55
100
AcDbEntity
  8
0
  6
Continuous
 62
     7
100
AcDbLine
 10
-174.8664898614866
 20
-236.40347254463
 30
0.0
 11
-174.8664898614866
 21
-232.9393709294922
 31
0.0
  0
LINE
  5
DE
330
55
100
AcDbEntity
  8
0
  6
Continuous
 62
     7
100
AcDbLine
 10
-174.8664898614867
 20
-235.8261222754404
 30
0.0
 11
-178.5726490240255
 21
-234.7562462803647
 31
0.0
  0
LINE
  5
DF
330
55
100
AcDbEntity
  8
0
  6
Continuous
 62
     7
100
AcDbLine
 10
-174.8664898614866
 20
-232.9393709294922
 30
0.0
 11
-148.6259201268182
 21
-240.5143709294922
 31
0.0
  0
LINE
  5
E0
330
55
100
AcDbEntity
  8
0
  6
Continuous
 62
     7
100
AcDbLine
 10
-148.6259201268182
 20
-243.97847254463
 30
0.0
 11
-174.8664898614866
 21
-236.40347254463
 31
0.0
  0
LINE
  5
E1
330
55
100
AcDbEntity
  8
0
  6
Continuous
 62
     7
100
AcDbLine
 10
-148.6259201268182
 20
-240.5143709294922
 30
0.0
 11
-148.6259201268182
 21
-243.97847254463
 31
0.0
  0
LINE
  5
E2
330
55
100
AcDbEntity
  8
0
  6
Continuous
 62
     7
100
AcDbLine
 10
-148.6259201268182
 20
-240.5143709294922
 30
0.0
 11
-136.3759201268182
 21
-229.9055597331329
 31
0.0
  0
LINE
  5
E3
330
55
100
AcDbEntity
  8
0
  6
Continuous
 62
     7
100
AcDbLine
 10
-136.3759201268182
 20
-233.3696613482706
 30
0.0
 11
-136.3759201268182
 21
-229.9055597331329
 31
0.0
  0
LINE
  5
E4
330
55
100
AcDbEntity
  8
0
  6
Continuous
 62
     7
100
AcDbLine
 10
-148.6259201268182
 20
-243.97847254463
 30
0.0
 11
-136.3759201268182
 21
-233.3696613482706
 31
0.0
  0
LINE
  5
E5
330
55
100
AcDbEntity
  8
0
  6
Continuous
 62
     7
100
AcDbLine
 10
-130.6113283121119
 20
-189.8542277801489
 30
0.0
 11
-130.6113283121118
 21
-185.8290789745793
 31
0.0
  0
LINE
  5
E6
330
55
100
AcDbEntity
  8
0
  6
Continuous
 62
     7
100
AcDbLine
 10
-130.6259201268182
 20
-224.9259136613723
 30
0.0
 11
-130.6259201268182
 21
-228.3900152765101
 31
0.0
  0
LINE
  5
E7
330
55
100
AcDbEntity
  8
0
  6
Continuous
 62
     7
100
AcDbLine
 10
-129.8877711535968
 20
-190.7866578987853
 30
0.0
 11
-131.8363283121118
 21
-188.2756007402703
 31
0.0
  0
LINE
  5
E8
330
55
100
AcDbEntity
  8
0
  6
Continuous
 62
     7
100
AcDbLine
 10
-112.6259201268181
 20
-212.8015580083902
 30
0.0
 11
-138.8664898614866
 21
-205.2265580083902
 31
0.0
  0
LINE
  5
E9
330
55
100
AcDbEntity
  8
0
  6
Continuous
 62
     7
100
AcDbLine
 10
-138.8664898614866
 20
-204.6492077392006
 30
0.0
 11
-142.5726490240255
 21
-203.5793317441249
 31
0.0
  0
LINE
  5
EA
330
55
100
AcDbEntity
  8
0
  6
Continuous
 62
     7
100
AcDbLine
 10
-138.3664898614866
 20
-201.3294436913602
 30
0.0
 11
-138.8664898614866
 21
-201.7624563932525
 31
0.0
  0
LINE
  5
EB
330
55
100
AcDbEntity
  8
0
  6
Continuous
 62
     7
100
AcDbLine
 10
-141.1377711535968
 20
-200.5294436913602
 30
0.0
 11
-138.3664898614866
 21
-201.3294436913602
 31
0.0
  0
LINE
  5
EC
330
55
100
AcDbEntity
  8
0
  6
Continuous
 62
     7
100
AcDbLine
 10
-138.8664898614866
 20
-201.7624563932525
 30
0.0
 11
-138.8664898614866
 21
-205.2265580083902
 31
0.0
  0
LINE
  5
ED
330
55
100
AcDbEntity
  8
0
  6
Continuous
 62
     7
100
AcDbLine
 10
-118.3759201268181
 20
-214.317102465013
 30
0.0
 11
-144.6164898614866
 21
-206.742102465013
 31
0.0
  0
LINE
  5
EE
330
55
100
AcDbEntity
  8
0
  6
Continuous
 62
     7
100
AcDbLine
 10
-138.8664898614866
 20
-201.7624563932525
 30
0.0
 11
-112.6259201268181
 21
-209.3374563932525
 31
0.0
  0
LINE
  5
EF
330
55
100
AcDbEntity
  8
0
  6
Continuous
 62
     7
100
AcDbLine
 10
-130.6259201268182
 20
-224.9259136613723
 30
0.0
 11
-118.3759201268181
 21
-214.317102465013
 31
0.0
  0
LINE
  5
F0
330
55
100
AcDbEntity
  8
0
  6
Continuous
 62
     7
100
AcDbLine
 10
-130.6259201268182
 20
-228.3900152765101
 30
0.0
 11
-118.3759201268181
 21
-217.7812040801507
 31
0.0
  0
LINE
  5
F1
330
55
100
AcDbEntity
  8
0
  6
Continuous
 62
     7
100
AcDbLine
 10
-133.3613283121118
 20
-189.5962894810416
 30
0.0
 11
-131.8363283121118
 21
-188.2756007402703
 31
0.0
  0
LINE
  5
F2
330
55
100
AcDbEntity
  8
0
  6
Continuous
 62
     7
100
AcDbLine
 10
-133.3613283121118
 20
-188.2106488349865
 30
0.0
 11
-139.5967112193598
 21
-180.1752659277385
 31
0.0
  0
LINE
  5
F3
330
55
100
AcDbEntity
  8
0
  6
Continuous
 62
     7
100
AcDbLine
 10
-131.2113283121118
 20
-187.8183880625199
 30
0.0
 11
-131.7973190864131
 21
-188.325870959448
 31
0.0
  0
LINE
  5
F4
330
55
100
AcDbEntity
  8
0
  6
Continuous
 62
     7
100
AcDbLine
 10
-133.3613283121118
 20
-189.5962894810416
 30
0.0
 11
-133.3613283121118
 21
-188.2106488349865
 31
0.0
  0
LINE
  5
F5
330
55
100
AcDbEntity
  8
0
  6
Continuous
 62
     7
100
AcDbLine
 10
-133.3613283121118
 20
-188.2106488349865
 30
0.0
 11
-130.6113283121118
 21
-185.8290789745793
 31
0.0
  0
LINE
  5
F6
330
55
100
AcDbEntity
  8
0
  6
Continuous
 62
     7
100
AcDbLine
 10
-130.6113283121118
 20
-185.8290789745793
 30
0.0
 11
-136.8467112193598
 21
-177.7936960673313
 31
0.0
  0
LINE
  5
F7
330
55
100
AcDbEntity
  8
0
  6
Continuous
 62
     7
100
AcDbLine
 10
-138.0210183922093
 20
-177.2487385579551
 30
0.0
 11
-138.8068941203401
 21
-177.9293269027338
 31
0.0
  0
LINE
  5
F8
330
55
100
AcDbEntity
  8
0
  6
Continuous
 62
     7
100
AcDbLine
 10
-138.0210183922093
 20
-177.2487385579551
 30
0.0
 11
-138.0210183922093
 21
-176.0315280514928
 31
0.0
  0
LINE
  5
F9
330
55
100
AcDbEntity
  8
0
  6
Continuous
 62
     7
100
AcDbLine
 10
-138.80689412034
 20
-176.7121163962715
 30
0.0
 11
-138.8068941203401
 21
-177.9293269027338
 31
0.0
  0
LINE
  5
FA
330
55
100
AcDbEntity
  8
0
  6
Continuous
 62
     7
100
AcDbLine
 10
-138.80689412034
 20
-176.7121163962715
 30
0.0
 11
-138.0210183922093
 21
-176.0315280514928
 31
0.0
  0
LINE
  5
FB
330
55
100
AcDbEntity
  8
0
  6
Continuous
 62
     7
100
AcDbLine
 10
-136.8467112193598
 20
-177.7936960673313
 30
0.0
 11
-139.5967112193598
 21
-180.1752659277385
 31
0.0
  0
LINE
  5
FC
330
55
100
AcDbEntity
  8
0
  6
Continuous
 62
     7
100
AcDbLine
 10
-133.3613283121118
 20
-189.5962894810416
 30
0.0
 11
-140.2397892811945
 21
-180.7321878659038
 31
0.0
  0
LINE
  5
FD
330
55
100
AcDbEntity
  8
0
  6
Continuous
 62
     7
100
AcDbLine
 10
-141.1377711535968
 20
-200.5294436913602
 30
0.0
 11
-129.8877711535968
 21
-190.7866578987853
 31
0.0
  0
LINE
  5
FE
330
55
100
AcDbEntity
  8
0
  6
Continuous
 62
     7
100
AcDbLine
 10
-136.3759201268182
 20
-229.9055597331329
 30
0.0
 11
-162.6164898614866
 21
-222.3305597331329
 31
0.0
  0
LINE
  5
FF
330
55
100
AcDbEntity
  8
0
  6
Continuous
 62
     7
100
AcDbLine
 10
-156.8664898614866
 20
-217.3509136613724
 30
0.0
 11
-130.6259201268182
 21
-224.9259136613723
 31
0.0
  0
LINE
  5
100
330
55
100
AcDbEntity
  8
0
  6
Continuous
 62
     7
100
AcDbLine
 10
-130.6259201268182
 20
-228.3900152765101
 30
0.0
 11
-156.8664898614866
 21
-220.8150152765101
 31
0.0
  0
LINE
  5
101
330
55
100
AcDbEntity
  8
0
  6
Continuous
 62
     7
100
AcDbLine
 10
-143.5626422841933
 20
-197.4045725607638
 30
0.0
 11
-141.1377711535968
 21
-200.5294436913602
 31
0.0
  0
LINE
  5
102
330
55
100
AcDbEntity
  8
0
  6
Continuous
 62
     7
100
AcDbLine
 10
-142.5726490240255
 20
-203.5793317441249
 30
0.0
 11
-143.5626422841933
 21
-202.3035520463302
 31
0.0
  0
LINE
  5
103
330
55
100
AcDbEntity
  8
0
  6
Continuous
 62
     7
100
AcDbLine
 10
-143.5626422841933
 20
-197.4045725607638
 30
0.0
 11
-144.0626422841933
 21
-197.837585262656
 31
0.0
  0
LINE
  5
104
330
55
100
AcDbEntity
  8
0
  6
Continuous
 62
     7
100
AcDbLine
 10
-150.4647892811945
 20
-189.5872976195997
 30
0.0
 11
-144.0626422841933
 21
-197.837585262656
 31
0.0
  0
LINE
  5
105
330
55
100
AcDbEntity
  8
0
  6
Continuous
 62
     7
100
AcDbLine
 10
-144.0626422841933
 20
-202.7365647482224
 30
0.0
 11
-144.0626422841933
 21
-197.837585262656
 31
0.0
  0
LINE
  5
106
330
55
100
AcDbEntity
  8
0
  6
Continuous
 62
     7
100
AcDbLine
 10
-144.0626422841933
 20
-202.7365647482224
 30
0.0
 11
-152.7384135729726
 21
-191.5563140149409
 31
0.0
  0
LINE
  5
107
330
55
100
AcDbEntity
  8
0
  6
Continuous
 62
     7
100
AcDbLine
 10
-149.8126422841933
 20
-202.8172313344166
 30
0.0
 11
-156.2147892811945
 21
-194.5669436913602
 31
0.0
  0
LINE
  5
108
330
55
100
AcDbEntity
  8
0
  6
Continuous
 62
     7
100
AcDbLine
 10
-143.5626422841933
 20
-197.4045725607638
 30
0.0
 11
-143.5626422841933
 21
-202.3035520463302
 31
0.0
  0
LINE
  5
109
330
55
100
AcDbEntity
  8
0
  6
Continuous
 62
     7
100
AcDbLine
 10
-159.1377711535968
 20
-216.1179009594801
 30
0.0
 11
-156.3664898614866
 21
-216.9179009594801
 31
0.0
  0
LINE
  5
10A
330
55
100
AcDbEntity
  8
0
  6
Continuous
 62
     7
100
AcDbLine
 10
-161.5626422841933
 20
-212.9930298288837
 30
0.0
 11
-159.1377711535968
 21
-216.1179009594801
 31
0.0
  0
LINE
  5
10B
330
55
100
AcDbEntity
  8
0
  6
Continuous
 62
     7
100
AcDbLine
 10
-156.8664898614867
 20
-220.2376650073205
 30
0.0
 11
-160.5726490240255
 21
-219.1677890122448
 31
0.0
  0
LINE
  5
10C
330
55
100
AcDbEntity
  8
0
  6
Continuous
 62
     7
100
AcDbLine
 10
-156.8664898614866
 20
-217.3509136613724
 30
0.0
 11
-156.8664898614866
 21
-220.8150152765101
 31
0.0
  0
LINE
  5
10D
330
55
100
AcDbEntity
  8
0
  6
Continuous
 62
     7
100
AcDbLine
 10
-156.3664898614866
 20
-216.9179009594801
 30
0.0
 11
-156.8664898614866
 21
-217.3509136613724
 31
0.0
  0
LINE
  5
10E
330
55
100
AcDbEntity
  8
0
  6
Continuous
 62
     7
100
AcDbLine
 10
-162.6164898614866
 20
-222.3305597331329
 30
0.0
 11
-163.1164898614866
 21
-222.7635724350251
 31
0.0
  0
LINE
  5
10F
330
55
100
AcDbEntity
  8
0
  6
Continuous
 62
     7
100
AcDbLine
 10
-163.1164898614866
 20
-222.7635724350251
 30
0.0
 11
-165.8877711535968
 21
-221.9635724350251
 31
0.0
  0
LINE
  5
110
330
55
100
AcDbEntity
  8
0
  6
Continuous
 62
     7
100
AcDbLine
 10
-167.8126422841933
 20
-218.4056886025365
 30
0.0
 11
-168.3126422841933
 21
-218.8387013044287
 31
0.0
  0
LINE
  5
111
330
55
100
AcDbEntity
  8
0
  6
Continuous
 62
     7
100
AcDbLine
 10
-167.8126422841933
 20
-218.4056886025365
 30
0.0
 11
-167.8126422841933
 21
-219.4830388717261
 31
0.0
  0
LINE
  5
112
330
55
100
AcDbEntity
  8
0
  6
Continuous
 62
     7
100
AcDbLine
 10
-160.6713591416017
 20
-190.9068656923949
 30
0.0
 11
-160.6713591416017
 21
-189.5722985448404
 31
0.0
  0
LINE
  5
113
330
55
100
AcDbEntity
  8
0
  6
Continuous
 62
     7
100
AcDbLine
 10
-160.32712819444
 20
-189.2741857998296
 30
0.0
 11
-160.9467112193598
 21
-189.0953275867182
 31
0.0
  0
LINE
  5
114
330
55
100
AcDbEntity
  8
0
  6
Continuous
 62
     7
100
AcDbLine
 10
-156.0210183922093
 20
-191.6199853196127
 30
0.0
 11
-159.1713591416017
 21
-188.2732604391637
 31
0.0
  0
LINE
  5
115
330
55
100
AcDbEntity
  8
0
  6
Continuous
 62
     7
100
AcDbLine
 10
-160.6713591416017
 20
-189.5722985448404
 30
0.0
 11
-156.8068941203401
 21
-192.3005736643915
 31
0.0
  0
LINE
  5
116
330
55
100
AcDbEntity
  8
0
  6
Continuous
 62
     7
100
AcDbLine
 10
-165.8877711535968
 20
-221.9635724350251
 30
0.0
 11
-168.3126422841933
 21
-218.8387013044287
 31
0.0
  0
LINE
  5
117
330
55
100
AcDbEntity
  8
0
  6
Continuous
 62
     7
100
AcDbLine
 10
-185.2093424141937
 20
-234.254906082208
 30
0.0
 11
-192.3490814247155
 21
-225.0541019518518
 31
0.0
  0
LINE
  5
118
330
55
100
AcDbEntity
  8
0
  6
Continuous
 62
     7
100
AcDbLine
 10
-192.3490814247155
 20
-194.4351333573722
 30
0.0
 11
-192.3490814247155
 21
-225.0541019518518
 31
0.0
  0
LINE
  5
119
330
55
100
AcDbEntity
  8
0
  6
Continuous
 62
     7
100
AcDbLine
 10
-186.5467112193598
 20
-196.1101333573722
 30
0.0
 11
-186.5467112193598
 21
-220.8351586354179
 31
0.0
  0
LINE
  5
11A
330
55
100
AcDbEntity
  8
0
  6
Continuous
 62
     7
100
AcDbLine
 10
-186.5467112193598
 20
-220.8351586354179
 30
0.0
 11
-180.3113283121118
 21
-228.8705415426659
 31
0.0
  0
LINE
  5
11B
330
55
100
AcDbEntity
  8
0
  6
Continuous
 62
     7
100
AcDbLine
 10
-183.7967112193598
 20
-218.4535887750107
 30
0.0
 11
-186.5467112193598
 21
-220.8351586354179
 31
0.0
  0
LINE
  5
11C
330
55
100
AcDbEntity
  8
0
  6
Continuous
 62
     7
100
AcDbLine
 10
-180.3113283121118
 20
-235.6688409623737
 30
0.0
 11
-179.7113283121118
 21
-235.1492257201031
 31
0.0
  0
LINE
  5
11D
330
55
100
AcDbEntity
  8
0
  6
Continuous
 62
     7
100
AcDbLine
 10
-185.2093424141937
 20
-234.254906082208
 30
0.0
 11
-180.3113283121118
 21
-235.6688409623737
 31
0.0
  0
LINE
  5
11E
330
55
100
AcDbEntity
  8
0
  6
Continuous
 62
     7
100
AcDbLine
 10
-179.0863283121118
 20
-229.2793542686999
 30
0.0
 11
-179.7113283121118
 21
-229.8206201460651
 31
0.0
  0
LINE
  5
11F
330
55
100
AcDbEntity
  8
0
  6
Continuous
 62
     7
100
AcDbLine
 10
-179.0863283121118
 20
-229.195301069085
 30
0.0
 11
-177.1377711535968
 21
-231.7063582276
 31
0.0
  0
LINE
  5
120
330
55
100
AcDbEntity
  8
0
  6
Continuous
 62
     7
100
AcDbLine
 10
-178.5726490240255
 20
-234.7562462803647
 30
0.0
 11
-179.7113283121119
 21
-233.2888585955296
 31
0.0
  0
LINE
  5
121
330
55
100
AcDbEntity
  8
0
  6
Continuous
 62
     7
100
AcDbLine
 10
-174.3664898614866
 20
-232.5063582276
 30
0.0
 11
-174.8664898614866
 21
-232.9393709294922
 31
0.0
  0
LINE
  5
122
330
55
100
AcDbEntity
  8
0
  6
Continuous
 62
     7
100
AcDbLine
 10
-178.6713591416017
 20
-210.4279663194226
 30
0.0
 11
-178.6713591416017
 21
-209.0933991718681
 31
0.0
  0
LINE
  5
123
330
55
100
AcDbEntity
  8
0
  6
Continuous
 62
     7
100
AcDbLine
 10
-174.8068941203401
 20
-209.1062414389737
 30
0.0
 11
-178.6713591416017
 21
-210.4279663194226
 31
0.0
  0
LINE
  5
124
330
55
100
AcDbEntity
  8
0
  6
Continuous
 62
     7
100
AcDbLine
 10
-179.0863283121118
 20
-229.2793542686999
 30
0.0
 11
-179.0863283121118
 21
-229.195301069085
 31
0.0
  0
LINE
  5
125
330
55
100
AcDbEntity
  8
0
  6
Continuous
 62
     7
100
AcDbLine
 10
-177.5613283121118
 20
-226.4889716822587
 30
0.0
 11
-177.5613283121118
 21
-227.8746123283138
 31
0.0
  0
LINE
  5
126
330
55
100
AcDbEntity
  8
0
  6
Continuous
 62
     7
100
AcDbLine
 10
-180.3113283121118
 20
-228.8705415426659
 30
0.0
 11
-177.5613283121118
 21
-226.4889716822587
 31
0.0
  0
LINE
  5
127
330
55
100
AcDbEntity
  8
0
  6
Continuous
 62
     7
100
AcDbLine
 10
-179.0863283121118
 20
-229.195301069085
 30
0.0
 11
-177.5613283121118
 21
-227.8746123283138
 31
0.0
  0
LINE
  5
128
330
55
100
AcDbEntity
  8
0
  6
Continuous
 62
     7
100
AcDbLine
 10
-179.7113283121118
 20
-229.8206201460651
 30
0.0
 11
-179.7113283121118
 21
-235.1492257201031
 31
0.0
  0
LINE
  5
129
330
55
100
AcDbEntity
  8
0
  6
Continuous
 62
     7
100
AcDbLine
 10
-177.1377711535968
 20
-231.7063582276
 30
0.0
 11
-174.3664898614866
 21
-232.5063582276
 31
0.0
  0
LINE
  5
12A
330
55
100
AcDbEntity
  8
0
  6
Continuous
 62
     7
100
AcDbLine
 10
-180.3113283121118
 20
-235.6688409623737
 30
0.0
 11
-180.3113283121118
 21
-228.8705415426659
 31
0.0
  0
LINE
  5
12B
330
55
100
AcDbEntity
  8
0
  6
Continuous
 62
     7
100
AcDbLine
 10
-174.0210183922094
 20
-208.4256530941949
 30
0.0
 11
-174.8068941203401
 21
-209.1062414389737
 31
0.0
  0
LINE
  5
12C
330
55
100
AcDbEntity
  8
0
  6
Continuous
 62
     7
100
AcDbLine
 10
-180.4467112193598
 20
-205.9828229605148
 30
0.0
 11
-180.4467112193598
 21
-208.5808991718681
 31
0.0
  0
LINE
  5
12D
330
55
100
AcDbEntity
  8
0
  6
Continuous
 62
     7
100
AcDbLine
 10
-178.6713591416017
 20
-206.4953229605148
 30
0.0
 11
-178.6713591416017
 21
-209.0933991718681
 31
0.0
  0
LINE
  5
12E
330
55
100
AcDbEntity
  8
0
  6
Continuous
 62
     7
100
AcDbLine
 10
-174.8068941203401
 20
-207.8890309325113
 30
0.0
 11
-174.8068941203401
 21
-209.1062414389737
 31
0.0
  0
LINE
  5
12F
330
55
100
AcDbEntity
  8
0
  6
Continuous
 62
     7
100
AcDbLine
 10
-174.0210183922094
 20
-208.4256530941949
 30
0.0
 11
-174.0210183922094
 21
-207.2084425877326
 31
0.0
  0
LINE
  5
130
330
55
100
AcDbEntity
  8
0
  6
Continuous
 62
     7
100
AcDbLine
 10
-178.3271281944401
 20
-204.8626430679495
 30
0.0
 11
-178.9467112193598
 21
-204.6837848548381
 31
0.0
  0
LINE
  5
131
330
55
100
AcDbEntity
  8
0
  6
Continuous
 62
     7
100
AcDbLine
 10
-180.4467112193598
 20
-205.9828229605148
 30
0.0
 11
-178.9467112193598
 21
-204.6837848548381
 31
0.0
  0
LINE
  5
132
330
55
100
AcDbEntity
  8
0
  6
Continuous
 62
     7
100
AcDbLine
 10
-180.4467112193598
 20
-205.9828229605148
 30
0.0
 11
-178.6713591416017
 21
-206.4953229605148
 31
0.0
  0
LINE
  5
133
330
55
100
AcDbEntity
  8
0
  6
Continuous
 62
     7
100
AcDbLine
 10
-178.6713591416017
 20
-205.1607558129603
 30
0.0
 11
-174.8068941203401
 21
-207.8890309325113
 31
0.0
  0
LINE
  5
134
330
55
100
AcDbEntity
  8
0
  6
Continuous
 62
     7
100
AcDbLine
 10
-174.8068941203401
 20
-207.8890309325113
 30
0.0
 11
-174.0210183922094
 21
-207.2084425877326
 31
0.0
  0
LINE
  5
135
330
55
100
AcDbEntity
  8
0
  6
Continuous
 62
     7
100
AcDbLine
 10
-174.0210183922094
 20
-207.2084425877326
 30
0.0
 11
-177.1713591416017
 21
-203.8617177072836
 31
0.0
  0
LINE
  5
136
330
55
100
AcDbEntity
  8
0
  6
Continuous
 62
     7
100
AcDbLine
 10
-178.6713591416017
 20
-205.1607558129603
 30
0.0
 11
-177.1713591416017
 21
-203.8617177072836
 31
0.0
  0
LINE
  5
137
330
55
100
AcDbEntity
  8
0
  6
Continuous
 62
     7
100
AcDbLine
 10
-178.6713591416017
 20
-206.4953229605148
 30
0.0
 11
-178.6713591416017
 21
-205.1607558129603
 31
0.0
  0
LINE
  5
138
330
55
100
AcDbEntity
  8
0
  6
Continuous
 62
     7
100
AcDbLine
 10
-178.6713591416017
 20
-209.0933991718681
 30
0.0
 11
-180.4467112193598
 21
-208.5808991718681
 31
0.0
  0
LINE
  5
139
330
55
100
AcDbEntity
  8
0
  6
Continuous
 62
     7
100
AcDbLine
 10
-183.7967112193598
 20
-218.4535887750107
 30
0.0
 11
-177.5613283121118
 21
-226.4889716822587
 31
0.0
  0
LINE
  5
13A
330
55
100
AcDbEntity
  8
0
  6
Continuous
 62
     7
100
AcDbLine
 10
-162.0626422841933
 20
-218.3250220163423
 30
0.0
 11
-161.5626422841933
 21
-217.8920093144501
 31
0.0
  0
LINE
  5
13B
330
55
100
AcDbEntity
  8
0
  6
Continuous
 62
     7
100
AcDbLine
 10
-161.5626422841933
 20
-212.9930298288837
 30
0.0
 11
-162.0626422841933
 21
-213.4260425307759
 31
0.0
  0
LINE
  5
13C
330
55
100
AcDbEntity
  8
0
  6
Continuous
 62
     7
100
AcDbLine
 10
-161.5626422841933
 20
-212.9930298288837
 30
0.0
 11
-161.5626422841933
 21
-217.8920093144501
 31
0.0
  0
LINE
  5
13D
330
55
100
AcDbEntity
  8
0
  6
Continuous
 62
     7
100
AcDbLine
 10
-160.5726490240255
 20
-219.1677890122448
 30
0.0
 11
-161.5626422841933
 21
-217.8920093144501
 31
0.0
  0
LINE
  5
13E
330
55
100
AcDbEntity
  8
0
  6
Continuous
 62
     7
100
AcDbLine
 10
-168.4647892811945
 20
-205.1757548877196
 30
0.0
 11
-162.0626422841933
 21
-213.4260425307759
 31
0.0
  0
LINE
  5
13F
330
55
100
AcDbEntity
  8
0
  6
Continuous
 62
     7
100
AcDbLine
 10
-162.0626422841933
 20
-218.3250220163423
 30
0.0
 11
-162.0626422841933
 21
-213.4260425307759
 31
0.0
  0
LINE
  5
140
330
55
100
AcDbEntity
  8
0
  6
Continuous
 62
     7
100
AcDbLine
 10
-170.5555838435429
 20
-207.3803794092416
 30
0.0
 11
-174.0319595517647
 21
-210.3910090856609
 31
0.0
  0
LINE
  5
141
330
55
100
AcDbEntity
  8
0
  6
Continuous
 62
     7
100
AcDbLine
 10
-167.8126422841933
 20
-218.4056886025365
 30
0.0
 11
-174.2147892811945
 21
-210.1554009594801
 31
0.0
  0
LINE
  5
142
330
55
100
AcDbEntity
  8
0
  6
Continuous
 62
     7
100
AcDbLine
 10
-162.0626422841933
 20
-218.3250220163423
 30
0.0
 11
-170.7384135729726
 21
-207.1447712830608
 31
0.0
  0
LINE
  5
143
330
55
100
AcDbEntity
  8
0
  6
Continuous
 62
     7
100
AcDbLine
 10
-162.4467112193598
 20
-190.3943656923949
 30
0.0
 11
-160.9467112193598
 21
-189.0953275867182
 31
0.0
  0
LINE
  5
144
330
55
100
AcDbEntity
  8
0
  6
Continuous
 62
     7
100
AcDbLine
 10
-160.6713591416017
 20
-189.5722985448404
 30
0.0
 11
-159.1713591416017
 21
-188.2732604391637
 31
0.0
  0
LINE
  5
145
330
55
100
AcDbEntity
  8
0
  6
Continuous
 62
     7
100
AcDbLine
 10
-162.4467112193598
 20
-190.3943656923949
 30
0.0
 11
-162.4467112193598
 21
-192.9924419037482
 31
0.0
  0
LINE
  5
146
330
55
100
AcDbEntity
  8
0
  6
Continuous
 62
     7
100
AcDbLine
 10
-177.1377711535968
 20
-231.7063582276
 30
0.0
 11
-165.8877711535968
 21
-221.9635724350251
 31
0.0
  0
LINE
  5
147
330
55
100
AcDbEntity
  8
0
  6
Continuous
 62
     7
100
AcDbLine
 10
-144.6164898614866
 20
-206.742102465013
 30
0.0
 11
-145.1164898614866
 21
-207.1751151669052
 31
0.0
  0
LINE
  5
148
330
55
100
AcDbEntity
  8
0
  6
Continuous
 62
     7
100
AcDbLine
 10
-145.1164898614866
 20
-207.1751151669052
 30
0.0
 11
-147.8877711535968
 21
-206.3751151669052
 31
0.0
  0
LINE
  5
149
330
55
100
AcDbEntity
  8
0
  6
Continuous
 62
     7
100
AcDbLine
 10
-149.8126422841933
 20
-202.8172313344166
 30
0.0
 11
-150.3126422841933
 21
-203.2502440363088
 31
0.0
  0
LINE
  5
14A
330
55
100
AcDbEntity
  8
0
  6
Continuous
 62
     7
100
AcDbLine
 10
-149.8126422841933
 20
-202.8172313344166
 30
0.0
 11
-149.8126422841933
 21
-203.8945816036061
 31
0.0
  0
LINE
  5
14B
330
55
100
AcDbEntity
  8
0
  6
Continuous
 62
     7
100
AcDbLine
 10
-144.0626422841933
 20
-202.7365647482224
 30
0.0
 11
-143.5626422841933
 21
-202.3035520463302
 31
0.0
  0
LINE
  5
14C
330
55
100
AcDbEntity
  8
0
  6
Continuous
 62
     7
100
AcDbLine
 10
-147.8877711535968
 20
-206.3751151669052
 30
0.0
 11
-150.3126422841933
 21
-203.2502440363088
 31
0.0
  0
LINE
  5
14D
330
55
100
AcDbEntity
  8
0
  6
Continuous
 62
     7
100
AcDbLine
 10
-159.1377711535968
 20
-216.1179009594801
 30
0.0
 11
-147.8877711535968
 21
-206.3751151669052
 31
0.0
  0
LINE
  5
14E
330
55
100
AcDbEntity
  8
0
  6
Continuous
 62
     7
100
AcDbLine
 10
-156.8068941203401
 20
-193.5177841708538
 30
0.0
 11
-160.6713591416017
 21
-194.8395090513027
 31
0.0
  0
LINE
  5
14F
330
55
100
AcDbEntity
  8
0
  6
Continuous
 62
     7
100
AcDbLine
 10
-160.6713591416017
 20
-194.8395090513027
 30
0.0
 11
-160.6713591416017
 21
-193.5049419037482
 31
0.0
  0
LINE
  5
150
330
55
100
AcDbEntity
  8
0
  6
Continuous
 62
     7
100
AcDbLine
 10
-156.0210183922094
 20
-192.837195826075
 30
0.0
 11
-156.8068941203401
 21
-193.5177841708538
 31
0.0
  0
LINE
  5
151
330
55
100
AcDbEntity
  8
0
  6
Continuous
 62
     7
100
AcDbLine
 10
-160.6713591416017
 20
-190.9068656923949
 30
0.0
 11
-160.6713591416017
 21
-193.5049419037482
 31
0.0
  0
LINE
  5
152
330
55
100
AcDbEntity
  8
0
  6
Continuous
 62
     7
100
AcDbLine
 10
-156.8068941203401
 20
-192.3005736643915
 30
0.0
 11
-156.8068941203401
 21
-193.5177841708538
 31
0.0
  0
LINE
  5
153
330
55
100
AcDbEntity
  8
0
  6
Continuous
 62
     7
100
AcDbLine
 10
-162.4467112193598
 20
-190.3943656923949
 30
0.0
 11
-160.6713591416017
 21
-190.9068656923949
 31
0.0
  0
LINE
  5
154
330
55
100
AcDbEntity
  8
0
  6
Continuous
 62
     7
100
AcDbLine
 10
-156.8068941203401
 20
-192.3005736643915
 30
0.0
 11
-156.0210183922093
 21
-191.6199853196127
 31
0.0
  0
LINE
  5
155
330
55
100
AcDbEntity
  8
0
  6
Continuous
 62
     7
100
AcDbLine
 10
-156.0210183922094
 20
-192.837195826075
 30
0.0
 11
-156.0210183922093
 21
-191.6199853196127
 31
0.0
  0
LINE
  5
156
330
55
100
AcDbEntity
  8
0
  6
Continuous
 62
     7
100
AcDbLine
 10
-160.6713591416017
 20
-193.5049419037482
 30
0.0
 11
-162.4467112193598
 21
-192.9924419037482
 31
0.0
  0
LINE
  5
157
330
55
100
AcDbEntity
  8
0
  6
Continuous
 62
     7
100
AcDbLine
 10
-186.5467112193598
 20
-196.1101333573722
 30
0.0
 11
-192.3490814247155
 21
-194.4351333573722
 31
0.0
  0
LINE
  5
158
330
55
100
AcDbEntity
  8
0
  6
Continuous
 62
     7
100
AcDbLine
 10
-183.7967112193598
 20
-218.4535887750107
 30
0.0
 11
-139.5967112193598
 21
-180.1752659277385
 31
0.0
  0
LINE
  5
159
330
55
100
AcDbEntity
  8
0
  6
Continuous
 62
     7
100
AcDbLine
 10
-152.5555838435429
 20
-191.7919221411217
 30
0.0
 11
-156.0319595517647
 21
-194.802551817541
 31
0.0
  0
LINE
  5
15A
330
55
100
AcDbEntity
  8
0
  6
Continuous
 62
     7
100
AcDbLine
 10
-142.6713591416017
 20
-175.318408424275
 30
0.0
 11
-142.6713591416016
 21
-177.9164846356283
 31
0.0
  0
LINE
  5
15B
330
55
100
AcDbEntity
  8
0
  6
Continuous
 62
     7
100
AcDbLine
 10
-142.6713591416016
 20
-179.2510517831828
 30
0.0
 11
-142.6713591416016
 21
-177.9164846356283
 31
0.0
  0
LINE
  5
15C
330
55
100
AcDbEntity
  8
0
  6
Continuous
 62
     7
100
AcDbLine
 10
-142.6713591416016
 20
-177.9164846356283
 30
0.0
 11
-144.4467112193598
 21
-177.4039846356283
 31
0.0
  0
LINE
  5
15D
330
55
100
AcDbEntity
  8
0
  6
Continuous
 62
     7
100
AcDbLine
 10
-138.8068941203401
 20
-177.9293269027338
 30
0.0
 11
-142.6713591416016
 21
-179.2510517831828
 31
0.0
  0
LINE
  5
15E
330
55
100
AcDbEntity
  8
0
  6
Continuous
 62
     7
100
AcDbLine
 10
-136.8467112193598
 20
-153.0686707892856
 30
0.0
 11
-136.8467112193598
 21
-177.7936960673313
 31
0.0
  0
LINE
  5
15F
330
55
100
AcDbEntity
  8
0
  6
Continuous
 62
     7
100
AcDbLine
 10
-144.4467112193598
 20
-174.805908424275
 30
0.0
 11
-144.4467112193598
 21
-177.4039846356283
 31
0.0
  0
LINE
  5
160
330
55
100
AcDbEntity
  8
0
  6
Continuous
 62
     7
100
AcDbLine
 10
-144.4467112193598
 20
-174.805908424275
 30
0.0
 11
-142.9467112193598
 21
-173.5068703185984
 31
0.0
  0
LINE
  5
161
330
55
100
AcDbEntity
  8
0
  6
Continuous
 62
     7
100
AcDbLine
 10
-144.4467112193598
 20
-174.805908424275
 30
0.0
 11
-142.6713591416017
 21
-175.318408424275
 31
0.0
  0
LINE
  5
162
330
55
100
AcDbEntity
  8
0
  6
Continuous
 62
     7
100
AcDbLine
 10
-142.6713591416017
 20
-175.318408424275
 30
0.0
 11
-142.6713591416016
 21
-173.9838412767205
 31
0.0
  0
LINE
  5
163
330
55
100
AcDbEntity
  8
0
  6
Continuous
 62
     7
100
AcDbLine
 10
-142.6713591416016
 20
-173.9838412767205
 30
0.0
 11
-141.1713591416016
 21
-172.6848031710438
 31
0.0
  0
LINE
  5
164
330
55
100
AcDbEntity
  8
0
  6
Continuous
 62
     7
100
AcDbLine
 10
-142.32712819444
 20
-173.6857285317097
 30
0.0
 11
-142.9467112193598
 21
-173.5068703185984
 31
0.0
  0
LINE
  5
165
330
55
100
AcDbEntity
  8
0
  6
Continuous
 62
     7
100
AcDbLine
 10
-138.0210183922093
 20
-176.0315280514928
 30
0.0
 11
-141.1713591416016
 21
-172.6848031710438
 31
0.0
  0
LINE
  5
166
330
55
100
AcDbEntity
  8
0
  6
Continuous
 62
     7
100
AcDbLine
 10
-142.6713591416016
 20
-173.9838412767205
 30
0.0
 11
-138.80689412034
 21
-176.7121163962715
 31
0.0
  0
LINE
  5
167
330
55
100
AcDbEntity
  8
0
  6
Continuous
 62
     7
100
AcDbLine
 10
-136.8467112193598
 20
-153.0686707892856
 30
0.0
 11
-142.6490814247155
 21
-151.3936707892856
 31
0.0
  0
LINE
  5
168
330
55
100
AcDbEntity
  8
0
  6
Continuous
 62
     7
100
AcDbLine
 10
-186.5467112193598
 20
-196.1101333573722
 30
0.0
 11
-136.8467112193598
 21
-153.0686707892856
 31
0.0
  0
LINE
  5
169
330
55
100
AcDbEntity
  8
0
  6
Continuous
 62
     7
100
AcDbLine
 10
-192.3490814247155
 20
-194.4351333573722
 30
0.0
 11
-142.6490814247155
 21
-151.3936707892856
 31
0.0
  0
ENDBLK
  5
57
330
55
100
AcDbEntity
  8
0
100
AcDbBlockEnd
  0
BLOCK
  5
5A
330
58
100
AcDbEntity
  8
0
100
AcDbBlockBegin
  2
Gen1
 70
     0
 10
-145.9999999997592
 20
-198.000002336954
 30
0.0
  3
Gen1
  1

  0
INSERT
  5
59
330
58
100
AcDbEntity
  8
0
100
AcDbBlockReference
  2
EB_3-36_UKH-select__3
 10
-192.3490814247155
 20
-243.97847254463
 30
0.0
  0
MTEXT
  5
16A
330
58
100
AcDbEntity
  8
1
 62
     6
100
AcDbMText
 10
-145.99999999976
 20
-249.60633825064
 30
0.0
 40
5.0
 41
0.0
 71
     2
 72
     1
  1
 
  7
CONVERTER_11
 73
     1
 44
1.32052821128451
  0
ENDBLK
  5
5B
330
58
100
AcDbEntity
  8
0
100
AcDbBlockEnd
  0
BLOCK
  5
5D
330
5C
100
AcDbEntity
  8
0
100
AcDbBlockBegin
  2
EB_3-36_UKH-select__4
 70
     0
 10
-227.1749984740212
 20
-112.3000029270158
 30
0.0
  3
EB_3-36_UKH-select__4
  1

  0
LINE
  5
16B
330
5C
100
AcDbEntity
  8
0
  6
Continuous
 62
     7
100
AcDbLine
 10
-227.1749984740212
 20
-104.0557424476789
 30
0.0
 11
-227.1749984740212
 21
-112.3000029270158
 31
0.0
  0
LINE
  5
16C
330
5C
100
AcDbEntity
  8
0
  6
Continuous
 62
     7
100
AcDbLine
 10
-227.1749984740212
 20
-104.0557424476789
 30
0.0
 11
-227.1749984740212
 21
-68.70000292701586
 31
0.0
  0
LINE
  5
16D
330
5C
100
AcDbEntity
  8
0
  6
Continuous
 62
     7
100
AcDbLine
 10
-201.2249984740212
 20
-111.1568571765082
 30
0.0
 11
-201.2249984740212
 21
-104.0557424476789
 31
0.0
  0
LINE
  5
16E
330
5C
100
AcDbEntity
  8
0
  6
Continuous
 62
     7
100
AcDbLine
 10
-189.7249984740212
 20
-104.0557424476789
 30
0.0
 11
-189.7249984740212
 21
-111.1568571765082
 31
0.0
  0
LINE
  5
16F
330
5C
100
AcDbEntity
  8
0
  6
Continuous
 62
     7
100
AcDbLine
 10
-130.2249984740212
 20
-106.1470592018635
 30
0.0
 11
-128.9749984740212
 21
-106.1470592018635
 31
0.0
  0
LINE
  5
170
330
5C
100
AcDbEntity
  8
0
  6
Continuous
 62
     7
100
AcDbLine
 10
-127.7749984740212
 20
-104.0557424476789
 30
0.0
 11
-128.9749984740212
 21
-104.0557424476789
 31
0.0
  0
LINE
  5
171
330
5C
100
AcDbEntity
  8
0
  6
Continuous
 62
     7
100
AcDbLine
 10
-224.7249984740212
 20
-104.0557424476789
 30
0.0
 11
-224.7249984740212
 21
-106.1470592018635
 31
0.0
  0
LINE
  5
172
330
5C
100
AcDbEntity
  8
0
  6
Continuous
 62
     7
100
AcDbLine
 10
-225.9749984740212
 20
-106.1470592018635
 30
0.0
 11
-224.7249984740212
 21
-106.1470592018635
 31
0.0
  0
LINE
  5
173
330
5C
100
AcDbEntity
  8
0
  6
Continuous
 62
     7
100
AcDbLine
 10
-225.9749984740212
 20
-104.0557424476789
 30
0.0
 11
-227.1749984740212
 21
-104.0557424476789
 31
0.0
  0
LINE
  5
174
330
5C
100
AcDbEntity
  8
0
  6
Continuous
 62
     7
100
AcDbLine
 10
-225.9749984740212
 20
-106.1470592018635
 30
0.0
 11
-225.9749984740212
 21
-104.0557424476789
 31
0.0
  0
LINE
  5
175
330
5C
100
AcDbEntity
  8
0
  6
Continuous
 62
     7
100
AcDbLine
 10
-128.9749984740212
 20
-106.1470592018635
 30
0.0
 11
-128.9749984740212
 21
-104.0557424476789
 31
0.0
  0
LINE
  5
176
330
5C
100
AcDbEntity
  8
0
  6
Continuous
 62
     7
100
AcDbLine
 10
-225.9749984740212
 20
-104.0557424476789
 30
0.0
 11
-128.9749984740212
 21
-104.0557424476789
 31
0.0
  0
LINE
  5
177
330
5C
100
AcDbEntity
  8
0
  6
Continuous
 62
     7
100
AcDbLine
 10
-153.7249984740212
 20
-104.0557424476789
 30
0.0
 11
-153.7249984740212
 21
-111.1568571765082
 31
0.0
  0
LINE
  5
178
330
5C
100
AcDbEntity
  8
0
  6
Continuous
 62
     7
100
AcDbLine
 10
-165.2249984740212
 20
-111.1568571765082
 30
0.0
 11
-165.2249984740212
 21
-104.0557424476789
 31
0.0
  0
LINE
  5
179
330
5C
100
AcDbEntity
  8
0
  6
Continuous
 62
     7
100
AcDbLine
 10
-165.2249984740212
 20
-111.1568571765082
 30
0.0
 11
-166.2249984740212
 21
-111.1568571765082
 31
0.0
  0
LINE
  5
17A
330
5C
100
AcDbEntity
  8
0
  6
Continuous
 62
     7
100
AcDbLine
 10
-166.2249984740212
 20
-112.3000029270158
 30
0.0
 11
-166.2249984740212
 21
-111.1568571765082
 31
0.0
  0
LINE
  5
17B
330
5C
100
AcDbEntity
  8
0
  6
Continuous
 62
     7
100
AcDbLine
 10
-165.2249984740212
 20
-111.1568571765082
 30
0.0
 11
-165.2249984740212
 21
-112.3000029270158
 31
0.0
  0
LINE
  5
17C
330
5C
100
AcDbEntity
  8
0
  6
Continuous
 62
     7
100
AcDbLine
 10
-152.7249984740212
 20
-112.3000029270158
 30
0.0
 11
-153.7249984740212
 21
-112.3000029270158
 31
0.0
  0
LINE
  5
17D
330
5C
100
AcDbEntity
  8
0
  6
Continuous
 62
     7
100
AcDbLine
 10
-165.2249984740212
 20
-112.3000029270158
 30
0.0
 11
-166.2249984740212
 21
-112.3000029270158
 31
0.0
  0
LINE
  5
17E
330
5C
100
AcDbEntity
  8
0
  6
Continuous
 62
     7
100
AcDbLine
 10
-153.7249984740212
 20
-112.3000029270158
 30
0.0
 11
-153.7249984740212
 21
-111.1568571765082
 31
0.0
  0
LINE
  5
17F
330
5C
100
AcDbEntity
  8
0
  6
Continuous
 62
     7
100
AcDbLine
 10
-153.7249984740212
 20
-111.1568571765082
 30
0.0
 11
-152.7249984740212
 21
-111.1568571765082
 31
0.0
  0
LINE
  5
180
330
5C
100
AcDbEntity
  8
0
  6
Continuous
 62
     7
100
AcDbLine
 10
-189.7249984740212
 20
-111.1568571765082
 30
0.0
 11
-188.7249984740212
 21
-111.1568571765082
 31
0.0
  0
LINE
  5
181
330
5C
100
AcDbEntity
  8
0
  6
Continuous
 62
     7
100
AcDbLine
 10
-152.7249984740212
 20
-112.3000029270158
 30
0.0
 11
-152.7249984740212
 21
-111.1568571765082
 31
0.0
  0
LINE
  5
182
330
5C
100
AcDbEntity
  8
0
  6
Continuous
 62
     7
100
AcDbLine
 10
-188.7249984740212
 20
-112.3000029270158
 30
0.0
 11
-189.7249984740212
 21
-112.3000029270158
 31
0.0
  0
LINE
  5
183
330
5C
100
AcDbEntity
  8
0
  6
Continuous
 62
     7
100
AcDbLine
 10
-188.7249984740212
 20
-112.3000029270158
 30
0.0
 11
-188.7249984740212
 21
-111.1568571765082
 31
0.0
  0
LINE
  5
184
330
5C
100
AcDbEntity
  8
0
  6
Continuous
 62
     7
100
AcDbLine
 10
-189.7249984740212
 20
-112.3000029270158
 30
0.0
 11
-189.7249984740212
 21
-111.1568571765082
 31
0.0
  0
LINE
  5
185
330
5C
100
AcDbEntity
  8
0
  6
Continuous
 62
     7
100
AcDbLine
 10
-225.7249984740212
 20
-108.3000029270158
 30
0.0
 11
-224.7249984740212
 21
-108.3000029270158
 31
0.0
  0
LINE
  5
186
330
5C
100
AcDbEntity
  8
0
  6
Continuous
 62
     7
100
AcDbLine
 10
-224.7249984740212
 20
-112.3000029270158
 30
0.0
 11
-225.7249984740212
 21
-112.3000029270158
 31
0.0
  0
LINE
  5
187
330
5C
100
AcDbEntity
  8
0
  6
Continuous
 62
     7
100
AcDbLine
 10
-225.7249984740212
 20
-112.3000029270158
 30
0.0
 11
-225.7249984740212
 21
-108.3000029270158
 31
0.0
  0
LINE
  5
188
330
5C
100
AcDbEntity
  8
0
  6
Continuous
 62
     7
100
AcDbLine
 10
-202.2249984740212
 20
-112.3000029270158
 30
0.0
 11
-202.2249984740212
 21
-111.1568571765082
 31
0.0
  0
LINE
  5
189
330
5C
100
AcDbEntity
  8
0
  6
Continuous
 62
     7
100
AcDbLine
 10
-224.7249984740212
 20
-106.1470592018635
 30
0.0
 11
-224.7249984740212
 21
-108.3000029270158
 31
0.0
  0
LINE
  5
18A
330
5C
100
AcDbEntity
  8
0
  6
Continuous
 62
     7
100
AcDbLine
 10
-224.7249984740212
 20
-108.3000029270158
 30
0.0
 11
-224.7249984740212
 21
-112.3000029270158
 31
0.0
  0
LINE
  5
18B
330
5C
100
AcDbEntity
  8
0
  6
Continuous
 62
     7
100
AcDbLine
 10
-201.2249984740212
 20
-111.1568571765082
 30
0.0
 11
-201.2249984740212
 21
-112.3000029270158
 31
0.0
  0
LINE
  5
18C
330
5C
100
AcDbEntity
  8
0
  6
Continuous
 62
     7
100
AcDbLine
 10
-201.2249984740212
 20
-111.1568571765082
 30
0.0
 11
-202.2249984740212
 21
-111.1568571765082
 31
0.0
  0
LINE
  5
18D
330
5C
100
AcDbEntity
  8
0
  6
Continuous
 62
     7
100
AcDbLine
 10
-201.2249984740212
 20
-112.3000029270158
 30
0.0
 11
-202.2249984740212
 21
-112.3000029270158
 31
0.0
  0
LINE
  5
18E
330
5C
100
AcDbEntity
  8
0
  6
Continuous
 62
     7
100
AcDbLine
 10
-225.9749984740212
 20
-112.3000029270158
 30
0.0
 11
-227.1749984740212
 21
-112.3000029270158
 31
0.0
  0
LINE
  5
18F
330
5C
100
AcDbEntity
  8
0
  6
Continuous
 62
     7
100
AcDbLine
 10
-225.9749984740212
 20
-112.3000029270158
 30
0.0
 11
-225.9749984740212
 21
-106.1470592018635
 31
0.0
  0
LINE
  5
190
330
5C
100
AcDbEntity
  8
0
  6
Continuous
 62
     7
100
AcDbLine
 10
-224.7249984740212
 20
-112.3000029270158
 30
0.0
 11
-202.2249984740212
 21
-112.3000029270158
 31
0.0
  0
LINE
  5
191
330
5C
100
AcDbEntity
  8
0
  6
Continuous
 62
     7
100
AcDbLine
 10
-188.7249984740212
 20
-112.3000029270158
 30
0.0
 11
-166.2249984740212
 21
-112.3000029270158
 31
0.0
  0
LINE
  5
192
330
5C
100
AcDbEntity
  8
0
  6
Continuous
 62
     7
100
AcDbLine
 10
-152.7249984740212
 20
-112.3000029270158
 30
0.0
 11
-130.2249984740212
 21
-112.3000029270158
 31
0.0
  0
LINE
  5
193
330
5C
100
AcDbEntity
  8
0
  6
Continuous
 62
     7
100
AcDbLine
 10
-130.2249984740212
 20
-108.3000029270158
 30
0.0
 11
-130.2249984740212
 21
-106.1470592018635
 31
0.0
  0
LINE
  5
194
330
5C
100
AcDbEntity
  8
0
  6
Continuous
 62
     7
100
AcDbLine
 10
-130.2249984740212
 20
-106.1470592018635
 30
0.0
 11
-130.2249984740212
 21
-104.0557424476789
 31
0.0
  0
LINE
  5
195
330
5C
100
AcDbEntity
  8
0
  6
Continuous
 62
     7
100
AcDbLine
 10
-130.2249984740212
 20
-112.3000029270158
 30
0.0
 11
-130.2249984740212
 21
-108.3000029270158
 31
0.0
  0
LINE
  5
196
330
5C
100
AcDbEntity
  8
0
  6
Continuous
 62
     7
100
AcDbLine
 10
-129.2249984740212
 20
-112.3000029270158
 30
0.0
 11
-130.2249984740212
 21
-112.3000029270158
 31
0.0
  0
LINE
  5
197
330
5C
100
AcDbEntity
  8
0
  6
Continuous
 62
     7
100
AcDbLine
 10
-130.2249984740212
 20
-108.3000029270158
 30
0.0
 11
-129.2249984740212
 21
-108.3000029270158
 31
0.0
  0
LINE
  5
198
330
5C
100
AcDbEntity
  8
0
  6
Continuous
 62
     7
100
AcDbLine
 10
-129.2249984740212
 20
-112.3000029270158
 30
0.0
 11
-129.2249984740212
 21
-108.3000029270158
 31
0.0
  0
LINE
  5
199
330
5C
100
AcDbEntity
  8
0
  6
Continuous
 62
     7
100
AcDbLine
 10
-128.9749984740212
 20
-112.3000029270158
 30
0.0
 11
-127.7749984740212
 21
-112.3000029270158
 31
0.0
  0
LINE
  5
19A
330
5C
100
AcDbEntity
  8
0
  6
Continuous
 62
     7
100
AcDbLine
 10
-128.9749984740212
 20
-112.3000029270158
 30
0.0
 11
-128.9749984740212
 21
-106.1470592018635
 31
0.0
  0
LINE
  5
19B
330
5C
100
AcDbEntity
  8
0
  6
Continuous
 62
     7
100
AcDbLine
 10
-127.7749984740212
 20
-68.70000292701586
 30
0.0
 11
-127.7749984740212
 21
-104.0557424476789
 31
0.0
  0
LINE
  5
19C
330
5C
100
AcDbEntity
  8
0
  6
Continuous
 62
     7
100
AcDbLine
 10
-127.7749984740212
 20
-112.3000029270158
 30
0.0
 11
-127.7749984740212
 21
-104.0557424476789
 31
0.0
  0
LINE
  5
19D
330
5C
100
AcDbEntity
  8
0
  6
Continuous
 62
     7
100
AcDbLine
 10
-127.7749984740212
 20
-68.70000292701586
 30
0.0
 11
-227.1749984740212
 21
-68.70000292701586
 31
0.0
  0
ENDBLK
  5
5E
330
5C
100
AcDbEntity
  8
0
100
AcDbBlockEnd
  0
BLOCK
  5
61
330
5F
100
AcDbEntity
  8
0
100
AcDbBlockBegin
  2
Left1
 70
     0
 10
-177.474998474071
 20
-90.49999858203832
 30
0.0
  3
Left1
  1

  0
INSERT
  5
60
330
5F
100
AcDbEntity
  8
0
100
AcDbBlockReference
  2
EB_3-36_UKH-select__4
 10
-227.1749984740212
 20
-112.3000029270158
 30
0.0
  0
MTEXT
  5
19E
330
5F
100
AcDbEntity
  8
1
 62
     6
100
AcDbMText
 10
-177.4749984740711
 20
-117.2999989354286
 30
0.0
 40
5.0
 41
0.0
 71
     2
 72
     1
  1
 
  7
CONVERTER_11
 73
     1
 44
1.32052821128451
  0
ENDBLK
  5
62
330
5F
100
AcDbEntity
  8
0
100
AcDbBlockEnd
  0
BLOCK
  5
64
330
63
100
AcDbEntity
  8
0
100
AcDbBlockBegin
  2
EB_3-36_UKH-select__5
 70
     0
 10
-430.2250015259787
 20
-112.3000029270161
 30
0.0
  3
EB_3-36_UKH-select__5
  1

  0
LINE
  5
19F
330
63
100
AcDbEntity
  8
0
  6
Continuous
 62
     7
100
AcDbLine
 10
-355.7750015259786
 20
-108.3000029270161
 30
0.0
 11
-333.2750015259786
 21
-108.3000029270161
 31
0.0
  0
LINE
  5
1A0
330
63
100
AcDbEntity
  8
0
  6
Continuous
 62
     7
100
AcDbLine
 10
-392.7750015259787
 20
-108.3000029270161
 30
0.0
 11
-392.7750015259787
 21
-105.5000029270161
 31
0.0
  0
LINE
  5
1A1
330
63
100
AcDbEntity
  8
0
  6
Continuous
 62
     7
100
AcDbLine
 10
-391.7750015259787
 20
-105.5000029270161
 30
0.0
 11
-391.7750015259787
 21
-108.3000029270161
 31
0.0
  0
LINE
  5
1A2
330
63
100
AcDbEntity
  8
0
  6
Continuous
 62
     7
100
AcDbLine
 10
-391.7750015259787
 20
-105.5000029270161
 30
0.0
 11
-392.7750015259787
 21
-105.5000029270161
 31
0.0
  0
LINE
  5
1A3
330
63
100
AcDbEntity
  8
0
  6
Continuous
 62
     7
100
AcDbLine
 10
-369.2750015259786
 20
-108.3000029270161
 30
0.0
 11
-368.2750015259786
 21
-108.3000029270161
 31
0.0
  0
LINE
  5
1A4
330
63
100
AcDbEntity
  8
0
  6
Continuous
 62
     7
100
AcDbLine
 10
-392.7750015259787
 20
-108.3000029270161
 30
0.0
 11
-391.7750015259787
 21
-108.3000029270161
 31
0.0
  0
LINE
  5
1A5
330
63
100
AcDbEntity
  8
0
  6
Continuous
 62
     7
100
AcDbLine
 10
-391.7750015259787
 20
-108.3000029270161
 30
0.0
 11
-369.2750015259786
 21
-108.3000029270161
 31
0.0
  0
LINE
  5
1A6
330
63
100
AcDbEntity
  8
0
  6
Continuous
 62
     7
100
AcDbLine
 10
-368.2750015259786
 20
-112.3000029270161
 30
0.0
 11
-368.2750015259786
 21
-108.3000029270161
 31
0.0
  0
LINE
  5
1A7
330
63
100
AcDbEntity
  8
0
  6
Continuous
 62
     7
100
AcDbLine
 10
-392.7750015259787
 20
-108.3000029270161
 30
0.0
 11
-392.7750015259787
 21
-112.3000029270161
 31
0.0
  0
LINE
  5
1A8
330
63
100
AcDbEntity
  8
0
  6
Continuous
 62
     7
100
AcDbLine
 10
-369.2750015259786
 20
-108.3000029270161
 30
0.0
 11
-369.2750015259786
 21
-105.5000029270161
 31
0.0
  0
LINE
  5
1A9
330
63
100
AcDbEntity
  8
0
  6
Continuous
 62
     7
100
AcDbLine
 10
-368.2750015259786
 20
-105.5000029270161
 30
0.0
 11
-368.2750015259786
 21
-108.3000029270161
 31
0.0
  0
LINE
  5
1AA
330
63
100
AcDbEntity
  8
0
  6
Continuous
 62
     7
100
AcDbLine
 10
-368.2750015259786
 20
-105.5000029270161
 30
0.0
 11
-369.2750015259786
 21
-105.5000029270161
 31
0.0
  0
LINE
  5
1AB
330
63
100
AcDbEntity
  8
0
  6
Continuous
 62
     7
100
AcDbLine
 10
-392.7750015259787
 20
-112.3000029270161
 30
0.0
 11
-368.2750015259786
 21
-112.3000029270161
 31
0.0
  0
LINE
  5
1AC
330
63
100
AcDbEntity
  8
0
  6
Continuous
 62
     7
100
AcDbLine
 10
-356.7750015259786
 20
-108.3000029270161
 30
0.0
 11
-356.7750015259786
 21
-112.3000029270161
 31
0.0
  0
LINE
  5
1AD
330
63
100
AcDbEntity
  8
0
  6
Continuous
 62
     7
100
AcDbLine
 10
-356.7750015259786
 20
-112.3000029270161
 30
0.0
 11
-332.2750015259786
 21
-112.3000029270161
 31
0.0
  0
LINE
  5
1AE
330
63
100
AcDbEntity
  8
0
  6
Continuous
 62
     7
100
AcDbLine
 10
-405.2750015259787
 20
-108.3000029270161
 30
0.0
 11
-404.2750015259787
 21
-108.3000029270161
 31
0.0
  0
LINE
  5
1AF
330
63
100
AcDbEntity
  8
0
  6
Continuous
 62
     7
100
AcDbLine
 10
-418.0250015259787
 20
-90.74102833080055
 30
0.0
 11
-418.0250015259787
 21
-84.65897752323167
 31
0.0
  0
LINE
  5
1B0
330
63
100
AcDbEntity
  8
0
  6
Continuous
 62
     7
100
AcDbLine
 10
-418.0250015259787
 20
-84.65897752323167
 30
0.0
 11
-417.3108772541094
 21
-86.99724611344963
 31
0.0
  0
LINE
  5
1B1
330
63
100
AcDbEntity
  8
0
  6
Continuous
 62
     7
100
AcDbLine
 10
-417.3108772541094
 20
-88.40275974058255
 30
0.0
 11
-418.0250015259787
 21
-90.74102833080055
 31
0.0
  0
LINE
  5
1B2
330
63
100
AcDbEntity
  8
0
  6
Continuous
 62
     7
100
AcDbLine
 10
-427.7750015259787
 20
-108.3000029270161
 30
0.0
 11
-405.2750015259787
 21
-108.3000029270161
 31
0.0
  0
LINE
  5
1B3
330
63
100
AcDbEntity
  8
0
  6
Continuous
 62
     7
100
AcDbLine
 10
-404.2750015259787
 20
-112.3000029270161
 30
0.0
 11
-404.2750015259787
 21
-108.3000029270161
 31
0.0
  0
LINE
  5
1B4
330
63
100
AcDbEntity
  8
0
  6
Continuous
 62
     7
100
AcDbLine
 10
-404.2750015259787
 20
-105.5000029270161
 30
0.0
 11
-404.2750015259787
 21
-108.3000029270161
 31
0.0
  0
LINE
  5
1B5
330
63
100
AcDbEntity
  8
0
  6
Continuous
 62
     7
100
AcDbLine
 10
-405.2750015259787
 20
-108.3000029270161
 30
0.0
 11
-405.2750015259787
 21
-105.5000029270161
 31
0.0
  0
LINE
  5
1B6
330
63
100
AcDbEntity
  8
0
  6
Continuous
 62
     7
100
AcDbLine
 10
-404.2750015259787
 20
-105.5000029270161
 30
0.0
 11
-405.2750015259787
 21
-105.5000029270161
 31
0.0
  0
LINE
  5
1B7
330
63
100
AcDbEntity
  8
0
  6
Continuous
 62
     7
100
AcDbLine
 10
-415.0250015259787
 20
-84.65897752323167
 30
0.0
 11
-415.0250015259787
 21
-90.74102833080055
 31
0.0
  0
LINE
  5
1B8
330
63
100
AcDbEntity
  8
0
  6
Continuous
 62
     7
100
AcDbLine
 10
-415.739125797848
 20
-86.99724611344963
 30
0.0
 11
-415.0250015259787
 21
-84.65897752323167
 31
0.0
  0
LINE
  5
1B9
330
63
100
AcDbEntity
  8
0
  6
Continuous
 62
     7
100
AcDbLine
 10
-415.0250015259787
 20
-90.74102833080055
 30
0.0
 11
-415.739125797848
 21
-88.40275974058255
 31
0.0
  0
LINE
  5
1BA
330
63
100
AcDbEntity
  8
0
  6
Continuous
 62
     7
100
AcDbLine
 10
-404.2750015259787
 20
-105.5000029270161
 30
0.0
 11
-404.2750015259787
 21
-97.50000292701611
 31
0.0
  0
LINE
  5
1BB
330
63
100
AcDbEntity
  8
0
  6
Continuous
 62
     7
100
AcDbLine
 10
-428.7750015259787
 20
-112.3000029270161
 30
0.0
 11
-404.2750015259787
 21
-112.3000029270161
 31
0.0
  0
LINE
  5
1BC
330
63
100
AcDbEntity
  8
0
  6
Continuous
 62
     7
100
AcDbLine
 10
-379.0250015259787
 20
-84.65897752323167
 30
0.0
 11
-379.0250015259787
 21
-90.74102833080055
 31
0.0
  0
LINE
  5
1BD
330
63
100
AcDbEntity
  8
0
  6
Continuous
 62
     7
100
AcDbLine
 10
-379.7391257978479
 20
-86.99724611344966
 30
0.0
 11
-379.0250015259787
 21
-84.65897752323167
 31
0.0
  0
LINE
  5
1BE
330
63
100
AcDbEntity
  8
0
  6
Continuous
 62
     7
100
AcDbLine
 10
-379.0250015259787
 20
-90.74102833080055
 30
0.0
 11
-379.7391257978479
 21
-88.40275974058257
 31
0.0
  0
LINE
  5
1BF
330
63
100
AcDbEntity
  8
0
  6
Continuous
 62
     7
100
AcDbLine
 10
-368.2750015259786
 20
-105.5000029270161
 30
0.0
 11
-368.2750015259786
 21
-97.50000292701611
 31
0.0
  0
LINE
  5
1C0
330
63
100
AcDbEntity
  8
0
  6
Continuous
 62
     7
100
AcDbLine
 10
-392.7750015259787
 20
-104.0557424476792
 30
0.0
 11
-404.2750015259787
 21
-104.0557424476792
 31
0.0
  0
LINE
  5
1C1
330
63
100
AcDbEntity
  8
0
  6
Continuous
 62
     7
100
AcDbLine
 10
-356.7750015259786
 20
-104.0557424476792
 30
0.0
 11
-368.2750015259786
 21
-104.0557424476792
 31
0.0
  0
LINE
  5
1C2
330
63
100
AcDbEntity
  8
0
  6
Continuous
 62
     7
100
AcDbLine
 10
-368.2750015259786
 20
-97.50000292701611
 30
0.0
 11
-368.2750015259786
 21
-97.25000292701611
 31
0.0
  0
LINE
  5
1C3
330
63
100
AcDbEntity
  8
0
  6
Continuous
 62
     7
100
AcDbLine
 10
-392.7750015259787
 20
-97.50000292701611
 30
0.0
 11
-368.2750015259786
 21
-97.50000292701611
 31
0.0
  0
LINE
  5
1C4
330
63
100
AcDbEntity
  8
0
  6
Continuous
 62
     7
100
AcDbLine
 10
-392.7750015259787
 20
-97.25000292701611
 30
0.0
 11
-392.7750015259787
 21
-97.50000292701611
 31
0.0
  0
LINE
  5
1C5
330
63
100
AcDbEntity
  8
0
  6
Continuous
 62
     7
100
AcDbLine
 10
-404.2750015259787
 20
-97.50000292701611
 30
0.0
 11
-404.2750015259787
 21
-97.25000292701611
 31
0.0
  0
LINE
  5
1C6
330
63
100
AcDbEntity
  8
0
  6
Continuous
 62
     7
100
AcDbLine
 10
-424.7250015259787
 20
-97.50000292701611
 30
0.0
 11
-404.2750015259787
 21
-97.50000292701611
 31
0.0
  0
LINE
  5
1C7
330
63
100
AcDbEntity
  8
0
  6
Continuous
 62
     7
100
AcDbLine
 10
-392.7750015259787
 20
-97.25000292701611
 30
0.0
 11
-368.2750015259786
 21
-97.25000292701611
 31
0.0
  0
LINE
  5
1C8
330
63
100
AcDbEntity
  8
0
  6
Continuous
 62
     7
100
AcDbLine
 10
-404.2750015259787
 20
-97.25000292701611
 30
0.0
 11
-392.7750015259787
 21
-97.25000292701611
 31
0.0
  0
LINE
  5
1C9
330
63
100
AcDbEntity
  8
0
  6
Continuous
 62
     7
100
AcDbLine
 10
-424.7250015259787
 20
-97.25000292701613
 30
0.0
 11
-404.2750015259787
 21
-97.25000292701611
 31
0.0
  0
LINE
  5
1CA
330
63
100
AcDbEntity
  8
0
  6
Continuous
 62
     7
100
AcDbLine
 10
-356.7750015259786
 20
-97.25000292701611
 30
0.0
 11
-336.3250015259787
 21
-97.25000292701613
 31
0.0
  0
LINE
  5
1CB
330
63
100
AcDbEntity
  8
0
  6
Continuous
 62
     7
100
AcDbLine
 10
-382.0250015259787
 20
-90.74102833080055
 30
0.0
 11
-382.0250015259787
 21
-84.65897752323167
 31
0.0
  0
LINE
  5
1CC
330
63
100
AcDbEntity
  8
0
  6
Continuous
 62
     7
100
AcDbLine
 10
-379.7391257978479
 20
-88.40275974058257
 30
0.0
 11
-379.7391257978479
 21
-86.99724611344966
 31
0.0
  0
LINE
  5
1CD
330
63
100
AcDbEntity
  8
0
  6
Continuous
 62
     7
100
AcDbLine
 10
-381.3108772541094
 20
-86.99724611344966
 30
0.0
 11
-381.3108772541094
 21
-88.40275974058257
 31
0.0
  0
LINE
  5
1CE
330
63
100
AcDbEntity
  8
0
  6
Continuous
 62
     7
100
AcDbLine
 10
-381.3108772541094
 20
-86.99724611344966
 30
0.0
 11
-379.7391257978479
 21
-86.99724611344966
 31
0.0
  0
LINE
  5
1CF
330
63
100
AcDbEntity
  8
0
  6
Continuous
 62
     7
100
AcDbLine
 10
-379.7391257978479
 20
-88.40275974058257
 30
0.0
 11
-381.3108772541094
 21
-88.40275974058257
 31
0.0
  0
LINE
  5
1D0
330
63
100
AcDbEntity
  8
0
  6
Continuous
 62
     7
100
AcDbLine
 10
-382.0250015259787
 20
-90.74102833080055
 30
0.0
 11
-379.0250015259787
 21
-90.74102833080055
 31
0.0
  0
LINE
  5
1D1
330
63
100
AcDbEntity
  8
0
  6
Continuous
 62
     7
100
AcDbLine
 10
-415.739125797848
 20
-88.40275974058255
 30
0.0
 11
-415.739125797848
 21
-86.99724611344963
 31
0.0
  0
LINE
  5
1D2
330
63
100
AcDbEntity
  8
0
  6
Continuous
 62
     7
100
AcDbLine
 10
-417.3108772541094
 20
-86.99724611344963
 30
0.0
 11
-417.3108772541094
 21
-88.40275974058255
 31
0.0
  0
LINE
  5
1D3
330
63
100
AcDbEntity
  8
0
  6
Continuous
 62
     7
100
AcDbLine
 10
-417.3108772541094
 20
-86.99724611344963
 30
0.0
 11
-415.739125797848
 21
-86.99724611344963
 31
0.0
  0
LINE
  5
1D4
330
63
100
AcDbEntity
  8
0
  6
Continuous
 62
     7
100
AcDbLine
 10
-415.739125797848
 20
-88.40275974058255
 30
0.0
 11
-417.3108772541094
 21
-88.40275974058255
 31
0.0
  0
LINE
  5
1D5
330
63
100
AcDbEntity
  8
0
  6
Continuous
 62
     7
100
AcDbLine
 10
-418.0250015259787
 20
-90.74102833080055
 30
0.0
 11
-415.0250015259787
 21
-90.74102833080055
 31
0.0
  0
LINE
  5
1D6
330
63
100
AcDbEntity
  8
0
  6
Continuous
 62
     7
100
AcDbLine
 10
-368.2750015259786
 20
-97.25000292701611
 30
0.0
 11
-356.7750015259786
 21
-97.25000292701611
 31
0.0
  0
LINE
  5
1D7
330
63
100
AcDbEntity
  8
0
  6
Continuous
 62
     7
100
AcDbLine
 10
-382.0250015259787
 20
-84.65897752323167
 30
0.0
 11
-381.3108772541094
 21
-86.99724611344966
 31
0.0
  0
LINE
  5
1D8
330
63
100
AcDbEntity
  8
0
  6
Continuous
 62
     7
100
AcDbLine
 10
-381.3108772541094
 20
-88.40275974058257
 30
0.0
 11
-382.0250015259787
 21
-90.74102833080055
 31
0.0
  0
LINE
  5
1D9
330
63
100
AcDbEntity
  8
0
  6
Continuous
 62
     7
100
AcDbLine
 10
-392.7750015259787
 20
-97.50000292701611
 30
0.0
 11
-392.7750015259787
 21
-105.5000029270161
 31
0.0
  0
LINE
  5
1DA
330
63
100
AcDbEntity
  8
0
  6
Continuous
 62
     7
100
AcDbLine
 10
-418.0250015259787
 20
-84.65897752323167
 30
0.0
 11
-415.0250015259787
 21
-84.65897752323167
 31
0.0
  0
LINE
  5
1DB
330
63
100
AcDbEntity
  8
0
  6
Continuous
 62
     7
100
AcDbLine
 10
-382.0250015259787
 20
-84.65897752323167
 30
0.0
 11
-379.0250015259787
 21
-84.65897752323167
 31
0.0
  0
LINE
  5
1DC
330
63
100
AcDbEntity
  8
0
  6
Continuous
 62
     7
100
AcDbLine
 10
-346.0250015259786
 20
-84.65897752323167
 30
0.0
 11
-343.0250015259786
 21
-84.65897752323168
 31
0.0
  0
LINE
  5
1DD
330
63
100
AcDbEntity
  8
0
  6
Continuous
 62
     7
100
AcDbLine
 10
-430.2250015259787
 20
-68.7000029270161
 30
0.0
 11
-330.8250015259787
 21
-68.7000029270161
 31
0.0
  0
LINE
  5
1DE
330
63
100
AcDbEntity
  8
0
  6
Continuous
 62
     7
100
AcDbLine
 10
-336.3250015259787
 20
-104.4500029270161
 30
0.0
 11
-330.8250015259787
 21
-104.4500029270161
 31
0.0
  0
LINE
  5
1DF
330
63
100
AcDbEntity
  8
0
  6
Continuous
 62
     7
100
AcDbLine
 10
-343.0250015259786
 20
-84.65897752323168
 30
0.0
 11
-343.0250015259786
 21
-90.74102833080055
 31
0.0
  0
LINE
  5
1E0
330
63
100
AcDbEntity
  8
0
  6
Continuous
 62
     7
100
AcDbLine
 10
-343.7391257978479
 20
-86.99724611344966
 30
0.0
 11
-343.0250015259786
 21
-84.65897752323168
 31
0.0
  0
LINE
  5
1E1
330
63
100
AcDbEntity
  8
0
  6
Continuous
 62
     7
100
AcDbLine
 10
-343.0250015259786
 20
-90.74102833080055
 30
0.0
 11
-343.7391257978479
 21
-88.40275974058257
 31
0.0
  0
LINE
  5
1E2
330
63
100
AcDbEntity
  8
0
  6
Continuous
 62
     7
100
AcDbLine
 10
-330.8250015259787
 20
-97.25000292701611
 30
0.0
 11
-336.3250015259787
 21
-97.25000292701613
 31
0.0
  0
LINE
  5
1E3
330
63
100
AcDbEntity
  8
0
  6
Continuous
 62
     7
100
AcDbLine
 10
-330.8250015259787
 20
-104.4500029270161
 30
0.0
 11
-330.8250015259787
 21
-97.25000292701611
 31
0.0
  0
LINE
  5
1E4
330
63
100
AcDbEntity
  8
0
  6
Continuous
 62
     7
100
AcDbLine
 10
-428.7750015259787
 20
-108.3000029270161
 30
0.0
 11
-427.7750015259787
 21
-108.3000029270161
 31
0.0
  0
LINE
  5
1E5
330
63
100
AcDbEntity
  8
0
  6
Continuous
 62
     7
100
AcDbLine
 10
-427.7750015259787
 20
-106.0500029270161
 30
0.0
 11
-427.7750015259787
 21
-106.1470592018638
 31
0.0
  0
LINE
  5
1E6
330
63
100
AcDbEntity
  8
0
  6
Continuous
 62
     7
100
AcDbLine
 10
-427.7750015259787
 20
-106.1470592018638
 30
0.0
 11
-427.7750015259787
 21
-108.3000029270161
 31
0.0
  0
LINE
  5
1E7
330
63
100
AcDbEntity
  8
0
  6
Continuous
 62
     7
100
AcDbLine
 10
-428.7750015259787
 20
-108.3000029270161
 30
0.0
 11
-428.7750015259787
 21
-112.3000029270161
 31
0.0
  0
LINE
  5
1E8
330
63
100
AcDbEntity
  8
0
  6
Continuous
 62
     7
100
AcDbLine
 10
-430.2250015259787
 20
-112.3000029270161
 30
0.0
 11
-429.0250015259787
 21
-112.3000029270161
 31
0.0
  0
LINE
  5
1E9
330
63
100
AcDbEntity
  8
0
  6
Continuous
 62
     7
100
AcDbLine
 10
-429.0250015259787
 20
-106.1470592018638
 30
0.0
 11
-429.0250015259787
 21
-112.3000029270161
 31
0.0
  0
LINE
  5
1EA
330
63
100
AcDbEntity
  8
0
  6
Continuous
 62
     7
100
AcDbLine
 10
-424.7250015259787
 20
-104.4500029270161
 30
0.0
 11
-424.7250015259787
 21
-106.0500029270161
 31
0.0
  0
LINE
  5
1EB
330
63
100
AcDbEntity
  8
0
  6
Continuous
 62
     7
100
AcDbLine
 10
-427.7750015259787
 20
-106.0500029270161
 30
0.0
 11
-424.7250015259787
 21
-106.0500029270161
 31
0.0
  0
LINE
  5
1EC
330
63
100
AcDbEntity
  8
0
  6
Continuous
 62
     7
100
AcDbLine
 10
-427.7750015259787
 20
-106.1470592018638
 30
0.0
 11
-429.0250015259787
 21
-106.1470592018638
 31
0.0
  0
LINE
  5
1ED
330
63
100
AcDbEntity
  8
0
  6
Continuous
 62
     7
100
AcDbLine
 10
-424.7250015259787
 20
-97.25000292701613
 30
0.0
 11
-424.7250015259787
 21
-97.50000292701611
 31
0.0
  0
LINE
  5
1EE
330
63
100
AcDbEntity
  8
0
  6
Continuous
 62
     7
100
AcDbLine
 10
-424.7250015259787
 20
-97.50000292701611
 30
0.0
 11
-424.7250015259787
 21
-104.4500029270161
 31
0.0
  0
LINE
  5
1EF
330
63
100
AcDbEntity
  8
0
  6
Continuous
 62
     7
100
AcDbLine
 10
-430.2250015259787
 20
-104.4500029270161
 30
0.0
 11
-424.7250015259787
 21
-104.4500029270161
 31
0.0
  0
LINE
  5
1F0
330
63
100
AcDbEntity
  8
0
  6
Continuous
 62
     7
100
AcDbLine
 10
-430.2250015259787
 20
-68.7000029270161
 30
0.0
 11
-430.2250015259787
 21
-97.25000292701613
 31
0.0
  0
LINE
  5
1F1
330
63
100
AcDbEntity
  8
0
  6
Continuous
 62
     7
100
AcDbLine
 10
-424.7250015259787
 20
-97.25000292701613
 30
0.0
 11
-430.2250015259787
 21
-97.25000292701613
 31
0.0
  0
LINE
  5
1F2
330
63
100
AcDbEntity
  8
0
  6
Continuous
 62
     7
100
AcDbLine
 10
-430.2250015259787
 20
-97.25000292701613
 30
0.0
 11
-430.2250015259787
 21
-104.4500029270161
 31
0.0
  0
LINE
  5
1F3
330
63
100
AcDbEntity
  8
0
  6
Continuous
 62
     7
100
AcDbLine
 10
-430.2250015259787
 20
-112.3000029270161
 30
0.0
 11
-430.2250015259787
 21
-104.4500029270161
 31
0.0
  0
LINE
  5
1F4
330
63
100
AcDbEntity
  8
0
  6
Continuous
 62
     7
100
AcDbLine
 10
-356.7750015259786
 20
-108.3000029270161
 30
0.0
 11
-355.7750015259786
 21
-108.3000029270161
 31
0.0
  0
LINE
  5
1F5
330
63
100
AcDbEntity
  8
0
  6
Continuous
 62
     7
100
AcDbLine
 10
-355.7750015259786
 20
-105.5000029270161
 30
0.0
 11
-355.7750015259786
 21
-108.3000029270161
 31
0.0
  0
LINE
  5
1F6
330
63
100
AcDbEntity
  8
0
  6
Continuous
 62
     7
100
AcDbLine
 10
-356.7750015259786
 20
-108.3000029270161
 30
0.0
 11
-356.7750015259786
 21
-105.5000029270161
 31
0.0
  0
LINE
  5
1F7
330
63
100
AcDbEntity
  8
0
  6
Continuous
 62
     7
100
AcDbLine
 10
-336.3250015259787
 20
-106.0500029270161
 30
0.0
 11
-336.3250015259787
 21
-104.4500029270161
 31
0.0
  0
LINE
  5
1F8
330
63
100
AcDbEntity
  8
0
  6
Continuous
 62
     7
100
AcDbLine
 10
-356.7750015259786
 20
-97.25000292701611
 30
0.0
 11
-356.7750015259786
 21
-97.50000292701611
 31
0.0
  0
LINE
  5
1F9
330
63
100
AcDbEntity
  8
0
  6
Continuous
 62
     7
100
AcDbLine
 10
-356.7750015259786
 20
-97.50000292701611
 30
0.0
 11
-356.7750015259786
 21
-105.5000029270161
 31
0.0
  0
LINE
  5
1FA
330
63
100
AcDbEntity
  8
0
  6
Continuous
 62
     7
100
AcDbLine
 10
-355.7750015259786
 20
-105.5000029270161
 30
0.0
 11
-356.7750015259786
 21
-105.5000029270161
 31
0.0
  0
LINE
  5
1FB
330
63
100
AcDbEntity
  8
0
  6
Continuous
 62
     7
100
AcDbLine
 10
-346.0250015259786
 20
-90.74102833080055
 30
0.0
 11
-346.0250015259786
 21
-84.65897752323167
 31
0.0
  0
LINE
  5
1FC
330
63
100
AcDbEntity
  8
0
  6
Continuous
 62
     7
100
AcDbLine
 10
-345.3108772541093
 20
-86.99724611344966
 30
0.0
 11
-343.7391257978479
 21
-86.99724611344966
 31
0.0
  0
LINE
  5
1FD
330
63
100
AcDbEntity
  8
0
  6
Continuous
 62
     7
100
AcDbLine
 10
-345.3108772541093
 20
-86.99724611344966
 30
0.0
 11
-345.3108772541093
 21
-88.40275974058257
 31
0.0
  0
LINE
  5
1FE
330
63
100
AcDbEntity
  8
0
  6
Continuous
 62
     7
100
AcDbLine
 10
-343.7391257978479
 20
-88.40275974058257
 30
0.0
 11
-343.7391257978479
 21
-86.99724611344966
 31
0.0
  0
LINE
  5
1FF
330
63
100
AcDbEntity
  8
0
  6
Continuous
 62
     7
100
AcDbLine
 10
-343.7391257978479
 20
-88.40275974058257
 30
0.0
 11
-345.3108772541093
 21
-88.40275974058257
 31
0.0
  0
LINE
  5
200
330
63
100
AcDbEntity
  8
0
  6
Continuous
 62
     7
100
AcDbLine
 10
-346.0250015259786
 20
-90.74102833080055
 30
0.0
 11
-343.0250015259786
 21
-90.74102833080055
 31
0.0
  0
LINE
  5
201
330
63
100
AcDbEntity
  8
0
  6
Continuous
 62
     7
100
AcDbLine
 10
-346.0250015259786
 20
-84.65897752323167
 30
0.0
 11
-345.3108772541093
 21
-86.99724611344966
 31
0.0
  0
LINE
  5
202
330
63
100
AcDbEntity
  8
0
  6
Continuous
 62
     7
100
AcDbLine
 10
-336.3250015259787
 20
-97.50000292701611
 30
0.0
 11
-336.3250015259787
 21
-97.25000292701613
 31
0.0
  0
LINE
  5
203
330
63
100
AcDbEntity
  8
0
  6
Continuous
 62
     7
100
AcDbLine
 10
-356.7750015259786
 20
-97.50000292701611
 30
0.0
 11
-336.3250015259787
 21
-97.50000292701611
 31
0.0
  0
LINE
  5
204
330
63
100
AcDbEntity
  8
0
  6
Continuous
 62
     7
100
AcDbLine
 10
-333.2750015259786
 20
-108.3000029270161
 30
0.0
 11
-332.2750015259786
 21
-108.3000029270161
 31
0.0
  0
LINE
  5
205
330
63
100
AcDbEntity
  8
0
  6
Continuous
 62
     7
100
AcDbLine
 10
-332.2750015259786
 20
-108.3000029270161
 30
0.0
 11
-332.2750015259786
 21
-112.3000029270161
 31
0.0
  0
LINE
  5
206
330
63
100
AcDbEntity
  8
0
  6
Continuous
 62
     7
100
AcDbLine
 10
-332.0250015259786
 20
-112.3000029270161
 30
0.0
 11
-332.0250015259786
 21
-106.1470592018638
 31
0.0
  0
LINE
  5
207
330
63
100
AcDbEntity
  8
0
  6
Continuous
 62
     7
100
AcDbLine
 10
-333.2750015259786
 20
-106.1470592018638
 30
0.0
 11
-333.2750015259786
 21
-106.0500029270161
 31
0.0
  0
LINE
  5
208
330
63
100
AcDbEntity
  8
0
  6
Continuous
 62
     7
100
AcDbLine
 10
-333.2750015259786
 20
-108.3000029270161
 30
0.0
 11
-333.2750015259786
 21
-106.1470592018638
 31
0.0
  0
LINE
  5
209
330
63
100
AcDbEntity
  8
0
  6
Continuous
 62
     7
100
AcDbLine
 10
-332.0250015259786
 20
-112.3000029270161
 30
0.0
 11
-330.8250015259787
 21
-112.3000029270161
 31
0.0
  0
LINE
  5
20A
330
63
100
AcDbEntity
  8
0
  6
Continuous
 62
     7
100
AcDbLine
 10
-336.3250015259787
 20
-106.0500029270161
 30
0.0
 11
-333.2750015259786
 21
-106.0500029270161
 31
0.0
  0
LINE
  5
20B
330
63
100
AcDbEntity
  8
0
  6
Continuous
 62
     7
100
AcDbLine
 10
-332.0250015259786
 20
-106.1470592018638
 30
0.0
 11
-333.2750015259786
 21
-106.1470592018638
 31
0.0
  0
LINE
  5
20C
330
63
100
AcDbEntity
  8
0
  6
Continuous
 62
     7
100
AcDbLine
 10
-330.8250015259787
 20
-68.7000029270161
 30
0.0
 11
-330.8250015259787
 21
-97.25000292701611
 31
0.0
  0
LINE
  5
20D
330
63
100
AcDbEntity
  8
0
  6
Continuous
 62
     7
100
AcDbLine
 10
-330.8250015259787
 20
-112.3000029270161
 30
0.0
 11
-330.8250015259787
 21
-104.4500029270161
 31
0.0
  0
LINE
  5
20E
330
63
100
AcDbEntity
  8
0
  6
Continuous
 62
     7
100
AcDbLine
 10
-336.3250015259787
 20
-104.4500029270161
 30
0.0
 11
-336.3250015259787
 21
-97.50000292701611
 31
0.0
  0
LINE
  5
20F
330
63
100
AcDbEntity
  8
0
  6
Continuous
 62
     7
100
AcDbLine
 10
-345.3108772541093
 20
-88.40275974058257
 30
0.0
 11
-346.0250015259786
 21
-90.74102833080055
 31
0.0
  0
ENDBLK
  5
65
330
63
100
AcDbEntity
  8
0
100
AcDbBlockEnd
  0
BLOCK
  5
68
330
66
100
AcDbEntity
  8
0
100
AcDbBlockBegin
  2
Right1
 70
     0
 10
-380.5250015259288
 20
-90.49999858203853
 30
0.0
  3
Right1
  1

  0
INSERT
  5
67
330
66
100
AcDbEntity
  8
0
100
AcDbBlockReference
  2
EB_3-36_UKH-select__5
 10
-430.2250015259787
 20
-112.3000029270161
 30
0.0
  0
MTEXT
  5
210
330
66
100
AcDbEntity
  8
1
 62
     6
100
AcDbMText
 10
-380.5250015259288
 20
-117.2999989354286
 30
0.0
 40
5.0
 41
0.0
 71
     2
 72
     1
  1
 
  7
CONVERTER_11
 73
     1
 44
1.32052821128451
  0
ENDBLK
  5
69
330
66
100
AcDbEntity
  8
0
100
AcDbBlockEnd
  0
BLOCK
  5
6B
330
6A
100
AcDbEntity
  8
0
100
AcDbBlockBegin
  2
EB_3-36_UKH-select__6
 70
     0
 10
-296.8250008957177
 20
-241.7000000000994
 30
0.0
  3
EB_3-36_UKH-select__6
  1

  0
LINE
  5
211
330
6A
100
AcDbEntity
  8
0
  6
Continuous
 62
     7
100
AcDbLine
 10
-277.4750008957176
 20
-144.7500000000994
 30
0.0
 11
-280.6750008957176
 21
-144.7500000000994
 31
0.0
  0
LINE
  5
212
330
6A
100
AcDbEntity
  8
0
  6
Continuous
 62
     7
100
AcDbLine
 10
-277.4750008957176
 20
-143.7500000000994
 30
0.0
 11
-277.4750008957176
 21
-144.7500000000994
 31
0.0
  0
LINE
  5
213
330
6A
100
AcDbEntity
  8
0
  6
Continuous
 62
     7
100
AcDbLine
 10
-280.6750008957176
 20
-144.7500000000994
 30
0.0
 11
-282.9250008957176
 21
-144.7500000000994
 31
0.0
  0
LINE
  5
214
330
6A
100
AcDbEntity
  8
0
  6
Continuous
 62
     7
100
AcDbLine
 10
-290.1250008957176
 20
-147.8000000000994
 30
0.0
 11
-290.1250008957176
 21
-142.3000000000994
 31
0.0
  0
LINE
  5
215
330
6A
100
AcDbEntity
  8
0
  6
Continuous
 62
     7
100
AcDbLine
 10
-282.9250008957176
 20
-144.7500000000994
 30
0.0
 11
-282.9250008957176
 21
-142.3000000000994
 31
0.0
  0
LINE
  5
216
330
6A
100
AcDbEntity
  8
0
  6
Continuous
 62
     7
100
AcDbLine
 10
-282.9250008957176
 20
-147.8000000000994
 30
0.0
 11
-282.9250008957176
 21
-144.7500000000994
 31
0.0
  0
LINE
  5
217
330
6A
100
AcDbEntity
  8
0
  6
Continuous
 62
     7
100
AcDbLine
 10
-290.1250008957176
 20
-154.5000000000994
 30
0.0
 11
-290.1250008957176
 21
-147.8000000000994
 31
0.0
  0
LINE
  5
218
330
6A
100
AcDbEntity
  8
0
  6
Continuous
 62
     7
100
AcDbLine
 10
-288.0750008957177
 20
-154.5000000000993
 30
0.0
 11
-290.1250008957176
 21
-154.5000000000994
 31
0.0
  0
LINE
  5
219
330
6A
100
AcDbEntity
  8
0
  6
Continuous
 62
     7
100
AcDbLine
 10
-284.0250008957177
 20
-155.2141242719686
 30
0.0
 11
-288.0750008957177
 21
-154.5000000000993
 31
0.0
  0
LINE
  5
21A
330
6A
100
AcDbEntity
  8
0
  6
Continuous
 62
     7
100
AcDbLine
 10
-282.9250008957176
 20
-147.8000000000994
 30
0.0
 11
-290.1250008957176
 21
-147.8000000000994
 31
0.0
  0
LINE
  5
21B
330
6A
100
AcDbEntity
  8
0
  6
Continuous
 62
     7
100
AcDbLine
 10
-282.9250008957176
 20
-142.3000000000994
 30
0.0
 11
-290.1250008957176
 21
-142.3000000000994
 31
0.0
  0
LINE
  5
21C
330
6A
100
AcDbEntity
  8
0
  6
Continuous
 62
     7
100
AcDbLine
 10
-280.6750008957176
 20
-167.2500000000994
 30
0.0
 11
-280.6750008957176
 21
-144.7500000000994
 31
0.0
  0
LINE
  5
21D
330
6A
100
AcDbEntity
  8
0
  6
Continuous
 62
     7
100
AcDbLine
 10
-247.1750008957176
 20
-168.2500000000994
 30
0.0
 11
-247.1750008957176
 21
-143.7500000000994
 31
0.0
  0
LINE
  5
21E
330
6A
100
AcDbEntity
  8
0
  6
Continuous
 62
     7
100
AcDbLine
 10
-277.4750008957176
 20
-143.7500000000994
 30
0.0
 11
-247.1750008957176
 21
-143.7500000000994
 31
0.0
  0
LINE
  5
21F
330
6A
100
AcDbEntity
  8
0
  6
Continuous
 62
     7
100
AcDbLine
 10
-282.9250008957176
 20
-241.7000000000994
 30
0.0
 11
-282.9250008957176
 21
-239.2500000000994
 31
0.0
  0
LINE
  5
220
330
6A
100
AcDbEntity
  8
0
  6
Continuous
 62
     7
100
AcDbLine
 10
-282.9250008957176
 20
-239.2500000000994
 30
0.0
 11
-282.9250008957176
 21
-236.2000000000994
 31
0.0
  0
LINE
  5
221
330
6A
100
AcDbEntity
  8
0
  6
Continuous
 62
     7
100
AcDbLine
 10
-290.1250008957176
 20
-229.5000000000994
 30
0.0
 11
-288.0750008957177
 21
-229.5000000000994
 31
0.0
  0
LINE
  5
222
330
6A
100
AcDbEntity
  8
0
  6
Continuous
 62
     7
100
AcDbLine
 10
-290.1250008957176
 20
-241.7000000000994
 30
0.0
 11
-282.9250008957176
 21
-241.7000000000994
 31
0.0
  0
LINE
  5
223
330
6A
100
AcDbEntity
  8
0
  6
Continuous
 62
     7
100
AcDbLine
 10
-283.4750008957176
 20
-215.7500000000994
 30
0.0
 11
-290.1250008957176
 21
-215.7500000000994
 31
0.0
  0
LINE
  5
224
330
6A
100
AcDbEntity
  8
0
  6
Continuous
 62
     7
100
AcDbLine
 10
-283.4750008957176
 20
-215.7500000000994
 30
0.0
 11
-283.4750008957176
 21
-216.7500000000994
 31
0.0
  0
LINE
  5
225
330
6A
100
AcDbEntity
  8
0
  6
Continuous
 62
     7
100
AcDbLine
 10
-277.4750008957176
 20
-216.7500000000994
 30
0.0
 11
-280.6750008957176
 21
-216.7500000000994
 31
0.0
  0
LINE
  5
226
330
6A
100
AcDbEntity
  8
0
  6
Continuous
 62
     7
100
AcDbLine
 10
-277.4750008957176
 20
-215.7500000000994
 30
0.0
 11
-277.4750008957176
 21
-216.7500000000994
 31
0.0
  0
LINE
  5
227
330
6A
100
AcDbEntity
  8
0
  6
Continuous
 62
     7
100
AcDbLine
 10
-247.1750008957176
 20
-240.2500000000994
 30
0.0
 11
-247.1750008957176
 21
-215.7500000000994
 31
0.0
  0
LINE
  5
228
330
6A
100
AcDbEntity
  8
0
  6
Continuous
 62
     7
100
AcDbLine
 10
-280.6750008957176
 20
-216.7500000000994
 30
0.0
 11
-283.4750008957176
 21
-216.7500000000994
 31
0.0
  0
LINE
  5
229
330
6A
100
AcDbEntity
  8
0
  6
Continuous
 62
     7
100
AcDbLine
 10
-288.0750008957177
 20
-226.5000000000994
 30
0.0
 11
-290.1250008957176
 21
-226.5000000000994
 31
0.0
  0
LINE
  5
22A
330
6A
100
AcDbEntity
  8
0
  6
Continuous
 62
     7
100
AcDbLine
 10
-284.0250008957177
 20
-227.2141242719687
 30
0.0
 11
-288.0750008957177
 21
-226.5000000000994
 31
0.0
  0
LINE
  5
22B
330
6A
100
AcDbEntity
  8
0
  6
Continuous
 62
     7
100
AcDbLine
 10
-280.6750008957176
 20
-239.2500000000994
 30
0.0
 11
-280.6750008957176
 21
-216.7500000000994
 31
0.0
  0
LINE
  5
22C
330
6A
100
AcDbEntity
  8
0
  6
Continuous
 62
     7
100
AcDbLine
 10
-247.1750008957176
 20
-215.7500000000994
 30
0.0
 11
-277.4750008957176
 21
-215.7500000000994
 31
0.0
  0
LINE
  5
22D
330
6A
100
AcDbEntity
  8
0
  6
Continuous
 62
     7
100
AcDbLine
 10
-277.4750008957176
 20
-239.2500000000994
 30
0.0
 11
-277.4750008957176
 21
-240.2500000000994
 31
0.0
  0
LINE
  5
22E
330
6A
100
AcDbEntity
  8
0
  6
Continuous
 62
     7
100
AcDbLine
 10
-288.0750008957177
 20
-229.5000000000994
 30
0.0
 11
-284.0250008957177
 21
-228.7858757282301
 31
0.0
  0
LINE
  5
22F
330
6A
100
AcDbEntity
  8
0
  6
Continuous
 62
     7
100
AcDbLine
 10
-290.1250008957176
 20
-236.2000000000994
 30
0.0
 11
-282.9250008957176
 21
-236.2000000000994
 31
0.0
  0
LINE
  5
230
330
6A
100
AcDbEntity
  8
0
  6
Continuous
 62
     7
100
AcDbLine
 10
-280.6750008957176
 20
-239.2500000000994
 30
0.0
 11
-277.4750008957176
 21
-239.2500000000994
 31
0.0
  0
LINE
  5
231
330
6A
100
AcDbEntity
  8
0
  6
Continuous
 62
     7
100
AcDbLine
 10
-282.9250008957176
 20
-239.2500000000994
 30
0.0
 11
-280.6750008957176
 21
-239.2500000000994
 31
0.0
  0
LINE
  5
232
330
6A
100
AcDbEntity
  8
0
  6
Continuous
 62
     7
100
AcDbLine
 10
-277.4750008957176
 20
-240.2500000000994
 30
0.0
 11
-247.1750008957176
 21
-240.2500000000994
 31
0.0
  0
LINE
  5
233
330
6A
100
AcDbEntity
  8
0
  6
Continuous
 62
     7
100
AcDbLine
 10
-283.4750008957176
 20
-179.7500000000994
 30
0.0
 11
-283.4750008957176
 21
-180.7500000000994
 31
0.0
  0
LINE
  5
234
330
6A
100
AcDbEntity
  8
0
  6
Continuous
 62
     7
100
AcDbLine
 10
-280.6750008957176
 20
-180.7500000000994
 30
0.0
 11
-283.4750008957176
 21
-180.7500000000994
 31
0.0
  0
LINE
  5
235
330
6A
100
AcDbEntity
  8
0
  6
Continuous
 62
     7
100
AcDbLine
 10
-277.4750008957176
 20
-180.7500000000994
 30
0.0
 11
-280.6750008957176
 21
-180.7500000000994
 31
0.0
  0
LINE
  5
236
330
6A
100
AcDbEntity
  8
0
  6
Continuous
 62
     7
100
AcDbLine
 10
-277.4750008957176
 20
-179.7500000000994
 30
0.0
 11
-277.4750008957176
 21
-180.7500000000994
 31
0.0
  0
LINE
  5
237
330
6A
100
AcDbEntity
  8
0
  6
Continuous
 62
     7
100
AcDbLine
 10
-247.1750008957176
 20
-204.2500000000994
 30
0.0
 11
-247.1750008957176
 21
-179.7500000000994
 31
0.0
  0
LINE
  5
238
330
6A
100
AcDbEntity
  8
0
  6
Continuous
 62
     7
100
AcDbLine
 10
-284.0250008957177
 20
-191.2141242719687
 30
0.0
 11
-288.0750008957177
 21
-190.5000000000994
 31
0.0
  0
LINE
  5
239
330
6A
100
AcDbEntity
  8
0
  6
Continuous
 62
     7
100
AcDbLine
 10
-280.6750008957176
 20
-203.2500000000994
 30
0.0
 11
-280.6750008957176
 21
-180.7500000000994
 31
0.0
  0
LINE
  5
23A
330
6A
100
AcDbEntity
  8
0
  6
Continuous
 62
     7
100
AcDbLine
 10
-247.1750008957176
 20
-179.7500000000994
 30
0.0
 11
-277.4750008957176
 21
-179.7500000000994
 31
0.0
  0
LINE
  5
23B
330
6A
100
AcDbEntity
  8
0
  6
Continuous
 62
     7
100
AcDbLine
 10
-290.1250008957176
 20
-193.5000000000994
 30
0.0
 11
-290.1250008957176
 21
-190.5000000000994
 31
0.0
  0
LINE
  5
23C
330
6A
100
AcDbEntity
  8
0
  6
Continuous
 62
     7
100
AcDbLine
 10
-290.1250008957176
 20
-190.5000000000994
 30
0.0
 11
-290.1250008957176
 21
-157.5000000000994
 31
0.0
  0
LINE
  5
23D
330
6A
100
AcDbEntity
  8
0
  6
Continuous
 62
     7
100
AcDbLine
 10
-290.1250008957176
 20
-229.5000000000994
 30
0.0
 11
-290.1250008957176
 21
-226.5000000000994
 31
0.0
  0
LINE
  5
23E
330
6A
100
AcDbEntity
  8
0
  6
Continuous
 62
     7
100
AcDbLine
 10
-290.1250008957176
 20
-241.7000000000994
 30
0.0
 11
-290.1250008957176
 21
-236.2000000000994
 31
0.0
  0
LINE
  5
23F
330
6A
100
AcDbEntity
  8
0
  6
Continuous
 62
     7
100
AcDbLine
 10
-290.1250008957176
 20
-236.2000000000994
 30
0.0
 11
-290.1250008957176
 21
-229.5000000000994
 31
0.0
  0
LINE
  5
240
330
6A
100
AcDbEntity
  8
0
  6
Continuous
 62
     7
100
AcDbLine
 10
-290.1250008957176
 20
-226.5000000000994
 30
0.0
 11
-290.1250008957176
 21
-193.5000000000994
 31
0.0
  0
LINE
  5
241
330
6A
100
AcDbEntity
  8
0
  6
Continuous
 62
     7
100
AcDbLine
 10
-290.1250008957176
 20
-241.7000000000994
 30
0.0
 11
-296.8250008957177
 21
-241.7000000000994
 31
0.0
  0
LINE
  5
242
330
6A
100
AcDbEntity
  8
0
  6
Continuous
 62
     7
100
AcDbLine
 10
-290.1250008957176
 20
-157.5000000000994
 30
0.0
 11
-290.1250008957176
 21
-154.5000000000994
 31
0.0
  0
LINE
  5
243
330
6A
100
AcDbEntity
  8
0
  6
Continuous
 62
     7
100
AcDbLine
 10
-290.1250008957176
 20
-157.5000000000994
 30
0.0
 11
-288.0750008957177
 21
-157.5000000000994
 31
0.0
  0
LINE
  5
244
330
6A
100
AcDbEntity
  8
0
  6
Continuous
 62
     7
100
AcDbLine
 10
-290.1250008957176
 20
-142.3000000000994
 30
0.0
 11
-296.8250008957177
 21
-142.3000000000994
 31
0.0
  0
LINE
  5
245
330
6A
100
AcDbEntity
  8
0
  6
Continuous
 62
     7
100
AcDbLine
 10
-296.8250008957177
 20
-241.7000000000994
 30
0.0
 11
-296.8250008957177
 21
-142.3000000000994
 31
0.0
  0
LINE
  5
246
330
6A
100
AcDbEntity
  8
0
  6
Continuous
 62
     7
100
AcDbLine
 10
-284.0250008957177
 20
-192.7858757282301
 30
0.0
 11
-284.0250008957177
 21
-191.2141242719687
 31
0.0
  0
LINE
  5
247
330
6A
100
AcDbEntity
  8
0
  6
Continuous
 62
     7
100
AcDbLine
 10
-284.0250008957177
 20
-228.7858757282301
 30
0.0
 11
-284.0250008957177
 21
-227.2141242719687
 31
0.0
  0
LINE
  5
248
330
6A
100
AcDbEntity
  8
0
  6
Continuous
 62
     7
100
AcDbLine
 10
-284.0250008957177
 20
-156.78587572823
 30
0.0
 11
-284.0250008957177
 21
-155.2141242719686
 31
0.0
  0
LINE
  5
249
330
6A
100
AcDbEntity
  8
0
  6
Continuous
 62
     7
100
AcDbLine
 10
-283.4750008957176
 20
-167.2500000000994
 30
0.0
 11
-283.4750008957176
 21
-168.2500000000994
 31
0.0
  0
LINE
  5
24A
330
6A
100
AcDbEntity
  8
0
  6
Continuous
 62
     7
100
AcDbLine
 10
-288.0750008957177
 20
-190.5000000000994
 30
0.0
 11
-290.1250008957176
 21
-190.5000000000994
 31
0.0
  0
LINE
  5
24B
330
6A
100
AcDbEntity
  8
0
  6
Continuous
 62
     7
100
AcDbLine
 10
-283.4750008957176
 20
-179.7500000000994
 30
0.0
 11
-290.1250008957176
 21
-179.7500000000994
 31
0.0
  0
LINE
  5
24C
330
6A
100
AcDbEntity
  8
0
  6
Continuous
 62
     7
100
AcDbLine
 10
-290.1250008957176
 20
-168.2500000000994
 30
0.0
 11
-283.4750008957176
 21
-168.2500000000994
 31
0.0
  0
LINE
  5
24D
330
6A
100
AcDbEntity
  8
0
  6
Continuous
 62
     7
100
AcDbLine
 10
-283.4750008957176
 20
-167.2500000000994
 30
0.0
 11
-280.6750008957176
 21
-167.2500000000994
 31
0.0
  0
LINE
  5
24E
330
6A
100
AcDbEntity
  8
0
  6
Continuous
 62
     7
100
AcDbLine
 10
-280.6750008957176
 20
-167.2500000000994
 30
0.0
 11
-277.4750008957176
 21
-167.2500000000994
 31
0.0
  0
LINE
  5
24F
330
6A
100
AcDbEntity
  8
0
  6
Continuous
 62
     7
100
AcDbLine
 10
-277.4750008957176
 20
-167.2500000000994
 30
0.0
 11
-277.4750008957176
 21
-168.2500000000994
 31
0.0
  0
LINE
  5
250
330
6A
100
AcDbEntity
  8
0
  6
Continuous
 62
     7
100
AcDbLine
 10
-277.4750008957176
 20
-168.2500000000994
 30
0.0
 11
-247.1750008957176
 21
-168.2500000000994
 31
0.0
  0
LINE
  5
251
330
6A
100
AcDbEntity
  8
0
  6
Continuous
 62
     7
100
AcDbLine
 10
-288.0750008957177
 20
-193.5000000000994
 30
0.0
 11
-288.0750008957177
 21
-190.5000000000994
 31
0.0
  0
LINE
  5
252
330
6A
100
AcDbEntity
  8
0
  6
Continuous
 62
     7
100
AcDbLine
 10
-288.0750008957177
 20
-229.5000000000994
 30
0.0
 11
-288.0750008957177
 21
-226.5000000000994
 31
0.0
  0
LINE
  5
253
330
6A
100
AcDbEntity
  8
0
  6
Continuous
 62
     7
100
AcDbLine
 10
-288.0750008957177
 20
-157.5000000000994
 30
0.0
 11
-288.0750008957177
 21
-154.5000000000993
 31
0.0
  0
LINE
  5
254
330
6A
100
AcDbEntity
  8
0
  6
Continuous
 62
     7
100
AcDbLine
 10
-283.4750008957176
 20
-203.2500000000994
 30
0.0
 11
-283.4750008957176
 21
-204.2500000000994
 31
0.0
  0
LINE
  5
255
330
6A
100
AcDbEntity
  8
0
  6
Continuous
 62
     7
100
AcDbLine
 10
-277.4750008957176
 20
-203.2500000000994
 30
0.0
 11
-277.4750008957176
 21
-204.2500000000994
 31
0.0
  0
LINE
  5
256
330
6A
100
AcDbEntity
  8
0
  6
Continuous
 62
     7
100
AcDbLine
 10
-283.4750008957176
 20
-203.2500000000994
 30
0.0
 11
-280.6750008957176
 21
-203.2500000000994
 31
0.0
  0
LINE
  5
257
330
6A
100
AcDbEntity
  8
0
  6
Continuous
 62
     7
100
AcDbLine
 10
-290.1250008957176
 20
-193.5000000000994
 30
0.0
 11
-288.0750008957177
 21
-193.5000000000994
 31
0.0
  0
LINE
  5
258
330
6A
100
AcDbEntity
  8
0
  6
Continuous
 62
     7
100
AcDbLine
 10
-288.0750008957177
 20
-193.5000000000994
 30
0.0
 11
-284.0250008957177
 21
-192.7858757282301
 31
0.0
  0
LINE
  5
259
330
6A
100
AcDbEntity
  8
0
  6
Continuous
 62
     7
100
AcDbLine
 10
-280.6750008957176
 20
-203.2500000000994
 30
0.0
 11
-277.4750008957176
 21
-203.2500000000994
 31
0.0
  0
LINE
  5
25A
330
6A
100
AcDbEntity
  8
0
  6
Continuous
 62
     7
100
AcDbLine
 10
-290.1250008957176
 20
-204.2500000000994
 30
0.0
 11
-283.4750008957176
 21
-204.2500000000994
 31
0.0
  0
LINE
  5
25B
330
6A
100
AcDbEntity
  8
0
  6
Continuous
 62
     7
100
AcDbLine
 10
-277.4750008957176
 20
-204.2500000000994
 30
0.0
 11
-247.1750008957176
 21
-204.2500000000994
 31
0.0
  0
LINE
  5
25C
330
6A
100
AcDbEntity
  8
0
  6
Continuous
 62
     7
100
AcDbLine
 10
-288.0750008957177
 20
-157.5000000000994
 30
0.0
 11
-284.0250008957177
 21
-156.78587572823
 31
0.0
  0
ENDBLK
  5
6C
330
6A
100
AcDbEntity
  8
0
100
AcDbBlockEnd
  0
BLOCK
  5
6F
330
6D
100
AcDbEntity
  8
0
100
AcDbBlockBegin
  2
Top1
 70
     0
 10
-271.99999999969
 20
-192.0000000000496
 30
0.0
  3
Top1
  1

  0
INSERT
  5
6E
330
6D
100
AcDbEntity
  8
0
100
AcDbBlockReference
  2
EB_3-36_UKH-select__6
 10
-296.8250008957177
 20
-241.7000000000994
 30
0.0
  0
MTEXT
  5
25D
330
6D
100
AcDbEntity
  8
1
 62
     6
100
AcDbMText
 10
-271.99999999969
 20
-246.7000007629895
 30
0.0
 40
5.0
 41
0.0
 71
     2
 72
     1
  1
 
  7
CONVERTER_11
 73
     1
 44
1.32052821128451
  0
DIMENSION
  5
268
330
6D
100
AcDbEntity
  8
1
100
AcDbDimension
  2
*D19
 10
-307.531438285636
 20
-241.7000000000994
 30
0.0
 11
-310.956438285636
 21
-192.4751218748546
 31
0.0
 70
    32
  1
<>
 71
     5
 42
-1.0
 53
90.0
  3
ME10_DIM_12
100
AcDbAlignedDimension
 13
-290.1250008957176
 23
-142.3000000000994
 33
0.0
 14
-290.1250008957176
 24
-241.7000000000994
 34
0.0
 50
90.0
100
AcDbRotatedDimension
  0
ENDBLK
  5
70
330
6D
100
AcDbEntity
  8
0
100
AcDbBlockEnd
  0
BLOCK
  5
72
330
71
100
AcDbEntity
  8
0
100
AcDbBlockBegin
  2
_rahmen
 70
     0
 10
-42.70821969616969
 20
-314.224989179649
 30
0.0
  3
_rahmen
  1

  0
LINE
  5
269
330
71
100
AcDbEntity
  8
1
  6
Continuous
 62
     6
100
AcDbLine
 10
-111.0415530295031
 20
-309.224989179649
 30
0.0
 11
-42.70821969616975
 21
-309.2249891796495
 31
0.0
  0
LINE
  5
26A
330
71
100
AcDbEntity
  8
1
  6
Continuous
 62
     6
100
AcDbLine
 10
-42.70821969617015
 20
-300.7249891796496
 30
0.0
 11
-42.70821969616969
 21
-292.2249891796496
 31
0.0
  0
LINE
  5
26B
330
71
100
AcDbEntity
  8
1
  6
Continuous
 62
     6
100
AcDbLine
 10
-42.70821969616969
 20
-292.2249891796496
 30
0.0
 11
-42.70821969617066
 21
-287.9749891796496
 31
0.0
  0
LINE
  5
26C
330
71
100
AcDbEntity
  8
1
  6
Continuous
 62
     6
100
AcDbLine
 10
-42.70821969617066
 20
-287.9749891796496
 30
0.0
 11
-42.70821969616975
 21
-251.8249891796489
 31
0.0
  0
LINE
  5
26D
330
71
100
AcDbEntity
  8
1
  6
Continuous
 62
     2
100
AcDbLine
 10
-247.7082196961697
 20
-314.224989179649
 30
0.0
 11
-316.0415530295028
 21
-314.224989179649
 31
0.0
  0
LINE
  5
26E
330
71
100
AcDbEntity
  8
1
  6
Continuous
 62
     2
100
AcDbLine
 10
-111.0415530295031
 20
-314.224989179649
 30
0.0
 11
-42.70821969616969
 21
-314.224989179649
 31
0.0
  0
LINE
  5
26F
330
71
100
AcDbEntity
  8
1
  6
Continuous
 62
     2
100
AcDbLine
 10
-111.0415530295031
 20
-314.224989179649
 30
0.0
 11
-111.0415530295031
 21
-309.224989179649
 31
0.0
  0
LINE
  5
270
330
71
100
AcDbEntity
  8
1
  6
Continuous
 62
     2
100
AcDbLine
 10
-179.3748863628363
 20
-314.224989179649
 30
0.0
 11
-179.3748863628363
 21
-309.2249891796519
 31
0.0
  0
LINE
  5
271
330
71
100
AcDbEntity
  8
1
  6
Continuous
 62
     2
100
AcDbLine
 10
-247.7082196961697
 20
-314.224989179649
 30
0.0
 11
-247.7082196961697
 21
-309.224989179649
 31
0.0
  0
LINE
  5
272
330
71
100
AcDbEntity
  8
1
  6
Continuous
 62
     2
100
AcDbLine
 10
-37.70821969617219
 20
-251.8249891796489
 30
0.0
 11
-37.70821969617219
 21
-194.4249891796488
 31
0.0
  0
LINE
  5
273
330
71
100
AcDbEntity
  8
1
  6
Continuous
 62
     2
100
AcDbLine
 10
-37.70821969617219
 20
-251.8249891796489
 30
0.0
 11
-42.70821969616975
 21
-251.8249891796489
 31
0.0
  0
LINE
  5
274
330
71
100
AcDbEntity
  8
1
  6
Continuous
 62
     2
100
AcDbLine
 10
-437.7082196961704
 20
-314.224989179649
 30
0.0
 11
-457.7082196961705
 21
-314.224989179649
 31
0.0
  0
LINE
  5
275
330
71
100
AcDbEntity
  8
1
  6
Continuous
 62
     2
100
AcDbLine
 10
-384.3748863628363
 20
-314.224989179649
 30
0.0
 11
-384.3748863628363
 21
-309.224989179649
 31
0.0
  0
LINE
  5
276
330
71
100
AcDbEntity
  8
1
  6
Continuous
 62
     2
100
AcDbLine
 10
-384.3748863628363
 20
-314.224989179649
 30
0.0
 11
-316.0415530295028
 21
-314.224989179649
 31
0.0
  0
LINE
  5
277
330
71
100
AcDbEntity
  8
1
  6
Continuous
 62
     6
100
AcDbLine
 10
-384.3748863628363
 20
-309.224989179649
 30
0.0
 11
-316.0415530295028
 21
-309.224989179649
 31
0.0
  0
LINE
  5
278
330
71
100
AcDbEntity
  8
1
  6
Continuous
 62
     6
100
AcDbLine
 10
-384.3748863628363
 20
-309.224989179649
 30
0.0
 11
-437.7082196961694
 21
-309.224989179649
 31
0.0
  0
LINE
  5
279
330
71
100
AcDbEntity
  8
1
  6
Continuous
 62
     2
100
AcDbLine
 10
-316.0415530295028
 20
-314.224989179649
 30
0.0
 11
-316.0415530295028
 21
-309.224989179649
 31
0.0
  0
LINE
  5
27A
330
71
100
AcDbEntity
  8
1
  6
Continuous
 62
     2
100
AcDbLine
 10
-437.7082196961704
 20
-314.224989179649
 30
0.0
 11
-437.7082196961704
 21
-310.224989179649
 31
0.0
  0
LINE
  5
27B
330
71
100
AcDbEntity
  8
1
  6
Continuous
 62
     2
100
AcDbLine
 10
-437.7082196961704
 20
-314.224989179649
 30
0.0
 11
-384.3748863628363
 21
-314.224989179649
 31
0.0
  0
LINE
  5
27C
330
71
100
AcDbEntity
  8
1
  6
Continuous
 62
     2
100
AcDbLine
 10
-227.7082196961725
 20
-314.224989179649
 30
0.0
 11
-247.7082196961697
 21
-314.224989179649
 31
0.0
  0
LINE
  5
27D
330
71
100
AcDbEntity
  8
1
  6
Continuous
 62
     2
100
AcDbLine
 10
-227.7082196961725
 20
-314.224989179649
 30
0.0
 11
-227.7082196961725
 21
-310.224989179649
 31
0.0
  0
LINE
  5
27E
330
71
100
AcDbEntity
  8
1
  6
Continuous
 62
     2
100
AcDbLine
 10
-227.7082196961725
 20
-314.224989179649
 30
0.0
 11
-179.3748863628363
 21
-314.224989179649
 31
0.0
  0
LINE
  5
27F
330
71
100
AcDbEntity
  8
1
  6
Continuous
 62
     2
100
AcDbLine
 10
-179.3748863628363
 20
-314.224989179649
 30
0.0
 11
-111.0415530295031
 21
-314.224989179649
 31
0.0
  0
LINE
  5
280
330
71
100
AcDbEntity
  8
1
  6
Continuous
 62
     2
100
AcDbLine
 10
-37.70821969617219
 20
-314.224989179649
 30
0.0
 11
-42.70821969616969
 21
-314.224989179649
 31
0.0
  0
LINE
  5
281
330
71
100
AcDbEntity
  8
1
  6
Continuous
 62
     2
100
AcDbLine
 10
-37.70821969617219
 20
-309.224989179649
 30
0.0
 11
-37.70821969617219
 21
-314.224989179649
 31
0.0
  0
LINE
  5
282
330
71
100
AcDbEntity
  8
1
  6
Continuous
 62
     2
100
AcDbLine
 10
-37.70821969617219
 20
-309.224989179649
 30
0.0
 11
-37.70821969617219
 21
-251.8249891796489
 31
0.0
  0
LINE
  5
283
330
71
100
AcDbEntity
  8
1
  6
Continuous
 62
     2
100
AcDbLine
 10
-37.70821969617219
 20
-17.22498917964902
 30
0.0
 11
-42.70821969617219
 21
-17.22498917964902
 31
0.0
  0
LINE
  5
284
330
71
100
AcDbEntity
  8
1
  6
Continuous
 62
     6
100
AcDbLine
 10
-42.70821969617219
 20
-22.22498917964902
 30
0.0
 11
-42.70821969617168
 21
-79.6249891796491
 31
0.0
  0
LINE
  5
285
330
71
100
AcDbEntity
  8
1
  6
Continuous
 62
     2
100
AcDbLine
 10
-37.70821969617219
 20
-17.22498917964902
 30
0.0
 11
-37.70821969617219
 21
-22.22498917964902
 31
0.0
  0
LINE
  5
286
330
71
100
AcDbEntity
  8
1
  6
Continuous
 62
     2
100
AcDbLine
 10
-42.70821969617219
 20
-22.22498917964902
 30
0.0
 11
-42.70821969617219
 21
-17.22498917964902
 31
0.0
  0
LINE
  5
287
330
71
100
AcDbEntity
  8
1
  6
Continuous
 62
     2
100
AcDbLine
 10
-42.70821969617219
 20
-22.22498917964902
 30
0.0
 11
-37.70821969617219
 21
-22.22498917964902
 31
0.0
  0
LINE
  5
288
330
71
100
AcDbEntity
  8
1
  6
Continuous
 62
     2
100
AcDbLine
 10
-37.70821969617219
 20
-22.22498917964902
 30
0.0
 11
-37.70821969617219
 21
-79.6249891796491
 31
0.0
  0
LINE
  5
289
330
71
100
AcDbEntity
  8
1
  6
Continuous
 62
     2
100
AcDbLine
 10
-42.70821969617168
 20
-79.6249891796491
 30
0.0
 11
-37.70821969617219
 21
-79.6249891796491
 31
0.0
  0
LINE
  5
28A
330
71
100
AcDbEntity
  8
1
  6
Continuous
 62
     6
100
AcDbLine
 10
-42.70821969617168
 20
-79.6249891796491
 30
0.0
 11
-42.70821969616969
 21
-137.024989179649
 31
0.0
  0
LINE
  5
28B
330
71
100
AcDbEntity
  8
1
  6
Continuous
 62
     2
100
AcDbLine
 10
-37.70821969617219
 20
-79.6249891796491
 30
0.0
 11
-37.70821969617219
 21
-137.024989179649
 31
0.0
  0
LINE
  5
28C
330
71
100
AcDbEntity
  8
1
  6
Continuous
 62
     2
100
AcDbLine
 10
-42.70821969616969
 20
-137.024989179649
 30
0.0
 11
-37.70821969617219
 21
-137.024989179649
 31
0.0
  0
LINE
  5
28D
330
71
100
AcDbEntity
  8
1
  6
Continuous
 62
     6
100
AcDbLine
 10
-42.70821969616969
 20
-137.024989179649
 30
0.0
 11
-42.70821969616969
 21
-194.4249891796488
 31
0.0
  0
LINE
  5
28E
330
71
100
AcDbEntity
  8
1
  6
Continuous
 62
     2
100
AcDbLine
 10
-37.70821969617219
 20
-137.024989179649
 30
0.0
 11
-37.70821969617219
 21
-194.4249891796488
 31
0.0
  0
LINE
  5
28F
330
71
100
AcDbEntity
  8
1
  6
Continuous
 62
     2
100
AcDbLine
 10
-42.70821969616969
 20
-194.4249891796488
 30
0.0
 11
-37.70821969617219
 21
-194.4249891796488
 31
0.0
  0
LINE
  5
290
330
71
100
AcDbEntity
  8
1
  6
Continuous
 62
     6
100
AcDbLine
 10
-42.70821969616969
 20
-194.4249891796488
 30
0.0
 11
-42.70821969616975
 21
-251.8249891796489
 31
0.0
  0
LINE
  5
291
330
71
100
AcDbEntity
  8
1
  6
Continuous
 62
     6
100
AcDbLine
 10
-437.7082196961704
 20
-22.22498917964879
 30
0.0
 11
-384.3748863628363
 21
-22.22498917964879
 31
0.0
  0
LINE
  5
292
330
71
100
AcDbEntity
  8
1
  6
Continuous
 62
     2
100
AcDbLine
 10
-42.70821969617219
 20
-17.22498917964902
 30
0.0
 11
-111.0415530295031
 21
-17.22498917964902
 31
0.0
  0
LINE
  5
293
330
71
100
AcDbEntity
  8
1
  6
Continuous
 62
     2
100
AcDbLine
 10
-111.0415530295031
 20
-22.22498917964902
 30
0.0
 11
-111.0415530295031
 21
-17.22498917964902
 31
0.0
  0
LINE
  5
294
330
71
100
AcDbEntity
  8
1
  6
Continuous
 62
     6
100
AcDbLine
 10
-111.0415530295031
 20
-22.22498917964902
 30
0.0
 11
-42.70821969617219
 21
-22.22498917964902
 31
0.0
  0
LINE
  5
295
330
71
100
AcDbEntity
  8
1
  6
Continuous
 62
     2
100
AcDbLine
 10
-111.0415530295031
 20
-17.22498917964902
 30
0.0
 11
-179.3748863628363
 21
-17.22498917964902
 31
0.0
  0
LINE
  5
296
330
71
100
AcDbEntity
  8
1
  6
Continuous
 62
     2
100
AcDbLine
 10
-179.3748863628363
 20
-22.22498917964902
 30
0.0
 11
-179.3748863628363
 21
-17.22498917964902
 31
0.0
  0
LINE
  5
297
330
71
100
AcDbEntity
  8
1
  6
Continuous
 62
     6
100
AcDbLine
 10
-179.3748863628363
 20
-22.22498917964902
 30
0.0
 11
-111.0415530295031
 21
-22.22498917964902
 31
0.0
  0
LINE
  5
298
330
71
100
AcDbEntity
  8
1
  6
Continuous
 62
     2
100
AcDbLine
 10
-179.3748863628363
 20
-17.22498917964902
 30
0.0
 11
-227.7082196961725
 21
-17.22498917964902
 31
0.0
  0
LINE
  5
299
330
71
100
AcDbEntity
  8
1
  6
Continuous
 62
     2
100
AcDbLine
 10
-247.7082196961697
 20
-22.22498917964902
 30
0.0
 11
-247.7082196961697
 21
-17.22498917964902
 31
0.0
  0
LINE
  5
29A
330
71
100
AcDbEntity
  8
1
  6
Continuous
 62
     6
100
AcDbLine
 10
-247.7082196961697
 20
-22.22498917964902
 30
0.0
 11
-179.3748863628363
 21
-22.22498917964902
 31
0.0
  0
LINE
  5
29B
330
71
100
AcDbEntity
  8
1
  6
Continuous
 62
     2
100
AcDbLine
 10
-247.7082196961697
 20
-17.22498917964902
 30
0.0
 11
-316.0415530295028
 21
-17.22498917964902
 31
0.0
  0
LINE
  5
29C
330
71
100
AcDbEntity
  8
1
  6
Continuous
 62
     2
100
AcDbLine
 10
-316.0415530295028
 20
-22.22498917964902
 30
0.0
 11
-316.0415530295028
 21
-17.22498917964902
 31
0.0
  0
LINE
  5
29D
330
71
100
AcDbEntity
  8
1
  6
Continuous
 62
     6
100
AcDbLine
 10
-316.0415530295028
 20
-22.22498917964902
 30
0.0
 11
-247.7082196961697
 21
-22.22498917964902
 31
0.0
  0
LINE
  5
29E
330
71
100
AcDbEntity
  8
1
  6
Continuous
 62
     2
100
AcDbLine
 10
-316.0415530295028
 20
-17.22498917964902
 30
0.0
 11
-384.3748863628363
 21
-17.22498917964902
 31
0.0
  0
LINE
  5
29F
330
71
100
AcDbEntity
  8
1
  6
Continuous
 62
     2
100
AcDbLine
 10
-384.3748863628363
 20
-22.22498917964879
 30
0.0
 11
-384.3748863628363
 21
-17.22498917964902
 31
0.0
  0
LINE
  5
2A0
330
71
100
AcDbEntity
  8
1
  6
Continuous
 62
     6
100
AcDbLine
 10
-384.3748863628363
 20
-22.22498917964879
 30
0.0
 11
-316.0415530295028
 21
-22.22498917964902
 31
0.0
  0
LINE
  5
2A1
330
71
100
AcDbEntity
  8
1
  6
Continuous
 62
     2
100
AcDbLine
 10
-384.3748863628363
 20
-17.22498917964902
 30
0.0
 11
-437.7082196961704
 21
-17.22498917964902
 31
0.0
  0
LINE
  5
2A2
330
71
100
AcDbEntity
  8
1
  6
Continuous
 62
     2
100
AcDbLine
 10
-437.7082196961704
 20
-17.22498917964902
 30
0.0
 11
-437.7082196961704
 21
-21.22498917964879
 31
0.0
  0
LINE
  5
2A3
330
71
100
AcDbEntity
  8
1
  6
Continuous
 62
     2
100
AcDbLine
 10
-437.7082196961704
 20
-17.22498917964902
 30
0.0
 11
-457.7082196961705
 21
-17.22498917964902
 31
0.0
  0
LINE
  5
2A4
330
71
100
AcDbEntity
  8
1
  6
Continuous
 62
     2
100
AcDbLine
 10
-227.7082196961725
 20
-17.22498917964902
 30
0.0
 11
-227.7082196961725
 21
-21.22498917964879
 31
0.0
  0
LINE
  5
2A5
330
71
100
AcDbEntity
  8
1
  6
Continuous
 62
     2
100
AcDbLine
 10
-227.7082196961725
 20
-17.22498917964902
 30
0.0
 11
-247.7082196961697
 21
-17.22498917964902
 31
0.0
  0
LINE
  5
2A6
330
71
100
AcDbEntity
  8
1
  6
Continuous
 62
     2
100
AcDbLine
 10
-457.7082196961705
 20
-17.22498917964902
 30
0.0
 11
-457.7082196961705
 21
-165.724989179649
 31
0.0
  0
LINE
  5
2A7
330
71
100
AcDbEntity
  8
1
  6
Continuous
 62
     2
100
AcDbLine
 10
-457.7082196961705
 20
-165.724989179649
 30
0.0
 11
-447.7082196961704
 21
-165.724989179649
 31
0.0
  0
LINE
  5
2A8
330
71
100
AcDbEntity
  8
1
  6
Continuous
 62
     2
100
AcDbLine
 10
-457.7082196961705
 20
-165.724989179649
 30
0.0
 11
-457.7082196961705
 21
-314.224989179649
 31
0.0
  0
LINE
  5
2A9
330
71
100
AcDbEntity
  8
1
  6
Continuous
 62
     6
100
AcDbLine
 10
-437.7082196961694
 20
-309.224989179649
 30
0.0
 11
-437.7082196961704
 21
-22.22498917964879
 31
0.0
  0
LINE
  5
2AA
330
71
100
AcDbEntity
  8
1
  6
Continuous
 62
     6
100
AcDbLine
 10
-42.70821969616975
 20
-309.2249891796495
 30
0.0
 11
-42.70821969617015
 21
-300.7249891796496
 31
0.0
  0
LINE
  5
2AB
330
71
100
AcDbEntity
  8
1
  6
Continuous
 62
     6
100
AcDbLine
 10
-316.0415530295028
 20
-309.224989179649
 30
0.0
 11
-172.2530242229196
 21
-309.2249891796521
 31
0.0
  0
LINE
  5
2AC
330
71
100
AcDbEntity
  8
1
  6
Continuous
 62
     2
100
AcDbLine
 10
-179.3748863628363
 20
-309.2249891796519
 30
0.0
 11
-179.3748863628363
 21
-309.224989179649
 31
0.0
  0
LINE
  5
2AD
330
71
100
AcDbEntity
  8
1
  6
Continuous
 62
     6
100
AcDbLine
 10
-42.7082196961679
 20
-292.2249891796496
 30
0.0
 11
-42.7082196961679
 21
-283.7249891796496
 31
0.0
  0
LINE
  5
2AE
330
71
100
AcDbEntity
  8
1
  6
Continuous
 62
     7
100
AcDbLine
 10
-107.9530242229197
 20
-300.7249891796496
 30
0.0
 11
-107.9530242229197
 21
-292.2249891796496
 31
0.0
  0
LINE
  5
2AF
330
71
100
AcDbEntity
  8
1
  6
Continuous
 62
     6
100
AcDbLine
 10
-135.8530242229197
 20
-292.2249891796496
 30
0.0
 11
-42.7082196961679
 21
-292.2249891796496
 31
0.0
  0
LINE
  5
2B0
330
71
100
AcDbEntity
  8
1
  6
Continuous
 62
     7
100
AcDbLine
 10
-172.2530242229196
 20
-292.2249891796496
 30
0.0
 11
-172.2530242229196
 21
-283.7249891796496
 31
0.0
  0
LINE
  5
2B1
330
71
100
AcDbEntity
  8
1
  6
Continuous
 62
     7
100
AcDbLine
 10
-135.8530242229197
 20
-292.2249891796496
 30
0.0
 11
-135.8530242229197
 21
-283.7249891796496
 31
0.0
  0
LINE
  5
2B2
330
71
100
AcDbEntity
  8
1
  6
Continuous
 62
     7
100
AcDbLine
 10
-78.12662797784672
 20
-283.7249891796496
 30
0.0
 11
-78.12662797784672
 21
-292.2249891796496
 31
0.0
  0
LINE
  5
2B3
330
71
100
AcDbEntity
  8
1
  6
Continuous
 62
     7
100
AcDbLine
 10
-51.62662797784709
 20
-283.7249891796496
 30
0.0
 11
-51.62662797784709
 21
-292.2249891796496
 31
0.0
  0
LINE
  5
2B4
330
71
100
AcDbEntity
  8
1
  6
Continuous
 62
     7
100
AcDbLine
 10
-42.7082196961684
 20
-300.7249891796496
 30
0.0
 11
-135.8530242229197
 21
-300.7249891796496
 31
0.0
  0
LINE
  5
2B5
102
{ACAD_REACTORS
330
39A
330
39B
102
}
330
71
100
AcDbEntity
  8
0
  6
Continuous
 62
     2
100
AcDbLine
 10
-158.5455952811522
 20
-299.9247000639863
 30
0.0
 11
-158.5455952811522
 21
-299.052183057183
 31
0.0
  0
LINE
  5
2B6
102
{ACAD_REACTORS
330
39A
330
39B
102
}
330
71
100
AcDbEntity
  8
0
  6
Continuous
 62
     2
100
AcDbLine
 10
-158.5455952811522
 20
-300.8844687714691
 30
0.0
 11
-158.5455952811522
 21
-301.7569857782724
 31
0.0
  0
LINE
  5
2B7
102
{ACAD_REACTORS
330
39C
330
39D
102
}
330
71
100
AcDbEntity
  8
0
  6
Continuous
 62
     2
100
AcDbLine
 10
-143.2125511448618
 20
-299.6629449619458
 30
0.0
 11
-142.1089118452937
 21
-299.6629449619458
 31
0.0
  0
LINE
  5
2B8
102
{ACAD_REACTORS
330
39C
330
39D
102
}
330
71
100
AcDbEntity
  8
0
  6
Continuous
 62
     2
100
AcDbLine
 10
-142.4428938019004
 20
-300.8844687714696
 30
0.0
 11
-142.4428938019004
 21
-301.7569857782729
 31
0.0
  0
LINE
  5
2B9
102
{ACAD_REACTORS
330
3A6
330
3A7
102
}
330
71
100
AcDbEntity
  8
0
  6
Continuous
 62
     2
100
AcDbLine
 10
-144.3036504172802
 20
-298.5722987034589
 30
0.0
 11
-142.9056973703399
 21
-296.991439709684
 31
0.0
  0
LINE
  5
2BA
102
{ACAD_REACTORS
330
3A6
330
3A7
102
}
330
71
100
AcDbEntity
  8
0
  6
Continuous
 62
     2
100
AcDbLine
 10
-144.2082270011074
 20
-295.5184891796478
 30
0.0
 11
-142.9056973703399
 21
-296.991439709684
 31
0.0
  0
LINE
  5
2BB
102
{ACAD_REACTORS
330
3A6
330
3A7
102
}
330
71
100
AcDbEntity
  8
0
  6
Continuous
 62
     2
100
AcDbLine
 10
-141.6031677395735
 20
-295.5184891796478
 30
0.0
 11
-140.2004435218263
 21
-295.5184891796478
 31
0.0
  0
LINE
  5
2BC
102
{ACAD_REACTORS
330
3A6
330
3A7
102
}
330
71
100
AcDbEntity
  8
0
  6
Continuous
 62
     2
100
AcDbLine
 10
-142.9009261995321
 20
-298.5722987034589
 30
0.0
 11
-142.2043352614663
 21
-297.7845669181652
 31
0.0
  0
LINE
  5
2BD
102
{ACAD_REACTORS
330
3A6
330
3A7
102
}
330
71
100
AcDbEntity
  8
0
  6
Continuous
 62
     2
100
AcDbLine
 10
-142.9009261995321
 20
-298.5722987034589
 30
0.0
 11
-144.3036504172802
 21
-298.5722987034589
 31
0.0
  0
LINE
  5
2BE
102
{ACAD_REACTORS
330
3A8
330
3A9
102
}
330
71
100
AcDbEntity
  8
0
  6
Continuous
 62
     2
100
AcDbLine
 10
-144.4229296874971
 20
-298.5722987034589
 30
0.0
 11
-145.66343409775
 21
-298.5722987034589
 31
0.0
  0
LINE
  5
2BF
102
{ACAD_REACTORS
330
3AA
330
3AB
102
}
330
71
100
AcDbEntity
  8
0
  6
Continuous
 62
     2
100
AcDbLine
 10
-146.5314137059051
 20
-300.7099653701088
 30
0.0
 11
-146.8315789430953
 21
-299.9421504041221
 31
0.0
  0
LINE
  5
2C0
102
{ACAD_REACTORS
330
3AA
330
3AB
102
}
330
71
100
AcDbEntity
  8
0
  6
Continuous
 62
     2
100
AcDbLine
 10
-147.1317441802876
 20
-300.7099653701088
 30
0.0
 11
-146.5314137059051
 21
-300.7099653701088
 31
0.0
  0
LINE
  5
2C1
102
{ACAD_REACTORS
330
3AA
330
3AB
102
}
330
71
100
AcDbEntity
  8
0
  6
Continuous
 62
     2
100
AcDbLine
 10
-148.8497841951614
 20
-301.9314891796332
 30
0.0
 11
-147.6092797849085
 21
-301.9314891796332
 31
0.0
  0
LINE
  5
2C2
102
{ACAD_REACTORS
330
3AA
330
3AB
102
}
330
71
100
AcDbEntity
  8
0
  6
Continuous
 62
     2
100
AcDbLine
 10
-147.4518311482222
 20
-298.8776796558221
 30
0.0
 11
-146.2113267379694
 21
-298.8776796558221
 31
0.0
  0
LINE
  5
2C3
102
{ACAD_REACTORS
330
3AA
330
3AB
102
}
330
71
100
AcDbEntity
  8
0
  6
Continuous
 62
     2
100
AcDbLine
 10
-146.2113267379694
 20
-298.8776796558221
 30
0.0
 11
-144.8133736910291
 21
-301.9314891796332
 31
0.0
  0
LINE
  5
2C4
102
{ACAD_REACTORS
330
3AA
330
3AB
102
}
330
71
100
AcDbEntity
  8
0
  6
Continuous
 62
     2
100
AcDbLine
 10
-146.053878101283
 20
-301.9314891796332
 30
0.0
 11
-146.2653581547588
 21
-301.3905286354154
 31
0.0
  0
LINE
  5
2C5
102
{ACAD_REACTORS
330
3AC
330
3AD
102
}
330
71
100
AcDbEntity
  8
0
  6
Continuous
 62
     2
100
AcDbLine
 10
-150.196197296869
 20
-301.9314891796332
 30
0.0
 11
-149.0034045947026
 21
-301.9314891796332
 31
0.0
  0
LINE
  5
2C6
102
{ACAD_REACTORS
330
3AC
330
3AD
102
}
330
71
100
AcDbEntity
  8
0
  6
Continuous
 62
     2
100
AcDbLine
 10
-150.196197296869
 20
-299.6629449619458
 30
0.0
 11
-150.196197296869
 21
-301.9314891796332
 31
0.0
  0
LINE
  5
2C7
102
{ACAD_REACTORS
330
3AC
330
3AD
102
}
330
71
100
AcDbEntity
  8
0
  6
Continuous
 62
     2
100
AcDbLine
 10
-151.0072963343437
 20
-298.8776796558221
 30
0.0
 11
-151.0072963343437
 21
-299.6629449619458
 31
0.0
  0
LINE
  5
2C8
102
{ACAD_REACTORS
330
3AE
330
3AF
102
}
330
71
100
AcDbEntity
  8
0
  6
Continuous
 62
     2
100
AcDbLine
 10
-149.528082452771
 20
-298.5722987034589
 30
0.0
 11
-148.3352897506046
 21
-298.5722987034589
 31
0.0
  0
LINE
  5
2C9
102
{ACAD_REACTORS
330
3AE
330
3AF
102
}
330
71
100
AcDbEntity
  8
0
  6
Continuous
 62
     2
100
AcDbLine
 10
-147.0947853403505
 20
-296.8272646898529
 30
0.0
 11
-148.3352897506046
 21
-295.5184891796478
 31
0.0
  0
LINE
  5
2CA
102
{ACAD_REACTORS
330
3AE
330
3AF
102
}
330
71
100
AcDbEntity
  8
0
  6
Continuous
 62
     2
100
AcDbLine
 10
-145.9019926381839
 20
-295.5184891796478
 30
0.0
 11
-147.0947853403505
 21
-295.5184891796478
 31
0.0
  0
LINE
  5
2CB
102
{ACAD_REACTORS
330
3AE
330
3AF
102
}
330
71
100
AcDbEntity
  8
0
  6
Continuous
 62
     2
100
AcDbLine
 10
-145.9019926381839
 20
-298.5722987034589
 30
0.0
 11
-145.9019926381839
 21
-295.5184891796478
 31
0.0
  0
LINE
  5
2CC
102
{ACAD_REACTORS
330
3AE
330
3AF
102
}
330
71
100
AcDbEntity
  8
0
  6
Continuous
 62
     2
100
AcDbLine
 10
-147.0947853403505
 20
-298.5722987034589
 30
0.0
 11
-145.9019926381839
 21
-298.5722987034589
 31
0.0
  0
LINE
  5
2CD
102
{ACAD_REACTORS
330
3AE
330
3AF
102
}
330
71
100
AcDbEntity
  8
0
  6
Continuous
 62
     2
100
AcDbLine
 10
-148.3352897506046
 20
-297.2635231932542
 30
0.0
 11
-147.0947853403505
 21
-298.5722987034589
 31
0.0
  0
LINE
  5
2CE
102
{ACAD_REACTORS
330
3B0
330
3B1
102
}
330
71
100
AcDbEntity
  8
0
  6
Continuous
 62
     2
100
AcDbLine
 10
-152.3432241607702
 20
-300.1864551660273
 30
0.0
 11
-153.5837285710232
 21
-298.8776796558221
 31
0.0
  0
LINE
  5
2CF
102
{ACAD_REACTORS
330
3B0
330
3B1
102
}
330
71
100
AcDbEntity
  8
0
  6
Continuous
 62
     2
100
AcDbLine
 10
-152.3432241607702
 20
-298.8776796558221
 30
0.0
 11
-152.3432241607702
 21
-300.1864551660273
 31
0.0
  0
LINE
  5
2D0
102
{ACAD_REACTORS
330
3B0
330
3B1
102
}
330
71
100
AcDbEntity
  8
0
  6
Continuous
 62
     2
100
AcDbLine
 10
-151.1504314586038
 20
-298.8776796558221
 30
0.0
 11
-152.3432241607702
 21
-298.8776796558221
 31
0.0
  0
LINE
  5
2D1
102
{ACAD_REACTORS
330
3B0
330
3B1
102
}
330
71
100
AcDbEntity
  8
0
  6
Continuous
 62
     2
100
AcDbLine
 10
-151.1504314586038
 20
-301.9314891796332
 30
0.0
 11
-151.1504314586038
 21
-298.8776796558221
 31
0.0
  0
LINE
  5
2D2
102
{ACAD_REACTORS
330
3B0
330
3B1
102
}
330
71
100
AcDbEntity
  8
0
  6
Continuous
 62
     2
100
AcDbLine
 10
-153.5837285710232
 20
-300.6227136694287
 30
0.0
 11
-152.3432241607702
 21
-301.9314891796332
 31
0.0
  0
LINE
  5
2D3
102
{ACAD_REACTORS
330
3B0
330
3B1
102
}
330
71
100
AcDbEntity
  8
0
  6
Continuous
 62
     2
100
AcDbLine
 10
-153.5837285710232
 20
-301.9314891796332
 30
0.0
 11
-153.5837285710232
 21
-300.6227136694287
 31
0.0
  0
LINE
  5
2D4
102
{ACAD_REACTORS
330
3A0
330
3A1
102
}
330
71
100
AcDbEntity
  8
0
  6
Continuous
 62
     2
100
AcDbLine
 10
-151.1025688196316
 20
-296.2165027850907
 30
0.0
 11
-149.766640993204
 21
-296.2165027850907
 31
0.0
  0
LINE
  5
2D5
102
{ACAD_REACTORS
330
3A0
330
3A1
102
}
330
71
100
AcDbEntity
  8
0
  6
Continuous
 62
     2
100
AcDbLine
 10
-151.1025688196316
 20
-297.8742850980165
 30
0.0
 11
-151.1025688196316
 21
-297.3944007442748
 31
0.0
  0
LINE
  5
2D6
102
{ACAD_REACTORS
330
3A0
330
3A1
102
}
330
71
100
AcDbEntity
  8
0
  6
Continuous
 62
     2
100
AcDbLine
 10
-149.766640993204
 20
-297.8742850980165
 30
0.0
 11
-151.1025688196316
 21
-297.8742850980165
 31
0.0
  0
LINE
  5
2D7
102
{ACAD_REACTORS
330
3A0
330
3A1
102
}
330
71
100
AcDbEntity
  8
0
  6
Continuous
 62
     2
100
AcDbLine
 10
-149.766640993204
 20
-298.5722987034589
 30
0.0
 11
-149.766640993204
 21
-297.8742850980165
 31
0.0
  0
LINE
  5
2D8
102
{ACAD_REACTORS
330
3A0
330
3A1
102
}
330
71
100
AcDbEntity
  8
0
  6
Continuous
 62
     2
100
AcDbLine
 10
-152.9169607169849
 20
-298.5722987034589
 30
0.0
 11
-149.766640993204
 21
-298.5722987034589
 31
0.0
  0
LINE
  5
2D9
102
{ACAD_REACTORS
330
3A0
330
3A1
102
}
330
71
100
AcDbEntity
  8
0
  6
Continuous
 62
     2
100
AcDbLine
 10
-152.9169607169849
 20
-295.5184891796478
 30
0.0
 11
-149.766640993204
 21
-295.5184891796478
 31
0.0
  0
LINE
  5
2DA
102
{ACAD_REACTORS
330
3A0
330
3A1
102
}
330
71
100
AcDbEntity
  8
0
  6
Continuous
 62
     2
100
AcDbLine
 10
-149.766640993204
 20
-296.2165027850907
 30
0.0
 11
-149.766640993204
 21
-295.5184891796478
 31
0.0
  0
LINE
  5
2DB
102
{ACAD_REACTORS
330
3B2
330
3B3
102
}
330
71
100
AcDbEntity
  8
0
  6
Continuous
 62
     2
100
AcDbLine
 10
-155.778316212125
 20
-296.5873225129824
 30
0.0
 11
-155.778316212125
 21
-295.5184891796478
 31
0.0
  0
LINE
  5
2DC
102
{ACAD_REACTORS
330
3B2
330
3B3
102
}
330
71
100
AcDbEntity
  8
0
  6
Continuous
 62
     2
100
AcDbLine
 10
-155.778316212125
 20
-295.5184891796478
 30
0.0
 11
-154.5855235099585
 21
-295.5184891796478
 31
0.0
  0
LINE
  5
2DD
102
{ACAD_REACTORS
330
3B2
330
3B3
102
}
330
71
100
AcDbEntity
  8
0
  6
Continuous
 62
     2
100
AcDbLine
 10
-155.778316212125
 20
-297.4380265946152
 30
0.0
 11
-156.8279737900324
 21
-297.4380265946152
 31
0.0
  0
LINE
  5
2DE
102
{ACAD_REACTORS
330
3B2
330
3B3
102
}
330
71
100
AcDbEntity
  8
0
  6
Continuous
 62
     2
100
AcDbLine
 10
-156.8279737900324
 20
-297.4380265946152
 30
0.0
 11
-156.8279737900324
 21
-298.5722987034589
 31
0.0
  0
LINE
  5
2DF
102
{ACAD_REACTORS
330
3B2
330
3B3
102
}
330
71
100
AcDbEntity
  8
0
  6
Continuous
 62
     2
100
AcDbLine
 10
-158.020766492199
 20
-295.5184891796478
 30
0.0
 11
-158.020766492199
 21
-298.5722987034589
 31
0.0
  0
LINE
  5
2E0
102
{ACAD_REACTORS
330
3A4
330
3A5
102
}
330
71
100
AcDbEntity
  8
0
  6
Continuous
 62
     2
100
AcDbLine
 10
-159.9769465237527
 20
-296.8873226744301
 30
0.0
 11
-159.9769465237527
 21
-296.1815950250878
 31
0.0
  0
LINE
  5
2E1
102
{ACAD_REACTORS
330
3A4
330
3A5
102
}
330
71
100
AcDbEntity
  8
0
  6
Continuous
 62
     2
100
AcDbLine
 10
-161.2174509340067
 20
-298.5722987034589
 30
0.0
 11
-159.9769465237527
 21
-298.5722987034589
 31
0.0
  0
LINE
  5
2E2
102
{ACAD_REACTORS
330
3A4
330
3A5
102
}
330
71
100
AcDbEntity
  8
0
  6
Continuous
 62
     2
100
AcDbLine
 10
-159.9769465237527
 20
-298.5722987034589
 30
0.0
 11
-159.9769465237527
 21
-297.6292204623152
 31
0.0
  0
LINE
  5
2E3
102
{ACAD_REACTORS
330
39E
330
39F
102
}
330
71
100
AcDbEntity
  8
0
  6
Continuous
 62
     2
100
AcDbLine
 10
-165.5223967832182
 20
-301.2189336240763
 30
0.0
 11
-166.9982300442278
 21
-301.2189336240763
 31
0.0
  0
LINE
  5
2E4
102
{ACAD_REACTORS
330
39E
330
39F
102
}
330
71
100
AcDbEntity
  8
0
  6
Continuous
 62
     2
100
AcDbLine
 10
-168.0163693363571
 20
-295.9427337950498
 30
0.0
 11
-168.0163693363571
 21
-301.50724456425
 31
0.0
  0
LINE
  5
2E5
102
{ACAD_REACTORS
330
39E
330
39F
102
}
330
71
100
AcDbEntity
  8
0
  6
Continuous
 62
     2
100
AcDbLine
 10
-167.5921247209743
 20
-295.5184891796659
 30
0.0
 11
-162.1188126302574
 21
-295.5184891796659
 31
0.0
  0
LINE
  5
2E6
102
{ACAD_REACTORS
330
39E
330
39F
102
}
330
71
100
AcDbEntity
  8
0
  6
Continuous
 62
     2
100
AcDbLine
 10
-161.6945680148735
 20
-295.9427337950498
 30
0.0
 11
-161.6945680148735
 21
-301.50724456425
 31
0.0
  0
LINE
  5
2E7
102
{ACAD_REACTORS
330
39E
330
39F
102
}
330
71
100
AcDbEntity
  8
0
  6
Continuous
 62
     2
100
AcDbLine
 10
-162.1188126302574
 20
-301.9314891796332
 30
0.0
 11
-167.5921247209743
 21
-301.9314891796332
 31
0.0
  0
LINE
  5
2E8
102
{ACAD_REACTORS
330
39E
330
39F
102
}
330
71
100
AcDbEntity
  8
0
  6
Continuous
 62
     2
100
AcDbLine
 10
-165.2066798601416
 20
-300.9032167009996
 30
0.0
 11
-165.2066798601416
 21
-299.372445769468
 31
0.0
  0
LINE
  5
2E9
102
{ACAD_REACTORS
330
39E
330
39F
102
}
330
71
100
AcDbEntity
  8
0
  6
Continuous
 62
     2
100
AcDbLine
 10
-165.2066798601416
 20
-297.1507862773431
 30
0.0
 11
-165.2066798601416
 21
-296.5467616582825
 31
0.0
  0
LINE
  5
2EA
102
{ACAD_REACTORS
330
39E
330
39F
102
}
330
71
100
AcDbEntity
  8
0
  6
Continuous
 62
     2
100
AcDbLine
 10
-166.9982300442278
 20
-296.2310447352064
 30
0.0
 11
-165.5223967832182
 21
-296.2310447352064
 31
0.0
  0
LINE
  5
2EB
102
{ACAD_REACTORS
330
39E
330
39F
102
}
330
71
100
AcDbEntity
  8
0
  6
Continuous
 62
     2
100
AcDbLine
 10
-167.3139469673034
 20
-296.5467616582825
 30
0.0
 11
-167.3139469673034
 21
-300.9032167009996
 31
0.0
  0
LINE
  5
2EC
102
{ACAD_REACTORS
330
3A4
330
3A5
102
}
330
71
100
AcDbEntity
  8
0
  6
Continuous
 62
     2
100
AcDbLine
 10
-159.9769465237527
 20
-297.6292204623152
 30
0.0
 11
-159.2181789359723
 21
-297.6292204623152
 31
0.0
  0
LINE
  5
2ED
102
{ACAD_REACTORS
330
3A4
330
3A5
102
}
330
71
100
AcDbEntity
  8
0
  6
Continuous
 62
     2
100
AcDbLine
 10
-161.2174509340067
 20
-295.5184891796478
 30
0.0
 11
-159.2181789359723
 21
-295.5184891796478
 31
0.0
  0
LINE
  5
2EE
102
{ACAD_REACTORS
330
3A4
330
3A5
102
}
330
71
100
AcDbEntity
  8
0
  6
Continuous
 62
     2
100
AcDbLine
 10
-161.2174509340067
 20
-295.5184891796478
 30
0.0
 11
-161.2174509340067
 21
-298.5722987034589
 31
0.0
  0
LINE
  5
2EF
102
{ACAD_REACTORS
330
3A4
330
3A5
102
}
330
71
100
AcDbEntity
  8
0
  6
Continuous
 62
     2
100
AcDbLine
 10
-159.9769465237527
 20
-296.8873226744301
 30
0.0
 11
-159.6596514622107
 21
-296.8873226744301
 31
0.0
  0
LINE
  5
2F0
102
{ACAD_REACTORS
330
3A4
330
3A5
102
}
330
71
100
AcDbEntity
  8
0
  6
Continuous
 62
     2
100
AcDbLine
 10
-159.9769465237527
 20
-296.1815950250878
 30
0.0
 11
-159.6596514622107
 21
-296.1815950250878
 31
0.0
  0
LINE
  5
2F1
102
{ACAD_REACTORS
330
3B2
330
3B3
102
}
330
71
100
AcDbEntity
  8
0
  6
Continuous
 62
     2
100
AcDbLine
 10
-156.8279737900324
 20
-296.5873225129824
 30
0.0
 11
-155.778316212125
 21
-296.5873225129824
 31
0.0
  0
LINE
  5
2F2
102
{ACAD_REACTORS
330
3B2
330
3B3
102
}
330
71
100
AcDbEntity
  8
0
  6
Continuous
 62
     2
100
AcDbLine
 10
-156.8279737900324
 20
-295.5184891796478
 30
0.0
 11
-156.8279737900324
 21
-296.5873225129824
 31
0.0
  0
LINE
  5
2F3
102
{ACAD_REACTORS
330
3B2
330
3B3
102
}
330
71
100
AcDbEntity
  8
0
  6
Continuous
 62
     2
100
AcDbLine
 10
-158.020766492199
 20
-295.5184891796478
 30
0.0
 11
-156.8279737900324
 21
-295.5184891796478
 31
0.0
  0
LINE
  5
2F4
102
{ACAD_REACTORS
330
3B2
330
3B3
102
}
330
71
100
AcDbEntity
  8
0
  6
Continuous
 62
     2
100
AcDbLine
 10
-156.8279737900324
 20
-298.5722987034589
 30
0.0
 11
-158.020766492199
 21
-298.5722987034589
 31
0.0
  0
LINE
  5
2F5
102
{ACAD_REACTORS
330
3B2
330
3B3
102
}
330
71
100
AcDbEntity
  8
0
  6
Continuous
 62
     2
100
AcDbLine
 10
-155.778316212125
 20
-298.5722987034589
 30
0.0
 11
-155.778316212125
 21
-297.4380265946152
 31
0.0
  0
LINE
  5
2F6
102
{ACAD_REACTORS
330
3B2
330
3B3
102
}
330
71
100
AcDbEntity
  8
0
  6
Continuous
 62
     2
100
AcDbLine
 10
-154.5855235099585
 20
-298.5722987034589
 30
0.0
 11
-155.778316212125
 21
-298.5722987034589
 31
0.0
  0
LINE
  5
2F7
102
{ACAD_REACTORS
330
3B2
330
3B3
102
}
330
71
100
AcDbEntity
  8
0
  6
Continuous
 62
     2
100
AcDbLine
 10
-154.5855235099585
 20
-295.5184891796478
 30
0.0
 11
-154.5855235099585
 21
-298.5722987034589
 31
0.0
  0
LINE
  5
2F8
102
{ACAD_REACTORS
330
3A0
330
3A1
102
}
330
71
100
AcDbEntity
  8
0
  6
Continuous
 62
     2
100
AcDbLine
 10
-151.1025688196316
 20
-297.3944007442748
 30
0.0
 11
-149.766640993204
 21
-297.3944007442748
 31
0.0
  0
LINE
  5
2F9
102
{ACAD_REACTORS
330
3A0
330
3A1
102
}
330
71
100
AcDbEntity
  8
0
  6
Continuous
 62
     2
100
AcDbLine
 10
-149.766640993204
 20
-297.3944007442748
 30
0.0
 11
-149.766640993204
 21
-296.6963871388324
 31
0.0
  0
LINE
  5
2FA
102
{ACAD_REACTORS
330
3A0
330
3A1
102
}
330
71
100
AcDbEntity
  8
0
  6
Continuous
 62
     2
100
AcDbLine
 10
-149.766640993204
 20
-296.6963871388324
 30
0.0
 11
-151.1025688196316
 21
-296.6963871388324
 31
0.0
  0
LINE
  5
2FB
102
{ACAD_REACTORS
330
3A0
330
3A1
102
}
330
71
100
AcDbEntity
  8
0
  6
Continuous
 62
     2
100
AcDbLine
 10
-151.1025688196316
 20
-296.6963871388324
 30
0.0
 11
-151.1025688196316
 21
-296.2165027850907
 31
0.0
  0
LINE
  5
2FC
102
{ACAD_REACTORS
330
3B0
330
3B1
102
}
330
71
100
AcDbEntity
  8
0
  6
Continuous
 62
     2
100
AcDbLine
 10
-154.7765212731907
 20
-301.9314891796332
 30
0.0
 11
-153.5837285710232
 21
-301.9314891796332
 31
0.0
  0
LINE
  5
2FD
102
{ACAD_REACTORS
330
3B0
330
3B1
102
}
330
71
100
AcDbEntity
  8
0
  6
Continuous
 62
     2
100
AcDbLine
 10
-152.3432241607702
 20
-301.9314891796332
 30
0.0
 11
-151.1504314586038
 21
-301.9314891796332
 31
0.0
  0
LINE
  5
2FE
102
{ACAD_REACTORS
330
3B0
330
3B1
102
}
330
71
100
AcDbEntity
  8
0
  6
Continuous
 62
     2
100
AcDbLine
 10
-153.5837285710232
 20
-298.8776796558221
 30
0.0
 11
-154.7765212731907
 21
-298.8776796558221
 31
0.0
  0
LINE
  5
2FF
102
{ACAD_REACTORS
330
3B0
330
3B1
102
}
330
71
100
AcDbEntity
  8
0
  6
Continuous
 62
     2
100
AcDbLine
 10
-154.7765212731907
 20
-298.8776796558221
 30
0.0
 11
-154.7765212731907
 21
-301.9314891796332
 31
0.0
  0
LINE
  5
300
102
{ACAD_REACTORS
330
3AE
330
3AF
102
}
330
71
100
AcDbEntity
  8
0
  6
Continuous
 62
     2
100
AcDbLine
 10
-147.0947853403505
 20
-295.5184891796478
 30
0.0
 11
-147.0947853403505
 21
-296.8272646898529
 31
0.0
  0
LINE
  5
301
102
{ACAD_REACTORS
330
3AE
330
3AF
102
}
330
71
100
AcDbEntity
  8
0
  6
Continuous
 62
     2
100
AcDbLine
 10
-148.3352897506046
 20
-295.5184891796478
 30
0.0
 11
-149.528082452771
 21
-295.5184891796478
 31
0.0
  0
LINE
  5
302
102
{ACAD_REACTORS
330
3AE
330
3AF
102
}
330
71
100
AcDbEntity
  8
0
  6
Continuous
 62
     2
100
AcDbLine
 10
-149.528082452771
 20
-295.5184891796478
 30
0.0
 11
-149.528082452771
 21
-298.5722987034589
 31
0.0
  0
LINE
  5
303
102
{ACAD_REACTORS
330
3AE
330
3AF
102
}
330
71
100
AcDbEntity
  8
0
  6
Continuous
 62
     2
100
AcDbLine
 10
-148.3352897506046
 20
-298.5722987034589
 30
0.0
 11
-148.3352897506046
 21
-297.2635231932542
 31
0.0
  0
LINE
  5
304
102
{ACAD_REACTORS
330
3AC
330
3AD
102
}
330
71
100
AcDbEntity
  8
0
  6
Continuous
 62
     2
100
AcDbLine
 10
-149.0034045947026
 20
-301.9314891796332
 30
0.0
 11
-149.0034045947026
 21
-299.6629449619458
 31
0.0
  0
LINE
  5
305
102
{ACAD_REACTORS
330
3AC
330
3AD
102
}
330
71
100
AcDbEntity
  8
0
  6
Continuous
 62
     2
100
AcDbLine
 10
-149.0034045947026
 20
-299.6629449619458
 30
0.0
 11
-148.19230555723
 21
-299.6629449619458
 31
0.0
  0
LINE
  5
306
102
{ACAD_REACTORS
330
3AC
330
3AD
102
}
330
71
100
AcDbEntity
  8
0
  6
Continuous
 62
     2
100
AcDbLine
 10
-148.19230555723
 20
-299.6629449619458
 30
0.0
 11
-148.19230555723
 21
-298.8776796558221
 31
0.0
  0
LINE
  5
307
102
{ACAD_REACTORS
330
3AC
330
3AD
102
}
330
71
100
AcDbEntity
  8
0
  6
Continuous
 62
     2
100
AcDbLine
 10
-148.19230555723
 20
-298.8776796558221
 30
0.0
 11
-151.0072963343437
 21
-298.8776796558221
 31
0.0
  0
LINE
  5
308
102
{ACAD_REACTORS
330
3AC
330
3AD
102
}
330
71
100
AcDbEntity
  8
0
  6
Continuous
 62
     2
100
AcDbLine
 10
-151.0072963343437
 20
-299.6629449619458
 30
0.0
 11
-150.196197296869
 21
-299.6629449619458
 31
0.0
  0
LINE
  5
309
102
{ACAD_REACTORS
330
3AA
330
3AB
102
}
330
71
100
AcDbEntity
  8
0
  6
Continuous
 62
     2
100
AcDbLine
 10
-147.3977997314327
 20
-301.3905286354154
 30
0.0
 11
-146.2653581547588
 21
-301.3905286354154
 31
0.0
  0
LINE
  5
30A
102
{ACAD_REACTORS
330
3AA
330
3AB
102
}
330
71
100
AcDbEntity
  8
0
  6
Continuous
 62
     2
100
AcDbLine
 10
-144.8133736910291
 20
-301.9314891796332
 30
0.0
 11
-146.053878101283
 21
-301.9314891796332
 31
0.0
  0
LINE
  5
30B
102
{ACAD_REACTORS
330
3AA
330
3AB
102
}
330
71
100
AcDbEntity
  8
0
  6
Continuous
 62
     2
100
AcDbLine
 10
-147.4518311482222
 20
-298.8776796558221
 30
0.0
 11
-148.8497841951614
 21
-301.9314891796332
 31
0.0
  0
LINE
  5
30C
102
{ACAD_REACTORS
330
3AA
330
3AB
102
}
330
71
100
AcDbEntity
  8
0
  6
Continuous
 62
     2
100
AcDbLine
 10
-147.6092797849085
 20
-301.9314891796332
 30
0.0
 11
-147.3977997314327
 21
-301.3905286354154
 31
0.0
  0
LINE
  5
30D
102
{ACAD_REACTORS
330
3AA
330
3AB
102
}
330
71
100
AcDbEntity
  8
0
  6
Continuous
 62
     2
100
AcDbLine
 10
-147.1317441802876
 20
-300.7099653701088
 30
0.0
 11
-146.8315789430953
 21
-299.9421504041221
 31
0.0
  0
LINE
  5
30E
102
{ACAD_REACTORS
330
3A8
330
3A9
102
}
330
71
100
AcDbEntity
  8
0
  6
Continuous
 62
     2
100
AcDbLine
 10
-145.66343409775
 20
-298.5722987034589
 30
0.0
 11
-145.66343409775
 21
-295.5184891796478
 31
0.0
  0
LINE
  5
30F
102
{ACAD_REACTORS
330
3A8
330
3A9
102
}
330
71
100
AcDbEntity
  8
0
  6
Continuous
 62
     2
100
AcDbLine
 10
-144.4229296874971
 20
-295.5184891796478
 30
0.0
 11
-144.4229296874971
 21
-298.5722987034589
 31
0.0
  0
LINE
  5
310
102
{ACAD_REACTORS
330
3A8
330
3A9
102
}
330
71
100
AcDbEntity
  8
0
  6
Continuous
 62
     2
100
AcDbLine
 10
-145.66343409775
 20
-295.5184891796478
 30
0.0
 11
-144.4229296874971
 21
-295.5184891796478
 31
0.0
  0
LINE
  5
311
102
{ACAD_REACTORS
330
3A6
330
3A7
102
}
330
71
100
AcDbEntity
  8
0
  6
Continuous
 62
     2
100
AcDbLine
 10
-142.2043352614663
 20
-297.7845669181652
 30
0.0
 11
-141.5077443234009
 21
-298.5722987034589
 31
0.0
  0
LINE
  5
312
102
{ACAD_REACTORS
330
3A6
330
3A7
102
}
330
71
100
AcDbEntity
  8
0
  6
Continuous
 62
     2
100
AcDbLine
 10
-141.5077443234009
 20
-298.5722987034589
 30
0.0
 11
-140.1050201056526
 21
-298.5722987034589
 31
0.0
  0
LINE
  5
313
102
{ACAD_REACTORS
330
3A6
330
3A7
102
}
330
71
100
AcDbEntity
  8
0
  6
Continuous
 62
     2
100
AcDbLine
 10
-141.5029731525929
 20
-296.991439709684
 30
0.0
 11
-140.1050201056526
 21
-298.5722987034589
 31
0.0
  0
LINE
  5
314
102
{ACAD_REACTORS
330
3A6
330
3A7
102
}
330
71
100
AcDbEntity
  8
0
  6
Continuous
 62
     2
100
AcDbLine
 10
-141.5029731525929
 20
-296.991439709684
 30
0.0
 11
-140.2004435218263
 21
-295.5184891796478
 31
0.0
  0
LINE
  5
315
102
{ACAD_REACTORS
330
3A6
330
3A7
102
}
330
71
100
AcDbEntity
  8
0
  6
Continuous
 62
     2
100
AcDbLine
 10
-142.2043352614663
 20
-296.1983125012033
 30
0.0
 11
-141.6031677395735
 21
-295.5184891796478
 31
0.0
  0
LINE
  5
316
102
{ACAD_REACTORS
330
3A6
330
3A7
102
}
330
71
100
AcDbEntity
  8
0
  6
Continuous
 62
     2
100
AcDbLine
 10
-142.8055027833582
 20
-295.5184891796478
 30
0.0
 11
-142.2043352614663
 21
-296.1983125012033
 31
0.0
  0
LINE
  5
317
102
{ACAD_REACTORS
330
3A6
330
3A7
102
}
330
71
100
AcDbEntity
  8
0
  6
Continuous
 62
     2
100
AcDbLine
 10
-142.8055027833582
 20
-295.5184891796478
 30
0.0
 11
-144.2082270011074
 21
-295.5184891796478
 31
0.0
  0
LINE
  5
318
102
{ACAD_REACTORS
330
39C
330
39D
102
}
330
71
100
AcDbEntity
  8
0
  6
Continuous
 62
     2
100
AcDbLine
 10
-142.1089118452937
 20
-301.9314891796332
 30
0.0
 11
-140.916119143126
 21
-301.9314891796332
 31
0.0
  0
LINE
  5
319
102
{ACAD_REACTORS
330
39C
330
39D
102
}
330
71
100
AcDbEntity
  8
0
  6
Continuous
 62
     2
100
AcDbLine
 10
-140.916119143126
 20
-301.9314891796332
 30
0.0
 11
-140.916119143126
 21
-299.6629449619458
 31
0.0
  0
LINE
  5
31A
102
{ACAD_REACTORS
330
39C
330
39D
102
}
330
71
100
AcDbEntity
  8
0
  6
Continuous
 62
     2
100
AcDbLine
 10
-140.916119143126
 20
-299.6629449619458
 30
0.0
 11
-140.1050201056526
 21
-299.6629449619458
 31
0.0
  0
LINE
  5
31B
102
{ACAD_REACTORS
330
39C
330
39D
102
}
330
71
100
AcDbEntity
  8
0
  6
Continuous
 62
     2
100
AcDbLine
 10
-140.1050201056526
 20
-299.6629449619458
 30
0.0
 11
-140.1050201056526
 21
-298.8776796558221
 31
0.0
  0
LINE
  5
31C
102
{ACAD_REACTORS
330
39C
330
39D
102
}
330
71
100
AcDbEntity
  8
0
  6
Continuous
 62
     2
100
AcDbLine
 10
-143.4899656242812
 20
-298.8776796558227
 30
0.0
 11
-140.1050201056526
 21
-298.8776796558221
 31
0.0
  0
LINE
  5
31D
102
{ACAD_REACTORS
330
39C
330
39D
102
}
330
71
100
AcDbEntity
  8
0
  6
Continuous
 62
     2
100
AcDbLine
 10
-142.1089118452937
 20
-299.6629449619458
 30
0.0
 11
-142.1089118452937
 21
-301.9314891796332
 31
0.0
  0
LINE
  5
31E
102
{ACAD_REACTORS
330
39E
330
39F
102
}
330
71
100
AcDbEntity
  8
0
  6
Continuous
 62
     2
100
AcDbLine
 10
-164.7383982807728
 20
-299.9526090300687
 30
0.0
 11
-164.7383982807728
 21
-299.3707576233736
 31
0.0
  0
LINE
  5
31F
102
{ACAD_REACTORS
330
39E
330
39F
102
}
330
71
100
AcDbEntity
  8
0
  6
Continuous
 62
     2
100
AcDbLine
 10
-164.7383982807728
 20
-297.1524744234375
 30
0.0
 11
-164.7383982807728
 21
-296.5469391349307
 31
0.0
  0
LINE
  5
320
330
71
100
AcDbEntity
  8
1
  6
Continuous
 62
     6
100
AcDbLine
 10
-86.20821969616969
 20
-309.2249891796495
 30
0.0
 11
-42.70821969616975
 21
-309.2249891796495
 31
0.0
  0
LINE
  5
321
330
71
100
AcDbEntity
  8
1
  6
Continuous
 62
     6
100
AcDbLine
 10
-136.2082196961697
 20
-309.2249891796495
 30
0.0
 11
-154.0530242229197
 21
-309.2249891796495
 31
0.0
  0
LINE
  5
322
330
71
100
AcDbEntity
  8
1
  6
Continuous
 62
     6
100
AcDbLine
 10
-172.2530242229196
 20
-292.2249891796496
 30
0.0
 11
-135.8530242229197
 21
-292.2249891796496
 31
0.0
  0
LINE
  5
323
330
71
100
AcDbEntity
  8
1
  6
Continuous
 62
     6
100
AcDbLine
 10
-42.70821969616975
 20
-309.2249891796495
 30
0.0
 11
-42.7082196961684
 21
-300.7249891796496
 31
0.0
  0
LINE
  5
324
330
71
100
AcDbEntity
  8
1
  6
Continuous
 62
     6
100
AcDbLine
 10
-135.8530242229197
 20
-309.2249891796496
 30
0.0
 11
-86.20821969616969
 21
-309.2249891796495
 31
0.0
  0
LINE
  5
325
330
71
100
AcDbEntity
  8
1
  6
Continuous
 62
     7
100
AcDbLine
 10
-172.2530242229196
 20
-292.2249891796496
 30
0.0
 11
-172.2530242229196
 21
-304.9749891796496
 31
0.0
  0
LINE
  5
326
330
71
100
AcDbEntity
  8
1
  6
Continuous
 62
     7
100
AcDbLine
 10
-135.8530242229197
 20
-292.2249891796496
 30
0.0
 11
-135.8530242229197
 21
-304.9749891796495
 31
0.0
  0
LINE
  5
327
330
71
100
AcDbEntity
  8
1
  6
Continuous
 62
     6
100
AcDbLine
 10
-135.8530242229197
 20
-309.2249891796496
 30
0.0
 11
-136.2082196961697
 21
-309.2249891796495
 31
0.0
  0
LINE
  5
328
330
71
100
AcDbEntity
  8
1
  6
Continuous
 62
     6
100
AcDbLine
 10
-42.7082196961679
 20
-292.2249891796496
 30
0.0
 11
-42.7082196961684
 21
-300.7249891796496
 31
0.0
  0
LINE
  5
329
330
71
100
AcDbEntity
  8
1
  6
Continuous
 62
     2
100
AcDbLine
 10
-168.0163693363571
 20
-286.8499891796497
 30
0.0
 11
-163.0163693363571
 21
-285.5999891796497
 31
0.0
  0
LINE
  5
32A
330
71
100
AcDbEntity
  8
1
  6
Continuous
 62
     2
100
AcDbLine
 10
-168.0163693363571
 20
-289.3499891796497
 30
0.0
 11
-168.0163693363571
 21
-286.8499891796497
 31
0.0
  0
LINE
  5
32B
330
71
100
AcDbEntity
  8
1
  6
Continuous
 62
     2
100
AcDbLine
 10
-163.0163693363571
 20
-290.5999891796497
 30
0.0
 11
-168.0163693363571
 21
-289.3499891796497
 31
0.0
  0
LINE
  5
32C
330
71
100
AcDbEntity
  8
1
  6
Continuous
 62
     2
100
AcDbLine
 10
-163.0163693363571
 20
-285.5999891796497
 30
0.0
 11
-163.0163693363571
 21
-290.5999891796497
 31
0.0
  0
LINE
  5
32D
330
71
100
AcDbEntity
  8
1
  6
Continuous
 62
     7
100
AcDbLine
 10
-172.2530242229196
 20
-304.9749891796496
 30
0.0
 11
-154.0530242229197
 21
-304.9749891796495
 31
0.0
  0
LINE
  5
32E
330
71
100
AcDbEntity
  8
1
  6
Continuous
 62
     7
100
AcDbLine
 10
-172.2530242229196
 20
-304.9749891796496
 30
0.0
 11
-172.2530242229196
 21
-309.2249891796496
 31
0.0
  0
LINE
  5
32F
330
71
100
AcDbEntity
  8
1
  6
Continuous
 62
     7
100
AcDbLine
 10
-135.8530242229197
 20
-304.9749891796495
 30
0.0
 11
-135.8530242229197
 21
-309.2249891796496
 31
0.0
  0
LINE
  5
330
330
71
100
AcDbEntity
  8
1
  6
Continuous
 62
     7
100
AcDbLine
 10
-154.0530242229197
 20
-304.9749891796495
 30
0.0
 11
-154.0530242229197
 21
-309.2249891796495
 31
0.0
  0
LINE
  5
331
330
71
100
AcDbEntity
  8
1
  6
Continuous
 62
     6
100
AcDbLine
 10
-154.0530242229197
 20
-309.2249891796495
 30
0.0
 11
-172.2530242229196
 21
-309.2249891796496
 31
0.0
  0
LINE
  5
332
330
71
100
AcDbEntity
  8
1
  6
Continuous
 62
     7
100
AcDbLine
 10
-154.0530242229197
 20
-304.9749891796495
 30
0.0
 11
-135.8530242229197
 21
-304.9749891796495
 31
0.0
  0
LINE
  5
333
330
71
100
AcDbEntity
  8
1
  6
Continuous
 62
     6
100
AcDbLine
 10
-172.2530242229196
 20
-283.7249891796496
 30
0.0
 11
-42.7082196961679
 21
-283.7249891796496
 31
0.0
  0
LINE
  5
334
330
71
100
AcDbEntity
  8
1
  6
PHANTOM
 62
     2
100
AcDbLine
 10
-156.7663693363571
 20
-288.0999891796497
 30
0.0
 11
-162.2663693363571
 21
-288.0999891796497
 31
0.0
  0
LINE
  5
335
330
71
100
AcDbEntity
  8
1
  6
PHANTOM
 62
     2
100
AcDbLine
 10
-159.5163693363571
 20
-285.3499891796496
 30
0.0
 11
-159.5163693363571
 21
-290.8499891796496
 31
0.0
  0
LINE
  5
336
330
71
100
AcDbEntity
  8
1
  6
DOT_CENTER
 62
     2
100
AcDbLine
 10
-168.2663693363571
 20
-288.0999891796497
 30
0.0
 11
-162.7663693363571
 21
-288.0999891796497
 31
0.0
  0
ARC
  5
337
102
{ACAD_REACTORS
330
3A2
330
3A3
102
}
330
71
100
AcDbEntity
  8
0
  6
Continuous
 62
     2
100
AcDbCircle
 10
-156.8613762239596
 20
-300.404584417728
 30
0.0
 40
0.7717997786795351
100
AcDbArc
 50
321.8795802028432
 51
38.1204197971668
  0
ARC
  5
338
102
{ACAD_REACTORS
330
3A2
330
3A3
102
}
330
71
100
AcDbEntity
  8
0
  6
Continuous
 62
     2
100
AcDbCircle
 10
-156.6616361876132
 20
-300.5613155958479
 30
0.0
 40
0.5179085730138424
100
AcDbArc
 50
218.1204197971879
 51
321.8795802027908
  0
ARC
  5
339
102
{ACAD_REACTORS
330
3A2
330
3A3
102
}
330
71
100
AcDbEntity
  8
0
  6
Continuous
 62
     2
100
AcDbCircle
 10
-156.4618961512672
 20
-300.404584417728
 30
0.0
 40
0.771799778679551
100
AcDbArc
 50
141.879580202828
 51
218.120419797162
  0
ARC
  5
33A
102
{ACAD_REACTORS
330
3A2
330
3A3
102
}
330
71
100
AcDbEntity
  8
0
  6
Continuous
 62
     2
100
AcDbCircle
 10
-156.6616361876132
 20
-300.2478532396075
 30
0.0
 40
0.5179085730132806
100
AcDbArc
 50
38.12041979716469
 51
141.8795802028567
  0
ARC
  5
33B
102
{ACAD_REACTORS
330
39A
330
39B
102
}
330
71
100
AcDbEntity
  8
0
  6
Continuous
 62
     2
100
AcDbCircle
 10
-159.7236503231772
 20
-301.8150507831361
 30
0.0
 40
2.227384008973465
100
AcDbArc
 50
58.06909105003707
 51
71.55192388186676
  0
ARC
  5
33C
102
{ACAD_REACTORS
330
39A
330
39B
102
}
330
71
100
AcDbEntity
  8
0
  6
Continuous
 62
     2
100
AcDbCircle
 10
-159.4619226222184
 20
-300.1995129883889
 30
0.0
 40
0.5115800601948293
100
AcDbArc
 50
113.3722778881945
 51
151.4785267423156
  0
ARC
  5
33D
102
{ACAD_REACTORS
330
39A
330
39B
102
}
330
71
100
AcDbEntity
  8
0
  6
Continuous
 62
     2
100
AcDbCircle
 10
-159.084565364138
 20
-300.404584417728
 30
0.0
 40
0.9410597353333294
100
AcDbArc
 50
151.4785267422693
 51
208.5214732576972
  0
ARC
  5
33E
102
{ACAD_REACTORS
330
39A
330
39B
102
}
330
71
100
AcDbEntity
  8
0
  6
Continuous
 62
     2
100
AcDbCircle
 10
-159.88152319827
 20
-297.0919034724715
 30
0.0
 40
4.852596863498272
100
AcDbArc
 50
275.1581447696238
 51
285.9799912583526
  0
ARC
  5
33F
102
{ACAD_REACTORS
330
39A
330
39B
102
}
330
71
100
AcDbEntity
  8
0
  6
Continuous
 62
     2
100
AcDbCircle
 10
-159.5926671035341
 20
-300.2917940556931
 30
0.0
 40
1.639695123939437
100
AcDbArc
 50
195.0618917770922
 51
275.1581447696363
  0
ARC
  5
340
102
{ACAD_REACTORS
330
39A
330
39B
102
}
330
71
100
AcDbEntity
  8
0
  6
Continuous
 62
     2
100
AcDbCircle
 10
-160.0117949469969
 20
-300.404584417728
 30
0.0
 40
1.205656168390971
100
AcDbArc
 50
164.9381082228768
 51
195.0618917770945
  0
ARC
  5
341
102
{ACAD_REACTORS
330
39A
330
39B
102
}
330
71
100
AcDbEntity
  8
0
  6
Continuous
 62
     2
100
AcDbCircle
 10
-159.5926671035341
 20
-300.5173747797628
 30
0.0
 40
1.639695123940499
100
AcDbArc
 50
84.84185523036533
 51
164.9381082228905
  0
ARC
  5
342
102
{ACAD_REACTORS
330
39E
330
39F
102
}
330
71
100
AcDbEntity
  8
0
  6
Continuous
 62
     2
100
AcDbCircle
 10
-164.422681357696
 20
-299.3707576233736
 30
0.0
 40
0.3157169230765328
100
AcDbArc
 50
115.3740086783519
 51
180.0
  0
ARC
  5
343
102
{ACAD_REACTORS
330
39E
330
39F
102
}
330
71
100
AcDbEntity
  8
0
  6
Continuous
 62
     2
100
AcDbCircle
 10
-164.422681357696
 20
-297.1524744234375
 30
0.0
 40
0.315716923076792
100
AcDbArc
 50
180.0
 51
244.6259913216349
  0
ARC
  5
344
102
{ACAD_REACTORS
330
39E
330
39F
102
}
330
71
100
AcDbEntity
  8
0
  6
Continuous
 62
     2
100
AcDbCircle
 10
-164.417065222386
 20
-298.2497740824997
 30
0.0
 40
2.018561131933266
100
AcDbArc
 50
269.8110329575827
 51
90.18896704241737
  0
ARC
  5
345
102
{ACAD_REACTORS
330
39E
330
39F
102
}
330
71
100
AcDbEntity
  8
0
  6
Continuous
 62
     2
100
AcDbCircle
 10
-164.422681357696
 20
-299.9526090300687
 30
0.0
 40
0.315716923076792
100
AcDbArc
 50
180.0
 51
269.8110329574335
  0
ARC
  5
346
102
{ACAD_REACTORS
330
39C
330
39D
102
}
330
71
100
AcDbEntity
  8
0
  6
Continuous
 62
     2
100
AcDbCircle
 10
-143.3592211429655
 20
-300.1995129883889
 30
0.0
 40
0.5115800601944048
100
AcDbArc
 50
109.3371432194823
 51
151.4785267424182
  0
ARC
  5
347
102
{ACAD_REACTORS
330
39C
330
39D
102
}
330
71
100
AcDbEntity
  8
0
  6
Continuous
 62
     2
100
AcDbCircle
 10
-143.3592211429655
 20
-300.6096558470665
 30
0.0
 40
0.5115800601959967
100
AcDbArc
 50
208.5214732576881
 51
246.6277221118399
  0
ARC
  5
348
102
{ACAD_REACTORS
330
39C
330
39D
102
}
330
71
100
AcDbEntity
  8
0
  6
Continuous
 62
     2
100
AcDbCircle
 10
-143.9090934677429
 20
-300.404584417728
 30
0.0
 40
1.205656168392975
100
AcDbArc
 50
164.9381082229024
 51
195.0618917770924
  0
ARC
  5
349
102
{ACAD_REACTORS
330
39C
330
39D
102
}
330
71
100
AcDbEntity
  8
0
  6
Continuous
 62
     2
100
AcDbCircle
 10
-143.4899656242812
 20
-300.5173747797628
 30
0.0
 40
1.639695123940101
100
AcDbArc
 50
90.0
 51
164.9381082228993
  0
ARC
  5
34A
102
{ACAD_REACTORS
330
3A0
330
3A1
102
}
330
71
100
AcDbEntity
  8
0
  6
Continuous
 62
     2
100
AcDbCircle
 10
-152.9169607169849
 20
-297.0453939415536
 30
0.0
 40
1.526904761905769
100
AcDbArc
 50
90.0
 51
270.0
  0
ARC
  5
34B
102
{ACAD_REACTORS
330
3A4
330
3A5
102
}
330
71
100
AcDbEntity
  8
0
  6
Continuous
 62
     2
100
AcDbCircle
 10
-159.6596514622107
 20
-296.534458849759
 30
0.0
 40
0.3528638246710898
100
AcDbArc
 50
270.0
 51
90.0
  0
ARC
  5
34C
102
{ACAD_REACTORS
330
39E
330
39F
102
}
330
71
100
AcDbEntity
  8
0
  6
Continuous
 62
     2
100
AcDbCircle
 10
-166.9982300442278
 20
-296.5467616582825
 30
0.0
 40
0.3157169230760815
100
AcDbArc
 50
90.0
 51
180.0
  0
ARC
  5
34D
102
{ACAD_REACTORS
330
39E
330
39F
102
}
330
71
100
AcDbEntity
  8
0
  6
Continuous
 62
     2
100
AcDbCircle
 10
-164.9998123356432
 20
-298.2616160234053
 30
0.0
 40
0.9118975235576433
100
AcDbArc
 50
115.1944106485195
 51
244.8055893514911
  0
ARC
  5
34E
102
{ACAD_REACTORS
330
39E
330
39F
102
}
330
71
100
AcDbEntity
  8
0
  6
Continuous
 62
     2
100
AcDbCircle
 10
-165.5223967832182
 20
-299.372445769468
 30
0.0
 40
0.315716923076593
100
AcDbArc
 50
0.0
 51
64.805589351446
  0
ARC
  5
34F
102
{ACAD_REACTORS
330
39E
330
39F
102
}
330
71
100
AcDbEntity
  8
0
  6
Continuous
 62
     2
100
AcDbCircle
 10
-167.5921247209743
 20
-301.50724456425
 30
0.0
 40
0.4242446153827757
100
AcDbArc
 50
180.0
 51
270.0
  0
ARC
  5
350
102
{ACAD_REACTORS
330
3A0
330
3A1
102
}
330
71
100
AcDbEntity
  8
0
  6
Continuous
 62
     2
100
AcDbCircle
 10
-152.7006887068197
 20
-296.8886627634331
 30
0.0
 40
0.5179085730133669
100
AcDbArc
 50
38.12041979714121
 51
141.8795802028666
  0
ARC
  5
351
102
{ACAD_REACTORS
330
3A0
330
3A1
102
}
330
71
100
AcDbEntity
  8
0
  6
Continuous
 62
     2
100
AcDbCircle
 10
-152.5009486704735
 20
-297.0453939415536
 30
0.0
 40
0.7717997786796245
100
AcDbArc
 50
141.8795802028484
 51
218.1204197971549
  0
ARC
  5
352
102
{ACAD_REACTORS
330
3A2
330
3A3
102
}
330
71
100
AcDbEntity
  8
0
  6
Continuous
 62
     2
100
AcDbCircle
 10
-156.6616361876132
 20
-299.8660094074246
 30
0.0
 40
2.065479772208637
100
AcDbArc
 50
242.4518518243384
 51
297.548148175686
  0
ARC
  5
353
102
{ACAD_REACTORS
330
3A2
330
3A3
102
}
330
71
100
AcDbEntity
  8
0
  6
Continuous
 62
     2
100
AcDbCircle
 10
-156.6616361876132
 20
-300.9431594280308
 30
0.0
 40
2.065479772208694
100
AcDbArc
 50
62.45185182430819
 51
117.5481481756674
  0
ARC
  5
354
102
{ACAD_REACTORS
330
3A2
330
3A3
102
}
330
71
100
AcDbEntity
  8
0
  6
Continuous
 62
     2
100
AcDbCircle
 10
-156.9425760794466
 20
-300.404584417728
 30
0.0
 40
1.458034083651616
100
AcDbArc
 50
117.5481481756598
 51
242.451851824337
  0
ARC
  5
355
102
{ACAD_REACTORS
330
3A2
330
3A3
102
}
330
71
100
AcDbEntity
  8
0
  6
Continuous
 62
     2
100
AcDbCircle
 10
-156.38069629578
 20
-300.404584417728
 30
0.0
 40
1.45803408365203
100
AcDbArc
 50
297.5481481757055
 51
62.45185182429758
  0
ARC
  5
356
102
{ACAD_REACTORS
330
3A0
330
3A1
102
}
330
71
100
AcDbEntity
  8
0
  6
Continuous
 62
     2
100
AcDbCircle
 10
-152.7006887068197
 20
-297.2021251196741
 30
0.0
 40
0.5179085730134564
100
AcDbArc
 50
218.1204197971334
 51
321.8795802028588
  0
ARC
  5
357
102
{ACAD_REACTORS
330
3A0
330
3A1
102
}
330
71
100
AcDbEntity
  8
0
  6
Continuous
 62
     2
100
AcDbCircle
 10
-152.9004287431659
 20
-297.0453939415536
 30
0.0
 40
0.7717997786795479
100
AcDbArc
 50
321.8795802028385
 51
38.12041979715814
  0
ARC
  5
358
102
{ACAD_REACTORS
330
39E
330
39F
102
}
330
71
100
AcDbEntity
  8
0
  6
Continuous
 62
     2
100
AcDbCircle
 10
-162.1188126302574
 20
-301.50724456425
 30
0.0
 40
0.424244615383202
100
AcDbArc
 50
270.0
 51
0.0
  0
ARC
  5
359
102
{ACAD_REACTORS
330
39E
330
39F
102
}
330
71
100
AcDbEntity
  8
0
  6
Continuous
 62
     2
100
AcDbCircle
 10
-162.1188126302574
 20
-295.9427337950498
 30
0.0
 40
0.4242446153838841
100
AcDbArc
 50
0.0
 51
90.0
  0
ARC
  5
35A
102
{ACAD_REACTORS
330
39E
330
39F
102
}
330
71
100
AcDbEntity
  8
0
  6
Continuous
 62
     2
100
AcDbCircle
 10
-167.5921247209743
 20
-295.9427337950498
 30
0.0
 40
0.4242446153838841
100
AcDbArc
 50
90.0
 51
180.0
  0
ARC
  5
35B
102
{ACAD_REACTORS
330
39E
330
39F
102
}
330
71
100
AcDbEntity
  8
0
  6
Continuous
 62
     2
100
AcDbCircle
 10
-165.5223967832182
 20
-300.9032167009996
 30
0.0
 40
0.3157169230767067
100
AcDbArc
 50
270.0
 51
0.0
  0
ARC
  5
35C
102
{ACAD_REACTORS
330
39E
330
39F
102
}
330
71
100
AcDbEntity
  8
0
  6
Continuous
 62
     2
100
AcDbCircle
 10
-165.5223967832182
 20
-297.1507862773431
 30
0.0
 40
0.3157169230760658
100
AcDbArc
 50
295.1944106485672
 51
0.0
  0
ARC
  5
35D
102
{ACAD_REACTORS
330
39E
330
39F
102
}
330
71
100
AcDbEntity
  8
0
  6
Continuous
 62
     2
100
AcDbCircle
 10
-165.5223967832182
 20
-296.5467616582825
 30
0.0
 40
0.315716923076593
100
AcDbArc
 50
0.0
 51
90.0
  0
ARC
  5
35E
102
{ACAD_REACTORS
330
39E
330
39F
102
}
330
71
100
AcDbEntity
  8
0
  6
Continuous
 62
     2
100
AcDbCircle
 10
-166.9982300442278
 20
-300.9032167009996
 30
0.0
 40
0.3157169230755983
100
AcDbArc
 50
180.0
 51
270.0
  0
ARC
  5
35F
102
{ACAD_REACTORS
330
3A4
330
3A5
102
}
330
71
100
AcDbEntity
  8
0
  6
Continuous
 62
     2
100
AcDbCircle
 10
-159.2181789359723
 20
-296.5738548209815
 30
0.0
 40
1.055365641333651
100
AcDbArc
 50
270.0
 51
90.0
  0
ARC
  5
360
102
{ACAD_REACTORS
330
39C
330
39D
102
}
330
71
100
AcDbEntity
  8
0
  6
Continuous
 62
     2
100
AcDbCircle
 10
-143.4899656242812
 20
-300.2917940556931
 30
0.0
 40
1.639695123940503
100
AcDbArc
 50
195.0618917771007
 51
275.1581447696772
  0
ARC
  5
361
102
{ACAD_REACTORS
330
39C
330
39D
102
}
330
71
100
AcDbEntity
  8
0
  6
Continuous
 62
     2
100
AcDbCircle
 10
-143.7788217190171
 20
-297.0919034724715
 30
0.0
 40
4.852596863498889
100
AcDbArc
 50
275.1581447696373
 51
285.9799912583383
  0
ARC
  5
362
102
{ACAD_REACTORS
330
39C
330
39D
102
}
330
71
100
AcDbEntity
  8
0
  6
Continuous
 62
     2
100
AcDbCircle
 10
-143.6209488439243
 20
-298.9941180523198
 30
0.0
 40
2.227384008972773
100
AcDbArc
 50
288.4480761181333
 51
301.9309089499394
  0
ARC
  5
363
102
{ACAD_REACTORS
330
39C
330
39D
102
}
330
71
100
AcDbEntity
  8
0
  6
Continuous
 62
     2
100
AcDbCircle
 10
-143.2027811102623
 20
-300.2476638283565
 30
0.0
 40
0.9059297849852208
100
AcDbArc
 50
246.6277221118088
 51
288.4480761180772
  0
ARC
  5
364
102
{ACAD_REACTORS
330
39C
330
39D
102
}
330
71
100
AcDbEntity
  8
0
  6
Continuous
 62
     2
100
AcDbCircle
 10
-142.981863884884
 20
-300.404584417728
 30
0.0
 40
0.9410597353350352
100
AcDbArc
 50
151.4785267423573
 51
208.521473257667
  0
ARC
  5
365
102
{ACAD_REACTORS
330
39C
330
39D
102
}
330
71
100
AcDbEntity
  8
0
  6
Continuous
 62
     2
100
AcDbCircle
 10
-143.2125511448618
 20
-300.6174679687719
 30
0.0
 40
0.9545230068260935
100
AcDbArc
 50
90.0
 51
109.3371432194281
  0
ARC
  5
366
102
{ACAD_REACTORS
330
39E
330
39F
102
}
330
71
100
AcDbEntity
  8
0
  6
Continuous
 62
     2
100
AcDbCircle
 10
-164.422681357696
 20
-296.5469391349307
 30
0.0
 40
0.3157169230761851
100
AcDbArc
 50
90.1889670425665
 51
180.0
  0
ARC
  5
367
102
{ACAD_REACTORS
330
39E
330
39F
102
}
330
71
100
AcDbEntity
  8
0
  6
Continuous
 62
     2
100
AcDbCircle
 10
-164.9487240557839
 20
-298.2616160234053
 30
0.0
 40
0.9118481501443941
100
AcDbArc
 50
295.3740086781804
 51
64.62599132180893
  0
ARC
  5
368
102
{ACAD_REACTORS
330
39A
330
39B
102
}
330
71
100
AcDbEntity
  8
0
  6
Continuous
 62
     2
100
AcDbCircle
 10
-159.7236503231772
 20
-298.9941180523193
 30
0.0
 40
2.227384008972719
100
AcDbArc
 50
288.4480761181337
 51
301.9309089499637
  0
ARC
  5
369
102
{ACAD_REACTORS
330
39A
330
39B
102
}
330
71
100
AcDbEntity
  8
0
  6
Continuous
 62
     2
100
AcDbCircle
 10
-159.3054825895163
 20
-300.2476638283565
 30
0.0
 40
0.9059297849848262
100
AcDbArc
 50
246.6277221118665
 51
288.4480761181539
  0
ARC
  5
36A
102
{ACAD_REACTORS
330
39A
330
39B
102
}
330
71
100
AcDbEntity
  8
0
  6
Continuous
 62
     2
100
AcDbCircle
 10
-159.4619226222184
 20
-300.6096558470665
 30
0.0
 40
0.5115800601947491
100
AcDbArc
 50
208.5214732576844
 51
246.6277221118282
  0
ARC
  5
36B
102
{ACAD_REACTORS
330
39A
330
39B
102
}
330
71
100
AcDbEntity
  8
0
  6
Continuous
 62
     2
100
AcDbCircle
 10
-159.3054825895163
 20
-300.5615050070995
 30
0.0
 40
0.9059297849853498
100
AcDbArc
 50
71.55192388185974
 51
113.3722778881306
  0
ARC
  5
36C
102
{ACAD_REACTORS
330
39A
330
39B
102
}
330
71
100
AcDbEntity
  8
0
  6
Continuous
 62
     2
100
AcDbCircle
 10
-159.88152319827
 20
-303.7172653629838
 30
0.0
 40
4.852596863497986
100
AcDbArc
 50
74.0200087416471
 51
84.84185523037608
  0
CIRCLE
  5
36D
102
{ACAD_REACTORS
330
39E
330
39F
102
}
330
71
100
AcDbEntity
  8
0
  6
Continuous
 62
     2
100
AcDbCircle
 10
-164.9725390704567
 20
-298.2616160234053
 30
0.0
 40
0.470978932778479
  0
CIRCLE
  5
36E
330
71
100
AcDbEntity
  8
1
  6
Continuous
 62
     2
100
AcDbCircle
 10
-159.5163693363571
 20
-288.0999891796497
 30
0.0
 40
1.25
  0
CIRCLE
  5
36F
330
71
100
AcDbEntity
  8
1
  6
Continuous
 62
     2
100
AcDbCircle
 10
-159.5163693363571
 20
-288.0999891796497
 30
0.0
 40
2.5
  0
TEXT
  5
370
330
71
100
AcDbEntity
  8
1
 62
     7
100
AcDbText
 10
-78.04155302950306
 20
-313.224989179649
 30
0.0
 40
2.5
  1
6
 41
0.9
  7
CONVERTER_11
100
AcDbText
  0
TEXT
  5
371
330
71
100
AcDbEntity
  8
1
 62
     7
100
AcDbText
 10
-146.3748863628365
 20
-313.224989179649
 30
0.0
 40
2.5
  1
5
 41
0.9
  7
CONVERTER_11
100
AcDbText
  0
TEXT
  5
372
330
71
100
AcDbEntity
  8
1
 62
     7
100
AcDbText
 10
-214.7082196961697
 20
-313.224989179649
 30
0.0
 40
2.5
  1
4
 41
0.9
  7
CONVERTER_11
100
AcDbText
  0
TEXT
  5
373
330
71
100
AcDbEntity
  8
1
 62
     7
100
AcDbText
 10
-283.0415530295028
 20
-313.224989179649
 30
0.0
 40
2.5
  1
3
 41
0.9
  7
CONVERTER_11
100
AcDbText
  0
TEXT
  5
374
330
71
100
AcDbEntity
  8
1
 62
     7
100
AcDbText
 10
-41.70821969616969
 20
-281.724989179649
 30
0.0
 40
2.5
  1
E
 41
0.9
  7
CONVERTER_11
100
AcDbText
  0
TEXT
  5
375
330
71
100
AcDbEntity
  8
1
 62
     7
100
AcDbText
 10
-419.7082196961694
 20
-313.224989179649
 30
0.0
 40
2.5
  1
1
 41
0.9
  7
CONVERTER_11
100
AcDbText
  0
TEXT
  5
376
330
71
100
AcDbEntity
  8
1
 62
     7
100
AcDbText
 10
-351.3748863628363
 20
-313.224989179649
 30
0.0
 40
2.5
  1
2
 41
0.9
  7
CONVERTER_11
100
AcDbText
  0
TEXT
  5
377
330
71
100
AcDbEntity
  8
1
 62
     7
100
AcDbText
 10
-41.70821969616969
 20
-224.3249891796489
 30
0.0
 40
2.5
  1
D
 41
0.9
  7
CONVERTER_11
100
AcDbText
  0
TEXT
  5
378
330
71
100
AcDbEntity
  8
1
 62
     7
100
AcDbText
 10
-41.70821969616969
 20
-166.9249891796488
 30
0.0
 40
2.5
  1
C
 41
0.9
  7
CONVERTER_11
100
AcDbText
  0
TEXT
  5
379
330
71
100
AcDbEntity
  8
1
 62
     7
100
AcDbText
 10
-41.70821969616969
 20
-109.524989179649
 30
0.0
 40
2.5
  1
B
 41
0.9
  7
CONVERTER_11
100
AcDbText
  0
TEXT
  5
37A
330
71
100
AcDbEntity
  8
1
 62
     7
100
AcDbText
 10
-41.70821969616969
 20
-52.12498917964911
 30
0.0
 40
2.5
  1
A
 41
0.9
  7
CONVERTER_11
100
AcDbText
  0
TEXT
  5
37B
330
71
100
AcDbEntity
  8
1
 62
     7
100
AcDbText
 10
-78.04155302950306
 20
-21.22498917964879
 30
0.0
 40
2.5
  1
6
 41
0.9
  7
CONVERTER_11
100
AcDbText
  0
TEXT
  5
37C
330
71
100
AcDbEntity
  8
1
 62
     7
100
AcDbText
 10
-146.3748863628363
 20
-21.22498917964879
 30
0.0
 40
2.5
  1
5
 41
0.9
  7
CONVERTER_11
100
AcDbText
  0
TEXT
  5
37D
330
71
100
AcDbEntity
  8
1
 62
     7
100
AcDbText
 10
-214.7082196961697
 20
-21.22498917964879
 30
0.0
 40
2.5
  1
4
 41
0.9
  7
CONVERTER_11
100
AcDbText
  0
TEXT
  5
37E
330
71
100
AcDbEntity
  8
1
 62
     7
100
AcDbText
 10
-283.0415530295028
 20
-21.22498917964879
 30
0.0
 40
2.5
  1
3
 41
0.9
  7
CONVERTER_11
100
AcDbText
  0
TEXT
  5
37F
330
71
100
AcDbEntity
  8
1
 62
     7
100
AcDbText
 10
-351.3748863628363
 20
-21.22498917964879
 30
0.0
 40
2.5
  1
2
 41
0.9
  7
CONVERTER_11
100
AcDbText
  0
TEXT
  5
380
330
71
100
AcDbEntity
  8
1
 62
     7
100
AcDbText
 10
-419.7082196961694
 20
-21.22498917964879
 30
0.0
 40
2.5
  1
1
 41
0.9
  7
CONVERTER_11
100
AcDbText
  0
TEXT
  5
381
330
71
100
AcDbEntity
  8
1
 62
     7
100
AcDbText
 10
-116.8794765009059
 20
-290.9249891796496
 30
0.0
 40
2.5
  1
/
 41
0.9
  7
CONVERTER_11
100
AcDbText
  0
TEXT
  5
383
330
71
100
AcDbEntity
  8
1
 62
     7
100
AcDbText
 10
-114.7231120038639
 20
-290.9249891796496
 30
0.0
 40
2.5
  1
00
 41
0.81
  7
CONVERTER_12
100
AcDbText
  0
TEXT
  5
384
330
71
100
AcDbEntity
  8
1
 62
     3
100
AcDbText
 10
-77.12662797784672
 20
-290.9249891796496
 30
0.0
 40
2.5
  1
27.01.2018
 41
0.81
  7
CONVERTER_12
100
AcDbText
  0
MTEXT
  5
385
330
71
100
AcDbEntity
  8
1
 62
     2
100
AcDbMText
 10
-77.12662797784672
 20
-284.7249891796496
 30
0.0
 40
1.8
 41
0.0
 71
     1
 72
     1
  1
date
  7
CONVERTER_11
 73
     1
 44
1.32052821128451
  0
MTEXT
  5
386
330
71
100
AcDbEntity
  8
1
 62
     2
100
AcDbMText
 10
-106.9530242229197
 20
-293.2249891796496
 30
0.0
 40
1.8
 41
0.0
 71
     1
 72
     1
  1
document-type
  7
CONVERTER_11
 73
     1
 44
1.20048019207683
  0
TEXT
  5
387
330
71
100
AcDbEntity
  8
1
 62
     3
100
AcDbText
 10
-106.9530242229197
 20
-299.4249891796496
 30
0.0
 40
2.5
  1
TECDOC 2D_Productdrawing
 41
0.81
  7
CONVERTER_12
100
AcDbText
  0
MTEXT
  5
389
330
71
100
AcDbEntity
  8
1
 62
     2
100
AcDbMText
 10
-134.7530242229197
 20
-284.7249891796496
 30
0.0
 40
1.8
 41
0.0
 71
     1
 72
     1
  1
document-No. / RI
  7
CONVERTER_13
 73
     1
 44
1.32052821128451
  0
TEXT
  5
38A
330
71
100
AcDbEntity
  8
1
 62
     7
100
AcDbText
 10
-134.7530242229197
 20
-290.9249891796496
 30
0.0
 40
2.5
  1
00485436
 41
0.81
  7
CONVERTER_12
100
AcDbText
  0
MTEXT
  5
38C
330
71
100
AcDbEntity
  8
1
 62
     3
100
AcDbMText
 10
-47.16742383700739
 20
-290.9249891796495
 30
0.0
 40
2.5
 41
0.0
 71
     8
 72
     1
  1
1:1
  7
CONVERTER_14
 73
     1
 44
1.32052821128451
  0
MTEXT
  5
38D
330
71
100
AcDbEntity
  8
1
 62
     2
100
AcDbMText
 10
-50.5266279778469
 20
-284.7249891796496
 30
0.0
 40
1.8
 41
0.0
 71
     1
 72
     1
  1
scale
  7
CONVERTER_11
 73
     1
 44
1.20048019207683
  0
MTEXT
  5
38E
330
71
100
AcDbEntity
  8
1
 62
     2
100
AcDbMText
 10
-134.7530242229197
 20
-293.2249891796496
 30
0.0
 40
1.8
 41
0.0
 71
     1
 72
     1
  1
ident.-No.
  7
CONVERTER_11
 73
     1
 44
1.20048019207683
  0
TEXT
  5
38F
330
71
100
AcDbEntity
  8
1
 62
     7
100
AcDbText
 10
-134.3530242229199
 20
-299.4249891796496
 30
0.0
 40
2.5
  1
0201414
 41
0.81
  7
CONVERTER_12
100
AcDbText
  0
MTEXT
  5
390
330
71
100
AcDbEntity
  8
1
 62
     2
100
AcDbMText
 10
-206.6640474921292
 20
-296.4749891796508
 30
0.0
 40
2.0
 41
0.0
 71
     5
 72
     1
  1
General Information\P- Simplified representation\P- Document excluded from change process\P- Linear dimensions [mm]
  7
CONVERTER_11
 73
     1
 44
1.20048019207683
  0
MTEXT
  5
391
330
71
100
AcDbEntity
  8
1
 62
     3
100
AcDbMText
 10
-146.0530242229197
 20
-288.0999891796496
 30
0.0
 40
2.5
 41
0.0
 71
     5
 72
     1
  1
DIN A3
  7
CONVERTER_11
 73
     1
 44
1.20048019207683
  0
MTEXT
  5
392
330
71
100
AcDbEntity
  8
1
 62
     2
100
AcDbMText
 10
-134.8530242229197
 20
-301.7249891796496
 30
0.0
 40
1.8
 41
0.0
 71
     1
 72
     1
  1
description
  7
CONVERTER_11
 73
     1
 44
1.20048019207683
  0
MTEXT
  5
393
330
71
100
AcDbEntity
  8
1
 62
     7
100
AcDbMText
 10
-89.28062195954419
 20
-305.9749891796494
 30
0.0
 40
3.0
 41
0.0
 71
     5
 72
     1
  1
EB  3-36/UKH
  7
CONVERTER_12
 73
     1
 44
1.20048019207683
  0
TEXT
  5
394
330
71
100
AcDbEntity
  8
1
 62
     2
100
AcDbText
 10
-147.8177154131061
 20
-307.9749891796496
 30
0.0
 40
1.8
  1
1
 41
0.9
  7
CONVERTER_11
100
AcDbText
  0
TEXT
  5
395
330
71
100
AcDbEntity
  8
1
 62
     2
100
AcDbText
 10
-162.6067592525776
 20
-308.0242378334515
 30
0.0
 40
1.8
  1
1
 41
0.9
  7
CONVERTER_11
100
AcDbText
  0
TEXT
  5
396
330
71
100
AcDbEntity
  8
1
 62
     2
100
AcDbText
 10
-171.2530242229196
 20
-307.9840063946413
 30
0.0
 40
1.8
  1
page
 41
0.9
  7
CONVERTER_11
100
AcDbText
  0
TEXT
  5
397
330
71
100
AcDbEntity
  8
1
 62
     2
100
AcDbText
 10
-153.0530242229198
 20
-307.9840063946411
 30
0.0
 40
1.8
  1
of
 41
0.9
  7
CONVERTER_11
100
AcDbText
  0
MTEXT
  5
398
330
71
100
AcDbEntity
  8
1
 62
     3
100
AcDbMText
 10
-439.4397526959104
 20
-136.2387050659953
 30
0.0
 40
1.8
 41
0.0
 71
     7
 72
     1
  3
Transfer or duplication of this document as well as the utilisation or\Pcommunication of its content are not permitted unless express consent\Pis granted. Violations give rise to claims for damages. All rights reserved\Pin case of patent, utility mo
  1
del or design patent registrations.
  7
CONVERTER_11
 11
0.0
 21
1.0
 31
0.0
 73
     1
 44
0.99639855942377
  0
MTEXT
  5
399
330
71
100
AcDbEntity
  8
1
 62
     3
100
AcDbMText
 10
-439.2855463848165
 20
-309.1980750801484
 30
0.0
 40
1.8
 41
0.0
 71
     7
 72
     1
  3
Weitergabe sowie Vervielf\U+00e4ltigung dieses Dokuments, Verwertung und \PMitteilung seines Inhalts sind verboten, soweit nicht ausdr\U+00fccklich gestattet. \PZuwiderhandlungen verpflichten zu Schadenersatz. Alle Rechte f\U+00fcr den Fall\Pder Pat
  1
ent-, Gebrauchsmuster- oder Designeintragung vorbehalten.
  7
CONVERTER_11
 11
0.0
 21
1.0
 31
0.0
 73
     1
 44
0.99639855942377
  0
HATCH
  5
39A
330
71
100
AcDbEntity
  8
1
  6
Continuous
 62
     2
100
AcDbHatch
 10
0.0
 20
0.0
 30
0.0
210
0.0
220
0.0
230
1.0
  2
CUSTOM0
 70
     0
 71
     1
 91
        1
 92
        1
 93
       14
 72
     2
 10
-160.0117949469969
 20
-300.404584417728
 40
1.205656168390971
 50
164.9381082228768
 51
195.0618917770945
 73
     1
 72
     2
 10
-159.5926671035341
 20
-300.2917940556931
 40
1.639695123939437
 50
195.0618917770922
 51
275.1581447696363
 73
     1
 72
     2
 10
-159.88152319827
 20
-297.0919034724715
 40
4.852596863498272
 50
275.1581447696238
 51
285.9799912583526
 73
     1
 72
     1
 10
-158.5455952811522
 20
-301.7569857782724
 11
-158.5455952811522
 21
-300.8844687714691
 72
     2
 10
-159.7236503231772
 20
-298.9941180523193
 40
2.227384008972719
 50
58.06909105003628
 51
71.55192388186632
 73
     0
 72
     2
 10
-159.3054825895163
 20
-300.2476638283565
 40
0.9059297849848262
 50
71.55192388184605
 51
113.3722778881334
 73
     0
 72
     2
 10
-159.4619226222184
 20
-300.6096558470665
 40
0.5115800601947491
 50
113.3722778881718
 51
151.4785267423156
 73
     0
 72
     2
 10
-159.084565364138
 20
-300.404584417728
 40
0.9410597353333294
 50
151.4785267423028
 51
208.5214732577306
 73
     0
 72
     2
 10
-159.4619226222184
 20
-300.1995129883889
 40
0.5115800601948293
 50
208.5214732576844
 51
246.6277221118054
 73
     0
 72
     2
 10
-159.3054825895163
 20
-300.5615050070995
 40
0.9059297849853498
 50
246.6277221118694
 51
288.4480761181403
 73
     0
 72
     2
 10
-159.7236503231772
 20
-301.8150507831361
 40
2.227384008973465
 50
288.4480761181333
 51
301.9309089499629
 73
     0
 72
     1
 10
-158.5455952811522
 20
-299.9247000639863
 11
-158.5455952811522
 21
-299.052183057183
 72
     2
 10
-159.88152319827
 20
-303.7172653629838
 40
4.852596863497986
 50
74.0200087416471
 51
84.84185523037608
 73
     1
 72
     2
 10
-159.5926671035341
 20
-300.5173747797628
 40
1.639695123940499
 50
84.84185523036533
 51
164.9381082228905
 73
     1
 97
       14
330
36C
330
2B5
330
33B
330
36B
330
33C
330
33D
330
36A
330
369
330
368
330
2B6
330
33E
330
33F
330
340
330
341
 75
     1
 76
     2
 52
45.0
 41
0.1
 77
     0
 78
     1
 53
45.0
 43
62.7811309658083
 44
-72.3161373035813
 45
-0.1414213562373095
 46
0.0
 79
     0
 98
        1
 10
0.0
 20
0.0
  0
HATCH
  5
39B
330
71
100
AcDbEntity
  8
1
  6
Continuous
 62
     2
100
AcDbHatch
 10
0.0
 20
0.0
 30
0.0
210
0.0
220
0.0
230
1.0
  2
CUSTOM1
 70
     0
 71
     1
 91
        1
 92
        1
 93
       14
 72
     2
 10
-160.0117949469969
 20
-300.404584417728
 40
1.205656168390971
 50
164.9381082228768
 51
195.0618917770945
 73
     1
 72
     2
 10
-159.5926671035341
 20
-300.2917940556931
 40
1.639695123939437
 50
195.0618917770922
 51
275.1581447696363
 73
     1
 72
     2
 10
-159.88152319827
 20
-297.0919034724715
 40
4.852596863498272
 50
275.1581447696238
 51
285.9799912583526
 73
     1
 72
     1
 10
-158.5455952811522
 20
-301.7569857782724
 11
-158.5455952811522
 21
-300.8844687714691
 72
     2
 10
-159.7236503231772
 20
-298.9941180523193
 40
2.227384008972719
 50
58.06909105003628
 51
71.55192388186632
 73
     0
 72
     2
 10
-159.3054825895163
 20
-300.2476638283565
 40
0.9059297849848262
 50
71.55192388184605
 51
113.3722778881334
 73
     0
 72
     2
 10
-159.4619226222184
 20
-300.6096558470665
 40
0.5115800601947491
 50
113.3722778881718
 51
151.4785267423156
 73
     0
 72
     2
 10
-159.084565364138
 20
-300.404584417728
 40
0.9410597353333294
 50
151.4785267423028
 51
208.5214732577306
 73
     0
 72
     2
 10
-159.4619226222184
 20
-300.1995129883889
 40
0.5115800601948293
 50
208.5214732576844
 51
246.6277221118054
 73
     0
 72
     2
 10
-159.3054825895163
 20
-300.5615050070995
 40
0.9059297849853498
 50
246.6277221118694
 51
288.4480761181403
 73
     0
 72
     2
 10
-159.7236503231772
 20
-301.8150507831361
 40
2.227384008973465
 50
288.4480761181333
 51
301.9309089499629
 73
     0
 72
     1
 10
-158.5455952811522
 20
-299.9247000639863
 11
-158.5455952811522
 21
-299.052183057183
 72
     2
 10
-159.88152319827
 20
-303.7172653629838
 40
4.852596863497986
 50
74.0200087416471
 51
84.84185523037608
 73
     1
 72
     2
 10
-159.5926671035341
 20
-300.5173747797628
 40
1.639695123940499
 50
84.84185523036533
 51
164.9381082228905
 73
     1
 97
       14
330
36C
330
2B5
330
33B
330
36B
330
33C
330
33D
330
36A
330
369
330
368
330
2B6
330
33E
330
33F
330
340
330
341
 75
     1
 76
     2
 52
45.0
 41
0.1
 77
     0
 78
     1
 53
45.0
 43
62.7811309658083
 44
-72.3161373035813
 45
-0.1414213562373095
 46
0.0
 79
     0
 98
        1
 10
0.0
 20
0.0
  0
HATCH
  5
39C
330
71
100
AcDbEntity
  8
1
  6
Continuous
 62
     2
100
AcDbHatch
 10
0.0
 20
0.0
 30
0.0
210
0.0
220
0.0
230
1.0
  2
CUSTOM2
 70
     0
 71
     1
 91
        1
 92
        1
 93
       18
 72
     2
 10
-143.4899656242812
 20
-300.5173747797628
 40
1.639695123940101
 50
90.0
 51
164.9381082228993
 73
     1
 72
     2
 10
-143.9090934677429
 20
-300.404584417728
 40
1.205656168392975
 50
164.9381082229024
 51
195.0618917770924
 73
     1
 72
     2
 10
-143.4899656242812
 20
-300.2917940556931
 40
1.639695123940503
 50
195.0618917771007
 51
275.1581447696772
 73
     1
 72
     2
 10
-143.7788217190171
 20
-297.0919034724715
 40
4.852596863498889
 50
275.1581447696373
 51
285.9799912583383
 73
     1
 72
     1
 10
-142.4428938019004
 20
-301.7569857782729
 11
-142.4428938019004
 21
-300.8844687714696
 72
     2
 10
-143.6209488439243
 20
-298.9941180523198
 40
2.227384008972773
 50
58.06909105006066
 51
71.55192388186677
 73
     0
 72
     2
 10
-143.2027811102623
 20
-300.2476638283565
 40
0.9059297849852208
 50
71.55192388192279
 51
113.3722778881912
 73
     0
 72
     2
 10
-143.3592211429655
 20
-300.6096558470665
 40
0.5115800601959967
 50
113.3722778881601
 51
151.4785267423119
 73
     0
 72
     2
 10
-142.981863884884
 20
-300.404584417728
 40
0.9410597353350352
 50
151.478526742333
 51
208.5214732576427
 73
     0
 72
     2
 10
-143.3592211429655
 20
-300.1995129883889
 40
0.5115800601944048
 50
208.5214732575818
 51
250.6628567805177
 73
     0
 72
     2
 10
-143.2125511448618
 20
-300.6174679687719
 40
0.9545230068260935
 50
250.6628567805719
 51
270.0
 73
     0
 72
     1
 10
-143.2125511448618
 20
-299.6629449619458
 11
-142.1089118452937
 21
-299.6629449619458
 72
     1
 10
-142.1089118452937
 20
-299.6629449619458
 11
-142.1089118452937
 21
-301.9314891796332
 72
     1
 10
-142.1089118452937
 20
-301.9314891796332
 11
-140.916119143126
 21
-301.9314891796332
 72
     1
 10
-140.916119143126
 20
-301.9314891796332
 11
-140.916119143126
 21
-299.6629449619458
 72
     1
 10
-140.916119143126
 20
-299.6629449619458
 11
-140.1050201056526
 21
-299.6629449619458
 72
     1
 10
-140.1050201056526
 20
-299.6629449619458
 11
-140.1050201056526
 21
-298.8776796558221
 72
     1
 10
-140.1050201056526
 20
-298.8776796558221
 11
-143.4899656242812
 21
-298.8776796558227
 97
       18
330
31B
330
31A
330
319
330
318
330
31D
330
2B7
330
365
330
346
330
364
330
347
330
363
330
362
330
2B8
330
361
330
360
330
348
330
349
330
31C
 75
     1
 76
     2
 52
45.0
 41
0.1
 77
     0
 78
     1
 53
45.0
 43
62.7811309658083
 44
-72.3161373035813
 45
-0.1414213562373095
 46
0.0
 79
     0
 98
        1
 10
0.0
 20
0.0
  0
HATCH
  5
39D
330
71
100
AcDbEntity
  8
1
  6
Continuous
 62
     2
100
AcDbHatch
 10
0.0
 20
0.0
 30
0.0
210
0.0
220
0.0
230
1.0
  2
CUSTOM3
 70
     0
 71
     1
 91
        1
 92
        1
 93
       18
 72
     2
 10
-143.4899656242812
 20
-300.5173747797628
 40
1.639695123940101
 50
90.0
 51
164.9381082228993
 73
     1
 72
     2
 10
-143.9090934677429
 20
-300.404584417728
 40
1.205656168392975
 50
164.9381082229024
 51
195.0618917770924
 73
     1
 72
     2
 10
-143.4899656242812
 20
-300.2917940556931
 40
1.639695123940503
 50
195.0618917771007
 51
275.1581447696772
 73
     1
 72
     2
 10
-143.7788217190171
 20
-297.0919034724715
 40
4.852596863498889
 50
275.1581447696373
 51
285.9799912583383
 73
     1
 72
     1
 10
-142.4428938019004
 20
-301.7569857782729
 11
-142.4428938019004
 21
-300.8844687714696
 72
     2
 10
-143.6209488439243
 20
-298.9941180523198
 40
2.227384008972773
 50
58.06909105006066
 51
71.55192388186677
 73
     0
 72
     2
 10
-143.2027811102623
 20
-300.2476638283565
 40
0.9059297849852208
 50
71.55192388192279
 51
113.3722778881912
 73
     0
 72
     2
 10
-143.3592211429655
 20
-300.6096558470665
 40
0.5115800601959967
 50
113.3722778881601
 51
151.4785267423119
 73
     0
 72
     2
 10
-142.981863884884
 20
-300.404584417728
 40
0.9410597353350352
 50
151.478526742333
 51
208.5214732576427
 73
     0
 72
     2
 10
-143.3592211429655
 20
-300.1995129883889
 40
0.5115800601944048
 50
208.5214732575818
 51
250.6628567805177
 73
     0
 72
     2
 10
-143.2125511448618
 20
-300.6174679687719
 40
0.9545230068260935
 50
250.6628567805719
 51
270.0
 73
     0
 72
     1
 10
-143.2125511448618
 20
-299.6629449619458
 11
-142.1089118452937
 21
-299.6629449619458
 72
     1
 10
-142.1089118452937
 20
-299.6629449619458
 11
-142.1089118452937
 21
-301.9314891796332
 72
     1
 10
-142.1089118452937
 20
-301.9314891796332
 11
-140.916119143126
 21
-301.9314891796332
 72
     1
 10
-140.916119143126
 20
-301.9314891796332
 11
-140.916119143126
 21
-299.6629449619458
 72
     1
 10
-140.916119143126
 20
-299.6629449619458
 11
-140.1050201056526
 21
-299.6629449619458
 72
     1
 10
-140.1050201056526
 20
-299.6629449619458
 11
-140.1050201056526
 21
-298.8776796558221
 72
     1
 10
-140.1050201056526
 20
-298.8776796558221
 11
-143.4899656242812
 21
-298.8776796558227
 97
       18
330
31B
330
31A
330
319
330
318
330
31D
330
2B7
330
365
330
346
330
364
330
347
330
363
330
362
330
2B8
330
361
330
360
330
348
330
349
330
31C
 75
     1
 76
     2
 52
45.0
 41
0.1
 77
     0
 78
     1
 53
45.0
 43
62.7811309658083
 44
-72.3161373035813
 45
-0.1414213562373095
 46
0.0
 79
     0
 98
        1
 10
0.0
 20
0.0
  0
HATCH
  5
39E
330
71
100
AcDbEntity
  8
1
  6
Continuous
 62
     2
100
AcDbHatch
 10
0.0
 20
0.0
 30
0.0
210
0.0
220
0.0
230
1.0
  2
CUSTOM4
 70
     0
 71
     1
 91
        4
 92
        1
 93
        8
 72
     2
 10
-167.5921247209743
 20
-295.9427337950498
 40
0.4242446153838841
 50
90.0
 51
180.0
 73
     1
 72
     1
 10
-168.0163693363571
 20
-295.9427337950498
 11
-168.0163693363571
 21
-301.50724456425
 72
     2
 10
-167.5921247209743
 20
-301.50724456425
 40
0.4242446153827757
 50
180.0
 51
270.0
 73
     1
 72
     1
 10
-167.5921247209743
 20
-301.9314891796332
 11
-162.1188126302574
 21
-301.9314891796332
 72
     2
 10
-162.1188126302574
 20
-301.50724456425
 40
0.424244615383202
 50
270.0
 51
360.0
 73
     1
 72
     1
 10
-161.6945680148735
 20
-301.50724456425
 11
-161.6945680148735
 21
-295.9427337950498
 72
     2
 10
-162.1188126302574
 20
-295.9427337950498
 40
0.4242446153838841
 50
0.0
 51
90.0
 73
     1
 72
     1
 10
-162.1188126302574
 20
-295.5184891796659
 11
-167.5921247209743
 21
-295.5184891796659
 97
        8
330
359
330
2E6
330
358
330
2E7
330
34F
330
2E4
330
35A
330
2E5
 92
       16
 93
       12
 72
     1
 10
-166.9982300442278
 20
-301.2189336240763
 11
-165.5223967832182
 21
-301.2189336240763
 72
     2
 10
-165.5223967832182
 20
-300.9032167009996
 40
0.3157169230767067
 50
270.0
 51
360.0
 73
     1
 72
     1
 10
-165.2066798601416
 20
-300.9032167009996
 11
-165.2066798601416
 21
-299.372445769468
 72
     2
 10
-165.5223967832182
 20
-299.372445769468
 40
0.315716923076593
 50
0.0
 51
64.805589351446
 73
     1
 72
     2
 10
-164.9998123356432
 20
-298.2616160234053
 40
0.9118975235576433
 50
115.1944106485089
 51
244.8055893514805
 73
     0
 72
     2
 10
-165.5223967832182
 20
-297.1507862773431
 40
0.3157169230760658
 50
295.1944106485672
 51
360.0
 73
     1
 72
     1
 10
-165.2066798601416
 20
-297.1507862773431
 11
-165.2066798601416
 21
-296.5467616582825
 72
     2
 10
-165.5223967832182
 20
-296.5467616582825
 40
0.315716923076593
 50
0.0
 51
90.0
 73
     1
 72
     1
 10
-165.5223967832182
 20
-296.2310447352064
 11
-166.9982300442278
 21
-296.2310447352064
 72
     2
 10
-166.9982300442278
 20
-296.5467616582825
 40
0.3157169230760815
 50
90.0
 51
180.0
 73
     1
 72
     1
 10
-167.3139469673034
 20
-296.5467616582825
 11
-167.3139469673034
 21
-300.9032167009996
 72
     2
 10
-166.9982300442278
 20
-300.9032167009996
 40
0.3157169230755983
 50
180.0
 51
270.0
 73
     1
 97
       12
330
2EB
330
34C
330
2EA
330
35D
330
2E9
330
35C
330
34D
330
34E
330
2E8
330
35B
330
2E3
330
35E
 92
       16
 93
        8
 72
     2
 10
-164.9487240557839
 20
-298.2616160234053
 40
0.9118481501443941
 50
295.3740086781804
 51
424.6259913218089
 73
     1
 72
     2
 10
-164.422681357696
 20
-297.1524744234375
 40
0.315716923076792
 50
115.3740086783651
 51
180.0
 73
     0
 72
     1
 10
-164.7383982807728
 20
-297.1524744234375
 11
-164.7383982807728
 21
-296.5469391349307
 72
     2
 10
-164.422681357696
 20
-296.5469391349307
 40
0.3157169230761851
 50
180.0
 51
269.8110329574335
 73
     0
 72
     2
 10
-164.417065222386
 20
-298.2497740824997
 40
2.018561131933266
 50
269.8110329575827
 51
450.1889670424174
 73
     0
 72
     2
 10
-164.422681357696
 20
-299.9526090300687
 40
0.315716923076792
 50
90.18896704256652
 51
180.0
 73
     0
 72
     1
 10
-164.7383982807728
 20
-299.9526090300687
 11
-164.7383982807728
 21
-299.3707576233736
 72
     2
 10
-164.422681357696
 20
-299.3707576233736
 40
0.3157169230765328
 50
180.0
 51
244.6259913216482
 73
     0
 97
        8
330
367
330
343
330
31F
330
366
330
344
330
345
330
31E
330
342
 92
       16
 93
        1
 72
     2
 10
-164.9725390704567
 20
-298.2616160234053
 40
0.470978932778479
 50
0.0
 51
360.0
 73
     1
 97
        1
330
36D
 75
     1
 76
     2
 52
45.0
 41
0.1
 77
     0
 78
     1
 53
45.0
 43
62.7811309658083
 44
-72.3161373035813
 45
-0.1414213562373095
 46
0.0
 79
     0
 98
        1
 10
0.0
 20
0.0
  0
HATCH
  5
39F
330
71
100
AcDbEntity
  8
1
  6
Continuous
 62
     2
100
AcDbHatch
 10
0.0
 20
0.0
 30
0.0
210
0.0
220
0.0
230
1.0
  2
CUSTOM5
 70
     0
 71
     1
 91
        4
 92
        1
 93
        8
 72
     2
 10
-167.5921247209743
 20
-295.9427337950498
 40
0.4242446153838841
 50
90.0
 51
180.0
 73
     1
 72
     1
 10
-168.0163693363571
 20
-295.9427337950498
 11
-168.0163693363571
 21
-301.50724456425
 72
     2
 10
-167.5921247209743
 20
-301.50724456425
 40
0.4242446153827757
 50
180.0
 51
270.0
 73
     1
 72
     1
 10
-167.5921247209743
 20
-301.9314891796332
 11
-162.1188126302574
 21
-301.9314891796332
 72
     2
 10
-162.1188126302574
 20
-301.50724456425
 40
0.424244615383202
 50
270.0
 51
360.0
 73
     1
 72
     1
 10
-161.6945680148735
 20
-301.50724456425
 11
-161.6945680148735
 21
-295.9427337950498
 72
     2
 10
-162.1188126302574
 20
-295.9427337950498
 40
0.4242446153838841
 50
0.0
 51
90.0
 73
     1
 72
     1
 10
-162.1188126302574
 20
-295.5184891796659
 11
-167.5921247209743
 21
-295.5184891796659
 97
        8
330
359
330
2E6
330
358
330
2E7
330
34F
330
2E4
330
35A
330
2E5
 92
       16
 93
       12
 72
     1
 10
-166.9982300442278
 20
-301.2189336240763
 11
-165.5223967832182
 21
-301.2189336240763
 72
     2
 10
-165.5223967832182
 20
-300.9032167009996
 40
0.3157169230767067
 50
270.0
 51
360.0
 73
     1
 72
     1
 10
-165.2066798601416
 20
-300.9032167009996
 11
-165.2066798601416
 21
-299.372445769468
 72
     2
 10
-165.5223967832182
 20
-299.372445769468
 40
0.315716923076593
 50
0.0
 51
64.805589351446
 73
     1
 72
     2
 10
-164.9998123356432
 20
-298.2616160234053
 40
0.9118975235576433
 50
115.1944106485089
 51
244.8055893514805
 73
     0
 72
     2
 10
-165.5223967832182
 20
-297.1507862773431
 40
0.3157169230760658
 50
295.1944106485672
 51
360.0
 73
     1
 72
     1
 10
-165.2066798601416
 20
-297.1507862773431
 11
-165.2066798601416
 21
-296.5467616582825
 72
     2
 10
-165.5223967832182
 20
-296.5467616582825
 40
0.315716923076593
 50
0.0
 51
90.0
 73
     1
 72
     1
 10
-165.5223967832182
 20
-296.2310447352064
 11
-166.9982300442278
 21
-296.2310447352064
 72
     2
 10
-166.9982300442278
 20
-296.5467616582825
 40
0.3157169230760815
 50
90.0
 51
180.0
 73
     1
 72
     1
 10
-167.3139469673034
 20
-296.5467616582825
 11
-167.3139469673034
 21
-300.9032167009996
 72
     2
 10
-166.9982300442278
 20
-300.9032167009996
 40
0.3157169230755983
 50
180.0
 51
270.0
 73
     1
 97
       12
330
2EB
330
34C
330
2EA
330
35D
330
2E9
330
35C
330
34D
330
34E
330
2E8
330
35B
330
2E3
330
35E
 92
       16
 93
        8
 72
     2
 10
-164.9487240557839
 20
-298.2616160234053
 40
0.9118481501443941
 50
295.3740086781804
 51
424.6259913218089
 73
     1
 72
     2
 10
-164.422681357696
 20
-297.1524744234375
 40
0.315716923076792
 50
115.3740086783651
 51
180.0
 73
     0
 72
     1
 10
-164.7383982807728
 20
-297.1524744234375
 11
-164.7383982807728
 21
-296.5469391349307
 72
     2
 10
-164.422681357696
 20
-296.5469391349307
 40
0.3157169230761851
 50
180.0
 51
269.8110329574335
 73
     0
 72
     2
 10
-164.417065222386
 20
-298.2497740824997
 40
2.018561131933266
 50
269.8110329575827
 51
450.1889670424174
 73
     0
 72
     2
 10
-164.422681357696
 20
-299.9526090300687
 40
0.315716923076792
 50
90.18896704256652
 51
180.0
 73
     0
 72
     1
 10
-164.7383982807728
 20
-299.9526090300687
 11
-164.7383982807728
 21
-299.3707576233736
 72
     2
 10
-164.422681357696
 20
-299.3707576233736
 40
0.3157169230765328
 50
180.0
 51
244.6259913216482
 73
     0
 97
        8
330
367
330
343
330
31F
330
366
330
344
330
345
330
31E
330
342
 92
       16
 93
        1
 72
     2
 10
-164.9725390704567
 20
-298.2616160234053
 40
0.470978932778479
 50
0.0
 51
360.0
 73
     1
 97
        1
330
36D
 75
     1
 76
     2
 52
45.0
 41
0.1
 77
     0
 78
     1
 53
45.0
 43
62.7811309658083
 44
-72.3161373035813
 45
-0.1414213562373095
 46
0.0
 79
     0
 98
        1
 10
0.0
 20
0.0
  0
HATCH
  5
3A0
330
71
100
AcDbEntity
  8
1
  6
Continuous
 62
     2
100
AcDbHatch
 10
0.0
 20
0.0
 30
0.0
210
0.0
220
0.0
230
1.0
  2
CUSTOM6
 70
     0
 71
     1
 91
        2
 92
        1
 93
       12
 72
     2
 10
-152.9169607169849
 20
-297.0453939415536
 40
1.526904761905769
 50
90.0
 51
270.0
 73
     1
 72
     1
 10
-152.9169607169849
 20
-298.5722987034589
 11
-149.766640993204
 21
-298.5722987034589
 72
     1
 10
-149.766640993204
 20
-298.5722987034589
 11
-149.766640993204
 21
-297.8742850980165
 72
     1
 10
-149.766640993204
 20
-297.8742850980165
 11
-151.1025688196316
 21
-297.8742850980165
 72
     1
 10
-151.1025688196316
 20
-297.8742850980165
 11
-151.1025688196316
 21
-297.3944007442748
 72
     1
 10
-151.1025688196316
 20
-297.3944007442748
 11
-149.766640993204
 21
-297.3944007442748
 72
     1
 10
-149.766640993204
 20
-297.3944007442748
 11
-149.766640993204
 21
-296.6963871388324
 72
     1
 10
-149.766640993204
 20
-296.6963871388324
 11
-151.1025688196316
 21
-296.6963871388324
 72
     1
 10
-151.1025688196316
 20
-296.6963871388324
 11
-151.1025688196316
 21
-296.2165027850907
 72
     1
 10
-151.1025688196316
 20
-296.2165027850907
 11
-149.766640993204
 21
-296.2165027850907
 72
     1
 10
-149.766640993204
 20
-296.2165027850907
 11
-149.766640993204
 21
-295.5184891796478
 72
     1
 10
-149.766640993204
 20
-295.5184891796478
 11
-152.9169607169849
 21
-295.5184891796478
 97
       12
330
2DA
330
2D4
330
2FB
330
2FA
330
2F9
330
2F8
330
2D5
330
2D6
330
2D7
330
2D8
330
34A
330
2D9
 92
       16
 93
        4
 72
     2
 10
-152.5009486704735
 20
-297.0453939415536
 40
0.7717997786796245
 50
141.8795802028484
 51
218.1204197971549
 73
     1
 72
     2
 10
-152.7006887068197
 20
-297.2021251196741
 40
0.5179085730134564
 50
218.1204197971334
 51
321.8795802028588
 73
     1
 72
     2
 10
-152.9004287431659
 20
-297.0453939415536
 40
0.7717997786795479
 50
321.8795802028385
 51
398.1204197971581
 73
     1
 72
     2
 10
-152.7006887068197
 20
-296.8886627634331
 40
0.5179085730133669
 50
38.12041979714121
 51
141.8795802028666
 73
     1
 97
        4
330
357
330
356
330
351
330
350
 75
     1
 76
     2
 52
45.0
 41
0.1
 77
     0
 78
     1
 53
45.0
 43
62.7811309658083
 44
-72.3161373035813
 45
-0.1414213562373095
 46
0.0
 79
     0
 98
        1
 10
0.0
 20
0.0
  0
HATCH
  5
3A1
330
71
100
AcDbEntity
  8
1
  6
Continuous
 62
     2
100
AcDbHatch
 10
0.0
 20
0.0
 30
0.0
210
0.0
220
0.0
230
1.0
  2
CUSTOM7
 70
     0
 71
     1
 91
        2
 92
        1
 93
       12
 72
     2
 10
-152.9169607169849
 20
-297.0453939415536
 40
1.526904761905769
 50
90.0
 51
270.0
 73
     1
 72
     1
 10
-152.9169607169849
 20
-298.5722987034589
 11
-149.766640993204
 21
-298.5722987034589
 72
     1
 10
-149.766640993204
 20
-298.5722987034589
 11
-149.766640993204
 21
-297.8742850980165
 72
     1
 10
-149.766640993204
 20
-297.8742850980165
 11
-151.1025688196316
 21
-297.8742850980165
 72
     1
 10
-151.1025688196316
 20
-297.8742850980165
 11
-151.1025688196316
 21
-297.3944007442748
 72
     1
 10
-151.1025688196316
 20
-297.3944007442748
 11
-149.766640993204
 21
-297.3944007442748
 72
     1
 10
-149.766640993204
 20
-297.3944007442748
 11
-149.766640993204
 21
-296.6963871388324
 72
     1
 10
-149.766640993204
 20
-296.6963871388324
 11
-151.1025688196316
 21
-296.6963871388324
 72
     1
 10
-151.1025688196316
 20
-296.6963871388324
 11
-151.1025688196316
 21
-296.2165027850907
 72
     1
 10
-151.1025688196316
 20
-296.2165027850907
 11
-149.766640993204
 21
-296.2165027850907
 72
     1
 10
-149.766640993204
 20
-296.2165027850907
 11
-149.766640993204
 21
-295.5184891796478
 72
     1
 10
-149.766640993204
 20
-295.5184891796478
 11
-152.9169607169849
 21
-295.5184891796478
 97
       12
330
2DA
330
2D4
330
2FB
330
2FA
330
2F9
330
2F8
330
2D5
330
2D6
330
2D7
330
2D8
330
34A
330
2D9
 92
       16
 93
        4
 72
     2
 10
-152.5009486704735
 20
-297.0453939415536
 40
0.7717997786796245
 50
141.8795802028484
 51
218.1204197971549
 73
     1
 72
     2
 10
-152.7006887068197
 20
-297.2021251196741
 40
0.5179085730134564
 50
218.1204197971334
 51
321.8795802028588
 73
     1
 72
     2
 10
-152.9004287431659
 20
-297.0453939415536
 40
0.7717997786795479
 50
321.8795802028385
 51
398.1204197971581
 73
     1
 72
     2
 10
-152.7006887068197
 20
-296.8886627634331
 40
0.5179085730133669
 50
38.12041979714121
 51
141.8795802028666
 73
     1
 97
        4
330
357
330
356
330
351
330
350
 75
     1
 76
     2
 52
45.0
 41
0.1
 77
     0
 78
     1
 53
45.0
 43
62.7811309658083
 44
-72.3161373035813
 45
-0.1414213562373095
 46
0.0
 79
     0
 98
        1
 10
0.0
 20
0.0
  0
HATCH
  5
3A2
330
71
100
AcDbEntity
  8
1
  6
Continuous
 62
     2
100
AcDbHatch
 10
0.0
 20
0.0
 30
0.0
210
0.0
220
0.0
230
1.0
  2
CUSTOM8
 70
     0
 71
     1
 91
        2
 92
        1
 93
        4
 72
     2
 10
-156.9425760794466
 20
-300.404584417728
 40
1.458034083651616
 50
117.5481481756598
 51
242.451851824337
 73
     1
 72
     2
 10
-156.6616361876132
 20
-299.8660094074246
 40
2.065479772208637
 50
242.4518518243384
 51
297.548148175686
 73
     1
 72
     2
 10
-156.38069629578
 20
-300.404584417728
 40
1.45803408365203
 50
297.5481481757055
 51
422.4518518242976
 73
     1
 72
     2
 10
-156.6616361876132
 20
-300.9431594280308
 40
2.065479772208694
 50
62.45185182430819
 51
117.5481481756674
 73
     1
 97
        4
330
355
330
352
330
354
330
353
 92
       16
 93
        4
 72
     2
 10
-156.6616361876132
 20
-300.2478532396075
 40
0.5179085730132806
 50
38.12041979716469
 51
141.8795802028567
 73
     1
 72
     2
 10
-156.4618961512672
 20
-300.404584417728
 40
0.771799778679551
 50
141.879580202828
 51
218.120419797162
 73
     1
 72
     2
 10
-156.6616361876132
 20
-300.5613155958479
 40
0.5179085730138424
 50
218.1204197971879
 51
321.8795802027908
 73
     1
 72
     2
 10
-156.8613762239596
 20
-300.404584417728
 40
0.7717997786795351
 50
321.8795802028432
 51
398.1204197971668
 73
     1
 97
        4
330
338
330
339
330
33A
330
337
 75
     1
 76
     2
 52
45.0
 41
0.1
 77
     0
 78
     1
 53
45.0
 43
62.7811309658083
 44
-72.3161373035813
 45
-0.1414213562373095
 46
0.0
 79
     0
 98
        1
 10
0.0
 20
0.0
  0
HATCH
  5
3A3
330
71
100
AcDbEntity
  8
1
  6
Continuous
 62
     2
100
AcDbHatch
 10
0.0
 20
0.0
 30
0.0
210
0.0
220
0.0
230
1.0
  2
CUSTOM9
 70
     0
 71
     1
 91
        2
 92
        1
 93
        4
 72
     2
 10
-156.9425760794466
 20
-300.404584417728
 40
1.458034083651616
 50
117.5481481756598
 51
242.451851824337
 73
     1
 72
     2
 10
-156.6616361876132
 20
-299.8660094074246
 40
2.065479772208637
 50
242.4518518243384
 51
297.548148175686
 73
     1
 72
     2
 10
-156.38069629578
 20
-300.404584417728
 40
1.45803408365203
 50
297.5481481757055
 51
422.4518518242976
 73
     1
 72
     2
 10
-156.6616361876132
 20
-300.9431594280308
 40
2.065479772208694
 50
62.45185182430819
 51
117.5481481756674
 73
     1
 97
        4
330
355
330
352
330
354
330
353
 92
       16
 93
        4
 72
     2
 10
-156.6616361876132
 20
-300.2478532396075
 40
0.5179085730132806
 50
38.12041979716469
 51
141.8795802028567
 73
     1
 72
     2
 10
-156.4618961512672
 20
-300.404584417728
 40
0.771799778679551
 50
141.879580202828
 51
218.120419797162
 73
     1
 72
     2
 10
-156.6616361876132
 20
-300.5613155958479
 40
0.5179085730138424
 50
218.1204197971879
 51
321.8795802027908
 73
     1
 72
     2
 10
-156.8613762239596
 20
-300.404584417728
 40
0.7717997786795351
 50
321.8795802028432
 51
398.1204197971668
 73
     1
 97
        4
330
338
330
339
330
33A
330
337
 75
     1
 76
     2
 52
45.0
 41
0.1
 77
     0
 78
     1
 53
45.0
 43
62.7811309658083
 44
-72.3161373035813
 45
-0.1414213562373095
 46
0.0
 79
     0
 98
        1
 10
0.0
 20
0.0
  0
HATCH
  5
3A4
330
71
100
AcDbEntity
  8
1
  6
Continuous
 62
     2
100
AcDbHatch
 10
0.0
 20
0.0
 30
0.0
210
0.0
220
0.0
230
1.0
  2
CUSTOM10
 70
     0
 71
     1
 91
        2
 92
        1
 93
        6
 72
     1
 10
-161.2174509340067
 20
-295.5184891796478
 11
-161.2174509340067
 21
-298.5722987034589
 72
     1
 10
-161.2174509340067
 20
-298.5722987034589
 11
-159.9769465237527
 21
-298.5722987034589
 72
     1
 10
-159.9769465237527
 20
-298.5722987034589
 11
-159.9769465237527
 21
-297.6292204623152
 72
     1
 10
-159.9769465237527
 20
-297.6292204623152
 11
-159.2181789359723
 21
-297.6292204623152
 72
     2
 10
-159.2181789359723
 20
-296.5738548209815
 40
1.055365641333651
 50
270.0
 51
450.0
 73
     1
 72
     1
 10
-159.2181789359723
 20
-295.5184891796478
 11
-161.2174509340067
 21
-295.5184891796478
 97
        6
330
35F
330
2EC
330
2E2
330
2E1
330
2EE
330
2ED
 92
       16
 93
        4
 72
     1
 10
-159.6596514622107
 20
-296.1815950250878
 11
-159.9769465237527
 21
-296.1815950250878
 72
     1
 10
-159.9769465237527
 20
-296.1815950250878
 11
-159.9769465237527
 21
-296.8873226744301
 72
     1
 10
-159.9769465237527
 20
-296.8873226744301
 11
-159.6596514622107
 21
-296.8873226744301
 72
     2
 10
-159.6596514622107
 20
-296.534458849759
 40
0.3528638246710898
 50
270.0
 51
450.0
 73
     1
 97
        4
330
2EF
330
2E0
330
2F0
330
34B
 75
     1
 76
     2
 52
45.0
 41
0.1
 77
     0
 78
     1
 53
45.0
 43
62.7811309658083
 44
-72.3161373035813
 45
-0.1414213562373095
 46
0.0
 79
     0
 98
        1
 10
0.0
 20
0.0
  0
HATCH
  5
3A5
330
71
100
AcDbEntity
  8
1
  6
Continuous
 62
     2
100
AcDbHatch
 10
0.0
 20
0.0
 30
0.0
210
0.0
220
0.0
230
1.0
  2
CUSTOM11
 70
     0
 71
     1
 91
        2
 92
        1
 93
        6
 72
     1
 10
-161.2174509340067
 20
-295.5184891796478
 11
-161.2174509340067
 21
-298.5722987034589
 72
     1
 10
-161.2174509340067
 20
-298.5722987034589
 11
-159.9769465237527
 21
-298.5722987034589
 72
     1
 10
-159.9769465237527
 20
-298.5722987034589
 11
-159.9769465237527
 21
-297.6292204623152
 72
     1
 10
-159.9769465237527
 20
-297.6292204623152
 11
-159.2181789359723
 21
-297.6292204623152
 72
     2
 10
-159.2181789359723
 20
-296.5738548209815
 40
1.055365641333651
 50
270.0
 51
450.0
 73
     1
 72
     1
 10
-159.2181789359723
 20
-295.5184891796478
 11
-161.2174509340067
 21
-295.5184891796478
 97
        6
330
35F
330
2EC
330
2E2
330
2E1
330
2EE
330
2ED
 92
       16
 93
        4
 72
     1
 10
-159.6596514622107
 20
-296.1815950250878
 11
-159.9769465237527
 21
-296.1815950250878
 72
     1
 10
-159.9769465237527
 20
-296.1815950250878
 11
-159.9769465237527
 21
-296.8873226744301
 72
     1
 10
-159.9769465237527
 20
-296.8873226744301
 11
-159.6596514622107
 21
-296.8873226744301
 72
     2
 10
-159.6596514622107
 20
-296.534458849759
 40
0.3528638246710898
 50
270.0
 51
450.0
 73
     1
 97
        4
330
2EF
330
2E0
330
2F0
330
34B
 75
     1
 76
     2
 52
45.0
 41
0.1
 77
     0
 78
     1
 53
45.0
 43
62.7811309658083
 44
-72.3161373035813
 45
-0.1414213562373095
 46
0.0
 79
     0
 98
        1
 10
0.0
 20
0.0
  0
HATCH
  5
3A6
330
71
100
AcDbEntity
  8
1
  6
Continuous
 62
     2
100
AcDbHatch
 10
0.0
 20
0.0
 30
0.0
210
0.0
220
0.0
230
1.0
  2
CUSTOM12
 70
     0
 71
     1
 91
        1
 92
        1
 93
       12
 72
     1
 10
-141.6031677395735
 20
-295.5184891796478
 11
-140.2004435218263
 21
-295.5184891796478
 72
     1
 10
-140.2004435218263
 20
-295.5184891796478
 11
-141.5029731525929
 21
-296.991439709684
 72
     1
 10
-141.5029731525929
 20
-296.991439709684
 11
-140.1050201056526
 21
-298.5722987034589
 72
     1
 10
-140.1050201056526
 20
-298.5722987034589
 11
-141.5077443234009
 21
-298.5722987034589
 72
     1
 10
-141.5077443234009
 20
-298.5722987034589
 11
-142.2043352614663
 21
-297.7845669181652
 72
     1
 10
-142.2043352614663
 20
-297.7845669181652
 11
-142.9009261995321
 21
-298.5722987034589
 72
     1
 10
-142.9009261995321
 20
-298.5722987034589
 11
-144.3036504172802
 21
-298.5722987034589
 72
     1
 10
-144.3036504172802
 20
-298.5722987034589
 11
-142.9056973703399
 21
-296.991439709684
 72
     1
 10
-142.9056973703399
 20
-296.991439709684
 11
-144.2082270011074
 21
-295.5184891796478
 72
     1
 10
-144.2082270011074
 20
-295.5184891796478
 11
-142.8055027833582
 21
-295.5184891796478
 72
     1
 10
-142.8055027833582
 20
-295.5184891796478
 11
-142.2043352614663
 21
-296.1983125012033
 72
     1
 10
-142.2043352614663
 20
-296.1983125012033
 11
-141.6031677395735
 21
-295.5184891796478
 97
       12
330
2BB
330
314
330
313
330
312
330
311
330
2BC
330
2BD
330
2B9
330
2BA
330
317
330
316
330
315
 75
     1
 76
     2
 52
45.0
 41
0.1
 77
     0
 78
     1
 53
45.0
 43
62.7811309658083
 44
-72.3161373035813
 45
-0.1414213562373095
 46
0.0
 79
     0
 98
        1
 10
0.0
 20
0.0
  0
HATCH
  5
3A7
330
71
100
AcDbEntity
  8
1
  6
Continuous
 62
     2
100
AcDbHatch
 10
0.0
 20
0.0
 30
0.0
210
0.0
220
0.0
230
1.0
  2
CUSTOM13
 70
     0
 71
     1
 91
        1
 92
        1
 93
       12
 72
     1
 10
-141.6031677395735
 20
-295.5184891796478
 11
-140.2004435218263
 21
-295.5184891796478
 72
     1
 10
-140.2004435218263
 20
-295.5184891796478
 11
-141.5029731525929
 21
-296.991439709684
 72
     1
 10
-141.5029731525929
 20
-296.991439709684
 11
-140.1050201056526
 21
-298.5722987034589
 72
     1
 10
-140.1050201056526
 20
-298.5722987034589
 11
-141.5077443234009
 21
-298.5722987034589
 72
     1
 10
-141.5077443234009
 20
-298.5722987034589
 11
-142.2043352614663
 21
-297.7845669181652
 72
     1
 10
-142.2043352614663
 20
-297.7845669181652
 11
-142.9009261995321
 21
-298.5722987034589
 72
     1
 10
-142.9009261995321
 20
-298.5722987034589
 11
-144.3036504172802
 21
-298.5722987034589
 72
     1
 10
-144.3036504172802
 20
-298.5722987034589
 11
-142.9056973703399
 21
-296.991439709684
 72
     1
 10
-142.9056973703399
 20
-296.991439709684
 11
-144.2082270011074
 21
-295.5184891796478
 72
     1
 10
-144.2082270011074
 20
-295.5184891796478
 11
-142.8055027833582
 21
-295.5184891796478
 72
     1
 10
-142.8055027833582
 20
-295.5184891796478
 11
-142.2043352614663
 21
-296.1983125012033
 72
     1
 10
-142.2043352614663
 20
-296.1983125012033
 11
-141.6031677395735
 21
-295.5184891796478
 97
       12
330
2BB
330
314
330
313
330
312
330
311
330
2BC
330
2BD
330
2B9
330
2BA
330
317
330
316
330
315
 75
     1
 76
     2
 52
45.0
 41
0.1
 77
     0
 78
     1
 53
45.0
 43
62.7811309658083
 44
-72.3161373035813
 45
-0.1414213562373095
 46
0.0
 79
     0
 98
        1
 10
0.0
 20
0.0
  0
HATCH
  5
3A8
330
71
100
AcDbEntity
  8
1
  6
Continuous
 62
     2
100
AcDbHatch
 10
0.0
 20
0.0
 30
0.0
210
0.0
220
0.0
230
1.0
  2
CUSTOM14
 70
     0
 71
     1
 91
        1
 92
        1
 93
        4
 72
     1
 10
-144.4229296874971
 20
-295.5184891796478
 11
-144.4229296874971
 21
-298.5722987034589
 72
     1
 10
-144.4229296874971
 20
-298.5722987034589
 11
-145.66343409775
 21
-298.5722987034589
 72
     1
 10
-145.66343409775
 20
-298.5722987034589
 11
-145.66343409775
 21
-295.5184891796478
 72
     1
 10
-145.66343409775
 20
-295.5184891796478
 11
-144.4229296874971
 21
-295.5184891796478
 97
        4
330
30F
330
2BE
330
30E
330
310
 75
     1
 76
     2
 52
45.0
 41
0.1
 77
     0
 78
     1
 53
45.0
 43
62.7811309658083
 44
-72.3161373035813
 45
-0.1414213562373095
 46
0.0
 79
     0
 98
        1
 10
0.0
 20
0.0
  0
HATCH
  5
3A9
330
71
100
AcDbEntity
  8
1
  6
Continuous
 62
     2
100
AcDbHatch
 10
0.0
 20
0.0
 30
0.0
210
0.0
220
0.0
230
1.0
  2
CUSTOM15
 70
     0
 71
     1
 91
        1
 92
        1
 93
        4
 72
     1
 10
-144.4229296874971
 20
-295.5184891796478
 11
-144.4229296874971
 21
-298.5722987034589
 72
     1
 10
-144.4229296874971
 20
-298.5722987034589
 11
-145.66343409775
 21
-298.5722987034589
 72
     1
 10
-145.66343409775
 20
-298.5722987034589
 11
-145.66343409775
 21
-295.5184891796478
 72
     1
 10
-145.66343409775
 20
-295.5184891796478
 11
-144.4229296874971
 21
-295.5184891796478
 97
        4
330
30F
330
2BE
330
30E
330
310
 75
     1
 76
     2
 52
45.0
 41
0.1
 77
     0
 78
     1
 53
45.0
 43
62.7811309658083
 44
-72.3161373035813
 45
-0.1414213562373095
 46
0.0
 79
     0
 98
        1
 10
0.0
 20
0.0
  0
HATCH
  5
3AA
330
71
100
AcDbEntity
  8
1
  6
Continuous
 62
     2
100
AcDbHatch
 10
0.0
 20
0.0
 30
0.0
210
0.0
220
0.0
230
1.0
  2
CUSTOM16
 70
     0
 71
     1
 91
        2
 92
        1
 93
        8
 72
     1
 10
-144.8133736910291
 20
-301.9314891796332
 11
-146.053878101283
 21
-301.9314891796332
 72
     1
 10
-146.053878101283
 20
-301.9314891796332
 11
-146.2653581547588
 21
-301.3905286354154
 72
     1
 10
-146.2653581547588
 20
-301.3905286354154
 11
-147.3977997314327
 21
-301.3905286354154
 72
     1
 10
-147.3977997314327
 20
-301.3905286354154
 11
-147.6092797849085
 21
-301.9314891796332
 72
     1
 10
-147.6092797849085
 20
-301.9314891796332
 11
-148.8497841951614
 21
-301.9314891796332
 72
     1
 10
-148.8497841951614
 20
-301.9314891796332
 11
-147.4518311482222
 21
-298.8776796558221
 72
     1
 10
-147.4518311482222
 20
-298.8776796558221
 11
-146.2113267379694
 21
-298.8776796558221
 72
     1
 10
-146.2113267379694
 20
-298.8776796558221
 11
-144.8133736910291
 21
-301.9314891796332
 97
        8
330
30A
330
2C4
330
309
330
30C
330
2C1
330
30B
330
2C2
330
2C3
 92
       16
 93
        3
 72
     1
 10
-147.1317441802876
 20
-300.7099653701088
 11
-146.5314137059051
 21
-300.7099653701088
 72
     1
 10
-146.5314137059051
 20
-300.7099653701088
 11
-146.8315789430953
 21
-299.9421504041221
 72
     1
 10
-146.8315789430953
 20
-299.9421504041221
 11
-147.1317441802876
 21
-300.7099653701088
 97
        3
330
2C0
330
2BF
330
30D
 75
     1
 76
     2
 52
45.0
 41
0.1
 77
     0
 78
     1
 53
45.0
 43
62.7811309658083
 44
-72.3161373035813
 45
-0.1414213562373095
 46
0.0
 79
     0
 98
        1
 10
0.0
 20
0.0
  0
HATCH
  5
3AB
330
71
100
AcDbEntity
  8
1
  6
Continuous
 62
     2
100
AcDbHatch
 10
0.0
 20
0.0
 30
0.0
210
0.0
220
0.0
230
1.0
  2
CUSTOM17
 70
     0
 71
     1
 91
        2
 92
        1
 93
        8
 72
     1
 10
-144.8133736910291
 20
-301.9314891796332
 11
-146.053878101283
 21
-301.9314891796332
 72
     1
 10
-146.053878101283
 20
-301.9314891796332
 11
-146.2653581547588
 21
-301.3905286354154
 72
     1
 10
-146.2653581547588
 20
-301.3905286354154
 11
-147.3977997314327
 21
-301.3905286354154
 72
     1
 10
-147.3977997314327
 20
-301.3905286354154
 11
-147.6092797849085
 21
-301.9314891796332
 72
     1
 10
-147.6092797849085
 20
-301.9314891796332
 11
-148.8497841951614
 21
-301.9314891796332
 72
     1
 10
-148.8497841951614
 20
-301.9314891796332
 11
-147.4518311482222
 21
-298.8776796558221
 72
     1
 10
-147.4518311482222
 20
-298.8776796558221
 11
-146.2113267379694
 21
-298.8776796558221
 72
     1
 10
-146.2113267379694
 20
-298.8776796558221
 11
-144.8133736910291
 21
-301.9314891796332
 97
        8
330
30A
330
2C4
330
309
330
30C
330
2C1
330
30B
330
2C2
330
2C3
 92
       16
 93
        3
 72
     1
 10
-147.1317441802876
 20
-300.7099653701088
 11
-146.5314137059051
 21
-300.7099653701088
 72
     1
 10
-146.5314137059051
 20
-300.7099653701088
 11
-146.8315789430953
 21
-299.9421504041221
 72
     1
 10
-146.8315789430953
 20
-299.9421504041221
 11
-147.1317441802876
 21
-300.7099653701088
 97
        3
330
2C0
330
2BF
330
30D
 75
     1
 76
     2
 52
45.0
 41
0.1
 77
     0
 78
     1
 53
45.0
 43
62.7811309658083
 44
-72.3161373035813
 45
-0.1414213562373095
 46
0.0
 79
     0
 98
        1
 10
0.0
 20
0.0
  0
HATCH
  5
3AC
330
71
100
AcDbEntity
  8
1
  6
Continuous
 62
     2
100
AcDbHatch
 10
0.0
 20
0.0
 30
0.0
210
0.0
220
0.0
230
1.0
  2
CUSTOM18
 70
     0
 71
     1
 91
        1
 92
        1
 93
        8
 72
     1
 10
-151.0072963343437
 20
-298.8776796558221
 11
-151.0072963343437
 21
-299.6629449619458
 72
     1
 10
-151.0072963343437
 20
-299.6629449619458
 11
-150.196197296869
 21
-299.6629449619458
 72
     1
 10
-150.196197296869
 20
-299.6629449619458
 11
-150.196197296869
 21
-301.9314891796332
 72
     1
 10
-150.196197296869
 20
-301.9314891796332
 11
-149.0034045947026
 21
-301.9314891796332
 72
     1
 10
-149.0034045947026
 20
-301.9314891796332
 11
-149.0034045947026
 21
-299.6629449619458
 72
     1
 10
-149.0034045947026
 20
-299.6629449619458
 11
-148.19230555723
 21
-299.6629449619458
 72
     1
 10
-148.19230555723
 20
-299.6629449619458
 11
-148.19230555723
 21
-298.8776796558221
 72
     1
 10
-148.19230555723
 20
-298.8776796558221
 11
-151.0072963343437
 21
-298.8776796558221
 97
        8
330
306
330
305
330
304
330
2C5
330
2C6
330
308
330
2C7
330
307
 75
     1
 76
     2
 52
45.0
 41
0.1
 77
     0
 78
     1
 53
45.0
 43
62.7811309658083
 44
-72.3161373035813
 45
-0.1414213562373095
 46
0.0
 79
     0
 98
        1
 10
0.0
 20
0.0
  0
HATCH
  5
3AD
330
71
100
AcDbEntity
  8
1
  6
Continuous
 62
     2
100
AcDbHatch
 10
0.0
 20
0.0
 30
0.0
210
0.0
220
0.0
230
1.0
  2
CUSTOM19
 70
     0
 71
     1
 91
        1
 92
        1
 93
        8
 72
     1
 10
-151.0072963343437
 20
-298.8776796558221
 11
-151.0072963343437
 21
-299.6629449619458
 72
     1
 10
-151.0072963343437
 20
-299.6629449619458
 11
-150.196197296869
 21
-299.6629449619458
 72
     1
 10
-150.196197296869
 20
-299.6629449619458
 11
-150.196197296869
 21
-301.9314891796332
 72
     1
 10
-150.196197296869
 20
-301.9314891796332
 11
-149.0034045947026
 21
-301.9314891796332
 72
     1
 10
-149.0034045947026
 20
-301.9314891796332
 11
-149.0034045947026
 21
-299.6629449619458
 72
     1
 10
-149.0034045947026
 20
-299.6629449619458
 11
-148.19230555723
 21
-299.6629449619458
 72
     1
 10
-148.19230555723
 20
-299.6629449619458
 11
-148.19230555723
 21
-298.8776796558221
 72
     1
 10
-148.19230555723
 20
-298.8776796558221
 11
-151.0072963343437
 21
-298.8776796558221
 97
        8
330
306
330
305
330
304
330
2C5
330
2C6
330
308
330
2C7
330
307
 75
     1
 76
     2
 52
45.0
 41
0.1
 77
     0
 78
     1
 53
45.0
 43
62.7811309658083
 44
-72.3161373035813
 45
-0.1414213562373095
 46
0.0
 79
     0
 98
        1
 10
0.0
 20
0.0
  0
HATCH
  5
3AE
330
71
100
AcDbEntity
  8
1
  6
Continuous
 62
     2
100
AcDbHatch
 10
0.0
 20
0.0
 30
0.0
210
0.0
220
0.0
230
1.0
  2
CUSTOM20
 70
     0
 71
     1
 91
        1
 92
        1
 93
       10
 72
     1
 10
-148.3352897506046
 20
-295.5184891796478
 11
-149.528082452771
 21
-295.5184891796478
 72
     1
 10
-149.528082452771
 20
-295.5184891796478
 11
-149.528082452771
 21
-298.5722987034589
 72
     1
 10
-149.528082452771
 20
-298.5722987034589
 11
-148.3352897506046
 21
-298.5722987034589
 72
     1
 10
-148.3352897506046
 20
-298.5722987034589
 11
-148.3352897506046
 21
-297.2635231932542
 72
     1
 10
-148.3352897506046
 20
-297.2635231932542
 11
-147.0947853403505
 21
-298.5722987034589
 72
     1
 10
-147.0947853403505
 20
-298.5722987034589
 11
-145.9019926381839
 21
-298.5722987034589
 72
     1
 10
-145.9019926381839
 20
-298.5722987034589
 11
-145.9019926381839
 21
-295.5184891796478
 72
     1
 10
-145.9019926381839
 20
-295.5184891796478
 11
-147.0947853403505
 21
-295.5184891796478
 72
     1
 10
-147.0947853403505
 20
-295.5184891796478
 11
-147.0947853403505
 21
-296.8272646898529
 72
     1
 10
-147.0947853403505
 20
-296.8272646898529
 11
-148.3352897506046
 21
-295.5184891796478
 97
       10
330
300
330
2CA
330
2CB
330
2CC
330
2CD
330
303
330
2C8
330
302
330
301
330
2C9
 75
     1
 76
     2
 52
45.0
 41
0.1
 77
     0
 78
     1
 53
45.0
 43
62.7811309658083
 44
-72.3161373035813
 45
-0.1414213562373095
 46
0.0
 79
     0
 98
        1
 10
0.0
 20
0.0
  0
HATCH
  5
3AF
330
71
100
AcDbEntity
  8
1
  6
Continuous
 62
     2
100
AcDbHatch
 10
0.0
 20
0.0
 30
0.0
210
0.0
220
0.0
230
1.0
  2
CUSTOM21
 70
     0
 71
     1
 91
        1
 92
        1
 93
       10
 72
     1
 10
-148.3352897506046
 20
-295.5184891796478
 11
-149.528082452771
 21
-295.5184891796478
 72
     1
 10
-149.528082452771
 20
-295.5184891796478
 11
-149.528082452771
 21
-298.5722987034589
 72
     1
 10
-149.528082452771
 20
-298.5722987034589
 11
-148.3352897506046
 21
-298.5722987034589
 72
     1
 10
-148.3352897506046
 20
-298.5722987034589
 11
-148.3352897506046
 21
-297.2635231932542
 72
     1
 10
-148.3352897506046
 20
-297.2635231932542
 11
-147.0947853403505
 21
-298.5722987034589
 72
     1
 10
-147.0947853403505
 20
-298.5722987034589
 11
-145.9019926381839
 21
-298.5722987034589
 72
     1
 10
-145.9019926381839
 20
-298.5722987034589
 11
-145.9019926381839
 21
-295.5184891796478
 72
     1
 10
-145.9019926381839
 20
-295.5184891796478
 11
-147.0947853403505
 21
-295.5184891796478
 72
     1
 10
-147.0947853403505
 20
-295.5184891796478
 11
-147.0947853403505
 21
-296.8272646898529
 72
     1
 10
-147.0947853403505
 20
-296.8272646898529
 11
-148.3352897506046
 21
-295.5184891796478
 97
       10
330
300
330
2CA
330
2CB
330
2CC
330
2CD
330
303
330
2C8
330
302
330
301
330
2C9
 75
     1
 76
     2
 52
45.0
 41
0.1
 77
     0
 78
     1
 53
45.0
 43
62.7811309658083
 44
-72.3161373035813
 45
-0.1414213562373095
 46
0.0
 79
     0
 98
        1
 10
0.0
 20
0.0
  0
HATCH
  5
3B0
330
71
100
AcDbEntity
  8
1
  6
Continuous
 62
     2
100
AcDbHatch
 10
0.0
 20
0.0
 30
0.0
210
0.0
220
0.0
230
1.0
  2
CUSTOM22
 70
     0
 71
     1
 91
        1
 92
        1
 93
       10
 72
     1
 10
-153.5837285710232
 20
-298.8776796558221
 11
-154.7765212731907
 21
-298.8776796558221
 72
     1
 10
-154.7765212731907
 20
-298.8776796558221
 11
-154.7765212731907
 21
-301.9314891796332
 72
     1
 10
-154.7765212731907
 20
-301.9314891796332
 11
-153.5837285710232
 21
-301.9314891796332
 72
     1
 10
-153.5837285710232
 20
-301.9314891796332
 11
-153.5837285710232
 21
-300.6227136694287
 72
     1
 10
-153.5837285710232
 20
-300.6227136694287
 11
-152.3432241607702
 21
-301.9314891796332
 72
     1
 10
-152.3432241607702
 20
-301.9314891796332
 11
-151.1504314586038
 21
-301.9314891796332
 72
     1
 10
-151.1504314586038
 20
-301.9314891796332
 11
-151.1504314586038
 21
-298.8776796558221
 72
     1
 10
-151.1504314586038
 20
-298.8776796558221
 11
-152.3432241607702
 21
-298.8776796558221
 72
     1
 10
-152.3432241607702
 20
-298.8776796558221
 11
-152.3432241607702
 21
-300.1864551660273
 72
     1
 10
-152.3432241607702
 20
-300.1864551660273
 11
-153.5837285710232
 21
-298.8776796558221
 97
       10
330
2CF
330
2D0
330
2D1
330
2FD
330
2D2
330
2D3
330
2FC
330
2FF
330
2FE
330
2CE
 75
     1
 76
     2
 52
45.0
 41
0.1
 77
     0
 78
     1
 53
45.0
 43
62.7811309658083
 44
-72.3161373035813
 45
-0.1414213562373095
 46
0.0
 79
     0
 98
        1
 10
0.0
 20
0.0
  0
HATCH
  5
3B1
330
71
100
AcDbEntity
  8
1
  6
Continuous
 62
     2
100
AcDbHatch
 10
0.0
 20
0.0
 30
0.0
210
0.0
220
0.0
230
1.0
  2
CUSTOM23
 70
     0
 71
     1
 91
        1
 92
        1
 93
       10
 72
     1
 10
-153.5837285710232
 20
-298.8776796558221
 11
-154.7765212731907
 21
-298.8776796558221
 72
     1
 10
-154.7765212731907
 20
-298.8776796558221
 11
-154.7765212731907
 21
-301.9314891796332
 72
     1
 10
-154.7765212731907
 20
-301.9314891796332
 11
-153.5837285710232
 21
-301.9314891796332
 72
     1
 10
-153.5837285710232
 20
-301.9314891796332
 11
-153.5837285710232
 21
-300.6227136694287
 72
     1
 10
-153.5837285710232
 20
-300.6227136694287
 11
-152.3432241607702
 21
-301.9314891796332
 72
     1
 10
-152.3432241607702
 20
-301.9314891796332
 11
-151.1504314586038
 21
-301.9314891796332
 72
     1
 10
-151.1504314586038
 20
-301.9314891796332
 11
-151.1504314586038
 21
-298.8776796558221
 72
     1
 10
-151.1504314586038
 20
-298.8776796558221
 11
-152.3432241607702
 21
-298.8776796558221
 72
     1
 10
-152.3432241607702
 20
-298.8776796558221
 11
-152.3432241607702
 21
-300.1864551660273
 72
     1
 10
-152.3432241607702
 20
-300.1864551660273
 11
-153.5837285710232
 21
-298.8776796558221
 97
       10
330
2CF
330
2D0
330
2D1
330
2FD
330
2D2
330
2D3
330
2FC
330
2FF
330
2FE
330
2CE
 75
     1
 76
     2
 52
45.0
 41
0.1
 77
     0
 78
     1
 53
45.0
 43
62.7811309658083
 44
-72.3161373035813
 45
-0.1414213562373095
 46
0.0
 79
     0
 98
        1
 10
0.0
 20
0.0
  0
HATCH
  5
3B2
330
71
100
AcDbEntity
  8
1
  6
Continuous
 62
     2
100
AcDbHatch
 10
0.0
 20
0.0
 30
0.0
210
0.0
220
0.0
230
1.0
  2
CUSTOM24
 70
     0
 71
     1
 91
        1
 92
        1
 93
       12
 72
     1
 10
-154.5855235099585
 20
-295.5184891796478
 11
-154.5855235099585
 21
-298.5722987034589
 72
     1
 10
-154.5855235099585
 20
-298.5722987034589
 11
-155.778316212125
 21
-298.5722987034589
 72
     1
 10
-155.778316212125
 20
-298.5722987034589
 11
-155.778316212125
 21
-297.4380265946152
 72
     1
 10
-155.778316212125
 20
-297.4380265946152
 11
-156.8279737900324
 21
-297.4380265946152
 72
     1
 10
-156.8279737900324
 20
-297.4380265946152
 11
-156.8279737900324
 21
-298.5722987034589
 72
     1
 10
-156.8279737900324
 20
-298.5722987034589
 11
-158.020766492199
 21
-298.5722987034589
 72
     1
 10
-158.020766492199
 20
-298.5722987034589
 11
-158.020766492199
 21
-295.5184891796478
 72
     1
 10
-158.020766492199
 20
-295.5184891796478
 11
-156.8279737900324
 21
-295.5184891796478
 72
     1
 10
-156.8279737900324
 20
-295.5184891796478
 11
-156.8279737900324
 21
-296.5873225129824
 72
     1
 10
-156.8279737900324
 20
-296.5873225129824
 11
-155.778316212125
 21
-296.5873225129824
 72
     1
 10
-155.778316212125
 20
-296.5873225129824
 11
-155.778316212125
 21
-295.5184891796478
 72
     1
 10
-155.778316212125
 20
-295.5184891796478
 11
-154.5855235099585
 21
-295.5184891796478
 97
       12
330
2F7
330
2F6
330
2F5
330
2DD
330
2DE
330
2F4
330
2DF
330
2F3
330
2F2
330
2F1
330
2DB
330
2DC
 75
     1
 76
     2
 52
45.0
 41
0.1
 77
     0
 78
     1
 53
45.0
 43
62.7811309658083
 44
-72.3161373035813
 45
-0.1414213562373095
 46
0.0
 79
     0
 98
        1
 10
0.0
 20
0.0
  0
HATCH
  5
3B3
330
71
100
AcDbEntity
  8
1
  6
Continuous
 62
     2
100
AcDbHatch
 10
0.0
 20
0.0
 30
0.0
210
0.0
220
0.0
230
1.0
  2
CUSTOM25
 70
     0
 71
     1
 91
        1
 92
        1
 93
       12
 72
     1
 10
-154.5855235099585
 20
-295.5184891796478
 11
-154.5855235099585
 21
-298.5722987034589
 72
     1
 10
-154.5855235099585
 20
-298.5722987034589
 11
-155.778316212125
 21
-298.5722987034589
 72
     1
 10
-155.778316212125
 20
-298.5722987034589
 11
-155.778316212125
 21
-297.4380265946152
 72
     1
 10
-155.778316212125
 20
-297.4380265946152
 11
-156.8279737900324
 21
-297.4380265946152
 72
     1
 10
-156.8279737900324
 20
-297.4380265946152
 11
-156.8279737900324
 21
-298.5722987034589
 72
     1
 10
-156.8279737900324
 20
-298.5722987034589
 11
-158.020766492199
 21
-298.5722987034589
 72
     1
 10
-158.020766492199
 20
-298.5722987034589
 11
-158.020766492199
 21
-295.5184891796478
 72
     1
 10
-158.020766492199
 20
-295.5184891796478
 11
-156.8279737900324
 21
-295.5184891796478
 72
     1
 10
-156.8279737900324
 20
-295.5184891796478
 11
-156.8279737900324
 21
-296.5873225129824
 72
     1
 10
-156.8279737900324
 20
-296.5873225129824
 11
-155.778316212125
 21
-296.5873225129824
 72
     1
 10
-155.778316212125
 20
-296.5873225129824
 11
-155.778316212125
 21
-295.5184891796478
 72
     1
 10
-155.778316212125
 20
-295.5184891796478
 11
-154.5855235099585
 21
-295.5184891796478
 97
       12
330
2F7
330
2F6
330
2F5
330
2DD
330
2DE
330
2F4
330
2DF
330
2F3
330
2F2
330
2F1
330
2DB
330
2DC
 75
     1
 76
     2
 52
45.0
 41
0.1
 77
     0
 78
     1
 53
45.0
 43
62.7811309658083
 44
-72.3161373035813
 45
-0.1414213562373095
 46
0.0
 79
     0
 98
        1
 10
0.0
 20
0.0
  0
ENDBLK
  5
73
330
71
100
AcDbEntity
  8
0
100
AcDbBlockEnd
  0
BLOCK
  5
75
330
74
100
AcDbEntity
  8
0
100
AcDbBlockBegin
  2
_punkt
 70
     0
 10
-42.70821969616975
 20
-309.2249891796495
 30
0.0
  3
_punkt
  1

  0
LINE
  5
3B4
330
74
100
AcDbEntity
  8
1
  6
Continuous
 62
     2
100
AcDbLine
 10
-42.70821969616969
 20
-309.2249891796495
 30
0.0
 11
-42.70821969616969
 21
-314.224989179649
 31
0.0
  0
LINE
  5
3B5
330
74
100
AcDbEntity
  8
1
  6
Continuous
 62
     2
100
AcDbLine
 10
-42.70821969616969
 20
-309.2249891796495
 30
0.0
 11
-37.70821969617208
 21
-309.2249891796495
 31
0.0
  0
ENDBLK
  5
76
330
74
100
AcDbEntity
  8
0
100
AcDbBlockEnd
  0
BLOCK
  5
7A
330
77
100
AcDbEntity
  8
0
100
AcDbBlockBegin
  2
A3I_CS
 70
     0
 10
-42.70821969616969
 20
-314.224989179649
 30
0.0
  3
A3I_CS
  1

  0
INSERT
  5
78
330
77
100
AcDbEntity
  8
1
100
AcDbBlockReference
  2
_rahmen
 10
-42.70821969616969
 20
-314.224989179649
 30
0.0
  0
INSERT
  5
79
330
77
100
AcDbEntity
  8
1
100
AcDbBlockReference
  2
_punkt
 10
-42.70821969616975
 20
-309.2249891796495
 30
0.0
  0
ENDBLK
  5
7B
330
77
100
AcDbEntity
  8
0
100
AcDbBlockEnd
  0
BLOCK
  5
84
330
7C
100
AcDbEntity
  8
0
100
AcDbBlockBegin
  2
1
 70
     0
 10
0.0
 20
0.0
 30
0.0
  3
1
  1

  0
INSERT
  5
7D
330
7C
100
AcDbEntity
  8
0
100
AcDbBlockReference
  2
Back1
 10
-82.94999694855221
 20
-90.49999858203853
 30
0.0
  0
INSERT
  5
7E
330
7C
100
AcDbEntity
  8
0
100
AcDbBlockReference
  2
Front1
 10
-271.9999999996899
 20
-90.49999858203837
 30
0.0
  0
INSERT
  5
7F
330
7C
100
AcDbEntity
  8
0
100
AcDbBlockReference
  2
Gen1
 10
-145.9999999997592
 20
-198.000002336954
 30
0.0
  0
INSERT
  5
80
330
7C
100
AcDbEntity
  8
0
100
AcDbBlockReference
  2
Left1
 10
-177.474998474071
 20
-90.49999858203832
 30
0.0
  0
INSERT
  5
81
330
7C
100
AcDbEntity
  8
0
100
AcDbBlockReference
  2
Right1
 10
-380.5250015259288
 20
-90.49999858203853
 30
0.0
  0
INSERT
  5
82
330
7C
100
AcDbEntity
  8
0
100
AcDbBlockReference
  2
Top1
 10
-271.99999999969
 20
-192.0000000000496
 30
0.0
  0
INSERT
  5
83
330
7C
100
AcDbEntity
  8
0
100
AcDbBlockReference
  2
A3I_CS
 10
-42.70821969616969
 20
-314.224989179649
 30
0.0
  0
ENDBLK
  5
85
330
7C
100
AcDbEntity
  8
0
100
AcDbBlockEnd
  0
BLOCK
  5
C5
330
BE
100
AcDbEntity
  8
0
100
AcDbBlockBegin
  2
*D17
 70
     1
 10
0.0
 20
0.0
 30
0.0
  3
*D17
  1

  0
LINE
  5
BF
330
BE
100
AcDbEntity
  8
1
  6
Continuous
 62
     2
100
AcDbLine
 10
-296.8250008957176
 20
-125.8442171666607
 30
0.0
 11
-247.1750008957176
 21
-125.8442171666607
 31
0.0
  0
LINE
  5
C0
330
BE
100
AcDbEntity
  8
1
  6
Continuous
 62
     2
100
AcDbLine
 10
-296.8250008957176
 20
-104.0557424476789
 30
0.0
 11
-296.8250008957176
 21
-127.3442171666607
 31
0.0
  0
LINE
  5
C1
330
BE
100
AcDbEntity
  8
1
  6
Continuous
 62
     2
100
AcDbLine
 10
-247.1750008957176
 20
-112.3000029270159
 30
0.0
 11
-247.1750008957176
 21
-127.3442171666607
 31
0.0
  0
SOLID
  5
C2
330
BE
100
AcDbEntity
  8
1
 62
     2
100
AcDbTrace
 10
-293.3250008957176
 20
-125.3834334251048
 30
0.0
 11
-293.3250008957176
 21
-126.3050009082166
 31
0.0
 12
-296.8250008957176
 22
-125.8442171666607
 32
0.0
 13
-296.8250008957176
 23
-125.8442171666607
 33
0.0
  0
SOLID
  5
C3
330
BE
100
AcDbEntity
  8
1
 62
     2
100
AcDbTrace
 10
-250.6750008957176
 20
-126.3050009082166
 30
0.0
 11
-250.6750008957176
 21
-125.3834334251048
 31
0.0
 12
-247.1750008957176
 22
-125.8442171666607
 32
0.0
 13
-247.1750008957176
 23
-125.8442171666607
 33
0.0
  0
MTEXT
  5
C4
330
BE
100
AcDbEntity
  8
1
 62
     3
100
AcDbMText
 10
-278.1377308036929
 20
-123.9942171666607
 30
0.0
 40
3.5
 41
0.0
 71
     7
 72
     1
  1
49,65
  7
CONVERTER_11
 11
0.9999999999970619
 21
2.424068405545306E-6
 31
0.0
 73
     1
 44
0.60024009603842
  0
ENDBLK
  5
C6
330
BE
100
AcDbEntity
  8
0
100
AcDbBlockEnd
  0
BLOCK
  5
D0
330
C9
100
AcDbEntity
  8
0
100
AcDbBlockBegin
  2
*D18
 70
     1
 10
0.0
 20
0.0
 30
0.0
  3
*D18
  1

  0
LINE
  5
CA
330
C9
100
AcDbEntity
  8
1
  6
Continuous
 62
     2
100
AcDbLine
 10
-307.531438285636
 20
-112.3000029270159
 30
0.0
 11
-307.531438285636
 21
-68.70000292701592
 31
0.0
  0
LINE
  5
CB
330
C9
100
AcDbEntity
  8
1
  6
Continuous
 62
     2
100
AcDbLine
 10
-282.9250008957176
 20
-112.3000029270159
 30
0.0
 11
-309.031438285636
 21
-112.3000029270159
 31
0.0
  0
LINE
  5
CC
330
C9
100
AcDbEntity
  8
1
  6
Continuous
 62
     2
100
AcDbLine
 10
-290.1250008957176
 20
-68.70000292701592
 30
0.0
 11
-309.031438285636
 21
-68.70000292701592
 31
0.0
  0
SOLID
  5
CD
330
C9
100
AcDbEntity
  8
1
 62
     2
100
AcDbTrace
 10
-307.9922220271919
 20
-108.8000029270159
 30
0.0
 11
-307.0706545440801
 21
-108.8000029270159
 31
0.0
 12
-307.531438285636
 22
-112.3000029270159
 32
0.0
 13
-307.531438285636
 23
-112.3000029270159
 33
0.0
  0
SOLID
  5
CE
330
C9
100
AcDbEntity
  8
1
 62
     2
100
AcDbTrace
 10
-307.0706545440801
 20
-72.20000292701592
 30
0.0
 11
-307.9922220271919
 21
-72.20000292701592
 31
0.0
 12
-307.531438285636
 22
-68.70000292701592
 32
0.0
 13
-307.531438285636
 23
-68.70000292701592
 33
0.0
  0
MTEXT
  5
CF
330
C9
100
AcDbEntity
  8
1
 62
     3
100
AcDbMText
 10
-309.381438285636
 20
-93.57693776696735
 30
0.0
 40
3.5
 41
0.0
 71
     7
 72
     1
  1
43,6
  7
CONVERTER_11
 11
0.0
 21
1.0
 31
0.0
 73
     1
 44
0.60024009603842
  0
ENDBLK
  5
D1
330
C9
100
AcDbEntity
  8
0
100
AcDbBlockEnd
  0
BLOCK
  5
265
330
25E
100
AcDbEntity
  8
0
100
AcDbBlockBegin
  2
*D19
 70
     1
 10
0.0
 20
0.0
 30
0.0
  3
*D19
  1

  0
LINE
  5
25F
330
25E
100
AcDbEntity
  8
1
  6
Continuous
 62
     2
100
AcDbLine
 10
-307.531438285636
 20
-241.7000000000994
 30
0.0
 11
-307.531438285636
 21
-142.3000000000994
 31
0.0
  0
LINE
  5
260
330
25E
100
AcDbEntity
  8
1
  6
Continuous
 62
     2
100
AcDbLine
 10
-290.1250008957176
 20
-241.7000000000994
 30
0.0
 11
-309.031438285636
 21
-241.7000000000994
 31
0.0
  0
LINE
  5
261
330
25E
100
AcDbEntity
  8
1
  6
Continuous
 62
     2
100
AcDbLine
 10
-290.1250008957176
 20
-142.3000000000994
 30
0.0
 11
-309.031438285636
 21
-142.3000000000994
 31
0.0
  0
SOLID
  5
262
330
25E
100
AcDbEntity
  8
1
 62
     2
100
AcDbTrace
 10
-307.9922220271919
 20
-238.2000000000994
 30
0.0
 11
-307.0706545440801
 21
-238.2000000000994
 31
0.0
 12
-307.531438285636
 22
-241.7000000000994
 32
0.0
 13
-307.531438285636
 23
-241.7000000000994
 33
0.0
  0
SOLID
  5
263
330
25E
100
AcDbEntity
  8
1
 62
     2
100
AcDbTrace
 10
-307.0706545440801
 20
-145.8000000000994
 30
0.0
 11
-307.9922220271919
 21
-145.8000000000994
 31
0.0
 12
-307.531438285636
 22
-142.3000000000994
 32
0.0
 13
-307.531438285636
 23
-142.3000000000994
 33
0.0
  0
MTEXT
  5
264
330
25E
100
AcDbEntity
  8
1
 62
     3
100
AcDbMText
 10
-309.381438285636
 20
-197.2876218748546
 30
0.0
 40
3.5
 41
0.0
 71
     7
 72
     1
  1
99,4
  7
CONVERTER_11
 11
0.0
 21
1.0
 31
0.0
 73
     1
 44
0.60024009603842
  0
ENDBLK
  5
266
330
25E
100
AcDbEntity
  8
0
100
AcDbBlockEnd
  0
ENDSEC
  0
SECTION
  2
ENTITIES
  0
INSERT
  5
86
330
1F
100
AcDbEntity
  8
1
100
AcDbBlockReference
  2
1
 10
0.0
 20
0.0
 30
0.0
  0
ENDSEC
  0
SECTION
  2
OBJECTS
  0
DICTIONARY
  5
C
330
0
100
AcDbDictionary
281
     1
  3
ACAD_GROUP
350
D
  3
ACAD_LAYOUT
350
1A
  3
ACAD_MATERIAL
350
3B
  3
ACAD_MLEADERSTYLE
350
3DD
  3
ACAD_MLINESTYLE
350
17
  3
ACAD_PLOTSETTINGS
350
19
  3
ACAD_PLOTSTYLENAME
350
E
  3
ACAD_TABLESTYLE
350
3DC
  3
ACAD_VISUALSTYLE
350
2A
  0
DICTIONARY
  5
D
102
{ACAD_REACTORS
330
C
102
}
330
C
100
AcDbDictionary
281
     1
  0
DICTIONARY
  5
1A
102
{ACAD_REACTORS
330
C
102
}
330
C
100
AcDbDictionary
281
     1
  3
Layout1
350
1E
  3
Layout2
350
26
  3
Model
350
22
  0
DICTIONARY
  5
3B
102
{ACAD_REACTORS
330
C
102
}
330
C
100
AcDbDictionary
281
     1
  3
ByBlock
350
3D
  3
ByLayer
350
3C
  3
Global
350
3E
  0
DICTIONARY
  5
3DD
102
{ACAD_REACTORS
330
C
102
}
330
C
100
AcDbDictionary
281
     1
  0
DICTIONARY
  5
17
102
{ACAD_REACTORS
330
C
102
}
330
C
100
AcDbDictionary
281
     1
  3
Standard
350
18
  0
DICTIONARY
  5
19
102
{ACAD_REACTORS
330
C
102
}
330
C
100
AcDbDictionary
281
     1
  0
ACDBDICTIONARYWDFLT
  5
E
102
{ACAD_REACTORS
330
C
102
}
330
C
100
AcDbDictionary
281
     1
  3
Normal
350
F
100
AcDbDictionaryWithDefault
340
F
  0
DICTIONARY
  5
3DC
102
{ACAD_REACTORS
330
C
102
}
330
C
100
AcDbDictionary
281
     1
  0
DICTIONARY
  5
2A
102
{ACAD_REACTORS
330
C
102
}
330
C
100
AcDbDictionary
281
     1
  3
2dWireframe
350
2F
  3
3D Hidden
350
31
  3
3dWireframe
350
30
  3
Basic
350
32
  3
Brighten
350
36
  3
ColorChange
350
3A
  3
Conceptual
350
34
  3
Dim
350
35
  3
Facepattern
350
39
  3
Flat
350
2B
  3
FlatWithEdges
350
2C
  3
Gouraud
350
2D
  3
GouraudWithEdges
350
2E
  3
Linepattern
350
38
  3
Realistic
350
33
  3
Thicken
350
37
  0
LAYOUT
  5
1E
102
{ACAD_REACTORS
330
1A
102
}
330
1A
100
AcDbPlotSettings
  1

  2
none_device
  4

  6

 40
0.0
 41
0.0
 42
0.0
 43
0.0
 44
0.0
 45
0.0
 46
0.0
 47
0.0
 48
0.0
 49
0.0
140
0.0
141
0.0
142
1.0
143
1.0
 70
   688
 72
     0
 73
     0
 74
     5
  7

 75
    16
 76
     0
 77
     2
 78
   300
147
1.0
148
0.0
149
0.0
100
AcDbLayout
  1
Layout1
 70
     1
 71
     1
 10
0.0
 20
0.0
 11
12.0
 21
9.0
 12
0.0
 22
0.0
 32
0.0
 14
1.00000000000000E+20
 24
1.00000000000000E+20
 34
1.00000000000000E+20
 15
-1.00000000000000E+20
 25
-1.00000000000000E+20
 35
-1.00000000000000E+20
146
0.0
 13
0.0
 23
0.0
 33
0.0
 16
1.0
 26
0.0
 36
0.0
 17
0.0
 27
1.0
 37
0.0
 76
     0
330
1B
  0
LAYOUT
  5
26
102
{ACAD_REACTORS
330
1A
102
}
330
1A
100
AcDbPlotSettings
  1

  2
none_device
  4

  6

 40
0.0
 41
0.0
 42
0.0
 43
0.0
 44
0.0
 45
0.0
 46
0.0
 47
0.0
 48
0.0
 49
0.0
140
0.0
141
0.0
142
1.0
143
1.0
 70
   688
 72
     0
 73
     0
 74
     5
  7

 75
    16
 76
     0
 77
     2
 78
   300
147
1.0
148
0.0
149
0.0
100
AcDbLayout
  1
Layout2
 70
     1
 71
     2
 10
0.0
 20
0.0
 11
0.0
 21
0.0
 12
0.0
 22
0.0
 32
0.0
 14
0.0
 24
0.0
 34
0.0
 15
0.0
 25
0.0
 35
0.0
146
0.0
 13
0.0
 23
0.0
 33
0.0
 16
1.0
 26
0.0
 36
0.0
 17
0.0
 27
1.0
 37
0.0
 76
     0
330
23
  0
LAYOUT
  5
22
102
{ACAD_REACTORS
330
1A
102
}
330
1A
100
AcDbPlotSettings
  1

  2
none_device
  4

  6

 40
0.0
 41
0.0
 42
0.0
 43
0.0
 44
0.0
 45
0.0
 46
0.0
 47
0.0
 48
0.0
 49
0.0
140
0.0
141
0.0
142
1.0
143
1.0
 70
  1712
 72
     0
 73
     0
 74
     0
  7

 75
     0
 76
     0
 77
     2
 78
   300
147
1.0
148
0.0
149
0.0
100
AcDbLayout
  1
Model
 70
     1
 71
     0
 10
0.0
 20
0.0
 11
12.0
 21
9.0
 12
0.0
 22
0.0
 32
0.0
 14
-457.7082196961705
 24
-314.224989179649
 34
0.0
 15
-37.70821969617208
 25
-17.22498917964902
 35
0.0
146
0.0
 13
0.0
 23
0.0
 33
0.0
 16
1.0
 26
0.0
 36
0.0
 17
0.0
 27
1.0
 37
0.0
 76
     0
330
1F
331
29
  0
MATERIAL
  5
3D
102
{ACAD_REACTORS
330
3B
102
}
102
{ACAD_XDICTIONARY
360
3D8
102
}
330
3B
100
AcDbMaterial
  1
ByBlock
  0
MATERIAL
  5
3C
102
{ACAD_REACTORS
330
3B
102
}
102
{ACAD_XDICTIONARY
360
3D6
102
}
330
3B
100
AcDbMaterial
  1
ByLayer
  0
MATERIAL
  5
3E
102
{ACAD_REACTORS
330
3B
102
}
102
{ACAD_XDICTIONARY
360
3DA
102
}
330
3B
100
AcDbMaterial
  1
Global
  0
MLINESTYLE
  5
18
102
{ACAD_REACTORS
330
17
102
}
330
17
100
AcDbMlineStyle
  2
Standard
 70
     0
  3

 62
   256
 51
90.0
 52
90.0
 71
     2
 49
0.5
 62
   256
  6
BYLAYER
 49
-0.5
 62
   256
  6
BYLAYER
  0
ACDBPLACEHOLDER
  5
F
102
{ACAD_REACTORS
330
E
102
}
330
E
  0
VISUALSTYLE
  5
2F
102
{ACAD_REACTORS
330
2A
102
}
102
{ACAD_XDICTIONARY
360
3BE
102
}
330
2A
100
AcDbVisualStyle
  2
2dWireframe
 70
     4
 71
     0
 72
     2
 73
     0
 90
        0
 40
-0.6
 41
-30.0
 62
     5
 63
     7
421
 16777215
 74
     1
 91
        4
 64
     7
 65
   257
 75
     1
175
     1
 42
1.0
 92
        0
 66
   257
 43
1.0
 76
     1
 77
     6
 78
     2
 67
     7
 79
     5
170
     0
171
     0
290
     0
174
     0
 93
        1
 44
0.0
173
     0
291
     0
 45
0.0
1001
ACAD
1000
AcDbSavedByObjectVersion
1070
     0
  0
VISUALSTYLE
  5
31
102
{ACAD_REACTORS
330
2A
102
}
102
{ACAD_XDICTIONARY
360
3C2
102
}
330
2A
100
AcDbVisualStyle
  2
3D Hidden
 70
     6
 71
     1
 72
     2
 73
     2
 90
        0
 40
-0.6
 41
-30.0
 62
     5
 63
     7
421
 16777215
 74
     2
 91
        2
 64
     7
 65
   257
 75
     2
175
     1
 42
40.0
 92
        0
 66
   257
 43
1.0
 76
     1
 77
     6
 78
     2
 67
     7
 79
     3
170
     0
171
     0
290
     0
174
     0
 93
        1
 44
0.0
173
     0
291
     0
 45
0.0
1001
ACAD
1000
AcDbSavedByObjectVersion
1070
     0
  0
VISUALSTYLE
  5
30
102
{ACAD_REACTORS
330
2A
102
}
102
{ACAD_XDICTIONARY
360
3C0
102
}
330
2A
100
AcDbVisualStyle
  2
3dWireframe
 70
     5
 71
     0
 72
     2
 73
     0
 90
        0
 40
-0.6
 41
-30.0
 62
     5
 63
     7
421
 16777215
 74
     1
 91
        4
 64
     7
 65
   257
 75
     1
175
     1
 42
1.0
 92
        0
 66
   257
 43
1.0
 76
     1
 77
     6
 78
     2
 67
     7
 79
     5
170
     0
171
     0
290
     0
174
     0
 93
        1
 44
0.0
173
     0
291
     0
 45
0.0
1001
ACAD
1000
AcDbSavedByObjectVersion
1070
     0
  0
VISUALSTYLE
  5
32
102
{ACAD_REACTORS
330
2A
102
}
102
{ACAD_XDICTIONARY
360
3C4
102
}
330
2A
100
AcDbVisualStyle
  2
Basic
 70
     7
 71
     1
 72
     0
 73
     1
 90
        0
 40
-0.6
 41
-30.0
 62
     5
 63
     7
421
 16777215
 74
     0
 91
        4
 64
     7
 65
   257
 75
     1
175
     1
 42
1.0
 92
        8
 66
     7
 43
1.0
 76
     1
 77
     6
 78
     2
 67
     7
 79
     5
170
     0
171
     0
290
     0
174
     0
 93
        1
 44
0.0
173
     0
291
     1
 45
0.0
1001
ACAD
1000
AcDbSavedByObjectVersion
1070
     0
  0
VISUALSTYLE
  5
36
102
{ACAD_REACTORS
330
2A
102
}
102
{ACAD_XDICTIONARY
360
3CC
102
}
330
2A
100
AcDbVisualStyle
  2
Brighten
 70
    12
 71
     2
 72
     2
 73
     0
 90
        0
 40
-0.6
 41
-30.0
 62
     5
 63
     7
421
 16777215
 74
     1
 91
        4
 64
     7
 65
   257
 75
     1
175
     1
 42
1.0
 92
        8
 66
     7
 43
1.0
 76
     1
 77
     6
 78
     2
 67
     7
 79
     5
170
     0
171
     0
290
     0
174
     0
 93
        1
 44
50.0
173
     0
291
     1
 45
0.0
1001
ACAD
1000
AcDbSavedByObjectVersion
1070
     0
  0
VISUALSTYLE
  5
3A
102
{ACAD_REACTORS
330
2A
102
}
102
{ACAD_XDICTIONARY
360
3D4
102
}
330
2A
100
AcDbVisualStyle
  2
ColorChange
 70
    16
 71
     2
 72
     2
 73
     3
 90
        0
 40
-0.6
 41
-30.0
 62
     5
 63
     8
421
  8421504
 74
     1
 91
        4
 64
     7
 65
   257
 75
     1
175
     1
 42
1.0
 92
        8
 66
     8
424
  8421504
 43
1.0
 76
     1
 77
     6
 78
     2
 67
     7
 79
     5
170
     0
171
     0
290
     0
174
     0
 93
        1
 44
0.0
173
     0
291
     1
 45
0.0
1001
ACAD
1000
AcDbSavedByObjectVersion
1070
     0
  0
VISUALSTYLE
  5
34
102
{ACAD_REACTORS
330
2A
102
}
102
{ACAD_XDICTIONARY
360
3C8
102
}
330
2A
100
AcDbVisualStyle
  2
Conceptual
 70
     9
 71
     3
 72
     2
 73
     0
 90
        0
 40
-0.6
 41
-30.0
 62
     5
 63
     7
421
 16777215
 74
     2
 91
        2
 64
     7
 65
   257
 75
     1
175
     1
 42
40.0
 92
        8
 66
     7
 43
1.0
 76
     1
 77
     6
 78
     2
 67
     7
 79
     3
170
     0
171
     0
290
     0
174
     0
 93
        1
 44
0.0
173
     0
291
     0
 45
0.0
1001
ACAD
1000
AcDbSavedByObjectVersion
1070
     0
  0
VISUALSTYLE
  5
35
102
{ACAD_REACTORS
330
2A
102
}
102
{ACAD_XDICTIONARY
360
3CA
102
}
330
2A
100
AcDbVisualStyle
  2
Dim
 70
    11
 71
     2
 72
     2
 73
     0
 90
        0
 40
-0.6
 41
-30.0
 62
     5
 63
     7
421
 16777215
 74
     1
 91
        4
 64
     7
 65
   257
 75
     1
175
     1
 42
1.0
 92
        8
 66
     7
 43
1.0
 76
     1
 77
     6
 78
     2
 67
     7
 79
     5
170
     0
171
     0
290
     0
174
     0
 93
        1
 44
-50.0
173
     0
291
     1
 45
0.0
1001
ACAD
1000
AcDbSavedByObjectVersion
1070
     0
  0
VISUALSTYLE
  5
39
102
{ACAD_REACTORS
330
2A
102
}
102
{ACAD_XDICTIONARY
360
3D2
102
}
330
2A
100
AcDbVisualStyle
  2
Facepattern
 70
    15
 71
     2
 72
     2
 73
     0
 90
        0
 40
-0.6
 41
-30.0
 62
     5
 63
     7
421
 16777215
 74
     1
 91
        4
 64
     7
 65
   257
 75
     1
175
     1
 42
1.0
 92
        8
 66
     7
 43
1.0
 76
     1
 77
     6
 78
     2
 67
     7
 79
     5
170
     0
171
     0
290
     0
174
     0
 93
        1
 44
0.0
173
     0
291
     1
 45
0.0
1001
ACAD
1000
AcDbSavedByObjectVersion
1070
     0
  0
VISUALSTYLE
  5
2B
102
{ACAD_REACTORS
330
2A
102
}
102
{ACAD_XDICTIONARY
360
3B6
102
}
330
2A
100
AcDbVisualStyle
  2
Flat
 70
     0
 71
     2
 72
     1
 73
     1
 90
        2
 40
-0.6
 41
30.0
 62
     5
 63
     7
421
 16777215
 74
     0
 91
        4
 64
     7
 65
   257
 75
     1
175
     1
 42
1.0
 92
        8
 66
     7
 43
1.0
 76
     1
 77
     6
 78
     2
 67
     7
 79
     5
170
     0
171
     0
290
     0
174
     0
 93
       13
 44
0.0
173
     0
291
     1
 45
0.0
1001
ACAD
1000
AcDbSavedByObjectVersion
1070
     0
  0
VISUALSTYLE
  5
2C
102
{ACAD_REACTORS
330
2A
102
}
102
{ACAD_XDICTIONARY
360
3B8
102
}
330
2A
100
AcDbVisualStyle
  2
FlatWithEdges
 70
     1
 71
     2
 72
     1
 73
     1
 90
        2
 40
-0.6
 41
30.0
 62
     5
 63
     7
421
 16777215
 74
     1
 91
        4
 64
     7
 65
   257
 75
     1
175
     1
 42
1.0
 92
        0
 66
   257
 43
1.0
 76
     1
 77
     6
 78
     2
 67
     7
 79
     5
170
     0
171
     0
290
     0
174
     0
 93
       13
 44
0.0
173
     0
291
     1
 45
0.0
1001
ACAD
1000
AcDbSavedByObjectVersion
1070
     0
  0
VISUALSTYLE
  5
2D
102
{ACAD_REACTORS
330
2A
102
}
102
{ACAD_XDICTIONARY
360
3BA
102
}
330
2A
100
AcDbVisualStyle
  2
Gouraud
 70
     2
 71
     2
 72
     2
 73
     1
 90
        2
 40
-0.6
 41
30.0
 62
     5
 63
     7
421
 16777215
 74
     0
 91
        4
 64
     7
 65
   257
 75
     1
175
     1
 42
1.0
 92
        0
 66
     7
 43
1.0
 76
     1
 77
     6
 78
     2
 67
     7
 79
     5
170
     0
171
     0
290
     0
174
     0
 93
       13
 44
0.0
173
     0
291
     1
 45
0.0
1001
ACAD
1000
AcDbSavedByObjectVersion
1070
     0
  0
VISUALSTYLE
  5
2E
102
{ACAD_REACTORS
330
2A
102
}
102
{ACAD_XDICTIONARY
360
3BC
102
}
330
2A
100
AcDbVisualStyle
  2
GouraudWithEdges
 70
     3
 71
     2
 72
     2
 73
     1
 90
        2
 40
-0.6
 41
30.0
 62
     5
 63
     7
421
 16777215
 74
     1
 91
        4
 64
     7
 65
   257
 75
     1
175
     1
 42
1.0
 92
        0
 66
   257
 43
1.0
 76
     1
 77
     6
 78
     2
 67
     7
 79
     5
170
     0
171
     0
290
     0
174
     0
 93
       13
 44
0.0
173
     0
291
     1
 45
0.0
1001
ACAD
1000
AcDbSavedByObjectVersion
1070
     0
  0
VISUALSTYLE
  5
38
102
{ACAD_REACTORS
330
2A
102
}
102
{ACAD_XDICTIONARY
360
3D0
102
}
330
2A
100
AcDbVisualStyle
  2
Linepattern
 70
    14
 71
     2
 72
     2
 73
     0
 90
        0
 40
-0.6
 41
-30.0
 62
     5
 63
     7
421
 16777215
 74
     1
 91
        4
 64
     7
 65
   257
 75
     7
175
     7
 42
1.0
 92
        8
 66
     7
 43
1.0
 76
     1
 77
     6
 78
     2
 67
     7
 79
     5
170
     0
171
     0
290
     0
174
     0
 93
        1
 44
0.0
173
     0
291
     1
 45
0.0
1001
ACAD
1000
AcDbSavedByObjectVersion
1070
     0
  0
VISUALSTYLE
  5
33
102
{ACAD_REACTORS
330
2A
102
}
102
{ACAD_XDICTIONARY
360
3C6
102
}
330
2A
100
AcDbVisualStyle
  2
Realistic
 70
     8
 71
     2
 72
     2
 73
     0
 90
        0
 40
-0.6
 41
-30.0
 62
     5
 63
     7
421
 16777215
 74
     1
 91
        0
 64
     7
 65
   257
 75
     1
175
     1
 42
1.0
 92
        8
 66
     8
424
  7895160
 43
1.0
 76
     1
 77
     6
 78
     2
 67
     7
 79
     5
170
     0
171
     0
290
     0
174
     0
 93
       13
 44
0.0
173
     0
291
     0
 45
0.0
1001
ACAD
1000
AcDbSavedByObjectVersion
1070
     0
  0
VISUALSTYLE
  5
37
102
{ACAD_REACTORS
330
2A
102
}
102
{ACAD_XDICTIONARY
360
3CE
102
}
330
2A
100
AcDbVisualStyle
  2
Thicken
 70
    13
 71
     2
 72
     2
 73
     0
 90
        0
 40
-0.6
 41
-30.0
 62
     5
 63
     7
421
 16777215
 74
     1
 91
        4
 64
     7
 65
   257
 75
     1
175
     1
 42
1.0
 92
       12
 66
     7
 43
1.0
 76
     1
 77
     6
 78
     2
 67
     7
 79
     5
170
     0
171
     0
290
     0
174
     0
 93
        1
 44
0.0
173
     0
291
     1
 45
0.0
1001
ACAD
1000
AcDbSavedByObjectVersion
1070
     0
  0
DICTIONARY
  5
3D8
330
3D
100
AcDbDictionary
280
     1
281
     1
  3
ACAD_XREC_ROUNDTRIP
360
3D9
  0
DICTIONARY
  5
3D6
330
3C
100
AcDbDictionary
280
     1
281
     1
  3
ACAD_XREC_ROUNDTRIP
360
3D7
  0
DICTIONARY
  5
3DA
330
3E
100
AcDbDictionary
280
     1
281
     1
  3
ACAD_XREC_ROUNDTRIP
360
3DB
  0
DICTIONARY
  5
3BE
330
2F
100
AcDbDictionary
280
     1
281
     1
  3
ACAD_XREC_ROUNDTRIP
360
3BF
  0
DICTIONARY
  5
3C2
330
31
100
AcDbDictionary
280
     1
281
     1
  3
ACAD_XREC_ROUNDTRIP
360
3C3
  0
DICTIONARY
  5
3C0
330
30
100
AcDbDictionary
280
     1
281
     1
  3
ACAD_XREC_ROUNDTRIP
360
3C1
  0
DICTIONARY
  5
3C4
330
32
100
AcDbDictionary
280
     1
281
     1
  3
ACAD_XREC_ROUNDTRIP
360
3C5
  0
DICTIONARY
  5
3CC
330
36
100
AcDbDictionary
280
     1
281
     1
  3
ACAD_XREC_ROUNDTRIP
360
3CD
  0
DICTIONARY
  5
3D4
330
3A
100
AcDbDictionary
280
     1
281
     1
  3
ACAD_XREC_ROUNDTRIP
360
3D5
  0
DICTIONARY
  5
3C8
330
34
100
AcDbDictionary
280
     1
281
     1
  3
ACAD_XREC_ROUNDTRIP
360
3C9
  0
DICTIONARY
  5
3CA
330
35
100
AcDbDictionary
280
     1
281
     1
  3
ACAD_XREC_ROUNDTRIP
360
3CB
  0
DICTIONARY
  5
3D2
330
39
100
AcDbDictionary
280
     1
281
     1
  3
ACAD_XREC_ROUNDTRIP
360
3D3
  0
DICTIONARY
  5
3B6
330
2B
100
AcDbDictionary
280
     1
281
     1
  3
ACAD_XREC_ROUNDTRIP
360
3B7
  0
DICTIONARY
  5
3B8
330
2C
100
AcDbDictionary
280
     1
281
     1
  3
ACAD_XREC_ROUNDTRIP
360
3B9
  0
DICTIONARY
  5
3BA
330
2D
100
AcDbDictionary
280
     1
281
     1
  3
ACAD_XREC_ROUNDTRIP
360
3BB
  0
DICTIONARY
  5
3BC
330
2E
100
AcDbDictionary
280
     1
281
     1
  3
ACAD_XREC_ROUNDTRIP
360
3BD
  0
DICTIONARY
  5
3D0
330
38
100
AcDbDictionary
280
     1
281
     1
  3
ACAD_XREC_ROUNDTRIP
360
3D1
  0
DICTIONARY
  5
3C6
330
33
100
AcDbDictionary
280
     1
281
     1
  3
ACAD_XREC_ROUNDTRIP
360
3C7
  0
DICTIONARY
  5
3CE
330
37
100
AcDbDictionary
280
     1
281
     1
  3
ACAD_XREC_ROUNDTRIP
360
3CF
  0
XRECORD
  5
3D9
102
{ACAD_REACTORS
330
3D8
102
}
330
3D8
100
AcDbXrecord
280
     1
102
MATERIAL
148
0.0
149
0.0
149
0.0
 93
        0
 94
      127
282
     0
 72
     1
 77
     1
171
     1
175
     1
179
     1
273
     0
  0
XRECORD
  5
3D7
102
{ACAD_REACTORS
330
3D6
102
}
330
3D6
100
AcDbXrecord
280
     1
102
MATERIAL
148
0.0
149
0.0
149
0.0
 93
        0
 94
      127
282
     0
 72
     1
 77
     1
171
     1
175
     1
179
     1
273
     0
  0
XRECORD
  5
3DB
102
{ACAD_REACTORS
330
3DA
102
}
330
3DA
100
AcDbXrecord
280
     1
102
MATERIAL
148
0.0
149
0.0
149
0.0
 93
        0
 94
      127
282
     0
 72
     1
 77
     1
171
     1
175
     1
179
     1
273
     0
  0
XRECORD
  5
3BF
102
{ACAD_REACTORS
330
3BE
102
}
330
3BE
100
AcDbXrecord
280
     1
102
RTVSPropertyOp0
 70
     1
102
RTVSPropertyOp1
 70
     1
102
RTVSPropertyOp2
 70
     1
102
RTVSPropertyOp3
 70
     1
102
RTVSPropertyOp4
 70
     1
102
RTVSPropertyOp5
 70
     1
102
RTVSPropertyOp6
 70
     1
102
RTVSPropertyOp7
 70
     1
102
RTVSPropertyOp8
 70
     1
102
RTVSPropertyOp9
 70
     1
102
RTVSPropertyOp10
 70
     1
102
RTVSPropertyOp11
 70
     1
102
RTVSPropertyOp12
 70
     1
102
RTVSPropertyOp13
 70
     1
102
RTVSPropertyOp14
 70
     1
102
RTVSPropertyOp15
 70
     1
102
RTVSPropertyOp16
 70
     1
102
RTVSPropertyOp17
 70
     1
102
RTVSPropertyOp18
 70
     1
102
RTVSPropertyOp19
 70
     1
102
RTVSPropertyOp20
 70
     1
102
RTVSPropertyOp21
 70
     1
102
RTVSPropertyOp22
 70
     1
102
RTVSPropertyOp23
 70
     1
102
RTVSPropertyOp24
 70
     1
102
RTVSPropertyOp25
 70
     1
102
RTVSPropertyOp26
 70
     1
102
RTVSPropertyOp27
 70
     1
102
RTVSPropertyOp28
 70
     1
102
RTVSPropertyOp29
 70
     1
102
RTVSPropertyOp30
 70
     1
102
RTVSPropertyOp31
 70
     1
102
RTVSPropertyOp32
 70
     1
  0
XRECORD
  5
3C3
102
{ACAD_REACTORS
330
3C2
102
}
330
3C2
100
AcDbXrecord
280
     1
102
RTVSPropertyOp0
 70
     1
102
RTVSPropertyOp1
 70
     1
102
RTVSPropertyOp2
 70
     1
102
RTVSPropertyOp3
 70
     1
102
RTVSPropertyOp4
 70
     1
102
RTVSPropertyOp5
 70
     1
102
RTVSPropertyOp6
 70
     1
102
RTVSPropertyOp7
 70
     1
102
RTVSPropertyOp8
 70
     1
102
RTVSPropertyOp9
 70
     1
102
RTVSPropertyOp10
 70
     1
102
RTVSPropertyOp11
 70
     1
102
RTVSPropertyOp12
 70
     1
102
RTVSPropertyOp13
 70
     1
102
RTVSPropertyOp14
 70
     1
102
RTVSPropertyOp15
 70
     1
102
RTVSPropertyOp16
 70
     1
102
RTVSPropertyOp17
 70
     1
102
RTVSPropertyOp18
 70
     1
102
RTVSPropertyOp19
 70
     1
102
RTVSPropertyOp20
 70
     1
102
RTVSPropertyOp21
 70
     1
102
RTVSPropertyOp22
 70
     1
102
RTVSPropertyOp23
 70
     1
102
RTVSPropertyOp24
 70
     1
102
RTVSPropertyOp25
 70
     1
102
RTVSPropertyOp26
 70
     1
102
RTVSPropertyOp27
 70
     1
102
RTVSPropertyOp28
 70
     1
102
RTVSPropertyOp29
 70
     1
102
RTVSPropertyOp30
 70
     1
102
RTVSPropertyOp31
 70
     1
102
RTVSPropertyOp32
 70
     1
  0
XRECORD
  5
3C1
102
{ACAD_REACTORS
330
3C0
102
}
330
3C0
100
AcDbXrecord
280
     1
102
RTVSPropertyOp0
 70
     1
102
RTVSPropertyOp1
 70
     1
102
RTVSPropertyOp2
 70
     1
102
RTVSPropertyOp3
 70
     1
102
RTVSPropertyOp4
 70
     1
102
RTVSPropertyOp5
 70
     1
102
RTVSPropertyOp6
 70
     1
102
RTVSPropertyOp7
 70
     1
102
RTVSPropertyOp8
 70
     1
102
RTVSPropertyOp9
 70
     1
102
RTVSPropertyOp10
 70
     1
102
RTVSPropertyOp11
 70
     1
102
RTVSPropertyOp12
 70
     1
102
RTVSPropertyOp13
 70
     1
102
RTVSPropertyOp14
 70
     1
102
RTVSPropertyOp15
 70
     1
102
RTVSPropertyOp16
 70
     1
102
RTVSPropertyOp17
 70
     1
102
RTVSPropertyOp18
 70
     1
102
RTVSPropertyOp19
 70
     1
102
RTVSPropertyOp20
 70
     1
102
RTVSPropertyOp21
 70
     1
102
RTVSPropertyOp22
 70
     1
102
RTVSPropertyOp23
 70
     1
102
RTVSPropertyOp24
 70
     1
102
RTVSPropertyOp25
 70
     1
102
RTVSPropertyOp26
 70
     1
102
RTVSPropertyOp27
 70
     1
102
RTVSPropertyOp28
 70
     1
102
RTVSPropertyOp29
 70
     1
102
RTVSPropertyOp30
 70
     1
102
RTVSPropertyOp31
 70
     1
102
RTVSPropertyOp32
 70
     1
  0
XRECORD
  5
3C5
102
{ACAD_REACTORS
330
3C4
102
}
330
3C4
100
AcDbXrecord
280
     1
102
RTVSPropertyOp0
 70
     1
102
RTVSPropertyOp1
 70
     1
102
RTVSPropertyOp2
 70
     1
102
RTVSPropertyOp3
 70
     1
102
RTVSPropertyOp4
 70
     1
102
RTVSPropertyOp5
 70
     1
102
RTVSPropertyOp6
 70
     1
102
RTVSPropertyOp7
 70
     1
102
RTVSPropertyOp8
 70
     1
102
RTVSPropertyOp9
 70
     1
102
RTVSPropertyOp10
 70
     1
102
RTVSPropertyOp11
 70
     1
102
RTVSPropertyOp12
 70
     1
102
RTVSPropertyOp13
 70
     1
102
RTVSPropertyOp14
 70
     1
102
RTVSPropertyOp15
 70
     1
102
RTVSPropertyOp16
 70
     1
102
RTVSPropertyOp17
 70
     1
102
RTVSPropertyOp18
 70
     1
102
RTVSPropertyOp19
 70
     1
102
RTVSPropertyOp20
 70
     1
102
RTVSPropertyOp21
 70
     1
102
RTVSPropertyOp22
 70
     1
102
RTVSPropertyOp23
 70
     1
102
RTVSPropertyOp24
 70
     1
102
RTVSPropertyOp25
 70
     1
102
RTVSPropertyOp26
 70
     1
102
RTVSPropertyOp27
 70
     1
102
RTVSPropertyOp28
 70
     1
102
RTVSPropertyOp29
 70
     1
102
RTVSPropertyOp30
 70
     1
102
RTVSPropertyOp31
 70
     1
102
RTVSPropertyOp32
 70
     1
  0
XRECORD
  5
3CD
102
{ACAD_REACTORS
330
3CC
102
}
330
3CC
100
AcDbXrecord
280
     1
102
RTVSPropertyOp0
 70
     1
102
RTVSPropertyOp1
 70
     1
102
RTVSPropertyOp2
 70
     1
102
RTVSPropertyOp3
 70
     1
102
RTVSPropertyOp4
 70
     1
102
RTVSPropertyOp5
 70
     1
102
RTVSPropertyOp6
 70
     1
102
RTVSPropertyOp7
 70
     1
102
RTVSPropertyOp8
 70
     1
102
RTVSPropertyOp9
 70
     1
102
RTVSPropertyOp10
 70
     1
102
RTVSPropertyOp11
 70
     1
102
RTVSPropertyOp12
 70
     1
102
RTVSPropertyOp13
 70
     1
102
RTVSPropertyOp14
 70
     1
102
RTVSPropertyOp15
 70
     1
102
RTVSPropertyOp16
 70
     1
102
RTVSPropertyOp17
 70
     1
102
RTVSPropertyOp18
 70
     1
102
RTVSPropertyOp19
 70
     1
102
RTVSPropertyOp20
 70
     1
102
RTVSPropertyOp21
 70
     1
102
RTVSPropertyOp22
 70
     1
102
RTVSPropertyOp23
 70
     1
102
RTVSPropertyOp24
 70
     1
102
RTVSPropertyOp25
 70
     1
102
RTVSPropertyOp26
 70
     1
102
RTVSPropertyOp27
 70
     1
102
RTVSPropertyOp28
 70
     1
102
RTVSPropertyOp29
 70
     1
102
RTVSPropertyOp30
 70
     1
102
RTVSPropertyOp31
 70
     1
102
RTVSPropertyOp32
 70
     1
  0
XRECORD
  5
3D5
102
{ACAD_REACTORS
330
3D4
102
}
330
3D4
100
AcDbXrecord
280
     1
102
RTVSPropertyOp0
 70
     1
102
RTVSPropertyOp1
 70
     1
102
RTVSPropertyOp2
 70
     1
102
RTVSPropertyOp3
 70
     1
102
RTVSPropertyOp4
 70
     1
102
RTVSPropertyOp5
 70
     1
102
RTVSPropertyOp6
 70
     1
102
RTVSPropertyOp7
 70
     1
102
RTVSPropertyOp8
 70
     1
102
RTVSPropertyOp9
 70
     1
102
RTVSPropertyOp10
 70
     1
102
RTVSPropertyOp11
 70
     1
102
RTVSPropertyOp12
 70
     1
102
RTVSPropertyOp13
 70
     1
102
RTVSPropertyOp14
 70
     1
102
RTVSPropertyOp15
 70
     1
102
RTVSPropertyOp16
 70
     1
102
RTVSPropertyOp17
 70
     1
102
RTVSPropertyOp18
 70
     1
102
RTVSPropertyOp19
 70
     1
102
RTVSPropertyOp20
 70
     1
102
RTVSPropertyOp21
 70
     1
102
RTVSPropertyOp22
 70
     1
102
RTVSPropertyOp23
 70
     1
102
RTVSPropertyOp24
 70
     1
102
RTVSPropertyOp25
 70
     1
102
RTVSPropertyOp26
 70
     1
102
RTVSPropertyOp27
 70
     1
102
RTVSPropertyOp28
 70
     1
102
RTVSPropertyOp29
 70
     1
102
RTVSPropertyOp30
 70
     1
102
RTVSPropertyOp31
 70
     1
102
RTVSPropertyOp32
 70
     1
  0
XRECORD
  5
3C9
102
{ACAD_REACTORS
330
3C8
102
}
330
3C8
100
AcDbXrecord
280
     1
102
RTVSPropertyOp0
 70
     1
102
RTVSPropertyOp1
 70
     1
102
RTVSPropertyOp2
 70
     1
102
RTVSPropertyOp3
 70
     1
102
RTVSPropertyOp4
 70
     1
102
RTVSPropertyOp5
 70
     1
102
RTVSPropertyOp6
 70
     1
102
RTVSPropertyOp7
 70
     1
102
RTVSPropertyOp8
 70
     1
102
RTVSPropertyOp9
 70
     1
102
RTVSPropertyOp10
 70
     1
102
RTVSPropertyOp11
 70
     1
102
RTVSPropertyOp12
 70
     1
102
RTVSPropertyOp13
 70
     1
102
RTVSPropertyOp14
 70
     1
102
RTVSPropertyOp15
 70
     1
102
RTVSPropertyOp16
 70
     1
102
RTVSPropertyOp17
 70
     1
102
RTVSPropertyOp18
 70
     1
102
RTVSPropertyOp19
 70
     1
102
RTVSPropertyOp20
 70
     1
102
RTVSPropertyOp21
 70
     1
102
RTVSPropertyOp22
 70
     1
102
RTVSPropertyOp23
 70
     1
102
RTVSPropertyOp24
 70
     1
102
RTVSPropertyOp25
 70
     1
102
RTVSPropertyOp26
 70
     1
102
RTVSPropertyOp27
 70
     1
102
RTVSPropertyOp28
 70
     1
102
RTVSPropertyOp29
 70
     1
102
RTVSPropertyOp30
 70
     1
102
RTVSPropertyOp31
 70
     1
102
RTVSPropertyOp32
 70
     1
  0
XRECORD
  5
3CB
102
{ACAD_REACTORS
330
3CA
102
}
330
3CA
100
AcDbXrecord
280
     1
102
RTVSPropertyOp0
 70
     1
102
RTVSPropertyOp1
 70
     1
102
RTVSPropertyOp2
 70
     1
102
RTVSPropertyOp3
 70
     1
102
RTVSPropertyOp4
 70
     1
102
RTVSPropertyOp5
 70
     1
102
RTVSPropertyOp6
 70
     1
102
RTVSPropertyOp7
 70
     1
102
RTVSPropertyOp8
 70
     1
102
RTVSPropertyOp9
 70
     1
102
RTVSPropertyOp10
 70
     1
102
RTVSPropertyOp11
 70
     1
102
RTVSPropertyOp12
 70
     1
102
RTVSPropertyOp13
 70
     1
102
RTVSPropertyOp14
 70
     1
102
RTVSPropertyOp15
 70
     1
102
RTVSPropertyOp16
 70
     1
102
RTVSPropertyOp17
 70
     1
102
RTVSPropertyOp18
 70
     1
102
RTVSPropertyOp19
 70
     1
102
RTVSPropertyOp20
 70
     1
102
RTVSPropertyOp21
 70
     1
102
RTVSPropertyOp22
 70
     1
102
RTVSPropertyOp23
 70
     1
102
RTVSPropertyOp24
 70
     1
102
RTVSPropertyOp25
 70
     1
102
RTVSPropertyOp26
 70
     1
102
RTVSPropertyOp27
 70
     1
102
RTVSPropertyOp28
 70
     1
102
RTVSPropertyOp29
 70
     1
102
RTVSPropertyOp30
 70
     1
102
RTVSPropertyOp31
 70
     1
102
RTVSPropertyOp32
 70
     1
  0
XRECORD
  5
3D3
102
{ACAD_REACTORS
330
3D2
102
}
330
3D2
100
AcDbXrecord
280
     1
102
RTVSPropertyOp0
 70
     1
102
RTVSPropertyOp1
 70
     1
102
RTVSPropertyOp2
 70
     1
102
RTVSPropertyOp3
 70
     1
102
RTVSPropertyOp4
 70
     1
102
RTVSPropertyOp5
 70
     1
102
RTVSPropertyOp6
 70
     1
102
RTVSPropertyOp7
 70
     1
102
RTVSPropertyOp8
 70
     1
102
RTVSPropertyOp9
 70
     1
102
RTVSPropertyOp10
 70
     1
102
RTVSPropertyOp11
 70
     1
102
RTVSPropertyOp12
 70
     1
102
RTVSPropertyOp13
 70
     1
102
RTVSPropertyOp14
 70
     1
102
RTVSPropertyOp15
 70
     1
102
RTVSPropertyOp16
 70
     1
102
RTVSPropertyOp17
 70
     1
102
RTVSPropertyOp18
 70
     1
102
RTVSPropertyOp19
 70
     1
102
RTVSPropertyOp20
 70
     1
102
RTVSPropertyOp21
 70
     1
102
RTVSPropertyOp22
 70
     1
102
RTVSPropertyOp23
 70
     1
102
RTVSPropertyOp24
 70
     1
102
RTVSPropertyOp25
 70
     1
102
RTVSPropertyOp26
 70
     1
102
RTVSPropertyOp27
 70
     1
102
RTVSPropertyOp28
 70
     1
102
RTVSPropertyOp29
 70
     1
102
RTVSPropertyOp30
 70
     1
102
RTVSPropertyOp31
 70
     1
102
RTVSPropertyOp32
 70
     1
  0
XRECORD
  5
3B7
102
{ACAD_REACTORS
330
3B6
102
}
330
3B6
100
AcDbXrecord
280
     1
102
RTVSPropertyOp0
 70
     1
102
RTVSPropertyOp1
 70
     1
102
RTVSPropertyOp2
 70
     1
102
RTVSPropertyOp3
 70
     1
102
RTVSPropertyOp4
 70
     1
102
RTVSPropertyOp5
 70
     1
102
RTVSPropertyOp6
 70
     1
102
RTVSPropertyOp7
 70
     1
102
RTVSPropertyOp8
 70
     1
102
RTVSPropertyOp9
 70
     1
102
RTVSPropertyOp10
 70
     1
102
RTVSPropertyOp11
 70
     1
102
RTVSPropertyOp12
 70
     1
102
RTVSPropertyOp13
 70
     1
102
RTVSPropertyOp14
 70
     1
102
RTVSPropertyOp15
 70
     1
102
RTVSPropertyOp16
 70
     1
102
RTVSPropertyOp17
 70
     1
102
RTVSPropertyOp18
 70
     1
102
RTVSPropertyOp19
 70
     1
102
RTVSPropertyOp20
 70
     1
102
RTVSPropertyOp21
 70
     1
102
RTVSPropertyOp22
 70
     1
102
RTVSPropertyOp23
 70
     1
102
RTVSPropertyOp24
 70
     1
102
RTVSPropertyOp25
 70
     1
102
RTVSPropertyOp26
 70
     1
102
RTVSPropertyOp27
 70
     1
102
RTVSPropertyOp28
 70
     1
102
RTVSPropertyOp29
 70
     1
102
RTVSPropertyOp30
 70
     1
102
RTVSPropertyOp31
 70
     1
102
RTVSPropertyOp32
 70
     1
  0
XRECORD
  5
3B9
102
{ACAD_REACTORS
330
3B8
102
}
330
3B8
100
AcDbXrecord
280
     1
102
RTVSPropertyOp0
 70
     1
102
RTVSPropertyOp1
 70
     1
102
RTVSPropertyOp2
 70
     1
102
RTVSPropertyOp3
 70
     1
102
RTVSPropertyOp4
 70
     1
102
RTVSPropertyOp5
 70
     1
102
RTVSPropertyOp6
 70
     1
102
RTVSPropertyOp7
 70
     1
102
RTVSPropertyOp8
 70
     1
102
RTVSPropertyOp9
 70
     1
102
RTVSPropertyOp10
 70
     1
102
RTVSPropertyOp11
 70
     1
102
RTVSPropertyOp12
 70
     1
102
RTVSPropertyOp13
 70
     1
102
RTVSPropertyOp14
 70
     1
102
RTVSPropertyOp15
 70
     1
102
RTVSPropertyOp16
 70
     1
102
RTVSPropertyOp17
 70
     1
102
RTVSPropertyOp18
 70
     1
102
RTVSPropertyOp19
 70
     1
102
RTVSPropertyOp20
 70
     1
102
RTVSPropertyOp21
 70
     1
102
RTVSPropertyOp22
 70
     1
102
RTVSPropertyOp23
 70
     1
102
RTVSPropertyOp24
 70
     1
102
RTVSPropertyOp25
 70
     1
102
RTVSPropertyOp26
 70
     1
102
RTVSPropertyOp27
 70
     1
102
RTVSPropertyOp28
 70
     1
102
RTVSPropertyOp29
 70
     1
102
RTVSPropertyOp30
 70
     1
102
RTVSPropertyOp31
 70
     1
102
RTVSPropertyOp32
 70
     1
  0
XRECORD
  5
3BB
102
{ACAD_REACTORS
330
3BA
102
}
330
3BA
100
AcDbXrecord
280
     1
102
RTVSPropertyOp0
 70
     1
102
RTVSPropertyOp1
 70
     1
102
RTVSPropertyOp2
 70
     1
102
RTVSPropertyOp3
 70
     1
102
RTVSPropertyOp4
 70
     1
102
RTVSPropertyOp5
 70
     1
102
RTVSPropertyOp6
 70
     1
102
RTVSPropertyOp7
 70
     1
102
RTVSPropertyOp8
 70
     1
102
RTVSPropertyOp9
 70
     1
102
RTVSPropertyOp10
 70
     1
102
RTVSPropertyOp11
 70
     1
102
RTVSPropertyOp12
 70
     1
102
RTVSPropertyOp13
 70
     1
102
RTVSPropertyOp14
 70
     1
102
RTVSPropertyOp15
 70
     1
102
RTVSPropertyOp16
 70
     1
102
RTVSPropertyOp17
 70
     1
102
RTVSPropertyOp18
 70
     1
102
RTVSPropertyOp19
 70
     1
102
RTVSPropertyOp20
 70
     1
102
RTVSPropertyOp21
 70
     1
102
RTVSPropertyOp22
 70
     1
102
RTVSPropertyOp23
 70
     1
102
RTVSPropertyOp24
 70
     1
102
RTVSPropertyOp25
 70
     1
102
RTVSPropertyOp26
 70
     1
102
RTVSPropertyOp27
 70
     1
102
RTVSPropertyOp28
 70
     1
102
RTVSPropertyOp29
 70
     1
102
RTVSPropertyOp30
 70
     1
102
RTVSPropertyOp31
 70
     1
102
RTVSPropertyOp32
 70
     1
  0
XRECORD
  5
3BD
102
{ACAD_REACTORS
330
3BC
102
}
330
3BC
100
AcDbXrecord
280
     1
102
RTVSPropertyOp0
 70
     1
102
RTVSPropertyOp1
 70
     1
102
RTVSPropertyOp2
 70
     1
102
RTVSPropertyOp3
 70
     1
102
RTVSPropertyOp4
 70
     1
102
RTVSPropertyOp5
 70
     1
102
RTVSPropertyOp6
 70
     1
102
RTVSPropertyOp7
 70
     1
102
RTVSPropertyOp8
 70
     1
102
RTVSPropertyOp9
 70
     1
102
RTVSPropertyOp10
 70
     1
102
RTVSPropertyOp11
 70
     1
102
RTVSPropertyOp12
 70
     1
102
RTVSPropertyOp13
 70
     1
102
RTVSPropertyOp14
 70
     1
102
RTVSPropertyOp15
 70
     1
102
RTVSPropertyOp16
 70
     1
102
RTVSPropertyOp17
 70
     1
102
RTVSPropertyOp18
 70
     1
102
RTVSPropertyOp19
 70
     1
102
RTVSPropertyOp20
 70
     1
102
RTVSPropertyOp21
 70
     1
102
RTVSPropertyOp22
 70
     1
102
RTVSPropertyOp23
 70
     1
102
RTVSPropertyOp24
 70
     1
102
RTVSPropertyOp25
 70
     1
102
RTVSPropertyOp26
 70
     1
102
RTVSPropertyOp27
 70
     1
102
RTVSPropertyOp28
 70
     1
102
RTVSPropertyOp29
 70
     1
102
RTVSPropertyOp30
 70
     1
102
RTVSPropertyOp31
 70
     1
102
RTVSPropertyOp32
 70
     1
  0
XRECORD
  5
3D1
102
{ACAD_REACTORS
330
3D0
102
}
330
3D0
100
AcDbXrecord
280
     1
102
RTVSPropertyOp0
 70
     1
102
RTVSPropertyOp1
 70
     1
102
RTVSPropertyOp2
 70
     1
102
RTVSPropertyOp3
 70
     1
102
RTVSPropertyOp4
 70
     1
102
RTVSPropertyOp5
 70
     1
102
RTVSPropertyOp6
 70
     1
102
RTVSPropertyOp7
 70
     1
102
RTVSPropertyOp8
 70
     1
102
RTVSPropertyOp9
 70
     1
102
RTVSPropertyOp10
 70
     1
102
RTVSPropertyOp11
 70
     1
102
RTVSPropertyOp12
 70
     1
102
RTVSPropertyOp13
 70
     1
102
RTVSPropertyOp14
 70
     1
102
RTVSPropertyOp15
 70
     1
102
RTVSPropertyOp16
 70
     1
102
RTVSPropertyOp17
 70
     1
102
RTVSPropertyOp18
 70
     1
102
RTVSPropertyOp19
 70
     1
102
RTVSPropertyOp20
 70
     1
102
RTVSPropertyOp21
 70
     1
102
RTVSPropertyOp22
 70
     1
102
RTVSPropertyOp23
 70
     1
102
RTVSPropertyOp24
 70
     1
102
RTVSPropertyOp25
 70
     1
102
RTVSPropertyOp26
 70
     1
102
RTVSPropertyOp27
 70
     1
102
RTVSPropertyOp28
 70
     1
102
RTVSPropertyOp29
 70
     1
102
RTVSPropertyOp30
 70
     1
102
RTVSPropertyOp31
 70
     1
102
RTVSPropertyOp32
 70
     1
  0
XRECORD
  5
3C7
102
{ACAD_REACTORS
330
3C6
102
}
330
3C6
100
AcDbXrecord
280
     1
102
RTVSPropertyOp0
 70
     1
102
RTVSPropertyOp1
 70
     1
102
RTVSPropertyOp2
 70
     1
102
RTVSPropertyOp3
 70
     1
102
RTVSPropertyOp4
 70
     1
102
RTVSPropertyOp5
 70
     1
102
RTVSPropertyOp6
 70
     1
102
RTVSPropertyOp7
 70
     1
102
RTVSPropertyOp8
 70
     1
102
RTVSPropertyOp9
 70
     1
102
RTVSPropertyOp10
 70
     1
102
RTVSPropertyOp11
 70
     1
102
RTVSPropertyOp12
 70
     1
102
RTVSPropertyOp13
 70
     1
102
RTVSPropertyOp14
 70
     1
102
RTVSPropertyOp15
 70
     1
102
RTVSPropertyOp16
 70
     1
102
RTVSPropertyOp17
 70
     1
102
RTVSPropertyOp18
 70
     1
102
RTVSPropertyOp19
 70
     1
102
RTVSPropertyOp20
 70
     1
102
RTVSPropertyOp21
 70
     1
102
RTVSPropertyOp22
 70
     1
102
RTVSPropertyOp23
 70
     1
102
RTVSPropertyOp24
 70
     1
102
RTVSPropertyOp25
 70
     1
102
RTVSPropertyOp26
 70
     1
102
RTVSPropertyOp27
 70
     1
102
RTVSPropertyOp28
 70
     1
102
RTVSPropertyOp29
 70
     1
102
RTVSPropertyOp30
 70
     1
102
RTVSPropertyOp31
 70
     1
102
RTVSPropertyOp32
 70
     1
  0
XRECORD
  5
3CF
102
{ACAD_REACTORS
330
3CE
102
}
330
3CE
100
AcDbXrecord
280
     1
102
RTVSPropertyOp0
 70
     1
102
RTVSPropertyOp1
 70
     1
102
RTVSPropertyOp2
 70
     1
102
RTVSPropertyOp3
 70
     1
102
RTVSPropertyOp4
 70
     1
102
RTVSPropertyOp5
 70
     1
102
RTVSPropertyOp6
 70
     1
102
RTVSPropertyOp7
 70
     1
102
RTVSPropertyOp8
 70
     1
102
RTVSPropertyOp9
 70
     1
102
RTVSPropertyOp10
 70
     1
102
RTVSPropertyOp11
 70
     1
102
RTVSPropertyOp12
 70
     1
102
RTVSPropertyOp13
 70
     1
102
RTVSPropertyOp14
 70
     1
102
RTVSPropertyOp15
 70
     1
102
RTVSPropertyOp16
 70
     1
102
RTVSPropertyOp17
 70
     1
102
RTVSPropertyOp18
 70
     1
102
RTVSPropertyOp19
 70
     1
102
RTVSPropertyOp20
 70
     1
102
RTVSPropertyOp21
 70
     1
102
RTVSPropertyOp22
 70
     1
102
RTVSPropertyOp23
 70
     1
102
RTVSPropertyOp24
 70
     1
102
RTVSPropertyOp25
 70
     1
102
RTVSPropertyOp26
 70
     1
102
RTVSPropertyOp27
 70
     1
102
RTVSPropertyOp28
 70
     1
102
RTVSPropertyOp29
 70
     1
102
RTVSPropertyOp30
 70
     1
102
RTVSPropertyOp31
 70
     1
102
RTVSPropertyOp32
 70
     1
  0
ENDSEC
  0
EOF
