  0
SECTION
  2
HEADER
  9
$ACADVER
  1
AC1018
  9
$ACADMAINTVER
 70
     0
  9
$DWGCODEPAGE
  3
ANSI_1252
  9
$INSBASE
 10
0.0
 20
0.0
 30
0.0
  9
$EXTMIN
 10
-1257.735718023062
 20
-1208.815923691551
 30
0.0
  9
$EXTMAX
 10
-837.7357180230638
 20
-911.8159236915508
 30
0.0
  9
$LIMMIN
 10
0.0
 20
0.0
  9
$LIMMAX
 10
12.0
 20
9.0
  9
$ORTHOMODE
 70
     0
  9
$REGENMODE
 70
     1
  9
$FILLMODE
 70
     1
  9
$QTEXTMODE
 70
     0
  9
$MIRRTEXT
 70
     1
  9
$LTSCALE
 40
1.0
  9
$ATTMODE
 70
     1
  9
$TEXTSIZE
 40
0.2
  9
$TRACEWID
 40
0.05
  9
$TEXTSTYLE
  7
Standard
  9
$CLAYER
  8
0
  9
$CELTYPE
  6
ByLayer
  9
$CECOLOR
 62
   256
  9
$CELTSCALE
 40
1.0
  9
$DISPSILH
 70
     0
  9
$DIMSCALE
 40
1.0
  9
$DIMASZ
 40
0.18
  9
$DIMEXO
 40
0.0625
  9
$DIMDLI
 40
0.38
  9
$DIMRND
 40
0.0
  9
$DIMDLE
 40
0.0
  9
$DIMEXE
 40
0.18
  9
$DIMTP
 40
0.0
  9
$DIMTM
 40
0.0
  9
$DIMTXT
 40
0.18
  9
$DIMCEN
 40
0.09
  9
$DIMTSZ
 40
0.0
  9
$DIMTOL
 70
     0
  9
$DIMLIM
 70
     0
  9
$DIMTIH
 70
     1
  9
$DIMTOH
 70
     1
  9
$DIMSE1
 70
     0
  9
$DIMSE2
 70
     0
  9
$DIMTAD
 70
     0
  9
$DIMZIN
 70
     0
  9
$DIMBLK
  1

  9
$DIMASO
 70
     1
  9
$DIMSHO
 70
     1
  9
$DIMPOST
  1

  9
$DIMAPOST
  1

  9
$DIMALT
 70
     0
  9
$DIMALTD
 70
     2
  9
$DIMALTF
 40
25.4
  9
$DIMLFAC
 40
1.0
  9
$DIMTOFL
 70
     0
  9
$DIMTVP
 40
0.0
  9
$DIMTIX
 70
     0
  9
$DIMSOXD
 70
     0
  9
$DIMSAH
 70
     0
  9
$DIMBLK1
  1

  9
$DIMBLK2
  1

  9
$DIMSTYLE
  2
Standard
  9
$DIMCLRD
 70
     0
  9
$DIMCLRE
 70
     0
  9
$DIMCLRT
 70
     0
  9
$DIMTFAC
 40
1.0
  9
$DIMGAP
 40
0.09
  9
$DIMJUST
 70
     0
  9
$DIMSD1
 70
     0
  9
$DIMSD2
 70
     0
  9
$DIMTOLJ
 70
     1
  9
$DIMTZIN
 70
     0
  9
$DIMALTZ
 70
     0
  9
$DIMALTTZ
 70
     0
  9
$DIMUPT
 70
     0
  9
$DIMDEC
 70
     4
  9
$DIMTDEC
 70
     4
  9
$DIMALTU
 70
     2
  9
$DIMALTTD
 70
     2
  9
$DIMTXSTY
  7
Standard
  9
$DIMAUNIT
 70
     0
  9
$DIMADEC
 70
     0
  9
$DIMALTRND
 40
0.0
  9
$DIMAZIN
 70
     0
  9
$DIMDSEP
 70
    46
  9
$DIMATFIT
 70
     3
  9
$DIMFRAC
 70
     0
  9
$DIMLDRBLK
  1

  9
$DIMLUNIT
 70
     2
  9
$DIMLWD
 70
    -2
  9
$DIMLWE
 70
    -2
  9
$DIMTMOVE
 70
     0
  9
$LUNITS
 70
     2
  9
$LUPREC
 70
     4
  9
$SKETCHINC
 40
0.1
  9
$FILLETRAD
 40
0.5
  9
$AUNITS
 70
     0
  9
$AUPREC
 70
     0
  9
$MENU
  1
.
  9
$ELEVATION
 40
0.0
  9
$PELEVATION
 40
0.0
  9
$THICKNESS
 40
0.0
  9
$LIMCHECK
 70
     0
  9
$CHAMFERA
 40
0.5
  9
$CHAMFERB
 40
0.5
  9
$CHAMFERC
 40
1.0
  9
$CHAMFERD
 40
0.0
  9
$SKPOLY
 70
     0
  9
$TDCREATE
 40
2458146.398592164
  9
$TDUCREATE
 40
2458146.356925498
  9
$TDUPDATE
 40
2458146.398592708
  9
$TDUUPDATE
 40
2458146.356926042
  9
$TDINDWG
 40
0.0000000116
  9
$TDUSRTIMER
 40
0.0000000116
  9
$USRTIMER
 70
     1
  9
$ANGBASE
 50
0.0
  9
$ANGDIR
 70
     0
  9
$PDMODE
 70
     0
  9
$PDSIZE
 40
0.0
  9
$PLINEWID
 40
0.0
  9
$SPLFRAME
 70
     0
  9
$SPLINETYPE
 70
     6
  9
$SPLINESEGS
 70
     8
  9
$HANDSEED
  5
3CA
  9
$SURFTAB1
 70
     6
  9
$SURFTAB2
 70
     6
  9
$SURFTYPE
 70
     6
  9
$SURFU
 70
     6
  9
$SURFV
 70
     6
  9
$UCSBASE
  2

  9
$UCSNAME
  2

  9
$UCSORG
 10
0.0
 20
0.0
 30
0.0
  9
$UCSXDIR
 10
1.0
 20
0.0
 30
0.0
  9
$UCSYDIR
 10
0.0
 20
1.0
 30
0.0
  9
$UCSORTHOREF
  2

  9
$UCSORTHOVIEW
 70
     0
  9
$UCSORGTOP
 10
0.0
 20
0.0
 30
0.0
  9
$UCSORGBOTTOM
 10
0.0
 20
0.0
 30
0.0
  9
$UCSORGLEFT
 10
0.0
 20
0.0
 30
0.0
  9
$UCSORGRIGHT
 10
0.0
 20
0.0
 30
0.0
  9
$UCSORGFRONT
 10
0.0
 20
0.0
 30
0.0
  9
$UCSORGBACK
 10
0.0
 20
0.0
 30
0.0
  9
$PUCSBASE
  2

  9
$PUCSNAME
  2

  9
$PUCSORG
 10
0.0
 20
0.0
 30
0.0
  9
$PUCSXDIR
 10
1.0
 20
0.0
 30
0.0
  9
$PUCSYDIR
 10
0.0
 20
1.0
 30
0.0
  9
$PUCSORTHOREF
  2

  9
$PUCSORTHOVIEW
 70
     0
  9
$PUCSORGTOP
 10
0.0
 20
0.0
 30
0.0
  9
$PUCSORGBOTTOM
 10
0.0
 20
0.0
 30
0.0
  9
$PUCSORGLEFT
 10
0.0
 20
0.0
 30
0.0
  9
$PUCSORGRIGHT
 10
0.0
 20
0.0
 30
0.0
  9
$PUCSORGFRONT
 10
0.0
 20
0.0
 30
0.0
  9
$PUCSORGBACK
 10
0.0
 20
0.0
 30
0.0
  9
$USERI1
 70
     0
  9
$USERI2
 70
     0
  9
$USERI3
 70
     0
  9
$USERI4
 70
     0
  9
$USERI5
 70
     0
  9
$USERR1
 40
18.1
  9
$USERR2
 40
0.0
  9
$USERR3
 40
0.0
  9
$USERR4
 40
0.0
  9
$USERR5
 40
0.0
  9
$WORLDVIEW
 70
     1
  9
$SHADEDGE
 70
     3
  9
$SHADEDIF
 70
    70
  9
$TILEMODE
 70
     1
  9
$MAXACTVP
 70
    64
  9
$PINSBASE
 10
0.0
 20
0.0
 30
0.0
  9
$PLIMCHECK
 70
     0
  9
$PEXTMIN
 10
1.00000000000000E+20
 20
1.00000000000000E+20
 30
1.00000000000000E+20
  9
$PEXTMAX
 10
-1.00000000000000E+20
 20
-1.00000000000000E+20
 30
-1.00000000000000E+20
  9
$PLIMMIN
 10
0.0
 20
0.0
  9
$PLIMMAX
 10
12.0
 20
9.0
  9
$UNITMODE
 70
     0
  9
$VISRETAIN
 70
     1
  9
$PLINEGEN
 70
     0
  9
$PSLTSCALE
 70
     1
  9
$TREEDEPTH
 70
  3020
  9
$CMLSTYLE
  2
Standard
  9
$CMLJUST
 70
     0
  9
$CMLSCALE
 40
1.0
  9
$PROXYGRAPHICS
 70
     1
  9
$MEASUREMENT
 70
     1
  9
$CELWEIGHT
370
    -1
  9
$ENDCAPS
280
     0
  9
$JOINSTYLE
280
     0
  9
$LWDISPLAY
290
     0
  9
$INSUNITS
 70
     4
  9
$HYPERLINKBASE
  1

  9
$STYLESHEET
  1

  9
$XEDIT
290
     1
  9
$CEPSNTYPE
380
     0
  9
$PSTYLEMODE
290
     1
  9
$FINGERPRINTGUID
  2
{AE8D31BD-AB20-45CF-B3C9-6ED93AB257E2}
  9
$VERSIONGUID
  2
{FAEB1C32-E019-11D5-929B-00C0DF256EC4}
  9
$EXTNAMES
290
     1
  9
$PSVPSCALE
 40
0.0
  9
$OLESTARTUP
290
     0
  9
$SORTENTS
280
   127
  9
$INDEXCTL
280
     0
  9
$HIDETEXT
280
     1
  9
$XCLIPFRAME
290
     0
  9
$HALOGAP
280
     0
  9
$OBSCOLOR
 70
   257
  9
$OBSLTYPE
280
     0
  9
$INTERSECTIONDISPLAY
280
     0
  9
$INTERSECTIONCOLOR
 70
   257
  9
$DIMASSOC
280
     2
  9
$PROJECTNAME
  1

  0
ENDSEC
  0
SECTION
  2
CLASSES
  0
CLASS
  1
ACDBDICTIONARYWDFLT
  2
AcDbDictionaryWithDefault
  3
ObjectDBX Classes
 90
        0
 91
        4
280
     0
281
     0
  0
CLASS
  1
VISUALSTYLE
  2
AcDbVisualStyle
  3
ObjectDBX Classes
 90
     4095
 91
        4
280
     0
281
     0
  0
CLASS
  1
MATERIAL
  2
AcDbMaterial
  3
ObjectDBX Classes
 90
     1153
 91
        4
280
     0
281
     0
  0
ENDSEC
  0
SECTION
  2
TABLES
  0
TABLE
  2
VPORT
  5
8
330
0
100
AcDbSymbolTable
 70
     1
  0
VPORT
  5
29
330
8
100
AcDbSymbolTableRecord
100
AcDbViewportTableRecord
  2
*Active
 70
     0
 10
0.0
 20
0.0
 11
1.0
 21
1.0
 12
-1047.735718023063
 22
-1060.315923691551
 13
0.0
 23
0.0
 14
0.5
 24
0.5
 15
0.5
 25
0.5
 16
0.0
 26
0.0
 36
1.0
 17
0.0
 27
0.0
 37
0.0
 40
326.7000000000003
 41
1.60267857142857
 42
50.0
 43
0.0
 44
0.0
 50
0.0
 51
0.0
 71
     0
 72
   100
 73
     1
 74
     3
 75
     0
 76
     0
 77
     0
 78
     0
281
     0
 65
     1
110
0.0
120
0.0
130
0.0
111
1.0
121
0.0
131
0.0
112
0.0
122
1.0
132
0.0
 79
     0
146
0.0
  0
ENDTAB
  0
TABLE
  2
LTYPE
  5
5
330
0
100
AcDbSymbolTable
 70
     8
  0
LTYPE
  5
14
330
5
100
AcDbSymbolTableRecord
100
AcDbLinetypeTableRecord
  2
ByBlock
 70
     0
  3

 72
    65
 73
     0
 40
0.0
  0
LTYPE
  5
15
330
5
100
AcDbSymbolTableRecord
100
AcDbLinetypeTableRecord
  2
ByLayer
 70
     0
  3

 72
    65
 73
     0
 40
0.0
  0
LTYPE
  5
16
330
5
100
AcDbSymbolTableRecord
100
AcDbLinetypeTableRecord
  2
Continuous
 70
     0
  3
Solid line
 72
    65
 73
     0
 40
0.0
  0
LTYPE
  5
3F
330
5
100
AcDbSymbolTableRecord
100
AcDbLinetypeTableRecord
  2
DASHED
 70
     0
  3
Dashed
 72
    65
 73
     2
 40
15.0
 49
7.0
 74
     0
 49
-8.0
 74
     0
  0
LTYPE
  5
40
330
5
100
AcDbSymbolTableRecord
100
AcDbLinetypeTableRecord
  2
DOTTED
 70
     0
  3
Dotted
 72
    65
 73
     2
 40
1.0
 49
0.0
 74
     0
 49
-1.0
 74
     0
  0
LTYPE
  5
41
330
5
100
AcDbSymbolTableRecord
100
AcDbLinetypeTableRecord
  2
DOT_CENTER
 70
     0
  3
Dot_Center
 72
    65
 73
     4
 40
14.0
 49
12.0
 74
     0
 49
-1.0
 74
     0
 49
0.0
 74
     0
 49
-1.0
 74
     0
  0
LTYPE
  5
42
330
5
100
AcDbSymbolTableRecord
100
AcDbLinetypeTableRecord
  2
LONG_DASHED
 70
     0
  3
Long_Dashed
 72
    65
 73
     2
 40
15.0
 49
10.0
 74
     0
 49
-5.0
 74
     0
  0
LTYPE
  5
43
330
5
100
AcDbSymbolTableRecord
100
AcDbLinetypeTableRecord
  2
DASH_CENTER
 70
     0
  3
Dash_Center
 72
    65
 73
     4
 40
14.0
 49
11.0
 74
     0
 49
-1.0
 74
     0
 49
1.0
 74
     0
 49
-1.0
 74
     0
  0
LTYPE
  5
44
330
5
100
AcDbSymbolTableRecord
100
AcDbLinetypeTableRecord
  2
PHANTOM
 70
     0
  3
Phantom
 72
    65
 73
     6
 40
13.0
 49
10.0
 74
     0
 49
-1.0
 74
     0
 49
0.0
 74
     0
 49
-1.0
 74
     0
 49
0.0
 74
     0
 49
-1.0
 74
     0
  0
LTYPE
  5
45
330
5
100
AcDbSymbolTableRecord
100
AcDbLinetypeTableRecord
  2
CENTER_DASH_DASH
 70
     0
  3
Center_Dash_Dash
 72
    65
 73
     6
 40
14.0
 49
9.0
 74
     0
 49
-1.0
 74
     0
 49
1.0
 74
     0
 49
-1.0
 74
     0
 49
1.0
 74
     0
 49
-1.0
 74
     0
  0
ENDTAB
  0
TABLE
  2
LAYER
  5
2
330
0
100
AcDbSymbolTable
 70
     2
  0
LAYER
  5
10
330
2
100
AcDbSymbolTableRecord
100
AcDbLayerTableRecord
  2
0
 70
     0
 62
     7
  6
Continuous
370
    -3
390
F
  0
LAYER
  5
46
330
2
100
AcDbSymbolTableRecord
100
AcDbLayerTableRecord
  2
1
 70
     0
 62
     7
  6
Continuous
370
    -3
390
F
  0
ENDTAB
  0
TABLE
  2
STYLE
  5
3
330
0
100
AcDbSymbolTable
 70
     5
  0
STYLE
  5
11
330
3
100
AcDbSymbolTableRecord
100
AcDbTextStyleTableRecord
  2
Standard
 70
     0
 40
0.0
 41
1.0
 50
0.0
 71
     0
 42
0.2
  3
txt
  4

  0
STYLE
  5
A3
330
3
100
AcDbSymbolTableRecord
100
AcDbTextStyleTableRecord
  2
CONVERTER_11
 70
     0
 40
0.0
 41
0.9
 50
0.0
 71
     0
 42
0.2
  3
txt.shx
  4

  0
STYLE
  5
362
330
3
100
AcDbSymbolTableRecord
100
AcDbTextStyleTableRecord
  2
CONVERTER_12
 70
     0
 40
0.0
 41
0.81
 50
0.0
 71
     0
 42
0.2
  3
txt.shx
  4

  0
STYLE
  5
36A
330
3
100
AcDbSymbolTableRecord
100
AcDbTextStyleTableRecord
  2
CONVERTER_13
 70
     0
 40
0.0
 41
0.72
 50
0.0
 71
     0
 42
0.2
  3
txt.shx
  4

  0
STYLE
  5
36D
330
3
100
AcDbSymbolTableRecord
100
AcDbTextStyleTableRecord
  2
CONVERTER_14
 70
     0
 40
0.0
 41
0.855
 50
0.0
 71
     0
 42
0.2
  3
txt.shx
  4

  0
ENDTAB
  0
TABLE
  2
VIEW
  5
6
330
0
100
AcDbSymbolTable
 70
     0
  0
ENDTAB
  0
TABLE
  2
UCS
  5
7
330
0
100
AcDbSymbolTable
 70
     0
  0
ENDTAB
  0
TABLE
  2
APPID
  5
9
330
0
100
AcDbSymbolTable
 70
     1
  0
APPID
  5
12
330
9
100
AcDbSymbolTableRecord
100
AcDbRegAppTableRecord
  2
ACAD
 70
     0
  0
ENDTAB
  0
TABLE
  2
DIMSTYLE
  5
A
330
0
100
AcDbSymbolTable
 70
     4
100
AcDbDimStyleTable
  0
DIMSTYLE
105
27
330
A
100
AcDbSymbolTableRecord
100
AcDbDimStyleTableRecord
  2
Standard
 70
     0
178
     0
340
11
  0
DIMSTYLE
105
CA
102
{ACAD_REACTORS
330
CB
102
}
330
A
100
AcDbSymbolTableRecord
100
AcDbDimStyleTableRecord
  2
ME10_DIM_10
 70
     0
 41
3.5
 42
0.0
 44
1.5
 73
     0
 74
     0
 77
     1
 78
     8
140
3.5
147
1.5
172
     1
173
     1
174
     1
175
     1
176
     2
177
     2
178
     3
340
A3
  0
DIMSTYLE
105
D5
102
{ACAD_REACTORS
330
D6
102
}
330
A
100
AcDbSymbolTableRecord
100
AcDbDimStyleTableRecord
  2
ME10_DIM_11
 70
     0
 41
3.5
 42
0.0
 44
1.5
 73
     0
 74
     0
 77
     1
 78
     8
140
3.5
147
1.5
172
     1
173
     1
174
     1
175
     1
176
     2
177
     2
178
     3
340
A3
  0
DIMSTYLE
105
253
102
{ACAD_REACTORS
330
254
102
}
330
A
100
AcDbSymbolTableRecord
100
AcDbDimStyleTableRecord
  2
ME10_DIM_12
 70
     0
 41
3.5
 42
0.0
 44
1.5
 73
     0
 74
     0
 77
     1
 78
     8
140
3.5
147
1.5
172
     1
173
     1
174
     1
175
     1
176
     2
177
     2
178
     3
340
A3
  0
ENDTAB
  0
TABLE
  2
BLOCK_RECORD
  5
1
330
0
100
AcDbSymbolTable
 70
    20
  0
BLOCK_RECORD
  5
1F
330
1
100
AcDbSymbolTableRecord
100
AcDbBlockTableRecord
  2
*Model_Space
340
22
  0
BLOCK_RECORD
  5
1B
330
1
100
AcDbSymbolTableRecord
100
AcDbBlockTableRecord
  2
*Paper_Space
340
1E
  0
BLOCK_RECORD
  5
23
330
1
100
AcDbSymbolTableRecord
100
AcDbBlockTableRecord
  2
*Paper_Space0
340
26
  0
BLOCK_RECORD
  5
47
330
1
100
AcDbSymbolTableRecord
100
AcDbBlockTableRecord
  2
EB_3-31_UKH-select__1
340
0
102
{BLKREFS
331
4B
102
}
  0
BLOCK_RECORD
  5
4A
330
1
100
AcDbSymbolTableRecord
100
AcDbBlockTableRecord
  2
Back1
340
0
102
{BLKREFS
331
7D
102
}
  0
BLOCK_RECORD
  5
4E
330
1
100
AcDbSymbolTableRecord
100
AcDbBlockTableRecord
  2
EB_3-31_UKH-select__2
340
0
102
{BLKREFS
331
52
102
}
  0
BLOCK_RECORD
  5
51
330
1
100
AcDbSymbolTableRecord
100
AcDbBlockTableRecord
  2
Front1
340
0
102
{BLKREFS
331
7E
102
}
  0
BLOCK_RECORD
  5
55
330
1
100
AcDbSymbolTableRecord
100
AcDbBlockTableRecord
  2
EB_3-31_UKH-select__3
340
0
102
{BLKREFS
331
59
102
}
  0
BLOCK_RECORD
  5
58
330
1
100
AcDbSymbolTableRecord
100
AcDbBlockTableRecord
  2
Gen1
340
0
102
{BLKREFS
331
7F
102
}
  0
BLOCK_RECORD
  5
5C
330
1
100
AcDbSymbolTableRecord
100
AcDbBlockTableRecord
  2
EB_3-31_UKH-select__4
340
0
102
{BLKREFS
331
60
102
}
  0
BLOCK_RECORD
  5
5F
330
1
100
AcDbSymbolTableRecord
100
AcDbBlockTableRecord
  2
Left1
340
0
102
{BLKREFS
331
80
102
}
  0
BLOCK_RECORD
  5
63
330
1
100
AcDbSymbolTableRecord
100
AcDbBlockTableRecord
  2
EB_3-31_UKH-select__5
340
0
102
{BLKREFS
331
67
102
}
  0
BLOCK_RECORD
  5
66
330
1
100
AcDbSymbolTableRecord
100
AcDbBlockTableRecord
  2
Right1
340
0
102
{BLKREFS
331
81
102
}
  0
BLOCK_RECORD
  5
6A
330
1
100
AcDbSymbolTableRecord
100
AcDbBlockTableRecord
  2
EB_3-31_UKH-select__6
340
0
102
{BLKREFS
331
6E
102
}
  0
BLOCK_RECORD
  5
6D
330
1
100
AcDbSymbolTableRecord
100
AcDbBlockTableRecord
  2
Top1
340
0
102
{BLKREFS
331
82
102
}
  0
BLOCK_RECORD
  5
71
330
1
100
AcDbSymbolTableRecord
100
AcDbBlockTableRecord
  2
_rahmen
340
0
102
{BLKREFS
331
78
102
}
  0
BLOCK_RECORD
  5
74
330
1
100
AcDbSymbolTableRecord
100
AcDbBlockTableRecord
  2
_punkt
340
0
102
{BLKREFS
331
79
102
}
  0
BLOCK_RECORD
  5
77
330
1
100
AcDbSymbolTableRecord
100
AcDbBlockTableRecord
  2
A3I_CS
340
0
102
{BLKREFS
331
83
102
}
  0
BLOCK_RECORD
  5
7C
330
1
100
AcDbSymbolTableRecord
100
AcDbBlockTableRecord
  2
1
340
0
102
{BLKREFS
331
86
102
}
  0
BLOCK_RECORD
  5
C1
330
1
100
AcDbSymbolTableRecord
100
AcDbBlockTableRecord
  2
*D17
340
0
  0
BLOCK_RECORD
  5
CC
330
1
100
AcDbSymbolTableRecord
100
AcDbBlockTableRecord
  2
*D18
340
0
  0
BLOCK_RECORD
  5
24A
330
1
100
AcDbSymbolTableRecord
100
AcDbBlockTableRecord
  2
*D19
340
0
  0
ENDTAB
  0
ENDSEC
  0
SECTION
  2
BLOCKS
  0
BLOCK
  5
20
330
1F
100
AcDbEntity
  8
0
100
AcDbBlockBegin
  2
*Model_Space
 70
     0
 10
0.0
 20
0.0
 30
0.0
  3
*Model_Space
  1

  0
ENDBLK
  5
21
330
1F
100
AcDbEntity
  8
0
100
AcDbBlockEnd
  0
BLOCK
  5
1C
330
1B
100
AcDbEntity
 67
     1
  8
0
100
AcDbBlockBegin
  2
*Paper_Space
 70
     0
 10
0.0
 20
0.0
 30
0.0
  3
*Paper_Space
  1

  0
ENDBLK
  5
1D
330
1B
100
AcDbEntity
 67
     1
  8
0
100
AcDbBlockEnd
  0
BLOCK
  5
24
330
23
100
AcDbEntity
  8
0
100
AcDbBlockBegin
  2
*Paper_Space0
 70
     0
 10
0.0
 20
0.0
 30
0.0
  3
*Paper_Space0
  1

  0
ENDBLK
  5
25
330
23
100
AcDbEntity
  8
0
100
AcDbBlockEnd
  0
BLOCK
  5
48
330
47
100
AcDbEntity
  8
0
100
AcDbBlockBegin
  2
EB_3-31_UKH-select__1
 70
     0
 10
-922.9499996381539
 20
-1020.549999450318
 30
0.0
  3
EB_3-31_UKH-select__1
  1

  0
LINE
  5
87
330
47
100
AcDbEntity
  8
0
  6
Continuous
 62
     7
100
AcDbLine
 10
-884.0339742343695
 20
-993.6250319368585
 30
0.0
 11
-883.399999638154
 21
-993.6250319368585
 31
0.0
  0
LINE
  5
88
330
47
100
AcDbEntity
  8
0
  6
Continuous
 62
     7
100
AcDbLine
 10
-883.399999638154
 20
-994.799999450318
 30
0.0
 11
-883.399999638154
 21
-993.6250319368585
 31
0.0
  0
LINE
  5
89
330
47
100
AcDbEntity
  8
0
  6
Continuous
 62
     7
100
AcDbLine
 10
-884.0339742343695
 20
-993.6250319368585
 30
0.0
 11
-887.4499996381539
 21
-995.5972751232921
 31
0.0
  0
LINE
  5
8A
330
47
100
AcDbEntity
  8
0
  6
Continuous
 62
     7
100
AcDbLine
 10
-883.399999638154
 20
-994.799999450318
 30
0.0
 11
-881.3499996381539
 21
-994.799999450318
 31
0.0
  0
LINE
  5
8B
330
47
100
AcDbEntity
  8
0
  6
Continuous
 62
     7
100
AcDbLine
 10
-883.399999638154
 20
-997.799999450318
 30
0.0
 11
-881.3499996381539
 21
-997.799999450318
 31
0.0
  0
LINE
  5
8C
330
47
100
AcDbEntity
  8
0
  6
Continuous
 62
     7
100
AcDbLine
 10
-883.399999638154
 20
-998.9749669637774
 30
0.0
 11
-883.399999638154
 21
-997.799999450318
 31
0.0
  0
LINE
  5
8D
330
47
100
AcDbEntity
  8
0
  6
Continuous
 62
     7
100
AcDbLine
 10
-883.399999638154
 20
-997.799999450318
 30
0.0
 11
-883.399999638154
 21
-994.799999450318
 31
0.0
  0
LINE
  5
8E
330
47
100
AcDbEntity
  8
0
  6
Continuous
 62
     7
100
AcDbLine
 10
-883.399999638154
 20
-998.9749669637774
 30
0.0
 11
-884.0339742343695
 21
-998.9749669637774
 31
0.0
  0
LINE
  5
8F
330
47
100
AcDbEntity
  8
0
  6
Continuous
 62
     7
100
AcDbLine
 10
-887.4499996381537
 20
-997.002723777344
 30
0.0
 11
-884.0339742343695
 21
-998.9749669637774
 31
0.0
  0
LINE
  5
90
330
47
100
AcDbEntity
  8
0
  6
Continuous
 62
     7
100
AcDbLine
 10
-887.4499996381539
 20
-995.5972751232921
 30
0.0
 11
-887.4499996381537
 21
-997.002723777344
 31
0.0
  0
LINE
  5
91
330
47
100
AcDbEntity
  8
0
  6
Continuous
 62
     7
100
AcDbLine
 10
-888.549999638154
 20
-1012.249999450318
 30
0.0
 11
-881.3499996381539
 21
-1005.049999450318
 31
0.0
  0
LINE
  5
92
330
47
100
AcDbEntity
  8
0
  6
Continuous
 62
     7
100
AcDbLine
 10
-893.9499996381539
 20
-1020.549999450318
 30
0.0
 11
-893.9499996381539
 21
-1016.549999450318
 31
0.0
  0
LINE
  5
93
330
47
100
AcDbEntity
  8
0
  6
Continuous
 62
     7
100
AcDbLine
 10
-890.7499996381539
 20
-1016.549999450318
 30
0.0
 11
-893.9499996381539
 21
-1016.549999450318
 31
0.0
  0
LINE
  5
94
330
47
100
AcDbEntity
  8
0
  6
Continuous
 62
     7
100
AcDbLine
 10
-893.9499996381539
 20
-1016.549999450318
 30
0.0
 11
-922.9499996381539
 21
-1016.549999450318
 31
0.0
  0
LINE
  5
95
330
47
100
AcDbEntity
  8
0
  6
Continuous
 62
     7
100
AcDbLine
 10
-922.9499996381539
 20
-1020.549999450318
 30
0.0
 11
-922.9499996381539
 21
-1016.549999450318
 31
0.0
  0
LINE
  5
96
330
47
100
AcDbEntity
  8
0
  6
Continuous
 62
     7
100
AcDbLine
 10
-888.549999638154
 20
-1020.149999450318
 30
0.0
 11
-882.9442466659689
 21
-1020.149999450318
 31
0.0
  0
LINE
  5
97
330
47
100
AcDbEntity
  8
0
  6
Continuous
 62
     7
100
AcDbLine
 10
-889.0931453886616
 20
-1020.549999450318
 30
0.0
 11
-888.549999638154
 21
-1020.00685369981
 31
0.0
  0
LINE
  5
98
330
47
100
AcDbEntity
  8
0
  6
Continuous
 62
     7
100
AcDbLine
 10
-882.9442466659689
 20
-1020.149999450318
 30
0.0
 11
-874.6499996381539
 21
-1011.855752422503
 31
0.0
  0
LINE
  5
99
330
47
100
AcDbEntity
  8
0
  6
Continuous
 62
     7
100
AcDbLine
 10
-893.9499996381539
 20
-1020.549999450318
 30
0.0
 11
-889.0931453886616
 21
-1020.549999450318
 31
0.0
  0
LINE
  5
9A
330
47
100
AcDbEntity
  8
0
  6
Continuous
 62
     7
100
AcDbLine
 10
-922.9499996381539
 20
-1020.549999450318
 30
0.0
 11
-893.9499996381539
 21
-1020.549999450318
 31
0.0
  0
LINE
  5
9B
330
47
100
AcDbEntity
  8
0
  6
Continuous
 62
     7
100
AcDbLine
 10
-888.549999638154
 20
-1014.349999450318
 30
0.0
 11
-888.549999638154
 21
-1012.249999450318
 31
0.0
  0
LINE
  5
9C
330
47
100
AcDbEntity
  8
0
  6
Continuous
 62
     7
100
AcDbLine
 10
-888.549999638154
 20
-1020.149999450318
 30
0.0
 11
-888.549999638154
 21
-1014.349999450318
 31
0.0
  0
LINE
  5
9D
330
47
100
AcDbEntity
  8
0
  6
Continuous
 62
     7
100
AcDbLine
 10
-888.549999638154
 20
-1014.349999450318
 30
0.0
 11
-890.7499996381539
 21
-1016.549999450318
 31
0.0
  0
LINE
  5
9E
330
47
100
AcDbEntity
  8
0
  6
Continuous
 62
     7
100
AcDbLine
 10
-874.649999638154
 20
-976.549999450318
 30
0.0
 11
-874.6499996381539
 21
-1011.855752422503
 31
0.0
  0
LINE
  5
9F
330
47
100
AcDbEntity
  8
0
  6
Continuous
 62
     7
100
AcDbLine
 10
-881.3499996381539
 20
-997.799999450318
 30
0.0
 11
-881.3499996381539
 21
-994.799999450318
 31
0.0
  0
LINE
  5
A0
330
47
100
AcDbEntity
  8
0
  6
Continuous
 62
     7
100
AcDbLine
 10
-881.3499996381539
 20
-1005.049999450318
 30
0.0
 11
-881.3499996381539
 21
-997.799999450318
 31
0.0
  0
LINE
  5
A1
330
47
100
AcDbEntity
  8
0
  6
Continuous
 62
     7
100
AcDbLine
 10
-881.3499996381539
 20
-994.799999450318
 30
0.0
 11
-881.3499996381539
 21
-976.549999450318
 31
0.0
  0
LINE
  5
A2
330
47
100
AcDbEntity
  8
0
  6
Continuous
 62
     7
100
AcDbLine
 10
-874.649999638154
 20
-976.549999450318
 30
0.0
 11
-881.3499996381539
 21
-976.549999450318
 31
0.0
  0
ENDBLK
  5
49
330
47
100
AcDbEntity
  8
0
100
AcDbBlockEnd
  0
BLOCK
  5
4C
330
4A
100
AcDbEntity
  8
0
100
AcDbBlockBegin
  2
Back1
 70
     0
 10
-898.7999999523361
 20
-998.5500025020559
 30
0.0
  3
Back1
  1

  0
INSERT
  5
4B
330
4A
100
AcDbEntity
  8
0
100
AcDbBlockReference
  2
EB_3-31_UKH-select__1
 10
-922.9499996381539
 20
-1020.549999450318
 30
0.0
  0
MTEXT
  5
A4
330
4A
100
AcDbEntity
  8
1
 62
     6
100
AcDbMText
 10
-898.7999999523361
 20
-1025.550001976177
 30
0.0
 40
5.0
 41
0.0
 71
     2
 72
     1
  1
 
  7
CONVERTER_11
 73
     1
 44
1.32052821128451
  0
ENDBLK
  5
4D
330
4A
100
AcDbEntity
  8
0
100
AcDbBlockEnd
  0
BLOCK
  5
4F
330
4E
100
AcDbEntity
  8
0
100
AcDbBlockBegin
  2
EB_3-31_UKH-select__2
 70
     0
 10
-1097.150000314162
 20
-1020.549999450318
 30
0.0
  3
EB_3-31_UKH-select__2
  1

  0
LINE
  5
A5
330
4E
100
AcDbEntity
  8
0
  6
Continuous
 62
     7
100
AcDbLine
 10
-1083.250000314162
 20
-1012.249999450318
 30
0.0
 11
-1090.450000314162
 21
-1005.049999450318
 31
0.0
  0
LINE
  5
A6
330
4E
100
AcDbEntity
  8
0
  6
Continuous
 62
     7
100
AcDbLine
 10
-1077.850000314162
 20
-1016.549999450318
 30
0.0
 11
-1081.050000314162
 21
-1016.549999450318
 31
0.0
  0
LINE
  5
A7
330
4E
100
AcDbEntity
  8
0
  6
Continuous
 62
     7
100
AcDbLine
 10
-1082.706854563654
 20
-1020.549999450318
 30
0.0
 11
-1083.250000314162
 21
-1020.00685369981
 31
0.0
  0
LINE
  5
A8
330
4E
100
AcDbEntity
  8
0
  6
Continuous
 62
     7
100
AcDbLine
 10
-1077.850000314162
 20
-1020.549999450318
 30
0.0
 11
-1077.850000314162
 21
-1016.549999450318
 31
0.0
  0
LINE
  5
A9
330
4E
100
AcDbEntity
  8
0
  6
Continuous
 62
     7
100
AcDbLine
 10
-1081.050000314162
 20
-1016.549999450318
 30
0.0
 11
-1083.250000314162
 21
-1014.349999450318
 31
0.0
  0
LINE
  5
AA
330
4E
100
AcDbEntity
  8
0
  6
Continuous
 62
     7
100
AcDbLine
 10
-1088.400000314162
 20
-994.7999994503181
 30
0.0
 11
-1088.400000314162
 21
-993.6250319368586
 31
0.0
  0
LINE
  5
AB
330
4E
100
AcDbEntity
  8
0
  6
Continuous
 62
     7
100
AcDbLine
 10
-1088.400000314162
 20
-993.6250319368586
 30
0.0
 11
-1087.766025717947
 21
-993.6250319368586
 31
0.0
  0
LINE
  5
AC
330
4E
100
AcDbEntity
  8
0
  6
Continuous
 62
     7
100
AcDbLine
 10
-1087.766025717947
 20
-998.9749669637775
 30
0.0
 11
-1088.400000314162
 21
-998.9749669637775
 31
0.0
  0
LINE
  5
AD
330
4E
100
AcDbEntity
  8
0
  6
Continuous
 62
     7
100
AcDbLine
 10
-1088.400000314162
 20
-994.7999994503181
 30
0.0
 11
-1090.450000314162
 21
-994.7999994503181
 31
0.0
  0
LINE
  5
AE
330
4E
100
AcDbEntity
  8
0
  6
Continuous
 62
     7
100
AcDbLine
 10
-1088.400000314162
 20
-998.9749669637775
 30
0.0
 11
-1088.400000314162
 21
-997.7999994503181
 31
0.0
  0
LINE
  5
AF
330
4E
100
AcDbEntity
  8
0
  6
Continuous
 62
     7
100
AcDbLine
 10
-1088.400000314162
 20
-997.7999994503181
 30
0.0
 11
-1090.450000314162
 21
-997.7999994503181
 31
0.0
  0
LINE
  5
B0
330
4E
100
AcDbEntity
  8
0
  6
Continuous
 62
     7
100
AcDbLine
 10
-1088.400000314162
 20
-997.7999994503181
 30
0.0
 11
-1088.400000314162
 21
-994.7999994503181
 31
0.0
  0
LINE
  5
B1
330
4E
100
AcDbEntity
  8
0
  6
Continuous
 62
     7
100
AcDbLine
 10
-1087.766025717947
 20
-998.9749669637775
 30
0.0
 11
-1084.350000314162
 21
-997.0027237773439
 31
0.0
  0
LINE
  5
B2
330
4E
100
AcDbEntity
  8
0
  6
Continuous
 62
     7
100
AcDbLine
 10
-1084.350000314162
 20
-995.5972751232921
 30
0.0
 11
-1087.766025717947
 21
-993.6250319368586
 31
0.0
  0
LINE
  5
B3
330
4E
100
AcDbEntity
  8
0
  6
Continuous
 62
     7
100
AcDbLine
 10
-1097.150000314162
 20
-1011.855752422503
 30
0.0
 11
-1088.855753286347
 21
-1020.149999450318
 31
0.0
  0
LINE
  5
B4
330
4E
100
AcDbEntity
  8
0
  6
Continuous
 62
     7
100
AcDbLine
 10
-1097.150000314162
 20
-1011.855752422503
 30
0.0
 11
-1097.150000314162
 21
-976.5499994503181
 31
0.0
  0
LINE
  5
B5
330
4E
100
AcDbEntity
  8
0
  6
Continuous
 62
     7
100
AcDbLine
 10
-1090.450000314162
 20
-976.5499994503181
 30
0.0
 11
-1097.150000314162
 21
-976.5499994503181
 31
0.0
  0
LINE
  5
B6
330
4E
100
AcDbEntity
  8
0
  6
Continuous
 62
     7
100
AcDbLine
 10
-1090.450000314162
 20
-997.7999994503181
 30
0.0
 11
-1090.450000314162
 21
-994.7999994503181
 31
0.0
  0
LINE
  5
B7
330
4E
100
AcDbEntity
  8
0
  6
Continuous
 62
     7
100
AcDbLine
 10
-1090.450000314162
 20
-1005.049999450318
 30
0.0
 11
-1090.450000314162
 21
-997.7999994503181
 31
0.0
  0
LINE
  5
B8
330
4E
100
AcDbEntity
  8
0
  6
Continuous
 62
     7
100
AcDbLine
 10
-1090.450000314162
 20
-994.7999994503181
 30
0.0
 11
-1090.450000314162
 21
-976.5499994503181
 31
0.0
  0
LINE
  5
B9
330
4E
100
AcDbEntity
  8
0
  6
Continuous
 62
     7
100
AcDbLine
 10
-1077.850000314162
 20
-1020.549999450318
 30
0.0
 11
-1048.850000314162
 21
-1020.549999450318
 31
0.0
  0
LINE
  5
BA
330
4E
100
AcDbEntity
  8
0
  6
Continuous
 62
     7
100
AcDbLine
 10
-1048.850000314162
 20
-1016.549999450318
 30
0.0
 11
-1048.850000314162
 21
-1020.549999450318
 31
0.0
  0
LINE
  5
BB
330
4E
100
AcDbEntity
  8
0
  6
Continuous
 62
     7
100
AcDbLine
 10
-1048.850000314162
 20
-1016.549999450318
 30
0.0
 11
-1077.850000314162
 21
-1016.549999450318
 31
0.0
  0
LINE
  5
BC
330
4E
100
AcDbEntity
  8
0
  6
Continuous
 62
     7
100
AcDbLine
 10
-1084.350000314162
 20
-997.0027237773439
 30
0.0
 11
-1084.350000314162
 21
-995.5972751232921
 31
0.0
  0
LINE
  5
BD
330
4E
100
AcDbEntity
  8
0
  6
Continuous
 62
     7
100
AcDbLine
 10
-1083.250000314162
 20
-1020.149999450318
 30
0.0
 11
-1083.250000314162
 21
-1012.249999450318
 31
0.0
  0
LINE
  5
BE
330
4E
100
AcDbEntity
  8
0
  6
Continuous
 62
     7
100
AcDbLine
 10
-1082.706854563654
 20
-1020.549999450318
 30
0.0
 11
-1077.850000314162
 21
-1020.549999450318
 31
0.0
  0
LINE
  5
BF
330
4E
100
AcDbEntity
  8
0
  6
Continuous
 62
     7
100
AcDbLine
 10
-1083.250000314162
 20
-1020.149999450318
 30
0.0
 11
-1088.855753286347
 21
-1020.149999450318
 31
0.0
  0
ENDBLK
  5
50
330
4E
100
AcDbEntity
  8
0
100
AcDbBlockEnd
  0
BLOCK
  5
53
330
51
100
AcDbEntity
  8
0
100
AcDbBlockBegin
  2
Front1
 70
     0
 10
-1072.99999999998
 20
-998.5500025020559
 30
0.0
  3
Front1
  1

  0
INSERT
  5
52
330
51
100
AcDbEntity
  8
0
100
AcDbBlockReference
  2
EB_3-31_UKH-select__2
 10
-1097.150000314162
 20
-1020.549999450318
 30
0.0
  0
MTEXT
  5
C0
330
51
100
AcDbEntity
  8
1
 62
     6
100
AcDbMText
 10
-1072.99999999998
 20
-1025.550001976177
 30
0.0
 40
5.0
 41
0.0
 71
     2
 72
     1
  1
 
  7
CONVERTER_11
 73
     1
 44
1.32052821128451
  0
DIMENSION
  5
CB
330
51
100
AcDbEntity
  8
1
100
AcDbDimension
  2
*D17
 10
-1097.150000314162
 20
-1035.49644003724
 30
0.0
 11
-1071.38644211274
 21
-1032.07144003724
 31
0.0
 70
    32
  1
<>
 71
     5
 42
-1.0
 53
0.00013888888889
  3
ME10_DIM_10
100
AcDbAlignedDimension
 13
-1048.850000314162
 23
-1020.549999450318
 33
0.0
 14
-1097.150000314162
 24
-1011.855752422503
 34
0.0
100
AcDbRotatedDimension
  0
DIMENSION
  5
D6
330
51
100
AcDbEntity
  8
1
100
AcDbDimension
  2
*D18
 10
-1116.46763038399
 20
-1020.549999450318
 30
0.0
 11
-1119.71763038399
 21
-995.6914302924451
 31
0.0
 70
    32
  1
<>
 71
     5
 42
-1.0
 53
90.0
  3
ME10_DIM_11
100
AcDbAlignedDimension
 13
-1090.450000314162
 23
-976.5499994503181
 33
0.0
 14
-1077.850000314162
 24
-1020.549999450318
 34
0.0
 50
90.0
100
AcDbRotatedDimension
  0
ENDBLK
  5
54
330
51
100
AcDbEntity
  8
0
100
AcDbBlockEnd
  0
BLOCK
  5
56
330
55
100
AcDbEntity
  8
0
100
AcDbBlockBegin
  2
EB_3-31_UKH-select__3
 70
     0
 10
-987.1395145483468
 20
-1147.84357715508
 30
0.0
  3
EB_3-31_UKH-select__3
  1

  0
LINE
  5
D7
330
55
100
AcDbEntity
  8
0
  6
Continuous
 62
     7
100
AcDbLine
 10
-969.7002242553071
 20
-1140.59357715508
 30
0.0
 11
-969.7002242553071
 21
-1137.129475539942
 31
0.0
  0
LINE
  5
D8
330
55
100
AcDbEntity
  8
0
  6
Continuous
 62
     7
100
AcDbLine
 10
-973.406383417846
 20
-1138.946350890815
 30
0.0
 11
-969.7002242553071
 21
-1140.016226885891
 31
0.0
  0
LINE
  5
D9
330
55
100
AcDbEntity
  8
0
  6
Continuous
 62
     7
100
AcDbLine
 10
-944.5854875455583
 20
-1144.379475539942
 30
0.0
 11
-969.7002242553071
 21
-1137.129475539942
 31
0.0
  0
LINE
  5
DA
330
55
100
AcDbEntity
  8
0
  6
Continuous
 62
     7
100
AcDbLine
 10
-944.5854875455583
 20
-1144.379475539942
 30
0.0
 11
-944.5854875455583
 21
-1147.84357715508
 31
0.0
  0
LINE
  5
DB
330
55
100
AcDbEntity
  8
0
  6
Continuous
 62
     7
100
AcDbLine
 10
-969.7002242553071
 20
-1140.59357715508
 30
0.0
 11
-944.5854875455583
 21
-1147.84357715508
 31
0.0
  0
LINE
  5
DC
330
55
100
AcDbEntity
  8
0
  6
Continuous
 62
     7
100
AcDbLine
 10
-944.5854875455583
 20
-1144.379475539942
 30
0.0
 11
-934.5854875455583
 21
-1135.719221502098
 31
0.0
  0
LINE
  5
DD
330
55
100
AcDbEntity
  8
0
  6
Continuous
 62
     7
100
AcDbLine
 10
-944.5854875455583
 20
-1147.84357715508
 30
0.0
 11
-934.5854875455583
 21
-1139.183323117236
 31
0.0
  0
LINE
  5
DE
330
55
100
AcDbEntity
  8
0
  6
Continuous
 62
     7
100
AcDbLine
 10
-944.6895145483468
 20
-1061.528549415659
 30
0.0
 11
-938.8871443429911
 21
-1063.203549415659
 31
0.0
  0
LINE
  5
DF
330
55
100
AcDbEntity
  8
0
  6
Continuous
 62
     7
100
AcDbLine
 10
-965.3963766780137
 20
-1124.977363073394
 30
0.0
 11
-962.9715055474173
 21
-1128.10223420399
 31
0.0
  0
LINE
  5
E0
330
55
100
AcDbEntity
  8
0
  6
Continuous
 62
     7
100
AcDbLine
 10
-964.8963766780137
 20
-1124.544350371501
 30
0.0
 11
-964.8963766780137
 21
-1125.621700640691
 31
0.0
  0
LINE
  5
E1
330
55
100
AcDbEntity
  8
0
  6
Continuous
 62
     7
100
AcDbLine
 10
-971.4436475727546
 20
-1108.869694771029
 30
0.0
 11
-972.8318607463581
 21
-1110.071922645238
 31
0.0
  0
LINE
  5
E2
330
55
100
AcDbEntity
  8
0
  6
Continuous
 62
     7
100
AcDbLine
 10
-973.712144342991
 20
-1109.167847721518
 30
0.0
 11
-972.8180179003275
 21
-1109.425959792699
 31
0.0
  0
LINE
  5
E3
330
55
100
AcDbEntity
  8
0
  6
Continuous
 62
     7
100
AcDbLine
 10
-973.436792265233
 20
-1109.961834111918
 30
0.0
 11
-972.8318607463581
 21
-1110.071922645238
 31
0.0
  0
LINE
  5
E4
330
55
100
AcDbEntity
  8
0
  6
Continuous
 62
     7
100
AcDbLine
 10
-973.436792265233
 20
-1110.979385827195
 30
0.0
 11
-973.436792265233
 21
-1109.961834111918
 31
0.0
  0
LINE
  5
E5
330
55
100
AcDbEntity
  8
0
  6
Continuous
 62
     7
100
AcDbLine
 10
-973.436792265233
 20
-1113.577462038548
 30
0.0
 11
-973.436792265233
 21
-1110.979385827195
 31
0.0
  0
LINE
  5
E6
330
55
100
AcDbEntity
  8
0
  6
Continuous
 62
     7
100
AcDbLine
 10
-975.212144342991
 20
-1110.466885827195
 30
0.0
 11
-973.712144342991
 21
-1109.167847721518
 31
0.0
  0
LINE
  5
E7
330
55
100
AcDbEntity
  8
0
  6
Continuous
 62
     7
100
AcDbLine
 10
-975.212144342991
 20
-1110.466885827195
 30
0.0
 11
-973.436792265233
 21
-1110.979385827195
 31
0.0
  0
LINE
  5
E8
330
55
100
AcDbEntity
  8
0
  6
Continuous
 62
     7
100
AcDbLine
 10
-973.436792265233
 20
-1113.577462038548
 30
0.0
 11
-975.212144342991
 21
-1113.064962038548
 31
0.0
  0
LINE
  5
E9
330
55
100
AcDbEntity
  8
0
  6
Continuous
 62
     7
100
AcDbLine
 10
-969.5723272439714
 20
-1112.373121933361
 30
0.0
 11
-972.8318607463581
 21
-1110.071922645238
 31
0.0
  0
LINE
  5
EA
330
55
100
AcDbEntity
  8
0
  6
Continuous
 62
     7
100
AcDbLine
 10
-971.936792265233
 20
-1108.662796006241
 30
0.0
 11
-973.436792265233
 21
-1109.961834111918
 31
0.0
  0
LINE
  5
EB
330
55
100
AcDbEntity
  8
0
  6
Continuous
 62
     7
100
AcDbLine
 10
-971.4436475727546
 20
-1108.869694771029
 30
0.0
 11
-968.7864515158407
 21
-1111.692533588582
 31
0.0
  0
LINE
  5
EC
330
55
100
AcDbEntity
  8
0
  6
Continuous
 62
     7
100
AcDbLine
 10
-964.8963766780137
 20
-1124.544350371501
 30
0.0
 11
-965.3963766780137
 21
-1124.977363073394
 31
0.0
  0
LINE
  5
ED
330
55
100
AcDbEntity
  8
0
  6
Continuous
 62
     7
100
AcDbLine
 10
-971.4561842991491
 20
-1116.090889402419
 30
0.0
 11
-964.8963766780137
 21
-1124.544350371501
 31
0.0
  0
LINE
  5
EE
330
55
100
AcDbEntity
  8
0
  6
Continuous
 62
     7
100
AcDbLine
 10
-937.7864515158407
 20
-1084.845746071265
 30
0.0
 11
-937.7864515158408
 21
-1086.062900309388
 31
0.0
  0
LINE
  5
EF
330
55
100
AcDbEntity
  8
0
  6
Continuous
 62
     7
100
AcDbLine
 10
-938.5723272439714
 20
-1085.526334416043
 30
0.0
 11
-937.7864515158407
 21
-1084.845746071265
 31
0.0
  0
LINE
  5
F0
330
55
100
AcDbEntity
  8
0
  6
Continuous
 62
     7
100
AcDbLine
 10
-938.5723272439714
 20
-1085.526334416043
 30
0.0
 11
-941.8318607463581
 21
-1083.22513512792
 31
0.0
  0
LINE
  5
F1
330
55
100
AcDbEntity
  8
0
  6
Continuous
 62
     7
100
AcDbLine
 10
-940.4436475727546
 20
-1082.022907253711
 30
0.0
 11
-937.7864515158407
 21
-1084.845746071265
 31
0.0
  0
LINE
  5
F2
330
55
100
AcDbEntity
  8
0
  6
Continuous
 62
     7
100
AcDbLine
 10
-938.5723272439714
 20
-1086.743488654167
 30
0.0
 11
-937.7864515158408
 21
-1086.062900309388
 31
0.0
  0
LINE
  5
F3
330
55
100
AcDbEntity
  8
0
  6
Continuous
 62
     7
100
AcDbLine
 10
-938.5723272439714
 20
-1086.743488654167
 30
0.0
 11
-938.5723272439714
 21
-1085.526334416043
 31
0.0
  0
LINE
  5
F4
330
55
100
AcDbEntity
  8
0
  6
Continuous
 62
     7
100
AcDbLine
 10
-941.8318607463581
 20
-1087.858314769828
 30
0.0
 11
-938.5723272439714
 21
-1086.743488654167
 31
0.0
  0
LINE
  5
F5
330
55
100
AcDbEntity
  8
0
  6
Continuous
 62
     7
100
AcDbLine
 10
-932.6517614357431
 20
-1095.920656330764
 30
0.0
 11
-938.8871443429911
 21
-1087.885273423516
 31
0.0
  0
LINE
  5
F6
330
55
100
AcDbEntity
  8
0
  6
Continuous
 62
     7
100
AcDbLine
 10
-938.8871443429911
 20
-1087.885273423516
 30
0.0
 11
-941.6371443429911
 21
-1090.266843283923
 31
0.0
  0
LINE
  5
F7
330
55
100
AcDbEntity
  8
0
  6
Continuous
 62
     7
100
AcDbLine
 10
-935.4017614357431
 20
-1098.302226191171
 30
0.0
 11
-941.6371443429911
 21
-1090.266843283923
 31
0.0
  0
LINE
  5
F8
330
55
100
AcDbEntity
  8
0
  6
Continuous
 62
     7
100
AcDbLine
 10
-932.6517614357431
 20
-1100.378817838226
 30
0.0
 11
-932.6517614357431
 21
-1095.920656330764
 31
0.0
  0
LINE
  5
F9
330
55
100
AcDbEntity
  8
0
  6
Continuous
 62
     7
100
AcDbLine
 10
-933.2517614357431
 20
-1097.909945181612
 30
0.0
 11
-933.251761435743
 21
-1099.605612757469
 31
0.0
  0
LINE
  5
FA
330
55
100
AcDbEntity
  8
0
  6
Continuous
 62
     7
100
AcDbLine
 10
-934.038723496435
 20
-1098.591474317986
 30
0.0
 11
-931.9715055474173
 21
-1101.255446686673
 31
0.0
  0
LINE
  5
FB
330
55
100
AcDbEntity
  8
0
  6
Continuous
 62
     7
100
AcDbLine
 10
-935.4017614357431
 20
-1099.771899799748
 30
0.0
 11
-933.2517614357431
 21
-1097.909945181612
 31
0.0
  0
LINE
  5
FC
330
55
100
AcDbEntity
  8
0
  6
Continuous
 62
     7
100
AcDbLine
 10
-935.4017614357431
 20
-1098.302226191171
 30
0.0
 11
-932.6517614357431
 21
-1095.920656330764
 31
0.0
  0
LINE
  5
FD
330
55
100
AcDbEntity
  8
0
  6
Continuous
 62
     7
100
AcDbLine
 10
-952.5469734550107
 20
-1100.108987411673
 30
0.0
 11
-955.7733491632326
 21
-1102.903110737146
 31
0.0
  0
LINE
  5
FE
330
55
100
AcDbEntity
  8
0
  6
Continuous
 62
     7
100
AcDbLine
 10
-943.3963766780137
 20
-1105.924804190136
 30
0.0
 11
-943.8963766780137
 21
-1106.357816892028
 31
0.0
  0
LINE
  5
FF
330
55
100
AcDbEntity
  8
0
  6
Continuous
 62
     7
100
AcDbLine
 10
-943.3963766780137
 20
-1110.823783675703
 30
0.0
 11
-943.3963766780137
 21
-1105.924804190136
 31
0.0
  0
LINE
  5
100
330
55
100
AcDbEntity
  8
0
  6
Continuous
 62
     7
100
AcDbLine
 10
-943.8963766780137
 20
-1106.357816892028
 30
0.0
 11
-950.456184299149
 21
-1097.904355922946
 31
0.0
  0
LINE
  5
101
330
55
100
AcDbEntity
  8
0
  6
Continuous
 62
     7
100
AcDbLine
 10
-952.7298085909272
 20
-1099.873372318287
 30
0.0
 11
-943.8963766780137
 21
-1111.256796377595
 31
0.0
  0
LINE
  5
102
330
55
100
AcDbEntity
  8
0
  6
Continuous
 62
     7
100
AcDbLine
 10
-935.4017614357431
 20
-1099.771899799748
 30
0.0
 11
-942.3192222384572
 21
-1090.857540068756
 31
0.0
  0
LINE
  5
103
330
55
100
AcDbEntity
  8
0
  6
Continuous
 62
     7
100
AcDbLine
 10
-975.212144342991
 20
-1110.466885827195
 30
0.0
 11
-975.212144342991
 21
-1113.064962038548
 31
0.0
  0
LINE
  5
104
330
55
100
AcDbEntity
  8
0
  6
Continuous
 62
     7
100
AcDbLine
 10
-975.1017614357431
 20
-1132.683434721413
 30
0.0
 11
-981.337144342991
 21
-1124.648051814165
 31
0.0
  0
LINE
  5
105
330
55
100
AcDbEntity
  8
0
  6
Continuous
 62
     7
100
AcDbLine
 10
-981.337144342991
 20
-1124.648051814165
 30
0.0
 11
-981.337144342991
 21
-1099.966327806309
 31
0.0
  0
LINE
  5
106
330
55
100
AcDbEntity
  8
0
  6
Continuous
 62
     7
100
AcDbLine
 10
-941.8180179003275
 20
-1082.579172275381
 30
0.0
 11
-942.712144342991
 21
-1082.321060204201
 31
0.0
  0
LINE
  5
107
330
55
100
AcDbEntity
  8
0
  6
Continuous
 62
     7
100
AcDbLine
 10
-940.4436475727546
 20
-1082.022907253711
 30
0.0
 11
-940.936792265233
 21
-1081.816008488923
 31
0.0
  0
LINE
  5
108
330
55
100
AcDbEntity
  8
0
  6
Continuous
 62
     7
100
AcDbLine
 10
-942.436792265233
 20
-1083.1150465946
 30
0.0
 11
-941.8318607463581
 21
-1083.22513512792
 31
0.0
  0
LINE
  5
109
330
55
100
AcDbEntity
  8
0
  6
Continuous
 62
     7
100
AcDbLine
 10
-940.4436475727546
 20
-1082.022907253711
 30
0.0
 11
-941.8318607463581
 21
-1083.22513512792
 31
0.0
  0
LINE
  5
10A
330
55
100
AcDbEntity
  8
0
  6
Continuous
 62
     7
100
AcDbLine
 10
-940.936792265233
 20
-1081.816008488923
 30
0.0
 11
-942.436792265233
 21
-1083.1150465946
 31
0.0
  0
LINE
  5
10B
330
55
100
AcDbEntity
  8
0
  6
Continuous
 62
     7
100
AcDbLine
 10
-941.8318607463581
 20
-1087.858314769828
 30
0.0
 11
-942.436792265233
 21
-1087.748226236508
 31
0.0
  0
LINE
  5
10C
330
55
100
AcDbEntity
  8
0
  6
Continuous
 62
     7
100
AcDbLine
 10
-942.436792265233
 20
-1084.132598309877
 30
0.0
 11
-942.436792265233
 21
-1083.1150465946
 31
0.0
  0
LINE
  5
10D
330
55
100
AcDbEntity
  8
0
  6
Continuous
 62
     7
100
AcDbLine
 10
-942.436792265233
 20
-1084.132598309877
 30
0.0
 11
-944.212144342991
 21
-1083.620098309877
 31
0.0
  0
LINE
  5
10E
330
55
100
AcDbEntity
  8
0
  6
Continuous
 62
     7
100
AcDbLine
 10
-942.436792265233
 20
-1087.748226236508
 30
0.0
 11
-942.436792265233
 21
-1086.730674521231
 31
0.0
  0
LINE
  5
10F
330
55
100
AcDbEntity
  8
0
  6
Continuous
 62
     7
100
AcDbLine
 10
-942.436792265233
 20
-1086.730674521231
 30
0.0
 11
-944.212144342991
 21
-1086.218174521231
 31
0.0
  0
LINE
  5
110
330
55
100
AcDbEntity
  8
0
  6
Continuous
 62
     7
100
AcDbLine
 10
-938.8871443429911
 20
-1087.885273423516
 30
0.0
 11
-938.8871443429911
 21
-1086.851162443495
 31
0.0
  0
LINE
  5
111
330
55
100
AcDbEntity
  8
0
  6
Continuous
 62
     7
100
AcDbLine
 10
-938.8871443429911
 20
-1083.676438887251
 30
0.0
 11
-938.8871443429911
 21
-1063.203549415659
 31
0.0
  0
LINE
  5
112
330
55
100
AcDbEntity
  8
0
  6
Continuous
 62
     7
100
AcDbLine
 10
-942.436792265233
 20
-1086.730674521231
 30
0.0
 11
-942.436792265233
 21
-1084.132598309877
 31
0.0
  0
LINE
  5
113
330
55
100
AcDbEntity
  8
0
  6
Continuous
 62
     7
100
AcDbLine
 10
-944.212144342991
 20
-1083.620098309877
 30
0.0
 11
-944.212144342991
 21
-1086.218174521231
 31
0.0
  0
LINE
  5
114
330
55
100
AcDbEntity
  8
0
  6
Continuous
 62
     7
100
AcDbLine
 10
-959.3963766780137
 20
-1119.781210650687
 30
0.0
 11
-959.3963766780137
 21
-1124.680190136254
 31
0.0
  0
LINE
  5
115
330
55
100
AcDbEntity
  8
0
  6
Continuous
 62
     7
100
AcDbLine
 10
-955.9561842991491
 20
-1102.66749564376
 30
0.0
 11
-949.3963766780137
 21
-1111.120956612843
 31
0.0
  0
LINE
  5
116
330
55
100
AcDbEntity
  8
0
  6
Continuous
 62
     7
100
AcDbLine
 10
-944.212144342991
 20
-1083.620098309877
 30
0.0
 11
-942.712144342991
 21
-1082.321060204201
 31
0.0
  0
LINE
  5
117
330
55
100
AcDbEntity
  8
0
  6
Continuous
 62
     7
100
AcDbLine
 10
-968.7864515158407
 20
-1111.692533588582
 30
0.0
 11
-969.5723272439714
 21
-1112.373121933361
 31
0.0
  0
LINE
  5
118
330
55
100
AcDbEntity
  8
0
  6
Continuous
 62
     7
100
AcDbLine
 10
-968.7864515158407
 20
-1111.692533588582
 30
0.0
 11
-968.7864515158408
 21
-1112.909687826706
 31
0.0
  0
LINE
  5
119
330
55
100
AcDbEntity
  8
0
  6
Continuous
 62
     7
100
AcDbLine
 10
-968.7864515158408
 20
-1112.909687826706
 30
0.0
 11
-969.5723272439714
 21
-1113.590276171484
 31
0.0
  0
LINE
  5
11A
330
55
100
AcDbEntity
  8
0
  6
Continuous
 62
     7
100
AcDbLine
 10
-969.5723272439714
 20
-1113.590276171484
 30
0.0
 11
-969.5723272439714
 21
-1112.373121933361
 31
0.0
  0
LINE
  5
11B
330
55
100
AcDbEntity
  8
0
  6
Continuous
 62
     7
100
AcDbLine
 10
-958.8963766780137
 20
-1119.348197948795
 30
0.0
 11
-959.3963766780137
 21
-1119.781210650687
 31
0.0
  0
LINE
  5
11C
330
55
100
AcDbEntity
  8
0
  6
Continuous
 62
     7
100
AcDbLine
 10
-959.3963766780137
 20
-1119.781210650687
 30
0.0
 11
-965.9561842991491
 21
-1111.327749681605
 31
0.0
  0
LINE
  5
11D
330
55
100
AcDbEntity
  8
0
  6
Continuous
 62
     7
100
AcDbLine
 10
-968.2298085909272
 20
-1113.296766076946
 30
0.0
 11
-959.3963766780137
 21
-1124.680190136254
 31
0.0
  0
LINE
  5
11E
330
55
100
AcDbEntity
  8
0
  6
Continuous
 62
     7
100
AcDbLine
 10
-978.587144342991
 20
-1122.266481953758
 30
0.0
 11
-941.6371443429911
 21
-1090.266843283923
 31
0.0
  0
LINE
  5
11F
330
55
100
AcDbEntity
  8
0
  6
Continuous
 62
     7
100
AcDbLine
 10
-938.8871443429911
 20
-1063.203549415659
 30
0.0
 11
-981.337144342991
 21
-1099.966327806309
 31
0.0
  0
LINE
  5
120
330
55
100
AcDbEntity
  8
0
  6
Continuous
 62
     7
100
AcDbLine
 10
-903.5854875455583
 20
-1108.87243398478
 30
0.0
 11
-903.5854875455583
 21
-1112.336535599918
 31
0.0
  0
LINE
  5
121
330
55
100
AcDbEntity
  8
0
  6
Continuous
 62
     7
100
AcDbLine
 10
-913.5854875455583
 20
-1120.996789637763
 30
0.0
 11
-903.5854875455583
 21
-1112.336535599918
 31
0.0
  0
LINE
  5
122
330
55
100
AcDbEntity
  8
0
  6
Continuous
 62
     7
100
AcDbLine
 10
-913.5854875455583
 20
-1117.532688022625
 30
0.0
 11
-903.5854875455583
 21
-1108.87243398478
 31
0.0
  0
LINE
  5
123
330
55
100
AcDbEntity
  8
0
  6
Continuous
 62
     7
100
AcDbLine
 10
-913.5854875455583
 20
-1117.532688022625
 30
0.0
 11
-913.5854875455583
 21
-1120.996789637763
 31
0.0
  0
LINE
  5
124
330
55
100
AcDbEntity
  8
0
  6
Continuous
 62
     7
100
AcDbLine
 10
-938.2002242553071
 20
-1109.849675320733
 30
0.0
 11
-938.7002242553071
 21
-1110.282688022625
 31
0.0
  0
LINE
  5
125
330
55
100
AcDbEntity
  8
0
  6
Continuous
 62
     7
100
AcDbLine
 10
-940.9715055474172
 20
-1109.049675320733
 30
0.0
 11
-938.2002242553071
 21
-1109.849675320733
 31
0.0
  0
LINE
  5
126
330
55
100
AcDbEntity
  8
0
  6
Continuous
 62
     7
100
AcDbLine
 10
-938.7002242553071
 20
-1110.282688022625
 30
0.0
 11
-938.7002242553071
 21
-1113.746789637763
 31
0.0
  0
LINE
  5
127
330
55
100
AcDbEntity
  8
0
  6
Continuous
 62
     7
100
AcDbLine
 10
-943.8963766780137
 20
-1111.256796377595
 30
0.0
 11
-943.3963766780137
 21
-1110.823783675703
 31
0.0
  0
LINE
  5
128
330
55
100
AcDbEntity
  8
0
  6
Continuous
 62
     7
100
AcDbLine
 10
-942.4063834178459
 20
-1112.099563373497
 30
0.0
 11
-943.3963766780137
 21
-1110.823783675703
 31
0.0
  0
LINE
  5
129
330
55
100
AcDbEntity
  8
0
  6
Continuous
 62
     7
100
AcDbLine
 10
-957.906383417846
 20
-1125.522957132156
 30
0.0
 11
-958.8963766780137
 21
-1124.247177434361
 31
0.0
  0
LINE
  5
12A
330
55
100
AcDbEntity
  8
0
  6
Continuous
 62
     7
100
AcDbLine
 10
-919.0854875455583
 20
-1125.759929358577
 30
0.0
 11
-919.0854875455583
 21
-1122.295827743439
 31
0.0
  0
LINE
  5
12B
330
55
100
AcDbEntity
  8
0
  6
Continuous
 62
     7
100
AcDbLine
 10
-949.3963766780137
 20
-1111.120956612843
 30
0.0
 11
-949.3963766780137
 21
-1112.198306882032
 31
0.0
  0
LINE
  5
12C
330
55
100
AcDbEntity
  8
0
  6
Continuous
 62
     7
100
AcDbLine
 10
-944.7002242553071
 20
-1115.478840445331
 30
0.0
 11
-944.2002242553071
 21
-1115.045827743439
 31
0.0
  0
LINE
  5
12D
330
55
100
AcDbEntity
  8
0
  6
Continuous
 62
     7
100
AcDbLine
 10
-943.8963766780137
 20
-1111.256796377595
 30
0.0
 11
-943.8963766780137
 21
-1106.357816892028
 31
0.0
  0
LINE
  5
12E
330
55
100
AcDbEntity
  8
0
  6
Continuous
 62
     7
100
AcDbLine
 10
-954.2002242553071
 20
-1123.706081781284
 30
0.0
 11
-953.7002242553071
 21
-1123.273069079392
 31
0.0
  0
LINE
  5
12F
330
55
100
AcDbEntity
  8
0
  6
Continuous
 62
     7
100
AcDbLine
 10
-958.8963766780137
 20
-1124.247177434361
 30
0.0
 11
-958.8963766780137
 21
-1119.348197948795
 31
0.0
  0
LINE
  5
130
330
55
100
AcDbEntity
  8
0
  6
Continuous
 62
     7
100
AcDbLine
 10
-956.4715055474173
 20
-1122.473069079391
 30
0.0
 11
-958.8963766780137
 21
-1119.348197948795
 31
0.0
  0
LINE
  5
131
330
55
100
AcDbEntity
  8
0
  6
Continuous
 62
     7
100
AcDbLine
 10
-956.4715055474173
 20
-1122.473069079391
 30
0.0
 11
-947.4715055474173
 21
-1114.678840445331
 31
0.0
  0
LINE
  5
132
330
55
100
AcDbEntity
  8
0
  6
Continuous
 62
     7
100
AcDbLine
 10
-949.8963766780137
 20
-1111.553969314735
 30
0.0
 11
-947.4715055474173
 21
-1114.678840445331
 31
0.0
  0
LINE
  5
133
330
55
100
AcDbEntity
  8
0
  6
Continuous
 62
     7
100
AcDbLine
 10
-953.7002242553071
 20
-1123.273069079392
 30
0.0
 11
-956.4715055474173
 21
-1122.473069079391
 31
0.0
  0
LINE
  5
134
330
55
100
AcDbEntity
  8
0
  6
Continuous
 62
     7
100
AcDbLine
 10
-947.4715055474173
 20
-1114.678840445331
 30
0.0
 11
-944.7002242553071
 21
-1115.478840445331
 31
0.0
  0
LINE
  5
135
330
55
100
AcDbEntity
  8
0
  6
Continuous
 62
     7
100
AcDbLine
 10
-938.7002242553071
 20
-1110.282688022625
 30
0.0
 11
-913.5854875455583
 21
-1117.532688022625
 31
0.0
  0
LINE
  5
136
330
55
100
AcDbEntity
  8
0
  6
Continuous
 62
     7
100
AcDbLine
 10
-913.5854875455583
 20
-1120.996789637763
 30
0.0
 11
-938.7002242553071
 21
-1113.746789637763
 31
0.0
  0
LINE
  5
137
330
55
100
AcDbEntity
  8
0
  6
Continuous
 62
     7
100
AcDbLine
 10
-960.2002242553071
 20
-1128.90223420399
 30
0.0
 11
-959.7002242553071
 21
-1128.469221502098
 31
0.0
  0
LINE
  5
138
330
55
100
AcDbEntity
  8
0
  6
Continuous
 62
     7
100
AcDbLine
 10
-962.9715055474173
 20
-1128.10223420399
 30
0.0
 11
-960.2002242553071
 21
-1128.90223420399
 31
0.0
  0
LINE
  5
139
330
55
100
AcDbEntity
  8
0
  6
Continuous
 62
     7
100
AcDbLine
 10
-971.9715055474173
 20
-1135.89646283805
 30
0.0
 11
-962.9715055474173
 21
-1128.10223420399
 31
0.0
  0
LINE
  5
13A
330
55
100
AcDbEntity
  8
0
  6
Continuous
 62
     7
100
AcDbLine
 10
-959.7002242553071
 20
-1128.469221502098
 30
0.0
 11
-934.5854875455583
 21
-1135.719221502098
 31
0.0
  0
LINE
  5
13B
330
55
100
AcDbEntity
  8
0
  6
Continuous
 62
     7
100
AcDbLine
 10
-929.0854875455583
 20
-1134.420183396421
 30
0.0
 11
-919.0854875455583
 21
-1125.759929358577
 31
0.0
  0
LINE
  5
13C
330
55
100
AcDbEntity
  8
0
  6
Continuous
 62
     7
100
AcDbLine
 10
-934.5854875455583
 20
-1139.183323117236
 30
0.0
 11
-934.5854875455583
 21
-1135.719221502098
 31
0.0
  0
LINE
  5
13D
330
55
100
AcDbEntity
  8
0
  6
Continuous
 62
     7
100
AcDbLine
 10
-975.1017614357431
 20
-1139.52503541131
 30
0.0
 11
-975.1017614357431
 21
-1132.683434721413
 31
0.0
  0
LINE
  5
13E
330
55
100
AcDbEntity
  8
0
  6
Continuous
 62
     7
100
AcDbLine
 10
-929.0854875455583
 20
-1130.956081781284
 30
0.0
 11
-929.0854875455583
 21
-1134.420183396421
 31
0.0
  0
LINE
  5
13F
330
55
100
AcDbEntity
  8
0
  6
Continuous
 62
     7
100
AcDbLine
 10
-954.2002242553071
 20
-1127.170183396421
 30
0.0
 11
-929.0854875455583
 21
-1134.420183396421
 31
0.0
  0
LINE
  5
140
330
55
100
AcDbEntity
  8
0
  6
Continuous
 62
     7
100
AcDbLine
 10
-987.1395145483468
 20
-1128.867006779959
 30
0.0
 11
-979.9564859169956
 21
-1138.123597168264
 31
0.0
  0
LINE
  5
141
330
55
100
AcDbEntity
  8
0
  6
Continuous
 62
     7
100
AcDbLine
 10
-987.1395145483468
 20
-1128.867006779959
 30
0.0
 11
-987.1395145483468
 21
-1098.291327806309
 31
0.0
  0
LINE
  5
142
330
55
100
AcDbEntity
  8
0
  6
Continuous
 62
     7
100
AcDbLine
 10
-929.0854875455583
 20
-1130.956081781284
 30
0.0
 11
-919.0854875455583
 21
-1122.295827743439
 31
0.0
  0
LINE
  5
143
330
55
100
AcDbEntity
  8
0
  6
Continuous
 62
     7
100
AcDbLine
 10
-942.4063834178459
 20
-1112.099563373497
 30
0.0
 11
-938.7002242553071
 21
-1113.169439368573
 31
0.0
  0
LINE
  5
144
330
55
100
AcDbEntity
  8
0
  6
Continuous
 62
     7
100
AcDbLine
 10
-954.2002242553071
 20
-1127.170183396421
 30
0.0
 11
-954.2002242553071
 21
-1123.706081781284
 31
0.0
  0
LINE
  5
145
330
55
100
AcDbEntity
  8
0
  6
Continuous
 62
     7
100
AcDbLine
 10
-959.3963766780137
 20
-1124.680190136254
 30
0.0
 11
-958.8963766780137
 21
-1124.247177434361
 31
0.0
  0
LINE
  5
146
330
55
100
AcDbEntity
  8
0
  6
Continuous
 62
     7
100
AcDbLine
 10
-949.3963766780137
 20
-1111.120956612843
 30
0.0
 11
-949.8963766780137
 21
-1111.553969314735
 31
0.0
  0
LINE
  5
147
330
55
100
AcDbEntity
  8
0
  6
Continuous
 62
     7
100
AcDbLine
 10
-957.906383417846
 20
-1125.522957132156
 30
0.0
 11
-954.2002242553071
 21
-1126.592833127232
 31
0.0
  0
LINE
  5
148
330
55
100
AcDbEntity
  8
0
  6
Continuous
 62
     7
100
AcDbLine
 10
-929.0854875455583
 20
-1130.956081781284
 30
0.0
 11
-954.2002242553071
 21
-1123.706081781284
 31
0.0
  0
LINE
  5
149
330
55
100
AcDbEntity
  8
0
  6
Continuous
 62
     7
100
AcDbLine
 10
-944.2002242553071
 20
-1115.045827743439
 30
0.0
 11
-919.0854875455583
 21
-1122.295827743439
 31
0.0
  0
LINE
  5
14A
330
55
100
AcDbEntity
  8
0
  6
Continuous
 62
     7
100
AcDbLine
 10
-929.2002242553071
 20
-1102.055446686673
 30
0.0
 11
-928.7002242553071
 21
-1101.62243398478
 31
0.0
  0
LINE
  5
14B
330
55
100
AcDbEntity
  8
0
  6
Continuous
 62
     7
100
AcDbLine
 10
-935.4017614357431
 20
-1098.302226191171
 30
0.0
 11
-935.4017614357431
 21
-1099.771899799748
 31
0.0
  0
LINE
  5
14C
330
55
100
AcDbEntity
  8
0
  6
Continuous
 62
     7
100
AcDbLine
 10
-931.9715055474173
 20
-1101.255446686673
 30
0.0
 11
-929.2002242553071
 21
-1102.055446686673
 31
0.0
  0
LINE
  5
14D
330
55
100
AcDbEntity
  8
0
  6
Continuous
 62
     7
100
AcDbLine
 10
-971.4436475727546
 20
-1108.869694771029
 30
0.0
 11
-971.936792265233
 21
-1108.662796006241
 31
0.0
  0
LINE
  5
14E
330
55
100
AcDbEntity
  8
0
  6
Continuous
 62
     7
100
AcDbLine
 10
-981.337144342991
 20
-1099.966327806309
 30
0.0
 11
-987.1395145483468
 21
-1098.291327806309
 31
0.0
  0
LINE
  5
14F
330
55
100
AcDbEntity
  8
0
  6
Continuous
 62
     7
100
AcDbLine
 10
-940.9715055474172
 20
-1109.049675320733
 30
0.0
 11
-943.3963766780137
 21
-1105.924804190136
 31
0.0
  0
LINE
  5
150
330
55
100
AcDbEntity
  8
0
  6
Continuous
 62
     7
100
AcDbLine
 10
-931.9715055474173
 20
-1101.255446686673
 30
0.0
 11
-940.9715055474172
 21
-1109.049675320733
 31
0.0
  0
LINE
  5
151
330
55
100
AcDbEntity
  8
0
  6
Continuous
 62
     7
100
AcDbLine
 10
-903.5854875455583
 20
-1108.87243398478
 30
0.0
 11
-928.7002242553071
 21
-1101.62243398478
 31
0.0
  0
LINE
  5
152
330
55
100
AcDbEntity
  8
0
  6
Continuous
 62
     7
100
AcDbLine
 10
-972.8318607463581
 20
-1114.705102287146
 30
0.0
 11
-969.5723272439714
 21
-1113.590276171484
 31
0.0
  0
LINE
  5
153
330
55
100
AcDbEntity
  8
0
  6
Continuous
 62
     7
100
AcDbLine
 10
-968.0469734550107
 20
-1113.532381170332
 30
0.0
 11
-971.2733491632326
 21
-1116.326504495805
 31
0.0
  0
LINE
  5
154
330
55
100
AcDbEntity
  8
0
  6
Continuous
 62
     7
100
AcDbLine
 10
-969.7002242553071
 20
-1137.129475539942
 30
0.0
 11
-969.2002242553071
 21
-1136.69646283805
 31
0.0
  0
LINE
  5
155
330
55
100
AcDbEntity
  8
0
  6
Continuous
 62
     7
100
AcDbLine
 10
-969.2002242553071
 20
-1136.69646283805
 30
0.0
 11
-971.9715055474173
 21
-1135.89646283805
 31
0.0
  0
LINE
  5
156
330
55
100
AcDbEntity
  8
0
  6
Continuous
 62
     7
100
AcDbLine
 10
-974.5017614357431
 20
-1137.761837070385
 30
0.0
 11
-974.3963766780137
 21
-1137.67057119302
 31
0.0
  0
LINE
  5
157
330
55
100
AcDbEntity
  8
0
  6
Continuous
 62
     7
100
AcDbLine
 10
-974.3963766780137
 20
-1137.67057119302
 30
0.0
 11
-974.3963766780137
 21
-1133.542227210355
 31
0.0
  0
LINE
  5
158
330
55
100
AcDbEntity
  8
0
  6
Continuous
 62
     7
100
AcDbLine
 10
-972.3517614357431
 20
-1131.771538469583
 30
0.0
 11
-972.3517614357431
 21
-1130.301864861006
 31
0.0
  0
LINE
  5
159
330
55
100
AcDbEntity
  8
0
  6
Continuous
 62
     7
100
AcDbLine
 10
-974.5017614357431
 20
-1133.63349308772
 30
0.0
 11
-972.3517614357431
 21
-1131.771538469583
 31
0.0
  0
LINE
  5
15A
330
55
100
AcDbEntity
  8
0
  6
Continuous
 62
     7
100
AcDbLine
 10
-972.3517614357431
 20
-1130.301864861006
 30
0.0
 11
-975.1017614357431
 21
-1132.683434721413
 31
0.0
  0
LINE
  5
15B
330
55
100
AcDbEntity
  8
0
  6
Continuous
 62
     7
100
AcDbLine
 10
-978.587144342991
 20
-1122.266481953758
 30
0.0
 11
-981.337144342991
 21
-1124.648051814165
 31
0.0
  0
LINE
  5
15C
330
55
100
AcDbEntity
  8
0
  6
Continuous
 62
     7
100
AcDbLine
 10
-973.436792265233
 20
-1114.595013753826
 30
0.0
 11
-973.436792265233
 21
-1113.577462038548
 31
0.0
  0
LINE
  5
15D
330
55
100
AcDbEntity
  8
0
  6
Continuous
 62
     7
100
AcDbLine
 10
-978.587144342991
 20
-1122.266481953758
 30
0.0
 11
-972.3517614357431
 21
-1130.301864861006
 31
0.0
  0
LINE
  5
15E
330
55
100
AcDbEntity
  8
0
  6
Continuous
 62
     7
100
AcDbLine
 10
-973.406383417846
 20
-1138.946350890815
 30
0.0
 11
-974.3963766780137
 21
-1137.67057119302
 31
0.0
  0
LINE
  5
15F
330
55
100
AcDbEntity
  8
0
  6
Continuous
 62
     7
100
AcDbLine
 10
-971.9715055474173
 20
-1135.89646283805
 30
0.0
 11
-974.038723496435
 21
-1133.232490469363
 31
0.0
  0
LINE
  5
160
330
55
100
AcDbEntity
  8
0
  6
Continuous
 62
     7
100
AcDbLine
 10
-972.8318607463581
 20
-1114.705102287146
 30
0.0
 11
-973.436792265233
 21
-1114.595013753826
 31
0.0
  0
LINE
  5
161
330
55
100
AcDbEntity
  8
0
  6
Continuous
 62
     7
100
AcDbLine
 10
-975.1017614357431
 20
-1139.52503541131
 30
0.0
 11
-974.5017614357431
 21
-1139.00542016904
 31
0.0
  0
LINE
  5
162
330
55
100
AcDbEntity
  8
0
  6
Continuous
 62
     7
100
AcDbLine
 10
-974.5017614357431
 20
-1133.63349308772
 30
0.0
 11
-974.5017614357431
 21
-1139.00542016904
 31
0.0
  0
LINE
  5
163
330
55
100
AcDbEntity
  8
0
  6
Continuous
 62
     7
100
AcDbLine
 10
-975.1017614357431
 20
-1139.52503541131
 30
0.0
 11
-979.9564859169956
 21
-1138.123597168264
 31
0.0
  0
LINE
  5
164
330
55
100
AcDbEntity
  8
0
  6
Continuous
 62
     7
100
AcDbLine
 10
-987.1395145483468
 20
-1098.291327806309
 30
0.0
 11
-944.6895145483468
 21
-1061.528549415659
 31
0.0
  0
ENDBLK
  5
57
330
55
100
AcDbEntity
  8
0
100
AcDbBlockEnd
  0
BLOCK
  5
5A
330
58
100
AcDbEntity
  8
0
100
AcDbBlockBegin
  2
Gen1
 70
     0
 10
-944.9999999999901
 20
-1104.99999954461
 30
0.0
  3
Gen1
  1

  0
INSERT
  5
59
330
58
100
AcDbEntity
  8
0
100
AcDbBlockReference
  2
EB_3-31_UKH-select__3
 10
-987.1395145483468
 20
-1147.84357715508
 30
0.0
  0
MTEXT
  5
165
330
58
100
AcDbEntity
  8
1
 62
     6
100
AcDbMText
 10
-944.9999999999899
 20
-1153.471446898837
 30
0.0
 40
5.0
 41
0.0
 71
     2
 72
     1
  1
 
  7
CONVERTER_11
 73
     1
 44
1.32052821128451
  0
ENDBLK
  5
5B
330
58
100
AcDbEntity
  8
0
100
AcDbBlockEnd
  0
BLOCK
  5
5D
330
5C
100
AcDbEntity
  8
0
100
AcDbBlockBegin
  2
EB_3-31_UKH-select__4
 70
     0
 10
-1027.849998426392
 20
-1020.549999450318
 30
0.0
  3
EB_3-31_UKH-select__4
  1

  0
LINE
  5
166
330
5C
100
AcDbEntity
  8
0
  6
Continuous
 62
     7
100
AcDbLine
 10
-1025.399998426392
 20
-1020.549999450318
 30
0.0
 11
-1007.399998426392
 21
-1020.549999450318
 31
0.0
  0
LINE
  5
167
330
5C
100
AcDbEntity
  8
0
  6
Continuous
 62
     7
100
AcDbLine
 10
-1007.399998426392
 20
-1020.549999450318
 30
0.0
 11
-1006.399998426392
 21
-1020.549999450318
 31
0.0
  0
LINE
  5
168
330
5C
100
AcDbEntity
  8
0
  6
Continuous
 62
     7
100
AcDbLine
 10
-994.399998426392
 20
-1020.549999450318
 30
0.0
 11
-976.399998426392
 21
-1020.549999450318
 31
0.0
  0
LINE
  5
169
330
5C
100
AcDbEntity
  8
0
  6
Continuous
 62
     7
100
AcDbLine
 10
-963.3999984263919
 20
-1020.549999450318
 30
0.0
 11
-945.3999984263919
 21
-1020.549999450318
 31
0.0
  0
LINE
  5
16A
330
5C
100
AcDbEntity
  8
0
  6
Continuous
 62
     7
100
AcDbLine
 10
-1027.849998426392
 20
-1011.855752422503
 30
0.0
 11
-1026.649998426392
 21
-1011.855752422503
 31
0.0
  0
LINE
  5
16B
330
5C
100
AcDbEntity
  8
0
  6
Continuous
 62
     7
100
AcDbLine
 10
-964.3999984263919
 20
-1019.40685369981
 30
0.0
 11
-963.3999984263919
 21
-1019.40685369981
 31
0.0
  0
LINE
  5
16C
330
5C
100
AcDbEntity
  8
0
  6
Continuous
 62
     7
100
AcDbLine
 10
-964.3999984263919
 20
-1019.40685369981
 30
0.0
 11
-964.3999984263919
 21
-1011.855752422503
 31
0.0
  0
LINE
  5
16D
330
5C
100
AcDbEntity
  8
0
  6
Continuous
 62
     7
100
AcDbLine
 10
-1027.849998426392
 20
-1020.149999450318
 30
0.0
 11
-1027.849998426392
 21
-1011.855752422503
 31
0.0
  0
LINE
  5
16E
330
5C
100
AcDbEntity
  8
0
  6
Continuous
 62
     7
100
AcDbLine
 10
-1026.649998426392
 20
-1011.855752422503
 30
0.0
 11
-944.1499984263919
 21
-1011.855752422503
 31
0.0
  0
LINE
  5
16F
330
5C
100
AcDbEntity
  8
0
  6
Continuous
 62
     7
100
AcDbLine
 10
-942.9499984263919
 20
-1020.149999450318
 30
0.0
 11
-944.1499984263919
 21
-1020.149999450318
 31
0.0
  0
LINE
  5
170
330
5C
100
AcDbEntity
  8
0
  6
Continuous
 62
     7
100
AcDbLine
 10
-942.9499984263919
 20
-1011.855752422503
 30
0.0
 11
-944.1499984263919
 21
-1011.855752422503
 31
0.0
  0
LINE
  5
171
330
5C
100
AcDbEntity
  8
0
  6
Continuous
 62
     7
100
AcDbLine
 10
-944.3999984263919
 20
-1019.40685369981
 30
0.0
 11
-945.3999984263919
 21
-1019.40685369981
 31
0.0
  0
LINE
  5
172
330
5C
100
AcDbEntity
  8
0
  6
Continuous
 62
     7
100
AcDbLine
 10
-945.3999984263919
 20
-1020.549999450318
 30
0.0
 11
-945.3999984263919
 21
-1019.40685369981
 31
0.0
  0
LINE
  5
173
330
5C
100
AcDbEntity
  8
0
  6
Continuous
 62
     7
100
AcDbLine
 10
-963.3999984263919
 20
-1020.549999450318
 30
0.0
 11
-963.3999984263919
 21
-1019.40685369981
 31
0.0
  0
LINE
  5
174
330
5C
100
AcDbEntity
  8
0
  6
Continuous
 62
     7
100
AcDbLine
 10
-944.3999984263919
 20
-1020.549999450318
 30
0.0
 11
-944.3999984263919
 21
-1019.40685369981
 31
0.0
  0
LINE
  5
175
330
5C
100
AcDbEntity
  8
0
  6
Continuous
 62
     7
100
AcDbLine
 10
-944.3999984263919
 20
-1019.40685369981
 30
0.0
 11
-944.3999984263919
 21
-1011.855752422503
 31
0.0
  0
LINE
  5
176
330
5C
100
AcDbEntity
  8
0
  6
Continuous
 62
     7
100
AcDbLine
 10
-945.3999984263919
 20
-1020.549999450318
 30
0.0
 11
-944.3999984263919
 21
-1020.549999450318
 31
0.0
  0
LINE
  5
177
330
5C
100
AcDbEntity
  8
0
  6
Continuous
 62
     7
100
AcDbLine
 10
-964.3999984263919
 20
-1020.549999450318
 30
0.0
 11
-963.3999984263919
 21
-1020.549999450318
 31
0.0
  0
LINE
  5
178
330
5C
100
AcDbEntity
  8
0
  6
Continuous
 62
     7
100
AcDbLine
 10
-964.3999984263919
 20
-1020.549999450318
 30
0.0
 11
-964.3999984263919
 21
-1019.40685369981
 31
0.0
  0
LINE
  5
179
330
5C
100
AcDbEntity
  8
0
  6
Continuous
 62
     7
100
AcDbLine
 10
-975.3999984263919
 20
-1020.549999450318
 30
0.0
 11
-975.3999984263919
 21
-1019.40685369981
 31
0.0
  0
LINE
  5
17A
330
5C
100
AcDbEntity
  8
0
  6
Continuous
 62
     7
100
AcDbLine
 10
-975.3999984263919
 20
-1019.40685369981
 30
0.0
 11
-976.399998426392
 21
-1019.40685369981
 31
0.0
  0
LINE
  5
17B
330
5C
100
AcDbEntity
  8
0
  6
Continuous
 62
     7
100
AcDbLine
 10
-976.399998426392
 20
-1020.549999450318
 30
0.0
 11
-976.399998426392
 21
-1019.40685369981
 31
0.0
  0
LINE
  5
17C
330
5C
100
AcDbEntity
  8
0
  6
Continuous
 62
     7
100
AcDbLine
 10
-994.399998426392
 20
-1020.549999450318
 30
0.0
 11
-994.399998426392
 21
-1019.40685369981
 31
0.0
  0
LINE
  5
17D
330
5C
100
AcDbEntity
  8
0
  6
Continuous
 62
     7
100
AcDbLine
 10
-995.3999984263919
 20
-1019.40685369981
 30
0.0
 11
-994.399998426392
 21
-1019.40685369981
 31
0.0
  0
LINE
  5
17E
330
5C
100
AcDbEntity
  8
0
  6
Continuous
 62
     7
100
AcDbLine
 10
-995.3999984263919
 20
-1020.549999450318
 30
0.0
 11
-994.399998426392
 21
-1020.549999450318
 31
0.0
  0
LINE
  5
17F
330
5C
100
AcDbEntity
  8
0
  6
Continuous
 62
     7
100
AcDbLine
 10
-976.399998426392
 20
-1020.549999450318
 30
0.0
 11
-975.3999984263919
 21
-1020.549999450318
 31
0.0
  0
LINE
  5
180
330
5C
100
AcDbEntity
  8
0
  6
Continuous
 62
     7
100
AcDbLine
 10
-995.3999984263919
 20
-1020.549999450318
 30
0.0
 11
-995.3999984263919
 21
-1019.40685369981
 31
0.0
  0
LINE
  5
181
330
5C
100
AcDbEntity
  8
0
  6
Continuous
 62
     7
100
AcDbLine
 10
-995.3999984263919
 20
-1019.40685369981
 30
0.0
 11
-995.3999984263919
 21
-1011.855752422503
 31
0.0
  0
LINE
  5
182
330
5C
100
AcDbEntity
  8
0
  6
Continuous
 62
     7
100
AcDbLine
 10
-975.3999984263919
 20
-1019.40685369981
 30
0.0
 11
-975.3999984263919
 21
-1011.855752422503
 31
0.0
  0
LINE
  5
183
330
5C
100
AcDbEntity
  8
0
  6
Continuous
 62
     7
100
AcDbLine
 10
-944.1499984263919
 20
-1013.947032357384
 30
0.0
 11
-944.1499984263919
 21
-1020.149999450318
 31
0.0
  0
LINE
  5
184
330
5C
100
AcDbEntity
  8
0
  6
Continuous
 62
     7
100
AcDbLine
 10
-942.9499984263919
 20
-1011.855752422503
 30
0.0
 11
-942.9499984263919
 21
-1020.149999450318
 31
0.0
  0
LINE
  5
185
330
5C
100
AcDbEntity
  8
0
  6
Continuous
 62
     7
100
AcDbLine
 10
-1025.399998426392
 20
-1016.549999450318
 30
0.0
 11
-1026.399998426392
 21
-1016.549999450318
 31
0.0
  0
LINE
  5
186
330
5C
100
AcDbEntity
  8
0
  6
Continuous
 62
     7
100
AcDbLine
 10
-1026.649998426392
 20
-1020.149999450318
 30
0.0
 11
-1027.849998426392
 21
-1020.149999450318
 31
0.0
  0
LINE
  5
187
330
5C
100
AcDbEntity
  8
0
  6
Continuous
 62
     7
100
AcDbLine
 10
-1025.399998426392
 20
-1020.549999450318
 30
0.0
 11
-1026.399998426392
 21
-1020.549999450318
 31
0.0
  0
LINE
  5
188
330
5C
100
AcDbEntity
  8
0
  6
Continuous
 62
     7
100
AcDbLine
 10
-1025.399998426392
 20
-1013.947032357384
 30
0.0
 11
-1026.649998426392
 21
-1013.947032357384
 31
0.0
  0
LINE
  5
189
330
5C
100
AcDbEntity
  8
0
  6
Continuous
 62
     7
100
AcDbLine
 10
-1026.649998426392
 20
-1013.947032357384
 30
0.0
 11
-1026.649998426392
 21
-1020.149999450318
 31
0.0
  0
LINE
  5
18A
330
5C
100
AcDbEntity
  8
0
  6
Continuous
 62
     7
100
AcDbLine
 10
-1026.649998426392
 20
-1011.855752422503
 30
0.0
 11
-1026.649998426392
 21
-1013.947032357384
 31
0.0
  0
LINE
  5
18B
330
5C
100
AcDbEntity
  8
0
  6
Continuous
 62
     7
100
AcDbLine
 10
-1026.399998426392
 20
-1020.549999450318
 30
0.0
 11
-1026.399998426392
 21
-1016.549999450318
 31
0.0
  0
LINE
  5
18C
330
5C
100
AcDbEntity
  8
0
  6
Continuous
 62
     7
100
AcDbLine
 10
-1027.849998426392
 20
-976.549999450318
 30
0.0
 11
-1027.849998426392
 21
-1011.855752422503
 31
0.0
  0
LINE
  5
18D
330
5C
100
AcDbEntity
  8
0
  6
Continuous
 62
     7
100
AcDbLine
 10
-1006.399998426392
 20
-1011.855752422503
 30
0.0
 11
-1006.399998426392
 21
-1019.40685369981
 31
0.0
  0
LINE
  5
18E
330
5C
100
AcDbEntity
  8
0
  6
Continuous
 62
     7
100
AcDbLine
 10
-1006.399998426392
 20
-1019.40685369981
 30
0.0
 11
-1007.399998426392
 21
-1019.40685369981
 31
0.0
  0
LINE
  5
18F
330
5C
100
AcDbEntity
  8
0
  6
Continuous
 62
     7
100
AcDbLine
 10
-944.1499984263919
 20
-1013.947032357384
 30
0.0
 11
-944.3999984263919
 21
-1013.947032357384
 31
0.0
  0
LINE
  5
190
330
5C
100
AcDbEntity
  8
0
  6
Continuous
 62
     7
100
AcDbLine
 10
-944.1499984263919
 20
-1011.855752422503
 30
0.0
 11
-944.1499984263919
 21
-1013.947032357384
 31
0.0
  0
LINE
  5
191
330
5C
100
AcDbEntity
  8
0
  6
Continuous
 62
     7
100
AcDbLine
 10
-942.9499984263919
 20
-1011.855752422503
 30
0.0
 11
-942.9499984263919
 21
-976.549999450318
 31
0.0
  0
LINE
  5
192
330
5C
100
AcDbEntity
  8
0
  6
Continuous
 62
     7
100
AcDbLine
 10
-1025.399998426392
 20
-1020.549999450318
 30
0.0
 11
-1025.399998426392
 21
-1016.549999450318
 31
0.0
  0
LINE
  5
193
330
5C
100
AcDbEntity
  8
0
  6
Continuous
 62
     7
100
AcDbLine
 10
-1025.399998426392
 20
-1016.549999450318
 30
0.0
 11
-1025.399998426392
 21
-1011.855752422503
 31
0.0
  0
LINE
  5
194
330
5C
100
AcDbEntity
  8
0
  6
Continuous
 62
     7
100
AcDbLine
 10
-1007.399998426392
 20
-1020.549999450318
 30
0.0
 11
-1007.399998426392
 21
-1019.40685369981
 31
0.0
  0
LINE
  5
195
330
5C
100
AcDbEntity
  8
0
  6
Continuous
 62
     7
100
AcDbLine
 10
-1006.399998426392
 20
-1019.40685369981
 30
0.0
 11
-1006.399998426392
 21
-1020.549999450318
 31
0.0
  0
LINE
  5
196
330
5C
100
AcDbEntity
  8
0
  6
Continuous
 62
     7
100
AcDbLine
 10
-942.9499984263919
 20
-976.549999450318
 30
0.0
 11
-1027.849998426392
 21
-976.549999450318
 31
0.0
  0
ENDBLK
  5
5E
330
5C
100
AcDbEntity
  8
0
100
AcDbBlockEnd
  0
BLOCK
  5
61
330
5F
100
AcDbEntity
  8
0
100
AcDbBlockBegin
  2
Left1
 70
     0
 10
-985.3999999761376
 20
-998.5500025020559
 30
0.0
  3
Left1
  1

  0
INSERT
  5
60
330
5F
100
AcDbEntity
  8
0
100
AcDbBlockReference
  2
EB_3-31_UKH-select__4
 10
-1027.849998426392
 20
-1020.549999450318
 30
0.0
  0
MTEXT
  5
197
330
5F
100
AcDbEntity
  8
1
 62
     6
100
AcDbMText
 10
-985.399999976138
 20
-1025.550001976177
 30
0.0
 40
5.0
 41
0.0
 71
     2
 72
     1
  1
 
  7
CONVERTER_11
 73
     1
 44
1.32052821128451
  0
ENDBLK
  5
62
330
5F
100
AcDbEntity
  8
0
100
AcDbBlockEnd
  0
BLOCK
  5
64
330
63
100
AcDbEntity
  8
0
100
AcDbBlockBegin
  2
EB_3-31_UKH-select__5
 70
     0
 10
-1228.050001573613
 20
-1020.549999450318
 30
0.0
  3
EB_3-31_UKH-select__5
  1

  0
LINE
  5
198
330
63
100
AcDbEntity
  8
0
  6
Continuous
 62
     7
100
AcDbLine
 10
-1206.600001573613
 20
-1020.549999450318
 30
0.0
 11
-1206.600001573613
 21
-1016.549999450318
 31
0.0
  0
LINE
  5
199
330
63
100
AcDbEntity
  8
0
  6
Continuous
 62
     7
100
AcDbLine
 10
-1206.600001573613
 20
-1013.749999450318
 30
0.0
 11
-1206.600001573613
 21
-1016.549999450318
 31
0.0
  0
LINE
  5
19A
330
63
100
AcDbEntity
  8
0
  6
Continuous
 62
     7
100
AcDbLine
 10
-1207.600001573613
 20
-1016.549999450318
 30
0.0
 11
-1206.600001573613
 21
-1016.549999450318
 31
0.0
  0
LINE
  5
19B
330
63
100
AcDbEntity
  8
0
  6
Continuous
 62
     7
100
AcDbLine
 10
-1207.600001573613
 20
-1013.749999450318
 30
0.0
 11
-1207.600001573613
 21
-1016.549999450318
 31
0.0
  0
LINE
  5
19C
330
63
100
AcDbEntity
  8
0
  6
Continuous
 62
     7
100
AcDbLine
 10
-1226.600001573613
 20
-1020.549999450318
 30
0.0
 11
-1206.600001573613
 21
-1020.549999450318
 31
0.0
  0
LINE
  5
19D
330
63
100
AcDbEntity
  8
0
  6
Continuous
 62
     7
100
AcDbLine
 10
-1226.600001573613
 20
-1016.549999450318
 30
0.0
 11
-1225.600001573613
 21
-1016.549999450318
 31
0.0
  0
LINE
  5
19E
330
63
100
AcDbEntity
  8
0
  6
Continuous
 62
     7
100
AcDbLine
 10
-1226.600001573613
 20
-1016.549999450318
 30
0.0
 11
-1226.600001573613
 21
-1020.549999450318
 31
0.0
  0
LINE
  5
19F
330
63
100
AcDbEntity
  8
0
  6
Continuous
 62
     7
100
AcDbLine
 10
-1226.600001573613
 20
-1013.947032357384
 30
0.0
 11
-1226.600001573613
 21
-1016.549999450318
 31
0.0
  0
LINE
  5
1A0
330
63
100
AcDbEntity
  8
0
  6
Continuous
 62
     7
100
AcDbLine
 10
-1225.600001573613
 20
-1016.549999450318
 30
0.0
 11
-1225.600001573613
 21
-1013.947032357384
 31
0.0
  0
LINE
  5
1A1
330
63
100
AcDbEntity
  8
0
  6
Continuous
 62
     7
100
AcDbLine
 10
-1228.050001573613
 20
-1020.149999450318
 30
0.0
 11
-1228.050001573613
 21
-1012.249999450318
 31
0.0
  0
LINE
  5
1A2
330
63
100
AcDbEntity
  8
0
  6
Continuous
 62
     7
100
AcDbLine
 10
-1226.850001573613
 20
-1013.947032357384
 30
0.0
 11
-1222.550001573613
 21
-1013.947032357384
 31
0.0
  0
LINE
  5
1A3
330
63
100
AcDbEntity
  8
0
  6
Continuous
 62
     7
100
AcDbLine
 10
-1222.550001573613
 20
-1013.947032357384
 30
0.0
 11
-1222.550001573613
 21
-1012.249999450318
 31
0.0
  0
LINE
  5
1A4
330
63
100
AcDbEntity
  8
0
  6
Continuous
 62
     7
100
AcDbLine
 10
-1226.850001573613
 20
-1013.947032357384
 30
0.0
 11
-1226.850001573613
 21
-1020.149999450318
 31
0.0
  0
LINE
  5
1A5
330
63
100
AcDbEntity
  8
0
  6
Continuous
 62
     7
100
AcDbLine
 10
-1228.050001573613
 20
-1020.149999450318
 30
0.0
 11
-1226.850001573613
 21
-1020.149999450318
 31
0.0
  0
LINE
  5
1A6
330
63
100
AcDbEntity
  8
0
  6
Continuous
 62
     7
100
AcDbLine
 10
-1195.600001573613
 20
-1013.749999450318
 30
0.0
 11
-1195.600001573613
 21
-1016.549999450318
 31
0.0
  0
LINE
  5
1A7
330
63
100
AcDbEntity
  8
0
  6
Continuous
 62
     7
100
AcDbLine
 10
-1195.600001573613
 20
-1016.549999450318
 30
0.0
 11
-1195.600001573613
 21
-1020.549999450318
 31
0.0
  0
LINE
  5
1A8
330
63
100
AcDbEntity
  8
0
  6
Continuous
 62
     7
100
AcDbLine
 10
-1225.600001573613
 20
-1016.549999450318
 30
0.0
 11
-1207.600001573613
 21
-1016.549999450318
 31
0.0
  0
LINE
  5
1A9
330
63
100
AcDbEntity
  8
0
  6
Continuous
 62
     7
100
AcDbLine
 10
-1206.600001573613
 20
-1005.749999450318
 30
0.0
 11
-1206.600001573613
 21
-1013.749999450318
 31
0.0
  0
LINE
  5
1AA
330
63
100
AcDbEntity
  8
0
  6
Continuous
 62
     7
100
AcDbLine
 10
-1222.550001573613
 20
-1005.049999450318
 30
0.0
 11
-1222.550001573613
 21
-1012.249999450318
 31
0.0
  0
LINE
  5
1AB
330
63
100
AcDbEntity
  8
0
  6
Continuous
 62
     7
100
AcDbLine
 10
-1228.050001573613
 20
-1012.249999450318
 30
0.0
 11
-1228.050001573613
 21
-1005.049999450318
 31
0.0
  0
LINE
  5
1AC
330
63
100
AcDbEntity
  8
0
  6
Continuous
 62
     7
100
AcDbLine
 10
-1222.550001573613
 20
-1012.249999450318
 30
0.0
 11
-1228.050001573613
 21
-1012.249999450318
 31
0.0
  0
LINE
  5
1AD
330
63
100
AcDbEntity
  8
0
  6
Continuous
 62
     7
100
AcDbLine
 10
-1222.550001573613
 20
-1005.049999450318
 30
0.0
 11
-1228.050001573613
 21
-1005.049999450318
 31
0.0
  0
LINE
  5
1AE
330
63
100
AcDbEntity
  8
0
  6
Continuous
 62
     7
100
AcDbLine
 10
-1195.600001573613
 20
-1005.749999450318
 30
0.0
 11
-1195.600001573613
 21
-1005.049999450318
 31
0.0
  0
LINE
  5
1AF
330
63
100
AcDbEntity
  8
0
  6
Continuous
 62
     7
100
AcDbLine
 10
-1195.600001573613
 20
-1013.749999450318
 30
0.0
 11
-1195.600001573613
 21
-1005.749999450318
 31
0.0
  0
LINE
  5
1B0
330
63
100
AcDbEntity
  8
0
  6
Continuous
 62
     7
100
AcDbLine
 10
-1228.050001573613
 20
-1005.049999450318
 30
0.0
 11
-1228.050001573613
 21
-976.549999450318
 31
0.0
  0
LINE
  5
1B1
330
63
100
AcDbEntity
  8
0
  6
Continuous
 62
     7
100
AcDbLine
 10
-1195.600001573613
 20
-1011.855752422503
 30
0.0
 11
-1206.600001573613
 21
-1011.855752422503
 31
0.0
  0
LINE
  5
1B2
330
63
100
AcDbEntity
  8
0
  6
Continuous
 62
     7
100
AcDbLine
 10
-1206.600001573613
 20
-1013.749999450318
 30
0.0
 11
-1207.600001573613
 21
-1013.749999450318
 31
0.0
  0
LINE
  5
1B3
330
63
100
AcDbEntity
  8
0
  6
Continuous
 62
     7
100
AcDbLine
 10
-1164.600001573613
 20
-1011.855752422503
 30
0.0
 11
-1175.600001573613
 21
-1011.855752422503
 31
0.0
  0
LINE
  5
1B4
330
63
100
AcDbEntity
  8
0
  6
Continuous
 62
     7
100
AcDbLine
 10
-1163.600001573613
 20
-1013.749999450318
 30
0.0
 11
-1164.600001573613
 21
-1013.749999450318
 31
0.0
  0
LINE
  5
1B5
330
63
100
AcDbEntity
  8
0
  6
Continuous
 62
     7
100
AcDbLine
 10
-1194.600001573613
 20
-1013.749999450318
 30
0.0
 11
-1195.600001573613
 21
-1013.749999450318
 31
0.0
  0
LINE
  5
1B6
330
63
100
AcDbEntity
  8
0
  6
Continuous
 62
     7
100
AcDbLine
 10
-1175.600001573613
 20
-1013.749999450318
 30
0.0
 11
-1176.600001573613
 21
-1013.749999450318
 31
0.0
  0
LINE
  5
1B7
330
63
100
AcDbEntity
  8
0
  6
Continuous
 62
     7
100
AcDbLine
 10
-1164.600001573613
 20
-1016.549999450318
 30
0.0
 11
-1164.600001573613
 21
-1020.549999450318
 31
0.0
  0
LINE
  5
1B8
330
63
100
AcDbEntity
  8
0
  6
Continuous
 62
     7
100
AcDbLine
 10
-1164.600001573613
 20
-1016.549999450318
 30
0.0
 11
-1164.600001573613
 21
-1013.749999450318
 31
0.0
  0
LINE
  5
1B9
330
63
100
AcDbEntity
  8
0
  6
Continuous
 62
     7
100
AcDbLine
 10
-1164.600001573613
 20
-1005.049999450318
 30
0.0
 11
-1164.600001573613
 21
-1005.749999450318
 31
0.0
  0
LINE
  5
1BA
330
63
100
AcDbEntity
  8
0
  6
Continuous
 62
     7
100
AcDbLine
 10
-1164.600001573613
 20
-1013.749999450318
 30
0.0
 11
-1164.600001573613
 21
-1005.749999450318
 31
0.0
  0
LINE
  5
1BB
330
63
100
AcDbEntity
  8
0
  6
Continuous
 62
     7
100
AcDbLine
 10
-1163.600001573613
 20
-1016.549999450318
 30
0.0
 11
-1163.600001573613
 21
-1013.749999450318
 31
0.0
  0
LINE
  5
1BC
330
63
100
AcDbEntity
  8
0
  6
Continuous
 62
     7
100
AcDbLine
 10
-1148.650001573613
 20
-1012.249999450318
 30
0.0
 11
-1148.650001573613
 21
-1013.947032357384
 31
0.0
  0
LINE
  5
1BD
330
63
100
AcDbEntity
  8
0
  6
Continuous
 62
     7
100
AcDbLine
 10
-1148.650001573613
 20
-1012.249999450318
 30
0.0
 11
-1148.650001573613
 21
-1005.049999450318
 31
0.0
  0
LINE
  5
1BE
330
63
100
AcDbEntity
  8
0
  6
Continuous
 62
     7
100
AcDbLine
 10
-1148.650001573613
 20
-1013.947032357384
 30
0.0
 11
-1144.350001573613
 21
-1013.947032357384
 31
0.0
  0
LINE
  5
1BF
330
63
100
AcDbEntity
  8
0
  6
Continuous
 62
     7
100
AcDbLine
 10
-1148.650001573613
 20
-1012.249999450318
 30
0.0
 11
-1143.150001573613
 21
-1012.249999450318
 31
0.0
  0
LINE
  5
1C0
330
63
100
AcDbEntity
  8
0
  6
Continuous
 62
     7
100
AcDbLine
 10
-1143.150001573613
 20
-1012.249999450318
 30
0.0
 11
-1143.150001573613
 21
-1005.049999450318
 31
0.0
  0
LINE
  5
1C1
330
63
100
AcDbEntity
  8
0
  6
Continuous
 62
     7
100
AcDbLine
 10
-1145.600001573613
 20
-1013.947032357384
 30
0.0
 11
-1145.600001573613
 21
-1016.549999450318
 31
0.0
  0
LINE
  5
1C2
330
63
100
AcDbEntity
  8
0
  6
Continuous
 62
     7
100
AcDbLine
 10
-1143.150001573613
 20
-1005.049999450318
 30
0.0
 11
-1143.150001573613
 21
-976.549999450318
 31
0.0
  0
LINE
  5
1C3
330
63
100
AcDbEntity
  8
0
  6
Continuous
 62
     7
100
AcDbLine
 10
-1143.150001573613
 20
-1020.149999450318
 30
0.0
 11
-1143.150001573613
 21
-1012.249999450318
 31
0.0
  0
LINE
  5
1C4
330
63
100
AcDbEntity
  8
0
  6
Continuous
 62
     7
100
AcDbLine
 10
-1176.600001573613
 20
-1013.749999450318
 30
0.0
 11
-1176.600001573613
 21
-1016.549999450318
 31
0.0
  0
LINE
  5
1C5
330
63
100
AcDbEntity
  8
0
  6
Continuous
 62
     7
100
AcDbLine
 10
-1176.600001573613
 20
-1016.549999450318
 30
0.0
 11
-1175.600001573613
 21
-1016.549999450318
 31
0.0
  0
LINE
  5
1C6
330
63
100
AcDbEntity
  8
0
  6
Continuous
 62
     7
100
AcDbLine
 10
-1144.350001573613
 20
-1013.947032357384
 30
0.0
 11
-1144.350001573613
 21
-1020.149999450318
 31
0.0
  0
LINE
  5
1C7
330
63
100
AcDbEntity
  8
0
  6
Continuous
 62
     7
100
AcDbLine
 10
-1145.600001573613
 20
-1016.549999450318
 30
0.0
 11
-1144.600001573613
 21
-1016.549999450318
 31
0.0
  0
LINE
  5
1C8
330
63
100
AcDbEntity
  8
0
  6
Continuous
 62
     7
100
AcDbLine
 10
-1164.600001573613
 20
-1016.549999450318
 30
0.0
 11
-1163.600001573613
 21
-1016.549999450318
 31
0.0
  0
LINE
  5
1C9
330
63
100
AcDbEntity
  8
0
  6
Continuous
 62
     7
100
AcDbLine
 10
-1163.600001573613
 20
-1016.549999450318
 30
0.0
 11
-1145.600001573613
 21
-1016.549999450318
 31
0.0
  0
LINE
  5
1CA
330
63
100
AcDbEntity
  8
0
  6
Continuous
 62
     7
100
AcDbLine
 10
-1144.600001573613
 20
-1016.549999450318
 30
0.0
 11
-1144.600001573613
 21
-1020.549999450318
 31
0.0
  0
LINE
  5
1CB
330
63
100
AcDbEntity
  8
0
  6
Continuous
 62
     7
100
AcDbLine
 10
-1195.600001573613
 20
-1016.549999450318
 30
0.0
 11
-1194.600001573613
 21
-1016.549999450318
 31
0.0
  0
LINE
  5
1CC
330
63
100
AcDbEntity
  8
0
  6
Continuous
 62
     7
100
AcDbLine
 10
-1195.600001573613
 20
-1020.549999450318
 30
0.0
 11
-1175.600001573613
 21
-1020.549999450318
 31
0.0
  0
LINE
  5
1CD
330
63
100
AcDbEntity
  8
0
  6
Continuous
 62
     7
100
AcDbLine
 10
-1164.600001573613
 20
-1020.549999450318
 30
0.0
 11
-1144.600001573613
 21
-1020.549999450318
 31
0.0
  0
LINE
  5
1CE
330
63
100
AcDbEntity
  8
0
  6
Continuous
 62
     7
100
AcDbLine
 10
-1144.350001573613
 20
-1020.149999450318
 30
0.0
 11
-1143.150001573613
 21
-1020.149999450318
 31
0.0
  0
LINE
  5
1CF
330
63
100
AcDbEntity
  8
0
  6
Continuous
 62
     7
100
AcDbLine
 10
-1143.150001573613
 20
-1005.049999450318
 30
0.0
 11
-1148.650001573613
 21
-1005.049999450318
 31
0.0
  0
LINE
  5
1D0
330
63
100
AcDbEntity
  8
0
  6
Continuous
 62
     7
100
AcDbLine
 10
-1206.600001573613
 20
-1005.049999450318
 30
0.0
 11
-1206.600001573613
 21
-1005.749999450318
 31
0.0
  0
LINE
  5
1D1
330
63
100
AcDbEntity
  8
0
  6
Continuous
 62
     7
100
AcDbLine
 10
-1175.600001573613
 20
-1005.049999450318
 30
0.0
 11
-1164.600001573613
 21
-1005.049999450318
 31
0.0
  0
LINE
  5
1D2
330
63
100
AcDbEntity
  8
0
  6
Continuous
 62
     7
100
AcDbLine
 10
-1164.600001573613
 20
-1005.049999450318
 30
0.0
 11
-1148.650001573613
 21
-1005.049999450318
 31
0.0
  0
LINE
  5
1D3
330
63
100
AcDbEntity
  8
0
  6
Continuous
 62
     7
100
AcDbLine
 10
-1195.600001573613
 20
-1005.749999450318
 30
0.0
 11
-1175.600001573613
 21
-1005.749999450318
 31
0.0
  0
LINE
  5
1D4
330
63
100
AcDbEntity
  8
0
  6
Continuous
 62
     7
100
AcDbLine
 10
-1195.600001573613
 20
-1005.049999450318
 30
0.0
 11
-1175.600001573613
 21
-1005.049999450318
 31
0.0
  0
LINE
  5
1D5
330
63
100
AcDbEntity
  8
0
  6
Continuous
 62
     7
100
AcDbLine
 10
-1206.600001573613
 20
-1005.049999450318
 30
0.0
 11
-1195.600001573613
 21
-1005.049999450318
 31
0.0
  0
LINE
  5
1D6
330
63
100
AcDbEntity
  8
0
  6
Continuous
 62
     7
100
AcDbLine
 10
-1164.600001573613
 20
-1005.749999450318
 30
0.0
 11
-1148.650001573613
 21
-1005.749999450318
 31
0.0
  0
LINE
  5
1D7
330
63
100
AcDbEntity
  8
0
  6
Continuous
 62
     7
100
AcDbLine
 10
-1222.550001573613
 20
-1005.049999450318
 30
0.0
 11
-1206.600001573613
 21
-1005.049999450318
 31
0.0
  0
LINE
  5
1D8
330
63
100
AcDbEntity
  8
0
  6
Continuous
 62
     7
100
AcDbLine
 10
-1222.550001573613
 20
-1005.749999450318
 30
0.0
 11
-1206.600001573613
 21
-1005.749999450318
 31
0.0
  0
LINE
  5
1D9
330
63
100
AcDbEntity
  8
0
  6
Continuous
 62
     7
100
AcDbLine
 10
-1153.800001573613
 20
-993.6250319368585
 30
0.0
 11
-1153.688214747216
 21
-993.6250319368585
 31
0.0
  0
LINE
  5
1DA
330
63
100
AcDbEntity
  8
0
  6
Continuous
 62
     7
100
AcDbLine
 10
-1153.800001573613
 20
-998.9749669637774
 30
0.0
 11
-1153.800001573613
 21
-993.6250319368585
 31
0.0
  0
LINE
  5
1DB
330
63
100
AcDbEntity
  8
0
  6
Continuous
 62
     7
100
AcDbLine
 10
-1153.688214747216
 20
-998.9749669637774
 30
0.0
 11
-1153.800001573613
 21
-998.9749669637774
 31
0.0
  0
LINE
  5
1DC
330
63
100
AcDbEntity
  8
0
  6
Continuous
 62
     7
100
AcDbLine
 10
-1153.085877301744
 20
-995.5972751232921
 30
0.0
 11
-1153.688214747216
 21
-993.6250319368585
 31
0.0
  0
LINE
  5
1DD
330
63
100
AcDbEntity
  8
0
  6
Continuous
 62
     7
100
AcDbLine
 10
-1215.800001573613
 20
-998.9749669637774
 30
0.0
 11
-1215.800001573613
 21
-993.6250319368585
 31
0.0
  0
LINE
  5
1DE
330
63
100
AcDbEntity
  8
0
  6
Continuous
 62
     7
100
AcDbLine
 10
-1215.800001573613
 20
-993.6250319368585
 30
0.0
 11
-1215.688214747216
 21
-993.6250319368585
 31
0.0
  0
LINE
  5
1DF
330
63
100
AcDbEntity
  8
0
  6
Continuous
 62
     7
100
AcDbLine
 10
-1150.911788400009
 20
-993.6250319368585
 30
0.0
 11
-1150.800001573613
 21
-993.6250319368585
 31
0.0
  0
LINE
  5
1E0
330
63
100
AcDbEntity
  8
0
  6
Continuous
 62
     7
100
AcDbLine
 10
-1150.911788400009
 20
-993.6250319368585
 30
0.0
 11
-1153.688214747216
 21
-993.6250319368585
 31
0.0
  0
LINE
  5
1E1
330
63
100
AcDbEntity
  8
0
  6
Continuous
 62
     7
100
AcDbLine
 10
-1212.800001573613
 20
-993.6250319368585
 30
0.0
 11
-1212.800001573613
 21
-998.9749669637774
 31
0.0
  0
LINE
  5
1E2
330
63
100
AcDbEntity
  8
0
  6
Continuous
 62
     7
100
AcDbLine
 10
-1212.911788400009
 20
-993.6250319368585
 30
0.0
 11
-1212.800001573613
 21
-993.6250319368585
 31
0.0
  0
LINE
  5
1E3
330
63
100
AcDbEntity
  8
0
  6
Continuous
 62
     7
100
AcDbLine
 10
-1212.911788400009
 20
-993.6250319368585
 30
0.0
 11
-1215.688214747216
 21
-993.6250319368585
 31
0.0
  0
LINE
  5
1E4
330
63
100
AcDbEntity
  8
0
  6
Continuous
 62
     7
100
AcDbLine
 10
-1150.800001573613
 20
-998.9749669637774
 30
0.0
 11
-1150.911788400009
 21
-998.9749669637774
 31
0.0
  0
LINE
  5
1E5
330
63
100
AcDbEntity
  8
0
  6
Continuous
 62
     7
100
AcDbLine
 10
-1151.514125845482
 20
-997.002723777344
 30
0.0
 11
-1150.911788400009
 21
-998.9749669637774
 31
0.0
  0
LINE
  5
1E6
330
63
100
AcDbEntity
  8
0
  6
Continuous
 62
     7
100
AcDbLine
 10
-1153.085877301744
 20
-997.0027237773439
 30
0.0
 11
-1153.085877301744
 21
-995.5972751232921
 31
0.0
  0
LINE
  5
1E7
330
63
100
AcDbEntity
  8
0
  6
Continuous
 62
     7
100
AcDbLine
 10
-1153.085877301744
 20
-997.0027237773439
 30
0.0
 11
-1151.514125845482
 21
-997.002723777344
 31
0.0
  0
LINE
  5
1E8
330
63
100
AcDbEntity
  8
0
  6
Continuous
 62
     7
100
AcDbLine
 10
-1153.085877301744
 20
-995.5972751232921
 30
0.0
 11
-1151.514125845482
 21
-995.5972751232921
 31
0.0
  0
LINE
  5
1E9
330
63
100
AcDbEntity
  8
0
  6
Continuous
 62
     7
100
AcDbLine
 10
-1150.800001573613
 20
-998.9749669637774
 30
0.0
 11
-1150.800001573613
 21
-993.6250319368585
 31
0.0
  0
LINE
  5
1EA
330
63
100
AcDbEntity
  8
0
  6
Continuous
 62
     7
100
AcDbLine
 10
-1213.514125845482
 20
-995.5972751232921
 30
0.0
 11
-1215.085877301744
 21
-995.5972751232921
 31
0.0
  0
LINE
  5
1EB
330
63
100
AcDbEntity
  8
0
  6
Continuous
 62
     7
100
AcDbLine
 10
-1213.514125845482
 20
-997.002723777344
 30
0.0
 11
-1215.085877301744
 21
-997.0027237773439
 31
0.0
  0
LINE
  5
1EC
330
63
100
AcDbEntity
  8
0
  6
Continuous
 62
     7
100
AcDbLine
 10
-1151.514125845482
 20
-995.5972751232921
 30
0.0
 11
-1151.514125845482
 21
-997.002723777344
 31
0.0
  0
LINE
  5
1ED
330
63
100
AcDbEntity
  8
0
  6
Continuous
 62
     7
100
AcDbLine
 10
-1213.514125845482
 20
-995.5972751232921
 30
0.0
 11
-1213.514125845482
 21
-997.002723777344
 31
0.0
  0
LINE
  5
1EE
330
63
100
AcDbEntity
  8
0
  6
Continuous
 62
     7
100
AcDbLine
 10
-1215.085877301744
 20
-997.0027237773439
 30
0.0
 11
-1215.085877301744
 21
-995.5972751232921
 31
0.0
  0
LINE
  5
1EF
330
63
100
AcDbEntity
  8
0
  6
Continuous
 62
     7
100
AcDbLine
 10
-1143.150001573613
 20
-976.549999450318
 30
0.0
 11
-1228.050001573613
 21
-976.549999450318
 31
0.0
  0
LINE
  5
1F0
330
63
100
AcDbEntity
  8
0
  6
Continuous
 62
     7
100
AcDbLine
 10
-1150.911788400009
 20
-993.6250319368585
 30
0.0
 11
-1151.514125845482
 21
-995.5972751232921
 31
0.0
  0
LINE
  5
1F1
330
63
100
AcDbEntity
  8
0
  6
Continuous
 62
     7
100
AcDbLine
 10
-1215.688214747216
 20
-998.9749669637774
 30
0.0
 11
-1215.800001573613
 21
-998.9749669637774
 31
0.0
  0
LINE
  5
1F2
330
63
100
AcDbEntity
  8
0
  6
Continuous
 62
     7
100
AcDbLine
 10
-1212.800001573613
 20
-998.9749669637774
 30
0.0
 11
-1212.911788400009
 21
-998.9749669637774
 31
0.0
  0
LINE
  5
1F3
330
63
100
AcDbEntity
  8
0
  6
Continuous
 62
     7
100
AcDbLine
 10
-1153.688214747216
 20
-998.9749669637774
 30
0.0
 11
-1153.085877301744
 21
-997.0027237773439
 31
0.0
  0
LINE
  5
1F4
330
63
100
AcDbEntity
  8
0
  6
Continuous
 62
     7
100
AcDbLine
 10
-1150.911788400009
 20
-998.9749669637774
 30
0.0
 11
-1153.688214747216
 21
-998.9749669637774
 31
0.0
  0
LINE
  5
1F5
330
63
100
AcDbEntity
  8
0
  6
Continuous
 62
     7
100
AcDbLine
 10
-1213.514125845482
 20
-997.002723777344
 30
0.0
 11
-1212.911788400009
 21
-998.9749669637774
 31
0.0
  0
LINE
  5
1F6
330
63
100
AcDbEntity
  8
0
  6
Continuous
 62
     7
100
AcDbLine
 10
-1215.688214747216
 20
-998.9749669637774
 30
0.0
 11
-1215.085877301744
 21
-997.0027237773439
 31
0.0
  0
LINE
  5
1F7
330
63
100
AcDbEntity
  8
0
  6
Continuous
 62
     7
100
AcDbLine
 10
-1212.911788400009
 20
-998.9749669637774
 30
0.0
 11
-1215.688214747216
 21
-998.9749669637774
 31
0.0
  0
LINE
  5
1F8
330
63
100
AcDbEntity
  8
0
  6
Continuous
 62
     7
100
AcDbLine
 10
-1215.085877301744
 20
-995.5972751232921
 30
0.0
 11
-1215.688214747216
 21
-993.6250319368585
 31
0.0
  0
LINE
  5
1F9
330
63
100
AcDbEntity
  8
0
  6
Continuous
 62
     7
100
AcDbLine
 10
-1194.600001573613
 20
-1016.549999450318
 30
0.0
 11
-1194.600001573613
 21
-1013.749999450318
 31
0.0
  0
LINE
  5
1FA
330
63
100
AcDbEntity
  8
0
  6
Continuous
 62
     7
100
AcDbLine
 10
-1194.600001573613
 20
-1016.549999450318
 30
0.0
 11
-1176.600001573613
 21
-1016.549999450318
 31
0.0
  0
LINE
  5
1FB
330
63
100
AcDbEntity
  8
0
  6
Continuous
 62
     7
100
AcDbLine
 10
-1175.600001573613
 20
-1013.749999450318
 30
0.0
 11
-1175.600001573613
 21
-1016.549999450318
 31
0.0
  0
LINE
  5
1FC
330
63
100
AcDbEntity
  8
0
  6
Continuous
 62
     7
100
AcDbLine
 10
-1175.600001573613
 20
-1020.549999450318
 30
0.0
 11
-1175.600001573613
 21
-1016.549999450318
 31
0.0
  0
LINE
  5
1FD
330
63
100
AcDbEntity
  8
0
  6
Continuous
 62
     7
100
AcDbLine
 10
-1175.600001573613
 20
-1005.049999450318
 30
0.0
 11
-1175.600001573613
 21
-1005.749999450318
 31
0.0
  0
LINE
  5
1FE
330
63
100
AcDbEntity
  8
0
  6
Continuous
 62
     7
100
AcDbLine
 10
-1175.600001573613
 20
-1005.749999450318
 30
0.0
 11
-1175.600001573613
 21
-1013.749999450318
 31
0.0
  0
LINE
  5
1FF
330
63
100
AcDbEntity
  8
0
  6
Continuous
 62
     7
100
AcDbLine
 10
-1212.911788400009
 20
-993.6250319368585
 30
0.0
 11
-1213.514125845482
 21
-995.5972751232921
 31
0.0
  0
ENDBLK
  5
65
330
63
100
AcDbEntity
  8
0
100
AcDbBlockEnd
  0
BLOCK
  5
68
330
66
100
AcDbEntity
  8
0
100
AcDbBlockBegin
  2
Right1
 70
     0
 10
-1185.600000023867
 20
-998.5500025020559
 30
0.0
  3
Right1
  1

  0
INSERT
  5
67
330
66
100
AcDbEntity
  8
0
100
AcDbBlockReference
  2
EB_3-31_UKH-select__5
 10
-1228.050001573613
 20
-1020.549999450318
 30
0.0
  0
MTEXT
  5
200
330
66
100
AcDbEntity
  8
1
 62
     6
100
AcDbMText
 10
-1185.600000023867
 20
-1025.550001976177
 30
0.0
 40
5.0
 41
0.0
 71
     2
 72
     1
  1
 
  7
CONVERTER_11
 73
     1
 44
1.32052821128451
  0
ENDBLK
  5
69
330
66
100
AcDbEntity
  8
0
100
AcDbBlockEnd
  0
BLOCK
  5
6B
330
6A
100
AcDbEntity
  8
0
100
AcDbBlockBegin
  2
EB_3-31_UKH-select__6
 70
     0
 10
-1097.150000314162
 20
-1144.450001549771
 30
0.0
  3
EB_3-31_UKH-select__6
  1

  0
LINE
  5
201
330
6A
100
AcDbEntity
  8
0
  6
Continuous
 62
     7
100
AcDbLine
 10
-1077.850000314162
 20
-1111.000001549771
 30
0.0
 11
-1081.050000314162
 21
-1111.000001549771
 31
0.0
  0
LINE
  5
202
330
6A
100
AcDbEntity
  8
0
  6
Continuous
 62
     7
100
AcDbLine
 10
-1077.850000314162
 20
-1142.000001549771
 30
0.0
 11
-1081.050000314162
 21
-1142.000001549771
 31
0.0
  0
LINE
  5
203
330
6A
100
AcDbEntity
  8
0
  6
Continuous
 62
     7
100
AcDbLine
 10
-1077.850000314162
 20
-1143.000001549771
 30
0.0
 11
-1077.850000314162
 21
-1142.000001549771
 31
0.0
  0
LINE
  5
204
330
6A
100
AcDbEntity
  8
0
  6
Continuous
 62
     7
100
AcDbLine
 10
-1083.250000314162
 20
-1144.450001549771
 30
0.0
 11
-1090.450000314162
 21
-1144.450001549771
 31
0.0
  0
LINE
  5
205
330
6A
100
AcDbEntity
  8
0
  6
Continuous
 62
     7
100
AcDbLine
 10
-1090.450000314162
 20
-1129.200001549771
 30
0.0
 11
-1090.450000314162
 21
-1132.200001549771
 31
0.0
  0
LINE
  5
206
330
6A
100
AcDbEntity
  8
0
  6
Continuous
 62
     7
100
AcDbLine
 10
-1090.450000314162
 20
-1138.950001549771
 30
0.0
 11
-1090.450000314162
 21
-1144.450001549771
 31
0.0
  0
LINE
  5
207
330
6A
100
AcDbEntity
  8
0
  6
Continuous
 62
     7
100
AcDbLine
 10
-1083.850000314162
 20
-1092.000001549771
 30
0.0
 11
-1083.850000314162
 21
-1093.000001549771
 31
0.0
  0
LINE
  5
208
330
6A
100
AcDbEntity
  8
0
  6
Continuous
 62
     7
100
AcDbLine
 10
-1083.850000314162
 20
-1080.000001549771
 30
0.0
 11
-1083.850000314162
 21
-1081.000001549771
 31
0.0
  0
LINE
  5
209
330
6A
100
AcDbEntity
  8
0
  6
Continuous
 62
     7
100
AcDbLine
 10
-1083.250000314162
 20
-1059.550001549771
 30
0.0
 11
-1090.450000314162
 21
-1059.550001549771
 31
0.0
  0
LINE
  5
20A
330
6A
100
AcDbEntity
  8
0
  6
Continuous
 62
     7
100
AcDbLine
 10
-1090.450000314162
 20
-1070.200001549771
 30
0.0
 11
-1090.450000314162
 21
-1129.200001549771
 31
0.0
  0
LINE
  5
20B
330
6A
100
AcDbEntity
  8
0
  6
Continuous
 62
     7
100
AcDbLine
 10
-1083.850000314162
 20
-1111.000001549771
 30
0.0
 11
-1083.850000314162
 21
-1112.000001549771
 31
0.0
  0
LINE
  5
20C
330
6A
100
AcDbEntity
  8
0
  6
Continuous
 62
     7
100
AcDbLine
 10
-1083.250000314162
 20
-1065.050001549771
 30
0.0
 11
-1083.250000314162
 21
-1059.550001549771
 31
0.0
  0
LINE
  5
20D
330
6A
100
AcDbEntity
  8
0
  6
Continuous
 62
     7
100
AcDbLine
 10
-1097.150000314162
 20
-1144.450001549771
 30
0.0
 11
-1097.150000314162
 21
-1059.550001549771
 31
0.0
  0
LINE
  5
20E
330
6A
100
AcDbEntity
  8
0
  6
Continuous
 62
     7
100
AcDbLine
 10
-1081.050000314162
 20
-1111.000001549771
 30
0.0
 11
-1081.050000314162
 21
-1093.000001549771
 31
0.0
  0
LINE
  5
20F
330
6A
100
AcDbEntity
  8
0
  6
Continuous
 62
     7
100
AcDbLine
 10
-1081.050000314162
 20
-1142.000001549771
 30
0.0
 11
-1081.050000314162
 21
-1124.000001549771
 31
0.0
  0
LINE
  5
210
330
6A
100
AcDbEntity
  8
0
  6
Continuous
 62
     7
100
AcDbLine
 10
-1048.850000314162
 20
-1143.000001549771
 30
0.0
 11
-1048.850000314162
 21
-1123.000001549771
 31
0.0
  0
LINE
  5
211
330
6A
100
AcDbEntity
  8
0
  6
Continuous
 62
     7
100
AcDbLine
 10
-1077.850000314162
 20
-1123.000001549771
 30
0.0
 11
-1048.850000314162
 21
-1123.000001549771
 31
0.0
  0
LINE
  5
212
330
6A
100
AcDbEntity
  8
0
  6
Continuous
 62
     7
100
AcDbLine
 10
-1077.850000314162
 20
-1124.000001549771
 30
0.0
 11
-1077.850000314162
 21
-1123.000001549771
 31
0.0
  0
LINE
  5
213
330
6A
100
AcDbEntity
  8
0
  6
Continuous
 62
     7
100
AcDbLine
 10
-1081.050000314162
 20
-1124.000001549771
 30
0.0
 11
-1077.850000314162
 21
-1124.000001549771
 31
0.0
  0
LINE
  5
214
330
6A
100
AcDbEntity
  8
0
  6
Continuous
 62
     7
100
AcDbLine
 10
-1048.850000314162
 20
-1143.000001549771
 30
0.0
 11
-1077.850000314162
 21
-1143.000001549771
 31
0.0
  0
LINE
  5
215
330
6A
100
AcDbEntity
  8
0
  6
Continuous
 62
     7
100
AcDbLine
 10
-1048.850000314162
 20
-1061.000001549771
 30
0.0
 11
-1077.850000314162
 21
-1061.000001549771
 31
0.0
  0
LINE
  5
216
330
6A
100
AcDbEntity
  8
0
  6
Continuous
 62
     7
100
AcDbLine
 10
-1077.850000314162
 20
-1062.000001549771
 30
0.0
 11
-1077.850000314162
 21
-1061.000001549771
 31
0.0
  0
LINE
  5
217
330
6A
100
AcDbEntity
  8
0
  6
Continuous
 62
     7
100
AcDbLine
 10
-1048.850000314162
 20
-1081.000001549771
 30
0.0
 11
-1048.850000314162
 21
-1061.000001549771
 31
0.0
  0
LINE
  5
218
330
6A
100
AcDbEntity
  8
0
  6
Continuous
 62
     7
100
AcDbLine
 10
-1077.850000314162
 20
-1080.000001549771
 30
0.0
 11
-1077.850000314162
 21
-1081.000001549771
 31
0.0
  0
LINE
  5
219
330
6A
100
AcDbEntity
  8
0
  6
Continuous
 62
     7
100
AcDbLine
 10
-1081.050000314162
 20
-1080.000001549771
 30
0.0
 11
-1077.850000314162
 21
-1080.000001549771
 31
0.0
  0
LINE
  5
21A
330
6A
100
AcDbEntity
  8
0
  6
Continuous
 62
     7
100
AcDbLine
 10
-1081.050000314162
 20
-1062.000001549771
 30
0.0
 11
-1077.850000314162
 21
-1062.000001549771
 31
0.0
  0
LINE
  5
21B
330
6A
100
AcDbEntity
  8
0
  6
Continuous
 62
     7
100
AcDbLine
 10
-1081.050000314162
 20
-1093.000001549771
 30
0.0
 11
-1077.850000314162
 21
-1093.000001549771
 31
0.0
  0
LINE
  5
21C
330
6A
100
AcDbEntity
  8
0
  6
Continuous
 62
     7
100
AcDbLine
 10
-1081.050000314162
 20
-1062.000001549771
 30
0.0
 11
-1081.050000314162
 21
-1080.000001549771
 31
0.0
  0
LINE
  5
21D
330
6A
100
AcDbEntity
  8
0
  6
Continuous
 62
     7
100
AcDbLine
 10
-1077.850000314162
 20
-1081.000001549771
 30
0.0
 11
-1048.850000314162
 21
-1081.000001549771
 31
0.0
  0
LINE
  5
21E
330
6A
100
AcDbEntity
  8
0
  6
Continuous
 62
     7
100
AcDbLine
 10
-1048.850000314162
 20
-1112.000001549771
 30
0.0
 11
-1048.850000314162
 21
-1092.000001549771
 31
0.0
  0
LINE
  5
21F
330
6A
100
AcDbEntity
  8
0
  6
Continuous
 62
     7
100
AcDbLine
 10
-1077.850000314162
 20
-1093.000001549771
 30
0.0
 11
-1077.850000314162
 21
-1092.000001549771
 31
0.0
  0
LINE
  5
220
330
6A
100
AcDbEntity
  8
0
  6
Continuous
 62
     7
100
AcDbLine
 10
-1077.850000314162
 20
-1112.000001549771
 30
0.0
 11
-1077.850000314162
 21
-1111.000001549771
 31
0.0
  0
LINE
  5
221
330
6A
100
AcDbEntity
  8
0
  6
Continuous
 62
     7
100
AcDbLine
 10
-1077.850000314162
 20
-1092.000001549771
 30
0.0
 11
-1048.850000314162
 21
-1092.000001549771
 31
0.0
  0
LINE
  5
222
330
6A
100
AcDbEntity
  8
0
  6
Continuous
 62
     7
100
AcDbLine
 10
-1083.850000314162
 20
-1093.000001549771
 30
0.0
 11
-1081.050000314162
 21
-1093.000001549771
 31
0.0
  0
LINE
  5
223
330
6A
100
AcDbEntity
  8
0
  6
Continuous
 62
     7
100
AcDbLine
 10
-1081.050000314162
 20
-1080.000001549771
 30
0.0
 11
-1083.850000314162
 21
-1080.000001549771
 31
0.0
  0
LINE
  5
224
330
6A
100
AcDbEntity
  8
0
  6
Continuous
 62
     7
100
AcDbLine
 10
-1090.450000314162
 20
-1059.550001549771
 30
0.0
 11
-1090.450000314162
 21
-1065.050001549771
 31
0.0
  0
LINE
  5
225
330
6A
100
AcDbEntity
  8
0
  6
Continuous
 62
     7
100
AcDbLine
 10
-1048.850000314162
 20
-1112.000001549771
 30
0.0
 11
-1077.850000314162
 21
-1112.000001549771
 31
0.0
  0
LINE
  5
226
330
6A
100
AcDbEntity
  8
0
  6
Continuous
 62
     7
100
AcDbLine
 10
-1090.450000314162
 20
-1065.050001549771
 30
0.0
 11
-1090.450000314162
 21
-1067.200001549771
 31
0.0
  0
LINE
  5
227
330
6A
100
AcDbEntity
  8
0
  6
Continuous
 62
     7
100
AcDbLine
 10
-1088.400000314162
 20
-1067.200001549771
 30
0.0
 11
-1090.450000314162
 21
-1067.200001549771
 31
0.0
  0
LINE
  5
228
330
6A
100
AcDbEntity
  8
0
  6
Continuous
 62
     7
100
AcDbLine
 10
-1088.400000314162
 20
-1070.200001549771
 30
0.0
 11
-1090.450000314162
 21
-1070.200001549771
 31
0.0
  0
LINE
  5
229
330
6A
100
AcDbEntity
  8
0
  6
Continuous
 62
     7
100
AcDbLine
 10
-1090.450000314162
 20
-1067.200001549771
 30
0.0
 11
-1090.450000314162
 21
-1070.200001549771
 31
0.0
  0
LINE
  5
22A
330
6A
100
AcDbEntity
  8
0
  6
Continuous
 62
     7
100
AcDbLine
 10
-1088.400000314162
 20
-1070.200001549771
 30
0.0
 11
-1087.766025717947
 21
-1070.088214723374
 31
0.0
  0
LINE
  5
22B
330
6A
100
AcDbEntity
  8
0
  6
Continuous
 62
     7
100
AcDbLine
 10
-1087.766025717947
 20
-1067.311788376167
 30
0.0
 11
-1088.400000314162
 21
-1067.200001549771
 31
0.0
  0
LINE
  5
22C
330
6A
100
AcDbEntity
  8
0
  6
Continuous
 62
     7
100
AcDbLine
 10
-1083.250000314162
 20
-1062.000001549771
 30
0.0
 11
-1081.050000314162
 21
-1062.000001549771
 31
0.0
  0
LINE
  5
22D
330
6A
100
AcDbEntity
  8
0
  6
Continuous
 62
     7
100
AcDbLine
 10
-1087.766025717947
 20
-1067.311788376167
 30
0.0
 11
-1087.766025717947
 21
-1070.088214723374
 31
0.0
  0
LINE
  5
22E
330
6A
100
AcDbEntity
  8
0
  6
Continuous
 62
     7
100
AcDbLine
 10
-1088.400000314162
 20
-1067.200001549771
 30
0.0
 11
-1088.400000314162
 21
-1070.200001549771
 31
0.0
  0
LINE
  5
22F
330
6A
100
AcDbEntity
  8
0
  6
Continuous
 62
     7
100
AcDbLine
 10
-1084.350000314162
 20
-1069.485877277901
 30
0.0
 11
-1084.350000314162
 21
-1067.91412582164
 31
0.0
  0
LINE
  5
230
330
6A
100
AcDbEntity
  8
0
  6
Continuous
 62
     7
100
AcDbLine
 10
-1083.250000314162
 20
-1065.050001549771
 30
0.0
 11
-1090.450000314162
 21
-1065.050001549771
 31
0.0
  0
LINE
  5
231
330
6A
100
AcDbEntity
  8
0
  6
Continuous
 62
     7
100
AcDbLine
 10
-1090.450000314162
 20
-1092.000001549771
 30
0.0
 11
-1083.850000314162
 21
-1092.000001549771
 31
0.0
  0
LINE
  5
232
330
6A
100
AcDbEntity
  8
0
  6
Continuous
 62
     7
100
AcDbLine
 10
-1083.850000314162
 20
-1081.000001549771
 30
0.0
 11
-1090.450000314162
 21
-1081.000001549771
 31
0.0
  0
LINE
  5
233
330
6A
100
AcDbEntity
  8
0
  6
Continuous
 62
     7
100
AcDbLine
 10
-1084.350000314162
 20
-1069.485877277901
 30
0.0
 11
-1087.766025717947
 21
-1070.088214723374
 31
0.0
  0
LINE
  5
234
330
6A
100
AcDbEntity
  8
0
  6
Continuous
 62
     7
100
AcDbLine
 10
-1097.150000314162
 20
-1059.550001549771
 30
0.0
 11
-1090.450000314162
 21
-1059.550001549771
 31
0.0
  0
LINE
  5
235
330
6A
100
AcDbEntity
  8
0
  6
Continuous
 62
     7
100
AcDbLine
 10
-1087.766025717947
 20
-1129.311788376167
 30
0.0
 11
-1088.400000314162
 21
-1129.200001549771
 31
0.0
  0
LINE
  5
236
330
6A
100
AcDbEntity
  8
0
  6
Continuous
 62
     7
100
AcDbLine
 10
-1081.050000314162
 20
-1111.000001549771
 30
0.0
 11
-1083.850000314162
 21
-1111.000001549771
 31
0.0
  0
LINE
  5
237
330
6A
100
AcDbEntity
  8
0
  6
Continuous
 62
     7
100
AcDbLine
 10
-1083.850000314162
 20
-1124.000001549771
 30
0.0
 11
-1081.050000314162
 21
-1124.000001549771
 31
0.0
  0
LINE
  5
238
330
6A
100
AcDbEntity
  8
0
  6
Continuous
 62
     7
100
AcDbLine
 10
-1084.350000314162
 20
-1129.91412582164
 30
0.0
 11
-1084.350000314162
 21
-1131.485877277902
 31
0.0
  0
LINE
  5
239
330
6A
100
AcDbEntity
  8
0
  6
Continuous
 62
     7
100
AcDbLine
 10
-1083.250000314162
 20
-1138.950001549771
 30
0.0
 11
-1083.250000314162
 21
-1144.450001549771
 31
0.0
  0
LINE
  5
23A
330
6A
100
AcDbEntity
  8
0
  6
Continuous
 62
     7
100
AcDbLine
 10
-1083.850000314162
 20
-1123.000001549771
 30
0.0
 11
-1083.850000314162
 21
-1124.000001549771
 31
0.0
  0
LINE
  5
23B
330
6A
100
AcDbEntity
  8
0
  6
Continuous
 62
     7
100
AcDbLine
 10
-1088.400000314162
 20
-1132.200001549771
 30
0.0
 11
-1087.766025717947
 21
-1132.088214723374
 31
0.0
  0
LINE
  5
23C
330
6A
100
AcDbEntity
  8
0
  6
Continuous
 62
     7
100
AcDbLine
 10
-1084.350000314162
 20
-1131.485877277902
 30
0.0
 11
-1087.766025717947
 21
-1132.088214723374
 31
0.0
  0
LINE
  5
23D
330
6A
100
AcDbEntity
  8
0
  6
Continuous
 62
     7
100
AcDbLine
 10
-1090.450000314162
 20
-1129.200001549771
 30
0.0
 11
-1088.400000314162
 21
-1129.200001549771
 31
0.0
  0
LINE
  5
23E
330
6A
100
AcDbEntity
  8
0
  6
Continuous
 62
     7
100
AcDbLine
 10
-1090.450000314162
 20
-1123.000001549771
 30
0.0
 11
-1083.850000314162
 21
-1123.000001549771
 31
0.0
  0
LINE
  5
23F
330
6A
100
AcDbEntity
  8
0
  6
Continuous
 62
     7
100
AcDbLine
 10
-1087.766025717947
 20
-1129.311788376167
 30
0.0
 11
-1087.766025717947
 21
-1132.088214723374
 31
0.0
  0
LINE
  5
240
330
6A
100
AcDbEntity
  8
0
  6
Continuous
 62
     7
100
AcDbLine
 10
-1090.450000314162
 20
-1132.200001549771
 30
0.0
 11
-1090.450000314162
 21
-1138.950001549771
 31
0.0
  0
LINE
  5
241
330
6A
100
AcDbEntity
  8
0
  6
Continuous
 62
     7
100
AcDbLine
 10
-1090.450000314162
 20
-1132.200001549771
 30
0.0
 11
-1088.400000314162
 21
-1132.200001549771
 31
0.0
  0
LINE
  5
242
330
6A
100
AcDbEntity
  8
0
  6
Continuous
 62
     7
100
AcDbLine
 10
-1090.450000314162
 20
-1138.950001549771
 30
0.0
 11
-1083.250000314162
 21
-1138.950001549771
 31
0.0
  0
LINE
  5
243
330
6A
100
AcDbEntity
  8
0
  6
Continuous
 62
     7
100
AcDbLine
 10
-1088.400000314162
 20
-1129.200001549771
 30
0.0
 11
-1088.400000314162
 21
-1132.200001549771
 31
0.0
  0
LINE
  5
244
330
6A
100
AcDbEntity
  8
0
  6
Continuous
 62
     7
100
AcDbLine
 10
-1083.850000314162
 20
-1112.000001549771
 30
0.0
 11
-1090.450000314162
 21
-1112.000001549771
 31
0.0
  0
LINE
  5
245
330
6A
100
AcDbEntity
  8
0
  6
Continuous
 62
     7
100
AcDbLine
 10
-1090.450000314162
 20
-1144.450001549771
 30
0.0
 11
-1097.150000314162
 21
-1144.450001549771
 31
0.0
  0
LINE
  5
246
330
6A
100
AcDbEntity
  8
0
  6
Continuous
 62
     7
100
AcDbLine
 10
-1081.050000314162
 20
-1142.000001549771
 30
0.0
 11
-1083.250000314162
 21
-1142.000001549771
 31
0.0
  0
LINE
  5
247
330
6A
100
AcDbEntity
  8
0
  6
Continuous
 62
     7
100
AcDbLine
 10
-1087.766025717947
 20
-1129.311788376167
 30
0.0
 11
-1084.350000314162
 21
-1129.91412582164
 31
0.0
  0
LINE
  5
248
330
6A
100
AcDbEntity
  8
0
  6
Continuous
 62
     7
100
AcDbLine
 10
-1087.766025717947
 20
-1067.311788376167
 30
0.0
 11
-1084.350000314162
 21
-1067.91412582164
 31
0.0
  0
ENDBLK
  5
6C
330
6A
100
AcDbEntity
  8
0
100
AcDbBlockEnd
  0
BLOCK
  5
6F
330
6D
100
AcDbEntity
  8
0
100
AcDbBlockBegin
  2
Top1
 70
     0
 10
-1072.99999999998
 20
-1102.000000000025
 30
0.0
  3
Top1
  1

  0
INSERT
  5
6E
330
6D
100
AcDbEntity
  8
0
100
AcDbBlockReference
  2
EB_3-31_UKH-select__6
 10
-1097.150000314162
 20
-1144.450001549771
 30
0.0
  0
MTEXT
  5
249
330
6D
100
AcDbEntity
  8
1
 62
     6
100
AcDbMText
 10
-1072.99999999998
 20
-1149.449998497988
 30
0.0
 40
5.0
 41
0.0
 71
     2
 72
     1
  1
 
  7
CONVERTER_11
 73
     1
 44
1.32052821128451
  0
DIMENSION
  5
254
330
6D
100
AcDbEntity
  8
1
100
AcDbDimension
  2
*D19
 10
-1116.467630383989
 20
-1059.550001549771
 30
0.0
 11
-1119.892630383989
 21
-1102.45529669089
 31
0.0
 70
    32
  1
<>
 71
     5
 42
-1.0
 53
90.0
  3
ME10_DIM_12
100
AcDbAlignedDimension
 13
-1090.450000314162
 23
-1144.450001549771
 33
0.0
 14
-1090.450000314162
 24
-1059.550001549771
 34
0.0
 50
90.0
100
AcDbRotatedDimension
  0
ENDBLK
  5
70
330
6D
100
AcDbEntity
  8
0
100
AcDbBlockEnd
  0
BLOCK
  5
72
330
71
100
AcDbEntity
  8
0
100
AcDbBlockBegin
  2
_rahmen
 70
     0
 10
-842.7357180230613
 20
-1208.815923691551
 30
0.0
  3
_rahmen
  1

  0
LINE
  5
255
330
71
100
AcDbEntity
  8
1
  6
DOT_CENTER
 62
     2
100
AcDbLine
 10
-968.2938676632488
 20
-1182.690923691552
 30
0.0
 11
-962.7938676632488
 21
-1182.690923691552
 31
0.0
  0
LINE
  5
256
330
71
100
AcDbEntity
  8
1
  6
PHANTOM
 62
     2
100
AcDbLine
 10
-959.5438676632488
 20
-1179.940923691551
 30
0.0
 11
-959.5438676632488
 21
-1185.440923691551
 31
0.0
  0
LINE
  5
257
330
71
100
AcDbEntity
  8
1
  6
PHANTOM
 62
     2
100
AcDbLine
 10
-956.7938676632488
 20
-1182.690923691552
 30
0.0
 11
-962.2938676632488
 21
-1182.690923691552
 31
0.0
  0
LINE
  5
258
330
71
100
AcDbEntity
  8
1
  6
Continuous
 62
     6
100
AcDbLine
 10
-972.2805225498113
 20
-1178.315923691551
 30
0.0
 11
-842.7357180230596
 21
-1178.315923691551
 31
0.0
  0
LINE
  5
259
330
71
100
AcDbEntity
  8
1
  6
Continuous
 62
     7
100
AcDbLine
 10
-954.0805225498113
 20
-1199.565923691551
 30
0.0
 11
-935.8805225498113
 21
-1199.565923691551
 31
0.0
  0
LINE
  5
25A
330
71
100
AcDbEntity
  8
1
  6
Continuous
 62
     6
100
AcDbLine
 10
-954.0805225498113
 20
-1203.815923691551
 30
0.0
 11
-972.2805225498113
 21
-1203.815923691551
 31
0.0
  0
LINE
  5
25B
330
71
100
AcDbEntity
  8
1
  6
Continuous
 62
     7
100
AcDbLine
 10
-954.0805225498113
 20
-1199.565923691551
 30
0.0
 11
-954.0805225498113
 21
-1203.815923691551
 31
0.0
  0
LINE
  5
25C
330
71
100
AcDbEntity
  8
1
  6
Continuous
 62
     7
100
AcDbLine
 10
-935.8805225498113
 20
-1199.565923691551
 30
0.0
 11
-935.8805225498113
 21
-1203.815923691551
 31
0.0
  0
LINE
  5
25D
330
71
100
AcDbEntity
  8
1
  6
Continuous
 62
     7
100
AcDbLine
 10
-972.2805225498113
 20
-1199.565923691551
 30
0.0
 11
-972.2805225498113
 21
-1203.815923691551
 31
0.0
  0
LINE
  5
25E
330
71
100
AcDbEntity
  8
1
  6
Continuous
 62
     7
100
AcDbLine
 10
-972.2805225498113
 20
-1199.565923691551
 30
0.0
 11
-954.0805225498113
 21
-1199.565923691551
 31
0.0
  0
LINE
  5
25F
330
71
100
AcDbEntity
  8
1
  6
Continuous
 62
     2
100
AcDbLine
 10
-963.0438676632488
 20
-1180.190923691552
 30
0.0
 11
-963.0438676632488
 21
-1185.190923691552
 31
0.0
  0
LINE
  5
260
330
71
100
AcDbEntity
  8
1
  6
Continuous
 62
     2
100
AcDbLine
 10
-963.0438676632488
 20
-1185.190923691552
 30
0.0
 11
-968.0438676632488
 21
-1183.940923691552
 31
0.0
  0
LINE
  5
261
330
71
100
AcDbEntity
  8
1
  6
Continuous
 62
     2
100
AcDbLine
 10
-968.0438676632488
 20
-1183.940923691552
 30
0.0
 11
-968.0438676632488
 21
-1181.440923691552
 31
0.0
  0
LINE
  5
262
330
71
100
AcDbEntity
  8
1
  6
Continuous
 62
     2
100
AcDbLine
 10
-968.0438676632488
 20
-1181.440923691552
 30
0.0
 11
-963.0438676632488
 21
-1180.190923691552
 31
0.0
  0
LINE
  5
263
330
71
100
AcDbEntity
  8
1
  6
Continuous
 62
     6
100
AcDbLine
 10
-842.7357180230596
 20
-1186.815923691551
 30
0.0
 11
-842.73571802306
 21
-1195.315923691551
 31
0.0
  0
LINE
  5
264
330
71
100
AcDbEntity
  8
1
  6
Continuous
 62
     6
100
AcDbLine
 10
-935.8805225498113
 20
-1203.815923691551
 30
0.0
 11
-936.2357180230613
 21
-1203.815923691551
 31
0.0
  0
LINE
  5
265
330
71
100
AcDbEntity
  8
1
  6
Continuous
 62
     7
100
AcDbLine
 10
-935.8805225498113
 20
-1186.815923691551
 30
0.0
 11
-935.8805225498113
 21
-1199.565923691551
 31
0.0
  0
LINE
  5
266
330
71
100
AcDbEntity
  8
1
  6
Continuous
 62
     7
100
AcDbLine
 10
-972.2805225498113
 20
-1186.815923691551
 30
0.0
 11
-972.2805225498113
 21
-1199.565923691551
 31
0.0
  0
LINE
  5
267
330
71
100
AcDbEntity
  8
1
  6
Continuous
 62
     6
100
AcDbLine
 10
-935.8805225498113
 20
-1203.815923691551
 30
0.0
 11
-886.2357180230613
 21
-1203.815923691551
 31
0.0
  0
LINE
  5
268
330
71
100
AcDbEntity
  8
1
  6
Continuous
 62
     6
100
AcDbLine
 10
-842.7357180230614
 20
-1203.815923691551
 30
0.0
 11
-842.73571802306
 21
-1195.315923691551
 31
0.0
  0
LINE
  5
269
330
71
100
AcDbEntity
  8
1
  6
Continuous
 62
     6
100
AcDbLine
 10
-972.2805225498113
 20
-1186.815923691551
 30
0.0
 11
-935.8805225498113
 21
-1186.815923691551
 31
0.0
  0
LINE
  5
26A
330
71
100
AcDbEntity
  8
1
  6
Continuous
 62
     6
100
AcDbLine
 10
-936.2357180230613
 20
-1203.815923691551
 30
0.0
 11
-954.0805225498113
 21
-1203.815923691551
 31
0.0
  0
LINE
  5
26B
330
71
100
AcDbEntity
  8
1
  6
Continuous
 62
     6
100
AcDbLine
 10
-886.2357180230613
 20
-1203.815923691551
 30
0.0
 11
-842.7357180230614
 21
-1203.815923691551
 31
0.0
  0
LINE
  5
26C
102
{ACAD_REACTORS
330
39A
330
39B
102
}
330
71
100
AcDbEntity
  8
0
  6
Continuous
 62
     2
100
AcDbLine
 10
-964.7658966076644
 20
-1191.743408935339
 30
0.0
 11
-964.7658966076644
 21
-1191.137873646833
 31
0.0
  0
LINE
  5
26D
102
{ACAD_REACTORS
330
39A
330
39B
102
}
330
71
100
AcDbEntity
  8
0
  6
Continuous
 62
     2
100
AcDbLine
 10
-964.7658966076644
 20
-1194.54354354197
 30
0.0
 11
-964.7658966076644
 21
-1193.961692135275
 31
0.0
  0
LINE
  5
26E
102
{ACAD_REACTORS
330
39C
330
39D
102
}
330
71
100
AcDbEntity
  8
0
  6
Continuous
 62
     2
100
AcDbLine
 10
-942.1364101721854
 20
-1194.253879473848
 30
0.0
 11
-942.1364101721854
 21
-1196.522423691535
 31
0.0
  0
LINE
  5
26F
102
{ACAD_REACTORS
330
39C
330
39D
102
}
330
71
100
AcDbEntity
  8
0
  6
Continuous
 62
     2
100
AcDbLine
 10
-943.5174639511729
 20
-1193.468614167724
 30
0.0
 11
-940.1325184325442
 21
-1193.468614167724
 31
0.0
  0
LINE
  5
270
102
{ACAD_REACTORS
330
39C
330
39D
102
}
330
71
100
AcDbEntity
  8
0
  6
Continuous
 62
     2
100
AcDbLine
 10
-940.1325184325442
 20
-1194.253879473848
 30
0.0
 11
-940.1325184325442
 21
-1193.468614167724
 31
0.0
  0
LINE
  5
271
102
{ACAD_REACTORS
330
39C
330
39D
102
}
330
71
100
AcDbEntity
  8
0
  6
Continuous
 62
     2
100
AcDbLine
 10
-940.9436174700177
 20
-1194.253879473848
 30
0.0
 11
-940.1325184325442
 21
-1194.253879473848
 31
0.0
  0
LINE
  5
272
102
{ACAD_REACTORS
330
39C
330
39D
102
}
330
71
100
AcDbEntity
  8
0
  6
Continuous
 62
     2
100
AcDbLine
 10
-940.9436174700177
 20
-1196.522423691535
 30
0.0
 11
-940.9436174700177
 21
-1194.253879473848
 31
0.0
  0
LINE
  5
273
102
{ACAD_REACTORS
330
39C
330
39D
102
}
330
71
100
AcDbEntity
  8
0
  6
Continuous
 62
     2
100
AcDbLine
 10
-942.1364101721854
 20
-1196.522423691535
 30
0.0
 11
-940.9436174700177
 21
-1196.522423691535
 31
0.0
  0
LINE
  5
274
102
{ACAD_REACTORS
330
392
330
393
102
}
330
71
100
AcDbEntity
  8
0
  6
Continuous
 62
     2
100
AcDbLine
 10
-942.8330011102498
 20
-1190.10942369155
 30
0.0
 11
-944.235725327999
 21
-1190.10942369155
 31
0.0
  0
LINE
  5
275
102
{ACAD_REACTORS
330
392
330
393
102
}
330
71
100
AcDbEntity
  8
0
  6
Continuous
 62
     2
100
AcDbLine
 10
-942.8330011102498
 20
-1190.10942369155
 30
0.0
 11
-942.231833588358
 21
-1190.789247013105
 31
0.0
  0
LINE
  5
276
102
{ACAD_REACTORS
330
392
330
393
102
}
330
71
100
AcDbEntity
  8
0
  6
Continuous
 62
     2
100
AcDbLine
 10
-942.231833588358
 20
-1190.789247013105
 30
0.0
 11
-941.6306660664652
 21
-1190.10942369155
 31
0.0
  0
LINE
  5
277
102
{ACAD_REACTORS
330
392
330
393
102
}
330
71
100
AcDbEntity
  8
0
  6
Continuous
 62
     2
100
AcDbLine
 10
-941.5304714794845
 20
-1191.582374221586
 30
0.0
 11
-940.2279418487179
 21
-1190.10942369155
 31
0.0
  0
LINE
  5
278
102
{ACAD_REACTORS
330
392
330
393
102
}
330
71
100
AcDbEntity
  8
0
  6
Continuous
 62
     2
100
AcDbLine
 10
-941.5304714794845
 20
-1191.582374221586
 30
0.0
 11
-940.1325184325442
 21
-1193.163233215361
 31
0.0
  0
LINE
  5
279
102
{ACAD_REACTORS
330
392
330
393
102
}
330
71
100
AcDbEntity
  8
0
  6
Continuous
 62
     2
100
AcDbLine
 10
-941.5352426502925
 20
-1193.163233215361
 30
0.0
 11
-940.1325184325442
 21
-1193.163233215361
 31
0.0
  0
LINE
  5
27A
102
{ACAD_REACTORS
330
392
330
393
102
}
330
71
100
AcDbEntity
  8
0
  6
Continuous
 62
     2
100
AcDbLine
 10
-942.231833588358
 20
-1192.375501430067
 30
0.0
 11
-941.5352426502925
 21
-1193.163233215361
 31
0.0
  0
LINE
  5
27B
102
{ACAD_REACTORS
330
390
330
391
102
}
330
71
100
AcDbEntity
  8
0
  6
Continuous
 62
     2
100
AcDbLine
 10
-945.6909324246417
 20
-1190.10942369155
 30
0.0
 11
-944.4504280143888
 21
-1190.10942369155
 31
0.0
  0
LINE
  5
27C
102
{ACAD_REACTORS
330
390
330
391
102
}
330
71
100
AcDbEntity
  8
0
  6
Continuous
 62
     2
100
AcDbLine
 10
-944.4504280143888
 20
-1190.10942369155
 30
0.0
 11
-944.4504280143888
 21
-1193.163233215361
 31
0.0
  0
LINE
  5
27D
102
{ACAD_REACTORS
330
390
330
391
102
}
330
71
100
AcDbEntity
  8
0
  6
Continuous
 62
     2
100
AcDbLine
 10
-945.6909324246417
 20
-1193.163233215361
 30
0.0
 11
-945.6909324246417
 21
-1190.10942369155
 31
0.0
  0
LINE
  5
27E
102
{ACAD_REACTORS
330
38E
330
38F
102
}
330
71
100
AcDbEntity
  8
0
  6
Continuous
 62
     2
100
AcDbLine
 10
-947.1592425071792
 20
-1195.300899882011
 30
0.0
 11
-946.859077269987
 21
-1194.533084916024
 31
0.0
  0
LINE
  5
27F
102
{ACAD_REACTORS
330
38E
330
38F
102
}
330
71
100
AcDbEntity
  8
0
  6
Continuous
 62
     2
100
AcDbLine
 10
-947.6367781118001
 20
-1196.522423691535
 30
0.0
 11
-947.4252980583244
 21
-1195.981463147317
 31
0.0
  0
LINE
  5
280
102
{ACAD_REACTORS
330
38E
330
38F
102
}
330
71
100
AcDbEntity
  8
0
  6
Continuous
 62
     2
100
AcDbLine
 10
-947.4793294751139
 20
-1193.468614167724
 30
0.0
 11
-948.8772825220531
 21
-1196.522423691535
 31
0.0
  0
LINE
  5
281
102
{ACAD_REACTORS
330
38E
330
38F
102
}
330
71
100
AcDbEntity
  8
0
  6
Continuous
 62
     2
100
AcDbLine
 10
-944.8408720179208
 20
-1196.522423691535
 30
0.0
 11
-946.0813764281746
 21
-1196.522423691535
 31
0.0
  0
LINE
  5
282
102
{ACAD_REACTORS
330
38E
330
38F
102
}
330
71
100
AcDbEntity
  8
0
  6
Continuous
 62
     2
100
AcDbLine
 10
-947.4252980583244
 20
-1195.981463147317
 30
0.0
 11
-946.2928564816505
 21
-1195.981463147317
 31
0.0
  0
LINE
  5
283
102
{ACAD_REACTORS
330
38C
330
38D
102
}
330
71
100
AcDbEntity
  8
0
  6
Continuous
 62
     2
100
AcDbLine
 10
-951.0347946612353
 20
-1194.253879473848
 30
0.0
 11
-950.2236956237607
 21
-1194.253879473848
 31
0.0
  0
LINE
  5
284
102
{ACAD_REACTORS
330
38C
330
38D
102
}
330
71
100
AcDbEntity
  8
0
  6
Continuous
 62
     2
100
AcDbLine
 10
-948.2198038841216
 20
-1193.468614167724
 30
0.0
 11
-951.0347946612353
 21
-1193.468614167724
 31
0.0
  0
LINE
  5
285
102
{ACAD_REACTORS
330
38C
330
38D
102
}
330
71
100
AcDbEntity
  8
0
  6
Continuous
 62
     2
100
AcDbLine
 10
-948.2198038841216
 20
-1194.253879473848
 30
0.0
 11
-948.2198038841216
 21
-1193.468614167724
 31
0.0
  0
LINE
  5
286
102
{ACAD_REACTORS
330
38C
330
38D
102
}
330
71
100
AcDbEntity
  8
0
  6
Continuous
 62
     2
100
AcDbLine
 10
-949.0309029215942
 20
-1194.253879473848
 30
0.0
 11
-948.2198038841216
 21
-1194.253879473848
 31
0.0
  0
LINE
  5
287
102
{ACAD_REACTORS
330
38C
330
38D
102
}
330
71
100
AcDbEntity
  8
0
  6
Continuous
 62
     2
100
AcDbLine
 10
-949.0309029215942
 20
-1196.522423691535
 30
0.0
 11
-949.0309029215942
 21
-1194.253879473848
 31
0.0
  0
LINE
  5
288
102
{ACAD_REACTORS
330
38A
330
38B
102
}
330
71
100
AcDbEntity
  8
0
  6
Continuous
 62
     2
100
AcDbLine
 10
-948.3627880774962
 20
-1193.163233215361
 30
0.0
 11
-948.3627880774962
 21
-1191.854457705156
 31
0.0
  0
LINE
  5
289
102
{ACAD_REACTORS
330
38A
330
38B
102
}
330
71
100
AcDbEntity
  8
0
  6
Continuous
 62
     2
100
AcDbLine
 10
-949.5555807796627
 20
-1190.10942369155
 30
0.0
 11
-949.5555807796627
 21
-1193.163233215361
 31
0.0
  0
LINE
  5
28A
102
{ACAD_REACTORS
330
38A
330
38B
102
}
330
71
100
AcDbEntity
  8
0
  6
Continuous
 62
     2
100
AcDbLine
 10
-948.3627880774962
 20
-1190.10942369155
 30
0.0
 11
-949.5555807796627
 21
-1190.10942369155
 31
0.0
  0
LINE
  5
28B
102
{ACAD_REACTORS
330
38A
330
38B
102
}
330
71
100
AcDbEntity
  8
0
  6
Continuous
 62
     2
100
AcDbLine
 10
-947.1222836672422
 20
-1190.10942369155
 30
0.0
 11
-947.1222836672422
 21
-1191.418199201755
 31
0.0
  0
LINE
  5
28C
102
{ACAD_REACTORS
330
388
330
389
102
}
330
71
100
AcDbEntity
  8
0
  6
Continuous
 62
     2
100
AcDbLine
 10
-954.8040196000824
 20
-1193.468614167724
 30
0.0
 11
-954.8040196000824
 21
-1196.522423691535
 31
0.0
  0
LINE
  5
28D
102
{ACAD_REACTORS
330
388
330
389
102
}
330
71
100
AcDbEntity
  8
0
  6
Continuous
 62
     2
100
AcDbLine
 10
-953.6112268979148
 20
-1193.468614167724
 30
0.0
 11
-954.8040196000824
 21
-1193.468614167724
 31
0.0
  0
LINE
  5
28E
102
{ACAD_REACTORS
330
388
330
389
102
}
330
71
100
AcDbEntity
  8
0
  6
Continuous
 62
     2
100
AcDbLine
 10
-952.3707224876619
 20
-1196.522423691535
 30
0.0
 11
-951.1779297854955
 21
-1196.522423691535
 31
0.0
  0
LINE
  5
28F
102
{ACAD_REACTORS
330
388
330
389
102
}
330
71
100
AcDbEntity
  8
0
  6
Continuous
 62
     2
100
AcDbLine
 10
-954.8040196000824
 20
-1196.522423691535
 30
0.0
 11
-953.6112268979148
 21
-1196.522423691535
 31
0.0
  0
LINE
  5
290
102
{ACAD_REACTORS
330
398
330
399
102
}
330
71
100
AcDbEntity
  8
0
  6
Continuous
 62
     2
100
AcDbLine
 10
-951.1300671465233
 20
-1191.287321650734
 30
0.0
 11
-951.1300671465233
 21
-1190.807437296993
 31
0.0
  0
LINE
  5
291
102
{ACAD_REACTORS
330
398
330
399
102
}
330
71
100
AcDbEntity
  8
0
  6
Continuous
 62
     2
100
AcDbLine
 10
-949.7941393200956
 20
-1191.287321650734
 30
0.0
 11
-951.1300671465233
 21
-1191.287321650734
 31
0.0
  0
LINE
  5
292
102
{ACAD_REACTORS
330
398
330
399
102
}
330
71
100
AcDbEntity
  8
0
  6
Continuous
 62
     2
100
AcDbLine
 10
-949.7941393200956
 20
-1191.985335256177
 30
0.0
 11
-949.7941393200956
 21
-1191.287321650734
 31
0.0
  0
LINE
  5
293
102
{ACAD_REACTORS
330
398
330
399
102
}
330
71
100
AcDbEntity
  8
0
  6
Continuous
 62
     2
100
AcDbLine
 10
-951.1300671465233
 20
-1191.985335256177
 30
0.0
 11
-949.7941393200956
 21
-1191.985335256177
 31
0.0
  0
LINE
  5
294
102
{ACAD_REACTORS
330
386
330
387
102
}
330
71
100
AcDbEntity
  8
0
  6
Continuous
 62
     2
100
AcDbLine
 10
-954.6130218368502
 20
-1190.10942369155
 30
0.0
 11
-954.6130218368502
 21
-1193.163233215361
 31
0.0
  0
LINE
  5
295
102
{ACAD_REACTORS
330
386
330
387
102
}
330
71
100
AcDbEntity
  8
0
  6
Continuous
 62
     2
100
AcDbLine
 10
-954.6130218368502
 20
-1193.163233215361
 30
0.0
 11
-955.8058145390166
 21
-1193.163233215361
 31
0.0
  0
LINE
  5
296
102
{ACAD_REACTORS
330
386
330
387
102
}
330
71
100
AcDbEntity
  8
0
  6
Continuous
 62
     2
100
AcDbLine
 10
-955.8058145390166
 20
-1193.163233215361
 30
0.0
 11
-955.8058145390166
 21
-1192.028961106517
 31
0.0
  0
LINE
  5
297
102
{ACAD_REACTORS
330
386
330
387
102
}
330
71
100
AcDbEntity
  8
0
  6
Continuous
 62
     2
100
AcDbLine
 10
-956.855472116924
 20
-1193.163233215361
 30
0.0
 11
-958.0482648190906
 21
-1193.163233215361
 31
0.0
  0
LINE
  5
298
102
{ACAD_REACTORS
330
386
330
387
102
}
330
71
100
AcDbEntity
  8
0
  6
Continuous
 62
     2
100
AcDbLine
 10
-958.0482648190906
 20
-1190.10942369155
 30
0.0
 11
-956.855472116924
 21
-1190.10942369155
 31
0.0
  0
LINE
  5
299
102
{ACAD_REACTORS
330
386
330
387
102
}
330
71
100
AcDbEntity
  8
0
  6
Continuous
 62
     2
100
AcDbLine
 10
-956.855472116924
 20
-1190.10942369155
 30
0.0
 11
-956.855472116924
 21
-1191.178257024884
 31
0.0
  0
LINE
  5
29A
102
{ACAD_REACTORS
330
386
330
387
102
}
330
71
100
AcDbEntity
  8
0
  6
Continuous
 62
     2
100
AcDbLine
 10
-956.855472116924
 20
-1191.178257024884
 30
0.0
 11
-955.8058145390166
 21
-1191.178257024884
 31
0.0
  0
LINE
  5
29B
102
{ACAD_REACTORS
330
394
330
395
102
}
330
71
100
AcDbEntity
  8
0
  6
Continuous
 62
     2
100
AcDbLine
 10
-960.0044448506444
 20
-1190.77252953699
 30
0.0
 11
-959.6871497891024
 21
-1190.77252953699
 31
0.0
  0
LINE
  5
29C
102
{ACAD_REACTORS
330
394
330
395
102
}
330
71
100
AcDbEntity
  8
0
  6
Continuous
 62
     2
100
AcDbLine
 10
-960.0044448506444
 20
-1191.478257186332
 30
0.0
 11
-959.6871497891024
 21
-1191.478257186332
 31
0.0
  0
LINE
  5
29D
102
{ACAD_REACTORS
330
394
330
395
102
}
330
71
100
AcDbEntity
  8
0
  6
Continuous
 62
     2
100
AcDbLine
 10
-961.2449492608984
 20
-1190.10942369155
 30
0.0
 11
-961.2449492608984
 21
-1193.163233215361
 31
0.0
  0
LINE
  5
29E
102
{ACAD_REACTORS
330
394
330
395
102
}
330
71
100
AcDbEntity
  8
0
  6
Continuous
 62
     2
100
AcDbLine
 10
-961.2449492608984
 20
-1190.10942369155
 30
0.0
 11
-959.245677262864
 21
-1190.10942369155
 31
0.0
  0
LINE
  5
29F
102
{ACAD_REACTORS
330
394
330
395
102
}
330
71
100
AcDbEntity
  8
0
  6
Continuous
 62
     2
100
AcDbLine
 10
-960.0044448506444
 20
-1192.220154974217
 30
0.0
 11
-959.245677262864
 21
-1192.220154974217
 31
0.0
  0
LINE
  5
2A0
102
{ACAD_REACTORS
330
39A
330
39B
102
}
330
71
100
AcDbEntity
  8
0
  6
Continuous
 62
     2
100
AcDbLine
 10
-967.3414452941951
 20
-1191.137696170184
 30
0.0
 11
-967.3414452941951
 21
-1195.494151212901
 31
0.0
  0
LINE
  5
2A1
102
{ACAD_REACTORS
330
39A
330
39B
102
}
330
71
100
AcDbEntity
  8
0
  6
Continuous
 62
     2
100
AcDbLine
 10
-967.0257283711194
 20
-1190.821979247108
 30
0.0
 11
-965.5498951101099
 21
-1190.821979247108
 31
0.0
  0
LINE
  5
2A2
102
{ACAD_REACTORS
330
39A
330
39B
102
}
330
71
100
AcDbEntity
  8
0
  6
Continuous
 62
     2
100
AcDbLine
 10
-965.2341781870332
 20
-1191.741720789245
 30
0.0
 11
-965.2341781870332
 21
-1191.137696170184
 31
0.0
  0
LINE
  5
2A3
102
{ACAD_REACTORS
330
39A
330
39B
102
}
330
71
100
AcDbEntity
  8
0
  6
Continuous
 62
     2
100
AcDbLine
 10
-965.2341781870332
 20
-1195.494151212901
 30
0.0
 11
-965.2341781870332
 21
-1193.96338028137
 31
0.0
  0
LINE
  5
2A4
102
{ACAD_REACTORS
330
39A
330
39B
102
}
330
71
100
AcDbEntity
  8
0
  6
Continuous
 62
     2
100
AcDbLine
 10
-962.146310957149
 20
-1196.522423691535
 30
0.0
 11
-967.619623047866
 21
-1196.522423691535
 31
0.0
  0
LINE
  5
2A5
102
{ACAD_REACTORS
330
39A
330
39B
102
}
330
71
100
AcDbEntity
  8
0
  6
Continuous
 62
     2
100
AcDbLine
 10
-961.7220663417652
 20
-1190.533668306952
 30
0.0
 11
-961.7220663417652
 21
-1196.098179076152
 31
0.0
  0
LINE
  5
2A6
102
{ACAD_REACTORS
330
39A
330
39B
102
}
330
71
100
AcDbEntity
  8
0
  6
Continuous
 62
     2
100
AcDbLine
 10
-967.619623047866
 20
-1190.109423691568
 30
0.0
 11
-962.146310957149
 21
-1190.109423691568
 31
0.0
  0
LINE
  5
2A7
102
{ACAD_REACTORS
330
39A
330
39B
102
}
330
71
100
AcDbEntity
  8
0
  6
Continuous
 62
     2
100
AcDbLine
 10
-968.0438676632488
 20
-1190.533668306952
 30
0.0
 11
-968.0438676632488
 21
-1196.098179076152
 31
0.0
  0
LINE
  5
2A8
102
{ACAD_REACTORS
330
39A
330
39B
102
}
330
71
100
AcDbEntity
  8
0
  6
Continuous
 62
     2
100
AcDbLine
 10
-965.5498951101099
 20
-1195.809868135978
 30
0.0
 11
-967.0257283711194
 21
-1195.809868135978
 31
0.0
  0
LINE
  5
2A9
102
{ACAD_REACTORS
330
394
330
395
102
}
330
71
100
AcDbEntity
  8
0
  6
Continuous
 62
     2
100
AcDbLine
 10
-960.0044448506444
 20
-1193.163233215361
 30
0.0
 11
-960.0044448506444
 21
-1192.220154974217
 31
0.0
  0
LINE
  5
2AA
102
{ACAD_REACTORS
330
394
330
395
102
}
330
71
100
AcDbEntity
  8
0
  6
Continuous
 62
     2
100
AcDbLine
 10
-961.2449492608984
 20
-1193.163233215361
 30
0.0
 11
-960.0044448506444
 21
-1193.163233215361
 31
0.0
  0
LINE
  5
2AB
102
{ACAD_REACTORS
330
394
330
395
102
}
330
71
100
AcDbEntity
  8
0
  6
Continuous
 62
     2
100
AcDbLine
 10
-960.0044448506444
 20
-1191.478257186332
 30
0.0
 11
-960.0044448506444
 21
-1190.77252953699
 31
0.0
  0
LINE
  5
2AC
102
{ACAD_REACTORS
330
386
330
387
102
}
330
71
100
AcDbEntity
  8
0
  6
Continuous
 62
     2
100
AcDbLine
 10
-958.0482648190906
 20
-1190.10942369155
 30
0.0
 11
-958.0482648190906
 21
-1193.163233215361
 31
0.0
  0
LINE
  5
2AD
102
{ACAD_REACTORS
330
386
330
387
102
}
330
71
100
AcDbEntity
  8
0
  6
Continuous
 62
     2
100
AcDbLine
 10
-956.855472116924
 20
-1192.028961106517
 30
0.0
 11
-956.855472116924
 21
-1193.163233215361
 31
0.0
  0
LINE
  5
2AE
102
{ACAD_REACTORS
330
386
330
387
102
}
330
71
100
AcDbEntity
  8
0
  6
Continuous
 62
     2
100
AcDbLine
 10
-955.8058145390166
 20
-1192.028961106517
 30
0.0
 11
-956.855472116924
 21
-1192.028961106517
 31
0.0
  0
LINE
  5
2AF
102
{ACAD_REACTORS
330
386
330
387
102
}
330
71
100
AcDbEntity
  8
0
  6
Continuous
 62
     2
100
AcDbLine
 10
-955.8058145390166
 20
-1190.10942369155
 30
0.0
 11
-954.6130218368502
 21
-1190.10942369155
 31
0.0
  0
LINE
  5
2B0
102
{ACAD_REACTORS
330
386
330
387
102
}
330
71
100
AcDbEntity
  8
0
  6
Continuous
 62
     2
100
AcDbLine
 10
-955.8058145390166
 20
-1191.178257024884
 30
0.0
 11
-955.8058145390166
 21
-1190.10942369155
 31
0.0
  0
LINE
  5
2B1
102
{ACAD_REACTORS
330
398
330
399
102
}
330
71
100
AcDbEntity
  8
0
  6
Continuous
 62
     2
100
AcDbLine
 10
-949.7941393200956
 20
-1190.807437296993
 30
0.0
 11
-949.7941393200956
 21
-1190.10942369155
 31
0.0
  0
LINE
  5
2B2
102
{ACAD_REACTORS
330
398
330
399
102
}
330
71
100
AcDbEntity
  8
0
  6
Continuous
 62
     2
100
AcDbLine
 10
-952.9444590438766
 20
-1190.10942369155
 30
0.0
 11
-949.7941393200956
 21
-1190.10942369155
 31
0.0
  0
LINE
  5
2B3
102
{ACAD_REACTORS
330
398
330
399
102
}
330
71
100
AcDbEntity
  8
0
  6
Continuous
 62
     2
100
AcDbLine
 10
-952.9444590438766
 20
-1193.163233215361
 30
0.0
 11
-949.7941393200956
 21
-1193.163233215361
 31
0.0
  0
LINE
  5
2B4
102
{ACAD_REACTORS
330
398
330
399
102
}
330
71
100
AcDbEntity
  8
0
  6
Continuous
 62
     2
100
AcDbLine
 10
-949.7941393200956
 20
-1193.163233215361
 30
0.0
 11
-949.7941393200956
 21
-1192.465219609918
 31
0.0
  0
LINE
  5
2B5
102
{ACAD_REACTORS
330
398
330
399
102
}
330
71
100
AcDbEntity
  8
0
  6
Continuous
 62
     2
100
AcDbLine
 10
-949.7941393200956
 20
-1192.465219609918
 30
0.0
 11
-951.1300671465233
 21
-1192.465219609918
 31
0.0
  0
LINE
  5
2B6
102
{ACAD_REACTORS
330
398
330
399
102
}
330
71
100
AcDbEntity
  8
0
  6
Continuous
 62
     2
100
AcDbLine
 10
-951.1300671465233
 20
-1192.465219609918
 30
0.0
 11
-951.1300671465233
 21
-1191.985335256177
 31
0.0
  0
LINE
  5
2B7
102
{ACAD_REACTORS
330
398
330
399
102
}
330
71
100
AcDbEntity
  8
0
  6
Continuous
 62
     2
100
AcDbLine
 10
-951.1300671465233
 20
-1190.807437296993
 30
0.0
 11
-949.7941393200956
 21
-1190.807437296993
 31
0.0
  0
LINE
  5
2B8
102
{ACAD_REACTORS
330
388
330
389
102
}
330
71
100
AcDbEntity
  8
0
  6
Continuous
 62
     2
100
AcDbLine
 10
-953.6112268979148
 20
-1196.522423691535
 30
0.0
 11
-953.6112268979148
 21
-1195.21364818133
 31
0.0
  0
LINE
  5
2B9
102
{ACAD_REACTORS
330
388
330
389
102
}
330
71
100
AcDbEntity
  8
0
  6
Continuous
 62
     2
100
AcDbLine
 10
-953.6112268979148
 20
-1195.21364818133
 30
0.0
 11
-952.3707224876619
 21
-1196.522423691535
 31
0.0
  0
LINE
  5
2BA
102
{ACAD_REACTORS
330
388
330
389
102
}
330
71
100
AcDbEntity
  8
0
  6
Continuous
 62
     2
100
AcDbLine
 10
-951.1779297854955
 20
-1196.522423691535
 30
0.0
 11
-951.1779297854955
 21
-1193.468614167724
 31
0.0
  0
LINE
  5
2BB
102
{ACAD_REACTORS
330
388
330
389
102
}
330
71
100
AcDbEntity
  8
0
  6
Continuous
 62
     2
100
AcDbLine
 10
-951.1779297854955
 20
-1193.468614167724
 30
0.0
 11
-952.3707224876619
 21
-1193.468614167724
 31
0.0
  0
LINE
  5
2BC
102
{ACAD_REACTORS
330
388
330
389
102
}
330
71
100
AcDbEntity
  8
0
  6
Continuous
 62
     2
100
AcDbLine
 10
-952.3707224876619
 20
-1193.468614167724
 30
0.0
 11
-952.3707224876619
 21
-1194.777389677929
 31
0.0
  0
LINE
  5
2BD
102
{ACAD_REACTORS
330
388
330
389
102
}
330
71
100
AcDbEntity
  8
0
  6
Continuous
 62
     2
100
AcDbLine
 10
-952.3707224876619
 20
-1194.777389677929
 30
0.0
 11
-953.6112268979148
 21
-1193.468614167724
 31
0.0
  0
LINE
  5
2BE
102
{ACAD_REACTORS
330
38A
330
38B
102
}
330
71
100
AcDbEntity
  8
0
  6
Continuous
 62
     2
100
AcDbLine
 10
-948.3627880774962
 20
-1191.854457705156
 30
0.0
 11
-947.1222836672422
 21
-1193.163233215361
 31
0.0
  0
LINE
  5
2BF
102
{ACAD_REACTORS
330
38A
330
38B
102
}
330
71
100
AcDbEntity
  8
0
  6
Continuous
 62
     2
100
AcDbLine
 10
-947.1222836672422
 20
-1193.163233215361
 30
0.0
 11
-945.9294909650755
 21
-1193.163233215361
 31
0.0
  0
LINE
  5
2C0
102
{ACAD_REACTORS
330
38A
330
38B
102
}
330
71
100
AcDbEntity
  8
0
  6
Continuous
 62
     2
100
AcDbLine
 10
-945.9294909650755
 20
-1193.163233215361
 30
0.0
 11
-945.9294909650755
 21
-1190.10942369155
 31
0.0
  0
LINE
  5
2C1
102
{ACAD_REACTORS
330
38A
330
38B
102
}
330
71
100
AcDbEntity
  8
0
  6
Continuous
 62
     2
100
AcDbLine
 10
-945.9294909650755
 20
-1190.10942369155
 30
0.0
 11
-947.1222836672422
 21
-1190.10942369155
 31
0.0
  0
LINE
  5
2C2
102
{ACAD_REACTORS
330
38A
330
38B
102
}
330
71
100
AcDbEntity
  8
0
  6
Continuous
 62
     2
100
AcDbLine
 10
-947.1222836672422
 20
-1191.418199201755
 30
0.0
 11
-948.3627880774962
 21
-1190.10942369155
 31
0.0
  0
LINE
  5
2C3
102
{ACAD_REACTORS
330
38A
330
38B
102
}
330
71
100
AcDbEntity
  8
0
  6
Continuous
 62
     2
100
AcDbLine
 10
-949.5555807796627
 20
-1193.163233215361
 30
0.0
 11
-948.3627880774962
 21
-1193.163233215361
 31
0.0
  0
LINE
  5
2C4
102
{ACAD_REACTORS
330
38C
330
38D
102
}
330
71
100
AcDbEntity
  8
0
  6
Continuous
 62
     2
100
AcDbLine
 10
-951.0347946612353
 20
-1193.468614167724
 30
0.0
 11
-951.0347946612353
 21
-1194.253879473848
 31
0.0
  0
LINE
  5
2C5
102
{ACAD_REACTORS
330
38C
330
38D
102
}
330
71
100
AcDbEntity
  8
0
  6
Continuous
 62
     2
100
AcDbLine
 10
-950.2236956237607
 20
-1194.253879473848
 30
0.0
 11
-950.2236956237607
 21
-1196.522423691535
 31
0.0
  0
LINE
  5
2C6
102
{ACAD_REACTORS
330
38C
330
38D
102
}
330
71
100
AcDbEntity
  8
0
  6
Continuous
 62
     2
100
AcDbLine
 10
-950.2236956237607
 20
-1196.522423691535
 30
0.0
 11
-949.0309029215942
 21
-1196.522423691535
 31
0.0
  0
LINE
  5
2C7
102
{ACAD_REACTORS
330
38E
330
38F
102
}
330
71
100
AcDbEntity
  8
0
  6
Continuous
 62
     2
100
AcDbLine
 10
-946.0813764281746
 20
-1196.522423691535
 30
0.0
 11
-946.2928564816505
 21
-1195.981463147317
 31
0.0
  0
LINE
  5
2C8
102
{ACAD_REACTORS
330
38E
330
38F
102
}
330
71
100
AcDbEntity
  8
0
  6
Continuous
 62
     2
100
AcDbLine
 10
-946.238825064861
 20
-1193.468614167724
 30
0.0
 11
-944.8408720179208
 21
-1196.522423691535
 31
0.0
  0
LINE
  5
2C9
102
{ACAD_REACTORS
330
38E
330
38F
102
}
330
71
100
AcDbEntity
  8
0
  6
Continuous
 62
     2
100
AcDbLine
 10
-947.4793294751139
 20
-1193.468614167724
 30
0.0
 11
-946.238825064861
 21
-1193.468614167724
 31
0.0
  0
LINE
  5
2CA
102
{ACAD_REACTORS
330
38E
330
38F
102
}
330
71
100
AcDbEntity
  8
0
  6
Continuous
 62
     2
100
AcDbLine
 10
-948.8772825220531
 20
-1196.522423691535
 30
0.0
 11
-947.6367781118001
 21
-1196.522423691535
 31
0.0
  0
LINE
  5
2CB
102
{ACAD_REACTORS
330
38E
330
38F
102
}
330
71
100
AcDbEntity
  8
0
  6
Continuous
 62
     2
100
AcDbLine
 10
-947.1592425071792
 20
-1195.300899882011
 30
0.0
 11
-946.5589120327968
 21
-1195.300899882011
 31
0.0
  0
LINE
  5
2CC
102
{ACAD_REACTORS
330
38E
330
38F
102
}
330
71
100
AcDbEntity
  8
0
  6
Continuous
 62
     2
100
AcDbLine
 10
-946.5589120327968
 20
-1195.300899882011
 30
0.0
 11
-946.859077269987
 21
-1194.533084916024
 31
0.0
  0
LINE
  5
2CD
102
{ACAD_REACTORS
330
390
330
391
102
}
330
71
100
AcDbEntity
  8
0
  6
Continuous
 62
     2
100
AcDbLine
 10
-944.4504280143888
 20
-1193.163233215361
 30
0.0
 11
-945.6909324246417
 21
-1193.163233215361
 31
0.0
  0
LINE
  5
2CE
102
{ACAD_REACTORS
330
392
330
393
102
}
330
71
100
AcDbEntity
  8
0
  6
Continuous
 62
     2
100
AcDbLine
 10
-942.9284245264238
 20
-1193.163233215361
 30
0.0
 11
-944.3311487441719
 21
-1193.163233215361
 31
0.0
  0
LINE
  5
2CF
102
{ACAD_REACTORS
330
392
330
393
102
}
330
71
100
AcDbEntity
  8
0
  6
Continuous
 62
     2
100
AcDbLine
 10
-942.9284245264238
 20
-1193.163233215361
 30
0.0
 11
-942.231833588358
 21
-1192.375501430067
 31
0.0
  0
LINE
  5
2D0
102
{ACAD_REACTORS
330
392
330
393
102
}
330
71
100
AcDbEntity
  8
0
  6
Continuous
 62
     2
100
AcDbLine
 10
-941.6306660664652
 20
-1190.10942369155
 30
0.0
 11
-940.2279418487179
 21
-1190.10942369155
 31
0.0
  0
LINE
  5
2D1
102
{ACAD_REACTORS
330
392
330
393
102
}
330
71
100
AcDbEntity
  8
0
  6
Continuous
 62
     2
100
AcDbLine
 10
-944.235725327999
 20
-1190.10942369155
 30
0.0
 11
-942.9331956972316
 21
-1191.582374221586
 31
0.0
  0
LINE
  5
2D2
102
{ACAD_REACTORS
330
392
330
393
102
}
330
71
100
AcDbEntity
  8
0
  6
Continuous
 62
     2
100
AcDbLine
 10
-944.3311487441719
 20
-1193.163233215361
 30
0.0
 11
-942.9331956972316
 21
-1191.582374221586
 31
0.0
  0
LINE
  5
2D3
102
{ACAD_REACTORS
330
39C
330
39D
102
}
330
71
100
AcDbEntity
  8
0
  6
Continuous
 62
     2
100
AcDbLine
 10
-942.470392128792
 20
-1195.475403283371
 30
0.0
 11
-942.470392128792
 21
-1196.347920290175
 31
0.0
  0
LINE
  5
2D4
102
{ACAD_REACTORS
330
39C
330
39D
102
}
330
71
100
AcDbEntity
  8
0
  6
Continuous
 62
     2
100
AcDbLine
 10
-943.2400494717534
 20
-1194.253879473848
 30
0.0
 11
-942.1364101721854
 21
-1194.253879473848
 31
0.0
  0
LINE
  5
2D5
102
{ACAD_REACTORS
330
39E
330
39F
102
}
330
71
100
AcDbEntity
  8
0
  6
Continuous
 62
     2
100
AcDbLine
 10
-958.5730936080438
 20
-1195.475403283371
 30
0.0
 11
-958.5730936080438
 21
-1196.347920290174
 31
0.0
  0
LINE
  5
2D6
102
{ACAD_REACTORS
330
39E
330
39F
102
}
330
71
100
AcDbEntity
  8
0
  6
Continuous
 62
     2
100
AcDbLine
 10
-958.5730936080438
 20
-1194.515634575888
 30
0.0
 11
-958.5730936080438
 21
-1193.643117569085
 31
0.0
  0
LINE
  5
2D7
330
71
100
AcDbEntity
  8
1
  6
Continuous
 62
     7
100
AcDbLine
 10
-842.73571802306
 20
-1195.315923691551
 30
0.0
 11
-935.8805225498113
 21
-1195.315923691551
 31
0.0
  0
LINE
  5
2D8
330
71
100
AcDbEntity
  8
1
  6
Continuous
 62
     7
100
AcDbLine
 10
-851.6541263047387
 20
-1178.315923691551
 30
0.0
 11
-851.6541263047387
 21
-1186.815923691551
 31
0.0
  0
LINE
  5
2D9
330
71
100
AcDbEntity
  8
1
  6
Continuous
 62
     7
100
AcDbLine
 10
-878.1541263047384
 20
-1178.315923691551
 30
0.0
 11
-878.1541263047384
 21
-1186.815923691551
 31
0.0
  0
LINE
  5
2DA
330
71
100
AcDbEntity
  8
1
  6
Continuous
 62
     7
100
AcDbLine
 10
-935.8805225498113
 20
-1186.815923691551
 30
0.0
 11
-935.8805225498113
 21
-1178.315923691551
 31
0.0
  0
LINE
  5
2DB
330
71
100
AcDbEntity
  8
1
  6
Continuous
 62
     7
100
AcDbLine
 10
-972.2805225498113
 20
-1186.815923691551
 30
0.0
 11
-972.2805225498113
 21
-1178.315923691551
 31
0.0
  0
LINE
  5
2DC
330
71
100
AcDbEntity
  8
1
  6
Continuous
 62
     6
100
AcDbLine
 10
-935.8805225498113
 20
-1186.815923691551
 30
0.0
 11
-842.7357180230596
 21
-1186.815923691551
 31
0.0
  0
LINE
  5
2DD
330
71
100
AcDbEntity
  8
1
  6
Continuous
 62
     7
100
AcDbLine
 10
-907.9805225498113
 20
-1195.315923691551
 30
0.0
 11
-907.9805225498113
 21
-1186.815923691551
 31
0.0
  0
LINE
  5
2DE
330
71
100
AcDbEntity
  8
1
  6
Continuous
 62
     6
100
AcDbLine
 10
-842.7357180230596
 20
-1186.815923691551
 30
0.0
 11
-842.7357180230596
 21
-1178.315923691551
 31
0.0
  0
LINE
  5
2DF
330
71
100
AcDbEntity
  8
1
  6
Continuous
 62
     2
100
AcDbLine
 10
-979.4023846897279
 20
-1203.815923691554
 30
0.0
 11
-979.4023846897279
 21
-1203.815923691551
 31
0.0
  0
LINE
  5
2E0
330
71
100
AcDbEntity
  8
1
  6
Continuous
 62
     6
100
AcDbLine
 10
-1116.069051356395
 20
-1203.815923691551
 30
0.0
 11
-972.2805225498113
 21
-1203.815923691554
 31
0.0
  0
LINE
  5
2E1
330
71
100
AcDbEntity
  8
1
  6
Continuous
 62
     6
100
AcDbLine
 10
-842.7357180230614
 20
-1203.815923691551
 30
0.0
 11
-842.7357180230617
 21
-1195.315923691551
 31
0.0
  0
LINE
  5
2E2
330
71
100
AcDbEntity
  8
1
  6
Continuous
 62
     6
100
AcDbLine
 10
-1237.735718023061
 20
-1203.815923691551
 30
0.0
 11
-1237.735718023062
 21
-916.8159236915506
 31
0.0
  0
LINE
  5
2E3
330
71
100
AcDbEntity
  8
1
  6
Continuous
 62
     2
100
AcDbLine
 10
-1257.735718023062
 20
-1060.315923691551
 30
0.0
 11
-1257.735718023062
 21
-1208.815923691551
 31
0.0
  0
LINE
  5
2E4
330
71
100
AcDbEntity
  8
1
  6
Continuous
 62
     2
100
AcDbLine
 10
-1257.735718023062
 20
-1060.315923691551
 30
0.0
 11
-1247.735718023062
 21
-1060.315923691551
 31
0.0
  0
LINE
  5
2E5
330
71
100
AcDbEntity
  8
1
  6
Continuous
 62
     2
100
AcDbLine
 10
-1257.735718023062
 20
-911.8159236915508
 30
0.0
 11
-1257.735718023062
 21
-1060.315923691551
 31
0.0
  0
LINE
  5
2E6
330
71
100
AcDbEntity
  8
1
  6
Continuous
 62
     2
100
AcDbLine
 10
-1027.735718023064
 20
-911.8159236915508
 30
0.0
 11
-1047.735718023061
 21
-911.8159236915508
 31
0.0
  0
LINE
  5
2E7
330
71
100
AcDbEntity
  8
1
  6
Continuous
 62
     2
100
AcDbLine
 10
-1027.735718023064
 20
-911.8159236915508
 30
0.0
 11
-1027.735718023064
 21
-915.8159236915506
 31
0.0
  0
LINE
  5
2E8
330
71
100
AcDbEntity
  8
1
  6
Continuous
 62
     2
100
AcDbLine
 10
-1237.735718023062
 20
-911.8159236915508
 30
0.0
 11
-1257.735718023062
 21
-911.8159236915508
 31
0.0
  0
LINE
  5
2E9
330
71
100
AcDbEntity
  8
1
  6
Continuous
 62
     2
100
AcDbLine
 10
-1237.735718023062
 20
-911.8159236915508
 30
0.0
 11
-1237.735718023062
 21
-915.8159236915506
 31
0.0
  0
LINE
  5
2EA
330
71
100
AcDbEntity
  8
1
  6
Continuous
 62
     2
100
AcDbLine
 10
-1184.402384689728
 20
-911.8159236915508
 30
0.0
 11
-1237.735718023062
 21
-911.8159236915508
 31
0.0
  0
LINE
  5
2EB
330
71
100
AcDbEntity
  8
1
  6
Continuous
 62
     6
100
AcDbLine
 10
-1184.402384689728
 20
-916.8159236915506
 30
0.0
 11
-1116.069051356395
 21
-916.8159236915508
 31
0.0
  0
LINE
  5
2EC
330
71
100
AcDbEntity
  8
1
  6
Continuous
 62
     2
100
AcDbLine
 10
-1184.402384689728
 20
-916.8159236915506
 30
0.0
 11
-1184.402384689728
 21
-911.8159236915508
 31
0.0
  0
LINE
  5
2ED
330
71
100
AcDbEntity
  8
1
  6
Continuous
 62
     2
100
AcDbLine
 10
-1116.069051356395
 20
-911.8159236915508
 30
0.0
 11
-1184.402384689728
 21
-911.8159236915508
 31
0.0
  0
LINE
  5
2EE
330
71
100
AcDbEntity
  8
1
  6
Continuous
 62
     6
100
AcDbLine
 10
-1116.069051356395
 20
-916.8159236915508
 30
0.0
 11
-1047.735718023061
 21
-916.8159236915508
 31
0.0
  0
LINE
  5
2EF
330
71
100
AcDbEntity
  8
1
  6
Continuous
 62
     2
100
AcDbLine
 10
-1116.069051356395
 20
-916.8159236915508
 30
0.0
 11
-1116.069051356395
 21
-911.8159236915508
 31
0.0
  0
LINE
  5
2F0
330
71
100
AcDbEntity
  8
1
  6
Continuous
 62
     2
100
AcDbLine
 10
-1047.735718023061
 20
-911.8159236915508
 30
0.0
 11
-1116.069051356395
 21
-911.8159236915508
 31
0.0
  0
LINE
  5
2F1
330
71
100
AcDbEntity
  8
1
  6
Continuous
 62
     6
100
AcDbLine
 10
-1047.735718023061
 20
-916.8159236915508
 30
0.0
 11
-979.4023846897279
 21
-916.8159236915508
 31
0.0
  0
LINE
  5
2F2
330
71
100
AcDbEntity
  8
1
  6
Continuous
 62
     2
100
AcDbLine
 10
-1047.735718023061
 20
-916.8159236915508
 30
0.0
 11
-1047.735718023061
 21
-911.8159236915508
 31
0.0
  0
LINE
  5
2F3
330
71
100
AcDbEntity
  8
1
  6
Continuous
 62
     2
100
AcDbLine
 10
-979.4023846897279
 20
-911.8159236915508
 30
0.0
 11
-1027.735718023064
 21
-911.8159236915508
 31
0.0
  0
LINE
  5
2F4
330
71
100
AcDbEntity
  8
1
  6
Continuous
 62
     6
100
AcDbLine
 10
-979.4023846897279
 20
-916.8159236915508
 30
0.0
 11
-911.0690513563948
 21
-916.8159236915508
 31
0.0
  0
LINE
  5
2F5
330
71
100
AcDbEntity
  8
1
  6
Continuous
 62
     2
100
AcDbLine
 10
-979.4023846897279
 20
-916.8159236915508
 30
0.0
 11
-979.4023846897279
 21
-911.8159236915508
 31
0.0
  0
LINE
  5
2F6
330
71
100
AcDbEntity
  8
1
  6
Continuous
 62
     2
100
AcDbLine
 10
-911.0690513563948
 20
-911.8159236915508
 30
0.0
 11
-979.4023846897279
 21
-911.8159236915508
 31
0.0
  0
LINE
  5
2F7
330
71
100
AcDbEntity
  8
1
  6
Continuous
 62
     6
100
AcDbLine
 10
-911.0690513563948
 20
-916.8159236915508
 30
0.0
 11
-842.7357180230638
 21
-916.8159236915508
 31
0.0
  0
LINE
  5
2F8
330
71
100
AcDbEntity
  8
1
  6
Continuous
 62
     2
100
AcDbLine
 10
-911.0690513563948
 20
-916.8159236915508
 30
0.0
 11
-911.0690513563948
 21
-911.8159236915508
 31
0.0
  0
LINE
  5
2F9
330
71
100
AcDbEntity
  8
1
  6
Continuous
 62
     2
100
AcDbLine
 10
-842.7357180230638
 20
-911.8159236915508
 30
0.0
 11
-911.0690513563948
 21
-911.8159236915508
 31
0.0
  0
LINE
  5
2FA
330
71
100
AcDbEntity
  8
1
  6
Continuous
 62
     6
100
AcDbLine
 10
-1237.735718023062
 20
-916.8159236915506
 30
0.0
 11
-1184.402384689728
 21
-916.8159236915506
 31
0.0
  0
LINE
  5
2FB
330
71
100
AcDbEntity
  8
1
  6
Continuous
 62
     6
100
AcDbLine
 10
-842.7357180230613
 20
-1089.015923691551
 30
0.0
 11
-842.7357180230614
 21
-1146.415923691551
 31
0.0
  0
LINE
  5
2FC
330
71
100
AcDbEntity
  8
1
  6
Continuous
 62
     2
100
AcDbLine
 10
-842.7357180230613
 20
-1089.015923691551
 30
0.0
 11
-837.7357180230638
 21
-1089.015923691551
 31
0.0
  0
LINE
  5
2FD
330
71
100
AcDbEntity
  8
1
  6
Continuous
 62
     2
100
AcDbLine
 10
-837.7357180230638
 20
-1031.615923691551
 30
0.0
 11
-837.7357180230638
 21
-1089.015923691551
 31
0.0
  0
LINE
  5
2FE
330
71
100
AcDbEntity
  8
1
  6
Continuous
 62
     6
100
AcDbLine
 10
-842.7357180230613
 20
-1031.615923691551
 30
0.0
 11
-842.7357180230613
 21
-1089.015923691551
 31
0.0
  0
LINE
  5
2FF
330
71
100
AcDbEntity
  8
1
  6
Continuous
 62
     2
100
AcDbLine
 10
-842.7357180230613
 20
-1031.615923691551
 30
0.0
 11
-837.7357180230638
 21
-1031.615923691551
 31
0.0
  0
LINE
  5
300
330
71
100
AcDbEntity
  8
1
  6
Continuous
 62
     2
100
AcDbLine
 10
-837.7357180230638
 20
-974.2159236915509
 30
0.0
 11
-837.7357180230638
 21
-1031.615923691551
 31
0.0
  0
LINE
  5
301
330
71
100
AcDbEntity
  8
1
  6
Continuous
 62
     6
100
AcDbLine
 10
-842.7357180230633
 20
-974.2159236915509
 30
0.0
 11
-842.7357180230613
 21
-1031.615923691551
 31
0.0
  0
LINE
  5
302
330
71
100
AcDbEntity
  8
1
  6
Continuous
 62
     2
100
AcDbLine
 10
-842.7357180230633
 20
-974.2159236915509
 30
0.0
 11
-837.7357180230638
 21
-974.2159236915509
 31
0.0
  0
LINE
  5
303
330
71
100
AcDbEntity
  8
1
  6
Continuous
 62
     2
100
AcDbLine
 10
-837.7357180230638
 20
-916.8159236915508
 30
0.0
 11
-837.7357180230638
 21
-974.2159236915509
 31
0.0
  0
LINE
  5
304
330
71
100
AcDbEntity
  8
1
  6
Continuous
 62
     2
100
AcDbLine
 10
-842.7357180230638
 20
-916.8159236915508
 30
0.0
 11
-837.7357180230638
 21
-916.8159236915508
 31
0.0
  0
LINE
  5
305
330
71
100
AcDbEntity
  8
1
  6
Continuous
 62
     2
100
AcDbLine
 10
-842.7357180230638
 20
-916.8159236915508
 30
0.0
 11
-842.7357180230638
 21
-911.8159236915508
 31
0.0
  0
LINE
  5
306
330
71
100
AcDbEntity
  8
1
  6
Continuous
 62
     2
100
AcDbLine
 10
-837.7357180230638
 20
-911.8159236915508
 30
0.0
 11
-837.7357180230638
 21
-916.8159236915508
 31
0.0
  0
LINE
  5
307
330
71
100
AcDbEntity
  8
1
  6
Continuous
 62
     6
100
AcDbLine
 10
-842.7357180230638
 20
-916.8159236915508
 30
0.0
 11
-842.7357180230633
 21
-974.2159236915509
 31
0.0
  0
LINE
  5
308
330
71
100
AcDbEntity
  8
1
  6
Continuous
 62
     2
100
AcDbLine
 10
-837.7357180230638
 20
-911.8159236915508
 30
0.0
 11
-842.7357180230638
 21
-911.8159236915508
 31
0.0
  0
LINE
  5
309
330
71
100
AcDbEntity
  8
1
  6
Continuous
 62
     2
100
AcDbLine
 10
-837.7357180230638
 20
-1203.815923691551
 30
0.0
 11
-837.7357180230638
 21
-1146.415923691551
 31
0.0
  0
LINE
  5
30A
330
71
100
AcDbEntity
  8
1
  6
Continuous
 62
     2
100
AcDbLine
 10
-837.7357180230638
 20
-1203.815923691551
 30
0.0
 11
-837.7357180230638
 21
-1208.815923691551
 31
0.0
  0
LINE
  5
30B
330
71
100
AcDbEntity
  8
1
  6
Continuous
 62
     2
100
AcDbLine
 10
-837.7357180230638
 20
-1208.815923691551
 30
0.0
 11
-842.7357180230613
 21
-1208.815923691551
 31
0.0
  0
LINE
  5
30C
330
71
100
AcDbEntity
  8
1
  6
Continuous
 62
     2
100
AcDbLine
 10
-979.4023846897279
 20
-1208.815923691551
 30
0.0
 11
-911.0690513563948
 21
-1208.815923691551
 31
0.0
  0
LINE
  5
30D
330
71
100
AcDbEntity
  8
1
  6
Continuous
 62
     2
100
AcDbLine
 10
-1027.735718023064
 20
-1208.815923691551
 30
0.0
 11
-979.4023846897279
 21
-1208.815923691551
 31
0.0
  0
LINE
  5
30E
330
71
100
AcDbEntity
  8
1
  6
Continuous
 62
     2
100
AcDbLine
 10
-1027.735718023064
 20
-1208.815923691551
 30
0.0
 11
-1027.735718023064
 21
-1204.815923691551
 31
0.0
  0
LINE
  5
30F
330
71
100
AcDbEntity
  8
1
  6
Continuous
 62
     2
100
AcDbLine
 10
-1027.735718023064
 20
-1208.815923691551
 30
0.0
 11
-1047.735718023061
 21
-1208.815923691551
 31
0.0
  0
LINE
  5
310
330
71
100
AcDbEntity
  8
1
  6
Continuous
 62
     2
100
AcDbLine
 10
-1237.735718023062
 20
-1208.815923691551
 30
0.0
 11
-1184.402384689728
 21
-1208.815923691551
 31
0.0
  0
LINE
  5
311
330
71
100
AcDbEntity
  8
1
  6
Continuous
 62
     2
100
AcDbLine
 10
-1237.735718023062
 20
-1208.815923691551
 30
0.0
 11
-1237.735718023062
 21
-1204.815923691551
 31
0.0
  0
LINE
  5
312
330
71
100
AcDbEntity
  8
1
  6
Continuous
 62
     2
100
AcDbLine
 10
-1116.069051356395
 20
-1208.815923691551
 30
0.0
 11
-1116.069051356395
 21
-1203.815923691551
 31
0.0
  0
LINE
  5
313
330
71
100
AcDbEntity
  8
1
  6
Continuous
 62
     6
100
AcDbLine
 10
-1184.402384689728
 20
-1203.815923691551
 30
0.0
 11
-1237.735718023061
 21
-1203.815923691551
 31
0.0
  0
LINE
  5
314
330
71
100
AcDbEntity
  8
1
  6
Continuous
 62
     6
100
AcDbLine
 10
-1184.402384689728
 20
-1203.815923691551
 30
0.0
 11
-1116.069051356395
 21
-1203.815923691551
 31
0.0
  0
LINE
  5
315
330
71
100
AcDbEntity
  8
1
  6
Continuous
 62
     2
100
AcDbLine
 10
-1184.402384689728
 20
-1208.815923691551
 30
0.0
 11
-1116.069051356395
 21
-1208.815923691551
 31
0.0
  0
LINE
  5
316
330
71
100
AcDbEntity
  8
1
  6
Continuous
 62
     2
100
AcDbLine
 10
-1184.402384689728
 20
-1208.815923691551
 30
0.0
 11
-1184.402384689728
 21
-1203.815923691551
 31
0.0
  0
LINE
  5
317
330
71
100
AcDbEntity
  8
1
  6
Continuous
 62
     2
100
AcDbLine
 10
-1237.735718023062
 20
-1208.815923691551
 30
0.0
 11
-1257.735718023062
 21
-1208.815923691551
 31
0.0
  0
LINE
  5
318
330
71
100
AcDbEntity
  8
1
  6
Continuous
 62
     2
100
AcDbLine
 10
-837.7357180230638
 20
-1146.415923691551
 30
0.0
 11
-842.7357180230614
 21
-1146.415923691551
 31
0.0
  0
LINE
  5
319
330
71
100
AcDbEntity
  8
1
  6
Continuous
 62
     2
100
AcDbLine
 10
-837.7357180230638
 20
-1146.415923691551
 30
0.0
 11
-837.7357180230638
 21
-1089.015923691551
 31
0.0
  0
LINE
  5
31A
330
71
100
AcDbEntity
  8
1
  6
Continuous
 62
     2
100
AcDbLine
 10
-1047.735718023061
 20
-1208.815923691551
 30
0.0
 11
-1047.735718023061
 21
-1203.815923691551
 31
0.0
  0
LINE
  5
31B
330
71
100
AcDbEntity
  8
1
  6
Continuous
 62
     2
100
AcDbLine
 10
-979.4023846897279
 20
-1208.815923691551
 30
0.0
 11
-979.4023846897279
 21
-1203.815923691554
 31
0.0
  0
LINE
  5
31C
330
71
100
AcDbEntity
  8
1
  6
Continuous
 62
     2
100
AcDbLine
 10
-911.0690513563948
 20
-1208.815923691551
 30
0.0
 11
-911.0690513563948
 21
-1203.815923691551
 31
0.0
  0
LINE
  5
31D
330
71
100
AcDbEntity
  8
1
  6
Continuous
 62
     2
100
AcDbLine
 10
-911.0690513563948
 20
-1208.815923691551
 30
0.0
 11
-842.7357180230613
 21
-1208.815923691551
 31
0.0
  0
LINE
  5
31E
330
71
100
AcDbEntity
  8
1
  6
Continuous
 62
     2
100
AcDbLine
 10
-1047.735718023061
 20
-1208.815923691551
 30
0.0
 11
-1116.069051356395
 21
-1208.815923691551
 31
0.0
  0
LINE
  5
31F
330
71
100
AcDbEntity
  8
1
  6
Continuous
 62
     6
100
AcDbLine
 10
-842.7357180230623
 20
-1182.565923691551
 30
0.0
 11
-842.7357180230614
 21
-1146.415923691551
 31
0.0
  0
LINE
  5
320
330
71
100
AcDbEntity
  8
1
  6
Continuous
 62
     6
100
AcDbLine
 10
-842.7357180230613
 20
-1186.815923691551
 30
0.0
 11
-842.7357180230623
 21
-1182.565923691551
 31
0.0
  0
LINE
  5
321
330
71
100
AcDbEntity
  8
1
  6
Continuous
 62
     6
100
AcDbLine
 10
-842.7357180230617
 20
-1195.315923691551
 30
0.0
 11
-842.7357180230613
 21
-1186.815923691551
 31
0.0
  0
LINE
  5
322
330
71
100
AcDbEntity
  8
1
  6
Continuous
 62
     6
100
AcDbLine
 10
-911.0690513563948
 20
-1203.815923691551
 30
0.0
 11
-842.7357180230614
 21
-1203.815923691551
 31
0.0
  0
ARC
  5
323
102
{ACAD_REACTORS
330
39E
330
39F
102
}
330
71
100
AcDbEntity
  8
0
  6
Continuous
 62
     2
100
AcDbCircle
 10
-959.9090215251616
 20
-1198.308199874886
 30
0.0
 40
4.852596863498158
100
AcDbArc
 50
74.02000874164733
 51
84.84185523037681
  0
ARC
  5
324
102
{ACAD_REACTORS
330
39E
330
39F
102
}
330
71
100
AcDbEntity
  8
0
  6
Continuous
 62
     2
100
AcDbCircle
 10
-959.3329809164079
 20
-1195.152439519001
 30
0.0
 40
0.9059297849847118
100
AcDbArc
 50
71.55192388184437
 51
113.3722778881337
  0
ARC
  5
325
102
{ACAD_REACTORS
330
39E
330
39F
102
}
330
71
100
AcDbEntity
  8
0
  6
Continuous
 62
     2
100
AcDbCircle
 10
-959.48942094911
 20
-1195.200590358968
 30
0.0
 40
0.5115800601949912
100
AcDbArc
 50
208.5214732577276
 51
246.6277221118278
  0
ARC
  5
326
102
{ACAD_REACTORS
330
39E
330
39F
102
}
330
71
100
AcDbEntity
  8
0
  6
Continuous
 62
     2
100
AcDbCircle
 10
-959.3329809164079
 20
-1194.838598340258
 30
0.0
 40
0.9059297849848895
100
AcDbArc
 50
246.6277221118663
 51
288.4480761181556
  0
ARC
  5
327
102
{ACAD_REACTORS
330
39E
330
39F
102
}
330
71
100
AcDbEntity
  8
0
  6
Continuous
 62
     2
100
AcDbCircle
 10
-959.7511486500689
 20
-1193.585052564221
 30
0.0
 40
2.227384008972431
100
AcDbArc
 50
288.4480761181393
 51
301.9309089499646
  0
ARC
  5
328
102
{ACAD_REACTORS
330
39A
330
39B
102
}
330
71
100
AcDbEntity
  8
0
  6
Continuous
 62
     2
100
AcDbCircle
 10
-964.9762223826756
 20
-1192.852550535307
 30
0.0
 40
0.9118481501445603
100
AcDbArc
 50
295.3740086781774
 51
64.62599132179812
  0
ARC
  5
329
102
{ACAD_REACTORS
330
39A
330
39B
102
}
330
71
100
AcDbEntity
  8
0
  6
Continuous
 62
     2
100
AcDbCircle
 10
-964.4501796845876
 20
-1191.137873646833
 30
0.0
 40
0.3157169230771517
100
AcDbArc
 50
90.18896704258138
 51
180.0
  0
ARC
  5
32A
102
{ACAD_REACTORS
330
39C
330
39D
102
}
330
71
100
AcDbEntity
  8
0
  6
Continuous
 62
     2
100
AcDbCircle
 10
-943.2400494717534
 20
-1195.208402480674
 30
0.0
 40
0.9545230068260935
100
AcDbArc
 50
90.0
 51
109.3371432194175
  0
ARC
  5
32B
102
{ACAD_REACTORS
330
39C
330
39D
102
}
330
71
100
AcDbEntity
  8
0
  6
Continuous
 62
     2
100
AcDbCircle
 10
-943.0093622117756
 20
-1194.99551892963
 30
0.0
 40
0.9410597353349766
100
AcDbArc
 50
151.4785267423711
 51
208.5214732576289
  0
ARC
  5
32C
102
{ACAD_REACTORS
330
39C
330
39D
102
}
330
71
100
AcDbEntity
  8
0
  6
Continuous
 62
     2
100
AcDbCircle
 10
-943.230279437154
 20
-1194.838598340258
 30
0.0
 40
0.9059297849852503
100
AcDbArc
 50
246.6277221118135
 51
288.4480761180647
  0
ARC
  5
32D
102
{ACAD_REACTORS
330
39C
330
39D
102
}
330
71
100
AcDbEntity
  8
0
  6
Continuous
 62
     2
100
AcDbCircle
 10
-943.648447170816
 20
-1193.585052564222
 30
0.0
 40
2.227384008972611
100
AcDbArc
 50
288.4480761181346
 51
301.9309089499522
  0
ARC
  5
32E
102
{ACAD_REACTORS
330
39C
330
39D
102
}
330
71
100
AcDbEntity
  8
0
  6
Continuous
 62
     2
100
AcDbCircle
 10
-943.8063200459087
 20
-1191.682837984373
 30
0.0
 40
4.852596863498941
100
AcDbArc
 50
275.1581447696365
 51
285.9799912583368
  0
ARC
  5
32F
102
{ACAD_REACTORS
330
39C
330
39D
102
}
330
71
100
AcDbEntity
  8
0
  6
Continuous
 62
     2
100
AcDbCircle
 10
-943.5174639511729
 20
-1194.882728567595
 30
0.0
 40
1.639695123940421
100
AcDbArc
 50
195.0618917771015
 51
275.1581447696781
  0
ARC
  5
330
102
{ACAD_REACTORS
330
394
330
395
102
}
330
71
100
AcDbEntity
  8
0
  6
Continuous
 62
     2
100
AcDbCircle
 10
-959.245677262864
 20
-1191.164789332883
 30
0.0
 40
1.055365641333992
100
AcDbArc
 50
270.0
 51
90.0
  0
ARC
  5
331
102
{ACAD_REACTORS
330
39A
330
39B
102
}
330
71
100
AcDbEntity
  8
0
  6
Continuous
 62
     2
100
AcDbCircle
 10
-967.0257283711194
 20
-1195.494151212901
 30
0.0
 40
0.3157169230756836
100
AcDbArc
 50
180.0
 51
270.0
  0
ARC
  5
332
102
{ACAD_REACTORS
330
39A
330
39B
102
}
330
71
100
AcDbEntity
  8
0
  6
Continuous
 62
     2
100
AcDbCircle
 10
-965.5498951101099
 20
-1191.137696170184
 30
0.0
 40
0.3157169230767067
100
AcDbArc
 50
0.0
 51
90.0
  0
ARC
  5
333
102
{ACAD_REACTORS
330
39A
330
39B
102
}
330
71
100
AcDbEntity
  8
0
  6
Continuous
 62
     2
100
AcDbCircle
 10
-965.5498951101099
 20
-1191.741720789245
 30
0.0
 40
0.3157169230765287
100
AcDbArc
 50
295.1944106485277
 51
0.0
  0
ARC
  5
334
102
{ACAD_REACTORS
330
39A
330
39B
102
}
330
71
100
AcDbEntity
  8
0
  6
Continuous
 62
     2
100
AcDbCircle
 10
-965.5498951101099
 20
-1195.494151212901
 30
0.0
 40
0.3157169230769341
100
AcDbArc
 50
270.0
 51
0.0
  0
ARC
  5
335
102
{ACAD_REACTORS
330
39A
330
39B
102
}
330
71
100
AcDbEntity
  8
0
  6
Continuous
 62
     2
100
AcDbCircle
 10
-967.619623047866
 20
-1190.533668306952
 30
0.0
 40
0.424244615383941
100
AcDbArc
 50
90.0
 51
180.0
  0
ARC
  5
336
102
{ACAD_REACTORS
330
39A
330
39B
102
}
330
71
100
AcDbEntity
  8
0
  6
Continuous
 62
     2
100
AcDbCircle
 10
-962.146310957149
 20
-1190.533668306952
 30
0.0
 40
0.4242446153838273
100
AcDbArc
 50
0.0
 51
90.0
  0
ARC
  5
337
102
{ACAD_REACTORS
330
39A
330
39B
102
}
330
71
100
AcDbEntity
  8
0
  6
Continuous
 62
     2
100
AcDbCircle
 10
-962.146310957149
 20
-1196.098179076152
 30
0.0
 40
0.4242446153830315
100
AcDbArc
 50
270.0
 51
0.0
  0
ARC
  5
338
102
{ACAD_REACTORS
330
398
330
399
102
}
330
71
100
AcDbEntity
  8
0
  6
Continuous
 62
     2
100
AcDbCircle
 10
-952.9279270700575
 20
-1191.636328453456
 30
0.0
 40
0.7717997786790343
100
AcDbArc
 50
321.8795802028837
 51
38.12041979722252
  0
ARC
  5
339
102
{ACAD_REACTORS
330
398
330
399
102
}
330
71
100
AcDbEntity
  8
0
  6
Continuous
 62
     2
100
AcDbCircle
 10
-952.7281870337114
 20
-1191.793059631576
 30
0.0
 40
0.517908573013281
100
AcDbArc
 50
218.1204197971087
 51
321.8795802028835
  0
ARC
  5
33A
102
{ACAD_REACTORS
330
396
330
397
102
}
330
71
100
AcDbEntity
  8
0
  6
Continuous
 62
     2
100
AcDbCircle
 10
-956.4081946226717
 20
-1194.99551892963
 30
0.0
 40
1.458034083651714
100
AcDbArc
 50
297.5481481757107
 51
62.4518518243058
  0
ARC
  5
33B
102
{ACAD_REACTORS
330
396
330
397
102
}
330
71
100
AcDbEntity
  8
0
  6
Continuous
 62
     2
100
AcDbCircle
 10
-956.9700744063382
 20
-1194.99551892963
 30
0.0
 40
1.458034083651995
100
AcDbArc
 50
117.5481481756546
 51
242.4518518243289
  0
ARC
  5
33C
102
{ACAD_REACTORS
330
396
330
397
102
}
330
71
100
AcDbEntity
  8
0
  6
Continuous
 62
     2
100
AcDbCircle
 10
-956.6891345145049
 20
-1195.534093939933
 30
0.0
 40
2.065479772209248
100
AcDbArc
 50
62.45185182431621
 51
117.5481481756586
  0
ARC
  5
33D
102
{ACAD_REACTORS
330
396
330
397
102
}
330
71
100
AcDbEntity
  8
0
  6
Continuous
 62
     2
100
AcDbCircle
 10
-956.6891345145049
 20
-1194.456943919327
 30
0.0
 40
2.065479772207969
100
AcDbArc
 50
242.4518518243297
 51
297.5481481756955
  0
ARC
  5
33E
102
{ACAD_REACTORS
330
398
330
399
102
}
330
71
100
AcDbEntity
  8
0
  6
Continuous
 62
     2
100
AcDbCircle
 10
-952.5284469973651
 20
-1191.636328453456
 30
0.0
 40
0.771799778680336
100
AcDbArc
 50
141.8795802027879
 51
218.1204197971059
  0
ARC
  5
33F
102
{ACAD_REACTORS
330
398
330
399
102
}
330
71
100
AcDbEntity
  8
0
  6
Continuous
 62
     2
100
AcDbCircle
 10
-952.7281870337114
 20
-1191.479597275335
 30
0.0
 40
0.5179085730137529
100
AcDbArc
 50
38.12041979719563
 51
141.8795802028121
  0
ARC
  5
340
102
{ACAD_REACTORS
330
39A
330
39B
102
}
330
71
100
AcDbEntity
  8
0
  6
Continuous
 62
     2
100
AcDbCircle
 10
-967.619623047866
 20
-1196.098179076152
 30
0.0
 40
0.4242446153828041
100
AcDbArc
 50
180.0
 51
270.0
  0
ARC
  5
341
102
{ACAD_REACTORS
330
39A
330
39B
102
}
330
71
100
AcDbEntity
  8
0
  6
Continuous
 62
     2
100
AcDbCircle
 10
-965.5498951101099
 20
-1193.96338028137
 30
0.0
 40
0.3157169230767067
100
AcDbArc
 50
0.0
 51
64.80558935147235
  0
ARC
  5
342
102
{ACAD_REACTORS
330
39A
330
39B
102
}
330
71
100
AcDbEntity
  8
0
  6
Continuous
 62
     2
100
AcDbCircle
 10
-965.0273106625349
 20
-1192.852550535307
 30
0.0
 40
0.9118975235571412
100
AcDbArc
 50
115.1944106485363
 51
244.805589351488
  0
ARC
  5
343
102
{ACAD_REACTORS
330
39A
330
39B
102
}
330
71
100
AcDbEntity
  8
0
  6
Continuous
 62
     2
100
AcDbCircle
 10
-967.0257283711194
 20
-1191.137696170184
 30
0.0
 40
0.3157169230760246
100
AcDbArc
 50
90.0
 51
180.0
  0
ARC
  5
344
102
{ACAD_REACTORS
330
394
330
395
102
}
330
71
100
AcDbEntity
  8
0
  6
Continuous
 62
     2
100
AcDbCircle
 10
-959.6871497891024
 20
-1191.125393361661
 30
0.0
 40
0.3528638246709761
100
AcDbArc
 50
270.0
 51
90.0
  0
ARC
  5
345
102
{ACAD_REACTORS
330
398
330
399
102
}
330
71
100
AcDbEntity
  8
0
  6
Continuous
 62
     2
100
AcDbCircle
 10
-952.9444590438766
 20
-1191.636328453456
 30
0.0
 40
1.526904761905826
100
AcDbArc
 50
90.0
 51
270.0
  0
ARC
  5
346
102
{ACAD_REACTORS
330
39C
330
39D
102
}
330
71
100
AcDbEntity
  8
0
  6
Continuous
 62
     2
100
AcDbCircle
 10
-943.5174639511729
 20
-1195.108309291665
 30
0.0
 40
1.63969512394101
100
AcDbArc
 50
90.0
 51
164.9381082228985
  0
ARC
  5
347
102
{ACAD_REACTORS
330
39C
330
39D
102
}
330
71
100
AcDbEntity
  8
0
  6
Continuous
 62
     2
100
AcDbCircle
 10
-943.9365917946345
 20
-1194.99551892963
 30
0.0
 40
1.205656168392903
100
AcDbArc
 50
164.9381082229099
 51
195.0618917770901
  0
ARC
  5
348
102
{ACAD_REACTORS
330
39C
330
39D
102
}
330
71
100
AcDbEntity
  8
0
  6
Continuous
 62
     2
100
AcDbCircle
 10
-943.3867194698571
 20
-1195.200590358968
 30
0.0
 40
0.5115800601959901
100
AcDbArc
 50
208.5214732576668
 51
246.6277221118395
  0
ARC
  5
349
102
{ACAD_REACTORS
330
39C
330
39D
102
}
330
71
100
AcDbEntity
  8
0
  6
Continuous
 62
     2
100
AcDbCircle
 10
-943.3867194698571
 20
-1194.790447500291
 30
0.0
 40
0.5115800601948339
100
AcDbArc
 50
109.3371432194654
 51
151.4785267424227
  0
ARC
  5
34A
102
{ACAD_REACTORS
330
39A
330
39B
102
}
330
71
100
AcDbEntity
  8
0
  6
Continuous
 62
     2
100
AcDbCircle
 10
-964.4501796845876
 20
-1194.54354354197
 30
0.0
 40
0.3157169230768204
100
AcDbArc
 50
180.0
 51
269.8110329574187
  0
ARC
  5
34B
102
{ACAD_REACTORS
330
39A
330
39B
102
}
330
71
100
AcDbEntity
  8
0
  6
Continuous
 62
     2
100
AcDbCircle
 10
-964.4445635492776
 20
-1192.840708594401
 30
0.0
 40
2.018561131934289
100
AcDbArc
 50
269.8110329575811
 51
90.18896704241901
  0
ARC
  5
34C
102
{ACAD_REACTORS
330
39A
330
39B
102
}
330
71
100
AcDbEntity
  8
0
  6
Continuous
 62
     2
100
AcDbCircle
 10
-964.4501796845876
 20
-1191.743408935339
 30
0.0
 40
0.3157169230768204
100
AcDbArc
 50
180.0
 51
244.6259913216833
  0
ARC
  5
34D
102
{ACAD_REACTORS
330
39A
330
39B
102
}
330
71
100
AcDbEntity
  8
0
  6
Continuous
 62
     2
100
AcDbCircle
 10
-964.4501796845876
 20
-1193.961692135275
 30
0.0
 40
0.31571692307598
100
AcDbArc
 50
115.3740086784051
 51
180.0
  0
ARC
  5
34E
102
{ACAD_REACTORS
330
39E
330
39F
102
}
330
71
100
AcDbEntity
  8
0
  6
Continuous
 62
     2
100
AcDbCircle
 10
-959.6201654304257
 20
-1195.108309291665
 30
0.0
 40
1.639695123941119
100
AcDbArc
 50
84.8418552303683
 51
164.9381082228913
  0
ARC
  5
34F
102
{ACAD_REACTORS
330
39E
330
39F
102
}
330
71
100
AcDbEntity
  8
0
  6
Continuous
 62
     2
100
AcDbCircle
 10
-960.0392932738886
 20
-1194.99551892963
 30
0.0
 40
1.205656168390927
100
AcDbArc
 50
164.9381082228846
 51
195.0618917770736
  0
ARC
  5
350
102
{ACAD_REACTORS
330
39E
330
39F
102
}
330
71
100
AcDbEntity
  8
0
  6
Continuous
 62
     2
100
AcDbCircle
 10
-959.6201654304257
 20
-1194.882728567595
 30
0.0
 40
1.639695123939416
100
AcDbArc
 50
195.061891777078
 51
275.1581447696346
  0
ARC
  5
351
102
{ACAD_REACTORS
330
39E
330
39F
102
}
330
71
100
AcDbEntity
  8
0
  6
Continuous
 62
     2
100
AcDbCircle
 10
-959.9090215251616
 20
-1191.682837984373
 30
0.0
 40
4.852596863498839
100
AcDbArc
 50
275.1581447696232
 51
285.9799912583526
  0
ARC
  5
352
102
{ACAD_REACTORS
330
39E
330
39F
102
}
330
71
100
AcDbEntity
  8
0
  6
Continuous
 62
     2
100
AcDbCircle
 10
-959.1120636910297
 20
-1194.99551892963
 30
0.0
 40
0.941059735333413
100
AcDbArc
 50
151.4785267422564
 51
208.521473257695
  0
ARC
  5
353
102
{ACAD_REACTORS
330
39E
330
39F
102
}
330
71
100
AcDbEntity
  8
0
  6
Continuous
 62
     2
100
AcDbCircle
 10
-959.48942094911
 20
-1194.790447500291
 30
0.0
 40
0.5115800601953623
100
AcDbArc
 50
113.3722778881722
 51
151.4785267422724
  0
ARC
  5
354
102
{ACAD_REACTORS
330
39E
330
39F
102
}
330
71
100
AcDbEntity
  8
0
  6
Continuous
 62
     2
100
AcDbCircle
 10
-959.7511486500689
 20
-1196.405985295038
 30
0.0
 40
2.227384008973574
100
AcDbArc
 50
58.06909105003538
 51
71.55192388186074
  0
ARC
  5
355
102
{ACAD_REACTORS
330
396
330
397
102
}
330
71
100
AcDbEntity
  8
0
  6
Continuous
 62
     2
100
AcDbCircle
 10
-956.6891345145049
 20
-1194.838787751509
 30
0.0
 40
0.5179085730130126
100
AcDbArc
 50
38.120419797132
 51
141.8795802028913
  0
ARC
  5
356
102
{ACAD_REACTORS
330
396
330
397
102
}
330
71
100
AcDbEntity
  8
0
  6
Continuous
 62
     2
100
AcDbCircle
 10
-956.4893944781588
 20
-1194.99551892963
 30
0.0
 40
0.7717997786795957
100
AcDbArc
 50
141.8795802028306
 51
218.1204197971694
  0
ARC
  5
357
102
{ACAD_REACTORS
330
396
330
397
102
}
330
71
100
AcDbEntity
  8
0
  6
Continuous
 62
     2
100
AcDbCircle
 10
-956.6891345145049
 20
-1195.15225010775
 30
0.0
 40
0.5179085730138424
100
AcDbArc
 50
218.1204197971879
 51
321.8795802027889
  0
ARC
  5
358
102
{ACAD_REACTORS
330
396
330
397
102
}
330
71
100
AcDbEntity
  8
0
  6
Continuous
 62
     2
100
AcDbCircle
 10
-956.8888745508513
 20
-1194.99551892963
 30
0.0
 40
0.7717997786795957
100
AcDbArc
 50
321.8795802028306
 51
38.1204197971694
  0
CIRCLE
  5
359
330
71
100
AcDbEntity
  8
1
  6
Continuous
 62
     2
100
AcDbCircle
 10
-959.5438676632488
 20
-1182.690923691552
 30
0.0
 40
2.5
  0
CIRCLE
  5
35A
330
71
100
AcDbEntity
  8
1
  6
Continuous
 62
     2
100
AcDbCircle
 10
-959.5438676632488
 20
-1182.690923691552
 30
0.0
 40
1.25
  0
CIRCLE
  5
35B
102
{ACAD_REACTORS
330
39A
330
39B
102
}
330
71
100
AcDbEntity
  8
0
  6
Continuous
 62
     2
100
AcDbCircle
 10
-965.0000373973484
 20
-1192.852550535307
 30
0.0
 40
0.4709789327785074
  0
MTEXT
  5
35C
330
71
100
AcDbEntity
  8
1
 62
     3
100
AcDbMText
 10
-1239.313044711708
 20
-1203.78900959205
 30
0.0
 40
1.8
 41
0.0
 71
     7
 72
     1
  3
Weitergabe sowie Vervielf\U+00e4ltigung dieses Dokuments, Verwertung und \PMitteilung seines Inhalts sind verboten, soweit nicht ausdr\U+00fccklich gestattet. \PZuwiderhandlungen verpflichten zu Schadenersatz. Alle Rechte f\U+00fcr den Fall\Pder Pat
  1
ent-, Gebrauchsmuster- oder Designeintragung vorbehalten.
  7
CONVERTER_11
 11
0.0
 21
1.0
 31
0.0
 73
     1
 44
0.99639855942377
  0
MTEXT
  5
35D
330
71
100
AcDbEntity
  8
1
 62
     3
100
AcDbMText
 10
-1239.467251022802
 20
-1030.829639577897
 30
0.0
 40
1.8
 41
0.0
 71
     7
 72
     1
  3
Transfer or duplication of this document as well as the utilisation or\Pcommunication of its content are not permitted unless express consent\Pis granted. Violations give rise to claims for damages. All rights reserved\Pin case of patent, utility mo
  1
del or design patent registrations.
  7
CONVERTER_11
 11
0.0
 21
1.0
 31
0.0
 73
     1
 44
0.99639855942377
  0
TEXT
  5
35E
330
71
100
AcDbEntity
  8
1
 62
     2
100
AcDbText
 10
-953.0805225498115
 20
-1202.574940906543
 30
0.0
 40
1.8
  1
of
 41
0.9
  7
CONVERTER_11
100
AcDbText
  0
TEXT
  5
35F
330
71
100
AcDbEntity
  8
1
 62
     2
100
AcDbText
 10
-971.2805225498113
 20
-1202.574940906543
 30
0.0
 40
1.8
  1
page
 41
0.9
  7
CONVERTER_11
100
AcDbText
  0
TEXT
  5
360
330
71
100
AcDbEntity
  8
1
 62
     2
100
AcDbText
 10
-962.6342575794692
 20
-1202.615172345353
 30
0.0
 40
1.8
  1
1
 41
0.9
  7
CONVERTER_11
100
AcDbText
  0
TEXT
  5
361
330
71
100
AcDbEntity
  8
1
 62
     2
100
AcDbText
 10
-947.8452137399977
 20
-1202.565923691551
 30
0.0
 40
1.8
  1
1
 41
0.9
  7
CONVERTER_11
100
AcDbText
  0
MTEXT
  5
363
330
71
100
AcDbEntity
  8
1
 62
     7
100
AcDbMText
 10
-889.3081202864358
 20
-1200.565923691551
 30
0.0
 40
3.0
 41
0.0
 71
     5
 72
     1
  1
EB  3-31/UKH
  7
CONVERTER_12
 73
     1
 44
1.20048019207683
  0
MTEXT
  5
364
330
71
100
AcDbEntity
  8
1
 62
     2
100
AcDbMText
 10
-934.8805225498113
 20
-1196.315923691551
 30
0.0
 40
1.8
 41
0.0
 71
     1
 72
     1
  1
description
  7
CONVERTER_11
 73
     1
 44
1.20048019207683
  0
MTEXT
  5
365
330
71
100
AcDbEntity
  8
1
 62
     3
100
AcDbMText
 10
-946.0805225498113
 20
-1182.690923691551
 30
0.0
 40
2.5
 41
0.0
 71
     5
 72
     1
  1
DIN A3
  7
CONVERTER_11
 73
     1
 44
1.20048019207683
  0
MTEXT
  5
366
330
71
100
AcDbEntity
  8
1
 62
     2
100
AcDbMText
 10
-1006.691545819021
 20
-1191.065923691553
 30
0.0
 40
2.0
 41
0.0
 71
     5
 72
     1
  1
General Information\P- Simplified representation\P- Document excluded from change process\P- Linear dimensions [mm]
  7
CONVERTER_11
 73
     1
 44
1.20048019207683
  0
TEXT
  5
367
330
71
100
AcDbEntity
  8
1
 62
     7
100
AcDbText
 10
-934.3805225498115
 20
-1194.015923691551
 30
0.0
 40
2.5
  1
0201391
 41
0.81
  7
CONVERTER_12
100
AcDbText
  0
MTEXT
  5
368
330
71
100
AcDbEntity
  8
1
 62
     2
100
AcDbMText
 10
-934.7805225498114
 20
-1187.815923691551
 30
0.0
 40
1.8
 41
0.0
 71
     1
 72
     1
  1
ident.-No.
  7
CONVERTER_11
 73
     1
 44
1.20048019207683
  0
MTEXT
  5
369
330
71
100
AcDbEntity
  8
1
 62
     2
100
AcDbMText
 10
-850.5541263047386
 20
-1179.315923691551
 30
0.0
 40
1.8
 41
0.0
 71
     1
 72
     1
  1
scale
  7
CONVERTER_11
 73
     1
 44
1.20048019207683
  0
MTEXT
  5
36B
330
71
100
AcDbEntity
  8
1
 62
     3
100
AcDbMText
 10
-847.194922163899
 20
-1185.515923691551
 30
0.0
 40
2.5
 41
0.0
 71
     8
 72
     1
  1
1:1
  7
CONVERTER_13
 73
     1
 44
1.32052821128451
  0
TEXT
  5
36C
330
71
100
AcDbEntity
  8
1
 62
     7
100
AcDbText
 10
-934.7805225498114
 20
-1185.515923691551
 30
0.0
 40
2.5
  1
00485420
 41
0.81
  7
CONVERTER_12
100
AcDbText
  0
MTEXT
  5
36E
330
71
100
AcDbEntity
  8
1
 62
     2
100
AcDbMText
 10
-934.7805225498114
 20
-1179.315923691551
 30
0.0
 40
1.8
 41
0.0
 71
     1
 72
     1
  1
document-No. / RI
  7
CONVERTER_14
 73
     1
 44
1.32052821128451
  0
TEXT
  5
36F
330
71
100
AcDbEntity
  8
1
 62
     3
100
AcDbText
 10
-906.9805225498113
 20
-1194.015923691551
 30
0.0
 40
2.5
  1
TECDOC 2D_Productdrawing
 41
0.81
  7
CONVERTER_12
100
AcDbText
  0
MTEXT
  5
370
330
71
100
AcDbEntity
  8
1
 62
     2
100
AcDbMText
 10
-906.9805225498113
 20
-1187.815923691551
 30
0.0
 40
1.8
 41
0.0
 71
     1
 72
     1
  1
document-type
  7
CONVERTER_11
 73
     1
 44
1.20048019207683
  0
MTEXT
  5
371
330
71
100
AcDbEntity
  8
1
 62
     2
100
AcDbMText
 10
-877.1541263047384
 20
-1179.315923691551
 30
0.0
 40
1.8
 41
0.0
 71
     1
 72
     1
  1
date
  7
CONVERTER_11
 73
     1
 44
1.32052821128451
  0
TEXT
  5
372
330
71
100
AcDbEntity
  8
1
 62
     3
100
AcDbText
 10
-877.1541263047384
 20
-1185.515923691551
 30
0.0
 40
2.5
  1
27.01.2018
 41
0.81
  7
CONVERTER_12
100
AcDbText
  0
TEXT
  5
373
330
71
100
AcDbEntity
  8
1
 62
     7
100
AcDbText
 10
-914.7506103307555
 20
-1185.515923691551
 30
0.0
 40
2.5
  1
00
 41
0.81
  7
CONVERTER_12
100
AcDbText
  0
TEXT
  5
374
330
71
100
AcDbEntity
  8
1
 62
     7
100
AcDbText
 10
-916.9069748277975
 20
-1185.515923691551
 30
0.0
 40
2.5
  1
/
 41
0.9
  7
CONVERTER_11
100
AcDbText
  0
TEXT
  5
375
330
71
100
AcDbEntity
  8
1
 62
     7
100
AcDbText
 10
-1219.735718023061
 20
-915.8159236915506
 30
0.0
 40
2.5
  1
1
 41
0.9
  7
CONVERTER_11
100
AcDbText
  0
TEXT
  5
376
330
71
100
AcDbEntity
  8
1
 62
     7
100
AcDbText
 10
-1151.402384689728
 20
-915.8159236915506
 30
0.0
 40
2.5
  1
2
 41
0.9
  7
CONVERTER_11
100
AcDbText
  0
TEXT
  5
377
330
71
100
AcDbEntity
  8
1
 62
     7
100
AcDbText
 10
-1083.069051356395
 20
-915.8159236915506
 30
0.0
 40
2.5
  1
3
 41
0.9
  7
CONVERTER_11
100
AcDbText
  0
TEXT
  5
378
330
71
100
AcDbEntity
  8
1
 62
     7
100
AcDbText
 10
-1014.735718023061
 20
-915.8159236915506
 30
0.0
 40
2.5
  1
4
 41
0.9
  7
CONVERTER_11
100
AcDbText
  0
TEXT
  5
379
330
71
100
AcDbEntity
  8
1
 62
     7
100
AcDbText
 10
-946.4023846897279
 20
-915.8159236915506
 30
0.0
 40
2.5
  1
5
 41
0.9
  7
CONVERTER_11
100
AcDbText
  0
TEXT
  5
37A
330
71
100
AcDbEntity
  8
1
 62
     7
100
AcDbText
 10
-878.0690513563948
 20
-915.8159236915506
 30
0.0
 40
2.5
  1
6
 41
0.9
  7
CONVERTER_11
100
AcDbText
  0
TEXT
  5
37B
330
71
100
AcDbEntity
  8
1
 62
     7
100
AcDbText
 10
-841.7357180230613
 20
-946.7159236915509
 30
0.0
 40
2.5
  1
A
 41
0.9
  7
CONVERTER_11
100
AcDbText
  0
TEXT
  5
37C
330
71
100
AcDbEntity
  8
1
 62
     7
100
AcDbText
 10
-841.7357180230613
 20
-1004.115923691551
 30
0.0
 40
2.5
  1
B
 41
0.9
  7
CONVERTER_11
100
AcDbText
  0
TEXT
  5
37D
330
71
100
AcDbEntity
  8
1
 62
     7
100
AcDbText
 10
-841.7357180230613
 20
-1061.515923691551
 30
0.0
 40
2.5
  1
C
 41
0.9
  7
CONVERTER_11
100
AcDbText
  0
TEXT
  5
37E
330
71
100
AcDbEntity
  8
1
 62
     7
100
AcDbText
 10
-841.7357180230613
 20
-1118.915923691551
 30
0.0
 40
2.5
  1
D
 41
0.9
  7
CONVERTER_11
100
AcDbText
  0
TEXT
  5
37F
330
71
100
AcDbEntity
  8
1
 62
     7
100
AcDbText
 10
-1151.402384689728
 20
-1207.815923691551
 30
0.0
 40
2.5
  1
2
 41
0.9
  7
CONVERTER_11
100
AcDbText
  0
TEXT
  5
380
330
71
100
AcDbEntity
  8
1
 62
     7
100
AcDbText
 10
-1219.735718023061
 20
-1207.815923691551
 30
0.0
 40
2.5
  1
1
 41
0.9
  7
CONVERTER_11
100
AcDbText
  0
TEXT
  5
381
330
71
100
AcDbEntity
  8
1
 62
     7
100
AcDbText
 10
-841.7357180230613
 20
-1176.315923691551
 30
0.0
 40
2.5
  1
E
 41
0.9
  7
CONVERTER_11
100
AcDbText
  0
TEXT
  5
382
330
71
100
AcDbEntity
  8
1
 62
     7
100
AcDbText
 10
-1083.069051356395
 20
-1207.815923691551
 30
0.0
 40
2.5
  1
3
 41
0.9
  7
CONVERTER_11
100
AcDbText
  0
TEXT
  5
383
330
71
100
AcDbEntity
  8
1
 62
     7
100
AcDbText
 10
-1014.735718023061
 20
-1207.815923691551
 30
0.0
 40
2.5
  1
4
 41
0.9
  7
CONVERTER_11
100
AcDbText
  0
TEXT
  5
384
330
71
100
AcDbEntity
  8
1
 62
     7
100
AcDbText
 10
-946.4023846897281
 20
-1207.815923691551
 30
0.0
 40
2.5
  1
5
 41
0.9
  7
CONVERTER_11
100
AcDbText
  0
TEXT
  5
385
330
71
100
AcDbEntity
  8
1
 62
     7
100
AcDbText
 10
-878.0690513563948
 20
-1207.815923691551
 30
0.0
 40
2.5
  1
6
 41
0.9
  7
CONVERTER_11
100
AcDbText
  0
HATCH
  5
386
330
71
100
AcDbEntity
  8
1
  6
Continuous
 62
     2
100
AcDbHatch
 10
0.0
 20
0.0
 30
0.0
210
0.0
220
0.0
230
1.0
  2
CUSTOM0
 70
     0
 71
     1
 91
        1
 92
        1
 93
       12
 72
     1
 10
-954.6130218368502
 20
-1193.163233215361
 11
-955.8058145390166
 21
-1193.163233215361
 72
     1
 10
-955.8058145390166
 20
-1193.163233215361
 11
-955.8058145390166
 21
-1192.028961106517
 72
     1
 10
-955.8058145390166
 20
-1192.028961106517
 11
-956.855472116924
 21
-1192.028961106517
 72
     1
 10
-956.855472116924
 20
-1192.028961106517
 11
-956.855472116924
 21
-1193.163233215361
 72
     1
 10
-956.855472116924
 20
-1193.163233215361
 11
-958.0482648190906
 21
-1193.163233215361
 72
     1
 10
-958.0482648190906
 20
-1193.163233215361
 11
-958.0482648190906
 21
-1190.10942369155
 72
     1
 10
-958.0482648190906
 20
-1190.10942369155
 11
-956.855472116924
 21
-1190.10942369155
 72
     1
 10
-956.855472116924
 20
-1190.10942369155
 11
-956.855472116924
 21
-1191.178257024884
 72
     1
 10
-956.855472116924
 20
-1191.178257024884
 11
-955.8058145390166
 21
-1191.178257024884
 72
     1
 10
-955.8058145390166
 20
-1191.178257024884
 11
-955.8058145390166
 21
-1190.10942369155
 72
     1
 10
-955.8058145390166
 20
-1190.10942369155
 11
-954.6130218368502
 21
-1190.10942369155
 72
     1
 10
-954.6130218368502
 20
-1190.10942369155
 11
-954.6130218368502
 21
-1193.163233215361
 97
       12
330
2AF
330
2B0
330
29A
330
299
330
298
330
2AC
330
297
330
2AD
330
2AE
330
296
330
295
330
294
 75
     1
 76
     2
 52
45.0
 41
0.1
 77
     0
 78
     1
 53
45.0
 43
62.7811309658083
 44
-72.3161373035813
 45
-0.1414213562373095
 46
0.0
 79
     0
 98
        1
 10
0.0
 20
0.0
  0
HATCH
  5
387
330
71
100
AcDbEntity
  8
1
  6
Continuous
 62
     2
100
AcDbHatch
 10
0.0
 20
0.0
 30
0.0
210
0.0
220
0.0
230
1.0
  2
CUSTOM1
 70
     0
 71
     1
 91
        1
 92
        1
 93
       12
 72
     1
 10
-954.6130218368502
 20
-1193.163233215361
 11
-955.8058145390166
 21
-1193.163233215361
 72
     1
 10
-955.8058145390166
 20
-1193.163233215361
 11
-955.8058145390166
 21
-1192.028961106517
 72
     1
 10
-955.8058145390166
 20
-1192.028961106517
 11
-956.855472116924
 21
-1192.028961106517
 72
     1
 10
-956.855472116924
 20
-1192.028961106517
 11
-956.855472116924
 21
-1193.163233215361
 72
     1
 10
-956.855472116924
 20
-1193.163233215361
 11
-958.0482648190906
 21
-1193.163233215361
 72
     1
 10
-958.0482648190906
 20
-1193.163233215361
 11
-958.0482648190906
 21
-1190.10942369155
 72
     1
 10
-958.0482648190906
 20
-1190.10942369155
 11
-956.855472116924
 21
-1190.10942369155
 72
     1
 10
-956.855472116924
 20
-1190.10942369155
 11
-956.855472116924
 21
-1191.178257024884
 72
     1
 10
-956.855472116924
 20
-1191.178257024884
 11
-955.8058145390166
 21
-1191.178257024884
 72
     1
 10
-955.8058145390166
 20
-1191.178257024884
 11
-955.8058145390166
 21
-1190.10942369155
 72
     1
 10
-955.8058145390166
 20
-1190.10942369155
 11
-954.6130218368502
 21
-1190.10942369155
 72
     1
 10
-954.6130218368502
 20
-1190.10942369155
 11
-954.6130218368502
 21
-1193.163233215361
 97
       12
330
2AF
330
2B0
330
29A
330
299
330
298
330
2AC
330
297
330
2AD
330
2AE
330
296
330
295
330
294
 75
     1
 76
     2
 52
45.0
 41
0.1
 77
     0
 78
     1
 53
45.0
 43
62.7811309658083
 44
-72.3161373035813
 45
-0.1414213562373095
 46
0.0
 79
     0
 98
        1
 10
0.0
 20
0.0
  0
HATCH
  5
388
330
71
100
AcDbEntity
  8
1
  6
Continuous
 62
     2
100
AcDbHatch
 10
0.0
 20
0.0
 30
0.0
210
0.0
220
0.0
230
1.0
  2
CUSTOM2
 70
     0
 71
     1
 91
        1
 92
        1
 93
       10
 72
     1
 10
-952.3707224876619
 20
-1194.777389677929
 11
-953.6112268979148
 21
-1193.468614167724
 72
     1
 10
-953.6112268979148
 20
-1193.468614167724
 11
-954.8040196000824
 21
-1193.468614167724
 72
     1
 10
-954.8040196000824
 20
-1193.468614167724
 11
-954.8040196000824
 21
-1196.522423691535
 72
     1
 10
-954.8040196000824
 20
-1196.522423691535
 11
-953.6112268979148
 21
-1196.522423691535
 72
     1
 10
-953.6112268979148
 20
-1196.522423691535
 11
-953.6112268979148
 21
-1195.21364818133
 72
     1
 10
-953.6112268979148
 20
-1195.21364818133
 11
-952.3707224876619
 21
-1196.522423691535
 72
     1
 10
-952.3707224876619
 20
-1196.522423691535
 11
-951.1779297854955
 21
-1196.522423691535
 72
     1
 10
-951.1779297854955
 20
-1196.522423691535
 11
-951.1779297854955
 21
-1193.468614167724
 72
     1
 10
-951.1779297854955
 20
-1193.468614167724
 11
-952.3707224876619
 21
-1193.468614167724
 72
     1
 10
-952.3707224876619
 20
-1193.468614167724
 11
-952.3707224876619
 21
-1194.777389677929
 97
       10
330
2BD
330
28D
330
28C
330
28F
330
2B8
330
2B9
330
28E
330
2BA
330
2BB
330
2BC
 75
     1
 76
     2
 52
45.0
 41
0.1
 77
     0
 78
     1
 53
45.0
 43
62.7811309658083
 44
-72.3161373035813
 45
-0.1414213562373095
 46
0.0
 79
     0
 98
        1
 10
0.0
 20
0.0
  0
HATCH
  5
389
330
71
100
AcDbEntity
  8
1
  6
Continuous
 62
     2
100
AcDbHatch
 10
0.0
 20
0.0
 30
0.0
210
0.0
220
0.0
230
1.0
  2
CUSTOM3
 70
     0
 71
     1
 91
        1
 92
        1
 93
       10
 72
     1
 10
-952.3707224876619
 20
-1194.777389677929
 11
-953.6112268979148
 21
-1193.468614167724
 72
     1
 10
-953.6112268979148
 20
-1193.468614167724
 11
-954.8040196000824
 21
-1193.468614167724
 72
     1
 10
-954.8040196000824
 20
-1193.468614167724
 11
-954.8040196000824
 21
-1196.522423691535
 72
     1
 10
-954.8040196000824
 20
-1196.522423691535
 11
-953.6112268979148
 21
-1196.522423691535
 72
     1
 10
-953.6112268979148
 20
-1196.522423691535
 11
-953.6112268979148
 21
-1195.21364818133
 72
     1
 10
-953.6112268979148
 20
-1195.21364818133
 11
-952.3707224876619
 21
-1196.522423691535
 72
     1
 10
-952.3707224876619
 20
-1196.522423691535
 11
-951.1779297854955
 21
-1196.522423691535
 72
     1
 10
-951.1779297854955
 20
-1196.522423691535
 11
-951.1779297854955
 21
-1193.468614167724
 72
     1
 10
-951.1779297854955
 20
-1193.468614167724
 11
-952.3707224876619
 21
-1193.468614167724
 72
     1
 10
-952.3707224876619
 20
-1193.468614167724
 11
-952.3707224876619
 21
-1194.777389677929
 97
       10
330
2BD
330
28D
330
28C
330
28F
330
2B8
330
2B9
330
28E
330
2BA
330
2BB
330
2BC
 75
     1
 76
     2
 52
45.0
 41
0.1
 77
     0
 78
     1
 53
45.0
 43
62.7811309658083
 44
-72.3161373035813
 45
-0.1414213562373095
 46
0.0
 79
     0
 98
        1
 10
0.0
 20
0.0
  0
HATCH
  5
38A
330
71
100
AcDbEntity
  8
1
  6
Continuous
 62
     2
100
AcDbHatch
 10
0.0
 20
0.0
 30
0.0
210
0.0
220
0.0
230
1.0
  2
CUSTOM4
 70
     0
 71
     1
 91
        1
 92
        1
 93
       10
 72
     1
 10
-947.1222836672422
 20
-1191.418199201755
 11
-948.3627880774962
 21
-1190.10942369155
 72
     1
 10
-948.3627880774962
 20
-1190.10942369155
 11
-949.5555807796627
 21
-1190.10942369155
 72
     1
 10
-949.5555807796627
 20
-1190.10942369155
 11
-949.5555807796627
 21
-1193.163233215361
 72
     1
 10
-949.5555807796627
 20
-1193.163233215361
 11
-948.3627880774962
 21
-1193.163233215361
 72
     1
 10
-948.3627880774962
 20
-1193.163233215361
 11
-948.3627880774962
 21
-1191.854457705156
 72
     1
 10
-948.3627880774962
 20
-1191.854457705156
 11
-947.1222836672422
 21
-1193.163233215361
 72
     1
 10
-947.1222836672422
 20
-1193.163233215361
 11
-945.9294909650755
 21
-1193.163233215361
 72
     1
 10
-945.9294909650755
 20
-1193.163233215361
 11
-945.9294909650755
 21
-1190.10942369155
 72
     1
 10
-945.9294909650755
 20
-1190.10942369155
 11
-947.1222836672422
 21
-1190.10942369155
 72
     1
 10
-947.1222836672422
 20
-1190.10942369155
 11
-947.1222836672422
 21
-1191.418199201755
 97
       10
330
2C2
330
28A
330
289
330
2C3
330
288
330
2BE
330
2BF
330
2C0
330
2C1
330
28B
 75
     1
 76
     2
 52
45.0
 41
0.1
 77
     0
 78
     1
 53
45.0
 43
62.7811309658083
 44
-72.3161373035813
 45
-0.1414213562373095
 46
0.0
 79
     0
 98
        1
 10
0.0
 20
0.0
  0
HATCH
  5
38B
330
71
100
AcDbEntity
  8
1
  6
Continuous
 62
     2
100
AcDbHatch
 10
0.0
 20
0.0
 30
0.0
210
0.0
220
0.0
230
1.0
  2
CUSTOM5
 70
     0
 71
     1
 91
        1
 92
        1
 93
       10
 72
     1
 10
-947.1222836672422
 20
-1191.418199201755
 11
-948.3627880774962
 21
-1190.10942369155
 72
     1
 10
-948.3627880774962
 20
-1190.10942369155
 11
-949.5555807796627
 21
-1190.10942369155
 72
     1
 10
-949.5555807796627
 20
-1190.10942369155
 11
-949.5555807796627
 21
-1193.163233215361
 72
     1
 10
-949.5555807796627
 20
-1193.163233215361
 11
-948.3627880774962
 21
-1193.163233215361
 72
     1
 10
-948.3627880774962
 20
-1193.163233215361
 11
-948.3627880774962
 21
-1191.854457705156
 72
     1
 10
-948.3627880774962
 20
-1191.854457705156
 11
-947.1222836672422
 21
-1193.163233215361
 72
     1
 10
-947.1222836672422
 20
-1193.163233215361
 11
-945.9294909650755
 21
-1193.163233215361
 72
     1
 10
-945.9294909650755
 20
-1193.163233215361
 11
-945.9294909650755
 21
-1190.10942369155
 72
     1
 10
-945.9294909650755
 20
-1190.10942369155
 11
-947.1222836672422
 21
-1190.10942369155
 72
     1
 10
-947.1222836672422
 20
-1190.10942369155
 11
-947.1222836672422
 21
-1191.418199201755
 97
       10
330
2C2
330
28A
330
289
330
2C3
330
288
330
2BE
330
2BF
330
2C0
330
2C1
330
28B
 75
     1
 76
     2
 52
45.0
 41
0.1
 77
     0
 78
     1
 53
45.0
 43
62.7811309658083
 44
-72.3161373035813
 45
-0.1414213562373095
 46
0.0
 79
     0
 98
        1
 10
0.0
 20
0.0
  0
HATCH
  5
38C
330
71
100
AcDbEntity
  8
1
  6
Continuous
 62
     2
100
AcDbHatch
 10
0.0
 20
0.0
 30
0.0
210
0.0
220
0.0
230
1.0
  2
CUSTOM6
 70
     0
 71
     1
 91
        1
 92
        1
 93
        8
 72
     1
 10
-948.2198038841216
 20
-1193.468614167724
 11
-951.0347946612353
 21
-1193.468614167724
 72
     1
 10
-951.0347946612353
 20
-1193.468614167724
 11
-951.0347946612353
 21
-1194.253879473848
 72
     1
 10
-951.0347946612353
 20
-1194.253879473848
 11
-950.2236956237607
 21
-1194.253879473848
 72
     1
 10
-950.2236956237607
 20
-1194.253879473848
 11
-950.2236956237607
 21
-1196.522423691535
 72
     1
 10
-950.2236956237607
 20
-1196.522423691535
 11
-949.0309029215942
 21
-1196.522423691535
 72
     1
 10
-949.0309029215942
 20
-1196.522423691535
 11
-949.0309029215942
 21
-1194.253879473848
 72
     1
 10
-949.0309029215942
 20
-1194.253879473848
 11
-948.2198038841216
 21
-1194.253879473848
 72
     1
 10
-948.2198038841216
 20
-1194.253879473848
 11
-948.2198038841216
 21
-1193.468614167724
 97
        8
330
284
330
2C4
330
283
330
2C5
330
2C6
330
287
330
286
330
285
 75
     1
 76
     2
 52
45.0
 41
0.1
 77
     0
 78
     1
 53
45.0
 43
62.7811309658083
 44
-72.3161373035813
 45
-0.1414213562373095
 46
0.0
 79
     0
 98
        1
 10
0.0
 20
0.0
  0
HATCH
  5
38D
330
71
100
AcDbEntity
  8
1
  6
Continuous
 62
     2
100
AcDbHatch
 10
0.0
 20
0.0
 30
0.0
210
0.0
220
0.0
230
1.0
  2
CUSTOM7
 70
     0
 71
     1
 91
        1
 92
        1
 93
        8
 72
     1
 10
-948.2198038841216
 20
-1193.468614167724
 11
-951.0347946612353
 21
-1193.468614167724
 72
     1
 10
-951.0347946612353
 20
-1193.468614167724
 11
-951.0347946612353
 21
-1194.253879473848
 72
     1
 10
-951.0347946612353
 20
-1194.253879473848
 11
-950.2236956237607
 21
-1194.253879473848
 72
     1
 10
-950.2236956237607
 20
-1194.253879473848
 11
-950.2236956237607
 21
-1196.522423691535
 72
     1
 10
-950.2236956237607
 20
-1196.522423691535
 11
-949.0309029215942
 21
-1196.522423691535
 72
     1
 10
-949.0309029215942
 20
-1196.522423691535
 11
-949.0309029215942
 21
-1194.253879473848
 72
     1
 10
-949.0309029215942
 20
-1194.253879473848
 11
-948.2198038841216
 21
-1194.253879473848
 72
     1
 10
-948.2198038841216
 20
-1194.253879473848
 11
-948.2198038841216
 21
-1193.468614167724
 97
        8
330
284
330
2C4
330
283
330
2C5
330
2C6
330
287
330
286
330
285
 75
     1
 76
     2
 52
45.0
 41
0.1
 77
     0
 78
     1
 53
45.0
 43
62.7811309658083
 44
-72.3161373035813
 45
-0.1414213562373095
 46
0.0
 79
     0
 98
        1
 10
0.0
 20
0.0
  0
HATCH
  5
38E
330
71
100
AcDbEntity
  8
1
  6
Continuous
 62
     2
100
AcDbHatch
 10
0.0
 20
0.0
 30
0.0
210
0.0
220
0.0
230
1.0
  2
CUSTOM8
 70
     0
 71
     1
 91
        2
 92
        1
 93
        8
 72
     1
 10
-946.0813764281746
 20
-1196.522423691535
 11
-946.2928564816505
 21
-1195.981463147317
 72
     1
 10
-946.2928564816505
 20
-1195.981463147317
 11
-947.4252980583244
 21
-1195.981463147317
 72
     1
 10
-947.4252980583244
 20
-1195.981463147317
 11
-947.6367781118001
 21
-1196.522423691535
 72
     1
 10
-947.6367781118001
 20
-1196.522423691535
 11
-948.8772825220531
 21
-1196.522423691535
 72
     1
 10
-948.8772825220531
 20
-1196.522423691535
 11
-947.4793294751139
 21
-1193.468614167724
 72
     1
 10
-947.4793294751139
 20
-1193.468614167724
 11
-946.238825064861
 21
-1193.468614167724
 72
     1
 10
-946.238825064861
 20
-1193.468614167724
 11
-944.8408720179208
 21
-1196.522423691535
 72
     1
 10
-944.8408720179208
 20
-1196.522423691535
 11
-946.0813764281746
 21
-1196.522423691535
 97
        8
330
2C8
330
2C9
330
280
330
2CA
330
27F
330
282
330
2C7
330
281
 92
       16
 93
        3
 72
     1
 10
-947.1592425071792
 20
-1195.300899882011
 11
-946.859077269987
 21
-1194.533084916024
 72
     1
 10
-946.859077269987
 20
-1194.533084916024
 11
-946.5589120327968
 21
-1195.300899882011
 72
     1
 10
-946.5589120327968
 20
-1195.300899882011
 11
-947.1592425071792
 21
-1195.300899882011
 97
        3
330
27E
330
2CC
330
2CB
 75
     1
 76
     2
 52
45.0
 41
0.1
 77
     0
 78
     1
 53
45.0
 43
62.7811309658083
 44
-72.3161373035813
 45
-0.1414213562373095
 46
0.0
 79
     0
 98
        1
 10
0.0
 20
0.0
  0
HATCH
  5
38F
330
71
100
AcDbEntity
  8
1
  6
Continuous
 62
     2
100
AcDbHatch
 10
0.0
 20
0.0
 30
0.0
210
0.0
220
0.0
230
1.0
  2
CUSTOM9
 70
     0
 71
     1
 91
        2
 92
        1
 93
        8
 72
     1
 10
-946.0813764281746
 20
-1196.522423691535
 11
-946.2928564816505
 21
-1195.981463147317
 72
     1
 10
-946.2928564816505
 20
-1195.981463147317
 11
-947.4252980583244
 21
-1195.981463147317
 72
     1
 10
-947.4252980583244
 20
-1195.981463147317
 11
-947.6367781118001
 21
-1196.522423691535
 72
     1
 10
-947.6367781118001
 20
-1196.522423691535
 11
-948.8772825220531
 21
-1196.522423691535
 72
     1
 10
-948.8772825220531
 20
-1196.522423691535
 11
-947.4793294751139
 21
-1193.468614167724
 72
     1
 10
-947.4793294751139
 20
-1193.468614167724
 11
-946.238825064861
 21
-1193.468614167724
 72
     1
 10
-946.238825064861
 20
-1193.468614167724
 11
-944.8408720179208
 21
-1196.522423691535
 72
     1
 10
-944.8408720179208
 20
-1196.522423691535
 11
-946.0813764281746
 21
-1196.522423691535
 97
        8
330
2C8
330
2C9
330
280
330
2CA
330
27F
330
282
330
2C7
330
281
 92
       16
 93
        3
 72
     1
 10
-947.1592425071792
 20
-1195.300899882011
 11
-946.859077269987
 21
-1194.533084916024
 72
     1
 10
-946.859077269987
 20
-1194.533084916024
 11
-946.5589120327968
 21
-1195.300899882011
 72
     1
 10
-946.5589120327968
 20
-1195.300899882011
 11
-947.1592425071792
 21
-1195.300899882011
 97
        3
330
27E
330
2CC
330
2CB
 75
     1
 76
     2
 52
45.0
 41
0.1
 77
     0
 78
     1
 53
45.0
 43
62.7811309658083
 44
-72.3161373035813
 45
-0.1414213562373095
 46
0.0
 79
     0
 98
        1
 10
0.0
 20
0.0
  0
HATCH
  5
390
330
71
100
AcDbEntity
  8
1
  6
Continuous
 62
     2
100
AcDbHatch
 10
0.0
 20
0.0
 30
0.0
210
0.0
220
0.0
230
1.0
  2
CUSTOM10
 70
     0
 71
     1
 91
        1
 92
        1
 93
        4
 72
     1
 10
-944.4504280143888
 20
-1193.163233215361
 11
-945.6909324246417
 21
-1193.163233215361
 72
     1
 10
-945.6909324246417
 20
-1193.163233215361
 11
-945.6909324246417
 21
-1190.10942369155
 72
     1
 10
-945.6909324246417
 20
-1190.10942369155
 11
-944.4504280143888
 21
-1190.10942369155
 72
     1
 10
-944.4504280143888
 20
-1190.10942369155
 11
-944.4504280143888
 21
-1193.163233215361
 97
        4
330
27B
330
27D
330
2CD
330
27C
 75
     1
 76
     2
 52
45.0
 41
0.1
 77
     0
 78
     1
 53
45.0
 43
62.7811309658083
 44
-72.3161373035813
 45
-0.1414213562373095
 46
0.0
 79
     0
 98
        1
 10
0.0
 20
0.0
  0
HATCH
  5
391
330
71
100
AcDbEntity
  8
1
  6
Continuous
 62
     2
100
AcDbHatch
 10
0.0
 20
0.0
 30
0.0
210
0.0
220
0.0
230
1.0
  2
CUSTOM11
 70
     0
 71
     1
 91
        1
 92
        1
 93
        4
 72
     1
 10
-944.4504280143888
 20
-1193.163233215361
 11
-945.6909324246417
 21
-1193.163233215361
 72
     1
 10
-945.6909324246417
 20
-1193.163233215361
 11
-945.6909324246417
 21
-1190.10942369155
 72
     1
 10
-945.6909324246417
 20
-1190.10942369155
 11
-944.4504280143888
 21
-1190.10942369155
 72
     1
 10
-944.4504280143888
 20
-1190.10942369155
 11
-944.4504280143888
 21
-1193.163233215361
 97
        4
330
27B
330
27D
330
2CD
330
27C
 75
     1
 76
     2
 52
45.0
 41
0.1
 77
     0
 78
     1
 53
45.0
 43
62.7811309658083
 44
-72.3161373035813
 45
-0.1414213562373095
 46
0.0
 79
     0
 98
        1
 10
0.0
 20
0.0
  0
HATCH
  5
392
330
71
100
AcDbEntity
  8
1
  6
Continuous
 62
     2
100
AcDbHatch
 10
0.0
 20
0.0
 30
0.0
210
0.0
220
0.0
230
1.0
  2
CUSTOM12
 70
     0
 71
     1
 91
        1
 92
        1
 93
       12
 72
     1
 10
-940.2279418487179
 20
-1190.10942369155
 11
-941.5304714794845
 21
-1191.582374221586
 72
     1
 10
-941.5304714794845
 20
-1191.582374221586
 11
-940.1325184325442
 21
-1193.163233215361
 72
     1
 10
-940.1325184325442
 20
-1193.163233215361
 11
-941.5352426502925
 21
-1193.163233215361
 72
     1
 10
-941.5352426502925
 20
-1193.163233215361
 11
-942.231833588358
 21
-1192.375501430067
 72
     1
 10
-942.231833588358
 20
-1192.375501430067
 11
-942.9284245264238
 21
-1193.163233215361
 72
     1
 10
-942.9284245264238
 20
-1193.163233215361
 11
-944.3311487441719
 21
-1193.163233215361
 72
     1
 10
-944.3311487441719
 20
-1193.163233215361
 11
-942.9331956972316
 21
-1191.582374221586
 72
     1
 10
-942.9331956972316
 20
-1191.582374221586
 11
-944.235725327999
 21
-1190.10942369155
 72
     1
 10
-944.235725327999
 20
-1190.10942369155
 11
-942.8330011102498
 21
-1190.10942369155
 72
     1
 10
-942.8330011102498
 20
-1190.10942369155
 11
-942.231833588358
 21
-1190.789247013105
 72
     1
 10
-942.231833588358
 20
-1190.789247013105
 11
-941.6306660664652
 21
-1190.10942369155
 72
     1
 10
-941.6306660664652
 20
-1190.10942369155
 11
-940.2279418487179
 21
-1190.10942369155
 97
       12
330
276
330
275
330
274
330
2D1
330
2D2
330
2CE
330
2CF
330
27A
330
279
330
278
330
277
330
2D0
 75
     1
 76
     2
 52
45.0
 41
0.1
 77
     0
 78
     1
 53
45.0
 43
62.7811309658083
 44
-72.3161373035813
 45
-0.1414213562373095
 46
0.0
 79
     0
 98
        1
 10
0.0
 20
0.0
  0
HATCH
  5
393
330
71
100
AcDbEntity
  8
1
  6
Continuous
 62
     2
100
AcDbHatch
 10
0.0
 20
0.0
 30
0.0
210
0.0
220
0.0
230
1.0
  2
CUSTOM13
 70
     0
 71
     1
 91
        1
 92
        1
 93
       12
 72
     1
 10
-940.2279418487179
 20
-1190.10942369155
 11
-941.5304714794845
 21
-1191.582374221586
 72
     1
 10
-941.5304714794845
 20
-1191.582374221586
 11
-940.1325184325442
 21
-1193.163233215361
 72
     1
 10
-940.1325184325442
 20
-1193.163233215361
 11
-941.5352426502925
 21
-1193.163233215361
 72
     1
 10
-941.5352426502925
 20
-1193.163233215361
 11
-942.231833588358
 21
-1192.375501430067
 72
     1
 10
-942.231833588358
 20
-1192.375501430067
 11
-942.9284245264238
 21
-1193.163233215361
 72
     1
 10
-942.9284245264238
 20
-1193.163233215361
 11
-944.3311487441719
 21
-1193.163233215361
 72
     1
 10
-944.3311487441719
 20
-1193.163233215361
 11
-942.9331956972316
 21
-1191.582374221586
 72
     1
 10
-942.9331956972316
 20
-1191.582374221586
 11
-944.235725327999
 21
-1190.10942369155
 72
     1
 10
-944.235725327999
 20
-1190.10942369155
 11
-942.8330011102498
 21
-1190.10942369155
 72
     1
 10
-942.8330011102498
 20
-1190.10942369155
 11
-942.231833588358
 21
-1190.789247013105
 72
     1
 10
-942.231833588358
 20
-1190.789247013105
 11
-941.6306660664652
 21
-1190.10942369155
 72
     1
 10
-941.6306660664652
 20
-1190.10942369155
 11
-940.2279418487179
 21
-1190.10942369155
 97
       12
330
276
330
275
330
274
330
2D1
330
2D2
330
2CE
330
2CF
330
27A
330
279
330
278
330
277
330
2D0
 75
     1
 76
     2
 52
45.0
 41
0.1
 77
     0
 78
     1
 53
45.0
 43
62.7811309658083
 44
-72.3161373035813
 45
-0.1414213562373095
 46
0.0
 79
     0
 98
        1
 10
0.0
 20
0.0
  0
HATCH
  5
394
330
71
100
AcDbEntity
  8
1
  6
Continuous
 62
     2
100
AcDbHatch
 10
0.0
 20
0.0
 30
0.0
210
0.0
220
0.0
230
1.0
  2
CUSTOM14
 70
     0
 71
     1
 91
        2
 92
        1
 93
        6
 72
     1
 10
-959.245677262864
 20
-1192.220154974217
 11
-960.0044448506444
 21
-1192.220154974217
 72
     1
 10
-960.0044448506444
 20
-1192.220154974217
 11
-960.0044448506444
 21
-1193.163233215361
 72
     1
 10
-960.0044448506444
 20
-1193.163233215361
 11
-961.2449492608984
 21
-1193.163233215361
 72
     1
 10
-961.2449492608984
 20
-1193.163233215361
 11
-961.2449492608984
 21
-1190.10942369155
 72
     1
 10
-961.2449492608984
 20
-1190.10942369155
 11
-959.245677262864
 21
-1190.10942369155
 72
     2
 10
-959.245677262864
 20
-1191.164789332883
 40
1.055365641333992
 50
270.0
 51
450.0
 73
     0
 97
        6
330
29E
330
29D
330
2AA
330
2A9
330
29F
330
330
 92
       16
 93
        4
 72
     2
 10
-959.6871497891024
 20
-1191.125393361661
 40
0.3528638246709761
 50
270.0
 51
450.0
 73
     1
 72
     1
 10
-959.6871497891024
 20
-1190.77252953699
 11
-960.0044448506444
 21
-1190.77252953699
 72
     1
 10
-960.0044448506444
 20
-1190.77252953699
 11
-960.0044448506444
 21
-1191.478257186332
 72
     1
 10
-960.0044448506444
 20
-1191.478257186332
 11
-959.6871497891024
 21
-1191.478257186332
 97
        4
330
344
330
29B
330
2AB
330
29C
 75
     1
 76
     2
 52
45.0
 41
0.1
 77
     0
 78
     1
 53
45.0
 43
62.7811309658083
 44
-72.3161373035813
 45
-0.1414213562373095
 46
0.0
 79
     0
 98
        1
 10
0.0
 20
0.0
  0
HATCH
  5
395
330
71
100
AcDbEntity
  8
1
  6
Continuous
 62
     2
100
AcDbHatch
 10
0.0
 20
0.0
 30
0.0
210
0.0
220
0.0
230
1.0
  2
CUSTOM15
 70
     0
 71
     1
 91
        2
 92
        1
 93
        6
 72
     1
 10
-959.245677262864
 20
-1192.220154974217
 11
-960.0044448506444
 21
-1192.220154974217
 72
     1
 10
-960.0044448506444
 20
-1192.220154974217
 11
-960.0044448506444
 21
-1193.163233215361
 72
     1
 10
-960.0044448506444
 20
-1193.163233215361
 11
-961.2449492608984
 21
-1193.163233215361
 72
     1
 10
-961.2449492608984
 20
-1193.163233215361
 11
-961.2449492608984
 21
-1190.10942369155
 72
     1
 10
-961.2449492608984
 20
-1190.10942369155
 11
-959.245677262864
 21
-1190.10942369155
 72
     2
 10
-959.245677262864
 20
-1191.164789332883
 40
1.055365641333992
 50
270.0
 51
450.0
 73
     0
 97
        6
330
29E
330
29D
330
2AA
330
2A9
330
29F
330
330
 92
       16
 93
        4
 72
     2
 10
-959.6871497891024
 20
-1191.125393361661
 40
0.3528638246709761
 50
270.0
 51
450.0
 73
     1
 72
     1
 10
-959.6871497891024
 20
-1190.77252953699
 11
-960.0044448506444
 21
-1190.77252953699
 72
     1
 10
-960.0044448506444
 20
-1190.77252953699
 11
-960.0044448506444
 21
-1191.478257186332
 72
     1
 10
-960.0044448506444
 20
-1191.478257186332
 11
-959.6871497891024
 21
-1191.478257186332
 97
        4
330
344
330
29B
330
2AB
330
29C
 75
     1
 76
     2
 52
45.0
 41
0.1
 77
     0
 78
     1
 53
45.0
 43
62.7811309658083
 44
-72.3161373035813
 45
-0.1414213562373095
 46
0.0
 79
     0
 98
        1
 10
0.0
 20
0.0
  0
HATCH
  5
396
330
71
100
AcDbEntity
  8
1
  6
Continuous
 62
     2
100
AcDbHatch
 10
0.0
 20
0.0
 30
0.0
210
0.0
220
0.0
230
1.0
  2
CUSTOM16
 70
     0
 71
     1
 91
        2
 92
        1
 93
        4
 72
     2
 10
-956.6891345145049
 20
-1195.534093939933
 40
2.065479772209248
 50
62.45185182431621
 51
117.5481481756586
 73
     1
 72
     2
 10
-956.9700744063382
 20
-1194.99551892963
 40
1.458034083651995
 50
117.5481481756546
 51
242.4518518243289
 73
     1
 72
     2
 10
-956.6891345145049
 20
-1194.456943919327
 40
2.065479772207969
 50
242.4518518243297
 51
297.5481481756955
 73
     1
 72
     2
 10
-956.4081946226717
 20
-1194.99551892963
 40
1.458034083651714
 50
297.5481481757107
 51
422.4518518243058
 73
     1
 97
        4
330
33C
330
33B
330
33D
330
33A
 92
       16
 93
        4
 72
     2
 10
-956.8888745508513
 20
-1194.99551892963
 40
0.7717997786795957
 50
321.8795802028306
 51
398.1204197971695
 73
     1
 72
     2
 10
-956.6891345145049
 20
-1194.838787751509
 40
0.5179085730130126
 50
38.120419797132
 51
141.8795802028913
 73
     1
 72
     2
 10
-956.4893944781588
 20
-1194.99551892963
 40
0.7717997786795957
 50
141.8795802028306
 51
218.1204197971694
 73
     1
 72
     2
 10
-956.6891345145049
 20
-1195.15225010775
 40
0.5179085730138424
 50
218.1204197971879
 51
321.8795802027889
 73
     1
 97
        4
330
358
330
355
330
356
330
357
 75
     1
 76
     2
 52
45.0
 41
0.1
 77
     0
 78
     1
 53
45.0
 43
62.7811309658083
 44
-72.3161373035813
 45
-0.1414213562373095
 46
0.0
 79
     0
 98
        1
 10
0.0
 20
0.0
  0
HATCH
  5
397
330
71
100
AcDbEntity
  8
1
  6
Continuous
 62
     2
100
AcDbHatch
 10
0.0
 20
0.0
 30
0.0
210
0.0
220
0.0
230
1.0
  2
CUSTOM17
 70
     0
 71
     1
 91
        2
 92
        1
 93
        4
 72
     2
 10
-956.6891345145049
 20
-1195.534093939933
 40
2.065479772209248
 50
62.45185182431621
 51
117.5481481756586
 73
     1
 72
     2
 10
-956.9700744063382
 20
-1194.99551892963
 40
1.458034083651995
 50
117.5481481756546
 51
242.4518518243289
 73
     1
 72
     2
 10
-956.6891345145049
 20
-1194.456943919327
 40
2.065479772207969
 50
242.4518518243297
 51
297.5481481756955
 73
     1
 72
     2
 10
-956.4081946226717
 20
-1194.99551892963
 40
1.458034083651714
 50
297.5481481757107
 51
422.4518518243058
 73
     1
 97
        4
330
33C
330
33B
330
33D
330
33A
 92
       16
 93
        4
 72
     2
 10
-956.8888745508513
 20
-1194.99551892963
 40
0.7717997786795957
 50
321.8795802028306
 51
398.1204197971695
 73
     1
 72
     2
 10
-956.6891345145049
 20
-1194.838787751509
 40
0.5179085730130126
 50
38.120419797132
 51
141.8795802028913
 73
     1
 72
     2
 10
-956.4893944781588
 20
-1194.99551892963
 40
0.7717997786795957
 50
141.8795802028306
 51
218.1204197971694
 73
     1
 72
     2
 10
-956.6891345145049
 20
-1195.15225010775
 40
0.5179085730138424
 50
218.1204197971879
 51
321.8795802027889
 73
     1
 97
        4
330
358
330
355
330
356
330
357
 75
     1
 76
     2
 52
45.0
 41
0.1
 77
     0
 78
     1
 53
45.0
 43
62.7811309658083
 44
-72.3161373035813
 45
-0.1414213562373095
 46
0.0
 79
     0
 98
        1
 10
0.0
 20
0.0
  0
HATCH
  5
398
330
71
100
AcDbEntity
  8
1
  6
Continuous
 62
     2
100
AcDbHatch
 10
0.0
 20
0.0
 30
0.0
210
0.0
220
0.0
230
1.0
  2
CUSTOM18
 70
     0
 71
     1
 91
        2
 92
        1
 93
       12
 72
     1
 10
-949.7941393200956
 20
-1190.807437296993
 11
-951.1300671465233
 21
-1190.807437296993
 72
     1
 10
-951.1300671465233
 20
-1190.807437296993
 11
-951.1300671465233
 21
-1191.287321650734
 72
     1
 10
-951.1300671465233
 20
-1191.287321650734
 11
-949.7941393200956
 21
-1191.287321650734
 72
     1
 10
-949.7941393200956
 20
-1191.287321650734
 11
-949.7941393200956
 21
-1191.985335256177
 72
     1
 10
-949.7941393200956
 20
-1191.985335256177
 11
-951.1300671465233
 21
-1191.985335256177
 72
     1
 10
-951.1300671465233
 20
-1191.985335256177
 11
-951.1300671465233
 21
-1192.465219609918
 72
     1
 10
-951.1300671465233
 20
-1192.465219609918
 11
-949.7941393200956
 21
-1192.465219609918
 72
     1
 10
-949.7941393200956
 20
-1192.465219609918
 11
-949.7941393200956
 21
-1193.163233215361
 72
     1
 10
-949.7941393200956
 20
-1193.163233215361
 11
-952.9444590438766
 21
-1193.163233215361
 72
     2
 10
-952.9444590438766
 20
-1191.636328453456
 40
1.526904761905826
 50
90.0
 51
270.0
 73
     0
 72
     1
 10
-952.9444590438766
 20
-1190.10942369155
 11
-949.7941393200956
 21
-1190.10942369155
 72
     1
 10
-949.7941393200956
 20
-1190.10942369155
 11
-949.7941393200956
 21
-1190.807437296993
 97
       12
330
2B2
330
345
330
2B3
330
2B4
330
2B5
330
2B6
330
293
330
292
330
291
330
290
330
2B7
330
2B1
 92
       16
 93
        4
 72
     2
 10
-952.7281870337114
 20
-1191.479597275335
 40
0.5179085730137529
 50
38.12041979719563
 51
141.8795802028121
 73
     1
 72
     2
 10
-952.5284469973651
 20
-1191.636328453456
 40
0.771799778680336
 50
141.8795802027879
 51
218.1204197971059
 73
     1
 72
     2
 10
-952.7281870337114
 20
-1191.793059631576
 40
0.517908573013281
 50
218.1204197971087
 51
321.8795802028835
 73
     1
 72
     2
 10
-952.9279270700575
 20
-1191.636328453456
 40
0.7717997786790343
 50
321.8795802028837
 51
398.1204197972225
 73
     1
 97
        4
330
33F
330
33E
330
339
330
338
 75
     1
 76
     2
 52
45.0
 41
0.1
 77
     0
 78
     1
 53
45.0
 43
62.7811309658083
 44
-72.3161373035813
 45
-0.1414213562373095
 46
0.0
 79
     0
 98
        1
 10
0.0
 20
0.0
  0
HATCH
  5
399
330
71
100
AcDbEntity
  8
1
  6
Continuous
 62
     2
100
AcDbHatch
 10
0.0
 20
0.0
 30
0.0
210
0.0
220
0.0
230
1.0
  2
CUSTOM19
 70
     0
 71
     1
 91
        2
 92
        1
 93
       12
 72
     1
 10
-949.7941393200956
 20
-1190.807437296993
 11
-951.1300671465233
 21
-1190.807437296993
 72
     1
 10
-951.1300671465233
 20
-1190.807437296993
 11
-951.1300671465233
 21
-1191.287321650734
 72
     1
 10
-951.1300671465233
 20
-1191.287321650734
 11
-949.7941393200956
 21
-1191.287321650734
 72
     1
 10
-949.7941393200956
 20
-1191.287321650734
 11
-949.7941393200956
 21
-1191.985335256177
 72
     1
 10
-949.7941393200956
 20
-1191.985335256177
 11
-951.1300671465233
 21
-1191.985335256177
 72
     1
 10
-951.1300671465233
 20
-1191.985335256177
 11
-951.1300671465233
 21
-1192.465219609918
 72
     1
 10
-951.1300671465233
 20
-1192.465219609918
 11
-949.7941393200956
 21
-1192.465219609918
 72
     1
 10
-949.7941393200956
 20
-1192.465219609918
 11
-949.7941393200956
 21
-1193.163233215361
 72
     1
 10
-949.7941393200956
 20
-1193.163233215361
 11
-952.9444590438766
 21
-1193.163233215361
 72
     2
 10
-952.9444590438766
 20
-1191.636328453456
 40
1.526904761905826
 50
90.0
 51
270.0
 73
     0
 72
     1
 10
-952.9444590438766
 20
-1190.10942369155
 11
-949.7941393200956
 21
-1190.10942369155
 72
     1
 10
-949.7941393200956
 20
-1190.10942369155
 11
-949.7941393200956
 21
-1190.807437296993
 97
       12
330
2B2
330
345
330
2B3
330
2B4
330
2B5
330
2B6
330
293
330
292
330
291
330
290
330
2B7
330
2B1
 92
       16
 93
        4
 72
     2
 10
-952.7281870337114
 20
-1191.479597275335
 40
0.5179085730137529
 50
38.12041979719563
 51
141.8795802028121
 73
     1
 72
     2
 10
-952.5284469973651
 20
-1191.636328453456
 40
0.771799778680336
 50
141.8795802027879
 51
218.1204197971059
 73
     1
 72
     2
 10
-952.7281870337114
 20
-1191.793059631576
 40
0.517908573013281
 50
218.1204197971087
 51
321.8795802028835
 73
     1
 72
     2
 10
-952.9279270700575
 20
-1191.636328453456
 40
0.7717997786790343
 50
321.8795802028837
 51
398.1204197972225
 73
     1
 97
        4
330
33F
330
33E
330
339
330
338
 75
     1
 76
     2
 52
45.0
 41
0.1
 77
     0
 78
     1
 53
45.0
 43
62.7811309658083
 44
-72.3161373035813
 45
-0.1414213562373095
 46
0.0
 79
     0
 98
        1
 10
0.0
 20
0.0
  0
HATCH
  5
39A
330
71
100
AcDbEntity
  8
1
  6
Continuous
 62
     2
100
AcDbHatch
 10
0.0
 20
0.0
 30
0.0
210
0.0
220
0.0
230
1.0
  2
CUSTOM20
 70
     0
 71
     1
 91
        4
 92
        1
 93
        8
 72
     1
 10
-961.7220663417652
 20
-1190.533668306952
 11
-961.7220663417652
 21
-1196.098179076152
 72
     2
 10
-962.146310957149
 20
-1196.098179076152
 40
0.4242446153830315
 50
0.0
 51
90.0
 73
     0
 72
     1
 10
-962.146310957149
 20
-1196.522423691535
 11
-967.619623047866
 21
-1196.522423691535
 72
     2
 10
-967.619623047866
 20
-1196.098179076152
 40
0.4242446153828041
 50
90.0
 51
180.0
 73
     0
 72
     1
 10
-968.0438676632488
 20
-1196.098179076152
 11
-968.0438676632488
 21
-1190.533668306952
 72
     2
 10
-967.619623047866
 20
-1190.533668306952
 40
0.424244615383941
 50
180.0
 51
270.0
 73
     0
 72
     1
 10
-967.619623047866
 20
-1190.109423691568
 11
-962.146310957149
 21
-1190.109423691568
 72
     2
 10
-962.146310957149
 20
-1190.533668306952
 40
0.4242446153838273
 50
270.0
 51
360.0
 73
     0
 97
        8
330
2A6
330
335
330
2A7
330
340
330
2A4
330
337
330
2A5
330
336
 92
       16
 93
       12
 72
     2
 10
-967.0257283711194
 20
-1195.494151212901
 40
0.3157169230756836
 50
180.0
 51
270.0
 73
     1
 72
     1
 10
-967.0257283711194
 20
-1195.809868135978
 11
-965.5498951101099
 21
-1195.809868135978
 72
     2
 10
-965.5498951101099
 20
-1195.494151212901
 40
0.3157169230769341
 50
270.0
 51
360.0
 73
     1
 72
     1
 10
-965.2341781870332
 20
-1195.494151212901
 11
-965.2341781870332
 21
-1193.96338028137
 72
     2
 10
-965.5498951101099
 20
-1193.96338028137
 40
0.3157169230767067
 50
0.0
 51
64.80558935147235
 73
     1
 72
     2
 10
-965.0273106625349
 20
-1192.852550535307
 40
0.9118975235571412
 50
115.194410648512
 51
244.8055893514637
 73
     0
 72
     2
 10
-965.5498951101099
 20
-1191.741720789245
 40
0.3157169230765287
 50
295.1944106485277
 51
360.0
 73
     1
 72
     1
 10
-965.2341781870332
 20
-1191.741720789245
 11
-965.2341781870332
 21
-1191.137696170184
 72
     2
 10
-965.5498951101099
 20
-1191.137696170184
 40
0.3157169230767067
 50
0.0
 51
90.0
 73
     1
 72
     1
 10
-965.5498951101099
 20
-1190.821979247108
 11
-967.0257283711194
 21
-1190.821979247108
 72
     2
 10
-967.0257283711194
 20
-1191.137696170184
 40
0.3157169230760246
 50
90.0
 51
180.0
 73
     1
 72
     1
 10
-967.3414452941951
 20
-1191.137696170184
 11
-967.3414452941951
 21
-1195.494151212901
 97
       12
330
331
330
2A8
330
334
330
2A3
330
341
330
342
330
333
330
2A2
330
332
330
2A1
330
343
330
2A0
 92
       16
 93
        8
 72
     2
 10
-964.4501796845876
 20
-1193.961692135275
 40
0.31571692307598
 50
115.3740086784051
 51
180.0
 73
     1
 72
     1
 10
-964.7658966076644
 20
-1193.961692135275
 11
-964.7658966076644
 21
-1194.54354354197
 72
     2
 10
-964.4501796845876
 20
-1194.54354354197
 40
0.3157169230768204
 50
180.0
 51
269.8110329574187
 73
     1
 72
     2
 10
-964.4445635492776
 20
-1192.840708594401
 40
2.018561131934289
 50
269.8110329575811
 51
450.188967042419
 73
     1
 72
     2
 10
-964.4501796845876
 20
-1191.137873646833
 40
0.3157169230771517
 50
90.18896704258138
 51
180.0
 73
     1
 72
     1
 10
-964.7658966076644
 20
-1191.137873646833
 11
-964.7658966076644
 21
-1191.743408935339
 72
     2
 10
-964.4501796845876
 20
-1191.743408935339
 40
0.3157169230768204
 50
180.0
 51
244.6259913216833
 73
     1
 72
     2
 10
-964.9762223826756
 20
-1192.852550535307
 40
0.9118481501445603
 50
295.3740086782019
 51
424.6259913218226
 73
     0
 97
        8
330
34D
330
26D
330
34A
330
34B
330
329
330
26C
330
34C
330
328
 92
       16
 93
        1
 72
     2
 10
-965.0000373973484
 20
-1192.852550535307
 40
0.4709789327785074
 50
0.0
 51
360.0
 73
     1
 97
        1
330
35B
 75
     1
 76
     2
 52
45.0
 41
0.1
 77
     0
 78
     1
 53
45.0
 43
62.7811309658083
 44
-72.3161373035813
 45
-0.1414213562373095
 46
0.0
 79
     0
 98
        1
 10
0.0
 20
0.0
  0
HATCH
  5
39B
330
71
100
AcDbEntity
  8
1
  6
Continuous
 62
     2
100
AcDbHatch
 10
0.0
 20
0.0
 30
0.0
210
0.0
220
0.0
230
1.0
  2
CUSTOM21
 70
     0
 71
     1
 91
        4
 92
        1
 93
        8
 72
     1
 10
-961.7220663417652
 20
-1190.533668306952
 11
-961.7220663417652
 21
-1196.098179076152
 72
     2
 10
-962.146310957149
 20
-1196.098179076152
 40
0.4242446153830315
 50
0.0
 51
90.0
 73
     0
 72
     1
 10
-962.146310957149
 20
-1196.522423691535
 11
-967.619623047866
 21
-1196.522423691535
 72
     2
 10
-967.619623047866
 20
-1196.098179076152
 40
0.4242446153828041
 50
90.0
 51
180.0
 73
     0
 72
     1
 10
-968.0438676632488
 20
-1196.098179076152
 11
-968.0438676632488
 21
-1190.533668306952
 72
     2
 10
-967.619623047866
 20
-1190.533668306952
 40
0.424244615383941
 50
180.0
 51
270.0
 73
     0
 72
     1
 10
-967.619623047866
 20
-1190.109423691568
 11
-962.146310957149
 21
-1190.109423691568
 72
     2
 10
-962.146310957149
 20
-1190.533668306952
 40
0.4242446153838273
 50
270.0
 51
360.0
 73
     0
 97
        8
330
2A6
330
335
330
2A7
330
340
330
2A4
330
337
330
2A5
330
336
 92
       16
 93
       12
 72
     2
 10
-967.0257283711194
 20
-1195.494151212901
 40
0.3157169230756836
 50
180.0
 51
270.0
 73
     1
 72
     1
 10
-967.0257283711194
 20
-1195.809868135978
 11
-965.5498951101099
 21
-1195.809868135978
 72
     2
 10
-965.5498951101099
 20
-1195.494151212901
 40
0.3157169230769341
 50
270.0
 51
360.0
 73
     1
 72
     1
 10
-965.2341781870332
 20
-1195.494151212901
 11
-965.2341781870332
 21
-1193.96338028137
 72
     2
 10
-965.5498951101099
 20
-1193.96338028137
 40
0.3157169230767067
 50
0.0
 51
64.80558935147235
 73
     1
 72
     2
 10
-965.0273106625349
 20
-1192.852550535307
 40
0.9118975235571412
 50
115.194410648512
 51
244.8055893514637
 73
     0
 72
     2
 10
-965.5498951101099
 20
-1191.741720789245
 40
0.3157169230765287
 50
295.1944106485277
 51
360.0
 73
     1
 72
     1
 10
-965.2341781870332
 20
-1191.741720789245
 11
-965.2341781870332
 21
-1191.137696170184
 72
     2
 10
-965.5498951101099
 20
-1191.137696170184
 40
0.3157169230767067
 50
0.0
 51
90.0
 73
     1
 72
     1
 10
-965.5498951101099
 20
-1190.821979247108
 11
-967.0257283711194
 21
-1190.821979247108
 72
     2
 10
-967.0257283711194
 20
-1191.137696170184
 40
0.3157169230760246
 50
90.0
 51
180.0
 73
     1
 72
     1
 10
-967.3414452941951
 20
-1191.137696170184
 11
-967.3414452941951
 21
-1195.494151212901
 97
       12
330
331
330
2A8
330
334
330
2A3
330
341
330
342
330
333
330
2A2
330
332
330
2A1
330
343
330
2A0
 92
       16
 93
        8
 72
     2
 10
-964.4501796845876
 20
-1193.961692135275
 40
0.31571692307598
 50
115.3740086784051
 51
180.0
 73
     1
 72
     1
 10
-964.7658966076644
 20
-1193.961692135275
 11
-964.7658966076644
 21
-1194.54354354197
 72
     2
 10
-964.4501796845876
 20
-1194.54354354197
 40
0.3157169230768204
 50
180.0
 51
269.8110329574187
 73
     1
 72
     2
 10
-964.4445635492776
 20
-1192.840708594401
 40
2.018561131934289
 50
269.8110329575811
 51
450.188967042419
 73
     1
 72
     2
 10
-964.4501796845876
 20
-1191.137873646833
 40
0.3157169230771517
 50
90.18896704258138
 51
180.0
 73
     1
 72
     1
 10
-964.7658966076644
 20
-1191.137873646833
 11
-964.7658966076644
 21
-1191.743408935339
 72
     2
 10
-964.4501796845876
 20
-1191.743408935339
 40
0.3157169230768204
 50
180.0
 51
244.6259913216833
 73
     1
 72
     2
 10
-964.9762223826756
 20
-1192.852550535307
 40
0.9118481501445603
 50
295.3740086782019
 51
424.6259913218226
 73
     0
 97
        8
330
34D
330
26D
330
34A
330
34B
330
329
330
26C
330
34C
330
328
 92
       16
 93
        1
 72
     2
 10
-965.0000373973484
 20
-1192.852550535307
 40
0.4709789327785074
 50
0.0
 51
360.0
 73
     1
 97
        1
330
35B
 75
     1
 76
     2
 52
45.0
 41
0.1
 77
     0
 78
     1
 53
45.0
 43
62.7811309658083
 44
-72.3161373035813
 45
-0.1414213562373095
 46
0.0
 79
     0
 98
        1
 10
0.0
 20
0.0
  0
HATCH
  5
39C
330
71
100
AcDbEntity
  8
1
  6
Continuous
 62
     2
100
AcDbHatch
 10
0.0
 20
0.0
 30
0.0
210
0.0
220
0.0
230
1.0
  2
CUSTOM22
 70
     0
 71
     1
 91
        1
 92
        1
 93
       18
 72
     1
 10
-940.1325184325442
 20
-1194.253879473848
 11
-940.9436174700177
 21
-1194.253879473848
 72
     1
 10
-940.9436174700177
 20
-1194.253879473848
 11
-940.9436174700177
 21
-1196.522423691535
 72
     1
 10
-940.9436174700177
 20
-1196.522423691535
 11
-942.1364101721854
 21
-1196.522423691535
 72
     1
 10
-942.1364101721854
 20
-1196.522423691535
 11
-942.1364101721854
 21
-1194.253879473848
 72
     1
 10
-942.1364101721854
 20
-1194.253879473848
 11
-943.2400494717534
 21
-1194.253879473848
 72
     2
 10
-943.2400494717534
 20
-1195.208402480674
 40
0.9545230068260935
 50
90.0
 51
109.3371432194175
 73
     1
 72
     2
 10
-943.3867194698571
 20
-1194.790447500291
 40
0.5115800601948339
 50
109.3371432194654
 51
151.4785267424227
 73
     1
 72
     2
 10
-943.0093622117756
 20
-1194.99551892963
 40
0.9410597353349766
 50
151.4785267423711
 51
208.5214732576289
 73
     1
 72
     2
 10
-943.3867194698571
 20
-1195.200590358968
 40
0.5115800601959901
 50
208.5214732576668
 51
246.6277221118395
 73
     1
 72
     2
 10
-943.230279437154
 20
-1194.838598340258
 40
0.9059297849852503
 50
246.6277221118135
 51
288.4480761180647
 73
     1
 72
     2
 10
-943.648447170816
 20
-1193.585052564222
 40
2.227384008972611
 50
288.4480761181346
 51
301.9309089499522
 73
     1
 72
     1
 10
-942.470392128792
 20
-1195.475403283371
 11
-942.470392128792
 21
-1196.347920290175
 72
     2
 10
-943.8063200459087
 20
-1191.682837984373
 40
4.852596863498941
 50
74.02000874166322
 51
84.84185523036345
 73
     0
 72
     2
 10
-943.5174639511729
 20
-1194.882728567595
 40
1.639695123940421
 50
84.84185523032188
 51
164.9381082228985
 73
     0
 72
     2
 10
-943.9365917946345
 20
-1194.99551892963
 40
1.205656168392903
 50
164.9381082229099
 51
195.0618917770901
 73
     0
 72
     2
 10
-943.5174639511729
 20
-1195.108309291665
 40
1.63969512394101
 50
195.0618917771015
 51
270.0
 73
     0
 72
     1
 10
-943.5174639511729
 20
-1193.468614167724
 11
-940.1325184325442
 21
-1193.468614167724
 72
     1
 10
-940.1325184325442
 20
-1193.468614167724
 11
-940.1325184325442
 21
-1194.253879473848
 97
       18
330
26F
330
346
330
347
330
32F
330
32E
330
2D3
330
32D
330
32C
330
348
330
32B
330
349
330
32A
330
2D4
330
26E
330
273
330
272
330
271
330
270
 75
     1
 76
     2
 52
45.0
 41
0.1
 77
     0
 78
     1
 53
45.0
 43
62.7811309658083
 44
-72.3161373035813
 45
-0.1414213562373095
 46
0.0
 79
     0
 98
        1
 10
0.0
 20
0.0
  0
HATCH
  5
39D
330
71
100
AcDbEntity
  8
1
  6
Continuous
 62
     2
100
AcDbHatch
 10
0.0
 20
0.0
 30
0.0
210
0.0
220
0.0
230
1.0
  2
CUSTOM23
 70
     0
 71
     1
 91
        1
 92
        1
 93
       18
 72
     1
 10
-940.1325184325442
 20
-1194.253879473848
 11
-940.9436174700177
 21
-1194.253879473848
 72
     1
 10
-940.9436174700177
 20
-1194.253879473848
 11
-940.9436174700177
 21
-1196.522423691535
 72
     1
 10
-940.9436174700177
 20
-1196.522423691535
 11
-942.1364101721854
 21
-1196.522423691535
 72
     1
 10
-942.1364101721854
 20
-1196.522423691535
 11
-942.1364101721854
 21
-1194.253879473848
 72
     1
 10
-942.1364101721854
 20
-1194.253879473848
 11
-943.2400494717534
 21
-1194.253879473848
 72
     2
 10
-943.2400494717534
 20
-1195.208402480674
 40
0.9545230068260935
 50
90.0
 51
109.3371432194175
 73
     1
 72
     2
 10
-943.3867194698571
 20
-1194.790447500291
 40
0.5115800601948339
 50
109.3371432194654
 51
151.4785267424227
 73
     1
 72
     2
 10
-943.0093622117756
 20
-1194.99551892963
 40
0.9410597353349766
 50
151.4785267423711
 51
208.5214732576289
 73
     1
 72
     2
 10
-943.3867194698571
 20
-1195.200590358968
 40
0.5115800601959901
 50
208.5214732576668
 51
246.6277221118395
 73
     1
 72
     2
 10
-943.230279437154
 20
-1194.838598340258
 40
0.9059297849852503
 50
246.6277221118135
 51
288.4480761180647
 73
     1
 72
     2
 10
-943.648447170816
 20
-1193.585052564222
 40
2.227384008972611
 50
288.4480761181346
 51
301.9309089499522
 73
     1
 72
     1
 10
-942.470392128792
 20
-1195.475403283371
 11
-942.470392128792
 21
-1196.347920290175
 72
     2
 10
-943.8063200459087
 20
-1191.682837984373
 40
4.852596863498941
 50
74.02000874166322
 51
84.84185523036345
 73
     0
 72
     2
 10
-943.5174639511729
 20
-1194.882728567595
 40
1.639695123940421
 50
84.84185523032188
 51
164.9381082228985
 73
     0
 72
     2
 10
-943.9365917946345
 20
-1194.99551892963
 40
1.205656168392903
 50
164.9381082229099
 51
195.0618917770901
 73
     0
 72
     2
 10
-943.5174639511729
 20
-1195.108309291665
 40
1.63969512394101
 50
195.0618917771015
 51
270.0
 73
     0
 72
     1
 10
-943.5174639511729
 20
-1193.468614167724
 11
-940.1325184325442
 21
-1193.468614167724
 72
     1
 10
-940.1325184325442
 20
-1193.468614167724
 11
-940.1325184325442
 21
-1194.253879473848
 97
       18
330
26F
330
346
330
347
330
32F
330
32E
330
2D3
330
32D
330
32C
330
348
330
32B
330
349
330
32A
330
2D4
330
26E
330
273
330
272
330
271
330
270
 75
     1
 76
     2
 52
45.0
 41
0.1
 77
     0
 78
     1
 53
45.0
 43
62.7811309658083
 44
-72.3161373035813
 45
-0.1414213562373095
 46
0.0
 79
     0
 98
        1
 10
0.0
 20
0.0
  0
HATCH
  5
39E
330
71
100
AcDbEntity
  8
1
  6
Continuous
 62
     2
100
AcDbHatch
 10
0.0
 20
0.0
 30
0.0
210
0.0
220
0.0
230
1.0
  2
CUSTOM24
 70
     0
 71
     1
 91
        1
 92
        1
 93
       14
 72
     2
 10
-959.6201654304257
 20
-1195.108309291665
 40
1.639695123941119
 50
84.8418552303683
 51
164.9381082228913
 73
     1
 72
     2
 10
-960.0392932738886
 20
-1194.99551892963
 40
1.205656168390927
 50
164.9381082228846
 51
195.0618917770736
 73
     1
 72
     2
 10
-959.6201654304257
 20
-1194.882728567595
 40
1.639695123939416
 50
195.061891777078
 51
275.1581447696346
 73
     1
 72
     2
 10
-959.9090215251616
 20
-1191.682837984373
 40
4.852596863498839
 50
275.1581447696232
 51
285.9799912583526
 73
     1
 72
     1
 10
-958.5730936080438
 20
-1196.347920290174
 11
-958.5730936080438
 21
-1195.475403283371
 72
     2
 10
-959.7511486500689
 20
-1193.585052564221
 40
2.227384008972431
 50
58.06909105003535
 51
71.55192388186072
 73
     0
 72
     2
 10
-959.3329809164079
 20
-1194.838598340258
 40
0.9059297849848895
 50
71.55192388184437
 51
113.3722778881337
 73
     0
 72
     2
 10
-959.48942094911
 20
-1195.200590358968
 40
0.5115800601949912
 50
113.3722778881722
 51
151.4785267422724
 73
     0
 72
     2
 10
-959.1120636910297
 20
-1194.99551892963
 40
0.941059735333413
 50
151.478526742305
 51
208.5214732577436
 73
     0
 72
     2
 10
-959.48942094911
 20
-1194.790447500291
 40
0.5115800601953623
 50
208.5214732577276
 51
246.6277221118278
 73
     0
 72
     2
 10
-959.3329809164079
 20
-1195.152439519001
 40
0.9059297849847118
 50
246.6277221118663
 51
288.4480761181557
 73
     0
 72
     2
 10
-959.7511486500689
 20
-1196.405985295038
 40
2.227384008973574
 50
288.4480761181393
 51
301.9309089499646
 73
     0
 72
     1
 10
-958.5730936080438
 20
-1194.515634575888
 11
-958.5730936080438
 21
-1193.643117569085
 72
     2
 10
-959.9090215251616
 20
-1198.308199874886
 40
4.852596863498158
 50
74.02000874164733
 51
84.84185523037681
 73
     1
 97
       14
330
34E
330
34F
330
350
330
351
330
2D5
330
327
330
326
330
325
330
352
330
353
330
324
330
354
330
2D6
330
323
 75
     1
 76
     2
 52
45.0
 41
0.1
 77
     0
 78
     1
 53
45.0
 43
62.7811309658083
 44
-72.3161373035813
 45
-0.1414213562373095
 46
0.0
 79
     0
 98
        1
 10
0.0
 20
0.0
  0
HATCH
  5
39F
330
71
100
AcDbEntity
  8
1
  6
Continuous
 62
     2
100
AcDbHatch
 10
0.0
 20
0.0
 30
0.0
210
0.0
220
0.0
230
1.0
  2
CUSTOM25
 70
     0
 71
     1
 91
        1
 92
        1
 93
       14
 72
     2
 10
-959.6201654304257
 20
-1195.108309291665
 40
1.639695123941119
 50
84.8418552303683
 51
164.9381082228913
 73
     1
 72
     2
 10
-960.0392932738886
 20
-1194.99551892963
 40
1.205656168390927
 50
164.9381082228846
 51
195.0618917770736
 73
     1
 72
     2
 10
-959.6201654304257
 20
-1194.882728567595
 40
1.639695123939416
 50
195.061891777078
 51
275.1581447696346
 73
     1
 72
     2
 10
-959.9090215251616
 20
-1191.682837984373
 40
4.852596863498839
 50
275.1581447696232
 51
285.9799912583526
 73
     1
 72
     1
 10
-958.5730936080438
 20
-1196.347920290174
 11
-958.5730936080438
 21
-1195.475403283371
 72
     2
 10
-959.7511486500689
 20
-1193.585052564221
 40
2.227384008972431
 50
58.06909105003535
 51
71.55192388186072
 73
     0
 72
     2
 10
-959.3329809164079
 20
-1194.838598340258
 40
0.9059297849848895
 50
71.55192388184437
 51
113.3722778881337
 73
     0
 72
     2
 10
-959.48942094911
 20
-1195.200590358968
 40
0.5115800601949912
 50
113.3722778881722
 51
151.4785267422724
 73
     0
 72
     2
 10
-959.1120636910297
 20
-1194.99551892963
 40
0.941059735333413
 50
151.478526742305
 51
208.5214732577436
 73
     0
 72
     2
 10
-959.48942094911
 20
-1194.790447500291
 40
0.5115800601953623
 50
208.5214732577276
 51
246.6277221118278
 73
     0
 72
     2
 10
-959.3329809164079
 20
-1195.152439519001
 40
0.9059297849847118
 50
246.6277221118663
 51
288.4480761181557
 73
     0
 72
     2
 10
-959.7511486500689
 20
-1196.405985295038
 40
2.227384008973574
 50
288.4480761181393
 51
301.9309089499646
 73
     0
 72
     1
 10
-958.5730936080438
 20
-1194.515634575888
 11
-958.5730936080438
 21
-1193.643117569085
 72
     2
 10
-959.9090215251616
 20
-1198.308199874886
 40
4.852596863498158
 50
74.02000874164733
 51
84.84185523037681
 73
     1
 97
       14
330
34E
330
34F
330
350
330
351
330
2D5
330
327
330
326
330
325
330
352
330
353
330
324
330
354
330
2D6
330
323
 75
     1
 76
     2
 52
45.0
 41
0.1
 77
     0
 78
     1
 53
45.0
 43
62.7811309658083
 44
-72.3161373035813
 45
-0.1414213562373095
 46
0.0
 79
     0
 98
        1
 10
0.0
 20
0.0
  0
ENDBLK
  5
73
330
71
100
AcDbEntity
  8
0
100
AcDbBlockEnd
  0
BLOCK
  5
75
330
74
100
AcDbEntity
  8
0
100
AcDbBlockBegin
  2
_punkt
 70
     0
 10
-842.7357180230614
 20
-1203.815923691551
 30
0.0
  3
_punkt
  1

  0
LINE
  5
3A0
330
74
100
AcDbEntity
  8
1
  6
Continuous
 62
     2
100
AcDbLine
 10
-842.7357180230613
 20
-1203.815923691551
 30
0.0
 11
-837.7357180230638
 21
-1203.815923691551
 31
0.0
  0
LINE
  5
3A1
330
74
100
AcDbEntity
  8
1
  6
Continuous
 62
     2
100
AcDbLine
 10
-842.7357180230613
 20
-1203.815923691551
 30
0.0
 11
-842.7357180230613
 21
-1208.815923691551
 31
0.0
  0
ENDBLK
  5
76
330
74
100
AcDbEntity
  8
0
100
AcDbBlockEnd
  0
BLOCK
  5
7A
330
77
100
AcDbEntity
  8
0
100
AcDbBlockBegin
  2
A3I_CS
 70
     0
 10
-842.7357180230613
 20
-1208.815923691551
 30
0.0
  3
A3I_CS
  1

  0
INSERT
  5
78
330
77
100
AcDbEntity
  8
1
100
AcDbBlockReference
  2
_rahmen
 10
-842.7357180230613
 20
-1208.815923691551
 30
0.0
  0
INSERT
  5
79
330
77
100
AcDbEntity
  8
1
100
AcDbBlockReference
  2
_punkt
 10
-842.7357180230614
 20
-1203.815923691551
 30
0.0
  0
ENDBLK
  5
7B
330
77
100
AcDbEntity
  8
0
100
AcDbBlockEnd
  0
BLOCK
  5
84
330
7C
100
AcDbEntity
  8
0
100
AcDbBlockBegin
  2
1
 70
     0
 10
0.0
 20
0.0
 30
0.0
  3
1
  1

  0
INSERT
  5
7D
330
7C
100
AcDbEntity
  8
0
100
AcDbBlockReference
  2
Back1
 10
-898.7999999523361
 20
-998.5500025020559
 30
0.0
  0
INSERT
  5
7E
330
7C
100
AcDbEntity
  8
0
100
AcDbBlockReference
  2
Front1
 10
-1072.99999999998
 20
-998.5500025020559
 30
0.0
  0
INSERT
  5
7F
330
7C
100
AcDbEntity
  8
0
100
AcDbBlockReference
  2
Gen1
 10
-944.9999999999901
 20
-1104.99999954461
 30
0.0
  0
INSERT
  5
80
330
7C
100
AcDbEntity
  8
0
100
AcDbBlockReference
  2
Left1
 10
-985.3999999761376
 20
-998.5500025020559
 30
0.0
  0
INSERT
  5
81
330
7C
100
AcDbEntity
  8
0
100
AcDbBlockReference
  2
Right1
 10
-1185.600000023867
 20
-998.5500025020559
 30
0.0
  0
INSERT
  5
82
330
7C
100
AcDbEntity
  8
0
100
AcDbBlockReference
  2
Top1
 10
-1072.99999999998
 20
-1102.000000000025
 30
0.0
  0
INSERT
  5
83
330
7C
100
AcDbEntity
  8
0
100
AcDbBlockReference
  2
A3I_CS
 10
-842.7357180230613
 20
-1208.815923691551
 30
0.0
  0
ENDBLK
  5
85
330
7C
100
AcDbEntity
  8
0
100
AcDbBlockEnd
  0
BLOCK
  5
C8
330
C1
100
AcDbEntity
  8
0
100
AcDbBlockBegin
  2
*D17
 70
     1
 10
0.0
 20
0.0
 30
0.0
  3
*D17
  1

  0
LINE
  5
C2
330
C1
100
AcDbEntity
  8
1
  6
Continuous
 62
     2
100
AcDbLine
 10
-1097.150000314162
 20
-1035.49644003724
 30
0.0
 11
-1048.850000314162
 21
-1035.49644003724
 31
0.0
  0
LINE
  5
C3
330
C1
100
AcDbEntity
  8
1
  6
Continuous
 62
     2
100
AcDbLine
 10
-1097.150000314162
 20
-1011.855752422503
 30
0.0
 11
-1097.150000314162
 21
-1036.99644003724
 31
0.0
  0
LINE
  5
C4
330
C1
100
AcDbEntity
  8
1
  6
Continuous
 62
     2
100
AcDbLine
 10
-1048.850000314162
 20
-1020.549999450318
 30
0.0
 11
-1048.850000314162
 21
-1036.99644003724
 31
0.0
  0
SOLID
  5
C5
330
C1
100
AcDbEntity
  8
1
 62
     2
100
AcDbTrace
 10
-1093.650000314162
 20
-1035.035656295684
 30
0.0
 11
-1093.650000314162
 21
-1035.957223778796
 31
0.0
 12
-1097.150000314162
 22
-1035.49644003724
 32
0.0
 13
-1097.150000314162
 23
-1035.49644003724
 33
0.0
  0
SOLID
  5
C6
330
C1
100
AcDbEntity
  8
1
 62
     2
100
AcDbTrace
 10
-1052.350000314162
 20
-1035.957223778796
 30
0.0
 11
-1052.350000314162
 21
-1035.035656295684
 31
0.0
 12
-1048.850000314162
 22
-1035.49644003724
 32
0.0
 13
-1048.850000314162
 23
-1035.49644003724
 33
0.0
  0
MTEXT
  5
C7
330
C1
100
AcDbEntity
  8
1
 62
     3
100
AcDbMText
 10
-1076.19894211274
 20
-1033.64644003724
 30
0.0
 40
3.5
 41
0.0
 71
     7
 72
     1
  1
48,3
  7
CONVERTER_11
 11
0.9999999999970619
 21
2.424068405545306E-6
 31
0.0
 73
     1
 44
0.60024009603842
  0
ENDBLK
  5
C9
330
C1
100
AcDbEntity
  8
0
100
AcDbBlockEnd
  0
BLOCK
  5
D3
330
CC
100
AcDbEntity
  8
0
100
AcDbBlockBegin
  2
*D18
 70
     1
 10
0.0
 20
0.0
 30
0.0
  3
*D18
  1

  0
LINE
  5
CD
330
CC
100
AcDbEntity
  8
1
  6
Continuous
 62
     2
100
AcDbLine
 10
-1116.46763038399
 20
-1020.549999450318
 30
0.0
 11
-1116.46763038399
 21
-976.5499994503181
 31
0.0
  0
LINE
  5
CE
330
CC
100
AcDbEntity
  8
1
  6
Continuous
 62
     2
100
AcDbLine
 10
-1077.850000314162
 20
-1020.549999450318
 30
0.0
 11
-1117.96763038399
 21
-1020.549999450318
 31
0.0
  0
LINE
  5
CF
330
CC
100
AcDbEntity
  8
1
  6
Continuous
 62
     2
100
AcDbLine
 10
-1090.450000314162
 20
-976.5499994503181
 30
0.0
 11
-1117.96763038399
 21
-976.5499994503181
 31
0.0
  0
SOLID
  5
D0
330
CC
100
AcDbEntity
  8
1
 62
     2
100
AcDbTrace
 10
-1116.928414125546
 20
-1017.049999450318
 30
0.0
 11
-1116.006846642434
 21
-1017.049999450318
 31
0.0
 12
-1116.46763038399
 22
-1020.549999450318
 32
0.0
 13
-1116.46763038399
 23
-1020.549999450318
 33
0.0
  0
SOLID
  5
D1
330
CC
100
AcDbEntity
  8
1
 62
     2
100
AcDbTrace
 10
-1116.006846642434
 20
-980.0499994503181
 30
0.0
 11
-1116.928414125546
 21
-980.0499994503181
 31
0.0
 12
-1116.46763038399
 22
-976.5499994503181
 32
0.0
 13
-1116.46763038399
 23
-976.5499994503181
 33
0.0
  0
MTEXT
  5
D2
330
CC
100
AcDbEntity
  8
1
 62
     3
100
AcDbMText
 10
-1117.96763038399
 20
-998.3164302924451
 30
0.0
 40
3.5
 41
0.0
 71
     7
 72
     1
  1
44
  7
CONVERTER_11
 11
0.0
 21
1.0
 31
0.0
 73
     1
 44
0.60024009603842
  0
ENDBLK
  5
D4
330
CC
100
AcDbEntity
  8
0
100
AcDbBlockEnd
  0
BLOCK
  5
251
330
24A
100
AcDbEntity
  8
0
100
AcDbBlockBegin
  2
*D19
 70
     1
 10
0.0
 20
0.0
 30
0.0
  3
*D19
  1

  0
LINE
  5
24B
330
24A
100
AcDbEntity
  8
1
  6
Continuous
 62
     2
100
AcDbLine
 10
-1116.467630383989
 20
-1059.550001549771
 30
0.0
 11
-1116.467630383989
 21
-1144.450001549771
 31
0.0
  0
LINE
  5
24C
330
24A
100
AcDbEntity
  8
1
  6
Continuous
 62
     2
100
AcDbLine
 10
-1090.450000314161
 20
-1059.550001549771
 30
0.0
 11
-1117.967630383989
 21
-1059.550001549771
 31
0.0
  0
LINE
  5
24D
330
24A
100
AcDbEntity
  8
1
  6
Continuous
 62
     2
100
AcDbLine
 10
-1090.450000314161
 20
-1144.450001549771
 30
0.0
 11
-1117.967630383989
 21
-1144.450001549771
 31
0.0
  0
SOLID
  5
24E
330
24A
100
AcDbEntity
  8
1
 62
     2
100
AcDbTrace
 10
-1116.006846642433
 20
-1063.050001549771
 30
0.0
 11
-1116.928414125545
 21
-1063.050001549771
 31
0.0
 12
-1116.467630383989
 22
-1059.550001549771
 32
0.0
 13
-1116.467630383989
 23
-1059.550001549771
 33
0.0
  0
SOLID
  5
24F
330
24A
100
AcDbEntity
  8
1
 62
     2
100
AcDbTrace
 10
-1116.928414125545
 20
-1140.950001549771
 30
0.0
 11
-1116.006846642433
 21
-1140.950001549771
 31
0.0
 12
-1116.467630383989
 22
-1144.450001549771
 32
0.0
 13
-1116.467630383989
 23
-1144.450001549771
 33
0.0
  0
MTEXT
  5
250
330
24A
100
AcDbEntity
  8
1
 62
     3
100
AcDbMText
 10
-1118.317630383989
 20
-1107.26779669089
 30
0.0
 40
3.5
 41
0.0
 71
     7
 72
     1
  1
84,9
  7
CONVERTER_11
 11
0.0
 21
1.0
 31
0.0
 73
     1
 44
0.60024009603842
  0
ENDBLK
  5
252
330
24A
100
AcDbEntity
  8
0
100
AcDbBlockEnd
  0
ENDSEC
  0
SECTION
  2
ENTITIES
  0
INSERT
  5
86
330
1F
100
AcDbEntity
  8
1
100
AcDbBlockReference
  2
1
 10
0.0
 20
0.0
 30
0.0
  0
ENDSEC
  0
SECTION
  2
OBJECTS
  0
DICTIONARY
  5
C
330
0
100
AcDbDictionary
281
     1
  3
ACAD_GROUP
350
D
  3
ACAD_LAYOUT
350
1A
  3
ACAD_MATERIAL
350
3B
  3
ACAD_MLEADERSTYLE
350
3C9
  3
ACAD_MLINESTYLE
350
17
  3
ACAD_PLOTSETTINGS
350
19
  3
ACAD_PLOTSTYLENAME
350
E
  3
ACAD_TABLESTYLE
350
3C8
  3
ACAD_VISUALSTYLE
350
2A
  0
DICTIONARY
  5
D
102
{ACAD_REACTORS
330
C
102
}
330
C
100
AcDbDictionary
281
     1
  0
DICTIONARY
  5
1A
102
{ACAD_REACTORS
330
C
102
}
330
C
100
AcDbDictionary
281
     1
  3
Layout1
350
1E
  3
Layout2
350
26
  3
Model
350
22
  0
DICTIONARY
  5
3B
102
{ACAD_REACTORS
330
C
102
}
330
C
100
AcDbDictionary
281
     1
  3
ByBlock
350
3D
  3
ByLayer
350
3C
  3
Global
350
3E
  0
DICTIONARY
  5
3C9
102
{ACAD_REACTORS
330
C
102
}
330
C
100
AcDbDictionary
281
     1
  0
DICTIONARY
  5
17
102
{ACAD_REACTORS
330
C
102
}
330
C
100
AcDbDictionary
281
     1
  3
Standard
350
18
  0
DICTIONARY
  5
19
102
{ACAD_REACTORS
330
C
102
}
330
C
100
AcDbDictionary
281
     1
  0
ACDBDICTIONARYWDFLT
  5
E
102
{ACAD_REACTORS
330
C
102
}
330
C
100
AcDbDictionary
281
     1
  3
Normal
350
F
100
AcDbDictionaryWithDefault
340
F
  0
DICTIONARY
  5
3C8
102
{ACAD_REACTORS
330
C
102
}
330
C
100
AcDbDictionary
281
     1
  0
DICTIONARY
  5
2A
102
{ACAD_REACTORS
330
C
102
}
330
C
100
AcDbDictionary
281
     1
  3
2dWireframe
350
2F
  3
3D Hidden
350
31
  3
3dWireframe
350
30
  3
Basic
350
32
  3
Brighten
350
36
  3
ColorChange
350
3A
  3
Conceptual
350
34
  3
Dim
350
35
  3
Facepattern
350
39
  3
Flat
350
2B
  3
FlatWithEdges
350
2C
  3
Gouraud
350
2D
  3
GouraudWithEdges
350
2E
  3
Linepattern
350
38
  3
Realistic
350
33
  3
Thicken
350
37
  0
LAYOUT
  5
1E
102
{ACAD_REACTORS
330
1A
102
}
330
1A
100
AcDbPlotSettings
  1

  2
none_device
  4

  6

 40
0.0
 41
0.0
 42
0.0
 43
0.0
 44
0.0
 45
0.0
 46
0.0
 47
0.0
 48
0.0
 49
0.0
140
0.0
141
0.0
142
1.0
143
1.0
 70
   688
 72
     0
 73
     0
 74
     5
  7

 75
    16
 76
     0
 77
     2
 78
   300
147
1.0
148
0.0
149
0.0
100
AcDbLayout
  1
Layout1
 70
     1
 71
     1
 10
0.0
 20
0.0
 11
12.0
 21
9.0
 12
0.0
 22
0.0
 32
0.0
 14
1.00000000000000E+20
 24
1.00000000000000E+20
 34
1.00000000000000E+20
 15
-1.00000000000000E+20
 25
-1.00000000000000E+20
 35
-1.00000000000000E+20
146
0.0
 13
0.0
 23
0.0
 33
0.0
 16
1.0
 26
0.0
 36
0.0
 17
0.0
 27
1.0
 37
0.0
 76
     0
330
1B
  0
LAYOUT
  5
26
102
{ACAD_REACTORS
330
1A
102
}
330
1A
100
AcDbPlotSettings
  1

  2
none_device
  4

  6

 40
0.0
 41
0.0
 42
0.0
 43
0.0
 44
0.0
 45
0.0
 46
0.0
 47
0.0
 48
0.0
 49
0.0
140
0.0
141
0.0
142
1.0
143
1.0
 70
   688
 72
     0
 73
     0
 74
     5
  7

 75
    16
 76
     0
 77
     2
 78
   300
147
1.0
148
0.0
149
0.0
100
AcDbLayout
  1
Layout2
 70
     1
 71
     2
 10
0.0
 20
0.0
 11
0.0
 21
0.0
 12
0.0
 22
0.0
 32
0.0
 14
0.0
 24
0.0
 34
0.0
 15
0.0
 25
0.0
 35
0.0
146
0.0
 13
0.0
 23
0.0
 33
0.0
 16
1.0
 26
0.0
 36
0.0
 17
0.0
 27
1.0
 37
0.0
 76
     0
330
23
  0
LAYOUT
  5
22
102
{ACAD_REACTORS
330
1A
102
}
330
1A
100
AcDbPlotSettings
  1

  2
none_device
  4

  6

 40
0.0
 41
0.0
 42
0.0
 43
0.0
 44
0.0
 45
0.0
 46
0.0
 47
0.0
 48
0.0
 49
0.0
140
0.0
141
0.0
142
1.0
143
1.0
 70
  1712
 72
     0
 73
     0
 74
     0
  7

 75
     0
 76
     0
 77
     2
 78
   300
147
1.0
148
0.0
149
0.0
100
AcDbLayout
  1
Model
 70
     1
 71
     0
 10
0.0
 20
0.0
 11
12.0
 21
9.0
 12
0.0
 22
0.0
 32
0.0
 14
-1257.735718023062
 24
-1208.815923691551
 34
0.0
 15
-837.7357180230638
 25
-911.8159236915508
 35
0.0
146
0.0
 13
0.0
 23
0.0
 33
0.0
 16
1.0
 26
0.0
 36
0.0
 17
0.0
 27
1.0
 37
0.0
 76
     0
330
1F
331
29
  0
MATERIAL
  5
3D
102
{ACAD_REACTORS
330
3B
102
}
102
{ACAD_XDICTIONARY
360
3C4
102
}
330
3B
100
AcDbMaterial
  1
ByBlock
  0
MATERIAL
  5
3C
102
{ACAD_REACTORS
330
3B
102
}
102
{ACAD_XDICTIONARY
360
3C2
102
}
330
3B
100
AcDbMaterial
  1
ByLayer
  0
MATERIAL
  5
3E
102
{ACAD_REACTORS
330
3B
102
}
102
{ACAD_XDICTIONARY
360
3C6
102
}
330
3B
100
AcDbMaterial
  1
Global
  0
MLINESTYLE
  5
18
102
{ACAD_REACTORS
330
17
102
}
330
17
100
AcDbMlineStyle
  2
Standard
 70
     0
  3

 62
   256
 51
90.0
 52
90.0
 71
     2
 49
0.5
 62
   256
  6
BYLAYER
 49
-0.5
 62
   256
  6
BYLAYER
  0
ACDBPLACEHOLDER
  5
F
102
{ACAD_REACTORS
330
E
102
}
330
E
  0
VISUALSTYLE
  5
2F
102
{ACAD_REACTORS
330
2A
102
}
102
{ACAD_XDICTIONARY
360
3AA
102
}
330
2A
100
AcDbVisualStyle
  2
2dWireframe
 70
     4
 71
     0
 72
     2
 73
     0
 90
        0
 40
-0.6
 41
-30.0
 62
     5
 63
     7
421
 16777215
 74
     1
 91
        4
 64
     7
 65
   257
 75
     1
175
     1
 42
1.0
 92
        0
 66
   257
 43
1.0
 76
     1
 77
     6
 78
     2
 67
     7
 79
     5
170
     0
171
     0
290
     0
174
     0
 93
        1
 44
0.0
173
     0
291
     0
 45
0.0
1001
ACAD
1000
AcDbSavedByObjectVersion
1070
     0
  0
VISUALSTYLE
  5
31
102
{ACAD_REACTORS
330
2A
102
}
102
{ACAD_XDICTIONARY
360
3AE
102
}
330
2A
100
AcDbVisualStyle
  2
3D Hidden
 70
     6
 71
     1
 72
     2
 73
     2
 90
        0
 40
-0.6
 41
-30.0
 62
     5
 63
     7
421
 16777215
 74
     2
 91
        2
 64
     7
 65
   257
 75
     2
175
     1
 42
40.0
 92
        0
 66
   257
 43
1.0
 76
     1
 77
     6
 78
     2
 67
     7
 79
     3
170
     0
171
     0
290
     0
174
     0
 93
        1
 44
0.0
173
     0
291
     0
 45
0.0
1001
ACAD
1000
AcDbSavedByObjectVersion
1070
     0
  0
VISUALSTYLE
  5
30
102
{ACAD_REACTORS
330
2A
102
}
102
{ACAD_XDICTIONARY
360
3AC
102
}
330
2A
100
AcDbVisualStyle
  2
3dWireframe
 70
     5
 71
     0
 72
     2
 73
     0
 90
        0
 40
-0.6
 41
-30.0
 62
     5
 63
     7
421
 16777215
 74
     1
 91
        4
 64
     7
 65
   257
 75
     1
175
     1
 42
1.0
 92
        0
 66
   257
 43
1.0
 76
     1
 77
     6
 78
     2
 67
     7
 79
     5
170
     0
171
     0
290
     0
174
     0
 93
        1
 44
0.0
173
     0
291
     0
 45
0.0
1001
ACAD
1000
AcDbSavedByObjectVersion
1070
     0
  0
VISUALSTYLE
  5
32
102
{ACAD_REACTORS
330
2A
102
}
102
{ACAD_XDICTIONARY
360
3B0
102
}
330
2A
100
AcDbVisualStyle
  2
Basic
 70
     7
 71
     1
 72
     0
 73
     1
 90
        0
 40
-0.6
 41
-30.0
 62
     5
 63
     7
421
 16777215
 74
     0
 91
        4
 64
     7
 65
   257
 75
     1
175
     1
 42
1.0
 92
        8
 66
     7
 43
1.0
 76
     1
 77
     6
 78
     2
 67
     7
 79
     5
170
     0
171
     0
290
     0
174
     0
 93
        1
 44
0.0
173
     0
291
     1
 45
0.0
1001
ACAD
1000
AcDbSavedByObjectVersion
1070
     0
  0
VISUALSTYLE
  5
36
102
{ACAD_REACTORS
330
2A
102
}
102
{ACAD_XDICTIONARY
360
3B8
102
}
330
2A
100
AcDbVisualStyle
  2
Brighten
 70
    12
 71
     2
 72
     2
 73
     0
 90
        0
 40
-0.6
 41
-30.0
 62
     5
 63
     7
421
 16777215
 74
     1
 91
        4
 64
     7
 65
   257
 75
     1
175
     1
 42
1.0
 92
        8
 66
     7
 43
1.0
 76
     1
 77
     6
 78
     2
 67
     7
 79
     5
170
     0
171
     0
290
     0
174
     0
 93
        1
 44
50.0
173
     0
291
     1
 45
0.0
1001
ACAD
1000
AcDbSavedByObjectVersion
1070
     0
  0
VISUALSTYLE
  5
3A
102
{ACAD_REACTORS
330
2A
102
}
102
{ACAD_XDICTIONARY
360
3C0
102
}
330
2A
100
AcDbVisualStyle
  2
ColorChange
 70
    16
 71
     2
 72
     2
 73
     3
 90
        0
 40
-0.6
 41
-30.0
 62
     5
 63
     8
421
  8421504
 74
     1
 91
        4
 64
     7
 65
   257
 75
     1
175
     1
 42
1.0
 92
        8
 66
     8
424
  8421504
 43
1.0
 76
     1
 77
     6
 78
     2
 67
     7
 79
     5
170
     0
171
     0
290
     0
174
     0
 93
        1
 44
0.0
173
     0
291
     1
 45
0.0
1001
ACAD
1000
AcDbSavedByObjectVersion
1070
     0
  0
VISUALSTYLE
  5
34
102
{ACAD_REACTORS
330
2A
102
}
102
{ACAD_XDICTIONARY
360
3B4
102
}
330
2A
100
AcDbVisualStyle
  2
Conceptual
 70
     9
 71
     3
 72
     2
 73
     0
 90
        0
 40
-0.6
 41
-30.0
 62
     5
 63
     7
421
 16777215
 74
     2
 91
        2
 64
     7
 65
   257
 75
     1
175
     1
 42
40.0
 92
        8
 66
     7
 43
1.0
 76
     1
 77
     6
 78
     2
 67
     7
 79
     3
170
     0
171
     0
290
     0
174
     0
 93
        1
 44
0.0
173
     0
291
     0
 45
0.0
1001
ACAD
1000
AcDbSavedByObjectVersion
1070
     0
  0
VISUALSTYLE
  5
35
102
{ACAD_REACTORS
330
2A
102
}
102
{ACAD_XDICTIONARY
360
3B6
102
}
330
2A
100
AcDbVisualStyle
  2
Dim
 70
    11
 71
     2
 72
     2
 73
     0
 90
        0
 40
-0.6
 41
-30.0
 62
     5
 63
     7
421
 16777215
 74
     1
 91
        4
 64
     7
 65
   257
 75
     1
175
     1
 42
1.0
 92
        8
 66
     7
 43
1.0
 76
     1
 77
     6
 78
     2
 67
     7
 79
     5
170
     0
171
     0
290
     0
174
     0
 93
        1
 44
-50.0
173
     0
291
     1
 45
0.0
1001
ACAD
1000
AcDbSavedByObjectVersion
1070
     0
  0
VISUALSTYLE
  5
39
102
{ACAD_REACTORS
330
2A
102
}
102
{ACAD_XDICTIONARY
360
3BE
102
}
330
2A
100
AcDbVisualStyle
  2
Facepattern
 70
    15
 71
     2
 72
     2
 73
     0
 90
        0
 40
-0.6
 41
-30.0
 62
     5
 63
     7
421
 16777215
 74
     1
 91
        4
 64
     7
 65
   257
 75
     1
175
     1
 42
1.0
 92
        8
 66
     7
 43
1.0
 76
     1
 77
     6
 78
     2
 67
     7
 79
     5
170
     0
171
     0
290
     0
174
     0
 93
        1
 44
0.0
173
     0
291
     1
 45
0.0
1001
ACAD
1000
AcDbSavedByObjectVersion
1070
     0
  0
VISUALSTYLE
  5
2B
102
{ACAD_REACTORS
330
2A
102
}
102
{ACAD_XDICTIONARY
360
3A2
102
}
330
2A
100
AcDbVisualStyle
  2
Flat
 70
     0
 71
     2
 72
     1
 73
     1
 90
        2
 40
-0.6
 41
30.0
 62
     5
 63
     7
421
 16777215
 74
     0
 91
        4
 64
     7
 65
   257
 75
     1
175
     1
 42
1.0
 92
        8
 66
     7
 43
1.0
 76
     1
 77
     6
 78
     2
 67
     7
 79
     5
170
     0
171
     0
290
     0
174
     0
 93
       13
 44
0.0
173
     0
291
     1
 45
0.0
1001
ACAD
1000
AcDbSavedByObjectVersion
1070
     0
  0
VISUALSTYLE
  5
2C
102
{ACAD_REACTORS
330
2A
102
}
102
{ACAD_XDICTIONARY
360
3A4
102
}
330
2A
100
AcDbVisualStyle
  2
FlatWithEdges
 70
     1
 71
     2
 72
     1
 73
     1
 90
        2
 40
-0.6
 41
30.0
 62
     5
 63
     7
421
 16777215
 74
     1
 91
        4
 64
     7
 65
   257
 75
     1
175
     1
 42
1.0
 92
        0
 66
   257
 43
1.0
 76
     1
 77
     6
 78
     2
 67
     7
 79
     5
170
     0
171
     0
290
     0
174
     0
 93
       13
 44
0.0
173
     0
291
     1
 45
0.0
1001
ACAD
1000
AcDbSavedByObjectVersion
1070
     0
  0
VISUALSTYLE
  5
2D
102
{ACAD_REACTORS
330
2A
102
}
102
{ACAD_XDICTIONARY
360
3A6
102
}
330
2A
100
AcDbVisualStyle
  2
Gouraud
 70
     2
 71
     2
 72
     2
 73
     1
 90
        2
 40
-0.6
 41
30.0
 62
     5
 63
     7
421
 16777215
 74
     0
 91
        4
 64
     7
 65
   257
 75
     1
175
     1
 42
1.0
 92
        0
 66
     7
 43
1.0
 76
     1
 77
     6
 78
     2
 67
     7
 79
     5
170
     0
171
     0
290
     0
174
     0
 93
       13
 44
0.0
173
     0
291
     1
 45
0.0
1001
ACAD
1000
AcDbSavedByObjectVersion
1070
     0
  0
VISUALSTYLE
  5
2E
102
{ACAD_REACTORS
330
2A
102
}
102
{ACAD_XDICTIONARY
360
3A8
102
}
330
2A
100
AcDbVisualStyle
  2
GouraudWithEdges
 70
     3
 71
     2
 72
     2
 73
     1
 90
        2
 40
-0.6
 41
30.0
 62
     5
 63
     7
421
 16777215
 74
     1
 91
        4
 64
     7
 65
   257
 75
     1
175
     1
 42
1.0
 92
        0
 66
   257
 43
1.0
 76
     1
 77
     6
 78
     2
 67
     7
 79
     5
170
     0
171
     0
290
     0
174
     0
 93
       13
 44
0.0
173
     0
291
     1
 45
0.0
1001
ACAD
1000
AcDbSavedByObjectVersion
1070
     0
  0
VISUALSTYLE
  5
38
102
{ACAD_REACTORS
330
2A
102
}
102
{ACAD_XDICTIONARY
360
3BC
102
}
330
2A
100
AcDbVisualStyle
  2
Linepattern
 70
    14
 71
     2
 72
     2
 73
     0
 90
        0
 40
-0.6
 41
-30.0
 62
     5
 63
     7
421
 16777215
 74
     1
 91
        4
 64
     7
 65
   257
 75
     7
175
     7
 42
1.0
 92
        8
 66
     7
 43
1.0
 76
     1
 77
     6
 78
     2
 67
     7
 79
     5
170
     0
171
     0
290
     0
174
     0
 93
        1
 44
0.0
173
     0
291
     1
 45
0.0
1001
ACAD
1000
AcDbSavedByObjectVersion
1070
     0
  0
VISUALSTYLE
  5
33
102
{ACAD_REACTORS
330
2A
102
}
102
{ACAD_XDICTIONARY
360
3B2
102
}
330
2A
100
AcDbVisualStyle
  2
Realistic
 70
     8
 71
     2
 72
     2
 73
     0
 90
        0
 40
-0.6
 41
-30.0
 62
     5
 63
     7
421
 16777215
 74
     1
 91
        0
 64
     7
 65
   257
 75
     1
175
     1
 42
1.0
 92
        8
 66
     8
424
  7895160
 43
1.0
 76
     1
 77
     6
 78
     2
 67
     7
 79
     5
170
     0
171
     0
290
     0
174
     0
 93
       13
 44
0.0
173
     0
291
     0
 45
0.0
1001
ACAD
1000
AcDbSavedByObjectVersion
1070
     0
  0
VISUALSTYLE
  5
37
102
{ACAD_REACTORS
330
2A
102
}
102
{ACAD_XDICTIONARY
360
3BA
102
}
330
2A
100
AcDbVisualStyle
  2
Thicken
 70
    13
 71
     2
 72
     2
 73
     0
 90
        0
 40
-0.6
 41
-30.0
 62
     5
 63
     7
421
 16777215
 74
     1
 91
        4
 64
     7
 65
   257
 75
     1
175
     1
 42
1.0
 92
       12
 66
     7
 43
1.0
 76
     1
 77
     6
 78
     2
 67
     7
 79
     5
170
     0
171
     0
290
     0
174
     0
 93
        1
 44
0.0
173
     0
291
     1
 45
0.0
1001
ACAD
1000
AcDbSavedByObjectVersion
1070
     0
  0
DICTIONARY
  5
3C4
330
3D
100
AcDbDictionary
280
     1
281
     1
  3
ACAD_XREC_ROUNDTRIP
360
3C5
  0
DICTIONARY
  5
3C2
330
3C
100
AcDbDictionary
280
     1
281
     1
  3
ACAD_XREC_ROUNDTRIP
360
3C3
  0
DICTIONARY
  5
3C6
330
3E
100
AcDbDictionary
280
     1
281
     1
  3
ACAD_XREC_ROUNDTRIP
360
3C7
  0
DICTIONARY
  5
3AA
330
2F
100
AcDbDictionary
280
     1
281
     1
  3
ACAD_XREC_ROUNDTRIP
360
3AB
  0
DICTIONARY
  5
3AE
330
31
100
AcDbDictionary
280
     1
281
     1
  3
ACAD_XREC_ROUNDTRIP
360
3AF
  0
DICTIONARY
  5
3AC
330
30
100
AcDbDictionary
280
     1
281
     1
  3
ACAD_XREC_ROUNDTRIP
360
3AD
  0
DICTIONARY
  5
3B0
330
32
100
AcDbDictionary
280
     1
281
     1
  3
ACAD_XREC_ROUNDTRIP
360
3B1
  0
DICTIONARY
  5
3B8
330
36
100
AcDbDictionary
280
     1
281
     1
  3
ACAD_XREC_ROUNDTRIP
360
3B9
  0
DICTIONARY
  5
3C0
330
3A
100
AcDbDictionary
280
     1
281
     1
  3
ACAD_XREC_ROUNDTRIP
360
3C1
  0
DICTIONARY
  5
3B4
330
34
100
AcDbDictionary
280
     1
281
     1
  3
ACAD_XREC_ROUNDTRIP
360
3B5
  0
DICTIONARY
  5
3B6
330
35
100
AcDbDictionary
280
     1
281
     1
  3
ACAD_XREC_ROUNDTRIP
360
3B7
  0
DICTIONARY
  5
3BE
330
39
100
AcDbDictionary
280
     1
281
     1
  3
ACAD_XREC_ROUNDTRIP
360
3BF
  0
DICTIONARY
  5
3A2
330
2B
100
AcDbDictionary
280
     1
281
     1
  3
ACAD_XREC_ROUNDTRIP
360
3A3
  0
DICTIONARY
  5
3A4
330
2C
100
AcDbDictionary
280
     1
281
     1
  3
ACAD_XREC_ROUNDTRIP
360
3A5
  0
DICTIONARY
  5
3A6
330
2D
100
AcDbDictionary
280
     1
281
     1
  3
ACAD_XREC_ROUNDTRIP
360
3A7
  0
DICTIONARY
  5
3A8
330
2E
100
AcDbDictionary
280
     1
281
     1
  3
ACAD_XREC_ROUNDTRIP
360
3A9
  0
DICTIONARY
  5
3BC
330
38
100
AcDbDictionary
280
     1
281
     1
  3
ACAD_XREC_ROUNDTRIP
360
3BD
  0
DICTIONARY
  5
3B2
330
33
100
AcDbDictionary
280
     1
281
     1
  3
ACAD_XREC_ROUNDTRIP
360
3B3
  0
DICTIONARY
  5
3BA
330
37
100
AcDbDictionary
280
     1
281
     1
  3
ACAD_XREC_ROUNDTRIP
360
3BB
  0
XRECORD
  5
3C5
102
{ACAD_REACTORS
330
3C4
102
}
330
3C4
100
AcDbXrecord
280
     1
102
MATERIAL
148
0.0
149
0.0
149
0.0
 93
        0
 94
      127
282
     0
 72
     1
 77
     1
171
     1
175
     1
179
     1
273
     0
  0
XRECORD
  5
3C3
102
{ACAD_REACTORS
330
3C2
102
}
330
3C2
100
AcDbXrecord
280
     1
102
MATERIAL
148
0.0
149
0.0
149
0.0
 93
        0
 94
      127
282
     0
 72
     1
 77
     1
171
     1
175
     1
179
     1
273
     0
  0
XRECORD
  5
3C7
102
{ACAD_REACTORS
330
3C6
102
}
330
3C6
100
AcDbXrecord
280
     1
102
MATERIAL
148
0.0
149
0.0
149
0.0
 93
        0
 94
      127
282
     0
 72
     1
 77
     1
171
     1
175
     1
179
     1
273
     0
  0
XRECORD
  5
3AB
102
{ACAD_REACTORS
330
3AA
102
}
330
3AA
100
AcDbXrecord
280
     1
102
RTVSPropertyOp0
 70
     1
102
RTVSPropertyOp1
 70
     1
102
RTVSPropertyOp2
 70
     1
102
RTVSPropertyOp3
 70
     1
102
RTVSPropertyOp4
 70
     1
102
RTVSPropertyOp5
 70
     1
102
RTVSPropertyOp6
 70
     1
102
RTVSPropertyOp7
 70
     1
102
RTVSPropertyOp8
 70
     1
102
RTVSPropertyOp9
 70
     1
102
RTVSPropertyOp10
 70
     1
102
RTVSPropertyOp11
 70
     1
102
RTVSPropertyOp12
 70
     1
102
RTVSPropertyOp13
 70
     1
102
RTVSPropertyOp14
 70
     1
102
RTVSPropertyOp15
 70
     1
102
RTVSPropertyOp16
 70
     1
102
RTVSPropertyOp17
 70
     1
102
RTVSPropertyOp18
 70
     1
102
RTVSPropertyOp19
 70
     1
102
RTVSPropertyOp20
 70
     1
102
RTVSPropertyOp21
 70
     1
102
RTVSPropertyOp22
 70
     1
102
RTVSPropertyOp23
 70
     1
102
RTVSPropertyOp24
 70
     1
102
RTVSPropertyOp25
 70
     1
102
RTVSPropertyOp26
 70
     1
102
RTVSPropertyOp27
 70
     1
102
RTVSPropertyOp28
 70
     1
102
RTVSPropertyOp29
 70
     1
102
RTVSPropertyOp30
 70
     1
102
RTVSPropertyOp31
 70
     1
102
RTVSPropertyOp32
 70
     1
  0
XRECORD
  5
3AF
102
{ACAD_REACTORS
330
3AE
102
}
330
3AE
100
AcDbXrecord
280
     1
102
RTVSPropertyOp0
 70
     1
102
RTVSPropertyOp1
 70
     1
102
RTVSPropertyOp2
 70
     1
102
RTVSPropertyOp3
 70
     1
102
RTVSPropertyOp4
 70
     1
102
RTVSPropertyOp5
 70
     1
102
RTVSPropertyOp6
 70
     1
102
RTVSPropertyOp7
 70
     1
102
RTVSPropertyOp8
 70
     1
102
RTVSPropertyOp9
 70
     1
102
RTVSPropertyOp10
 70
     1
102
RTVSPropertyOp11
 70
     1
102
RTVSPropertyOp12
 70
     1
102
RTVSPropertyOp13
 70
     1
102
RTVSPropertyOp14
 70
     1
102
RTVSPropertyOp15
 70
     1
102
RTVSPropertyOp16
 70
     1
102
RTVSPropertyOp17
 70
     1
102
RTVSPropertyOp18
 70
     1
102
RTVSPropertyOp19
 70
     1
102
RTVSPropertyOp20
 70
     1
102
RTVSPropertyOp21
 70
     1
102
RTVSPropertyOp22
 70
     1
102
RTVSPropertyOp23
 70
     1
102
RTVSPropertyOp24
 70
     1
102
RTVSPropertyOp25
 70
     1
102
RTVSPropertyOp26
 70
     1
102
RTVSPropertyOp27
 70
     1
102
RTVSPropertyOp28
 70
     1
102
RTVSPropertyOp29
 70
     1
102
RTVSPropertyOp30
 70
     1
102
RTVSPropertyOp31
 70
     1
102
RTVSPropertyOp32
 70
     1
  0
XRECORD
  5
3AD
102
{ACAD_REACTORS
330
3AC
102
}
330
3AC
100
AcDbXrecord
280
     1
102
RTVSPropertyOp0
 70
     1
102
RTVSPropertyOp1
 70
     1
102
RTVSPropertyOp2
 70
     1
102
RTVSPropertyOp3
 70
     1
102
RTVSPropertyOp4
 70
     1
102
RTVSPropertyOp5
 70
     1
102
RTVSPropertyOp6
 70
     1
102
RTVSPropertyOp7
 70
     1
102
RTVSPropertyOp8
 70
     1
102
RTVSPropertyOp9
 70
     1
102
RTVSPropertyOp10
 70
     1
102
RTVSPropertyOp11
 70
     1
102
RTVSPropertyOp12
 70
     1
102
RTVSPropertyOp13
 70
     1
102
RTVSPropertyOp14
 70
     1
102
RTVSPropertyOp15
 70
     1
102
RTVSPropertyOp16
 70
     1
102
RTVSPropertyOp17
 70
     1
102
RTVSPropertyOp18
 70
     1
102
RTVSPropertyOp19
 70
     1
102
RTVSPropertyOp20
 70
     1
102
RTVSPropertyOp21
 70
     1
102
RTVSPropertyOp22
 70
     1
102
RTVSPropertyOp23
 70
     1
102
RTVSPropertyOp24
 70
     1
102
RTVSPropertyOp25
 70
     1
102
RTVSPropertyOp26
 70
     1
102
RTVSPropertyOp27
 70
     1
102
RTVSPropertyOp28
 70
     1
102
RTVSPropertyOp29
 70
     1
102
RTVSPropertyOp30
 70
     1
102
RTVSPropertyOp31
 70
     1
102
RTVSPropertyOp32
 70
     1
  0
XRECORD
  5
3B1
102
{ACAD_REACTORS
330
3B0
102
}
330
3B0
100
AcDbXrecord
280
     1
102
RTVSPropertyOp0
 70
     1
102
RTVSPropertyOp1
 70
     1
102
RTVSPropertyOp2
 70
     1
102
RTVSPropertyOp3
 70
     1
102
RTVSPropertyOp4
 70
     1
102
RTVSPropertyOp5
 70
     1
102
RTVSPropertyOp6
 70
     1
102
RTVSPropertyOp7
 70
     1
102
RTVSPropertyOp8
 70
     1
102
RTVSPropertyOp9
 70
     1
102
RTVSPropertyOp10
 70
     1
102
RTVSPropertyOp11
 70
     1
102
RTVSPropertyOp12
 70
     1
102
RTVSPropertyOp13
 70
     1
102
RTVSPropertyOp14
 70
     1
102
RTVSPropertyOp15
 70
     1
102
RTVSPropertyOp16
 70
     1
102
RTVSPropertyOp17
 70
     1
102
RTVSPropertyOp18
 70
     1
102
RTVSPropertyOp19
 70
     1
102
RTVSPropertyOp20
 70
     1
102
RTVSPropertyOp21
 70
     1
102
RTVSPropertyOp22
 70
     1
102
RTVSPropertyOp23
 70
     1
102
RTVSPropertyOp24
 70
     1
102
RTVSPropertyOp25
 70
     1
102
RTVSPropertyOp26
 70
     1
102
RTVSPropertyOp27
 70
     1
102
RTVSPropertyOp28
 70
     1
102
RTVSPropertyOp29
 70
     1
102
RTVSPropertyOp30
 70
     1
102
RTVSPropertyOp31
 70
     1
102
RTVSPropertyOp32
 70
     1
  0
XRECORD
  5
3B9
102
{ACAD_REACTORS
330
3B8
102
}
330
3B8
100
AcDbXrecord
280
     1
102
RTVSPropertyOp0
 70
     1
102
RTVSPropertyOp1
 70
     1
102
RTVSPropertyOp2
 70
     1
102
RTVSPropertyOp3
 70
     1
102
RTVSPropertyOp4
 70
     1
102
RTVSPropertyOp5
 70
     1
102
RTVSPropertyOp6
 70
     1
102
RTVSPropertyOp7
 70
     1
102
RTVSPropertyOp8
 70
     1
102
RTVSPropertyOp9
 70
     1
102
RTVSPropertyOp10
 70
     1
102
RTVSPropertyOp11
 70
     1
102
RTVSPropertyOp12
 70
     1
102
RTVSPropertyOp13
 70
     1
102
RTVSPropertyOp14
 70
     1
102
RTVSPropertyOp15
 70
     1
102
RTVSPropertyOp16
 70
     1
102
RTVSPropertyOp17
 70
     1
102
RTVSPropertyOp18
 70
     1
102
RTVSPropertyOp19
 70
     1
102
RTVSPropertyOp20
 70
     1
102
RTVSPropertyOp21
 70
     1
102
RTVSPropertyOp22
 70
     1
102
RTVSPropertyOp23
 70
     1
102
RTVSPropertyOp24
 70
     1
102
RTVSPropertyOp25
 70
     1
102
RTVSPropertyOp26
 70
     1
102
RTVSPropertyOp27
 70
     1
102
RTVSPropertyOp28
 70
     1
102
RTVSPropertyOp29
 70
     1
102
RTVSPropertyOp30
 70
     1
102
RTVSPropertyOp31
 70
     1
102
RTVSPropertyOp32
 70
     1
  0
XRECORD
  5
3C1
102
{ACAD_REACTORS
330
3C0
102
}
330
3C0
100
AcDbXrecord
280
     1
102
RTVSPropertyOp0
 70
     1
102
RTVSPropertyOp1
 70
     1
102
RTVSPropertyOp2
 70
     1
102
RTVSPropertyOp3
 70
     1
102
RTVSPropertyOp4
 70
     1
102
RTVSPropertyOp5
 70
     1
102
RTVSPropertyOp6
 70
     1
102
RTVSPropertyOp7
 70
     1
102
RTVSPropertyOp8
 70
     1
102
RTVSPropertyOp9
 70
     1
102
RTVSPropertyOp10
 70
     1
102
RTVSPropertyOp11
 70
     1
102
RTVSPropertyOp12
 70
     1
102
RTVSPropertyOp13
 70
     1
102
RTVSPropertyOp14
 70
     1
102
RTVSPropertyOp15
 70
     1
102
RTVSPropertyOp16
 70
     1
102
RTVSPropertyOp17
 70
     1
102
RTVSPropertyOp18
 70
     1
102
RTVSPropertyOp19
 70
     1
102
RTVSPropertyOp20
 70
     1
102
RTVSPropertyOp21
 70
     1
102
RTVSPropertyOp22
 70
     1
102
RTVSPropertyOp23
 70
     1
102
RTVSPropertyOp24
 70
     1
102
RTVSPropertyOp25
 70
     1
102
RTVSPropertyOp26
 70
     1
102
RTVSPropertyOp27
 70
     1
102
RTVSPropertyOp28
 70
     1
102
RTVSPropertyOp29
 70
     1
102
RTVSPropertyOp30
 70
     1
102
RTVSPropertyOp31
 70
     1
102
RTVSPropertyOp32
 70
     1
  0
XRECORD
  5
3B5
102
{ACAD_REACTORS
330
3B4
102
}
330
3B4
100
AcDbXrecord
280
     1
102
RTVSPropertyOp0
 70
     1
102
RTVSPropertyOp1
 70
     1
102
RTVSPropertyOp2
 70
     1
102
RTVSPropertyOp3
 70
     1
102
RTVSPropertyOp4
 70
     1
102
RTVSPropertyOp5
 70
     1
102
RTVSPropertyOp6
 70
     1
102
RTVSPropertyOp7
 70
     1
102
RTVSPropertyOp8
 70
     1
102
RTVSPropertyOp9
 70
     1
102
RTVSPropertyOp10
 70
     1
102
RTVSPropertyOp11
 70
     1
102
RTVSPropertyOp12
 70
     1
102
RTVSPropertyOp13
 70
     1
102
RTVSPropertyOp14
 70
     1
102
RTVSPropertyOp15
 70
     1
102
RTVSPropertyOp16
 70
     1
102
RTVSPropertyOp17
 70
     1
102
RTVSPropertyOp18
 70
     1
102
RTVSPropertyOp19
 70
     1
102
RTVSPropertyOp20
 70
     1
102
RTVSPropertyOp21
 70
     1
102
RTVSPropertyOp22
 70
     1
102
RTVSPropertyOp23
 70
     1
102
RTVSPropertyOp24
 70
     1
102
RTVSPropertyOp25
 70
     1
102
RTVSPropertyOp26
 70
     1
102
RTVSPropertyOp27
 70
     1
102
RTVSPropertyOp28
 70
     1
102
RTVSPropertyOp29
 70
     1
102
RTVSPropertyOp30
 70
     1
102
RTVSPropertyOp31
 70
     1
102
RTVSPropertyOp32
 70
     1
  0
XRECORD
  5
3B7
102
{ACAD_REACTORS
330
3B6
102
}
330
3B6
100
AcDbXrecord
280
     1
102
RTVSPropertyOp0
 70
     1
102
RTVSPropertyOp1
 70
     1
102
RTVSPropertyOp2
 70
     1
102
RTVSPropertyOp3
 70
     1
102
RTVSPropertyOp4
 70
     1
102
RTVSPropertyOp5
 70
     1
102
RTVSPropertyOp6
 70
     1
102
RTVSPropertyOp7
 70
     1
102
RTVSPropertyOp8
 70
     1
102
RTVSPropertyOp9
 70
     1
102
RTVSPropertyOp10
 70
     1
102
RTVSPropertyOp11
 70
     1
102
RTVSPropertyOp12
 70
     1
102
RTVSPropertyOp13
 70
     1
102
RTVSPropertyOp14
 70
     1
102
RTVSPropertyOp15
 70
     1
102
RTVSPropertyOp16
 70
     1
102
RTVSPropertyOp17
 70
     1
102
RTVSPropertyOp18
 70
     1
102
RTVSPropertyOp19
 70
     1
102
RTVSPropertyOp20
 70
     1
102
RTVSPropertyOp21
 70
     1
102
RTVSPropertyOp22
 70
     1
102
RTVSPropertyOp23
 70
     1
102
RTVSPropertyOp24
 70
     1
102
RTVSPropertyOp25
 70
     1
102
RTVSPropertyOp26
 70
     1
102
RTVSPropertyOp27
 70
     1
102
RTVSPropertyOp28
 70
     1
102
RTVSPropertyOp29
 70
     1
102
RTVSPropertyOp30
 70
     1
102
RTVSPropertyOp31
 70
     1
102
RTVSPropertyOp32
 70
     1
  0
XRECORD
  5
3BF
102
{ACAD_REACTORS
330
3BE
102
}
330
3BE
100
AcDbXrecord
280
     1
102
RTVSPropertyOp0
 70
     1
102
RTVSPropertyOp1
 70
     1
102
RTVSPropertyOp2
 70
     1
102
RTVSPropertyOp3
 70
     1
102
RTVSPropertyOp4
 70
     1
102
RTVSPropertyOp5
 70
     1
102
RTVSPropertyOp6
 70
     1
102
RTVSPropertyOp7
 70
     1
102
RTVSPropertyOp8
 70
     1
102
RTVSPropertyOp9
 70
     1
102
RTVSPropertyOp10
 70
     1
102
RTVSPropertyOp11
 70
     1
102
RTVSPropertyOp12
 70
     1
102
RTVSPropertyOp13
 70
     1
102
RTVSPropertyOp14
 70
     1
102
RTVSPropertyOp15
 70
     1
102
RTVSPropertyOp16
 70
     1
102
RTVSPropertyOp17
 70
     1
102
RTVSPropertyOp18
 70
     1
102
RTVSPropertyOp19
 70
     1
102
RTVSPropertyOp20
 70
     1
102
RTVSPropertyOp21
 70
     1
102
RTVSPropertyOp22
 70
     1
102
RTVSPropertyOp23
 70
     1
102
RTVSPropertyOp24
 70
     1
102
RTVSPropertyOp25
 70
     1
102
RTVSPropertyOp26
 70
     1
102
RTVSPropertyOp27
 70
     1
102
RTVSPropertyOp28
 70
     1
102
RTVSPropertyOp29
 70
     1
102
RTVSPropertyOp30
 70
     1
102
RTVSPropertyOp31
 70
     1
102
RTVSPropertyOp32
 70
     1
  0
XRECORD
  5
3A3
102
{ACAD_REACTORS
330
3A2
102
}
330
3A2
100
AcDbXrecord
280
     1
102
RTVSPropertyOp0
 70
     1
102
RTVSPropertyOp1
 70
     1
102
RTVSPropertyOp2
 70
     1
102
RTVSPropertyOp3
 70
     1
102
RTVSPropertyOp4
 70
     1
102
RTVSPropertyOp5
 70
     1
102
RTVSPropertyOp6
 70
     1
102
RTVSPropertyOp7
 70
     1
102
RTVSPropertyOp8
 70
     1
102
RTVSPropertyOp9
 70
     1
102
RTVSPropertyOp10
 70
     1
102
RTVSPropertyOp11
 70
     1
102
RTVSPropertyOp12
 70
     1
102
RTVSPropertyOp13
 70
     1
102
RTVSPropertyOp14
 70
     1
102
RTVSPropertyOp15
 70
     1
102
RTVSPropertyOp16
 70
     1
102
RTVSPropertyOp17
 70
     1
102
RTVSPropertyOp18
 70
     1
102
RTVSPropertyOp19
 70
     1
102
RTVSPropertyOp20
 70
     1
102
RTVSPropertyOp21
 70
     1
102
RTVSPropertyOp22
 70
     1
102
RTVSPropertyOp23
 70
     1
102
RTVSPropertyOp24
 70
     1
102
RTVSPropertyOp25
 70
     1
102
RTVSPropertyOp26
 70
     1
102
RTVSPropertyOp27
 70
     1
102
RTVSPropertyOp28
 70
     1
102
RTVSPropertyOp29
 70
     1
102
RTVSPropertyOp30
 70
     1
102
RTVSPropertyOp31
 70
     1
102
RTVSPropertyOp32
 70
     1
  0
XRECORD
  5
3A5
102
{ACAD_REACTORS
330
3A4
102
}
330
3A4
100
AcDbXrecord
280
     1
102
RTVSPropertyOp0
 70
     1
102
RTVSPropertyOp1
 70
     1
102
RTVSPropertyOp2
 70
     1
102
RTVSPropertyOp3
 70
     1
102
RTVSPropertyOp4
 70
     1
102
RTVSPropertyOp5
 70
     1
102
RTVSPropertyOp6
 70
     1
102
RTVSPropertyOp7
 70
     1
102
RTVSPropertyOp8
 70
     1
102
RTVSPropertyOp9
 70
     1
102
RTVSPropertyOp10
 70
     1
102
RTVSPropertyOp11
 70
     1
102
RTVSPropertyOp12
 70
     1
102
RTVSPropertyOp13
 70
     1
102
RTVSPropertyOp14
 70
     1
102
RTVSPropertyOp15
 70
     1
102
RTVSPropertyOp16
 70
     1
102
RTVSPropertyOp17
 70
     1
102
RTVSPropertyOp18
 70
     1
102
RTVSPropertyOp19
 70
     1
102
RTVSPropertyOp20
 70
     1
102
RTVSPropertyOp21
 70
     1
102
RTVSPropertyOp22
 70
     1
102
RTVSPropertyOp23
 70
     1
102
RTVSPropertyOp24
 70
     1
102
RTVSPropertyOp25
 70
     1
102
RTVSPropertyOp26
 70
     1
102
RTVSPropertyOp27
 70
     1
102
RTVSPropertyOp28
 70
     1
102
RTVSPropertyOp29
 70
     1
102
RTVSPropertyOp30
 70
     1
102
RTVSPropertyOp31
 70
     1
102
RTVSPropertyOp32
 70
     1
  0
XRECORD
  5
3A7
102
{ACAD_REACTORS
330
3A6
102
}
330
3A6
100
AcDbXrecord
280
     1
102
RTVSPropertyOp0
 70
     1
102
RTVSPropertyOp1
 70
     1
102
RTVSPropertyOp2
 70
     1
102
RTVSPropertyOp3
 70
     1
102
RTVSPropertyOp4
 70
     1
102
RTVSPropertyOp5
 70
     1
102
RTVSPropertyOp6
 70
     1
102
RTVSPropertyOp7
 70
     1
102
RTVSPropertyOp8
 70
     1
102
RTVSPropertyOp9
 70
     1
102
RTVSPropertyOp10
 70
     1
102
RTVSPropertyOp11
 70
     1
102
RTVSPropertyOp12
 70
     1
102
RTVSPropertyOp13
 70
     1
102
RTVSPropertyOp14
 70
     1
102
RTVSPropertyOp15
 70
     1
102
RTVSPropertyOp16
 70
     1
102
RTVSPropertyOp17
 70
     1
102
RTVSPropertyOp18
 70
     1
102
RTVSPropertyOp19
 70
     1
102
RTVSPropertyOp20
 70
     1
102
RTVSPropertyOp21
 70
     1
102
RTVSPropertyOp22
 70
     1
102
RTVSPropertyOp23
 70
     1
102
RTVSPropertyOp24
 70
     1
102
RTVSPropertyOp25
 70
     1
102
RTVSPropertyOp26
 70
     1
102
RTVSPropertyOp27
 70
     1
102
RTVSPropertyOp28
 70
     1
102
RTVSPropertyOp29
 70
     1
102
RTVSPropertyOp30
 70
     1
102
RTVSPropertyOp31
 70
     1
102
RTVSPropertyOp32
 70
     1
  0
XRECORD
  5
3A9
102
{ACAD_REACTORS
330
3A8
102
}
330
3A8
100
AcDbXrecord
280
     1
102
RTVSPropertyOp0
 70
     1
102
RTVSPropertyOp1
 70
     1
102
RTVSPropertyOp2
 70
     1
102
RTVSPropertyOp3
 70
     1
102
RTVSPropertyOp4
 70
     1
102
RTVSPropertyOp5
 70
     1
102
RTVSPropertyOp6
 70
     1
102
RTVSPropertyOp7
 70
     1
102
RTVSPropertyOp8
 70
     1
102
RTVSPropertyOp9
 70
     1
102
RTVSPropertyOp10
 70
     1
102
RTVSPropertyOp11
 70
     1
102
RTVSPropertyOp12
 70
     1
102
RTVSPropertyOp13
 70
     1
102
RTVSPropertyOp14
 70
     1
102
RTVSPropertyOp15
 70
     1
102
RTVSPropertyOp16
 70
     1
102
RTVSPropertyOp17
 70
     1
102
RTVSPropertyOp18
 70
     1
102
RTVSPropertyOp19
 70
     1
102
RTVSPropertyOp20
 70
     1
102
RTVSPropertyOp21
 70
     1
102
RTVSPropertyOp22
 70
     1
102
RTVSPropertyOp23
 70
     1
102
RTVSPropertyOp24
 70
     1
102
RTVSPropertyOp25
 70
     1
102
RTVSPropertyOp26
 70
     1
102
RTVSPropertyOp27
 70
     1
102
RTVSPropertyOp28
 70
     1
102
RTVSPropertyOp29
 70
     1
102
RTVSPropertyOp30
 70
     1
102
RTVSPropertyOp31
 70
     1
102
RTVSPropertyOp32
 70
     1
  0
XRECORD
  5
3BD
102
{ACAD_REACTORS
330
3BC
102
}
330
3BC
100
AcDbXrecord
280
     1
102
RTVSPropertyOp0
 70
     1
102
RTVSPropertyOp1
 70
     1
102
RTVSPropertyOp2
 70
     1
102
RTVSPropertyOp3
 70
     1
102
RTVSPropertyOp4
 70
     1
102
RTVSPropertyOp5
 70
     1
102
RTVSPropertyOp6
 70
     1
102
RTVSPropertyOp7
 70
     1
102
RTVSPropertyOp8
 70
     1
102
RTVSPropertyOp9
 70
     1
102
RTVSPropertyOp10
 70
     1
102
RTVSPropertyOp11
 70
     1
102
RTVSPropertyOp12
 70
     1
102
RTVSPropertyOp13
 70
     1
102
RTVSPropertyOp14
 70
     1
102
RTVSPropertyOp15
 70
     1
102
RTVSPropertyOp16
 70
     1
102
RTVSPropertyOp17
 70
     1
102
RTVSPropertyOp18
 70
     1
102
RTVSPropertyOp19
 70
     1
102
RTVSPropertyOp20
 70
     1
102
RTVSPropertyOp21
 70
     1
102
RTVSPropertyOp22
 70
     1
102
RTVSPropertyOp23
 70
     1
102
RTVSPropertyOp24
 70
     1
102
RTVSPropertyOp25
 70
     1
102
RTVSPropertyOp26
 70
     1
102
RTVSPropertyOp27
 70
     1
102
RTVSPropertyOp28
 70
     1
102
RTVSPropertyOp29
 70
     1
102
RTVSPropertyOp30
 70
     1
102
RTVSPropertyOp31
 70
     1
102
RTVSPropertyOp32
 70
     1
  0
XRECORD
  5
3B3
102
{ACAD_REACTORS
330
3B2
102
}
330
3B2
100
AcDbXrecord
280
     1
102
RTVSPropertyOp0
 70
     1
102
RTVSPropertyOp1
 70
     1
102
RTVSPropertyOp2
 70
     1
102
RTVSPropertyOp3
 70
     1
102
RTVSPropertyOp4
 70
     1
102
RTVSPropertyOp5
 70
     1
102
RTVSPropertyOp6
 70
     1
102
RTVSPropertyOp7
 70
     1
102
RTVSPropertyOp8
 70
     1
102
RTVSPropertyOp9
 70
     1
102
RTVSPropertyOp10
 70
     1
102
RTVSPropertyOp11
 70
     1
102
RTVSPropertyOp12
 70
     1
102
RTVSPropertyOp13
 70
     1
102
RTVSPropertyOp14
 70
     1
102
RTVSPropertyOp15
 70
     1
102
RTVSPropertyOp16
 70
     1
102
RTVSPropertyOp17
 70
     1
102
RTVSPropertyOp18
 70
     1
102
RTVSPropertyOp19
 70
     1
102
RTVSPropertyOp20
 70
     1
102
RTVSPropertyOp21
 70
     1
102
RTVSPropertyOp22
 70
     1
102
RTVSPropertyOp23
 70
     1
102
RTVSPropertyOp24
 70
     1
102
RTVSPropertyOp25
 70
     1
102
RTVSPropertyOp26
 70
     1
102
RTVSPropertyOp27
 70
     1
102
RTVSPropertyOp28
 70
     1
102
RTVSPropertyOp29
 70
     1
102
RTVSPropertyOp30
 70
     1
102
RTVSPropertyOp31
 70
     1
102
RTVSPropertyOp32
 70
     1
  0
XRECORD
  5
3BB
102
{ACAD_REACTORS
330
3BA
102
}
330
3BA
100
AcDbXrecord
280
     1
102
RTVSPropertyOp0
 70
     1
102
RTVSPropertyOp1
 70
     1
102
RTVSPropertyOp2
 70
     1
102
RTVSPropertyOp3
 70
     1
102
RTVSPropertyOp4
 70
     1
102
RTVSPropertyOp5
 70
     1
102
RTVSPropertyOp6
 70
     1
102
RTVSPropertyOp7
 70
     1
102
RTVSPropertyOp8
 70
     1
102
RTVSPropertyOp9
 70
     1
102
RTVSPropertyOp10
 70
     1
102
RTVSPropertyOp11
 70
     1
102
RTVSPropertyOp12
 70
     1
102
RTVSPropertyOp13
 70
     1
102
RTVSPropertyOp14
 70
     1
102
RTVSPropertyOp15
 70
     1
102
RTVSPropertyOp16
 70
     1
102
RTVSPropertyOp17
 70
     1
102
RTVSPropertyOp18
 70
     1
102
RTVSPropertyOp19
 70
     1
102
RTVSPropertyOp20
 70
     1
102
RTVSPropertyOp21
 70
     1
102
RTVSPropertyOp22
 70
     1
102
RTVSPropertyOp23
 70
     1
102
RTVSPropertyOp24
 70
     1
102
RTVSPropertyOp25
 70
     1
102
RTVSPropertyOp26
 70
     1
102
RTVSPropertyOp27
 70
     1
102
RTVSPropertyOp28
 70
     1
102
RTVSPropertyOp29
 70
     1
102
RTVSPropertyOp30
 70
     1
102
RTVSPropertyOp31
 70
     1
102
RTVSPropertyOp32
 70
     1
  0
ENDSEC
  0
EOF
