  0
SECTION
  2
HEADER
  9
$ACADVER
  1
AC1018
  9
$ACADMAINTVER
 70
     0
  9
$DWGCODEPAGE
  3
ANSI_1252
  9
$INSBASE
 10
0.0
 20
0.0
 30
0.0
  9
$EXTMIN
 10
-238.0499995522505
 20
3.66709153843533
 30
0.0
  9
$EXTMAX
 10
58.95000044774756
 20
213.6670915384354
 30
0.0
  9
$LIMMIN
 10
0.0
 20
0.0
  9
$LIMMAX
 10
12.0
 20
9.0
  9
$ORTHOMODE
 70
     0
  9
$REGENMODE
 70
     1
  9
$FILLMODE
 70
     1
  9
$QTEXTMODE
 70
     0
  9
$MIRRTEXT
 70
     1
  9
$LTSCALE
 40
1.0
  9
$ATTMODE
 70
     1
  9
$TEXTSIZE
 40
0.2
  9
$TRACEWID
 40
0.05
  9
$TEXTSTYLE
  7
Standard
  9
$CLAYER
  8
0
  9
$CELTYPE
  6
ByLayer
  9
$CECOLOR
 62
   256
  9
$CELTSCALE
 40
1.0
  9
$DISPSILH
 70
     0
  9
$DIMSCALE
 40
1.0
  9
$DIMASZ
 40
0.18
  9
$DIMEXO
 40
0.0625
  9
$DIMDLI
 40
0.38
  9
$DIMRND
 40
0.0
  9
$DIMDLE
 40
0.0
  9
$DIMEXE
 40
0.18
  9
$DIMTP
 40
0.0
  9
$DIMTM
 40
0.0
  9
$DIMTXT
 40
0.18
  9
$DIMCEN
 40
0.09
  9
$DIMTSZ
 40
0.0
  9
$DIMTOL
 70
     0
  9
$DIMLIM
 70
     0
  9
$DIMTIH
 70
     1
  9
$DIMTOH
 70
     1
  9
$DIMSE1
 70
     0
  9
$DIMSE2
 70
     0
  9
$DIMTAD
 70
     0
  9
$DIMZIN
 70
     0
  9
$DIMBLK
  1

  9
$DIMASO
 70
     1
  9
$DIMSHO
 70
     1
  9
$DIMPOST
  1

  9
$DIMAPOST
  1

  9
$DIMALT
 70
     0
  9
$DIMALTD
 70
     2
  9
$DIMALTF
 40
25.4
  9
$DIMLFAC
 40
1.0
  9
$DIMTOFL
 70
     0
  9
$DIMTVP
 40
0.0
  9
$DIMTIX
 70
     0
  9
$DIMSOXD
 70
     0
  9
$DIMSAH
 70
     0
  9
$DIMBLK1
  1

  9
$DIMBLK2
  1

  9
$DIMSTYLE
  2
Standard
  9
$DIMCLRD
 70
     0
  9
$DIMCLRE
 70
     0
  9
$DIMCLRT
 70
     0
  9
$DIMTFAC
 40
1.0
  9
$DIMGAP
 40
0.09
  9
$DIMJUST
 70
     0
  9
$DIMSD1
 70
     0
  9
$DIMSD2
 70
     0
  9
$DIMTOLJ
 70
     1
  9
$DIMTZIN
 70
     0
  9
$DIMALTZ
 70
     0
  9
$DIMALTTZ
 70
     0
  9
$DIMUPT
 70
     0
  9
$DIMDEC
 70
     4
  9
$DIMTDEC
 70
     4
  9
$DIMALTU
 70
     2
  9
$DIMALTTD
 70
     2
  9
$DIMTXSTY
  7
Standard
  9
$DIMAUNIT
 70
     0
  9
$DIMADEC
 70
     0
  9
$DIMALTRND
 40
0.0
  9
$DIMAZIN
 70
     0
  9
$DIMDSEP
 70
    46
  9
$DIMATFIT
 70
     3
  9
$DIMFRAC
 70
     0
  9
$DIMLDRBLK
  1

  9
$DIMLUNIT
 70
     2
  9
$DIMLWD
 70
    -2
  9
$DIMLWE
 70
    -2
  9
$DIMTMOVE
 70
     0
  9
$LUNITS
 70
     2
  9
$LUPREC
 70
     4
  9
$SKETCHINC
 40
0.1
  9
$FILLETRAD
 40
0.5
  9
$AUNITS
 70
     0
  9
$AUPREC
 70
     0
  9
$MENU
  1
.
  9
$ELEVATION
 40
0.0
  9
$PELEVATION
 40
0.0
  9
$THICKNESS
 40
0.0
  9
$LIMCHECK
 70
     0
  9
$CHAMFERA
 40
0.5
  9
$CHAMFERB
 40
0.5
  9
$CHAMFERC
 40
1.0
  9
$CHAMFERD
 40
0.0
  9
$SKPOLY
 70
     0
  9
$TDCREATE
 40
2458079.631302014
  9
$TDUCREATE
 40
2458079.589635347
  9
$TDUPDATE
 40
2458079.631302373
  9
$TDUUPDATE
 40
2458079.589635706
  9
$TDINDWG
 40
0.0000000116
  9
$TDUSRTIMER
 40
0.0000000116
  9
$USRTIMER
 70
     1
  9
$ANGBASE
 50
0.0
  9
$ANGDIR
 70
     0
  9
$PDMODE
 70
     0
  9
$PDSIZE
 40
0.0
  9
$PLINEWID
 40
0.0
  9
$SPLFRAME
 70
     0
  9
$SPLINETYPE
 70
     6
  9
$SPLINESEGS
 70
     8
  9
$HANDSEED
  5
2B8
  9
$SURFTAB1
 70
     6
  9
$SURFTAB2
 70
     6
  9
$SURFTYPE
 70
     6
  9
$SURFU
 70
     6
  9
$SURFV
 70
     6
  9
$UCSBASE
  2

  9
$UCSNAME
  2

  9
$UCSORG
 10
0.0
 20
0.0
 30
0.0
  9
$UCSXDIR
 10
1.0
 20
0.0
 30
0.0
  9
$UCSYDIR
 10
0.0
 20
1.0
 30
0.0
  9
$UCSORTHOREF
  2

  9
$UCSORTHOVIEW
 70
     0
  9
$UCSORGTOP
 10
0.0
 20
0.0
 30
0.0
  9
$UCSORGBOTTOM
 10
0.0
 20
0.0
 30
0.0
  9
$UCSORGLEFT
 10
0.0
 20
0.0
 30
0.0
  9
$UCSORGRIGHT
 10
0.0
 20
0.0
 30
0.0
  9
$UCSORGFRONT
 10
0.0
 20
0.0
 30
0.0
  9
$UCSORGBACK
 10
0.0
 20
0.0
 30
0.0
  9
$PUCSBASE
  2

  9
$PUCSNAME
  2

  9
$PUCSORG
 10
0.0
 20
0.0
 30
0.0
  9
$PUCSXDIR
 10
1.0
 20
0.0
 30
0.0
  9
$PUCSYDIR
 10
0.0
 20
1.0
 30
0.0
  9
$PUCSORTHOREF
  2

  9
$PUCSORTHOVIEW
 70
     0
  9
$PUCSORGTOP
 10
0.0
 20
0.0
 30
0.0
  9
$PUCSORGBOTTOM
 10
0.0
 20
0.0
 30
0.0
  9
$PUCSORGLEFT
 10
0.0
 20
0.0
 30
0.0
  9
$PUCSORGRIGHT
 10
0.0
 20
0.0
 30
0.0
  9
$PUCSORGFRONT
 10
0.0
 20
0.0
 30
0.0
  9
$PUCSORGBACK
 10
0.0
 20
0.0
 30
0.0
  9
$USERI1
 70
     0
  9
$USERI2
 70
     0
  9
$USERI3
 70
     0
  9
$USERI4
 70
     0
  9
$USERI5
 70
     0
  9
$USERR1
 40
18.1
  9
$USERR2
 40
0.0
  9
$USERR3
 40
0.0
  9
$USERR4
 40
0.0
  9
$USERR5
 40
0.0
  9
$WORLDVIEW
 70
     1
  9
$SHADEDGE
 70
     3
  9
$SHADEDIF
 70
    70
  9
$TILEMODE
 70
     1
  9
$MAXACTVP
 70
    64
  9
$PINSBASE
 10
0.0
 20
0.0
 30
0.0
  9
$PLIMCHECK
 70
     0
  9
$PEXTMIN
 10
1.00000000000000E+20
 20
1.00000000000000E+20
 30
1.00000000000000E+20
  9
$PEXTMAX
 10
-1.00000000000000E+20
 20
-1.00000000000000E+20
 30
-1.00000000000000E+20
  9
$PLIMMIN
 10
0.0
 20
0.0
  9
$PLIMMAX
 10
12.0
 20
9.0
  9
$UNITMODE
 70
     0
  9
$VISRETAIN
 70
     1
  9
$PLINEGEN
 70
     0
  9
$PSLTSCALE
 70
     1
  9
$TREEDEPTH
 70
  3020
  9
$CMLSTYLE
  2
Standard
  9
$CMLJUST
 70
     0
  9
$CMLSCALE
 40
1.0
  9
$PROXYGRAPHICS
 70
     1
  9
$MEASUREMENT
 70
     1
  9
$CELWEIGHT
370
    -1
  9
$ENDCAPS
280
     0
  9
$JOINSTYLE
280
     0
  9
$LWDISPLAY
290
     0
  9
$INSUNITS
 70
     4
  9
$HYPERLINKBASE
  1

  9
$STYLESHEET
  1

  9
$XEDIT
290
     1
  9
$CEPSNTYPE
380
     0
  9
$PSTYLEMODE
290
     1
  9
$FINGERPRINTGUID
  2
{7B06A706-35BC-4F36-870A-427C6344DCB5}
  9
$VERSIONGUID
  2
{FAEB1C32-E019-11D5-929B-00C0DF256EC4}
  9
$EXTNAMES
290
     1
  9
$PSVPSCALE
 40
0.0
  9
$OLESTARTUP
290
     0
  9
$SORTENTS
280
   127
  9
$INDEXCTL
280
     0
  9
$HIDETEXT
280
     1
  9
$XCLIPFRAME
290
     0
  9
$HALOGAP
280
     0
  9
$OBSCOLOR
 70
   257
  9
$OBSLTYPE
280
     0
  9
$INTERSECTIONDISPLAY
280
     0
  9
$INTERSECTIONCOLOR
 70
   257
  9
$DIMASSOC
280
     2
  9
$PROJECTNAME
  1

  0
ENDSEC
  0
SECTION
  2
CLASSES
  0
CLASS
  1
ACDBDICTIONARYWDFLT
  2
AcDbDictionaryWithDefault
  3
ObjectDBX Classes
 90
        0
 91
        4
280
     0
281
     0
  0
CLASS
  1
VISUALSTYLE
  2
AcDbVisualStyle
  3
ObjectDBX Classes
 90
     4095
 91
        4
280
     0
281
     0
  0
CLASS
  1
MATERIAL
  2
AcDbMaterial
  3
ObjectDBX Classes
 90
     1153
 91
        4
280
     0
281
     0
  0
ENDSEC
  0
SECTION
  2
TABLES
  0
TABLE
  2
VPORT
  5
8
330
0
100
AcDbSymbolTable
 70
     1
  0
VPORT
  5
29
330
8
100
AcDbSymbolTableRecord
100
AcDbViewportTableRecord
  2
*Active
 70
     0
 10
0.0
 20
0.0
 11
1.0
 21
1.0
 12
-89.54999955225148
 22
108.6670915384354
 13
0.0
 23
0.0
 14
0.5
 24
0.5
 15
0.5
 25
0.5
 16
0.0
 26
0.0
 36
1.0
 17
0.0
 27
0.0
 37
0.0
 40
231.0000000000001
 41
1.60267857142857
 42
50.0
 43
0.0
 44
0.0
 50
0.0
 51
0.0
 71
     0
 72
   100
 73
     1
 74
     3
 75
     0
 76
     0
 77
     0
 78
     0
281
     0
 65
     1
110
0.0
120
0.0
130
0.0
111
1.0
121
0.0
131
0.0
112
0.0
122
1.0
132
0.0
 79
     0
146
0.0
  0
ENDTAB
  0
TABLE
  2
LTYPE
  5
5
330
0
100
AcDbSymbolTable
 70
     8
  0
LTYPE
  5
14
330
5
100
AcDbSymbolTableRecord
100
AcDbLinetypeTableRecord
  2
ByBlock
 70
     0
  3

 72
    65
 73
     0
 40
0.0
  0
LTYPE
  5
15
330
5
100
AcDbSymbolTableRecord
100
AcDbLinetypeTableRecord
  2
ByLayer
 70
     0
  3

 72
    65
 73
     0
 40
0.0
  0
LTYPE
  5
16
330
5
100
AcDbSymbolTableRecord
100
AcDbLinetypeTableRecord
  2
Continuous
 70
     0
  3
Solid line
 72
    65
 73
     0
 40
0.0
  0
LTYPE
  5
3F
330
5
100
AcDbSymbolTableRecord
100
AcDbLinetypeTableRecord
  2
DASHED
 70
     0
  3
Dashed
 72
    65
 73
     2
 40
15.0
 49
7.0
 74
     0
 49
-8.0
 74
     0
  0
LTYPE
  5
40
330
5
100
AcDbSymbolTableRecord
100
AcDbLinetypeTableRecord
  2
DOTTED
 70
     0
  3
Dotted
 72
    65
 73
     2
 40
1.0
 49
0.0
 74
     0
 49
-1.0
 74
     0
  0
LTYPE
  5
41
330
5
100
AcDbSymbolTableRecord
100
AcDbLinetypeTableRecord
  2
DOT_CENTER
 70
     0
  3
Dot_Center
 72
    65
 73
     4
 40
14.0
 49
12.0
 74
     0
 49
-1.0
 74
     0
 49
0.0
 74
     0
 49
-1.0
 74
     0
  0
LTYPE
  5
42
330
5
100
AcDbSymbolTableRecord
100
AcDbLinetypeTableRecord
  2
LONG_DASHED
 70
     0
  3
Long_Dashed
 72
    65
 73
     2
 40
15.0
 49
10.0
 74
     0
 49
-5.0
 74
     0
  0
LTYPE
  5
43
330
5
100
AcDbSymbolTableRecord
100
AcDbLinetypeTableRecord
  2
DASH_CENTER
 70
     0
  3
Dash_Center
 72
    65
 73
     4
 40
14.0
 49
11.0
 74
     0
 49
-1.0
 74
     0
 49
1.0
 74
     0
 49
-1.0
 74
     0
  0
LTYPE
  5
44
330
5
100
AcDbSymbolTableRecord
100
AcDbLinetypeTableRecord
  2
PHANTOM
 70
     0
  3
Phantom
 72
    65
 73
     6
 40
13.0
 49
10.0
 74
     0
 49
-1.0
 74
     0
 49
0.0
 74
     0
 49
-1.0
 74
     0
 49
0.0
 74
     0
 49
-1.0
 74
     0
  0
LTYPE
  5
45
330
5
100
AcDbSymbolTableRecord
100
AcDbLinetypeTableRecord
  2
CENTER_DASH_DASH
 70
     0
  3
Center_Dash_Dash
 72
    65
 73
     6
 40
14.0
 49
9.0
 74
     0
 49
-1.0
 74
     0
 49
1.0
 74
     0
 49
-1.0
 74
     0
 49
1.0
 74
     0
 49
-1.0
 74
     0
  0
ENDTAB
  0
TABLE
  2
LAYER
  5
2
330
0
100
AcDbSymbolTable
 70
     2
  0
LAYER
  5
10
330
2
100
AcDbSymbolTableRecord
100
AcDbLayerTableRecord
  2
0
 70
     0
 62
     7
  6
Continuous
370
    -3
390
F
  0
LAYER
  5
46
330
2
100
AcDbSymbolTableRecord
100
AcDbLayerTableRecord
  2
1
 70
     0
 62
     7
  6
Continuous
370
    -3
390
F
  0
ENDTAB
  0
TABLE
  2
STYLE
  5
3
330
0
100
AcDbSymbolTable
 70
     5
  0
STYLE
  5
11
330
3
100
AcDbSymbolTableRecord
100
AcDbTextStyleTableRecord
  2
Standard
 70
     0
 40
0.0
 41
1.0
 50
0.0
 71
     0
 42
0.2
  3
txt
  4

  0
STYLE
  5
BA
330
3
100
AcDbSymbolTableRecord
100
AcDbTextStyleTableRecord
  2
CONVERTER_11
 70
     0
 40
0.0
 41
0.9
 50
0.0
 71
     0
 42
0.2
  3
txt.shx
  4

  0
STYLE
  5
253
330
3
100
AcDbSymbolTableRecord
100
AcDbTextStyleTableRecord
  2
CONVERTER_12
 70
     0
 40
0.0
 41
0.81
 50
0.0
 71
     0
 42
0.2
  3
txt.shx
  4

  0
STYLE
  5
269
330
3
100
AcDbSymbolTableRecord
100
AcDbTextStyleTableRecord
  2
CONVERTER_13
 70
     0
 40
0.0
 41
0.72
 50
0.0
 71
     0
 42
0.2
  3
txt.shx
  4

  0
STYLE
  5
26C
330
3
100
AcDbSymbolTableRecord
100
AcDbTextStyleTableRecord
  2
CONVERTER_14
 70
     0
 40
0.0
 41
0.855
 50
0.0
 71
     0
 42
0.2
  3
txt.shx
  4

  0
ENDTAB
  0
TABLE
  2
VIEW
  5
6
330
0
100
AcDbSymbolTable
 70
     0
  0
ENDTAB
  0
TABLE
  2
UCS
  5
7
330
0
100
AcDbSymbolTable
 70
     0
  0
ENDTAB
  0
TABLE
  2
APPID
  5
9
330
0
100
AcDbSymbolTable
 70
     1
  0
APPID
  5
12
330
9
100
AcDbSymbolTableRecord
100
AcDbRegAppTableRecord
  2
ACAD
 70
     0
  0
ENDTAB
  0
TABLE
  2
DIMSTYLE
  5
A
330
0
100
AcDbSymbolTable
 70
     4
100
AcDbDimStyleTable
  0
DIMSTYLE
105
27
330
A
100
AcDbSymbolTableRecord
100
AcDbDimStyleTableRecord
  2
Standard
 70
     0
178
     0
340
11
  0
DIMSTYLE
105
103
102
{ACAD_REACTORS
330
104
102
}
330
A
100
AcDbSymbolTableRecord
100
AcDbDimStyleTableRecord
  2
ME10_DIM_10
 70
     0
 41
3.5
 42
0.0
 44
1.5
 73
     0
 74
     0
 77
     1
 78
     8
140
3.5
147
1.5
172
     1
173
     1
174
     1
175
     1
176
     2
177
     2
271
     1
178
     3
271
     1
340
BA
  0
DIMSTYLE
105
14A
102
{ACAD_REACTORS
330
14B
102
}
330
A
100
AcDbSymbolTableRecord
100
AcDbDimStyleTableRecord
  2
ME10_DIM_11
 70
     0
 41
3.5
 42
0.0
 44
1.5
 73
     0
 74
     0
 77
     1
 78
     8
140
3.5
147
1.5
172
     1
173
     1
174
     1
175
     1
176
     2
177
     2
271
     1
178
     3
271
     1
340
BA
  0
DIMSTYLE
105
155
102
{ACAD_REACTORS
330
156
102
}
330
A
100
AcDbSymbolTableRecord
100
AcDbDimStyleTableRecord
  2
ME10_DIM_12
 70
     0
 41
3.5
 42
0.0
 44
1.5
 73
     0
 74
     0
 77
     1
 78
     8
140
3.5
147
1.5
172
     1
173
     1
174
     1
175
     1
176
     2
177
     2
271
     1
178
     3
271
     1
340
BA
  0
ENDTAB
  0
TABLE
  2
BLOCK_RECORD
  5
1
330
0
100
AcDbSymbolTable
 70
    20
  0
BLOCK_RECORD
  5
1F
330
1
100
AcDbSymbolTableRecord
100
AcDbBlockTableRecord
  2
*Model_Space
340
22
  0
BLOCK_RECORD
  5
1B
330
1
100
AcDbSymbolTableRecord
100
AcDbBlockTableRecord
  2
*Paper_Space
340
1E
  0
BLOCK_RECORD
  5
23
330
1
100
AcDbSymbolTableRecord
100
AcDbBlockTableRecord
  2
*Paper_Space0
340
26
  0
BLOCK_RECORD
  5
47
330
1
100
AcDbSymbolTableRecord
100
AcDbBlockTableRecord
  2
EB_2_25_UKH-select__1
340
0
102
{BLKREFS
331
4B
102
}
  0
BLOCK_RECORD
  5
4A
330
1
100
AcDbSymbolTableRecord
100
AcDbBlockTableRecord
  2
Allg1
340
0
102
{BLKREFS
331
7D
102
}
  0
BLOCK_RECORD
  5
4E
330
1
100
AcDbSymbolTableRecord
100
AcDbBlockTableRecord
  2
EB_2_25_UKH-select__2
340
0
102
{BLKREFS
331
52
102
}
  0
BLOCK_RECORD
  5
51
330
1
100
AcDbSymbolTableRecord
100
AcDbBlockTableRecord
  2
Drfsicht1
340
0
102
{BLKREFS
331
7E
102
}
  0
BLOCK_RECORD
  5
55
330
1
100
AcDbSymbolTableRecord
100
AcDbBlockTableRecord
  2
EB_2_25_UKH-select__3
340
0
102
{BLKREFS
331
59
102
}
  0
BLOCK_RECORD
  5
58
330
1
100
AcDbSymbolTableRecord
100
AcDbBlockTableRecord
  2
Rckans1
340
0
102
{BLKREFS
331
7F
102
}
  0
BLOCK_RECORD
  5
5C
330
1
100
AcDbSymbolTableRecord
100
AcDbBlockTableRecord
  2
EB_2_25_UKH-select__4
340
0
102
{BLKREFS
331
60
102
}
  0
BLOCK_RECORD
  5
5F
330
1
100
AcDbSymbolTableRecord
100
AcDbBlockTableRecord
  2
SA_Links1
340
0
102
{BLKREFS
331
80
102
}
  0
BLOCK_RECORD
  5
63
330
1
100
AcDbSymbolTableRecord
100
AcDbBlockTableRecord
  2
EB_2_25_UKH-select__5
340
0
102
{BLKREFS
331
67
102
}
  0
BLOCK_RECORD
  5
66
330
1
100
AcDbSymbolTableRecord
100
AcDbBlockTableRecord
  2
SA_Rechts1
340
0
102
{BLKREFS
331
81
102
}
  0
BLOCK_RECORD
  5
6A
330
1
100
AcDbSymbolTableRecord
100
AcDbBlockTableRecord
  2
EB_2_25_UKH-select__6
340
0
102
{BLKREFS
331
6E
102
}
  0
BLOCK_RECORD
  5
6D
330
1
100
AcDbSymbolTableRecord
100
AcDbBlockTableRecord
  2
Vordans1
340
0
102
{BLKREFS
331
82
102
}
  0
BLOCK_RECORD
  5
71
330
1
100
AcDbSymbolTableRecord
100
AcDbBlockTableRecord
  2
_rahmen
340
0
102
{BLKREFS
331
78
102
}
  0
BLOCK_RECORD
  5
74
330
1
100
AcDbSymbolTableRecord
100
AcDbBlockTableRecord
  2
_punkt
340
0
102
{BLKREFS
331
79
102
}
  0
BLOCK_RECORD
  5
77
330
1
100
AcDbSymbolTableRecord
100
AcDbBlockTableRecord
  2
A4I_CS
340
0
102
{BLKREFS
331
83
102
}
  0
BLOCK_RECORD
  5
7C
330
1
100
AcDbSymbolTableRecord
100
AcDbBlockTableRecord
  2
1
340
0
102
{BLKREFS
331
86
102
}
  0
BLOCK_RECORD
  5
FA
330
1
100
AcDbSymbolTableRecord
100
AcDbBlockTableRecord
  2
*D17
340
0
  0
BLOCK_RECORD
  5
141
330
1
100
AcDbSymbolTableRecord
100
AcDbBlockTableRecord
  2
*D18
340
0
  0
BLOCK_RECORD
  5
14C
330
1
100
AcDbSymbolTableRecord
100
AcDbBlockTableRecord
  2
*D19
340
0
  0
ENDTAB
  0
ENDSEC
  0
SECTION
  2
BLOCKS
  0
BLOCK
  5
20
330
1F
100
AcDbEntity
  8
0
100
AcDbBlockBegin
  2
*Model_Space
 70
     0
 10
0.0
 20
0.0
 30
0.0
  3
*Model_Space
  1

  0
ENDBLK
  5
21
330
1F
100
AcDbEntity
  8
0
100
AcDbBlockEnd
  0
BLOCK
  5
1C
330
1B
100
AcDbEntity
 67
     1
  8
0
100
AcDbBlockBegin
  2
*Paper_Space
 70
     0
 10
0.0
 20
0.0
 30
0.0
  3
*Paper_Space
  1

  0
ENDBLK
  5
1D
330
1B
100
AcDbEntity
 67
     1
  8
0
100
AcDbBlockEnd
  0
BLOCK
  5
24
330
23
100
AcDbEntity
  8
0
100
AcDbBlockBegin
  2
*Paper_Space0
 70
     0
 10
0.0
 20
0.0
 30
0.0
  3
*Paper_Space0
  1

  0
ENDBLK
  5
25
330
23
100
AcDbEntity
  8
0
100
AcDbBlockEnd
  0
BLOCK
  5
48
330
47
100
AcDbEntity
  8
0
100
AcDbBlockBegin
  2
EB_2_25_UKH-select__1
 70
     0
 10
-22.62589074716058
 20
44.13944097353433
 30
0.0
  3
EB_2_25_UKH-select__1
  1

  0
LINE
  5
87
330
47
100
AcDbEntity
  8
0
  6
Continuous
 62
     7
100
AcDbLine
 10
-14.21012308218329
 20
65.78603981295002
 30
0.0
 11
-7.97474017493533
 21
57.75065690570207
 31
0.0
  0
LINE
  5
88
330
47
100
AcDbEntity
  8
0
  6
Continuous
 62
     7
100
AcDbLine
 10
31.92589491967564
 20
65.14055701530697
 30
0.0
 11
31.92589491967564
 21
61.6764554001692
 31
0.0
  0
LINE
  5
89
330
47
100
AcDbEntity
  8
0
  6
Continuous
 62
     7
100
AcDbLine
 10
24.17589491967564
 20
58.42886013597757
 30
0.0
 11
31.92589491967564
 21
65.14055701530697
 31
0.0
  0
LINE
  5
8A
330
47
100
AcDbEntity
  8
0
  6
Continuous
 62
     7
100
AcDbLine
 10
10.70827252695685
 20
71.26555701530697
 30
0.0
 11
31.92589491967564
 21
65.14055701530697
 31
0.0
  0
LINE
  5
8B
330
47
100
AcDbEntity
  8
0
  6
Continuous
 62
     7
100
AcDbLine
 10
2.95827252695685
 20
64.55386013597757
 30
0.0
 11
24.17589491967564
 21
58.42886013597757
 31
0.0
  0
LINE
  5
8C
330
47
100
AcDbEntity
  8
0
  6
Continuous
 62
     7
100
AcDbLine
 10
-9.54172747304311
 20
53.7285425886721
 30
0.0
 11
-9.97474017493533
 21
54.28655529056432
 31
0.0
  0
LINE
  5
8D
330
47
100
AcDbEntity
  8
0
  6
Continuous
 62
     7
100
AcDbLine
 10
11.67589491967566
 20
47.6035425886721
 30
0.0
 11
-9.54172747304311
 21
53.7285425886721
 31
0.0
  0
LINE
  5
8E
330
47
100
AcDbEntity
  8
0
  6
Continuous
 62
     7
100
AcDbLine
 10
11.67589491967566
 20
44.13944097353433
 30
0.0
 11
11.67589491967566
 21
47.6035425886721
 31
0.0
  0
LINE
  5
8F
330
47
100
AcDbEntity
  8
0
  6
Continuous
 62
     7
100
AcDbLine
 10
-9.97474017493532
 20
50.38944097353433
 30
0.0
 11
11.67589491967566
 21
44.13944097353433
 31
0.0
  0
LINE
  5
90
330
47
100
AcDbEntity
  8
0
  6
Continuous
 62
     7
100
AcDbLine
 10
-7.97474017493535
 20
56.01860609813321
 30
0.0
 11
-9.97474017493533
 21
54.28655529056432
 31
0.0
  0
LINE
  5
91
330
47
100
AcDbEntity
  8
0
  6
Continuous
 62
     7
100
AcDbLine
 10
-1.79172747304315
 20
60.44023946800149
 30
0.0
 11
19.42589491967566
 21
54.31523946800149
 31
0.0
  0
LINE
  5
92
330
47
100
AcDbEntity
  8
0
  6
Continuous
 62
     7
100
AcDbLine
 10
-7.97474017493535
 20
56.01860609813321
 30
0.0
 11
-7.97474017493533
 21
57.75065690570207
 31
0.0
  0
LINE
  5
93
330
47
100
AcDbEntity
  8
0
  6
Continuous
 62
     7
100
AcDbLine
 10
-7.97474017493533
 20
57.75065690570207
 30
0.0
 11
-10.67474017493532
 21
55.41238831548409
 31
0.0
  0
LINE
  5
94
330
47
100
AcDbEntity
  8
0
  6
Continuous
 62
     7
100
AcDbLine
 10
-9.54172747304311
 20
53.7285425886721
 30
0.0
 11
-1.79172747304315
 21
60.44023946800149
 31
0.0
  0
LINE
  5
95
330
47
100
AcDbEntity
  8
0
  6
Continuous
 62
     7
100
AcDbLine
 10
24.17589491967564
 20
54.96475852083981
 30
0.0
 11
24.17589491967564
 21
58.42886013597757
 31
0.0
  0
LINE
  5
96
330
47
100
AcDbEntity
  8
0
  6
Continuous
 62
     7
100
AcDbLine
 10
19.42589491967566
 20
50.85113785286373
 30
0.0
 11
19.42589491967566
 21
54.31523946800149
 31
0.0
  0
LINE
  5
97
330
47
100
AcDbEntity
  8
0
  6
Continuous
 62
     7
100
AcDbLine
 10
11.67589491967566
 20
44.13944097353433
 30
0.0
 11
19.42589491967566
 21
50.85113785286373
 31
0.0
  0
LINE
  5
98
330
47
100
AcDbEntity
  8
0
  6
Continuous
 62
     7
100
AcDbLine
 10
11.67589491967566
 20
47.6035425886721
 30
0.0
 11
19.42589491967566
 21
54.31523946800149
 31
0.0
  0
LINE
  5
99
330
47
100
AcDbEntity
  8
0
  6
Continuous
 62
     7
100
AcDbLine
 10
24.17589491967564
 20
54.96475852083981
 30
0.0
 11
31.92589491967564
 21
61.6764554001692
 31
0.0
  0
LINE
  5
9A
330
47
100
AcDbEntity
  8
0
  6
Continuous
 62
     7
100
AcDbLine
 10
24.17589491967564
 20
54.96475852083981
 30
0.0
 11
1.52339465652825
 21
61.50397208321292
 31
0.0
  0
LINE
  5
9B
330
47
100
AcDbEntity
  8
0
  6
Continuous
 62
     7
100
AcDbLine
 10
-6.58737019500686
 20
71.95611306993173
 30
0.0
 11
-9.06374590322872
 21
69.81150879729688
 31
0.0
  0
LINE
  5
9C
330
47
100
AcDbEntity
  8
0
  6
Continuous
 62
     7
100
AcDbLine
 10
2.03987691781676
 20
79.85895262444717
 30
0.0
 11
-14.21012308218329
 21
65.78603981295002
 31
0.0
  0
LINE
  5
9D
330
47
100
AcDbEntity
  8
0
  6
Continuous
 62
     7
100
AcDbLine
 10
1.52339465652825
 20
61.50397208321292
 30
0.0
 11
-6.78759495125475
 21
72.21413773463874
 31
0.0
  0
LINE
  5
9E
330
47
100
AcDbEntity
  8
0
  6
Continuous
 62
     7
100
AcDbLine
 10
-14.21012308218329
 20
65.78603981295002
 30
0.0
 11
-16.91012308218328
 21
63.44777122273203
 31
0.0
  0
LINE
  5
9F
330
47
100
AcDbEntity
  8
0
  6
Continuous
 62
     7
100
AcDbLine
 10
-16.91012308218328
 20
83.36635550977412
 30
0.0
 11
-16.91012308218328
 21
63.44777122273203
 31
0.0
  0
LINE
  5
A0
330
47
100
AcDbEntity
  8
0
  6
Continuous
 62
     7
100
AcDbLine
 10
-1.79172747304315
 20
60.44023946800149
 30
0.0
 11
-9.26397065947666
 21
70.0695334620039
 31
0.0
  0
LINE
  5
A1
330
47
100
AcDbEntity
  8
0
  6
Continuous
 62
     7
100
AcDbLine
 10
4.73987691781674
 20
82.19722121466513
 30
0.0
 11
2.03987691781676
 21
79.85895262444717
 31
0.0
  0
LINE
  5
A2
330
47
100
AcDbEntity
  8
0
  6
Continuous
 62
     7
100
AcDbLine
 10
-16.91012308218328
 20
83.36635550977412
 30
0.0
 11
-22.62589074716057
 21
85.01635550977414
 31
0.0
  0
LINE
  5
A3
330
47
100
AcDbEntity
  8
0
  6
Continuous
 62
     7
100
AcDbLine
 10
-10.67474017493532
 20
48.48418508520856
 30
0.0
 11
-10.67474017493532
 21
55.41238831548409
 31
0.0
  0
LINE
  5
A4
330
47
100
AcDbEntity
  8
0
  6
Continuous
 62
     7
100
AcDbLine
 10
-10.07474017493533
 20
49.00380032747923
 30
0.0
 11
-10.67474017493532
 21
48.48418508520856
 31
0.0
  0
LINE
  5
A5
330
47
100
AcDbEntity
  8
0
  6
Continuous
 62
     7
100
AcDbLine
 10
-10.07474017493533
 20
50.3028384331559
 30
0.0
 11
-10.07474017493533
 21
49.00380032747923
 31
0.0
  0
LINE
  5
A6
330
47
100
AcDbEntity
  8
0
  6
Continuous
 62
     7
100
AcDbLine
 10
-10.07474017493533
 20
50.3028384331559
 30
0.0
 11
-9.97474017493532
 21
50.38944097353433
 31
0.0
  0
LINE
  5
A7
330
47
100
AcDbEntity
  8
0
  6
Continuous
 62
     7
100
AcDbLine
 10
-9.97474017493532
 20
50.38944097353433
 30
0.0
 11
-9.97474017493533
 21
54.28655529056432
 31
0.0
  0
LINE
  5
A8
330
47
100
AcDbEntity
  8
0
  6
Continuous
 62
     7
100
AcDbLine
 10
-15.38161322287994
 20
49.84294229584467
 30
0.0
 11
-22.62589074716058
 21
59.17846260948926
 31
0.0
  0
LINE
  5
A9
330
47
100
AcDbEntity
  8
0
  6
Continuous
 62
     7
100
AcDbLine
 10
-10.67474017493532
 20
48.48418508520856
 30
0.0
 11
-15.38161322287994
 21
49.84294229584467
 31
0.0
  0
LINE
  5
AA
330
47
100
AcDbEntity
  8
0
  6
Continuous
 62
     7
100
AcDbLine
 10
-16.91012308218328
 20
63.44777122273203
 30
0.0
 11
-10.67474017493532
 21
55.41238831548409
 31
0.0
  0
LINE
  5
AB
330
47
100
AcDbEntity
  8
0
  6
Continuous
 62
     7
100
AcDbLine
 10
-22.62589074716058
 20
59.17846260948926
 30
0.0
 11
-22.62589074716057
 21
85.01635550977414
 31
0.0
  0
LINE
  5
AC
330
47
100
AcDbEntity
  8
0
  6
Continuous
 62
     7
100
AcDbLine
 10
4.73987691781674
 20
102.1158055017072
 30
0.0
 11
4.73987691781674
 21
82.19722121466513
 31
0.0
  0
LINE
  5
AD
330
47
100
AcDbEntity
  8
0
  6
Continuous
 62
     7
100
AcDbLine
 10
4.73987691781674
 20
102.1158055017072
 30
0.0
 11
-16.91012308218328
 21
83.36635550977412
 31
0.0
  0
LINE
  5
AE
330
47
100
AcDbEntity
  8
0
  6
Continuous
 62
     7
100
AcDbLine
 10
-0.97589074716055
 20
103.7658055017072
 30
0.0
 11
4.73987691781674
 21
102.1158055017072
 31
0.0
  0
LINE
  5
AF
330
47
100
AcDbEntity
  8
0
  6
Continuous
 62
     7
100
AcDbLine
 10
10.27525982506465
 20
71.82356971719919
 30
0.0
 11
10.70827252695685
 21
71.26555701530697
 31
0.0
  0
LINE
  5
B0
330
47
100
AcDbEntity
  8
0
  6
Continuous
 62
     7
100
AcDbLine
 10
10.97525982506465
 20
71.1884844210906
 30
0.0
 11
10.97525982506465
 21
74.16183830741717
 31
0.0
  0
LINE
  5
B1
330
47
100
AcDbEntity
  8
0
  6
Continuous
 62
     7
100
AcDbLine
 10
10.27525982506465
 20
71.82356971719919
 30
0.0
 11
8.27525982506465
 21
70.09151890963031
 31
0.0
  0
LINE
  5
B2
330
47
100
AcDbEntity
  8
0
  6
Continuous
 62
     7
100
AcDbLine
 10
8.27525982506465
 20
71.82356971719919
 30
0.0
 11
8.27525982506465
 21
70.09151890963031
 31
0.0
  0
LINE
  5
B3
330
47
100
AcDbEntity
  8
0
  6
Continuous
 62
     7
100
AcDbLine
 10
2.95827252695685
 20
64.55386013597757
 30
0.0
 11
10.70827252695685
 21
71.26555701530697
 31
0.0
  0
LINE
  5
B4
330
47
100
AcDbEntity
  8
0
  6
Continuous
 62
     7
100
AcDbLine
 10
8.27525982506465
 20
71.82356971719919
 30
0.0
 11
2.03987691781676
 21
79.85895262444717
 31
0.0
  0
LINE
  5
B5
330
47
100
AcDbEntity
  8
0
  6
Continuous
 62
     7
100
AcDbLine
 10
4.73987691781674
 20
82.19722121466513
 30
0.0
 11
10.97525982506465
 21
74.16183830741717
 31
0.0
  0
LINE
  5
B6
330
47
100
AcDbEntity
  8
0
  6
Continuous
 62
     7
100
AcDbLine
 10
8.27525982506465
 20
71.82356971719919
 30
0.0
 11
10.97525982506465
 21
74.16183830741717
 31
0.0
  0
LINE
  5
B7
330
47
100
AcDbEntity
  8
0
  6
Continuous
 62
     7
100
AcDbLine
 10
1.23602934052334
 20
79.16280020174055
 30
0.0
 11
8.27525982506465
 21
70.09151890963031
 31
0.0
  0
LINE
  5
B8
330
47
100
AcDbEntity
  8
0
  6
Continuous
 62
     7
100
AcDbLine
 10
2.95827252695685
 20
64.55386013597757
 30
0.0
 11
-4.51397065947666
 21
74.18315412997998
 31
0.0
  0
LINE
  5
B9
330
47
100
AcDbEntity
  8
0
  6
Continuous
 62
     7
100
AcDbLine
 10
-22.62589074716057
 20
85.01635550977414
 30
0.0
 11
-0.97589074716055
 21
103.7658055017072
 31
0.0
  0
ENDBLK
  5
49
330
47
100
AcDbEntity
  8
0
100
AcDbBlockEnd
  0
BLOCK
  5
4C
330
4A
100
AcDbEntity
  8
0
100
AcDbBlockBegin
  2
Allg1
 70
     0
 10
5.00000071750026
 20
72.99999852493295
 30
0.0
  3
Allg1
  1

  0
INSERT
  5
4B
330
4A
100
AcDbEntity
  8
0
100
AcDbBlockReference
  2
EB_2_25_UKH-select__1
 10
-22.62589074716058
 20
44.13944097353433
 30
0.0
  0
MTEXT
  5
BB
330
4A
100
AcDbEntity
  8
1
 62
     6
100
AcDbMText
 10
5.00000071750003
 20
37.23418718031553
 30
0.0
 40
5.0
 41
0.0
 71
     2
 72
     1
  1
 
  7
CONVERTER_11
 73
     1
 44
1.32052821128451
  0
ENDBLK
  5
4D
330
4A
100
AcDbEntity
  8
0
100
AcDbBlockEnd
  0
BLOCK
  5
4F
330
4E
100
AcDbEntity
  8
0
100
AcDbBlockBegin
  2
EB_2_25_UKH-select__2
 70
     0
 10
-138.3499967707988
 20
62.59999664937736
 30
0.0
  3
EB_2_25_UKH-select__2
  1

  0
LINE
  5
BC
330
4E
100
AcDbEntity
  8
0
  6
Continuous
 62
     7
100
AcDbLine
 10
-124.0499967707988
 20
79.49999664937737
 30
0.0
 11
-99.54999677079886
 21
79.49999664937737
 31
0.0
  0
LINE
  5
BD
330
4E
100
AcDbEntity
  8
0
  6
Continuous
 62
     7
100
AcDbLine
 10
-124.0499967707988
 20
79.49999664937737
 30
0.0
 11
-131.7499967707988
 21
79.49999664937737
 31
0.0
  0
LINE
  5
BE
330
4E
100
AcDbEntity
  8
0
  6
Continuous
 62
     7
100
AcDbLine
 10
-124.0499967707988
 20
88.99999664937737
 30
0.0
 11
-99.54999677079886
 21
88.99999664937737
 31
0.0
  0
LINE
  5
BF
330
4E
100
AcDbEntity
  8
0
  6
Continuous
 62
     7
100
AcDbLine
 10
-131.7499967707988
 20
67.99999664937737
 30
0.0
 11
-131.7499967707988
 21
62.59999664937736
 31
0.0
  0
LINE
  5
C0
330
4E
100
AcDbEntity
  8
0
  6
Continuous
 62
     7
100
AcDbLine
 10
-131.7499967707988
 20
105.8999966493774
 30
0.0
 11
-131.7499967707988
 21
100.4999966493774
 31
0.0
  0
LINE
  5
C1
330
4E
100
AcDbEntity
  8
0
  6
Continuous
 62
     7
100
AcDbLine
 10
-131.7499967707988
 20
100.4999966493774
 30
0.0
 11
-131.7499967707988
 21
67.99999664937737
 31
0.0
  0
LINE
  5
C2
330
4E
100
AcDbEntity
  8
0
  6
Continuous
 62
     7
100
AcDbLine
 10
-99.54999677079886
 20
63.99999664937737
 30
0.0
 11
-124.0499967707988
 21
63.99999664937737
 31
0.0
  0
LINE
  5
C3
330
4E
100
AcDbEntity
  8
0
  6
Continuous
 62
     7
100
AcDbLine
 10
-124.5499967707988
 20
100.4999966493774
 30
0.0
 11
-131.7499967707988
 21
100.4999966493774
 31
0.0
  0
LINE
  5
C4
330
4E
100
AcDbEntity
  8
0
  6
Continuous
 62
     7
100
AcDbLine
 10
-124.0499967707988
 20
88.99999664937737
 30
0.0
 11
-124.0499967707988
 21
104.4999966493774
 31
0.0
  0
LINE
  5
C5
330
4E
100
AcDbEntity
  8
0
  6
Continuous
 62
     7
100
AcDbLine
 10
-124.0499967707988
 20
88.99999664937737
 30
0.0
 11
-131.7499967707988
 21
88.99999664937737
 31
0.0
  0
LINE
  5
C6
330
4E
100
AcDbEntity
  8
0
  6
Continuous
 62
     7
100
AcDbLine
 10
-131.7499967707988
 20
62.59999664937736
 30
0.0
 11
-138.3499967707988
 21
62.59999664937736
 31
0.0
  0
LINE
  5
C7
330
4E
100
AcDbEntity
  8
0
  6
Continuous
 62
     7
100
AcDbLine
 10
-131.7499967707988
 20
62.59999664937736
 30
0.0
 11
-124.5499967707988
 21
62.59999664937736
 31
0.0
  0
LINE
  5
C8
330
4E
100
AcDbEntity
  8
0
  6
Continuous
 62
     7
100
AcDbLine
 10
-131.7499967707988
 20
67.99999664937737
 30
0.0
 11
-124.5499967707988
 21
67.99999664937737
 31
0.0
  0
LINE
  5
C9
330
4E
100
AcDbEntity
  8
0
  6
Continuous
 62
     7
100
AcDbLine
 10
-99.54999677079886
 20
63.99999664937737
 30
0.0
 11
-99.54999677079886
 21
79.49999664937737
 31
0.0
  0
LINE
  5
CA
330
4E
100
AcDbEntity
  8
0
  6
Continuous
 62
     7
100
AcDbLine
 10
-124.5499967707988
 20
63.99999664937737
 30
0.0
 11
-124.5499967707988
 21
62.59999664937736
 31
0.0
  0
LINE
  5
CB
330
4E
100
AcDbEntity
  8
0
  6
Continuous
 62
     7
100
AcDbLine
 10
-124.0499967707988
 20
63.99999664937737
 30
0.0
 11
-124.5499967707988
 21
63.99999664937737
 31
0.0
  0
LINE
  5
CC
330
4E
100
AcDbEntity
  8
0
  6
Continuous
 62
     7
100
AcDbLine
 10
-124.5499967707988
 20
104.4999966493774
 30
0.0
 11
-124.5499967707988
 21
105.8999966493774
 31
0.0
  0
LINE
  5
CD
330
4E
100
AcDbEntity
  8
0
  6
Continuous
 62
     7
100
AcDbLine
 10
-124.0499967707988
 20
63.99999664937737
 30
0.0
 11
-124.0499967707988
 21
79.49999664937737
 31
0.0
  0
LINE
  5
CE
330
4E
100
AcDbEntity
  8
0
  6
Continuous
 62
     7
100
AcDbLine
 10
-124.5499967707988
 20
100.4999966493774
 30
0.0
 11
-124.5499967707988
 21
104.4999966493774
 31
0.0
  0
LINE
  5
CF
330
4E
100
AcDbEntity
  8
0
  6
Continuous
 62
     7
100
AcDbLine
 10
-124.5499967707988
 20
67.99999664937737
 30
0.0
 11
-124.5499967707988
 21
63.99999664937737
 31
0.0
  0
LINE
  5
D0
330
4E
100
AcDbEntity
  8
0
  6
Continuous
 62
     7
100
AcDbLine
 10
-124.5499967707988
 20
104.4999966493774
 30
0.0
 11
-124.0499967707988
 21
104.4999966493774
 31
0.0
  0
LINE
  5
D1
330
4E
100
AcDbEntity
  8
0
  6
Continuous
 62
     7
100
AcDbLine
 10
-138.3499967707988
 20
105.8999966493774
 30
0.0
 11
-131.7499967707988
 21
105.8999966493774
 31
0.0
  0
LINE
  5
D2
330
4E
100
AcDbEntity
  8
0
  6
Continuous
 62
     7
100
AcDbLine
 10
-124.0499967707988
 20
104.4999966493774
 30
0.0
 11
-99.54999677079886
 21
104.4999966493774
 31
0.0
  0
LINE
  5
D3
330
4E
100
AcDbEntity
  8
0
  6
Continuous
 62
     7
100
AcDbLine
 10
-131.7499967707988
 20
105.8999966493774
 30
0.0
 11
-124.5499967707988
 21
105.8999966493774
 31
0.0
  0
LINE
  5
D4
330
4E
100
AcDbEntity
  8
0
  6
Continuous
 62
     7
100
AcDbLine
 10
-99.54999677079886
 20
88.99999664937737
 30
0.0
 11
-99.54999677079886
 21
104.4999966493774
 31
0.0
  0
LINE
  5
D5
330
4E
100
AcDbEntity
  8
0
  6
Continuous
 62
     7
100
AcDbLine
 10
-138.3499967707988
 20
62.59999664937736
 30
0.0
 11
-138.3499967707988
 21
105.8999966493774
 31
0.0
  0
ENDBLK
  5
50
330
4E
100
AcDbEntity
  8
0
100
AcDbBlockEnd
  0
BLOCK
  5
53
330
51
100
AcDbEntity
  8
0
100
AcDbBlockBegin
  2
Drfsicht1
 70
     0
 10
-118.9499989019077
 20
84.24999760305172
 30
0.0
  3
Drfsicht1
  1

  0
INSERT
  5
52
330
51
100
AcDbEntity
  8
0
100
AcDbBlockReference
  2
EB_2_25_UKH-select__2
 10
-138.3499967707988
 20
62.59999664937736
 30
0.0
  0
MTEXT
  5
D6
330
51
100
AcDbEntity
  8
1
 62
     6
100
AcDbMText
 10
-118.9499989019078
 20
57.59999703084714
 30
0.0
 40
5.0
 41
0.0
 71
     2
 72
     1
  1
 
  7
CONVERTER_11
 73
     1
 44
1.32052821128451
  0
ENDBLK
  5
54
330
51
100
AcDbEntity
  8
0
100
AcDbBlockEnd
  0
BLOCK
  5
56
330
55
100
AcDbEntity
  8
0
100
AcDbBlockBegin
  2
EB_2_25_UKH-select__3
 70
     0
 10
-16.24999815082896
 20
135.8999958965553
 30
0.0
  3
EB_2_25_UKH-select__3
  1

  0
LINE
  5
D7
330
55
100
AcDbEntity
  8
0
  6
Continuous
 62
     7
100
AcDbLine
 10
8.75000184917097
 20
137.3999958965553
 30
0.0
 11
8.75000184917097
 21
135.8999958965553
 31
0.0
  0
LINE
  5
D8
330
55
100
AcDbEntity
  8
0
  6
Continuous
 62
     7
100
AcDbLine
 10
8.75000184917097
 20
137.3999958965553
 30
0.0
 11
8.75000184917107
 21
141.8999958965553
 31
0.0
  0
LINE
  5
D9
330
55
100
AcDbEntity
  8
0
  6
Continuous
 62
     7
100
AcDbLine
 10
22.55000184917098
 20
144.264967054011
 30
0.0
 11
22.55000184917098
 21
174.0999958965553
 31
0.0
  0
LINE
  5
DA
330
55
100
AcDbEntity
  8
0
  6
Continuous
 62
     7
100
AcDbLine
 10
22.55000184917098
 20
144.264967054011
 30
0.0
 11
14.18503069171547
 21
135.8999958965554
 31
0.0
  0
LINE
  5
DB
330
55
100
AcDbEntity
  8
0
  6
Continuous
 62
     7
100
AcDbLine
 10
14.18503069171547
 20
135.8999958965554
 30
0.0
 11
8.75000184917097
 21
135.8999958965553
 31
0.0
  0
LINE
  5
DC
330
55
100
AcDbEntity
  8
0
  6
Continuous
 62
     7
100
AcDbLine
 10
22.55000184917098
 20
174.0999958965553
 30
0.0
 11
15.95000184917097
 21
174.0999958965553
 31
0.0
  0
LINE
  5
DD
330
55
100
AcDbEntity
  8
0
  6
Continuous
 62
     7
100
AcDbLine
 10
15.95000184917097
 20
174.0999958965553
 30
0.0
 11
15.95000184917097
 21
151.0999958965554
 31
0.0
  0
LINE
  5
DE
330
55
100
AcDbEntity
  8
0
  6
Continuous
 62
     7
100
AcDbLine
 10
8.75000184917107
 20
141.8999958965553
 30
0.0
 11
8.75000184917097
 21
143.8999958965553
 31
0.0
  0
LINE
  5
DF
330
55
100
AcDbEntity
  8
0
  6
Continuous
 62
     7
100
AcDbLine
 10
15.95000184917097
 20
151.0999958965554
 30
0.0
 11
8.75000184917097
 21
143.8999958965553
 31
0.0
  0
LINE
  5
E0
330
55
100
AcDbEntity
  8
0
  6
Continuous
 62
     7
100
AcDbLine
 10
8.75000184917107
 20
141.8999958965553
 30
0.0
 11
8.25000184917097
 21
141.3999958965553
 31
0.0
  0
LINE
  5
E1
330
55
100
AcDbEntity
  8
0
  6
Continuous
 62
     7
100
AcDbLine
 10
-16.24999815082896
 20
141.3999958965553
 30
0.0
 11
-16.24999815082896
 21
137.3999958965553
 31
0.0
  0
LINE
  5
E2
330
55
100
AcDbEntity
  8
0
  6
Continuous
 62
     7
100
AcDbLine
 10
8.25000184917097
 20
141.3999958965553
 30
0.0
 11
-16.24999815082896
 21
141.3999958965553
 31
0.0
  0
LINE
  5
E3
330
55
100
AcDbEntity
  8
0
  6
Continuous
 62
     7
100
AcDbLine
 10
-16.24999815082896
 20
137.3999958965553
 30
0.0
 11
8.75000184917097
 21
137.3999958965553
 31
0.0
  0
ENDBLK
  5
57
330
55
100
AcDbEntity
  8
0
100
AcDbBlockEnd
  0
BLOCK
  5
5A
330
58
100
AcDbEntity
  8
0
100
AcDbBlockBegin
  2
Rckans1
 70
     0
 10
3.15000398027998
 20
154.999998535906
 30
0.0
  3
Rckans1
  1

  0
INSERT
  5
59
330
58
100
AcDbEntity
  8
0
100
AcDbBlockReference
  2
EB_2_25_UKH-select__3
 10
-16.24999815082896
 20
135.8999958965553
 30
0.0
  0
MTEXT
  5
E4
330
58
100
AcDbEntity
  8
1
 62
     6
100
AcDbMText
 10
3.15000398028053
 20
130.8999977111621
 30
0.0
 40
5.0
 41
0.0
 71
     2
 72
     1
  1
 
  7
CONVERTER_11
 73
     1
 44
1.32052821128451
  0
ENDBLK
  5
5B
330
58
100
AcDbEntity
  8
0
100
AcDbBlockEnd
  0
BLOCK
  5
5D
330
5C
100
AcDbEntity
  8
0
100
AcDbBlockBegin
  2
EB_2_25_UKH-select__4
 70
     0
 10
-79.54999650714123
 20
135.8999958965553
 30
0.0
  3
EB_2_25_UKH-select__4
  1

  0
LINE
  5
E5
330
5C
100
AcDbEntity
  8
0
  6
Continuous
 62
     7
100
AcDbLine
 10
-78.34999650714124
 20
135.8999958965554
 30
0.0
 11
-79.54999650714123
 21
135.8999958965554
 31
0.0
  0
LINE
  5
E6
330
5C
100
AcDbEntity
  8
0
  6
Continuous
 62
     7
100
AcDbLine
 10
-37.44999650714124
 20
135.8999958965553
 30
0.0
 11
-36.24999650714123
 21
135.8999958965553
 31
0.0
  0
LINE
  5
E7
330
5C
100
AcDbEntity
  8
0
  6
Continuous
 62
     7
100
AcDbLine
 10
-37.44999650714124
 20
137.3999958965553
 30
0.0
 11
-53.14999650714124
 21
137.3999958965553
 31
0.0
  0
LINE
  5
E8
330
5C
100
AcDbEntity
  8
0
  6
Continuous
 62
     7
100
AcDbLine
 10
-78.34999650714124
 20
137.3999958965553
 30
0.0
 11
-78.34999650714124
 21
135.8999958965554
 31
0.0
  0
LINE
  5
E9
330
5C
100
AcDbEntity
  8
0
  6
Continuous
 62
     7
100
AcDbLine
 10
-78.34999650714124
 20
144.264967054011
 30
0.0
 11
-78.34999650714124
 21
144.4999958965553
 31
0.0
  0
LINE
  5
EA
330
5C
100
AcDbEntity
  8
0
  6
Continuous
 62
     7
100
AcDbLine
 10
-78.34999650714124
 20
144.264967054011
 30
0.0
 11
-78.34999650714124
 21
137.3999958965553
 31
0.0
  0
LINE
  5
EB
330
5C
100
AcDbEntity
  8
0
  6
Continuous
 62
     7
100
AcDbLine
 10
-79.54999650714123
 20
135.8999958965554
 30
0.0
 11
-79.54999650714123
 21
144.2649670540109
 31
0.0
  0
LINE
  5
EC
330
5C
100
AcDbEntity
  8
0
  6
Continuous
 62
     7
100
AcDbLine
 10
-37.44999650714124
 20
144.4999958965553
 30
0.0
 11
-78.34999650714124
 21
144.4999958965553
 31
0.0
  0
LINE
  5
ED
330
5C
100
AcDbEntity
  8
0
  6
Continuous
 62
     7
100
AcDbLine
 10
-79.54999650714123
 20
144.2649670540109
 30
0.0
 11
-78.34999650714124
 21
144.264967054011
 31
0.0
  0
LINE
  5
EE
330
5C
100
AcDbEntity
  8
0
  6
Continuous
 62
     7
100
AcDbLine
 10
-36.24999650714123
 20
144.264967054011
 30
0.0
 11
-36.24999650714123
 21
174.0999958965553
 31
0.0
  0
LINE
  5
EF
330
5C
100
AcDbEntity
  8
0
  6
Continuous
 62
     7
100
AcDbLine
 10
-36.24999650714123
 20
135.8999958965553
 30
0.0
 11
-36.24999650714123
 21
144.264967054011
 31
0.0
  0
LINE
  5
F0
330
5C
100
AcDbEntity
  8
0
  6
Continuous
 62
     7
100
AcDbLine
 10
-62.64999650714124
 20
137.3999958965553
 30
0.0
 11
-78.34999650714124
 21
137.3999958965553
 31
0.0
  0
LINE
  5
F1
330
5C
100
AcDbEntity
  8
0
  6
Continuous
 62
     7
100
AcDbLine
 10
-62.64999650714124
 20
137.3999958965553
 30
0.0
 11
-62.64999650714124
 21
144.4999958965553
 31
0.0
  0
LINE
  5
F2
330
5C
100
AcDbEntity
  8
0
  6
Continuous
 62
     7
100
AcDbLine
 10
-79.54999650714123
 20
144.2649670540109
 30
0.0
 11
-79.54999650714123
 21
174.0999958965553
 31
0.0
  0
LINE
  5
F3
330
5C
100
AcDbEntity
  8
0
  6
Continuous
 62
     7
100
AcDbLine
 10
-37.44999650714124
 20
137.3999958965553
 30
0.0
 11
-37.44999650714124
 21
135.8999958965553
 31
0.0
  0
LINE
  5
F4
330
5C
100
AcDbEntity
  8
0
  6
Continuous
 62
     7
100
AcDbLine
 10
-37.44999650714124
 20
144.264967054011
 30
0.0
 11
-37.44999650714124
 21
144.4999958965553
 31
0.0
  0
LINE
  5
F5
330
5C
100
AcDbEntity
  8
0
  6
Continuous
 62
     7
100
AcDbLine
 10
-37.44999650714124
 20
144.264967054011
 30
0.0
 11
-37.44999650714124
 21
137.3999958965553
 31
0.0
  0
LINE
  5
F6
330
5C
100
AcDbEntity
  8
0
  6
Continuous
 62
     7
100
AcDbLine
 10
-36.24999650714123
 20
144.264967054011
 30
0.0
 11
-37.44999650714124
 21
144.264967054011
 31
0.0
  0
LINE
  5
F7
330
5C
100
AcDbEntity
  8
0
  6
Continuous
 62
     7
100
AcDbLine
 10
-53.14999650714124
 20
144.4999958965553
 30
0.0
 11
-53.14999650714124
 21
137.3999958965553
 31
0.0
  0
LINE
  5
F8
330
5C
100
AcDbEntity
  8
0
  6
Continuous
 62
     7
100
AcDbLine
 10
-36.24999650714123
 20
174.0999958965553
 30
0.0
 11
-79.54999650714123
 21
174.0999958965553
 31
0.0
  0
ENDBLK
  5
5E
330
5C
100
AcDbEntity
  8
0
100
AcDbBlockEnd
  0
BLOCK
  5
61
330
5F
100
AcDbEntity
  8
0
100
AcDbBlockBegin
  2
SA_Links1
 70
     0
 10
-57.8999974608156
 20
154.999998535906
 30
0.0
  3
SA_Links1
  1

  0
INSERT
  5
60
330
5F
100
AcDbEntity
  8
0
100
AcDbBlockReference
  2
EB_2_25_UKH-select__4
 10
-79.54999650714123
 20
135.8999958965553
 30
0.0
  0
MTEXT
  5
F9
330
5F
100
AcDbEntity
  8
1
 62
     6
100
AcDbMText
 10
-57.8999974608156
 20
130.8999977111621
 30
0.0
 40
5.0
 41
0.0
 71
     2
 72
     1
  1
 
  7
CONVERTER_11
 73
     1
 44
1.32052821128451
  0
DIMENSION
  5
104
330
5F
100
AcDbEntity
  8
1
100
AcDbDimension
  2
*D17
 10
-79.54999650714123
 20
124.694624578083
 30
0.0
 11
-58.2581493319871
 21
128.119624578083
 31
0.0
 70
    32
  1
<>
 71
     5
 42
-1.0
 53
0.00013888888889
  3
ME10_DIM_10
100
AcDbAlignedDimension
 13
-36.24999650714123
 23
144.264967054011
 33
0.0
 14
-79.54999650714123
 24
144.2649670540109
 34
0.0
100
AcDbRotatedDimension
  0
ENDBLK
  5
62
330
5F
100
AcDbEntity
  8
0
100
AcDbBlockEnd
  0
BLOCK
  5
64
330
63
100
AcDbEntity
  8
0
100
AcDbBlockBegin
  2
EB_2_25_UKH-select__5
 70
     0
 10
-211.6500009536744
 20
135.8999958965553
 30
0.0
  3
EB_2_25_UKH-select__5
  1

  0
LINE
  5
105
330
63
100
AcDbEntity
  8
0
  6
Continuous
 62
     7
100
AcDbLine
 10
-185.2500009536744
 20
150.3999958965554
 30
0.0
 11
-185.2500009536744
 21
151.0999958965554
 31
0.0
  0
LINE
  5
106
330
63
100
AcDbEntity
  8
0
  6
Continuous
 62
     7
100
AcDbLine
 10
-194.7500009536744
 20
150.3999958965554
 30
0.0
 11
-194.7500009536744
 21
151.0999958965554
 31
0.0
  0
LINE
  5
107
330
63
100
AcDbEntity
  8
0
  6
Continuous
 62
     7
100
AcDbLine
 10
-194.7500009536744
 20
137.3999958965553
 30
0.0
 11
-194.7500009536744
 21
141.3999958965553
 31
0.0
  0
LINE
  5
108
330
63
100
AcDbEntity
  8
0
  6
Continuous
 62
     7
100
AcDbLine
 10
-194.7500009536744
 20
141.3999958965553
 30
0.0
 11
-194.7500009536744
 21
150.3999958965554
 31
0.0
  0
LINE
  5
109
330
63
100
AcDbEntity
  8
0
  6
Continuous
 62
     7
100
AcDbLine
 10
-185.2500009536744
 20
141.3999958965553
 30
0.0
 11
-185.2500009536744
 21
150.3999958965554
 31
0.0
  0
LINE
  5
10A
330
63
100
AcDbEntity
  8
0
  6
Continuous
 62
     7
100
AcDbLine
 10
-210.2500009536744
 20
137.3999958965553
 30
0.0
 11
-210.2500009536744
 21
141.3999958965553
 31
0.0
  0
LINE
  5
10B
330
63
100
AcDbEntity
  8
0
  6
Continuous
 62
     7
100
AcDbLine
 10
-185.2500009536744
 20
137.3999958965553
 30
0.0
 11
-185.2500009536744
 21
141.3999958965553
 31
0.0
  0
LINE
  5
10C
330
63
100
AcDbEntity
  8
0
  6
Continuous
 62
     7
100
AcDbLine
 10
-173.7500009536744
 20
150.3999958965554
 30
0.0
 11
-173.7500009536744
 21
151.0999958965554
 31
0.0
  0
LINE
  5
10D
330
63
100
AcDbEntity
  8
0
  6
Continuous
 62
     7
100
AcDbLine
 10
-173.7500009536744
 20
143.8999958965553
 30
0.0
 11
-168.3500009536744
 21
143.8999958965553
 31
0.0
  0
LINE
  5
10E
330
63
100
AcDbEntity
  8
0
  6
Continuous
 62
     7
100
AcDbLine
 10
-168.3500009536744
 20
151.0999958965554
 30
0.0
 11
-173.7500009536744
 21
151.0999958965554
 31
0.0
  0
LINE
  5
10F
330
63
100
AcDbEntity
  8
0
  6
Continuous
 62
     7
100
AcDbLine
 10
-173.7500009536744
 20
143.8999958965553
 30
0.0
 11
-173.7500009536744
 21
150.3999958965554
 31
0.0
  0
LINE
  5
110
330
63
100
AcDbEntity
  8
0
  6
Continuous
 62
     7
100
AcDbLine
 10
-169.5500009536744
 20
137.3999958965553
 30
0.0
 11
-169.5500009536744
 21
135.8999958965553
 31
0.0
  0
LINE
  5
111
330
63
100
AcDbEntity
  8
0
  6
Continuous
 62
     7
100
AcDbLine
 10
-168.3500009536744
 20
135.8999958965553
 30
0.0
 11
-169.5500009536744
 21
135.8999958965553
 31
0.0
  0
LINE
  5
112
330
63
100
AcDbEntity
  8
0
  6
Continuous
 62
     7
100
AcDbLine
 10
-169.7500009536744
 20
137.3999958965553
 30
0.0
 11
-169.5500009536744
 21
137.3999958965553
 31
0.0
  0
LINE
  5
113
330
63
100
AcDbEntity
  8
0
  6
Continuous
 62
     7
100
AcDbLine
 10
-169.7500009536744
 20
141.3999958965553
 30
0.0
 11
-169.7500009536744
 21
137.3999958965553
 31
0.0
  0
LINE
  5
114
330
63
100
AcDbEntity
  8
0
  6
Continuous
 62
     7
100
AcDbLine
 10
-168.3500009536744
 20
174.0999958965553
 30
0.0
 11
-168.3500009536744
 21
151.0999958965554
 31
0.0
  0
LINE
  5
115
330
63
100
AcDbEntity
  8
0
  6
Continuous
 62
     7
100
AcDbLine
 10
-168.3500009536744
 20
151.0999958965554
 30
0.0
 11
-168.3500009536744
 21
143.8999958965553
 31
0.0
  0
LINE
  5
116
330
63
100
AcDbEntity
  8
0
  6
Continuous
 62
     7
100
AcDbLine
 10
-168.3500009536744
 20
135.8999958965553
 30
0.0
 11
-168.3500009536744
 21
143.8999958965553
 31
0.0
  0
LINE
  5
117
330
63
100
AcDbEntity
  8
0
  6
Continuous
 62
     7
100
AcDbLine
 10
-206.2500009536744
 20
150.3999958965554
 30
0.0
 11
-194.7500009536744
 21
150.3999958965554
 31
0.0
  0
LINE
  5
118
330
63
100
AcDbEntity
  8
0
  6
Continuous
 62
     7
100
AcDbLine
 10
-185.2500009536744
 20
150.3999958965554
 30
0.0
 11
-173.7500009536744
 21
150.3999958965554
 31
0.0
  0
LINE
  5
119
330
63
100
AcDbEntity
  8
0
  6
Continuous
 62
     7
100
AcDbLine
 10
-210.4500009536744
 20
135.8999958965553
 30
0.0
 11
-211.6500009536744
 21
135.8999958965553
 31
0.0
  0
LINE
  5
11A
330
63
100
AcDbEntity
  8
0
  6
Continuous
 62
     7
100
AcDbLine
 10
-211.6500009536744
 20
174.0999958965553
 30
0.0
 11
-211.6500009536744
 21
151.0999958965553
 31
0.0
  0
LINE
  5
11B
330
63
100
AcDbEntity
  8
0
  6
Continuous
 62
     7
100
AcDbLine
 10
-211.6500009536744
 20
135.8999958965553
 30
0.0
 11
-211.6500009536744
 21
143.8999958965553
 31
0.0
  0
LINE
  5
11C
330
63
100
AcDbEntity
  8
0
  6
Continuous
 62
     7
100
AcDbLine
 10
-210.4500009536744
 20
137.3999958965553
 30
0.0
 11
-210.4500009536744
 21
135.8999958965553
 31
0.0
  0
LINE
  5
11D
330
63
100
AcDbEntity
  8
0
  6
Continuous
 62
     7
100
AcDbLine
 10
-210.2500009536744
 20
137.3999958965553
 30
0.0
 11
-194.7500009536744
 21
137.3999958965553
 31
0.0
  0
LINE
  5
11E
330
63
100
AcDbEntity
  8
0
  6
Continuous
 62
     7
100
AcDbLine
 10
-185.2500009536744
 20
137.3999958965553
 30
0.0
 11
-169.7500009536744
 21
137.3999958965553
 31
0.0
  0
LINE
  5
11F
330
63
100
AcDbEntity
  8
0
  6
Continuous
 62
     7
100
AcDbLine
 10
-210.4500009536744
 20
137.3999958965553
 30
0.0
 11
-210.2500009536744
 21
137.3999958965553
 31
0.0
  0
LINE
  5
120
330
63
100
AcDbEntity
  8
0
  6
Continuous
 62
     7
100
AcDbLine
 10
-185.2500009536744
 20
151.0999958965554
 30
0.0
 11
-194.7500009536744
 21
151.0999958965554
 31
0.0
  0
LINE
  5
121
330
63
100
AcDbEntity
  8
0
  6
Continuous
 62
     7
100
AcDbLine
 10
-194.7500009536744
 20
151.0999958965554
 30
0.0
 11
-206.2500009536744
 21
151.0999958965554
 31
0.0
  0
LINE
  5
122
330
63
100
AcDbEntity
  8
0
  6
Continuous
 62
     7
100
AcDbLine
 10
-173.7500009536744
 20
151.0999958965554
 30
0.0
 11
-185.2500009536744
 21
151.0999958965554
 31
0.0
  0
LINE
  5
123
330
63
100
AcDbEntity
  8
0
  6
Continuous
 62
     7
100
AcDbLine
 10
-185.2500009536744
 20
144.4999958965553
 30
0.0
 11
-194.7500009536744
 21
144.4999958965553
 31
0.0
  0
LINE
  5
124
330
63
100
AcDbEntity
  8
0
  6
Continuous
 62
     7
100
AcDbLine
 10
-210.2500009536744
 20
141.3999958965553
 30
0.0
 11
-210.2500009536744
 21
141.8999958965553
 31
0.0
  0
LINE
  5
125
330
63
100
AcDbEntity
  8
0
  6
Continuous
 62
     7
100
AcDbLine
 10
-169.7500009536744
 20
141.8999958965553
 30
0.0
 11
-169.7500009536744
 21
141.3999958965553
 31
0.0
  0
LINE
  5
126
330
63
100
AcDbEntity
  8
0
  6
Continuous
 62
     7
100
AcDbLine
 10
-169.7500009536744
 20
141.8999958965553
 30
0.0
 11
-173.7500009536744
 21
141.8999958965553
 31
0.0
  0
LINE
  5
127
330
63
100
AcDbEntity
  8
0
  6
Continuous
 62
     7
100
AcDbLine
 10
-173.7500009536744
 20
143.8999958965553
 30
0.0
 11
-173.7500009536744
 21
141.8999958965553
 31
0.0
  0
LINE
  5
128
330
63
100
AcDbEntity
  8
0
  6
Continuous
 62
     7
100
AcDbLine
 10
-206.2500009536744
 20
141.8999958965553
 30
0.0
 11
-206.2500009536744
 21
143.8999958965553
 31
0.0
  0
LINE
  5
129
330
63
100
AcDbEntity
  8
0
  6
Continuous
 62
     7
100
AcDbLine
 10
-206.2500009536744
 20
141.8999958965553
 30
0.0
 11
-210.2500009536744
 21
141.8999958965553
 31
0.0
  0
LINE
  5
12A
330
63
100
AcDbEntity
  8
0
  6
Continuous
 62
     7
100
AcDbLine
 10
-210.2500009536744
 20
141.3999958965553
 30
0.0
 11
-194.7500009536744
 21
141.3999958965553
 31
0.0
  0
LINE
  5
12B
330
63
100
AcDbEntity
  8
0
  6
Continuous
 62
     7
100
AcDbLine
 10
-185.2500009536744
 20
141.3999958965553
 30
0.0
 11
-169.7500009536744
 21
141.3999958965553
 31
0.0
  0
LINE
  5
12C
330
63
100
AcDbEntity
  8
0
  6
Continuous
 62
     7
100
AcDbLine
 10
-206.2500009536744
 20
151.0999958965554
 30
0.0
 11
-206.2500009536744
 21
150.3999958965554
 31
0.0
  0
LINE
  5
12D
330
63
100
AcDbEntity
  8
0
  6
Continuous
 62
     7
100
AcDbLine
 10
-206.2500009536744
 20
150.3999958965554
 30
0.0
 11
-206.2500009536744
 21
143.8999958965553
 31
0.0
  0
LINE
  5
12E
330
63
100
AcDbEntity
  8
0
  6
Continuous
 62
     7
100
AcDbLine
 10
-206.2500009536744
 20
143.8999958965553
 30
0.0
 11
-211.6500009536744
 21
143.8999958965553
 31
0.0
  0
LINE
  5
12F
330
63
100
AcDbEntity
  8
0
  6
Continuous
 62
     7
100
AcDbLine
 10
-206.2500009536744
 20
151.0999958965554
 30
0.0
 11
-211.6500009536744
 21
151.0999958965553
 31
0.0
  0
LINE
  5
130
330
63
100
AcDbEntity
  8
0
  6
Continuous
 62
     7
100
AcDbLine
 10
-211.6500009536744
 20
151.0999958965553
 30
0.0
 11
-211.6500009536744
 21
143.8999958965553
 31
0.0
  0
LINE
  5
131
330
63
100
AcDbEntity
  8
0
  6
Continuous
 62
     7
100
AcDbLine
 10
-168.3500009536744
 20
174.0999958965553
 30
0.0
 11
-211.6500009536744
 21
174.0999958965553
 31
0.0
  0
ENDBLK
  5
65
330
63
100
AcDbEntity
  8
0
100
AcDbBlockEnd
  0
BLOCK
  5
68
330
66
100
AcDbEntity
  8
0
100
AcDbBlockBegin
  2
SA_Rechts1
 70
     0
 10
-190.0
 20
154.999998535906
 30
0.0
  3
SA_Rechts1
  1

  0
INSERT
  5
67
330
66
100
AcDbEntity
  8
0
100
AcDbBlockReference
  2
EB_2_25_UKH-select__5
 10
-211.6500009536744
 20
135.8999958965553
 30
0.0
  0
MTEXT
  5
132
330
66
100
AcDbEntity
  8
1
 62
     6
100
AcDbMText
 10
-190.0
 20
130.8999977111621
 30
0.0
 40
5.0
 41
0.0
 71
     2
 72
     1
  1
 
  7
CONVERTER_11
 73
     1
 44
1.32052821128451
  0
ENDBLK
  5
69
330
66
100
AcDbEntity
  8
0
100
AcDbBlockEnd
  0
BLOCK
  5
6B
330
6A
100
AcDbEntity
  8
0
100
AcDbBlockBegin
  2
EB_2_25_UKH-select__6
 70
     0
 10
-138.3499967707989
 20
135.8999958965553
 30
0.0
  3
EB_2_25_UKH-select__6
  1

  0
LINE
  5
133
330
6A
100
AcDbEntity
  8
0
  6
Continuous
 62
     7
100
AcDbLine
 10
-124.5499967707988
 20
143.8999958965553
 30
0.0
 11
-124.5499967707988
 21
141.8999958965553
 31
0.0
  0
LINE
  5
134
330
6A
100
AcDbEntity
  8
0
  6
Continuous
 62
     7
100
AcDbLine
 10
-124.5499967707988
 20
143.8999958965553
 30
0.0
 11
-131.7499967707988
 21
151.0999958965554
 31
0.0
  0
LINE
  5
135
330
6A
100
AcDbEntity
  8
0
  6
Continuous
 62
     7
100
AcDbLine
 10
-124.0499967707988
 20
141.3999958965553
 30
0.0
 11
-124.5499967707988
 21
141.8999958965553
 31
0.0
  0
LINE
  5
136
330
6A
100
AcDbEntity
  8
0
  6
Continuous
 62
     7
100
AcDbLine
 10
-124.5499967707988
 20
137.3999958965553
 30
0.0
 11
-99.54999677079886
 21
137.3999958965553
 31
0.0
  0
LINE
  5
137
330
6A
100
AcDbEntity
  8
0
  6
Continuous
 62
     7
100
AcDbLine
 10
-138.3499967707989
 20
144.264967054011
 30
0.0
 11
-138.3499967707988
 21
174.0999958965553
 31
0.0
  0
LINE
  5
138
330
6A
100
AcDbEntity
  8
0
  6
Continuous
 62
     7
100
AcDbLine
 10
-131.7499967707988
 20
174.0999958965553
 30
0.0
 11
-131.7499967707988
 21
151.0999958965554
 31
0.0
  0
LINE
  5
139
330
6A
100
AcDbEntity
  8
0
  6
Continuous
 62
     7
100
AcDbLine
 10
-99.54999677079886
 20
141.3999958965553
 30
0.0
 11
-124.0499967707988
 21
141.3999958965553
 31
0.0
  0
LINE
  5
13A
330
6A
100
AcDbEntity
  8
0
  6
Continuous
 62
     7
100
AcDbLine
 10
-99.54999677079886
 20
137.3999958965553
 30
0.0
 11
-99.54999677079886
 21
141.3999958965553
 31
0.0
  0
LINE
  5
13B
330
6A
100
AcDbEntity
  8
0
  6
Continuous
 62
     7
100
AcDbLine
 10
-124.5499967707988
 20
137.3999958965553
 30
0.0
 11
-124.5499967707988
 21
135.8999958965553
 31
0.0
  0
LINE
  5
13C
330
6A
100
AcDbEntity
  8
0
  6
Continuous
 62
     7
100
AcDbLine
 10
-124.5499967707988
 20
137.3999958965553
 30
0.0
 11
-124.5499967707988
 21
141.8999958965553
 31
0.0
  0
LINE
  5
13D
330
6A
100
AcDbEntity
  8
0
  6
Continuous
 62
     7
100
AcDbLine
 10
-124.5499967707988
 20
135.8999958965553
 30
0.0
 11
-129.9850256133433
 21
135.8999958965554
 31
0.0
  0
LINE
  5
13E
330
6A
100
AcDbEntity
  8
0
  6
Continuous
 62
     7
100
AcDbLine
 10
-138.3499967707989
 20
144.264967054011
 30
0.0
 11
-129.9850256133433
 21
135.8999958965554
 31
0.0
  0
LINE
  5
13F
330
6A
100
AcDbEntity
  8
0
  6
Continuous
 62
     7
100
AcDbLine
 10
-131.7499967707988
 20
174.0999958965553
 30
0.0
 11
-138.3499967707988
 21
174.0999958965553
 31
0.0
  0
ENDBLK
  5
6C
330
6A
100
AcDbEntity
  8
0
100
AcDbBlockEnd
  0
BLOCK
  5
6F
330
6D
100
AcDbEntity
  8
0
100
AcDbBlockBegin
  2
Vordans1
 70
     0
 10
-118.9499989019077
 20
154.999998535906
 30
0.0
  3
Vordans1
  1

  0
INSERT
  5
6E
330
6D
100
AcDbEntity
  8
0
100
AcDbBlockReference
  2
EB_2_25_UKH-select__6
 10
-138.3499967707989
 20
135.8999958965553
 30
0.0
  0
MTEXT
  5
140
330
6D
100
AcDbEntity
  8
1
 62
     6
100
AcDbMText
 10
-118.9499989019078
 20
130.8999977111621
 30
0.0
 40
5.0
 41
0.0
 71
     2
 72
     1
  1
 
  7
CONVERTER_11
 73
     1
 44
1.32052821128451
  0
DIMENSION
  5
14B
330
6D
100
AcDbEntity
  8
1
100
AcDbDimension
  2
*D18
 10
-138.3499967707989
 20
124.694624578083
 30
0.0
 11
-117.025770477362
 21
128.119624578083
 31
0.0
 70
    32
  1
<>
 71
     5
 42
-1.0
 53
0.00013888888889
  3
ME10_DIM_11
100
AcDbAlignedDimension
 13
-99.54999677079886
 23
137.3999958965553
 33
0.0
 14
-138.3499967707989
 24
144.264967054011
 34
0.0
100
AcDbRotatedDimension
  0
DIMENSION
  5
156
330
6D
100
AcDbEntity
  8
1
100
AcDbDimension
  2
*D19
 10
-148.3499967707988
 20
135.8999958965553
 30
0.0
 11
-151.7749967707988
 21
155.986474798347
 31
0.0
 70
    32
  1
<>
 71
     5
 42
-1.0
 53
90.0
  3
ME10_DIM_12
100
AcDbAlignedDimension
 13
-138.3499967707988
 23
174.0999958965553
 33
0.0
 14
-124.5499967707988
 24
135.8999958965553
 34
0.0
 50
90.0
100
AcDbRotatedDimension
  0
ENDBLK
  5
70
330
6D
100
AcDbEntity
  8
0
100
AcDbBlockEnd
  0
BLOCK
  5
72
330
71
100
AcDbEntity
  8
0
100
AcDbBlockBegin
  2
_rahmen
 70
     0
 10
53.95000044774857
 20
3.66709153843533
 30
0.0
  3
_rahmen
  1

  0
LINE
  5
157
330
71
100
AcDbEntity
  8
1
  6
Continuous
 62
     6
100
AcDbLine
 10
-75.59480407900145
 20
34.16709153843544
 30
0.0
 11
53.95000044775026
 21
34.16709153843544
 31
0.0
  0
LINE
  5
158
330
71
100
AcDbEntity
  8
1
  6
Continuous
 62
     7
100
AcDbLine
 10
-57.39480407900143
 20
12.91709153843544
 30
0.0
 11
-39.19480407900153
 21
12.91709153843544
 31
0.0
  0
LINE
  5
159
330
71
100
AcDbEntity
  8
1
  6
Continuous
 62
     6
100
AcDbLine
 10
-57.39480407900143
 20
8.66709153843544
 30
0.0
 11
-75.59480407900145
 21
8.66709153843533
 31
0.0
  0
LINE
  5
15A
330
71
100
AcDbEntity
  8
1
  6
Continuous
 62
     7
100
AcDbLine
 10
-57.39480407900143
 20
12.91709153843544
 30
0.0
 11
-57.39480407900143
 21
8.66709153843544
 31
0.0
  0
LINE
  5
15B
330
71
100
AcDbEntity
  8
1
  6
Continuous
 62
     7
100
AcDbLine
 10
-39.19480407900153
 20
12.91709153843544
 30
0.0
 11
-39.19480407900153
 21
8.66709153843533
 31
0.0
  0
LINE
  5
15C
330
71
100
AcDbEntity
  8
1
  6
Continuous
 62
     7
100
AcDbLine
 10
-75.59480407900145
 20
12.91709153843533
 30
0.0
 11
-75.59480407900145
 21
8.66709153843533
 31
0.0
  0
LINE
  5
15D
330
71
100
AcDbEntity
  8
1
  6
Continuous
 62
     7
100
AcDbLine
 10
-75.59480407900145
 20
12.91709153843533
 30
0.0
 11
-57.39480407900143
 21
12.91709153843544
 31
0.0
  0
LINE
  5
15E
330
71
100
AcDbEntity
  8
1
  6
Continuous
 62
     2
100
AcDbLine
 10
-66.35814919243884
 20
32.29209153843536
 30
0.0
 11
-66.35814919243884
 21
27.29209153843536
 31
0.0
  0
LINE
  5
15F
330
71
100
AcDbEntity
  8
1
  6
Continuous
 62
     2
100
AcDbLine
 10
-66.35814919243884
 20
27.29209153843536
 30
0.0
 11
-71.35814919243884
 21
28.54209153843536
 31
0.0
  0
LINE
  5
160
330
71
100
AcDbEntity
  8
1
  6
Continuous
 62
     2
100
AcDbLine
 10
-71.35814919243884
 20
28.54209153843536
 30
0.0
 11
-71.35814919243884
 21
31.04209153843536
 31
0.0
  0
LINE
  5
161
330
71
100
AcDbEntity
  8
1
  6
Continuous
 62
     2
100
AcDbLine
 10
-71.35814919243884
 20
31.04209153843536
 30
0.0
 11
-66.35814919243884
 21
32.29209153843536
 31
0.0
  0
LINE
  5
162
330
71
100
AcDbEntity
  8
1
  6
Continuous
 62
     6
100
AcDbLine
 10
-198.0499995522497
 20
8.66709153843544
 30
0.0
 11
-233.0499995522496
 21
8.66709153843544
 31
0.0
  0
LINE
  5
163
330
71
100
AcDbEntity
  8
1
  6
Continuous
 62
     6
100
AcDbLine
 10
53.95000044775026
 20
25.66709153843544
 30
0.0
 11
53.95000044774986
 21
17.16709153843544
 31
0.0
  0
LINE
  5
164
330
71
100
AcDbEntity
  8
1
  6
Continuous
 62
     6
100
AcDbLine
 10
-39.19480407900153
 20
8.66709153843533
 30
0.0
 11
-39.54999955225145
 21
8.66709153843544
 31
0.0
  0
LINE
  5
165
330
71
100
AcDbEntity
  8
1
  6
Continuous
 62
     6
100
AcDbLine
 10
-191.8499995522517
 20
8.66709153843533
 30
0.0
 11
-198.0499995522497
 21
8.66709153843544
 31
0.0
  0
LINE
  5
166
330
71
100
AcDbEntity
  8
1
  6
Continuous
 62
     7
100
AcDbLine
 10
-39.19480407900153
 20
25.66709153843544
 30
0.0
 11
-39.19480407900153
 21
12.91709153843544
 31
0.0
  0
LINE
  5
167
330
71
100
AcDbEntity
  8
1
  6
Continuous
 62
     7
100
AcDbLine
 10
-75.59480407900145
 20
25.66709153843544
 30
0.0
 11
-75.59480407900145
 21
12.91709153843533
 31
0.0
  0
LINE
  5
168
330
71
100
AcDbEntity
  8
1
  6
Continuous
 62
     6
100
AcDbLine
 10
-89.54999955225142
 20
8.66709153843544
 30
0.0
 11
-139.5499995522517
 21
8.66709153843544
 31
0.0
  0
LINE
  5
169
330
71
100
AcDbEntity
  8
1
  6
Continuous
 62
     6
100
AcDbLine
 10
-191.8499995522517
 20
8.66709153843533
 30
0.0
 11
-189.5499995522514
 21
8.66709153843544
 31
0.0
  0
LINE
  5
16A
330
71
100
AcDbEntity
  8
1
  6
Continuous
 62
     6
100
AcDbLine
 10
-39.19480407900153
 20
8.66709153843533
 30
0.0
 11
10.45000044774855
 21
8.66709153843544
 31
0.0
  0
LINE
  5
16B
330
71
100
AcDbEntity
  8
1
  6
Continuous
 62
     6
100
AcDbLine
 10
53.95000044774857
 20
8.66709153843544
 30
0.0
 11
53.95000044774986
 21
17.16709153843544
 31
0.0
  0
LINE
  5
16C
330
71
100
AcDbEntity
  8
1
  6
Continuous
 62
     2
100
AcDbLine
 10
-238.0499995522505
 20
8.66709153843544
 30
0.0
 11
-238.0499995522505
 21
3.66709153843533
 31
0.0
  0
LINE
  5
16D
330
71
100
AcDbEntity
  8
1
  6
Continuous
 62
     2
100
AcDbLine
 10
-233.0499995522496
 20
8.66709153843544
 30
0.0
 11
-238.0499995522505
 21
8.66709153843544
 31
0.0
  0
LINE
  5
16E
330
71
100
AcDbEntity
  8
1
  6
Continuous
 62
     2
100
AcDbLine
 10
-233.0499995522496
 20
3.66709153843533
 30
0.0
 11
-189.5499995522514
 21
3.66709153843533
 31
0.0
  0
LINE
  5
16F
330
71
100
AcDbEntity
  8
1
  6
Continuous
 62
     2
100
AcDbLine
 10
-233.0499995522496
 20
8.66709153843544
 30
0.0
 11
-233.0499995522496
 21
3.66709153843533
 31
0.0
  0
LINE
  5
170
330
71
100
AcDbEntity
  8
1
  6
Continuous
 62
     2
100
AcDbLine
 10
10.45000044774855
 20
3.66709153843533
 30
0.0
 11
-39.54999955225145
 21
3.66709153843533
 31
0.0
  0
LINE
  5
171
330
71
100
AcDbEntity
  8
1
  6
Continuous
 62
     2
100
AcDbLine
 10
10.45000044774855
 20
3.66709153843533
 30
0.0
 11
10.45000044774855
 21
8.66709153843544
 31
0.0
  0
LINE
  5
172
330
71
100
AcDbEntity
  8
1
  6
Continuous
 62
     2
100
AcDbLine
 10
-39.54999955225145
 20
3.66709153843533
 30
0.0
 11
-39.54999955225145
 21
8.66709153843544
 31
0.0
  0
LINE
  5
173
330
71
100
AcDbEntity
  8
1
  6
Continuous
 62
     2
100
AcDbLine
 10
-89.54999955225142
 20
3.66709153843533
 30
0.0
 11
-39.54999955225145
 21
3.66709153843533
 31
0.0
  0
LINE
  5
174
330
71
100
AcDbEntity
  8
1
  6
Continuous
 62
     2
100
AcDbLine
 10
-89.54999955225142
 20
3.66709153843533
 30
0.0
 11
-89.54999955225142
 21
8.66709153843544
 31
0.0
  0
LINE
  5
175
330
71
100
AcDbEntity
  8
1
  6
Continuous
 62
     2
100
AcDbLine
 10
-139.5499995522517
 20
3.66709153843533
 30
0.0
 11
-89.54999955225142
 21
3.66709153843533
 31
0.0
  0
LINE
  5
176
330
71
100
AcDbEntity
  8
1
  6
Continuous
 62
     2
100
AcDbLine
 10
-139.5499995522517
 20
3.66709153843533
 30
0.0
 11
-139.5499995522517
 21
8.66709153843544
 31
0.0
  0
LINE
  5
177
330
71
100
AcDbEntity
  8
1
  6
Continuous
 62
     2
100
AcDbLine
 10
-189.5499995522514
 20
3.66709153843533
 30
0.0
 11
-139.5499995522517
 21
3.66709153843533
 31
0.0
  0
LINE
  5
178
330
71
100
AcDbEntity
  8
1
  6
Continuous
 62
     2
100
AcDbLine
 10
-189.5499995522514
 20
3.66709153843533
 30
0.0
 11
-189.5499995522514
 21
8.66709153843544
 31
0.0
  0
LINE
  5
179
330
71
100
AcDbEntity
  8
1
  6
Continuous
 62
     6
100
AcDbLine
 10
-233.0499995522497
 20
58.66709153843556
 30
0.0
 11
-233.0499995522496
 21
8.66709153843544
 31
0.0
  0
LINE
  5
17A
330
71
100
AcDbEntity
  8
1
  6
Continuous
 62
     2
100
AcDbLine
 10
-238.0499995522505
 20
58.66709153843556
 30
0.0
 11
-238.0499995522505
 21
8.66709153843544
 31
0.0
  0
LINE
  5
17B
330
71
100
AcDbEntity
  8
1
  6
Continuous
 62
     2
100
AcDbLine
 10
-238.0499995522505
 20
58.66709153843556
 30
0.0
 11
-233.0499995522497
 21
58.66709153843556
 31
0.0
  0
LINE
  5
17C
330
71
100
AcDbEntity
  8
1
  6
Continuous
 62
     6
100
AcDbLine
 10
-233.0499995522499
 20
108.6670915384354
 30
0.0
 11
-233.0499995522497
 21
58.66709153843556
 31
0.0
  0
LINE
  5
17D
330
71
100
AcDbEntity
  8
1
  6
Continuous
 62
     2
100
AcDbLine
 10
-238.0499995522505
 20
108.6670915384354
 30
0.0
 11
-238.0499995522505
 21
58.66709153843556
 31
0.0
  0
LINE
  5
17E
330
71
100
AcDbEntity
  8
1
  6
Continuous
 62
     2
100
AcDbLine
 10
-238.0499995522505
 20
108.6670915384354
 30
0.0
 11
-233.0499995522499
 21
108.6670915384354
 31
0.0
  0
LINE
  5
17F
330
71
100
AcDbEntity
  8
1
  6
Continuous
 62
     6
100
AcDbLine
 10
-233.0499995522505
 20
158.6670915384354
 30
0.0
 11
-233.0499995522499
 21
108.6670915384354
 31
0.0
  0
LINE
  5
180
330
71
100
AcDbEntity
  8
1
  6
Continuous
 62
     2
100
AcDbLine
 10
-238.0499995522505
 20
158.6670915384354
 30
0.0
 11
-238.0499995522505
 21
108.6670915384354
 31
0.0
  0
LINE
  5
181
330
71
100
AcDbEntity
  8
1
  6
Continuous
 62
     2
100
AcDbLine
 10
-238.0499995522505
 20
158.6670915384354
 30
0.0
 11
-233.0499995522505
 21
158.6670915384354
 31
0.0
  0
LINE
  5
182
330
71
100
AcDbEntity
  8
1
  6
Continuous
 62
     6
100
AcDbLine
 10
-233.0499995522505
 20
193.6670915384354
 30
0.0
 11
-233.0499995522505
 21
158.6670915384354
 31
0.0
  0
LINE
  5
183
330
71
100
AcDbEntity
  8
1
  6
Continuous
 62
     2
100
AcDbLine
 10
-238.0499995522505
 20
213.6670915384354
 30
0.0
 11
-238.0499995522505
 21
158.6670915384354
 31
0.0
  0
LINE
  5
184
330
71
100
AcDbEntity
  8
1
  6
Continuous
 62
     2
100
AcDbLine
 10
-238.0499995522505
 20
3.66709153843533
 30
0.0
 11
-233.0499995522496
 21
3.66709153843533
 31
0.0
  0
LINE
  5
185
330
71
100
AcDbEntity
  8
1
  6
Continuous
 62
     2
100
AcDbLine
 10
-89.54999955225142
 20
213.6670915384354
 30
0.0
 11
-89.54999955225142
 21
204.4583996937341
 31
0.0
  0
LINE
  5
186
330
71
100
AcDbEntity
  8
1
  6
Continuous
 62
     2
100
AcDbLine
 10
-89.54999955225142
 20
213.6670915384354
 30
0.0
 11
-238.0499995522505
 21
213.6670915384354
 31
0.0
  0
LINE
  5
187
330
71
100
AcDbEntity
  8
1
  6
Continuous
 62
     2
100
AcDbLine
 10
58.95000044774756
 20
8.66709153843544
 30
0.0
 11
58.95000044774756
 21
58.66709153843556
 31
0.0
  0
LINE
  5
188
330
71
100
AcDbEntity
  8
1
  6
Continuous
 62
     2
100
AcDbLine
 10
58.95000044774756
 20
158.6670915384354
 30
0.0
 11
58.95000044774756
 21
213.6670915384354
 31
0.0
  0
LINE
  5
189
330
71
100
AcDbEntity
  8
1
  6
Continuous
 62
     6
100
AcDbLine
 10
53.95000044774776
 20
158.6670915384354
 30
0.0
 11
53.95000044774756
 21
193.6670915384354
 31
0.0
  0
LINE
  5
18A
330
71
100
AcDbEntity
  8
1
  6
Continuous
 62
     2
100
AcDbLine
 10
53.95000044774776
 20
158.6670915384354
 30
0.0
 11
58.95000044774756
 21
158.6670915384354
 31
0.0
  0
LINE
  5
18B
330
71
100
AcDbEntity
  8
1
  6
Continuous
 62
     2
100
AcDbLine
 10
58.95000044774756
 20
108.6670915384354
 30
0.0
 11
58.95000044774756
 21
158.6670915384354
 31
0.0
  0
LINE
  5
18C
330
71
100
AcDbEntity
  8
1
  6
Continuous
 62
     6
100
AcDbLine
 10
53.95000044774896
 20
108.6670915384354
 30
0.0
 11
53.95000044774776
 21
158.6670915384354
 31
0.0
  0
LINE
  5
18D
330
71
100
AcDbEntity
  8
1
  6
Continuous
 62
     2
100
AcDbLine
 10
53.95000044774896
 20
108.6670915384354
 30
0.0
 11
58.95000044774756
 21
108.6670915384354
 31
0.0
  0
LINE
  5
18E
330
71
100
AcDbEntity
  8
1
  6
Continuous
 62
     2
100
AcDbLine
 10
58.95000044774756
 20
58.66709153843556
 30
0.0
 11
58.95000044774756
 21
108.6670915384354
 31
0.0
  0
LINE
  5
18F
330
71
100
AcDbEntity
  8
1
  6
Continuous
 62
     6
100
AcDbLine
 10
53.95000044774946
 20
58.66709153843556
 30
0.0
 11
53.95000044774896
 21
108.6670915384354
 31
0.0
  0
LINE
  5
190
330
71
100
AcDbEntity
  8
1
  6
Continuous
 62
     2
100
AcDbLine
 10
53.95000044774946
 20
58.66709153843556
 30
0.0
 11
58.95000044774756
 21
58.66709153843556
 31
0.0
  0
LINE
  5
191
330
71
100
AcDbEntity
  8
1
  6
Continuous
 62
     6
100
AcDbLine
 10
53.95000044774756
 20
193.6670915384354
 30
0.0
 11
-233.0499995522505
 21
193.6670915384354
 31
0.0
  0
LINE
  5
192
330
71
100
AcDbEntity
  8
1
  6
Continuous
 62
     2
100
AcDbLine
 10
58.95000044774756
 20
213.6670915384354
 30
0.0
 11
-89.54999955225142
 21
213.6670915384354
 31
0.0
  0
LINE
  5
193
330
71
100
AcDbEntity
  8
1
  6
Continuous
 62
     6
100
AcDbLine
 10
53.95000044775026
 20
25.66709153843544
 30
0.0
 11
53.95000044774946
 21
58.66709153843556
 31
0.0
  0
LINE
  5
194
330
71
100
AcDbEntity
  8
1
  6
Continuous
 62
     2
100
AcDbLine
 10
53.95000044774857
 20
3.66709153843533
 30
0.0
 11
10.45000044774855
 21
3.66709153843533
 31
0.0
  0
LINE
  5
195
330
71
100
AcDbEntity
  8
1
  6
Continuous
 62
     2
100
AcDbLine
 10
58.95000044774756
 20
3.66709153843533
 30
0.0
 11
53.95000044774857
 21
3.66709153843533
 31
0.0
  0
LINE
  5
196
330
71
100
AcDbEntity
  8
1
  6
Continuous
 62
     2
100
AcDbLine
 10
58.95000044774756
 20
3.66709153843533
 30
0.0
 11
58.95000044774756
 21
8.66709153843544
 31
0.0
  0
LINE
  5
197
330
71
100
AcDbEntity
  8
1
  6
Continuous
 62
     6
100
AcDbLine
 10
-75.59480407900145
 20
25.66709153843544
 30
0.0
 11
-39.19480407900153
 21
25.66709153843544
 31
0.0
  0
LINE
  5
198
330
71
100
AcDbEntity
  8
1
  6
Continuous
 62
     2
100
AcDbLine
 10
53.95000044774857
 20
8.66709153843544
 30
0.0
 11
53.95000044774857
 21
3.66709153843533
 31
0.0
  0
LINE
  5
199
330
71
100
AcDbEntity
  8
1
  6
Continuous
 62
     2
100
AcDbLine
 10
53.95000044774857
 20
8.66709153843544
 30
0.0
 11
58.95000044774756
 21
8.66709153843544
 31
0.0
  0
LINE
  5
19A
330
71
100
AcDbEntity
  8
1
  6
Continuous
 62
     6
100
AcDbLine
 10
-39.54999955225145
 20
8.66709153843544
 30
0.0
 11
-57.39480407900143
 21
8.66709153843544
 31
0.0
  0
LINE
  5
19B
330
71
100
AcDbEntity
  8
1
  6
Continuous
 62
     6
100
AcDbLine
 10
10.45000044774855
 20
8.66709153843544
 30
0.0
 11
53.95000044774857
 21
8.66709153843544
 31
0.0
  0
LINE
  5
19C
330
71
100
AcDbEntity
  8
1
  6
Continuous
 62
     6
100
AcDbLine
 10
-139.5499995522517
 20
8.66709153843544
 30
0.0
 11
-144.5948040790014
 21
8.66709153843544
 31
0.0
  0
LINE
  5
19D
330
71
100
AcDbEntity
  8
1
  6
Continuous
 62
     6
100
AcDbLine
 10
-89.54999955225142
 20
8.66709153843544
 30
0.0
 11
-75.59480407900145
 21
8.66709153843533
 31
0.0
  0
LINE
  5
19E
102
{ACAD_REACTORS
330
288
330
289
102
}
330
71
100
AcDbEntity
  8
0
  6
Continuous
 62
     2
100
AcDbLine
 10
-68.08017813685464
 20
20.73960629464756
 30
0.0
 11
-68.08017813685464
 21
21.34514158315434
 31
0.0
  0
LINE
  5
19F
102
{ACAD_REACTORS
330
288
330
289
102
}
330
71
100
AcDbEntity
  8
0
  6
Continuous
 62
     2
100
AcDbLine
 10
-68.08017813685464
 20
17.93947168801626
 30
0.0
 11
-68.08017813685464
 21
18.52132309471134
 31
0.0
  0
LINE
  5
1A0
102
{ACAD_REACTORS
330
28A
330
28B
102
}
330
71
100
AcDbEntity
  8
0
  6
Continuous
 62
     2
100
AcDbLine
 10
-45.45069170137543
 20
18.22913575613924
 30
0.0
 11
-45.45069170137543
 21
15.96059153845175
 31
0.0
  0
LINE
  5
1A1
102
{ACAD_REACTORS
330
28A
330
28B
102
}
330
71
100
AcDbEntity
  8
0
  6
Continuous
 62
     2
100
AcDbLine
 10
-46.83174548036303
 20
19.01440106226235
 30
0.0
 11
-43.44679996173434
 21
19.01440106226283
 31
0.0
  0
LINE
  5
1A2
102
{ACAD_REACTORS
330
28A
330
28B
102
}
330
71
100
AcDbEntity
  8
0
  6
Continuous
 62
     2
100
AcDbLine
 10
-43.44679996173434
 20
18.22913575613924
 30
0.0
 11
-43.44679996173434
 21
19.01440106226283
 31
0.0
  0
LINE
  5
1A3
102
{ACAD_REACTORS
330
28A
330
28B
102
}
330
71
100
AcDbEntity
  8
0
  6
Continuous
 62
     2
100
AcDbLine
 10
-44.25789899920773
 20
18.22913575613924
 30
0.0
 11
-43.44679996173434
 21
18.22913575613924
 31
0.0
  0
LINE
  5
1A4
102
{ACAD_REACTORS
330
28A
330
28B
102
}
330
71
100
AcDbEntity
  8
0
  6
Continuous
 62
     2
100
AcDbLine
 10
-44.25789899920773
 20
15.96059153845175
 30
0.0
 11
-44.25789899920773
 21
18.22913575613924
 31
0.0
  0
LINE
  5
1A5
102
{ACAD_REACTORS
330
28A
330
28B
102
}
330
71
100
AcDbEntity
  8
0
  6
Continuous
 62
     2
100
AcDbLine
 10
-45.45069170137543
 20
15.96059153845175
 30
0.0
 11
-44.25789899920773
 21
15.96059153845175
 31
0.0
  0
LINE
  5
1A6
102
{ACAD_REACTORS
330
280
330
281
102
}
330
71
100
AcDbEntity
  8
0
  6
Continuous
 62
     2
100
AcDbLine
 10
-46.14728263943994
 20
22.37359153843724
 30
0.0
 11
-47.55000685718923
 21
22.37359153843724
 31
0.0
  0
LINE
  5
1A7
102
{ACAD_REACTORS
330
280
330
281
102
}
330
71
100
AcDbEntity
  8
0
  6
Continuous
 62
     2
100
AcDbLine
 10
-46.14728263943994
 20
22.37359153843724
 30
0.0
 11
-45.54611511754814
 21
21.69376821688175
 31
0.0
  0
LINE
  5
1A8
102
{ACAD_REACTORS
330
280
330
281
102
}
330
71
100
AcDbEntity
  8
0
  6
Continuous
 62
     2
100
AcDbLine
 10
-45.54611511754814
 20
21.69376821688175
 30
0.0
 11
-44.94494759565535
 21
22.37359153843724
 31
0.0
  0
LINE
  5
1A9
102
{ACAD_REACTORS
330
280
330
281
102
}
330
71
100
AcDbEntity
  8
0
  6
Continuous
 62
     2
100
AcDbLine
 10
-44.84475300867464
 20
20.90064100840104
 30
0.0
 11
-43.54222337790813
 21
22.37359153843724
 31
0.0
  0
LINE
  5
1AA
102
{ACAD_REACTORS
330
280
330
281
102
}
330
71
100
AcDbEntity
  8
0
  6
Continuous
 62
     2
100
AcDbLine
 10
-44.84475300867464
 20
20.90064100840104
 30
0.0
 11
-43.44679996173434
 21
19.31978201462604
 31
0.0
  0
LINE
  5
1AB
102
{ACAD_REACTORS
330
280
330
281
102
}
330
71
100
AcDbEntity
  8
0
  6
Continuous
 62
     2
100
AcDbLine
 10
-44.84952417948264
 20
19.31978201462604
 30
0.0
 11
-43.44679996173434
 21
19.31978201462604
 31
0.0
  0
LINE
  5
1AC
102
{ACAD_REACTORS
330
280
330
281
102
}
330
71
100
AcDbEntity
  8
0
  6
Continuous
 62
     2
100
AcDbLine
 10
-45.54611511754814
 20
20.10751379991976
 30
0.0
 11
-44.84952417948264
 21
19.31978201462604
 31
0.0
  0
LINE
  5
1AD
102
{ACAD_REACTORS
330
27E
330
27F
102
}
330
71
100
AcDbEntity
  8
0
  6
Continuous
 62
     2
100
AcDbLine
 10
-49.00521395383183
 20
22.37359153843724
 30
0.0
 11
-47.76470954357893
 21
22.37359153843724
 31
0.0
  0
LINE
  5
1AE
102
{ACAD_REACTORS
330
27E
330
27F
102
}
330
71
100
AcDbEntity
  8
0
  6
Continuous
 62
     2
100
AcDbLine
 10
-47.76470954357893
 20
22.37359153843724
 30
0.0
 11
-47.76470954357893
 21
19.31978201462604
 31
0.0
  0
LINE
  5
1AF
102
{ACAD_REACTORS
330
27E
330
27F
102
}
330
71
100
AcDbEntity
  8
0
  6
Continuous
 62
     2
100
AcDbLine
 10
-49.00521395383183
 20
19.31978201462604
 30
0.0
 11
-49.00521395383183
 21
22.37359153843724
 31
0.0
  0
LINE
  5
1B0
102
{ACAD_REACTORS
330
27C
330
27D
102
}
330
71
100
AcDbEntity
  8
0
  6
Continuous
 62
     2
100
AcDbLine
 10
-50.47352403636944
 20
17.18211534797624
 30
0.0
 11
-50.17335879917704
 21
17.94993031396294
 31
0.0
  0
LINE
  5
1B1
102
{ACAD_REACTORS
330
27C
330
27D
102
}
330
71
100
AcDbEntity
  8
0
  6
Continuous
 62
     2
100
AcDbLine
 10
-50.95105964099025
 20
15.96059153845175
 30
0.0
 11
-50.73957958751444
 21
16.50155208266963
 31
0.0
  0
LINE
  5
1B2
102
{ACAD_REACTORS
330
27C
330
27D
102
}
330
71
100
AcDbEntity
  8
0
  6
Continuous
 62
     2
100
AcDbLine
 10
-50.79361100430393
 20
19.01440106226283
 30
0.0
 11
-52.19156405124323
 21
15.96059153845175
 31
0.0
  0
LINE
  5
1B3
102
{ACAD_REACTORS
330
27C
330
27D
102
}
330
71
100
AcDbEntity
  8
0
  6
Continuous
 62
     2
100
AcDbLine
 10
-48.15515354711093
 20
15.96059153845175
 30
0.0
 11
-49.39565795736485
 21
15.96059153845175
 31
0.0
  0
LINE
  5
1B4
102
{ACAD_REACTORS
330
27C
330
27D
102
}
330
71
100
AcDbEntity
  8
0
  6
Continuous
 62
     2
100
AcDbLine
 10
-50.73957958751444
 20
16.50155208266963
 30
0.0
 11
-49.60713801084063
 21
16.50155208266963
 31
0.0
  0
LINE
  5
1B5
102
{ACAD_REACTORS
330
27A
330
27B
102
}
330
71
100
AcDbEntity
  8
0
  6
Continuous
 62
     2
100
AcDbLine
 10
-54.34907619042545
 20
18.22913575613924
 30
0.0
 11
-53.53797715295085
 21
18.22913575613924
 31
0.0
  0
LINE
  5
1B6
102
{ACAD_REACTORS
330
27A
330
27B
102
}
330
71
100
AcDbEntity
  8
0
  6
Continuous
 62
     2
100
AcDbLine
 10
-51.53408541331183
 20
19.01440106226283
 30
0.0
 11
-54.34907619042545
 21
19.01440106226283
 31
0.0
  0
LINE
  5
1B7
102
{ACAD_REACTORS
330
27A
330
27B
102
}
330
71
100
AcDbEntity
  8
0
  6
Continuous
 62
     2
100
AcDbLine
 10
-51.53408541331183
 20
18.22913575613924
 30
0.0
 11
-51.53408541331183
 21
19.01440106226283
 31
0.0
  0
LINE
  5
1B8
102
{ACAD_REACTORS
330
27A
330
27B
102
}
330
71
100
AcDbEntity
  8
0
  6
Continuous
 62
     2
100
AcDbLine
 10
-52.34518445078433
 20
18.22913575613924
 30
0.0
 11
-51.53408541331183
 21
18.22913575613924
 31
0.0
  0
LINE
  5
1B9
102
{ACAD_REACTORS
330
27A
330
27B
102
}
330
71
100
AcDbEntity
  8
0
  6
Continuous
 62
     2
100
AcDbLine
 10
-52.34518445078433
 20
15.96059153845175
 30
0.0
 11
-52.34518445078433
 21
18.22913575613924
 31
0.0
  0
LINE
  5
1BA
102
{ACAD_REACTORS
330
278
330
279
102
}
330
71
100
AcDbEntity
  8
0
  6
Continuous
 62
     2
100
AcDbLine
 10
-51.67706960668633
 20
19.31978201462604
 30
0.0
 11
-51.67706960668633
 21
20.62855752483074
 31
0.0
  0
LINE
  5
1BB
102
{ACAD_REACTORS
330
278
330
279
102
}
330
71
100
AcDbEntity
  8
0
  6
Continuous
 62
     2
100
AcDbLine
 10
-52.86986230885285
 20
22.37359153843724
 30
0.0
 11
-52.86986230885285
 21
19.31978201462604
 31
0.0
  0
LINE
  5
1BC
102
{ACAD_REACTORS
330
278
330
279
102
}
330
71
100
AcDbEntity
  8
0
  6
Continuous
 62
     2
100
AcDbLine
 10
-51.67706960668633
 20
22.37359153843724
 30
0.0
 11
-52.86986230885285
 21
22.37359153843724
 31
0.0
  0
LINE
  5
1BD
102
{ACAD_REACTORS
330
278
330
279
102
}
330
71
100
AcDbEntity
  8
0
  6
Continuous
 62
     2
100
AcDbLine
 10
-50.43656519643233
 20
22.37359153843724
 30
0.0
 11
-50.43656519643233
 21
21.06481602823206
 31
0.0
  0
LINE
  5
1BE
102
{ACAD_REACTORS
330
276
330
277
102
}
330
71
100
AcDbEntity
  8
0
  6
Continuous
 62
     2
100
AcDbLine
 10
-58.11830112927254
 20
19.01440106226283
 30
0.0
 11
-58.11830112927254
 21
15.96059153845175
 31
0.0
  0
LINE
  5
1BF
102
{ACAD_REACTORS
330
276
330
277
102
}
330
71
100
AcDbEntity
  8
0
  6
Continuous
 62
     2
100
AcDbLine
 10
-56.92550842710494
 20
19.01440106226283
 30
0.0
 11
-58.11830112927254
 21
19.01440106226283
 31
0.0
  0
LINE
  5
1C0
102
{ACAD_REACTORS
330
276
330
277
102
}
330
71
100
AcDbEntity
  8
0
  6
Continuous
 62
     2
100
AcDbLine
 10
-55.68500401685205
 20
15.96059153845175
 30
0.0
 11
-54.49221131468565
 21
15.96059153845175
 31
0.0
  0
LINE
  5
1C1
102
{ACAD_REACTORS
330
276
330
277
102
}
330
71
100
AcDbEntity
  8
0
  6
Continuous
 62
     2
100
AcDbLine
 10
-58.11830112927254
 20
15.96059153845175
 30
0.0
 11
-56.92550842710494
 21
15.96059153845175
 31
0.0
  0
LINE
  5
1C2
102
{ACAD_REACTORS
330
286
330
287
102
}
330
71
100
AcDbEntity
  8
0
  6
Continuous
 62
     2
100
AcDbLine
 10
-54.44434867571343
 20
21.19569357925255
 30
0.0
 11
-54.44434867571343
 21
21.67557793299426
 31
0.0
  0
LINE
  5
1C3
102
{ACAD_REACTORS
330
286
330
287
102
}
330
71
100
AcDbEntity
  8
0
  6
Continuous
 62
     2
100
AcDbLine
 10
-53.10842084928575
 20
21.19569357925255
 30
0.0
 11
-54.44434867571343
 21
21.19569357925255
 31
0.0
  0
LINE
  5
1C4
102
{ACAD_REACTORS
330
286
330
287
102
}
330
71
100
AcDbEntity
  8
0
  6
Continuous
 62
     2
100
AcDbLine
 10
-53.10842084928575
 20
20.49767997381025
 30
0.0
 11
-53.10842084928575
 21
21.19569357925255
 31
0.0
  0
LINE
  5
1C5
102
{ACAD_REACTORS
330
286
330
287
102
}
330
71
100
AcDbEntity
  8
0
  6
Continuous
 62
     2
100
AcDbLine
 10
-54.44434867571343
 20
20.49767997381025
 30
0.0
 11
-53.10842084928575
 21
20.49767997381025
 31
0.0
  0
LINE
  5
1C6
102
{ACAD_REACTORS
330
274
330
275
102
}
330
71
100
AcDbEntity
  8
0
  6
Continuous
 62
     2
100
AcDbLine
 10
-57.92730336604035
 20
22.37359153843724
 30
0.0
 11
-57.92730336604035
 21
19.31978201462604
 31
0.0
  0
LINE
  5
1C7
102
{ACAD_REACTORS
330
274
330
275
102
}
330
71
100
AcDbEntity
  8
0
  6
Continuous
 62
     2
100
AcDbLine
 10
-57.92730336604035
 20
19.31978201462604
 30
0.0
 11
-59.12009606820675
 21
19.31978201462604
 31
0.0
  0
LINE
  5
1C8
102
{ACAD_REACTORS
330
274
330
275
102
}
330
71
100
AcDbEntity
  8
0
  6
Continuous
 62
     2
100
AcDbLine
 10
-59.12009606820675
 20
19.31978201462604
 30
0.0
 11
-59.12009606820675
 21
20.45405412346986
 31
0.0
  0
LINE
  5
1C9
102
{ACAD_REACTORS
330
274
330
275
102
}
330
71
100
AcDbEntity
  8
0
  6
Continuous
 62
     2
100
AcDbLine
 10
-60.16975364611423
 20
19.31978201462604
 30
0.0
 11
-61.36254634828083
 21
19.31978201462604
 31
0.0
  0
LINE
  5
1CA
102
{ACAD_REACTORS
330
274
330
275
102
}
330
71
100
AcDbEntity
  8
0
  6
Continuous
 62
     2
100
AcDbLine
 10
-61.36254634828083
 20
22.37359153843724
 30
0.0
 11
-60.16975364611423
 21
22.37359153843724
 31
0.0
  0
LINE
  5
1CB
102
{ACAD_REACTORS
330
274
330
275
102
}
330
71
100
AcDbEntity
  8
0
  6
Continuous
 62
     2
100
AcDbLine
 10
-60.16975364611423
 20
22.37359153843724
 30
0.0
 11
-60.16975364611423
 21
21.30475820510264
 31
0.0
  0
LINE
  5
1CC
102
{ACAD_REACTORS
330
274
330
275
102
}
330
71
100
AcDbEntity
  8
0
  6
Continuous
 62
     2
100
AcDbLine
 10
-60.16975364611423
 20
21.30475820510264
 30
0.0
 11
-59.12009606820675
 21
21.30475820510264
 31
0.0
  0
LINE
  5
1CD
102
{ACAD_REACTORS
330
282
330
283
102
}
330
71
100
AcDbEntity
  8
0
  6
Continuous
 62
     2
100
AcDbLine
 10
-63.31872637983443
 20
21.71048569299714
 30
0.0
 11
-63.00143131829253
 21
21.71048569299714
 31
0.0
  0
LINE
  5
1CE
102
{ACAD_REACTORS
330
282
330
283
102
}
330
71
100
AcDbEntity
  8
0
  6
Continuous
 62
     2
100
AcDbLine
 10
-63.31872637983443
 20
21.00475804365493
 30
0.0
 11
-63.00143131829253
 21
21.00475804365493
 31
0.0
  0
LINE
  5
1CF
102
{ACAD_REACTORS
330
282
330
283
102
}
330
71
100
AcDbEntity
  8
0
  6
Continuous
 62
     2
100
AcDbLine
 10
-64.55923079008855
 20
22.37359153843724
 30
0.0
 11
-64.55923079008855
 21
19.31978201462604
 31
0.0
  0
LINE
  5
1D0
102
{ACAD_REACTORS
330
282
330
283
102
}
330
71
100
AcDbEntity
  8
0
  6
Continuous
 62
     2
100
AcDbLine
 10
-64.55923079008855
 20
22.37359153843724
 30
0.0
 11
-62.55995879205415
 21
22.37359153843724
 31
0.0
  0
LINE
  5
1D1
102
{ACAD_REACTORS
330
282
330
283
102
}
330
71
100
AcDbEntity
  8
0
  6
Continuous
 62
     2
100
AcDbLine
 10
-63.31872637983443
 20
20.26286025576985
 30
0.0
 11
-62.55995879205415
 21
20.26286025576985
 31
0.0
  0
LINE
  5
1D2
102
{ACAD_REACTORS
330
288
330
289
102
}
330
71
100
AcDbEntity
  8
0
  6
Continuous
 62
     2
100
AcDbLine
 10
-70.65572682338524
 20
21.34531905980245
 30
0.0
 11
-70.65572682338524
 21
16.98886401708535
 31
0.0
  0
LINE
  5
1D3
102
{ACAD_REACTORS
330
288
330
289
102
}
330
71
100
AcDbEntity
  8
0
  6
Continuous
 62
     2
100
AcDbLine
 10
-70.34000990030955
 20
21.66103598287864
 30
0.0
 11
-68.86417663929993
 21
21.66103598287864
 31
0.0
  0
LINE
  5
1D4
102
{ACAD_REACTORS
330
288
330
289
102
}
330
71
100
AcDbEntity
  8
0
  6
Continuous
 62
     2
100
AcDbLine
 10
-68.54845971622333
 20
20.74129444074194
 30
0.0
 11
-68.54845971622333
 21
21.34531905980245
 31
0.0
  0
LINE
  5
1D5
102
{ACAD_REACTORS
330
288
330
289
102
}
330
71
100
AcDbEntity
  8
0
  6
Continuous
 62
     2
100
AcDbLine
 10
-68.54845971622333
 20
16.98886401708535
 30
0.0
 11
-68.54845971622333
 21
18.51963494861695
 31
0.0
  0
LINE
  5
1D6
102
{ACAD_REACTORS
330
288
330
289
102
}
330
71
100
AcDbEntity
  8
0
  6
Continuous
 62
     2
100
AcDbLine
 10
-65.46059248633924
 20
15.96059153845175
 30
0.0
 11
-70.93390457705604
 21
15.96059153845175
 31
0.0
  0
LINE
  5
1D7
102
{ACAD_REACTORS
330
288
330
289
102
}
330
71
100
AcDbEntity
  8
0
  6
Continuous
 62
     2
100
AcDbLine
 10
-65.03634787095535
 20
21.94934692303525
 30
0.0
 11
-65.03634787095535
 21
16.38483615383504
 31
0.0
  0
LINE
  5
1D8
102
{ACAD_REACTORS
330
288
330
289
102
}
330
71
100
AcDbEntity
  8
0
  6
Continuous
 62
     2
100
AcDbLine
 10
-70.93390457705604
 20
22.37359153841905
 30
0.0
 11
-65.46059248633924
 21
22.37359153841905
 31
0.0
  0
LINE
  5
1D9
102
{ACAD_REACTORS
330
288
330
289
102
}
330
71
100
AcDbEntity
  8
0
  6
Continuous
 62
     2
100
AcDbLine
 10
-71.35814919243884
 20
21.94934692303525
 30
0.0
 11
-71.35814919243884
 21
16.38483615383504
 31
0.0
  0
LINE
  5
1DA
102
{ACAD_REACTORS
330
288
330
289
102
}
330
71
100
AcDbEntity
  8
0
  6
Continuous
 62
     2
100
AcDbLine
 10
-68.86417663929993
 20
16.67314709400864
 30
0.0
 11
-70.34000990030955
 21
16.67314709400864
 31
0.0
  0
LINE
  5
1DB
102
{ACAD_REACTORS
330
282
330
283
102
}
330
71
100
AcDbEntity
  8
0
  6
Continuous
 62
     2
100
AcDbLine
 10
-63.31872637983443
 20
19.31978201462604
 30
0.0
 11
-63.31872637983443
 21
20.26286025576985
 31
0.0
  0
LINE
  5
1DC
102
{ACAD_REACTORS
330
282
330
283
102
}
330
71
100
AcDbEntity
  8
0
  6
Continuous
 62
     2
100
AcDbLine
 10
-64.55923079008855
 20
19.31978201462604
 30
0.0
 11
-63.31872637983443
 21
19.31978201462604
 31
0.0
  0
LINE
  5
1DD
102
{ACAD_REACTORS
330
282
330
283
102
}
330
71
100
AcDbEntity
  8
0
  6
Continuous
 62
     2
100
AcDbLine
 10
-63.31872637983443
 20
21.00475804365493
 30
0.0
 11
-63.31872637983443
 21
21.71048569299714
 31
0.0
  0
LINE
  5
1DE
102
{ACAD_REACTORS
330
274
330
275
102
}
330
71
100
AcDbEntity
  8
0
  6
Continuous
 62
     2
100
AcDbLine
 10
-61.36254634828083
 20
22.37359153843724
 30
0.0
 11
-61.36254634828083
 21
19.31978201462604
 31
0.0
  0
LINE
  5
1DF
102
{ACAD_REACTORS
330
274
330
275
102
}
330
71
100
AcDbEntity
  8
0
  6
Continuous
 62
     2
100
AcDbLine
 10
-60.16975364611423
 20
20.45405412346986
 30
0.0
 11
-60.16975364611423
 21
19.31978201462604
 31
0.0
  0
LINE
  5
1E0
102
{ACAD_REACTORS
330
274
330
275
102
}
330
71
100
AcDbEntity
  8
0
  6
Continuous
 62
     2
100
AcDbLine
 10
-59.12009606820675
 20
20.45405412346986
 30
0.0
 11
-60.16975364611423
 21
20.45405412346986
 31
0.0
  0
LINE
  5
1E1
102
{ACAD_REACTORS
330
274
330
275
102
}
330
71
100
AcDbEntity
  8
0
  6
Continuous
 62
     2
100
AcDbLine
 10
-59.12009606820675
 20
22.37359153843724
 30
0.0
 11
-57.92730336604035
 21
22.37359153843724
 31
0.0
  0
LINE
  5
1E2
102
{ACAD_REACTORS
330
274
330
275
102
}
330
71
100
AcDbEntity
  8
0
  6
Continuous
 62
     2
100
AcDbLine
 10
-59.12009606820675
 20
21.30475820510264
 30
0.0
 11
-59.12009606820675
 21
22.37359153843724
 31
0.0
  0
LINE
  5
1E3
102
{ACAD_REACTORS
330
286
330
287
102
}
330
71
100
AcDbEntity
  8
0
  6
Continuous
 62
     2
100
AcDbLine
 10
-53.10842084928575
 20
21.67557793299426
 30
0.0
 11
-53.10842084928575
 21
22.37359153843724
 31
0.0
  0
LINE
  5
1E4
102
{ACAD_REACTORS
330
286
330
287
102
}
330
71
100
AcDbEntity
  8
0
  6
Continuous
 62
     2
100
AcDbLine
 10
-56.25874057306675
 20
22.37359153843724
 30
0.0
 11
-53.10842084928575
 21
22.37359153843724
 31
0.0
  0
LINE
  5
1E5
102
{ACAD_REACTORS
330
286
330
287
102
}
330
71
100
AcDbEntity
  8
0
  6
Continuous
 62
     2
100
AcDbLine
 10
-56.25874057306675
 20
19.31978201462604
 30
0.0
 11
-53.10842084928575
 21
19.31978201462604
 31
0.0
  0
LINE
  5
1E6
102
{ACAD_REACTORS
330
286
330
287
102
}
330
71
100
AcDbEntity
  8
0
  6
Continuous
 62
     2
100
AcDbLine
 10
-53.10842084928575
 20
19.31978201462604
 30
0.0
 11
-53.10842084928575
 21
20.01779562006854
 31
0.0
  0
LINE
  5
1E7
102
{ACAD_REACTORS
330
286
330
287
102
}
330
71
100
AcDbEntity
  8
0
  6
Continuous
 62
     2
100
AcDbLine
 10
-53.10842084928575
 20
20.01779562006854
 30
0.0
 11
-54.44434867571343
 21
20.01779562006854
 31
0.0
  0
LINE
  5
1E8
102
{ACAD_REACTORS
330
286
330
287
102
}
330
71
100
AcDbEntity
  8
0
  6
Continuous
 62
     2
100
AcDbLine
 10
-54.44434867571343
 20
20.01779562006854
 30
0.0
 11
-54.44434867571343
 21
20.49767997381025
 31
0.0
  0
LINE
  5
1E9
102
{ACAD_REACTORS
330
286
330
287
102
}
330
71
100
AcDbEntity
  8
0
  6
Continuous
 62
     2
100
AcDbLine
 10
-54.44434867571343
 20
21.67557793299426
 30
0.0
 11
-53.10842084928575
 21
21.67557793299426
 31
0.0
  0
LINE
  5
1EA
102
{ACAD_REACTORS
330
276
330
277
102
}
330
71
100
AcDbEntity
  8
0
  6
Continuous
 62
     2
100
AcDbLine
 10
-56.92550842710494
 20
15.96059153845175
 30
0.0
 11
-56.92550842710494
 21
17.26936704865634
 31
0.0
  0
LINE
  5
1EB
102
{ACAD_REACTORS
330
276
330
277
102
}
330
71
100
AcDbEntity
  8
0
  6
Continuous
 62
     2
100
AcDbLine
 10
-56.92550842710494
 20
17.26936704865634
 30
0.0
 11
-55.68500401685205
 21
15.96059153845175
 31
0.0
  0
LINE
  5
1EC
102
{ACAD_REACTORS
330
276
330
277
102
}
330
71
100
AcDbEntity
  8
0
  6
Continuous
 62
     2
100
AcDbLine
 10
-54.49221131468565
 20
15.96059153845175
 30
0.0
 11
-54.49221131468565
 21
19.01440106226283
 31
0.0
  0
LINE
  5
1ED
102
{ACAD_REACTORS
330
276
330
277
102
}
330
71
100
AcDbEntity
  8
0
  6
Continuous
 62
     2
100
AcDbLine
 10
-54.49221131468565
 20
19.01440106226283
 30
0.0
 11
-55.68500401685205
 21
19.01440106226283
 31
0.0
  0
LINE
  5
1EE
102
{ACAD_REACTORS
330
276
330
277
102
}
330
71
100
AcDbEntity
  8
0
  6
Continuous
 62
     2
100
AcDbLine
 10
-55.68500401685205
 20
19.01440106226283
 30
0.0
 11
-55.68500401685205
 21
17.70562555205774
 31
0.0
  0
LINE
  5
1EF
102
{ACAD_REACTORS
330
276
330
277
102
}
330
71
100
AcDbEntity
  8
0
  6
Continuous
 62
     2
100
AcDbLine
 10
-55.68500401685205
 20
17.70562555205774
 30
0.0
 11
-56.92550842710494
 21
19.01440106226283
 31
0.0
  0
LINE
  5
1F0
102
{ACAD_REACTORS
330
278
330
279
102
}
330
71
100
AcDbEntity
  8
0
  6
Continuous
 62
     2
100
AcDbLine
 10
-51.67706960668633
 20
20.62855752483074
 30
0.0
 11
-50.43656519643233
 21
19.31978201462604
 31
0.0
  0
LINE
  5
1F1
102
{ACAD_REACTORS
330
278
330
279
102
}
330
71
100
AcDbEntity
  8
0
  6
Continuous
 62
     2
100
AcDbLine
 10
-50.43656519643233
 20
19.31978201462604
 30
0.0
 11
-49.24377249426573
 21
19.31978201462604
 31
0.0
  0
LINE
  5
1F2
102
{ACAD_REACTORS
330
278
330
279
102
}
330
71
100
AcDbEntity
  8
0
  6
Continuous
 62
     2
100
AcDbLine
 10
-49.24377249426573
 20
19.31978201462604
 30
0.0
 11
-49.24377249426573
 21
22.37359153843724
 31
0.0
  0
LINE
  5
1F3
102
{ACAD_REACTORS
330
278
330
279
102
}
330
71
100
AcDbEntity
  8
0
  6
Continuous
 62
     2
100
AcDbLine
 10
-49.24377249426573
 20
22.37359153843724
 30
0.0
 11
-50.43656519643233
 21
22.37359153843724
 31
0.0
  0
LINE
  5
1F4
102
{ACAD_REACTORS
330
278
330
279
102
}
330
71
100
AcDbEntity
  8
0
  6
Continuous
 62
     2
100
AcDbLine
 10
-50.43656519643233
 20
21.06481602823206
 30
0.0
 11
-51.67706960668633
 21
22.37359153843724
 31
0.0
  0
LINE
  5
1F5
102
{ACAD_REACTORS
330
278
330
279
102
}
330
71
100
AcDbEntity
  8
0
  6
Continuous
 62
     2
100
AcDbLine
 10
-52.86986230885285
 20
19.31978201462604
 30
0.0
 11
-51.67706960668633
 21
19.31978201462604
 31
0.0
  0
LINE
  5
1F6
102
{ACAD_REACTORS
330
27A
330
27B
102
}
330
71
100
AcDbEntity
  8
0
  6
Continuous
 62
     2
100
AcDbLine
 10
-54.34907619042545
 20
19.01440106226283
 30
0.0
 11
-54.34907619042545
 21
18.22913575613924
 31
0.0
  0
LINE
  5
1F7
102
{ACAD_REACTORS
330
27A
330
27B
102
}
330
71
100
AcDbEntity
  8
0
  6
Continuous
 62
     2
100
AcDbLine
 10
-53.53797715295085
 20
18.22913575613924
 30
0.0
 11
-53.53797715295085
 21
15.96059153845175
 31
0.0
  0
LINE
  5
1F8
102
{ACAD_REACTORS
330
27A
330
27B
102
}
330
71
100
AcDbEntity
  8
0
  6
Continuous
 62
     2
100
AcDbLine
 10
-53.53797715295085
 20
15.96059153845175
 30
0.0
 11
-52.34518445078433
 21
15.96059153845175
 31
0.0
  0
LINE
  5
1F9
102
{ACAD_REACTORS
330
27C
330
27D
102
}
330
71
100
AcDbEntity
  8
0
  6
Continuous
 62
     2
100
AcDbLine
 10
-49.39565795736485
 20
15.96059153845175
 30
0.0
 11
-49.60713801084063
 21
16.50155208266963
 31
0.0
  0
LINE
  5
1FA
102
{ACAD_REACTORS
330
27C
330
27D
102
}
330
71
100
AcDbEntity
  8
0
  6
Continuous
 62
     2
100
AcDbLine
 10
-49.55310659405123
 20
19.01440106226283
 30
0.0
 11
-48.15515354711093
 21
15.96059153845175
 31
0.0
  0
LINE
  5
1FB
102
{ACAD_REACTORS
330
27C
330
27D
102
}
330
71
100
AcDbEntity
  8
0
  6
Continuous
 62
     2
100
AcDbLine
 10
-50.79361100430393
 20
19.01440106226283
 30
0.0
 11
-49.55310659405123
 21
19.01440106226283
 31
0.0
  0
LINE
  5
1FC
102
{ACAD_REACTORS
330
27C
330
27D
102
}
330
71
100
AcDbEntity
  8
0
  6
Continuous
 62
     2
100
AcDbLine
 10
-52.19156405124323
 20
15.96059153845175
 30
0.0
 11
-50.95105964099025
 21
15.96059153845175
 31
0.0
  0
LINE
  5
1FD
102
{ACAD_REACTORS
330
27C
330
27D
102
}
330
71
100
AcDbEntity
  8
0
  6
Continuous
 62
     2
100
AcDbLine
 10
-50.47352403636944
 20
17.18211534797624
 30
0.0
 11
-49.87319356198694
 21
17.18211534797624
 31
0.0
  0
LINE
  5
1FE
102
{ACAD_REACTORS
330
27C
330
27D
102
}
330
71
100
AcDbEntity
  8
0
  6
Continuous
 62
     2
100
AcDbLine
 10
-49.87319356198694
 20
17.18211534797624
 30
0.0
 11
-50.17335879917704
 21
17.94993031396294
 31
0.0
  0
LINE
  5
1FF
102
{ACAD_REACTORS
330
27E
330
27F
102
}
330
71
100
AcDbEntity
  8
0
  6
Continuous
 62
     2
100
AcDbLine
 10
-47.76470954357893
 20
19.31978201462604
 30
0.0
 11
-49.00521395383183
 21
19.31978201462604
 31
0.0
  0
LINE
  5
200
102
{ACAD_REACTORS
330
280
330
281
102
}
330
71
100
AcDbEntity
  8
0
  6
Continuous
 62
     2
100
AcDbLine
 10
-46.24270605561384
 20
19.31978201462604
 30
0.0
 11
-47.64543027336205
 21
19.31978201462604
 31
0.0
  0
LINE
  5
201
102
{ACAD_REACTORS
330
280
330
281
102
}
330
71
100
AcDbEntity
  8
0
  6
Continuous
 62
     2
100
AcDbLine
 10
-46.24270605561384
 20
19.31978201462604
 30
0.0
 11
-45.54611511754814
 21
20.10751379991976
 31
0.0
  0
LINE
  5
202
102
{ACAD_REACTORS
330
280
330
281
102
}
330
71
100
AcDbEntity
  8
0
  6
Continuous
 62
     2
100
AcDbLine
 10
-44.94494759565535
 20
22.37359153843724
 30
0.0
 11
-43.54222337790813
 21
22.37359153843724
 31
0.0
  0
LINE
  5
203
102
{ACAD_REACTORS
330
280
330
281
102
}
330
71
100
AcDbEntity
  8
0
  6
Continuous
 62
     2
100
AcDbLine
 10
-47.55000685718923
 20
22.37359153843724
 30
0.0
 11
-46.24747722642175
 21
20.90064100840104
 31
0.0
  0
LINE
  5
204
102
{ACAD_REACTORS
330
280
330
281
102
}
330
71
100
AcDbEntity
  8
0
  6
Continuous
 62
     2
100
AcDbLine
 10
-47.64543027336205
 20
19.31978201462604
 30
0.0
 11
-46.24747722642175
 21
20.90064100840104
 31
0.0
  0
LINE
  5
205
102
{ACAD_REACTORS
330
28A
330
28B
102
}
330
71
100
AcDbEntity
  8
0
  6
Continuous
 62
     2
100
AcDbLine
 10
-45.78467365798213
 20
17.00761194661536
 30
0.0
 11
-45.78467365798213
 21
16.13509493981204
 31
0.0
  0
LINE
  5
206
102
{ACAD_REACTORS
330
28A
330
28B
102
}
330
71
100
AcDbEntity
  8
0
  6
Continuous
 62
     2
100
AcDbLine
 10
-46.55433100094353
 20
18.22913575613924
 30
0.0
 11
-45.45069170137543
 21
18.22913575613924
 31
0.0
  0
LINE
  5
207
102
{ACAD_REACTORS
330
28C
330
28D
102
}
330
71
100
AcDbEntity
  8
0
  6
Continuous
 62
     2
100
AcDbLine
 10
-61.88737513723405
 20
17.00761194661584
 30
0.0
 11
-61.88737513723405
 21
16.13509493981263
 31
0.0
  0
LINE
  5
208
102
{ACAD_REACTORS
330
28C
330
28D
102
}
330
71
100
AcDbEntity
  8
0
  6
Continuous
 62
     2
100
AcDbLine
 10
-61.88737513723405
 20
17.96738065409875
 30
0.0
 11
-61.88737513723405
 21
18.83989766090204
 31
0.0
  0
LINE
  5
209
330
71
100
AcDbEntity
  8
1
  6
Continuous
 62
     7
100
AcDbLine
 10
53.95000044774986
 20
17.16709153843544
 30
0.0
 11
-39.19480407900153
 21
17.16709153843544
 31
0.0
  0
LINE
  5
20A
330
71
100
AcDbEntity
  8
1
  6
Continuous
 62
     6
100
AcDbLine
 10
-144.5948040790014
 20
8.66709153843544
 30
0.0
 11
-189.5499995522514
 21
8.66709153843544
 31
0.0
  0
LINE
  5
20B
330
71
100
AcDbEntity
  8
1
  6
Continuous
 62
     7
100
AcDbLine
 10
45.03159216607105
 20
34.16709153843544
 30
0.0
 11
45.03159216607105
 21
25.66709153843544
 31
0.0
  0
LINE
  5
20C
330
71
100
AcDbEntity
  8
1
  6
Continuous
 62
     7
100
AcDbLine
 10
18.53159216607145
 20
34.16709153843544
 30
0.0
 11
18.53159216607145
 21
25.66709153843544
 31
0.0
  0
LINE
  5
20D
330
71
100
AcDbEntity
  8
1
  6
Continuous
 62
     7
100
AcDbLine
 10
-39.19480407900153
 20
25.66709153843544
 30
0.0
 11
-39.19480407900153
 21
34.16709153843544
 31
0.0
  0
LINE
  5
20E
330
71
100
AcDbEntity
  8
1
  6
Continuous
 62
     7
100
AcDbLine
 10
-75.59480407900145
 20
25.66709153843544
 30
0.0
 11
-75.59480407900145
 21
34.16709153843544
 31
0.0
  0
LINE
  5
20F
330
71
100
AcDbEntity
  8
1
  6
Continuous
 62
     6
100
AcDbLine
 10
-39.19480407900153
 20
25.66709153843544
 30
0.0
 11
53.95000044775026
 21
25.66709153843544
 31
0.0
  0
LINE
  5
210
330
71
100
AcDbEntity
  8
1
  6
Continuous
 62
     7
100
AcDbLine
 10
-11.29480407900144
 20
17.16709153843536
 30
0.0
 11
-11.29480407900144
 21
25.66709153843544
 31
0.0
  0
LINE
  5
211
330
71
100
AcDbEntity
  8
1
  6
PHANTOM
 62
     2
100
AcDbLine
 10
-60.10814919243884
 20
29.79209153843536
 30
0.0
 11
-65.60814919243884
 21
29.79209153843536
 31
0.0
  0
LINE
  5
212
330
71
100
AcDbEntity
  8
1
  6
PHANTOM
 62
     2
100
AcDbLine
 10
-62.85814919243884
 20
32.54209153843536
 30
0.0
 11
-62.85814919243884
 21
27.04209153843536
 31
0.0
  0
LINE
  5
213
330
71
100
AcDbEntity
  8
1
  6
DOT_CENTER
 62
     2
100
AcDbLine
 10
-71.60814919243884
 20
29.79209153843536
 30
0.0
 11
-66.10814919243884
 21
29.79209153843536
 31
0.0
  0
ARC
  5
214
102
{ACAD_REACTORS
330
28C
330
28D
102
}
330
71
100
AcDbEntity
  8
0
  6
Continuous
 62
     2
100
AcDbCircle
 10
-63.22330305435185
 20
14.17481535510115
 30
0.0
 40
4.852596863498063
100
AcDbArc
 50
74.02000874164737
 51
84.84185523037496
  0
ARC
  5
215
102
{ACAD_REACTORS
330
28C
330
28D
102
}
330
71
100
AcDbEntity
  8
0
  6
Continuous
 62
     2
100
AcDbCircle
 10
-62.64726244559813
 20
17.33057571098544
 30
0.0
 40
0.9059297849853228
100
AcDbArc
 50
71.55192388185348
 51
113.3722778881288
  0
ARC
  5
216
102
{ACAD_REACTORS
330
28C
330
28D
102
}
330
71
100
AcDbEntity
  8
0
  6
Continuous
 62
     2
100
AcDbCircle
 10
-62.80370247830015
 20
17.28242487101855
 30
0.0
 40
0.5115800601948034
100
AcDbArc
 50
208.5214732576956
 51
246.6277221118275
  0
ARC
  5
217
102
{ACAD_REACTORS
330
28C
330
28D
102
}
330
71
100
AcDbEntity
  8
0
  6
Continuous
 62
     2
100
AcDbCircle
 10
-62.64726244559813
 20
17.64441688972855
 30
0.0
 40
0.9059297849849257
100
AcDbArc
 50
246.6277221118712
 51
288.4480761181583
  0
ARC
  5
218
102
{ACAD_REACTORS
330
28C
330
28D
102
}
330
71
100
AcDbEntity
  8
0
  6
Continuous
 62
     2
100
AcDbCircle
 10
-63.06543017925893
 20
18.89796266576573
 30
0.0
 40
2.227384008972739
100
AcDbArc
 50
288.448076118133
 51
301.9309089499593
  0
ARC
  5
219
102
{ACAD_REACTORS
330
288
330
289
102
}
330
71
100
AcDbEntity
  8
0
  6
Continuous
 62
     2
100
AcDbCircle
 10
-68.29050391186573
 20
19.63046469467975
 30
0.0
 40
0.9118481501444653
100
AcDbArc
 50
295.3740086781763
 51
64.62599132180736
  0
ARC
  5
21A
102
{ACAD_REACTORS
330
288
330
289
102
}
330
71
100
AcDbEntity
  8
0
  6
Continuous
 62
     2
100
AcDbCircle
 10
-67.76446121377785
 20
21.34514158315434
 30
0.0
 40
0.3157169230760746
100
AcDbArc
 50
90.18896704254594
 51
180.0
  0
ARC
  5
21B
102
{ACAD_REACTORS
330
28A
330
28B
102
}
330
71
100
AcDbEntity
  8
0
  6
Continuous
 62
     2
100
AcDbCircle
 10
-46.55433100094353
 20
17.27461274931315
 30
0.0
 40
0.9545230068260899
100
AcDbArc
 50
90.0
 51
109.3371432194329
  0
ARC
  5
21C
102
{ACAD_REACTORS
330
28A
330
28B
102
}
330
71
100
AcDbEntity
  8
0
  6
Continuous
 62
     2
100
AcDbCircle
 10
-46.32364374096585
 20
17.48749630035704
 30
0.0
 40
0.941059735334897
100
AcDbArc
 50
151.4785267423628
 51
208.5214732576693
  0
ARC
  5
21D
102
{ACAD_REACTORS
330
28A
330
28B
102
}
330
71
100
AcDbEntity
  8
0
  6
Continuous
 62
     2
100
AcDbCircle
 10
-46.54456096634414
 20
17.64441688972855
 30
0.0
 40
0.9059297849852838
100
AcDbArc
 50
246.6277221118188
 51
288.4480761180822
  0
ARC
  5
21E
102
{ACAD_REACTORS
330
28A
330
28B
102
}
330
71
100
AcDbEntity
  8
0
  6
Continuous
 62
     2
100
AcDbCircle
 10
-46.96272870000604
 20
18.89796266576514
 30
0.0
 40
2.227384008972746
100
AcDbArc
 50
288.4480761181335
 51
301.9309089499396
  0
ARC
  5
21F
102
{ACAD_REACTORS
330
28A
330
28B
102
}
330
71
100
AcDbEntity
  8
0
  6
Continuous
 62
     2
100
AcDbCircle
 10
-47.12060157509885
 20
20.80017724561344
 30
0.0
 40
4.852596863498825
100
AcDbArc
 50
275.1581447696364
 51
285.9799912583387
  0
ARC
  5
220
102
{ACAD_REACTORS
330
28A
330
28B
102
}
330
71
100
AcDbEntity
  8
0
  6
Continuous
 62
     2
100
AcDbCircle
 10
-46.83174548036303
 20
17.60028666239185
 30
0.0
 40
1.639695123940442
100
AcDbArc
 50
195.0618917771013
 51
275.1581447696765
  0
ARC
  5
221
102
{ACAD_REACTORS
330
282
330
283
102
}
330
71
100
AcDbEntity
  8
0
  6
Continuous
 62
     2
100
AcDbCircle
 10
-62.55995879205415
 20
21.31822589710356
 30
0.0
 40
1.055365641333708
100
AcDbArc
 50
270.0
 51
90.0
  0
ARC
  5
222
102
{ACAD_REACTORS
330
288
330
289
102
}
330
71
100
AcDbEntity
  8
0
  6
Continuous
 62
     2
100
AcDbCircle
 10
-70.34000990030955
 20
16.98886401708535
 30
0.0
 40
0.3157169230756836
100
AcDbArc
 50
180.0
 51
270.0
  0
ARC
  5
223
102
{ACAD_REACTORS
330
288
330
289
102
}
330
71
100
AcDbEntity
  8
0
  6
Continuous
 62
     2
100
AcDbCircle
 10
-68.86417663929993
 20
21.34531905980245
 30
0.0
 40
0.315716923076593
100
AcDbArc
 50
0.0
 51
90.0
  0
ARC
  5
224
102
{ACAD_REACTORS
330
288
330
289
102
}
330
71
100
AcDbEntity
  8
0
  6
Continuous
 62
     2
100
AcDbCircle
 10
-68.86417663929993
 20
20.74129444074194
 30
0.0
 40
0.3157169230761203
100
AcDbArc
 50
295.1944106485397
 51
0.0
  0
ARC
  5
225
102
{ACAD_REACTORS
330
288
330
289
102
}
330
71
100
AcDbEntity
  8
0
  6
Continuous
 62
     2
100
AcDbCircle
 10
-68.86417663929993
 20
16.98886401708535
 30
0.0
 40
0.3157169230767103
100
AcDbArc
 50
270.0
 51
0.0
  0
ARC
  5
226
102
{ACAD_REACTORS
330
288
330
289
102
}
330
71
100
AcDbEntity
  8
0
  6
Continuous
 62
     2
100
AcDbCircle
 10
-70.93390457705604
 20
21.94934692303525
 30
0.0
 40
0.4242446153837989
100
AcDbArc
 50
90.0
 51
180.0
  0
ARC
  5
227
102
{ACAD_REACTORS
330
288
330
289
102
}
330
71
100
AcDbEntity
  8
0
  6
Continuous
 62
     2
100
AcDbCircle
 10
-65.46059248633924
 20
21.94934692303525
 30
0.0
 40
0.4242446153838841
100
AcDbArc
 50
0.0
 51
90.0
  0
ARC
  5
228
102
{ACAD_REACTORS
330
288
330
289
102
}
330
71
100
AcDbEntity
  8
0
  6
Continuous
 62
     2
100
AcDbCircle
 10
-65.46059248633924
 20
16.38483615383504
 30
0.0
 40
0.4242446153832891
100
AcDbArc
 50
270.0
 51
0.0
  0
ARC
  5
229
102
{ACAD_REACTORS
330
286
330
287
102
}
330
71
100
AcDbEntity
  8
0
  6
Continuous
 62
     2
100
AcDbCircle
 10
-56.24220859924773
 20
20.84668677653136
 30
0.0
 40
0.7717997786796417
100
AcDbArc
 50
321.8795802028433
 51
38.12041979715956
  0
ARC
  5
22A
102
{ACAD_REACTORS
330
286
330
287
102
}
330
71
100
AcDbEntity
  8
0
  6
Continuous
 62
     2
100
AcDbCircle
 10
-56.04246856290155
 20
20.68995559841093
 30
0.0
 40
0.5179085730134372
100
AcDbArc
 50
218.1204197971511
 51
321.8795802028566
  0
ARC
  5
22B
102
{ACAD_REACTORS
330
284
330
285
102
}
330
71
100
AcDbEntity
  8
0
  6
Continuous
 62
     2
100
AcDbCircle
 10
-59.72247615186174
 20
17.48749630035704
 30
0.0
 40
1.458034083651999
100
AcDbArc
 50
297.5481481757009
 51
62.4518518242992
  0
ARC
  5
22C
102
{ACAD_REACTORS
330
284
330
285
102
}
330
71
100
AcDbEntity
  8
0
  6
Continuous
 62
     2
100
AcDbCircle
 10
-60.28435593552834
 20
17.48749630035704
 30
0.0
 40
1.45803408365149
100
AcDbArc
 50
117.5481481756624
 51
242.4518518243375
  0
ARC
  5
22D
102
{ACAD_REACTORS
330
284
330
285
102
}
330
71
100
AcDbEntity
  8
0
  6
Continuous
 62
     2
100
AcDbCircle
 10
-60.00341604369504
 20
16.94892129005424
 30
0.0
 40
2.065479772208571
100
AcDbArc
 50
62.45185182430664
 51
117.5481481756663
  0
ARC
  5
22E
102
{ACAD_REACTORS
330
284
330
285
102
}
330
71
100
AcDbEntity
  8
0
  6
Continuous
 62
     2
100
AcDbCircle
 10
-60.00341604369504
 20
18.02607131066034
 30
0.0
 40
2.065479772208502
100
AcDbArc
 50
242.4518518243401
 51
297.548148175687
  0
ARC
  5
22F
102
{ACAD_REACTORS
330
286
330
287
102
}
330
71
100
AcDbEntity
  8
0
  6
Continuous
 62
     2
100
AcDbCircle
 10
-55.84272852655525
 20
20.84668677653136
 30
0.0
 40
0.7717997786796724
100
AcDbArc
 50
141.8795802028404
 51
218.1204197971566
  0
ARC
  5
230
102
{ACAD_REACTORS
330
286
330
287
102
}
330
71
100
AcDbEntity
  8
0
  6
Continuous
 62
     2
100
AcDbCircle
 10
-56.04246856290155
 20
21.00341795465184
 30
0.0
 40
0.5179085730135266
100
AcDbArc
 50
38.12041979714334
 51
141.8795802028489
  0
ARC
  5
231
102
{ACAD_REACTORS
330
288
330
289
102
}
330
71
100
AcDbEntity
  8
0
  6
Continuous
 62
     2
100
AcDbCircle
 10
-70.93390457705604
 20
16.38483615383504
 30
0.0
 40
0.4242446153828041
100
AcDbArc
 50
180.0
 51
270.0
  0
ARC
  5
232
102
{ACAD_REACTORS
330
288
330
289
102
}
330
71
100
AcDbEntity
  8
0
  6
Continuous
 62
     2
100
AcDbCircle
 10
-68.86417663929993
 20
18.51963494861695
 30
0.0
 40
0.315716923076593
100
AcDbArc
 50
0.0
 51
64.80558935146027
  0
ARC
  5
233
102
{ACAD_REACTORS
330
288
330
289
102
}
330
71
100
AcDbEntity
  8
0
  6
Continuous
 62
     2
100
AcDbCircle
 10
-68.34159219172494
 20
19.63046469467975
 30
0.0
 40
0.9118975235576114
100
AcDbArc
 50
115.1944106485283
 51
244.8055893514879
  0
ARC
  5
234
102
{ACAD_REACTORS
330
288
330
289
102
}
330
71
100
AcDbEntity
  8
0
  6
Continuous
 62
     2
100
AcDbCircle
 10
-70.34000990030955
 20
21.34531905980245
 30
0.0
 40
0.3157169230761916
100
AcDbArc
 50
90.0
 51
180.0
  0
ARC
  5
235
102
{ACAD_REACTORS
330
282
330
283
102
}
330
71
100
AcDbEntity
  8
0
  6
Continuous
 62
     2
100
AcDbCircle
 10
-63.00143131829253
 20
21.35762186832605
 30
0.0
 40
0.3528638246711182
100
AcDbArc
 50
270.0
 51
90.0
  0
ARC
  5
236
102
{ACAD_REACTORS
330
286
330
287
102
}
330
71
100
AcDbEntity
  8
0
  6
Continuous
 62
     2
100
AcDbCircle
 10
-56.25874057306675
 20
20.84668677653136
 30
0.0
 40
1.526904761905879
100
AcDbArc
 50
90.0
 51
270.0
  0
ARC
  5
237
102
{ACAD_REACTORS
330
28A
330
28B
102
}
330
71
100
AcDbEntity
  8
0
  6
Continuous
 62
     2
100
AcDbCircle
 10
-46.83174548036303
 20
17.37470593832214
 30
0.0
 40
1.639695123940211
100
AcDbArc
 50
90.0
 51
164.938108222895
  0
ARC
  5
238
102
{ACAD_REACTORS
330
28A
330
28B
102
}
330
71
100
AcDbEntity
  8
0
  6
Continuous
 62
     2
100
AcDbCircle
 10
-47.25087332382464
 20
17.48749630035704
 30
0.0
 40
1.205656168392995
100
AcDbArc
 50
164.9381082229029
 51
195.0618917770963
  0
ARC
  5
239
102
{ACAD_REACTORS
330
28A
330
28B
102
}
330
71
100
AcDbEntity
  8
0
  6
Continuous
 62
     2
100
AcDbCircle
 10
-46.70100099904724
 20
17.28242487101855
 30
0.0
 40
0.5115800601960261
100
AcDbArc
 50
208.5214732576859
 51
246.6277221118451
  0
ARC
  5
23A
102
{ACAD_REACTORS
330
28A
330
28B
102
}
330
71
100
AcDbEntity
  8
0
  6
Continuous
 62
     2
100
AcDbCircle
 10
-46.70100099904724
 20
17.69256772969604
 30
0.0
 40
0.5115800601944099
100
AcDbArc
 50
109.3371432194863
 51
151.4785267424232
  0
ARC
  5
23B
102
{ACAD_REACTORS
330
288
330
289
102
}
330
71
100
AcDbEntity
  8
0
  6
Continuous
 62
     2
100
AcDbCircle
 10
-67.76446121377785
 20
17.93947168801626
 30
0.0
 40
0.315716923076792
100
AcDbArc
 50
180.0
 51
269.8110329574542
  0
ARC
  5
23C
102
{ACAD_REACTORS
330
288
330
289
102
}
330
71
100
AcDbEntity
  8
0
  6
Continuous
 62
     2
100
AcDbCircle
 10
-67.75884507846783
 20
19.64230663558524
 30
0.0
 40
2.018561131933266
100
AcDbArc
 50
269.8110329575858
 51
90.18896704241416
  0
ARC
  5
23D
102
{ACAD_REACTORS
330
288
330
289
102
}
330
71
100
AcDbEntity
  8
0
  6
Continuous
 62
     2
100
AcDbCircle
 10
-67.76446121377785
 20
20.73960629464756
 30
0.0
 40
0.315716923076792
100
AcDbArc
 50
180.0
 51
244.6259913216484
  0
ARC
  5
23E
102
{ACAD_REACTORS
330
288
330
289
102
}
330
71
100
AcDbEntity
  8
0
  6
Continuous
 62
     2
100
AcDbCircle
 10
-67.76446121377785
 20
18.52132309471134
 30
0.0
 40
0.3157169230765232
100
AcDbArc
 50
115.3740086783527
 51
180.0
  0
ARC
  5
23F
102
{ACAD_REACTORS
330
28C
330
28D
102
}
330
71
100
AcDbEntity
  8
0
  6
Continuous
 62
     2
100
AcDbCircle
 10
-62.93444695961594
 20
17.37470593832214
 30
0.0
 40
1.639695123940503
100
AcDbArc
 50
84.84185523036234
 51
164.9381082228866
  0
ARC
  5
240
102
{ACAD_REACTORS
330
28C
330
28D
102
}
330
71
100
AcDbEntity
  8
0
  6
Continuous
 62
     2
100
AcDbCircle
 10
-63.35357480307874
 20
17.48749630035704
 30
0.0
 40
1.205656168390943
100
AcDbArc
 50
164.9381082228766
 51
195.061891777095
  0
ARC
  5
241
102
{ACAD_REACTORS
330
28C
330
28D
102
}
330
71
100
AcDbEntity
  8
0
  6
Continuous
 62
     2
100
AcDbCircle
 10
-62.93444695961594
 20
17.60028666239185
 30
0.0
 40
1.639695123939386
100
AcDbArc
 50
195.0618917770894
 51
275.1581447696395
  0
ARC
  5
242
102
{ACAD_REACTORS
330
28C
330
28D
102
}
330
71
100
AcDbEntity
  8
0
  6
Continuous
 62
     2
100
AcDbCircle
 10
-63.22330305435185
 20
20.80017724561344
 30
0.0
 40
4.852596863498137
100
AcDbArc
 50
275.158144769625
 51
285.9799912583529
  0
ARC
  5
243
102
{ACAD_REACTORS
330
28C
330
28D
102
}
330
71
100
AcDbEntity
  8
0
  6
Continuous
 62
     2
100
AcDbCircle
 10
-62.42634522021984
 20
17.48749630035704
 30
0.0
 40
0.9410597353332607
100
AcDbArc
 50
151.4785267422671
 51
208.5214732577057
  0
ARC
  5
244
102
{ACAD_REACTORS
330
28C
330
28D
102
}
330
71
100
AcDbEntity
  8
0
  6
Continuous
 62
     2
100
AcDbCircle
 10
-62.80370247830015
 20
17.69256772969604
 30
0.0
 40
0.5115800601948779
100
AcDbArc
 50
113.3722778881992
 51
151.4785267423044
  0
ARC
  5
245
102
{ACAD_REACTORS
330
28C
330
28D
102
}
330
71
100
AcDbEntity
  8
0
  6
Continuous
 62
     2
100
AcDbCircle
 10
-63.06543017925893
 20
16.07702993494885
 30
0.0
 40
2.227384008973484
100
AcDbArc
 50
58.06909105004083
 51
71.55192388186705
  0
ARC
  5
246
102
{ACAD_REACTORS
330
284
330
285
102
}
330
71
100
AcDbEntity
  8
0
  6
Continuous
 62
     2
100
AcDbCircle
 10
-60.00341604369504
 20
17.64422747847755
 30
0.0
 40
0.5179085730132976
100
AcDbArc
 50
38.12041979714672
 51
141.8795802028591
  0
ARC
  5
247
102
{ACAD_REACTORS
330
284
330
285
102
}
330
71
100
AcDbEntity
  8
0
  6
Continuous
 62
     2
100
AcDbCircle
 10
-59.80367600734894
 20
17.48749630035704
 30
0.0
 40
0.771799778679461
100
AcDbArc
 50
141.8795802028365
 51
218.1204197971687
  0
ARC
  5
248
102
{ACAD_REACTORS
330
284
330
285
102
}
330
71
100
AcDbEntity
  8
0
  6
Continuous
 62
     2
100
AcDbCircle
 10
-60.00341604369504
 20
17.33076512223704
 30
0.0
 40
0.5179085730137332
100
AcDbArc
 50
218.1204197971929
 51
321.8795802028013
  0
ARC
  5
249
102
{ACAD_REACTORS
330
284
330
285
102
}
330
71
100
AcDbEntity
  8
0
  6
Continuous
 62
     2
100
AcDbCircle
 10
-60.20315608004145
 20
17.48749630035704
 30
0.0
 40
0.7717997786796947
100
AcDbArc
 50
321.8795802028417
 51
38.12041979715308
  0
CIRCLE
  5
24A
330
71
100
AcDbEntity
  8
1
  6
Continuous
 62
     2
100
AcDbCircle
 10
-62.85814919243884
 20
29.79209153843536
 30
0.0
 40
2.5
  0
CIRCLE
  5
24B
330
71
100
AcDbEntity
  8
1
  6
Continuous
 62
     2
100
AcDbCircle
 10
-62.85814919243884
 20
29.79209153843536
 30
0.0
 40
1.249999999999908
  0
CIRCLE
  5
24C
102
{ACAD_REACTORS
330
288
330
289
102
}
330
71
100
AcDbEntity
  8
0
  6
Continuous
 62
     2
100
AcDbCircle
 10
-68.31431892653853
 20
19.63046469467975
 30
0.0
 40
0.4709789327785074
  0
MTEXT
  5
24D
330
71
100
AcDbEntity
  8
1
 62
     3
100
AcDbMText
 10
-233.0449317661796
 20
195.4583996937342
 30
0.0
 40
1.8
 41
0.0
 71
     7
 72
     1
  3
Weitergabe sowie Vervielf\U+00e4ltigung dieses Dokuments, Verwertung und \PMitteilung seines Inhalts sind verboten, soweit nicht ausdr\U+00fccklich gestattet. \PZuwiderhandlungen verpflichten zu Schadenersatz. Alle Rechte f\U+00fcr den Fall\Pder Pat
  1
ent-, Gebrauchsmuster- oder Designeintragung vorbehalten.
  7
CONVERTER_11
 73
     1
 44
0.99639855942377
  0
MTEXT
  5
24E
330
71
100
AcDbEntity
  8
1
 62
     3
100
AcDbMText
 10
-50.19182192739154
 20
195.4583996937342
 30
0.0
 40
1.8
 41
0.0
 71
     7
 72
     1
  3
Transfer or duplication of this document as well as the utilisation or\Pcommunication of its content are not permitted unless express consent\Pis granted. Violations give rise to claims for damages. All rights reserved\Pin case of patent, utility mo
  1
del or design patent registrations.
  7
CONVERTER_11
 73
     1
 44
0.99639855942377
  0
TEXT
  5
24F
330
71
100
AcDbEntity
  8
1
 62
     2
100
AcDbText
 10
-56.39480407900163
 20
9.90807432344383
 30
0.0
 40
1.8
  1
of
 41
0.9
  7
CONVERTER_11
100
AcDbText
  0
TEXT
  5
250
330
71
100
AcDbEntity
  8
1
 62
     2
100
AcDbText
 10
-74.59480407900145
 20
9.90807432344377
 30
0.0
 40
1.8
  1
page
 41
0.9
  7
CONVERTER_11
100
AcDbText
  0
TEXT
  5
251
330
71
100
AcDbEntity
  8
1
 62
     2
100
AcDbText
 10
-65.94853910865945
 20
9.86784288463343
 30
0.0
 40
1.8
  1
1
 41
0.9
  7
CONVERTER_11
100
AcDbText
  0
TEXT
  5
252
330
71
100
AcDbEntity
  8
1
 62
     2
100
AcDbText
 10
-51.15949526918794
 20
9.91709153843533
 30
0.0
 40
1.8
  1
1
 41
0.9
  7
CONVERTER_11
100
AcDbText
  0
MTEXT
  5
254
330
71
100
AcDbEntity
  8
1
 62
     7
100
AcDbMText
 10
7.37759818437405
 20
11.91709153843567
 30
0.0
 40
3.0
 41
0.0
 71
     5
 72
     1
  1
EB  2-25/UKH
  7
CONVERTER_12
 73
     1
 44
1.20048019207683
  0
MTEXT
  5
255
330
71
100
AcDbEntity
  8
1
 62
     2
100
AcDbMText
 10
-38.19480407900153
 20
16.16709153843544
 30
0.0
 40
1.8
 41
0.0
 71
     1
 72
     1
  1
description
  7
CONVERTER_11
 73
     1
 44
1.20048019207683
  0
MTEXT
  5
256
330
71
100
AcDbEntity
  8
1
 62
     3
100
AcDbMText
 10
-49.39480407900155
 20
29.79209153843544
 30
0.0
 40
2.5
 41
0.0
 71
     5
 72
     1
  1
DIN A4
  7
CONVERTER_11
 73
     1
 44
1.20048019207683
  0
MTEXT
  5
257
330
71
100
AcDbEntity
  8
1
 62
     7
100
AcDbMText
 10
-235.5499995522505
 20
31.16709153843544
 30
0.0
 40
3.5
 41
0.0
 71
     5
 72
     1
  1
D
  7
CONVERTER_11
 73
     1
 44
1.20048019207683
  0
MTEXT
  5
258
330
71
100
AcDbEntity
  8
1
 62
     7
100
AcDbMText
 10
-235.5499995522505
 20
83.66709153843544
 30
0.0
 40
3.5
 41
0.0
 71
     5
 72
     1
  1
C
  7
CONVERTER_11
 73
     1
 44
1.20048019207683
  0
MTEXT
  5
259
330
71
100
AcDbEntity
  8
1
 62
     7
100
AcDbMText
 10
-235.5499995522505
 20
133.6670915384354
 30
0.0
 40
3.5
 41
0.0
 71
     5
 72
     1
  1
B
  7
CONVERTER_11
 73
     1
 44
1.20048019207683
  0
MTEXT
  5
25A
330
71
100
AcDbEntity
  8
1
 62
     7
100
AcDbMText
 10
-235.5499995522505
 20
186.1670915384354
 30
0.0
 40
3.5
 41
0.0
 71
     5
 72
     1
  1
A
  7
CONVERTER_11
 73
     1
 44
1.20048019207683
  0
MTEXT
  5
25B
330
71
100
AcDbEntity
  8
1
 62
     7
100
AcDbMText
 10
34.70000044774776
 20
6.16709153843533
 30
0.0
 40
3.5
 41
0.0
 71
     5
 72
     1
  1
6
  7
CONVERTER_11
 73
     1
 44
1.20048019207683
  0
MTEXT
  5
25C
330
71
100
AcDbEntity
  8
1
 62
     7
100
AcDbMText
 10
-14.54999955225145
 20
6.16709153843533
 30
0.0
 40
3.5
 41
0.0
 71
     5
 72
     1
  1
5
  7
CONVERTER_11
 73
     1
 44
1.20048019207683
  0
MTEXT
  5
25D
330
71
100
AcDbEntity
  8
1
 62
     7
100
AcDbMText
 10
-64.54999955225153
 20
6.16709153843533
 30
0.0
 40
3.5
 41
0.0
 71
     5
 72
     1
  1
4
  7
CONVERTER_11
 73
     1
 44
1.20048019207683
  0
MTEXT
  5
25E
330
71
100
AcDbEntity
  8
1
 62
     7
100
AcDbMText
 10
-114.5499995522514
 20
6.16709153843533
 30
0.0
 40
3.5
 41
0.0
 71
     5
 72
     1
  1
3
  7
CONVERTER_11
 73
     1
 44
1.20048019207683
  0
MTEXT
  5
25F
330
71
100
AcDbEntity
  8
1
 62
     7
100
AcDbMText
 10
-164.5499995522514
 20
6.16709153843533
 30
0.0
 40
3.5
 41
0.0
 71
     5
 72
     1
  1
2
  7
CONVERTER_11
 73
     1
 44
1.20048019207683
  0
MTEXT
  5
260
330
71
100
AcDbEntity
  8
1
 62
     7
100
AcDbMText
 10
-213.799999552251
 20
6.16709153843533
 30
0.0
 40
3.5
 41
0.0
 71
     5
 72
     1
  1
1
  7
CONVERTER_11
 73
     1
 44
1.20048019207683
  0
MTEXT
  5
261
330
71
100
AcDbEntity
  8
1
 62
     7
100
AcDbMText
 10
56.45000044774756
 20
31.16709153843544
 30
0.0
 40
3.5
 41
0.0
 71
     5
 72
     1
  1
D
  7
CONVERTER_11
 73
     1
 44
1.20048019207683
  0
MTEXT
  5
262
330
71
100
AcDbEntity
  8
1
 62
     7
100
AcDbMText
 10
56.45000044774756
 20
133.6670915384374
 30
0.0
 40
3.5
 41
0.0
 71
     5
 72
     1
  1
B
  7
CONVERTER_11
 73
     1
 44
1.20048019207683
  0
MTEXT
  5
263
330
71
100
AcDbEntity
  8
1
 62
     7
100
AcDbMText
 10
56.45000044774756
 20
186.1670915384354
 30
0.0
 40
3.5
 41
0.0
 71
     5
 72
     1
  1
A
  7
CONVERTER_11
 73
     1
 44
1.20048019207683
  0
MTEXT
  5
264
330
71
100
AcDbEntity
  8
1
 62
     7
100
AcDbMText
 10
56.45000044774756
 20
83.66709153843735
 30
0.0
 40
3.5
 41
0.0
 71
     5
 72
     1
  1
C
  7
CONVERTER_11
 73
     1
 44
1.20048019207683
  0
MTEXT
  5
265
330
71
100
AcDbEntity
  8
1
 62
     2
100
AcDbMText
 10
-110.032818804049
 20
21.41709153843536
 30
0.0
 40
2.0
 41
0.0
 71
     5
 72
     1
  1
General Information\P- Simplified representation\P- Document excluded from change process\P- Linear dimensions [mm]
  7
CONVERTER_11
 73
     1
 44
1.20048019207683
  0
TEXT
  5
266
330
71
100
AcDbEntity
  8
1
 62
     7
100
AcDbText
 10
-37.69480407900173
 20
18.46709153843534
 30
0.0
 40
2.5
  1
0201362
 41
0.81
  7
CONVERTER_12
100
AcDbText
  0
MTEXT
  5
267
330
71
100
AcDbEntity
  8
1
 62
     2
100
AcDbMText
 10
-38.09480407900145
 20
24.66709153843544
 30
0.0
 40
1.8
 41
0.0
 71
     1
 72
     1
  1
ident.-No.
  7
CONVERTER_11
 73
     1
 44
1.20048019207683
  0
MTEXT
  5
268
330
71
100
AcDbEntity
  8
1
 62
     2
100
AcDbMText
 10
46.13159216607127
 20
33.16709153843544
 30
0.0
 40
1.8
 41
0.0
 71
     1
 72
     1
  1
scale
  7
CONVERTER_11
 73
     1
 44
1.20048019207683
  0
MTEXT
  5
26A
330
71
100
AcDbEntity
  8
1
 62
     3
100
AcDbMText
 10
49.49079630691087
 20
26.96709153843554
 30
0.0
 40
2.5
 41
0.0
 71
     8
 72
     1
  1
1:1
  7
CONVERTER_13
 73
     1
 44
1.32052821128451
  0
TEXT
  5
26B
330
71
100
AcDbEntity
  8
1
 62
     7
100
AcDbText
 10
-38.09480407900145
 20
26.96709153843534
 30
0.0
 40
2.5
  1
40203694
 41
0.81
  7
CONVERTER_12
100
AcDbText
  0
MTEXT
  5
26D
330
71
100
AcDbEntity
  8
1
 62
     2
100
AcDbMText
 10
-38.09480407900145
 20
33.16709153843544
 30
0.0
 40
1.8
 41
0.0
 71
     1
 72
     1
  1
document-No. / RI
  7
CONVERTER_14
 73
     1
 44
1.32052821128451
  0
TEXT
  5
26E
330
71
100
AcDbEntity
  8
1
 62
     3
100
AcDbText
 10
-10.29480407900144
 20
18.46709153843534
 30
0.0
 40
2.5
  1
 
 41
0.81
  7
CONVERTER_12
100
AcDbText
  0
MTEXT
  5
26F
330
71
100
AcDbEntity
  8
1
 62
     2
100
AcDbMText
 10
-10.29480407900144
 20
24.66709153843536
 30
0.0
 40
1.8
 41
0.0
 71
     1
 72
     1
  1
document-type
  7
CONVERTER_11
 73
     1
 44
1.20048019207683
  0
MTEXT
  5
270
330
71
100
AcDbEntity
  8
1
 62
     2
100
AcDbMText
 10
19.53159216607145
 20
33.16709153843536
 30
0.0
 40
1.8
 41
0.0
 71
     1
 72
     1
  1
date
  7
CONVERTER_11
 73
     1
 44
1.32052821128451
  0
TEXT
  5
271
330
71
100
AcDbEntity
  8
1
 62
     3
100
AcDbText
 10
19.53159216607145
 20
26.96709153843534
 30
0.0
 40
2.5
  1
21.11.2017
 41
0.81
  7
CONVERTER_12
100
AcDbText
  0
TEXT
  5
272
330
71
100
AcDbEntity
  8
1
 62
     7
100
AcDbText
 10
-18.06489185994565
 20
26.96709153843534
 30
0.0
 40
2.5
  1
00
 41
0.81
  7
CONVERTER_12
100
AcDbText
  0
TEXT
  5
273
330
71
100
AcDbEntity
  8
1
 62
     7
100
AcDbText
 10
-20.22125635698765
 20
26.96709153843534
 30
0.0
 40
2.5
  1
/
 41
0.9
  7
CONVERTER_11
100
AcDbText
  0
HATCH
  5
274
330
71
100
AcDbEntity
  8
1
  6
Continuous
 62
     2
100
AcDbHatch
 10
0.0
 20
0.0
 30
0.0
210
0.0
220
0.0
230
1.0
  2
_USER
 70
     0
 71
     1
 91
        1
 92
        1
 93
       12
 72
     1
 10
-57.92730336604035
 20
19.31978201462604
 11
-59.12009606820675
 21
19.31978201462604
 72
     1
 10
-59.12009606820675
 20
19.31978201462604
 11
-59.12009606820675
 21
20.45405412346986
 72
     1
 10
-59.12009606820675
 20
20.45405412346986
 11
-60.16975364611423
 21
20.45405412346986
 72
     1
 10
-60.16975364611423
 20
20.45405412346986
 11
-60.16975364611423
 21
19.31978201462604
 72
     1
 10
-60.16975364611423
 20
19.31978201462604
 11
-61.36254634828083
 21
19.31978201462604
 72
     1
 10
-61.36254634828083
 20
19.31978201462604
 11
-61.36254634828083
 21
22.37359153843724
 72
     1
 10
-61.36254634828083
 20
22.37359153843724
 11
-60.16975364611423
 21
22.37359153843724
 72
     1
 10
-60.16975364611423
 20
22.37359153843724
 11
-60.16975364611423
 21
21.30475820510264
 72
     1
 10
-60.16975364611423
 20
21.30475820510264
 11
-59.12009606820675
 21
21.30475820510264
 72
     1
 10
-59.12009606820675
 20
21.30475820510264
 11
-59.12009606820675
 21
22.37359153843724
 72
     1
 10
-59.12009606820675
 20
22.37359153843724
 11
-57.92730336604035
 21
22.37359153843724
 72
     1
 10
-57.92730336604035
 20
22.37359153843724
 11
-57.92730336604035
 21
19.31978201462604
 97
       12
330
1E1
330
1E2
330
1CC
330
1CB
330
1CA
330
1DE
330
1C9
330
1DF
330
1E0
330
1C8
330
1C7
330
1C6
 75
     1
 76
     0
 52
45.0
 41
0.1
 77
     0
 78
     1
 53
45.0
 43
0.0
 44
0.0
 45
-0.0707106781186548
 46
0.0707106781186548
 79
     0
 98
        1
 10
0.0
 20
0.0
  0
HATCH
  5
275
330
71
100
AcDbEntity
  8
1
  6
Continuous
 62
     2
100
AcDbHatch
 10
0.0
 20
0.0
 30
0.0
210
0.0
220
0.0
230
1.0
  2
_USER
 70
     0
 71
     1
 91
        1
 92
        1
 93
       12
 72
     1
 10
-57.92730336604035
 20
19.31978201462604
 11
-59.12009606820675
 21
19.31978201462604
 72
     1
 10
-59.12009606820675
 20
19.31978201462604
 11
-59.12009606820675
 21
20.45405412346986
 72
     1
 10
-59.12009606820675
 20
20.45405412346986
 11
-60.16975364611423
 21
20.45405412346986
 72
     1
 10
-60.16975364611423
 20
20.45405412346986
 11
-60.16975364611423
 21
19.31978201462604
 72
     1
 10
-60.16975364611423
 20
19.31978201462604
 11
-61.36254634828083
 21
19.31978201462604
 72
     1
 10
-61.36254634828083
 20
19.31978201462604
 11
-61.36254634828083
 21
22.37359153843724
 72
     1
 10
-61.36254634828083
 20
22.37359153843724
 11
-60.16975364611423
 21
22.37359153843724
 72
     1
 10
-60.16975364611423
 20
22.37359153843724
 11
-60.16975364611423
 21
21.30475820510264
 72
     1
 10
-60.16975364611423
 20
21.30475820510264
 11
-59.12009606820675
 21
21.30475820510264
 72
     1
 10
-59.12009606820675
 20
21.30475820510264
 11
-59.12009606820675
 21
22.37359153843724
 72
     1
 10
-59.12009606820675
 20
22.37359153843724
 11
-57.92730336604035
 21
22.37359153843724
 72
     1
 10
-57.92730336604035
 20
22.37359153843724
 11
-57.92730336604035
 21
19.31978201462604
 97
       12
330
1E1
330
1E2
330
1CC
330
1CB
330
1CA
330
1DE
330
1C9
330
1DF
330
1E0
330
1C8
330
1C7
330
1C6
 75
     1
 76
     0
 52
45.0
 41
0.1
 77
     0
 78
     1
 53
45.0
 43
0.0
 44
0.0
 45
-0.0707106781186548
 46
0.0707106781186548
 79
     0
 98
        1
 10
0.0
 20
0.0
  0
HATCH
  5
276
330
71
100
AcDbEntity
  8
1
  6
Continuous
 62
     2
100
AcDbHatch
 10
0.0
 20
0.0
 30
0.0
210
0.0
220
0.0
230
1.0
  2
_USER
 70
     0
 71
     1
 91
        1
 92
        1
 93
       10
 72
     1
 10
-55.68500401685205
 20
17.70562555205774
 11
-56.92550842710494
 21
19.01440106226283
 72
     1
 10
-56.92550842710494
 20
19.01440106226283
 11
-58.11830112927254
 21
19.01440106226283
 72
     1
 10
-58.11830112927254
 20
19.01440106226283
 11
-58.11830112927254
 21
15.96059153845175
 72
     1
 10
-58.11830112927254
 20
15.96059153845175
 11
-56.92550842710494
 21
15.96059153845175
 72
     1
 10
-56.92550842710494
 20
15.96059153845175
 11
-56.92550842710494
 21
17.26936704865634
 72
     1
 10
-56.92550842710494
 20
17.26936704865634
 11
-55.68500401685205
 21
15.96059153845175
 72
     1
 10
-55.68500401685205
 20
15.96059153845175
 11
-54.49221131468565
 21
15.96059153845175
 72
     1
 10
-54.49221131468565
 20
15.96059153845175
 11
-54.49221131468565
 21
19.01440106226283
 72
     1
 10
-54.49221131468565
 20
19.01440106226283
 11
-55.68500401685205
 21
19.01440106226283
 72
     1
 10
-55.68500401685205
 20
19.01440106226283
 11
-55.68500401685205
 21
17.70562555205774
 97
       10
330
1EF
330
1BF
330
1BE
330
1C1
330
1EA
330
1EB
330
1C0
330
1EC
330
1ED
330
1EE
 75
     1
 76
     0
 52
45.0
 41
0.1
 77
     0
 78
     1
 53
45.0
 43
0.0
 44
0.0
 45
-0.0707106781186548
 46
0.0707106781186548
 79
     0
 98
        1
 10
0.0
 20
0.0
  0
HATCH
  5
277
330
71
100
AcDbEntity
  8
1
  6
Continuous
 62
     2
100
AcDbHatch
 10
0.0
 20
0.0
 30
0.0
210
0.0
220
0.0
230
1.0
  2
_USER
 70
     0
 71
     1
 91
        1
 92
        1
 93
       10
 72
     1
 10
-55.68500401685205
 20
17.70562555205774
 11
-56.92550842710494
 21
19.01440106226283
 72
     1
 10
-56.92550842710494
 20
19.01440106226283
 11
-58.11830112927254
 21
19.01440106226283
 72
     1
 10
-58.11830112927254
 20
19.01440106226283
 11
-58.11830112927254
 21
15.96059153845175
 72
     1
 10
-58.11830112927254
 20
15.96059153845175
 11
-56.92550842710494
 21
15.96059153845175
 72
     1
 10
-56.92550842710494
 20
15.96059153845175
 11
-56.92550842710494
 21
17.26936704865634
 72
     1
 10
-56.92550842710494
 20
17.26936704865634
 11
-55.68500401685205
 21
15.96059153845175
 72
     1
 10
-55.68500401685205
 20
15.96059153845175
 11
-54.49221131468565
 21
15.96059153845175
 72
     1
 10
-54.49221131468565
 20
15.96059153845175
 11
-54.49221131468565
 21
19.01440106226283
 72
     1
 10
-54.49221131468565
 20
19.01440106226283
 11
-55.68500401685205
 21
19.01440106226283
 72
     1
 10
-55.68500401685205
 20
19.01440106226283
 11
-55.68500401685205
 21
17.70562555205774
 97
       10
330
1EF
330
1BF
330
1BE
330
1C1
330
1EA
330
1EB
330
1C0
330
1EC
330
1ED
330
1EE
 75
     1
 76
     0
 52
45.0
 41
0.1
 77
     0
 78
     1
 53
45.0
 43
0.0
 44
0.0
 45
-0.0707106781186548
 46
0.0707106781186548
 79
     0
 98
        1
 10
0.0
 20
0.0
  0
HATCH
  5
278
330
71
100
AcDbEntity
  8
1
  6
Continuous
 62
     2
100
AcDbHatch
 10
0.0
 20
0.0
 30
0.0
210
0.0
220
0.0
230
1.0
  2
_USER
 70
     0
 71
     1
 91
        1
 92
        1
 93
       10
 72
     1
 10
-50.43656519643233
 20
21.06481602823206
 11
-51.67706960668633
 21
22.37359153843724
 72
     1
 10
-51.67706960668633
 20
22.37359153843724
 11
-52.86986230885285
 21
22.37359153843724
 72
     1
 10
-52.86986230885285
 20
22.37359153843724
 11
-52.86986230885285
 21
19.31978201462604
 72
     1
 10
-52.86986230885285
 20
19.31978201462604
 11
-51.67706960668633
 21
19.31978201462604
 72
     1
 10
-51.67706960668633
 20
19.31978201462604
 11
-51.67706960668633
 21
20.62855752483074
 72
     1
 10
-51.67706960668633
 20
20.62855752483074
 11
-50.43656519643233
 21
19.31978201462604
 72
     1
 10
-50.43656519643233
 20
19.31978201462604
 11
-49.24377249426573
 21
19.31978201462604
 72
     1
 10
-49.24377249426573
 20
19.31978201462604
 11
-49.24377249426573
 21
22.37359153843724
 72
     1
 10
-49.24377249426573
 20
22.37359153843724
 11
-50.43656519643233
 21
22.37359153843724
 72
     1
 10
-50.43656519643233
 20
22.37359153843724
 11
-50.43656519643233
 21
21.06481602823206
 97
       10
330
1F4
330
1BC
330
1BB
330
1F5
330
1BA
330
1F0
330
1F1
330
1F2
330
1F3
330
1BD
 75
     1
 76
     0
 52
45.0
 41
0.1
 77
     0
 78
     1
 53
45.0
 43
0.0
 44
0.0
 45
-0.0707106781186548
 46
0.0707106781186548
 79
     0
 98
        1
 10
0.0
 20
0.0
  0
HATCH
  5
279
330
71
100
AcDbEntity
  8
1
  6
Continuous
 62
     2
100
AcDbHatch
 10
0.0
 20
0.0
 30
0.0
210
0.0
220
0.0
230
1.0
  2
_USER
 70
     0
 71
     1
 91
        1
 92
        1
 93
       10
 72
     1
 10
-50.43656519643233
 20
21.06481602823206
 11
-51.67706960668633
 21
22.37359153843724
 72
     1
 10
-51.67706960668633
 20
22.37359153843724
 11
-52.86986230885285
 21
22.37359153843724
 72
     1
 10
-52.86986230885285
 20
22.37359153843724
 11
-52.86986230885285
 21
19.31978201462604
 72
     1
 10
-52.86986230885285
 20
19.31978201462604
 11
-51.67706960668633
 21
19.31978201462604
 72
     1
 10
-51.67706960668633
 20
19.31978201462604
 11
-51.67706960668633
 21
20.62855752483074
 72
     1
 10
-51.67706960668633
 20
20.62855752483074
 11
-50.43656519643233
 21
19.31978201462604
 72
     1
 10
-50.43656519643233
 20
19.31978201462604
 11
-49.24377249426573
 21
19.31978201462604
 72
     1
 10
-49.24377249426573
 20
19.31978201462604
 11
-49.24377249426573
 21
22.37359153843724
 72
     1
 10
-49.24377249426573
 20
22.37359153843724
 11
-50.43656519643233
 21
22.37359153843724
 72
     1
 10
-50.43656519643233
 20
22.37359153843724
 11
-50.43656519643233
 21
21.06481602823206
 97
       10
330
1F4
330
1BC
330
1BB
330
1F5
330
1BA
330
1F0
330
1F1
330
1F2
330
1F3
330
1BD
 75
     1
 76
     0
 52
45.0
 41
0.1
 77
     0
 78
     1
 53
45.0
 43
0.0
 44
0.0
 45
-0.0707106781186548
 46
0.0707106781186548
 79
     0
 98
        1
 10
0.0
 20
0.0
  0
HATCH
  5
27A
330
71
100
AcDbEntity
  8
1
  6
Continuous
 62
     2
100
AcDbHatch
 10
0.0
 20
0.0
 30
0.0
210
0.0
220
0.0
230
1.0
  2
_USER
 70
     0
 71
     1
 91
        1
 92
        1
 93
        8
 72
     1
 10
-51.53408541331183
 20
19.01440106226283
 11
-54.34907619042545
 21
19.01440106226283
 72
     1
 10
-54.34907619042545
 20
19.01440106226283
 11
-54.34907619042545
 21
18.22913575613924
 72
     1
 10
-54.34907619042545
 20
18.22913575613924
 11
-53.53797715295085
 21
18.22913575613924
 72
     1
 10
-53.53797715295085
 20
18.22913575613924
 11
-53.53797715295085
 21
15.96059153845175
 72
     1
 10
-53.53797715295085
 20
15.96059153845175
 11
-52.34518445078433
 21
15.96059153845175
 72
     1
 10
-52.34518445078433
 20
15.96059153845175
 11
-52.34518445078433
 21
18.22913575613924
 72
     1
 10
-52.34518445078433
 20
18.22913575613924
 11
-51.53408541331183
 21
18.22913575613924
 72
     1
 10
-51.53408541331183
 20
18.22913575613924
 11
-51.53408541331183
 21
19.01440106226283
 97
        8
330
1B6
330
1F6
330
1B5
330
1F7
330
1F8
330
1B9
330
1B8
330
1B7
 75
     1
 76
     0
 52
45.0
 41
0.1
 77
     0
 78
     1
 53
45.0
 43
0.0
 44
0.0
 45
-0.0707106781186548
 46
0.0707106781186548
 79
     0
 98
        1
 10
0.0
 20
0.0
  0
HATCH
  5
27B
330
71
100
AcDbEntity
  8
1
  6
Continuous
 62
     2
100
AcDbHatch
 10
0.0
 20
0.0
 30
0.0
210
0.0
220
0.0
230
1.0
  2
_USER
 70
     0
 71
     1
 91
        1
 92
        1
 93
        8
 72
     1
 10
-51.53408541331183
 20
19.01440106226283
 11
-54.34907619042545
 21
19.01440106226283
 72
     1
 10
-54.34907619042545
 20
19.01440106226283
 11
-54.34907619042545
 21
18.22913575613924
 72
     1
 10
-54.34907619042545
 20
18.22913575613924
 11
-53.53797715295085
 21
18.22913575613924
 72
     1
 10
-53.53797715295085
 20
18.22913575613924
 11
-53.53797715295085
 21
15.96059153845175
 72
     1
 10
-53.53797715295085
 20
15.96059153845175
 11
-52.34518445078433
 21
15.96059153845175
 72
     1
 10
-52.34518445078433
 20
15.96059153845175
 11
-52.34518445078433
 21
18.22913575613924
 72
     1
 10
-52.34518445078433
 20
18.22913575613924
 11
-51.53408541331183
 21
18.22913575613924
 72
     1
 10
-51.53408541331183
 20
18.22913575613924
 11
-51.53408541331183
 21
19.01440106226283
 97
        8
330
1B6
330
1F6
330
1B5
330
1F7
330
1F8
330
1B9
330
1B8
330
1B7
 75
     1
 76
     0
 52
45.0
 41
0.1
 77
     0
 78
     1
 53
45.0
 43
0.0
 44
0.0
 45
-0.0707106781186548
 46
0.0707106781186548
 79
     0
 98
        1
 10
0.0
 20
0.0
  0
HATCH
  5
27C
330
71
100
AcDbEntity
  8
1
  6
Continuous
 62
     2
100
AcDbHatch
 10
0.0
 20
0.0
 30
0.0
210
0.0
220
0.0
230
1.0
  2
_USER
 70
     0
 71
     1
 91
        2
 92
        1
 93
        8
 72
     1
 10
-49.39565795736485
 20
15.96059153845175
 11
-49.60713801084063
 21
16.50155208266963
 72
     1
 10
-49.60713801084063
 20
16.50155208266963
 11
-50.73957958751444
 21
16.50155208266963
 72
     1
 10
-50.73957958751444
 20
16.50155208266963
 11
-50.95105964099025
 21
15.96059153845175
 72
     1
 10
-50.95105964099025
 20
15.96059153845175
 11
-52.19156405124323
 21
15.96059153845175
 72
     1
 10
-52.19156405124323
 20
15.96059153845175
 11
-50.79361100430393
 21
19.01440106226283
 72
     1
 10
-50.79361100430393
 20
19.01440106226283
 11
-49.55310659405123
 21
19.01440106226283
 72
     1
 10
-49.55310659405123
 20
19.01440106226283
 11
-48.15515354711093
 21
15.96059153845175
 72
     1
 10
-48.15515354711093
 20
15.96059153845175
 11
-49.39565795736485
 21
15.96059153845175
 97
        8
330
1FA
330
1FB
330
1B2
330
1FC
330
1B1
330
1B4
330
1F9
330
1B3
 92
       16
 93
        3
 72
     1
 10
-50.47352403636944
 20
17.18211534797624
 11
-50.17335879917704
 21
17.94993031396294
 72
     1
 10
-50.17335879917704
 20
17.94993031396294
 11
-49.87319356198694
 21
17.18211534797624
 72
     1
 10
-49.87319356198694
 20
17.18211534797624
 11
-50.47352403636944
 21
17.18211534797624
 97
        3
330
1B0
330
1FE
330
1FD
 75
     1
 76
     0
 52
45.0
 41
0.1
 77
     0
 78
     1
 53
45.0
 43
0.0
 44
0.0
 45
-0.0707106781186548
 46
0.0707106781186548
 79
     0
 98
        1
 10
0.0
 20
0.0
  0
HATCH
  5
27D
330
71
100
AcDbEntity
  8
1
  6
Continuous
 62
     2
100
AcDbHatch
 10
0.0
 20
0.0
 30
0.0
210
0.0
220
0.0
230
1.0
  2
_USER
 70
     0
 71
     1
 91
        2
 92
        1
 93
        8
 72
     1
 10
-49.39565795736485
 20
15.96059153845175
 11
-49.60713801084063
 21
16.50155208266963
 72
     1
 10
-49.60713801084063
 20
16.50155208266963
 11
-50.73957958751444
 21
16.50155208266963
 72
     1
 10
-50.73957958751444
 20
16.50155208266963
 11
-50.95105964099025
 21
15.96059153845175
 72
     1
 10
-50.95105964099025
 20
15.96059153845175
 11
-52.19156405124323
 21
15.96059153845175
 72
     1
 10
-52.19156405124323
 20
15.96059153845175
 11
-50.79361100430393
 21
19.01440106226283
 72
     1
 10
-50.79361100430393
 20
19.01440106226283
 11
-49.55310659405123
 21
19.01440106226283
 72
     1
 10
-49.55310659405123
 20
19.01440106226283
 11
-48.15515354711093
 21
15.96059153845175
 72
     1
 10
-48.15515354711093
 20
15.96059153845175
 11
-49.39565795736485
 21
15.96059153845175
 97
        8
330
1FA
330
1FB
330
1B2
330
1FC
330
1B1
330
1B4
330
1F9
330
1B3
 92
       16
 93
        3
 72
     1
 10
-50.47352403636944
 20
17.18211534797624
 11
-50.17335879917704
 21
17.94993031396294
 72
     1
 10
-50.17335879917704
 20
17.94993031396294
 11
-49.87319356198694
 21
17.18211534797624
 72
     1
 10
-49.87319356198694
 20
17.18211534797624
 11
-50.47352403636944
 21
17.18211534797624
 97
        3
330
1B0
330
1FE
330
1FD
 75
     1
 76
     0
 52
45.0
 41
0.1
 77
     0
 78
     1
 53
45.0
 43
0.0
 44
0.0
 45
-0.0707106781186548
 46
0.0707106781186548
 79
     0
 98
        1
 10
0.0
 20
0.0
  0
HATCH
  5
27E
330
71
100
AcDbEntity
  8
1
  6
Continuous
 62
     2
100
AcDbHatch
 10
0.0
 20
0.0
 30
0.0
210
0.0
220
0.0
230
1.0
  2
_USER
 70
     0
 71
     1
 91
        1
 92
        1
 93
        4
 72
     1
 10
-47.76470954357893
 20
19.31978201462604
 11
-49.00521395383183
 21
19.31978201462604
 72
     1
 10
-49.00521395383183
 20
19.31978201462604
 11
-49.00521395383183
 21
22.37359153843724
 72
     1
 10
-49.00521395383183
 20
22.37359153843724
 11
-47.76470954357893
 21
22.37359153843724
 72
     1
 10
-47.76470954357893
 20
22.37359153843724
 11
-47.76470954357893
 21
19.31978201462604
 97
        4
330
1AD
330
1AF
330
1FF
330
1AE
 75
     1
 76
     0
 52
45.0
 41
0.1
 77
     0
 78
     1
 53
45.0
 43
0.0
 44
0.0
 45
-0.0707106781186548
 46
0.0707106781186548
 79
     0
 98
        1
 10
0.0
 20
0.0
  0
HATCH
  5
27F
330
71
100
AcDbEntity
  8
1
  6
Continuous
 62
     2
100
AcDbHatch
 10
0.0
 20
0.0
 30
0.0
210
0.0
220
0.0
230
1.0
  2
_USER
 70
     0
 71
     1
 91
        1
 92
        1
 93
        4
 72
     1
 10
-47.76470954357893
 20
19.31978201462604
 11
-49.00521395383183
 21
19.31978201462604
 72
     1
 10
-49.00521395383183
 20
19.31978201462604
 11
-49.00521395383183
 21
22.37359153843724
 72
     1
 10
-49.00521395383183
 20
22.37359153843724
 11
-47.76470954357893
 21
22.37359153843724
 72
     1
 10
-47.76470954357893
 20
22.37359153843724
 11
-47.76470954357893
 21
19.31978201462604
 97
        4
330
1AD
330
1AF
330
1FF
330
1AE
 75
     1
 76
     0
 52
45.0
 41
0.1
 77
     0
 78
     1
 53
45.0
 43
0.0
 44
0.0
 45
-0.0707106781186548
 46
0.0707106781186548
 79
     0
 98
        1
 10
0.0
 20
0.0
  0
HATCH
  5
280
330
71
100
AcDbEntity
  8
1
  6
Continuous
 62
     2
100
AcDbHatch
 10
0.0
 20
0.0
 30
0.0
210
0.0
220
0.0
230
1.0
  2
_USER
 70
     0
 71
     1
 91
        1
 92
        1
 93
       12
 72
     1
 10
-43.54222337790813
 20
22.37359153843724
 11
-44.84475300867464
 21
20.90064100840104
 72
     1
 10
-44.84475300867464
 20
20.90064100840104
 11
-43.44679996173434
 21
19.31978201462604
 72
     1
 10
-43.44679996173434
 20
19.31978201462604
 11
-44.84952417948264
 21
19.31978201462604
 72
     1
 10
-44.84952417948264
 20
19.31978201462604
 11
-45.54611511754814
 21
20.10751379991976
 72
     1
 10
-45.54611511754814
 20
20.10751379991976
 11
-46.24270605561384
 21
19.31978201462604
 72
     1
 10
-46.24270605561384
 20
19.31978201462604
 11
-47.64543027336205
 21
19.31978201462604
 72
     1
 10
-47.64543027336205
 20
19.31978201462604
 11
-46.24747722642175
 21
20.90064100840104
 72
     1
 10
-46.24747722642175
 20
20.90064100840104
 11
-47.55000685718923
 21
22.37359153843724
 72
     1
 10
-47.55000685718923
 20
22.37359153843724
 11
-46.14728263943994
 21
22.37359153843724
 72
     1
 10
-46.14728263943994
 20
22.37359153843724
 11
-45.54611511754814
 21
21.69376821688175
 72
     1
 10
-45.54611511754814
 20
21.69376821688175
 11
-44.94494759565535
 21
22.37359153843724
 72
     1
 10
-44.94494759565535
 20
22.37359153843724
 11
-43.54222337790813
 21
22.37359153843724
 97
       12
330
1A8
330
1A7
330
1A6
330
203
330
204
330
200
330
201
330
1AC
330
1AB
330
1AA
330
1A9
330
202
 75
     1
 76
     0
 52
45.0
 41
0.1
 77
     0
 78
     1
 53
45.0
 43
0.0
 44
0.0
 45
-0.0707106781186548
 46
0.0707106781186548
 79
     0
 98
        1
 10
0.0
 20
0.0
  0
HATCH
  5
281
330
71
100
AcDbEntity
  8
1
  6
Continuous
 62
     2
100
AcDbHatch
 10
0.0
 20
0.0
 30
0.0
210
0.0
220
0.0
230
1.0
  2
_USER
 70
     0
 71
     1
 91
        1
 92
        1
 93
       12
 72
     1
 10
-43.54222337790813
 20
22.37359153843724
 11
-44.84475300867464
 21
20.90064100840104
 72
     1
 10
-44.84475300867464
 20
20.90064100840104
 11
-43.44679996173434
 21
19.31978201462604
 72
     1
 10
-43.44679996173434
 20
19.31978201462604
 11
-44.84952417948264
 21
19.31978201462604
 72
     1
 10
-44.84952417948264
 20
19.31978201462604
 11
-45.54611511754814
 21
20.10751379991976
 72
     1
 10
-45.54611511754814
 20
20.10751379991976
 11
-46.24270605561384
 21
19.31978201462604
 72
     1
 10
-46.24270605561384
 20
19.31978201462604
 11
-47.64543027336205
 21
19.31978201462604
 72
     1
 10
-47.64543027336205
 20
19.31978201462604
 11
-46.24747722642175
 21
20.90064100840104
 72
     1
 10
-46.24747722642175
 20
20.90064100840104
 11
-47.55000685718923
 21
22.37359153843724
 72
     1
 10
-47.55000685718923
 20
22.37359153843724
 11
-46.14728263943994
 21
22.37359153843724
 72
     1
 10
-46.14728263943994
 20
22.37359153843724
 11
-45.54611511754814
 21
21.69376821688175
 72
     1
 10
-45.54611511754814
 20
21.69376821688175
 11
-44.94494759565535
 21
22.37359153843724
 72
     1
 10
-44.94494759565535
 20
22.37359153843724
 11
-43.54222337790813
 21
22.37359153843724
 97
       12
330
1A8
330
1A7
330
1A6
330
203
330
204
330
200
330
201
330
1AC
330
1AB
330
1AA
330
1A9
330
202
 75
     1
 76
     0
 52
45.0
 41
0.1
 77
     0
 78
     1
 53
45.0
 43
0.0
 44
0.0
 45
-0.0707106781186548
 46
0.0707106781186548
 79
     0
 98
        1
 10
0.0
 20
0.0
  0
HATCH
  5
282
330
71
100
AcDbEntity
  8
1
  6
Continuous
 62
     2
100
AcDbHatch
 10
0.0
 20
0.0
 30
0.0
210
0.0
220
0.0
230
1.0
  2
_USER
 70
     0
 71
     1
 91
        2
 92
        1
 93
        6
 72
     1
 10
-62.55995879205415
 20
20.26286025576985
 11
-63.31872637983443
 21
20.26286025576985
 72
     1
 10
-63.31872637983443
 20
20.26286025576985
 11
-63.31872637983443
 21
19.31978201462604
 72
     1
 10
-63.31872637983443
 20
19.31978201462604
 11
-64.55923079008855
 21
19.31978201462604
 72
     1
 10
-64.55923079008855
 20
19.31978201462604
 11
-64.55923079008855
 21
22.37359153843724
 72
     1
 10
-64.55923079008855
 20
22.37359153843724
 11
-62.55995879205415
 21
22.37359153843724
 72
     2
 10
-62.55995879205415
 20
21.31822589710356
 40
1.055365641333708
 50
270.0
 51
450.0
 73
     0
 97
        6
330
1D0
330
1CF
330
1DC
330
1DB
330
1D1
330
221
 92
       16
 93
        4
 72
     2
 10
-63.00143131829253
 20
21.35762186832605
 40
0.3528638246711182
 50
270.0
 51
450.0
 73
     1
 72
     1
 10
-63.00143131829253
 20
21.71048569299714
 11
-63.31872637983443
 21
21.71048569299714
 72
     1
 10
-63.31872637983443
 20
21.71048569299714
 11
-63.31872637983443
 21
21.00475804365493
 72
     1
 10
-63.31872637983443
 20
21.00475804365493
 11
-63.00143131829253
 21
21.00475804365493
 97
        4
330
235
330
1CD
330
1DD
330
1CE
 75
     1
 76
     0
 52
45.0
 41
0.1
 77
     0
 78
     1
 53
45.0
 43
0.0
 44
0.0
 45
-0.0707106781186548
 46
0.0707106781186548
 79
     0
 98
        1
 10
0.0
 20
0.0
  0
HATCH
  5
283
330
71
100
AcDbEntity
  8
1
  6
Continuous
 62
     2
100
AcDbHatch
 10
0.0
 20
0.0
 30
0.0
210
0.0
220
0.0
230
1.0
  2
_USER
 70
     0
 71
     1
 91
        2
 92
        1
 93
        6
 72
     1
 10
-62.55995879205415
 20
20.26286025576985
 11
-63.31872637983443
 21
20.26286025576985
 72
     1
 10
-63.31872637983443
 20
20.26286025576985
 11
-63.31872637983443
 21
19.31978201462604
 72
     1
 10
-63.31872637983443
 20
19.31978201462604
 11
-64.55923079008855
 21
19.31978201462604
 72
     1
 10
-64.55923079008855
 20
19.31978201462604
 11
-64.55923079008855
 21
22.37359153843724
 72
     1
 10
-64.55923079008855
 20
22.37359153843724
 11
-62.55995879205415
 21
22.37359153843724
 72
     2
 10
-62.55995879205415
 20
21.31822589710356
 40
1.055365641333708
 50
270.0
 51
450.0
 73
     0
 97
        6
330
1D0
330
1CF
330
1DC
330
1DB
330
1D1
330
221
 92
       16
 93
        4
 72
     2
 10
-63.00143131829253
 20
21.35762186832605
 40
0.3528638246711182
 50
270.0
 51
450.0
 73
     1
 72
     1
 10
-63.00143131829253
 20
21.71048569299714
 11
-63.31872637983443
 21
21.71048569299714
 72
     1
 10
-63.31872637983443
 20
21.71048569299714
 11
-63.31872637983443
 21
21.00475804365493
 72
     1
 10
-63.31872637983443
 20
21.00475804365493
 11
-63.00143131829253
 21
21.00475804365493
 97
        4
330
235
330
1CD
330
1DD
330
1CE
 75
     1
 76
     0
 52
45.0
 41
0.1
 77
     0
 78
     1
 53
45.0
 43
0.0
 44
0.0
 45
-0.0707106781186548
 46
0.0707106781186548
 79
     0
 98
        1
 10
0.0
 20
0.0
  0
HATCH
  5
284
330
71
100
AcDbEntity
  8
1
  6
Continuous
 62
     2
100
AcDbHatch
 10
0.0
 20
0.0
 30
0.0
210
0.0
220
0.0
230
1.0
  2
_USER
 70
     0
 71
     1
 91
        2
 92
        1
 93
        4
 72
     2
 10
-60.00341604369504
 20
16.94892129005424
 40
2.065479772208571
 50
62.45185182430664
 51
117.5481481756663
 73
     1
 72
     2
 10
-60.28435593552834
 20
17.48749630035704
 40
1.45803408365149
 50
117.5481481756624
 51
242.4518518243375
 73
     1
 72
     2
 10
-60.00341604369504
 20
18.02607131066034
 40
2.065479772208502
 50
242.4518518243401
 51
297.548148175687
 73
     1
 72
     2
 10
-59.72247615186174
 20
17.48749630035704
 40
1.458034083651999
 50
297.5481481757009
 51
422.4518518242992
 73
     1
 97
        4
330
22D
330
22C
330
22E
330
22B
 92
       16
 93
        4
 72
     2
 10
-60.20315608004145
 20
17.48749630035704
 40
0.7717997786796947
 50
321.8795802028417
 51
398.120419797153
 73
     1
 72
     2
 10
-60.00341604369504
 20
17.64422747847755
 40
0.5179085730132976
 50
38.12041979714672
 51
141.8795802028591
 73
     1
 72
     2
 10
-59.80367600734894
 20
17.48749630035704
 40
0.771799778679461
 50
141.8795802028365
 51
218.1204197971687
 73
     1
 72
     2
 10
-60.00341604369504
 20
17.33076512223704
 40
0.5179085730137332
 50
218.1204197971929
 51
321.8795802028013
 73
     1
 97
        4
330
249
330
246
330
247
330
248
 75
     1
 76
     0
 52
45.0
 41
0.1
 77
     0
 78
     1
 53
45.0
 43
0.0
 44
0.0
 45
-0.0707106781186548
 46
0.0707106781186548
 79
     0
 98
        1
 10
0.0
 20
0.0
  0
HATCH
  5
285
330
71
100
AcDbEntity
  8
1
  6
Continuous
 62
     2
100
AcDbHatch
 10
0.0
 20
0.0
 30
0.0
210
0.0
220
0.0
230
1.0
  2
_USER
 70
     0
 71
     1
 91
        2
 92
        1
 93
        4
 72
     2
 10
-60.00341604369504
 20
16.94892129005424
 40
2.065479772208571
 50
62.45185182430664
 51
117.5481481756663
 73
     1
 72
     2
 10
-60.28435593552834
 20
17.48749630035704
 40
1.45803408365149
 50
117.5481481756624
 51
242.4518518243375
 73
     1
 72
     2
 10
-60.00341604369504
 20
18.02607131066034
 40
2.065479772208502
 50
242.4518518243401
 51
297.548148175687
 73
     1
 72
     2
 10
-59.72247615186174
 20
17.48749630035704
 40
1.458034083651999
 50
297.5481481757009
 51
422.4518518242992
 73
     1
 97
        4
330
22D
330
22C
330
22E
330
22B
 92
       16
 93
        4
 72
     2
 10
-60.20315608004145
 20
17.48749630035704
 40
0.7717997786796947
 50
321.8795802028417
 51
398.120419797153
 73
     1
 72
     2
 10
-60.00341604369504
 20
17.64422747847755
 40
0.5179085730132976
 50
38.12041979714672
 51
141.8795802028591
 73
     1
 72
     2
 10
-59.80367600734894
 20
17.48749630035704
 40
0.771799778679461
 50
141.8795802028365
 51
218.1204197971687
 73
     1
 72
     2
 10
-60.00341604369504
 20
17.33076512223704
 40
0.5179085730137332
 50
218.1204197971929
 51
321.8795802028013
 73
     1
 97
        4
330
249
330
246
330
247
330
248
 75
     1
 76
     0
 52
45.0
 41
0.1
 77
     0
 78
     1
 53
45.0
 43
0.0
 44
0.0
 45
-0.0707106781186548
 46
0.0707106781186548
 79
     0
 98
        1
 10
0.0
 20
0.0
  0
HATCH
  5
286
330
71
100
AcDbEntity
  8
1
  6
Continuous
 62
     2
100
AcDbHatch
 10
0.0
 20
0.0
 30
0.0
210
0.0
220
0.0
230
1.0
  2
_USER
 70
     0
 71
     1
 91
        2
 92
        1
 93
       12
 72
     1
 10
-53.10842084928575
 20
21.67557793299426
 11
-54.44434867571343
 21
21.67557793299426
 72
     1
 10
-54.44434867571343
 20
21.67557793299426
 11
-54.44434867571343
 21
21.19569357925255
 72
     1
 10
-54.44434867571343
 20
21.19569357925255
 11
-53.10842084928575
 21
21.19569357925255
 72
     1
 10
-53.10842084928575
 20
21.19569357925255
 11
-53.10842084928575
 21
20.49767997381025
 72
     1
 10
-53.10842084928575
 20
20.49767997381025
 11
-54.44434867571343
 21
20.49767997381025
 72
     1
 10
-54.44434867571343
 20
20.49767997381025
 11
-54.44434867571343
 21
20.01779562006854
 72
     1
 10
-54.44434867571343
 20
20.01779562006854
 11
-53.10842084928575
 21
20.01779562006854
 72
     1
 10
-53.10842084928575
 20
20.01779562006854
 11
-53.10842084928575
 21
19.31978201462604
 72
     1
 10
-53.10842084928575
 20
19.31978201462604
 11
-56.25874057306675
 21
19.31978201462604
 72
     2
 10
-56.25874057306675
 20
20.84668677653136
 40
1.526904761905879
 50
90.0
 51
270.0
 73
     0
 72
     1
 10
-56.25874057306675
 20
22.37359153843724
 11
-53.10842084928575
 21
22.37359153843724
 72
     1
 10
-53.10842084928575
 20
22.37359153843724
 11
-53.10842084928575
 21
21.67557793299426
 97
       12
330
1E4
330
236
330
1E5
330
1E6
330
1E7
330
1E8
330
1C5
330
1C4
330
1C3
330
1C2
330
1E9
330
1E3
 92
       16
 93
        4
 72
     2
 10
-56.04246856290155
 20
21.00341795465184
 40
0.5179085730135266
 50
38.12041979714334
 51
141.8795802028489
 73
     1
 72
     2
 10
-55.84272852655525
 20
20.84668677653136
 40
0.7717997786796724
 50
141.8795802028404
 51
218.1204197971566
 73
     1
 72
     2
 10
-56.04246856290155
 20
20.68995559841093
 40
0.5179085730134372
 50
218.1204197971511
 51
321.8795802028566
 73
     1
 72
     2
 10
-56.24220859924773
 20
20.84668677653136
 40
0.7717997786796417
 50
321.8795802028433
 51
398.1204197971596
 73
     1
 97
        4
330
230
330
22F
330
22A
330
229
 75
     1
 76
     0
 52
45.0
 41
0.1
 77
     0
 78
     1
 53
45.0
 43
0.0
 44
0.0
 45
-0.0707106781186548
 46
0.0707106781186548
 79
     0
 98
        1
 10
0.0
 20
0.0
  0
HATCH
  5
287
330
71
100
AcDbEntity
  8
1
  6
Continuous
 62
     2
100
AcDbHatch
 10
0.0
 20
0.0
 30
0.0
210
0.0
220
0.0
230
1.0
  2
_USER
 70
     0
 71
     1
 91
        2
 92
        1
 93
       12
 72
     1
 10
-53.10842084928575
 20
21.67557793299426
 11
-54.44434867571343
 21
21.67557793299426
 72
     1
 10
-54.44434867571343
 20
21.67557793299426
 11
-54.44434867571343
 21
21.19569357925255
 72
     1
 10
-54.44434867571343
 20
21.19569357925255
 11
-53.10842084928575
 21
21.19569357925255
 72
     1
 10
-53.10842084928575
 20
21.19569357925255
 11
-53.10842084928575
 21
20.49767997381025
 72
     1
 10
-53.10842084928575
 20
20.49767997381025
 11
-54.44434867571343
 21
20.49767997381025
 72
     1
 10
-54.44434867571343
 20
20.49767997381025
 11
-54.44434867571343
 21
20.01779562006854
 72
     1
 10
-54.44434867571343
 20
20.01779562006854
 11
-53.10842084928575
 21
20.01779562006854
 72
     1
 10
-53.10842084928575
 20
20.01779562006854
 11
-53.10842084928575
 21
19.31978201462604
 72
     1
 10
-53.10842084928575
 20
19.31978201462604
 11
-56.25874057306675
 21
19.31978201462604
 72
     2
 10
-56.25874057306675
 20
20.84668677653136
 40
1.526904761905879
 50
90.0
 51
270.0
 73
     0
 72
     1
 10
-56.25874057306675
 20
22.37359153843724
 11
-53.10842084928575
 21
22.37359153843724
 72
     1
 10
-53.10842084928575
 20
22.37359153843724
 11
-53.10842084928575
 21
21.67557793299426
 97
       12
330
1E4
330
236
330
1E5
330
1E6
330
1E7
330
1E8
330
1C5
330
1C4
330
1C3
330
1C2
330
1E9
330
1E3
 92
       16
 93
        4
 72
     2
 10
-56.04246856290155
 20
21.00341795465184
 40
0.5179085730135266
 50
38.12041979714334
 51
141.8795802028489
 73
     1
 72
     2
 10
-55.84272852655525
 20
20.84668677653136
 40
0.7717997786796724
 50
141.8795802028404
 51
218.1204197971566
 73
     1
 72
     2
 10
-56.04246856290155
 20
20.68995559841093
 40
0.5179085730134372
 50
218.1204197971511
 51
321.8795802028566
 73
     1
 72
     2
 10
-56.24220859924773
 20
20.84668677653136
 40
0.7717997786796417
 50
321.8795802028433
 51
398.1204197971596
 73
     1
 97
        4
330
230
330
22F
330
22A
330
229
 75
     1
 76
     0
 52
45.0
 41
0.1
 77
     0
 78
     1
 53
45.0
 43
0.0
 44
0.0
 45
-0.0707106781186548
 46
0.0707106781186548
 79
     0
 98
        1
 10
0.0
 20
0.0
  0
HATCH
  5
288
330
71
100
AcDbEntity
  8
1
  6
Continuous
 62
     2
100
AcDbHatch
 10
0.0
 20
0.0
 30
0.0
210
0.0
220
0.0
230
1.0
  2
_USER
 70
     0
 71
     1
 91
        4
 92
        1
 93
        8
 72
     1
 10
-65.03634787095535
 20
21.94934692303525
 11
-65.03634787095535
 21
16.38483615383504
 72
     2
 10
-65.46059248633924
 20
16.38483615383504
 40
0.4242446153832891
 50
0.0
 51
90.0
 73
     0
 72
     1
 10
-65.46059248633924
 20
15.96059153845175
 11
-70.93390457705604
 21
15.96059153845175
 72
     2
 10
-70.93390457705604
 20
16.38483615383504
 40
0.4242446153828041
 50
90.0
 51
180.0
 73
     0
 72
     1
 10
-71.35814919243884
 20
16.38483615383504
 11
-71.35814919243884
 21
21.94934692303525
 72
     2
 10
-70.93390457705604
 20
21.94934692303525
 40
0.4242446153837989
 50
180.0
 51
270.0
 73
     0
 72
     1
 10
-70.93390457705604
 20
22.37359153841905
 11
-65.46059248633924
 21
22.37359153841905
 72
     2
 10
-65.46059248633924
 20
21.94934692303525
 40
0.4242446153838841
 50
270.0
 51
360.0
 73
     0
 97
        8
330
1D8
330
226
330
1D9
330
231
330
1D6
330
228
330
1D7
330
227
 92
       16
 93
        1
 72
     2
 10
-68.31431892653853
 20
19.63046469467975
 40
0.4709789327785074
 50
0.0
 51
360.0
 73
     1
 97
        1
330
24C
 92
       16
 93
        8
 72
     2
 10
-67.76446121377785
 20
18.52132309471134
 40
0.3157169230765232
 50
115.3740086783527
 51
180.0
 73
     1
 72
     1
 10
-68.08017813685464
 20
18.52132309471134
 11
-68.08017813685464
 21
17.93947168801626
 72
     2
 10
-67.76446121377785
 20
17.93947168801626
 40
0.315716923076792
 50
180.0
 51
269.8110329574542
 73
     1
 72
     2
 10
-67.75884507846783
 20
19.64230663558524
 40
2.018561131933266
 50
269.8110329575858
 51
450.1889670424142
 73
     1
 72
     2
 10
-67.76446121377785
 20
21.34514158315434
 40
0.3157169230760746
 50
90.18896704254594
 51
180.0
 73
     1
 72
     1
 10
-68.08017813685464
 20
21.34514158315434
 11
-68.08017813685464
 21
20.73960629464756
 72
     2
 10
-67.76446121377785
 20
20.73960629464756
 40
0.315716923076792
 50
180.0
 51
244.6259913216484
 73
     1
 72
     2
 10
-68.29050391186573
 20
19.63046469467975
 40
0.9118481501444653
 50
295.3740086781926
 51
424.6259913218237
 73
     0
 97
        8
330
23E
330
19F
330
23B
330
23C
330
21A
330
19E
330
23D
330
219
 92
       16
 93
       12
 72
     2
 10
-70.34000990030955
 20
16.98886401708535
 40
0.3157169230756836
 50
180.0
 51
270.0
 73
     1
 72
     1
 10
-70.34000990030955
 20
16.67314709400864
 11
-68.86417663929993
 21
16.67314709400864
 72
     2
 10
-68.86417663929993
 20
16.98886401708535
 40
0.3157169230767103
 50
270.0
 51
360.0
 73
     1
 72
     1
 10
-68.54845971622333
 20
16.98886401708535
 11
-68.54845971622333
 21
18.51963494861695
 72
     2
 10
-68.86417663929993
 20
18.51963494861695
 40
0.315716923076593
 50
0.0
 51
64.80558935146027
 73
     1
 72
     2
 10
-68.34159219172494
 20
19.63046469467975
 40
0.9118975235576114
 50
115.1944106485121
 51
244.8055893514717
 73
     0
 72
     2
 10
-68.86417663929993
 20
20.74129444074194
 40
0.3157169230761203
 50
295.1944106485397
 51
360.0
 73
     1
 72
     1
 10
-68.54845971622333
 20
20.74129444074194
 11
-68.54845971622333
 21
21.34531905980245
 72
     2
 10
-68.86417663929993
 20
21.34531905980245
 40
0.315716923076593
 50
0.0
 51
90.0
 73
     1
 72
     1
 10
-68.86417663929993
 20
21.66103598287864
 11
-70.34000990030955
 21
21.66103598287864
 72
     2
 10
-70.34000990030955
 20
21.34531905980245
 40
0.3157169230761916
 50
90.0
 51
180.0
 73
     1
 72
     1
 10
-70.65572682338524
 20
21.34531905980245
 11
-70.65572682338524
 21
16.98886401708535
 97
       12
330
222
330
1DA
330
225
330
1D5
330
232
330
233
330
224
330
1D4
330
223
330
1D3
330
234
330
1D2
 75
     1
 76
     0
 52
45.0
 41
0.1
 77
     0
 78
     1
 53
45.0
 43
0.0
 44
0.0
 45
-0.0707106781186548
 46
0.0707106781186548
 79
     0
 98
        1
 10
0.0
 20
0.0
  0
HATCH
  5
289
330
71
100
AcDbEntity
  8
1
  6
Continuous
 62
     2
100
AcDbHatch
 10
0.0
 20
0.0
 30
0.0
210
0.0
220
0.0
230
1.0
  2
_USER
 70
     0
 71
     1
 91
        4
 92
        1
 93
        8
 72
     1
 10
-65.03634787095535
 20
21.94934692303525
 11
-65.03634787095535
 21
16.38483615383504
 72
     2
 10
-65.46059248633924
 20
16.38483615383504
 40
0.4242446153832891
 50
0.0
 51
90.0
 73
     0
 72
     1
 10
-65.46059248633924
 20
15.96059153845175
 11
-70.93390457705604
 21
15.96059153845175
 72
     2
 10
-70.93390457705604
 20
16.38483615383504
 40
0.4242446153828041
 50
90.0
 51
180.0
 73
     0
 72
     1
 10
-71.35814919243884
 20
16.38483615383504
 11
-71.35814919243884
 21
21.94934692303525
 72
     2
 10
-70.93390457705604
 20
21.94934692303525
 40
0.4242446153837989
 50
180.0
 51
270.0
 73
     0
 72
     1
 10
-70.93390457705604
 20
22.37359153841905
 11
-65.46059248633924
 21
22.37359153841905
 72
     2
 10
-65.46059248633924
 20
21.94934692303525
 40
0.4242446153838841
 50
270.0
 51
360.0
 73
     0
 97
        8
330
1D8
330
226
330
1D9
330
231
330
1D6
330
228
330
1D7
330
227
 92
       16
 93
        1
 72
     2
 10
-68.31431892653853
 20
19.63046469467975
 40
0.4709789327785074
 50
0.0
 51
360.0
 73
     1
 97
        1
330
24C
 92
       16
 93
        8
 72
     2
 10
-67.76446121377785
 20
18.52132309471134
 40
0.3157169230765232
 50
115.3740086783527
 51
180.0
 73
     1
 72
     1
 10
-68.08017813685464
 20
18.52132309471134
 11
-68.08017813685464
 21
17.93947168801626
 72
     2
 10
-67.76446121377785
 20
17.93947168801626
 40
0.315716923076792
 50
180.0
 51
269.8110329574542
 73
     1
 72
     2
 10
-67.75884507846783
 20
19.64230663558524
 40
2.018561131933266
 50
269.8110329575858
 51
450.1889670424142
 73
     1
 72
     2
 10
-67.76446121377785
 20
21.34514158315434
 40
0.3157169230760746
 50
90.18896704254594
 51
180.0
 73
     1
 72
     1
 10
-68.08017813685464
 20
21.34514158315434
 11
-68.08017813685464
 21
20.73960629464756
 72
     2
 10
-67.76446121377785
 20
20.73960629464756
 40
0.315716923076792
 50
180.0
 51
244.6259913216484
 73
     1
 72
     2
 10
-68.29050391186573
 20
19.63046469467975
 40
0.9118481501444653
 50
295.3740086781926
 51
424.6259913218237
 73
     0
 97
        8
330
23E
330
19F
330
23B
330
23C
330
21A
330
19E
330
23D
330
219
 92
       16
 93
       12
 72
     2
 10
-70.34000990030955
 20
16.98886401708535
 40
0.3157169230756836
 50
180.0
 51
270.0
 73
     1
 72
     1
 10
-70.34000990030955
 20
16.67314709400864
 11
-68.86417663929993
 21
16.67314709400864
 72
     2
 10
-68.86417663929993
 20
16.98886401708535
 40
0.3157169230767103
 50
270.0
 51
360.0
 73
     1
 72
     1
 10
-68.54845971622333
 20
16.98886401708535
 11
-68.54845971622333
 21
18.51963494861695
 72
     2
 10
-68.86417663929993
 20
18.51963494861695
 40
0.315716923076593
 50
0.0
 51
64.80558935146027
 73
     1
 72
     2
 10
-68.34159219172494
 20
19.63046469467975
 40
0.9118975235576114
 50
115.1944106485121
 51
244.8055893514717
 73
     0
 72
     2
 10
-68.86417663929993
 20
20.74129444074194
 40
0.3157169230761203
 50
295.1944106485397
 51
360.0
 73
     1
 72
     1
 10
-68.54845971622333
 20
20.74129444074194
 11
-68.54845971622333
 21
21.34531905980245
 72
     2
 10
-68.86417663929993
 20
21.34531905980245
 40
0.315716923076593
 50
0.0
 51
90.0
 73
     1
 72
     1
 10
-68.86417663929993
 20
21.66103598287864
 11
-70.34000990030955
 21
21.66103598287864
 72
     2
 10
-70.34000990030955
 20
21.34531905980245
 40
0.3157169230761916
 50
90.0
 51
180.0
 73
     1
 72
     1
 10
-70.65572682338524
 20
21.34531905980245
 11
-70.65572682338524
 21
16.98886401708535
 97
       12
330
222
330
1DA
330
225
330
1D5
330
232
330
233
330
224
330
1D4
330
223
330
1D3
330
234
330
1D2
 75
     1
 76
     0
 52
45.0
 41
0.1
 77
     0
 78
     1
 53
45.0
 43
0.0
 44
0.0
 45
-0.0707106781186548
 46
0.0707106781186548
 79
     0
 98
        1
 10
0.0
 20
0.0
  0
HATCH
  5
28A
330
71
100
AcDbEntity
  8
1
  6
Continuous
 62
     2
100
AcDbHatch
 10
0.0
 20
0.0
 30
0.0
210
0.0
220
0.0
230
1.0
  2
_USER
 70
     0
 71
     1
 91
        1
 92
        1
 93
       18
 72
     1
 10
-43.44679996173434
 20
18.22913575613924
 11
-44.25789899920773
 21
18.22913575613924
 72
     1
 10
-44.25789899920773
 20
18.22913575613924
 11
-44.25789899920773
 21
15.96059153845175
 72
     1
 10
-44.25789899920773
 20
15.96059153845175
 11
-45.45069170137543
 21
15.96059153845175
 72
     1
 10
-45.45069170137543
 20
15.96059153845175
 11
-45.45069170137543
 21
18.22913575613924
 72
     1
 10
-45.45069170137543
 20
18.22913575613924
 11
-46.55433100094353
 21
18.22913575613924
 72
     2
 10
-46.55433100094353
 20
17.27461274931315
 40
0.9545230068260899
 50
90.0
 51
109.3371432194329
 73
     1
 72
     2
 10
-46.70100099904724
 20
17.69256772969604
 40
0.5115800601944099
 50
109.3371432194863
 51
151.4785267424232
 73
     1
 72
     2
 10
-46.32364374096585
 20
17.48749630035704
 40
0.941059735334897
 50
151.4785267423628
 51
208.5214732576693
 73
     1
 72
     2
 10
-46.70100099904724
 20
17.28242487101855
 40
0.5115800601960261
 50
208.5214732576859
 51
246.6277221118451
 73
     1
 72
     2
 10
-46.54456096634414
 20
17.64441688972855
 40
0.9059297849852838
 50
246.6277221118188
 51
288.4480761180822
 73
     1
 72
     2
 10
-46.96272870000604
 20
18.89796266576514
 40
2.227384008972746
 50
288.4480761181335
 51
301.9309089499396
 73
     1
 72
     1
 10
-45.78467365798213
 20
17.00761194661536
 11
-45.78467365798213
 21
16.13509493981204
 72
     2
 10
-47.12060157509885
 20
20.80017724561344
 40
4.852596863498825
 50
74.02000874166129
 51
84.8418552303636
 73
     0
 72
     2
 10
-46.83174548036303
 20
17.60028666239185
 40
1.639695123940442
 50
84.8418552303235
 51
164.9381082228987
 73
     0
 72
     2
 10
-47.25087332382464
 20
17.48749630035704
 40
1.205656168392995
 50
164.9381082229037
 51
195.0618917770971
 73
     0
 72
     2
 10
-46.83174548036303
 20
17.37470593832214
 40
1.639695123940211
 50
195.061891777105
 51
270.0
 73
     0
 72
     1
 10
-46.83174548036303
 20
19.01440106226235
 11
-43.44679996173434
 21
19.01440106226283
 72
     1
 10
-43.44679996173434
 20
19.01440106226283
 11
-43.44679996173434
 21
18.22913575613924
 97
       18
330
1A1
330
237
330
238
330
220
330
21F
330
205
330
21E
330
21D
330
239
330
21C
330
23A
330
21B
330
206
330
1A0
330
1A5
330
1A4
330
1A3
330
1A2
 75
     1
 76
     0
 52
45.0
 41
0.1
 77
     0
 78
     1
 53
45.0
 43
0.0
 44
0.0
 45
-0.0707106781186548
 46
0.0707106781186548
 79
     0
 98
        1
 10
0.0
 20
0.0
  0
HATCH
  5
28B
330
71
100
AcDbEntity
  8
1
  6
Continuous
 62
     2
100
AcDbHatch
 10
0.0
 20
0.0
 30
0.0
210
0.0
220
0.0
230
1.0
  2
_USER
 70
     0
 71
     1
 91
        1
 92
        1
 93
       18
 72
     1
 10
-43.44679996173434
 20
18.22913575613924
 11
-44.25789899920773
 21
18.22913575613924
 72
     1
 10
-44.25789899920773
 20
18.22913575613924
 11
-44.25789899920773
 21
15.96059153845175
 72
     1
 10
-44.25789899920773
 20
15.96059153845175
 11
-45.45069170137543
 21
15.96059153845175
 72
     1
 10
-45.45069170137543
 20
15.96059153845175
 11
-45.45069170137543
 21
18.22913575613924
 72
     1
 10
-45.45069170137543
 20
18.22913575613924
 11
-46.55433100094353
 21
18.22913575613924
 72
     2
 10
-46.55433100094353
 20
17.27461274931315
 40
0.9545230068260899
 50
90.0
 51
109.3371432194329
 73
     1
 72
     2
 10
-46.70100099904724
 20
17.69256772969604
 40
0.5115800601944099
 50
109.3371432194863
 51
151.4785267424232
 73
     1
 72
     2
 10
-46.32364374096585
 20
17.48749630035704
 40
0.941059735334897
 50
151.4785267423628
 51
208.5214732576693
 73
     1
 72
     2
 10
-46.70100099904724
 20
17.28242487101855
 40
0.5115800601960261
 50
208.5214732576859
 51
246.6277221118451
 73
     1
 72
     2
 10
-46.54456096634414
 20
17.64441688972855
 40
0.9059297849852838
 50
246.6277221118188
 51
288.4480761180822
 73
     1
 72
     2
 10
-46.96272870000604
 20
18.89796266576514
 40
2.227384008972746
 50
288.4480761181335
 51
301.9309089499396
 73
     1
 72
     1
 10
-45.78467365798213
 20
17.00761194661536
 11
-45.78467365798213
 21
16.13509493981204
 72
     2
 10
-47.12060157509885
 20
20.80017724561344
 40
4.852596863498825
 50
74.02000874166129
 51
84.8418552303636
 73
     0
 72
     2
 10
-46.83174548036303
 20
17.60028666239185
 40
1.639695123940442
 50
84.8418552303235
 51
164.9381082228987
 73
     0
 72
     2
 10
-47.25087332382464
 20
17.48749630035704
 40
1.205656168392995
 50
164.9381082229037
 51
195.0618917770971
 73
     0
 72
     2
 10
-46.83174548036303
 20
17.37470593832214
 40
1.639695123940211
 50
195.061891777105
 51
270.0
 73
     0
 72
     1
 10
-46.83174548036303
 20
19.01440106226235
 11
-43.44679996173434
 21
19.01440106226283
 72
     1
 10
-43.44679996173434
 20
19.01440106226283
 11
-43.44679996173434
 21
18.22913575613924
 97
       18
330
1A1
330
237
330
238
330
220
330
21F
330
205
330
21E
330
21D
330
239
330
21C
330
23A
330
21B
330
206
330
1A0
330
1A5
330
1A4
330
1A3
330
1A2
 75
     1
 76
     0
 52
45.0
 41
0.1
 77
     0
 78
     1
 53
45.0
 43
0.0
 44
0.0
 45
-0.0707106781186548
 46
0.0707106781186548
 79
     0
 98
        1
 10
0.0
 20
0.0
  0
HATCH
  5
28C
330
71
100
AcDbEntity
  8
1
  6
Continuous
 62
     2
100
AcDbHatch
 10
0.0
 20
0.0
 30
0.0
210
0.0
220
0.0
230
1.0
  2
_USER
 70
     0
 71
     1
 91
        1
 92
        1
 93
       14
 72
     2
 10
-62.93444695961594
 20
17.37470593832214
 40
1.639695123940503
 50
84.84185523036234
 51
164.9381082228866
 73
     1
 72
     2
 10
-63.35357480307874
 20
17.48749630035704
 40
1.205656168390943
 50
164.9381082228766
 51
195.061891777095
 73
     1
 72
     2
 10
-62.93444695961594
 20
17.60028666239185
 40
1.639695123939386
 50
195.0618917770894
 51
275.1581447696395
 73
     1
 72
     2
 10
-63.22330305435185
 20
20.80017724561344
 40
4.852596863498137
 50
275.158144769625
 51
285.9799912583529
 73
     1
 72
     1
 10
-61.88737513723405
 20
16.13509493981263
 11
-61.88737513723405
 21
17.00761194661584
 72
     2
 10
-63.06543017925893
 20
18.89796266576573
 40
2.227384008972739
 50
58.06909105004065
 51
71.55192388186703
 73
     0
 72
     2
 10
-62.64726244559813
 20
17.64441688972855
 40
0.9059297849849257
 50
71.55192388184167
 51
113.3722778881288
 73
     0
 72
     2
 10
-62.80370247830015
 20
17.28242487101855
 40
0.5115800601948034
 50
113.3722778881725
 51
151.4785267423044
 73
     0
 72
     2
 10
-62.42634522021984
 20
17.48749630035704
 40
0.9410597353332607
 50
151.4785267422943
 51
208.5214732577329
 73
     0
 72
     2
 10
-62.80370247830015
 20
17.69256772969604
 40
0.5115800601948779
 50
208.5214732576956
 51
246.6277221118009
 73
     0
 72
     2
 10
-62.64726244559813
 20
17.33057571098544
 40
0.9059297849853228
 50
246.6277221118712
 51
288.4480761181465
 73
     0
 72
     2
 10
-63.06543017925893
 20
16.07702993494885
 40
2.227384008973484
 50
288.448076118133
 51
301.9309089499592
 73
     0
 72
     1
 10
-61.88737513723405
 20
17.96738065409875
 11
-61.88737513723405
 21
18.83989766090204
 72
     2
 10
-63.22330305435185
 20
14.17481535510115
 40
4.852596863498063
 50
74.02000874164737
 51
84.84185523037496
 73
     1
 97
       14
330
23F
330
240
330
241
330
242
330
207
330
218
330
217
330
216
330
243
330
244
330
215
330
245
330
208
330
214
 75
     1
 76
     0
 52
45.0
 41
0.1
 77
     0
 78
     1
 53
45.0
 43
0.0
 44
0.0
 45
-0.0707106781186548
 46
0.0707106781186548
 79
     0
 98
        1
 10
0.0
 20
0.0
  0
HATCH
  5
28D
330
71
100
AcDbEntity
  8
1
  6
Continuous
 62
     2
100
AcDbHatch
 10
0.0
 20
0.0
 30
0.0
210
0.0
220
0.0
230
1.0
  2
_USER
 70
     0
 71
     1
 91
        1
 92
        1
 93
       14
 72
     2
 10
-62.93444695961594
 20
17.37470593832214
 40
1.639695123940503
 50
84.84185523036234
 51
164.9381082228866
 73
     1
 72
     2
 10
-63.35357480307874
 20
17.48749630035704
 40
1.205656168390943
 50
164.9381082228766
 51
195.061891777095
 73
     1
 72
     2
 10
-62.93444695961594
 20
17.60028666239185
 40
1.639695123939386
 50
195.0618917770894
 51
275.1581447696395
 73
     1
 72
     2
 10
-63.22330305435185
 20
20.80017724561344
 40
4.852596863498137
 50
275.158144769625
 51
285.9799912583529
 73
     1
 72
     1
 10
-61.88737513723405
 20
16.13509493981263
 11
-61.88737513723405
 21
17.00761194661584
 72
     2
 10
-63.06543017925893
 20
18.89796266576573
 40
2.227384008972739
 50
58.06909105004065
 51
71.55192388186703
 73
     0
 72
     2
 10
-62.64726244559813
 20
17.64441688972855
 40
0.9059297849849257
 50
71.55192388184167
 51
113.3722778881288
 73
     0
 72
     2
 10
-62.80370247830015
 20
17.28242487101855
 40
0.5115800601948034
 50
113.3722778881725
 51
151.4785267423044
 73
     0
 72
     2
 10
-62.42634522021984
 20
17.48749630035704
 40
0.9410597353332607
 50
151.4785267422943
 51
208.5214732577329
 73
     0
 72
     2
 10
-62.80370247830015
 20
17.69256772969604
 40
0.5115800601948779
 50
208.5214732576956
 51
246.6277221118009
 73
     0
 72
     2
 10
-62.64726244559813
 20
17.33057571098544
 40
0.9059297849853228
 50
246.6277221118712
 51
288.4480761181465
 73
     0
 72
     2
 10
-63.06543017925893
 20
16.07702993494885
 40
2.227384008973484
 50
288.448076118133
 51
301.9309089499592
 73
     0
 72
     1
 10
-61.88737513723405
 20
17.96738065409875
 11
-61.88737513723405
 21
18.83989766090204
 72
     2
 10
-63.22330305435185
 20
14.17481535510115
 40
4.852596863498063
 50
74.02000874164737
 51
84.84185523037496
 73
     1
 97
       14
330
23F
330
240
330
241
330
242
330
207
330
218
330
217
330
216
330
243
330
244
330
215
330
245
330
208
330
214
 75
     1
 76
     0
 52
45.0
 41
0.1
 77
     0
 78
     1
 53
45.0
 43
0.0
 44
0.0
 45
-0.0707106781186548
 46
0.0707106781186548
 79
     0
 98
        1
 10
0.0
 20
0.0
  0
ENDBLK
  5
73
330
71
100
AcDbEntity
  8
0
100
AcDbBlockEnd
  0
BLOCK
  5
75
330
74
100
AcDbEntity
  8
0
100
AcDbBlockBegin
  2
_punkt
 70
     0
 10
53.95000044774857
 20
8.66709153843544
 30
0.0
  3
_punkt
  1

  0
LINE
  5
28E
330
74
100
AcDbEntity
  8
1
  6
Continuous
 62
     2
100
AcDbLine
 10
53.95000044774857
 20
8.66709153843544
 30
0.0
 11
58.95000044774756
 21
8.66709153843544
 31
0.0
  0
LINE
  5
28F
330
74
100
AcDbEntity
  8
1
  6
Continuous
 62
     2
100
AcDbLine
 10
53.95000044774857
 20
8.66709153843544
 30
0.0
 11
53.95000044774857
 21
3.66709153843533
 31
0.0
  0
ENDBLK
  5
76
330
74
100
AcDbEntity
  8
0
100
AcDbBlockEnd
  0
BLOCK
  5
7A
330
77
100
AcDbEntity
  8
0
100
AcDbBlockBegin
  2
A4I_CS
 70
     0
 10
53.95000044774857
 20
3.66709153843533
 30
0.0
  3
A4I_CS
  1

  0
INSERT
  5
78
330
77
100
AcDbEntity
  8
1
100
AcDbBlockReference
  2
_rahmen
 10
53.95000044774857
 20
3.66709153843533
 30
0.0
  0
INSERT
  5
79
330
77
100
AcDbEntity
  8
1
100
AcDbBlockReference
  2
_punkt
 10
53.95000044774857
 20
8.66709153843544
 30
0.0
  0
ENDBLK
  5
7B
330
77
100
AcDbEntity
  8
0
100
AcDbBlockEnd
  0
BLOCK
  5
84
330
7C
100
AcDbEntity
  8
0
100
AcDbBlockBegin
  2
1
 70
     0
 10
0.0
 20
0.0
 30
0.0
  3
1
  1

  0
INSERT
  5
7D
330
7C
100
AcDbEntity
  8
0
100
AcDbBlockReference
  2
Allg1
 10
5.00000071750026
 20
72.99999852493295
 30
0.0
  0
INSERT
  5
7E
330
7C
100
AcDbEntity
  8
0
100
AcDbBlockReference
  2
Drfsicht1
 10
-118.9499989019077
 20
84.24999760305172
 30
0.0
  0
INSERT
  5
7F
330
7C
100
AcDbEntity
  8
0
100
AcDbBlockReference
  2
Rckans1
 10
3.15000398027998
 20
154.999998535906
 30
0.0
  0
INSERT
  5
80
330
7C
100
AcDbEntity
  8
0
100
AcDbBlockReference
  2
SA_Links1
 10
-57.8999974608156
 20
154.999998535906
 30
0.0
  0
INSERT
  5
81
330
7C
100
AcDbEntity
  8
0
100
AcDbBlockReference
  2
SA_Rechts1
 10
-190.0
 20
154.999998535906
 30
0.0
  0
INSERT
  5
82
330
7C
100
AcDbEntity
  8
0
100
AcDbBlockReference
  2
Vordans1
 10
-118.9499989019077
 20
154.999998535906
 30
0.0
  0
INSERT
  5
83
330
7C
100
AcDbEntity
  8
0
100
AcDbBlockReference
  2
A4I_CS
 10
53.95000044774857
 20
3.66709153843533
 30
0.0
  0
ENDBLK
  5
85
330
7C
100
AcDbEntity
  8
0
100
AcDbBlockEnd
  0
BLOCK
  5
101
330
FA
100
AcDbEntity
  8
0
100
AcDbBlockBegin
  2
*D17
 70
     1
 10
0.0
 20
0.0
 30
0.0
  3
*D17
  1

  0
LINE
  5
FB
330
FA
100
AcDbEntity
  8
1
  6
Continuous
 62
     2
100
AcDbLine
 10
-79.54999650714123
 20
124.694624578083
 30
0.0
 11
-36.24999650714123
 21
124.694624578083
 31
0.0
  0
LINE
  5
FC
330
FA
100
AcDbEntity
  8
1
  6
Continuous
 62
     2
100
AcDbLine
 10
-79.54999650714123
 20
144.2649670540109
 30
0.0
 11
-79.54999650714123
 21
123.194624578083
 31
0.0
  0
LINE
  5
FD
330
FA
100
AcDbEntity
  8
1
  6
Continuous
 62
     2
100
AcDbLine
 10
-36.24999650714123
 20
144.264967054011
 30
0.0
 11
-36.24999650714123
 21
123.194624578083
 31
0.0
  0
SOLID
  5
FE
330
FA
100
AcDbEntity
  8
1
 62
     2
100
AcDbTrace
 10
-76.04999650714123
 20
125.1554083196389
 30
0.0
 11
-76.04999650714123
 21
124.2338408365271
 31
0.0
 12
-79.54999650714123
 22
124.694624578083
 32
0.0
 13
-79.54999650714123
 23
124.694624578083
 33
0.0
  0
SOLID
  5
FF
330
FA
100
AcDbEntity
  8
1
 62
     2
100
AcDbTrace
 10
-39.74999650714123
 20
124.2338408365271
 30
0.0
 11
-39.74999650714123
 21
125.1554083196389
 31
0.0
 12
-36.24999650714123
 22
124.694624578083
 32
0.0
 13
-36.24999650714123
 23
124.694624578083
 33
0.0
  0
MTEXT
  5
100
330
FA
100
AcDbEntity
  8
1
 62
     3
100
AcDbMText
 10
-63.0706493319871
 20
126.544624578083
 30
0.0
 40
3.5
 41
0.0
 71
     7
 72
     1
  1
43,3
  7
CONVERTER_11
 11
0.9999999999970619
 21
2.424068405545306E-6
 31
0.0
 73
     1
 44
0.60024009603842
  0
ENDBLK
  5
102
330
FA
100
AcDbEntity
  8
0
100
AcDbBlockEnd
  0
BLOCK
  5
148
330
141
100
AcDbEntity
  8
0
100
AcDbBlockBegin
  2
*D18
 70
     1
 10
0.0
 20
0.0
 30
0.0
  3
*D18
  1

  0
LINE
  5
142
330
141
100
AcDbEntity
  8
1
  6
Continuous
 62
     2
100
AcDbLine
 10
-138.3499967707989
 20
124.694624578083
 30
0.0
 11
-99.54999677079886
 21
124.694624578083
 31
0.0
  0
LINE
  5
143
330
141
100
AcDbEntity
  8
1
  6
Continuous
 62
     2
100
AcDbLine
 10
-138.3499967707989
 20
144.264967054011
 30
0.0
 11
-138.3499967707989
 21
123.194624578083
 31
0.0
  0
LINE
  5
144
330
141
100
AcDbEntity
  8
1
  6
Continuous
 62
     2
100
AcDbLine
 10
-99.54999677079886
 20
137.3999958965553
 30
0.0
 11
-99.54999677079886
 21
123.194624578083
 31
0.0
  0
SOLID
  5
145
330
141
100
AcDbEntity
  8
1
 62
     2
100
AcDbTrace
 10
-134.8499967707989
 20
125.1554083196389
 30
0.0
 11
-134.8499967707989
 21
124.2338408365271
 31
0.0
 12
-138.3499967707989
 22
124.694624578083
 32
0.0
 13
-138.3499967707989
 23
124.694624578083
 33
0.0
  0
SOLID
  5
146
330
141
100
AcDbEntity
  8
1
 62
     2
100
AcDbTrace
 10
-103.0499967707989
 20
124.2338408365271
 30
0.0
 11
-103.0499967707989
 21
125.1554083196389
 31
0.0
 12
-99.54999677079886
 22
124.694624578083
 32
0.0
 13
-99.54999677079886
 23
124.694624578083
 33
0.0
  0
MTEXT
  5
147
330
141
100
AcDbEntity
  8
1
 62
     3
100
AcDbMText
 10
-121.838270477362
 20
126.544624578083
 30
0.0
 40
3.5
 41
0.0
 71
     7
 72
     1
  1
38,8
  7
CONVERTER_11
 11
0.9999999999970619
 21
2.424068405545306E-6
 31
0.0
 73
     1
 44
0.60024009603842
  0
ENDBLK
  5
149
330
141
100
AcDbEntity
  8
0
100
AcDbBlockEnd
  0
BLOCK
  5
153
330
14C
100
AcDbEntity
  8
0
100
AcDbBlockBegin
  2
*D19
 70
     1
 10
0.0
 20
0.0
 30
0.0
  3
*D19
  1

  0
LINE
  5
14D
330
14C
100
AcDbEntity
  8
1
  6
Continuous
 62
     2
100
AcDbLine
 10
-148.3499967707988
 20
135.8999958965553
 30
0.0
 11
-148.3499967707988
 21
174.0999958965553
 31
0.0
  0
LINE
  5
14E
330
14C
100
AcDbEntity
  8
1
  6
Continuous
 62
     2
100
AcDbLine
 10
-124.5499967707988
 20
135.8999958965553
 30
0.0
 11
-149.8499967707988
 21
135.8999958965553
 31
0.0
  0
LINE
  5
14F
330
14C
100
AcDbEntity
  8
1
  6
Continuous
 62
     2
100
AcDbLine
 10
-138.3499967707988
 20
174.0999958965553
 30
0.0
 11
-149.8499967707988
 21
174.0999958965553
 31
0.0
  0
SOLID
  5
150
330
14C
100
AcDbEntity
  8
1
 62
     2
100
AcDbTrace
 10
-148.8107805123547
 20
139.3999958965553
 30
0.0
 11
-147.8892130292429
 21
139.3999958965553
 31
0.0
 12
-148.3499967707988
 22
135.8999958965553
 32
0.0
 13
-148.3499967707988
 23
135.8999958965553
 33
0.0
  0
SOLID
  5
151
330
14C
100
AcDbEntity
  8
1
 62
     2
100
AcDbTrace
 10
-147.8892130292429
 20
170.5999958965553
 30
0.0
 11
-148.8107805123547
 21
170.5999958965553
 31
0.0
 12
-148.3499967707988
 22
174.0999958965553
 32
0.0
 13
-148.3499967707988
 23
174.0999958965553
 33
0.0
  0
MTEXT
  5
152
330
14C
100
AcDbEntity
  8
1
 62
     3
100
AcDbMText
 10
-150.1999967707988
 20
151.173974798347
 30
0.0
 40
3.5
 41
0.0
 71
     7
 72
     1
  1
38,2
  7
CONVERTER_11
 11
0.0
 21
1.0
 31
0.0
 73
     1
 44
0.60024009603842
  0
ENDBLK
  5
154
330
14C
100
AcDbEntity
  8
0
100
AcDbBlockEnd
  0
ENDSEC
  0
SECTION
  2
ENTITIES
  0
INSERT
  5
86
330
1F
100
AcDbEntity
  8
1
100
AcDbBlockReference
  2
1
 10
0.0
 20
0.0
 30
0.0
  0
ENDSEC
  0
SECTION
  2
OBJECTS
  0
DICTIONARY
  5
C
330
0
100
AcDbDictionary
281
     1
  3
ACAD_GROUP
350
D
  3
ACAD_LAYOUT
350
1A
  3
ACAD_MATERIAL
350
3B
  3
ACAD_MLEADERSTYLE
350
2B7
  3
ACAD_MLINESTYLE
350
17
  3
ACAD_PLOTSETTINGS
350
19
  3
ACAD_PLOTSTYLENAME
350
E
  3
ACAD_TABLESTYLE
350
2B6
  3
ACAD_VISUALSTYLE
350
2A
  0
DICTIONARY
  5
D
102
{ACAD_REACTORS
330
C
102
}
330
C
100
AcDbDictionary
281
     1
  0
DICTIONARY
  5
1A
102
{ACAD_REACTORS
330
C
102
}
330
C
100
AcDbDictionary
281
     1
  3
Layout1
350
1E
  3
Layout2
350
26
  3
Model
350
22
  0
DICTIONARY
  5
3B
102
{ACAD_REACTORS
330
C
102
}
330
C
100
AcDbDictionary
281
     1
  3
ByBlock
350
3D
  3
ByLayer
350
3C
  3
Global
350
3E
  0
DICTIONARY
  5
2B7
102
{ACAD_REACTORS
330
C
102
}
330
C
100
AcDbDictionary
281
     1
  0
DICTIONARY
  5
17
102
{ACAD_REACTORS
330
C
102
}
330
C
100
AcDbDictionary
281
     1
  3
Standard
350
18
  0
DICTIONARY
  5
19
102
{ACAD_REACTORS
330
C
102
}
330
C
100
AcDbDictionary
281
     1
  0
ACDBDICTIONARYWDFLT
  5
E
102
{ACAD_REACTORS
330
C
102
}
330
C
100
AcDbDictionary
281
     1
  3
Normal
350
F
100
AcDbDictionaryWithDefault
340
F
  0
DICTIONARY
  5
2B6
102
{ACAD_REACTORS
330
C
102
}
330
C
100
AcDbDictionary
281
     1
  0
DICTIONARY
  5
2A
102
{ACAD_REACTORS
330
C
102
}
330
C
100
AcDbDictionary
281
     1
  3
2dWireframe
350
2F
  3
3D Hidden
350
31
  3
3dWireframe
350
30
  3
Basic
350
32
  3
Brighten
350
36
  3
ColorChange
350
3A
  3
Conceptual
350
34
  3
Dim
350
35
  3
Facepattern
350
39
  3
Flat
350
2B
  3
FlatWithEdges
350
2C
  3
Gouraud
350
2D
  3
GouraudWithEdges
350
2E
  3
Linepattern
350
38
  3
Realistic
350
33
  3
Thicken
350
37
  0
LAYOUT
  5
1E
102
{ACAD_REACTORS
330
1A
102
}
330
1A
100
AcDbPlotSettings
  1

  2
none_device
  4

  6

 40
0.0
 41
0.0
 42
0.0
 43
0.0
 44
0.0
 45
0.0
 46
0.0
 47
0.0
 48
0.0
 49
0.0
140
0.0
141
0.0
142
1.0
143
1.0
 70
   688
 72
     0
 73
     0
 74
     5
  7

 75
    16
 76
     0
 77
     2
 78
   300
147
1.0
148
0.0
149
0.0
100
AcDbLayout
  1
Layout1
 70
     1
 71
     1
 10
0.0
 20
0.0
 11
12.0
 21
9.0
 12
0.0
 22
0.0
 32
0.0
 14
1.00000000000000E+20
 24
1.00000000000000E+20
 34
1.00000000000000E+20
 15
-1.00000000000000E+20
 25
-1.00000000000000E+20
 35
-1.00000000000000E+20
146
0.0
 13
0.0
 23
0.0
 33
0.0
 16
1.0
 26
0.0
 36
0.0
 17
0.0
 27
1.0
 37
0.0
 76
     0
330
1B
  0
LAYOUT
  5
26
102
{ACAD_REACTORS
330
1A
102
}
330
1A
100
AcDbPlotSettings
  1

  2
none_device
  4

  6

 40
0.0
 41
0.0
 42
0.0
 43
0.0
 44
0.0
 45
0.0
 46
0.0
 47
0.0
 48
0.0
 49
0.0
140
0.0
141
0.0
142
1.0
143
1.0
 70
   688
 72
     0
 73
     0
 74
     5
  7

 75
    16
 76
     0
 77
     2
 78
   300
147
1.0
148
0.0
149
0.0
100
AcDbLayout
  1
Layout2
 70
     1
 71
     2
 10
0.0
 20
0.0
 11
0.0
 21
0.0
 12
0.0
 22
0.0
 32
0.0
 14
0.0
 24
0.0
 34
0.0
 15
0.0
 25
0.0
 35
0.0
146
0.0
 13
0.0
 23
0.0
 33
0.0
 16
1.0
 26
0.0
 36
0.0
 17
0.0
 27
1.0
 37
0.0
 76
     0
330
23
  0
LAYOUT
  5
22
102
{ACAD_REACTORS
330
1A
102
}
330
1A
100
AcDbPlotSettings
  1

  2
none_device
  4

  6

 40
0.0
 41
0.0
 42
0.0
 43
0.0
 44
0.0
 45
0.0
 46
0.0
 47
0.0
 48
0.0
 49
0.0
140
0.0
141
0.0
142
1.0
143
1.0
 70
  1712
 72
     0
 73
     0
 74
     0
  7

 75
     0
 76
     0
 77
     2
 78
   300
147
1.0
148
0.0
149
0.0
100
AcDbLayout
  1
Model
 70
     1
 71
     0
 10
0.0
 20
0.0
 11
12.0
 21
9.0
 12
0.0
 22
0.0
 32
0.0
 14
-238.0499995522505
 24
3.66709153843533
 34
0.0
 15
58.95000044774756
 25
213.6670915384354
 35
0.0
146
0.0
 13
0.0
 23
0.0
 33
0.0
 16
1.0
 26
0.0
 36
0.0
 17
0.0
 27
1.0
 37
0.0
 76
     0
330
1F
331
29
  0
MATERIAL
  5
3D
102
{ACAD_REACTORS
330
3B
102
}
102
{ACAD_XDICTIONARY
360
2B2
102
}
330
3B
100
AcDbMaterial
  1
ByBlock
  0
MATERIAL
  5
3C
102
{ACAD_REACTORS
330
3B
102
}
102
{ACAD_XDICTIONARY
360
2B0
102
}
330
3B
100
AcDbMaterial
  1
ByLayer
  0
MATERIAL
  5
3E
102
{ACAD_REACTORS
330
3B
102
}
102
{ACAD_XDICTIONARY
360
2B4
102
}
330
3B
100
AcDbMaterial
  1
Global
  0
MLINESTYLE
  5
18
102
{ACAD_REACTORS
330
17
102
}
330
17
100
AcDbMlineStyle
  2
Standard
 70
     0
  3

 62
   256
 51
90.0
 52
90.0
 71
     2
 49
0.5
 62
   256
  6
BYLAYER
 49
-0.5
 62
   256
  6
BYLAYER
  0
ACDBPLACEHOLDER
  5
F
102
{ACAD_REACTORS
330
E
102
}
330
E
  0
VISUALSTYLE
  5
2F
102
{ACAD_REACTORS
330
2A
102
}
102
{ACAD_XDICTIONARY
360
298
102
}
330
2A
100
AcDbVisualStyle
  2
2dWireframe
 70
     4
 71
     0
 72
     2
 73
     0
 90
        0
 40
-0.6
 41
-30.0
 62
     5
 63
     7
421
 16777215
 74
     1
 91
        4
 64
     7
 65
   257
 75
     1
175
     1
 42
1.0
 92
        0
 66
   257
 43
1.0
 76
     1
 77
     6
 78
     2
 67
     7
 79
     5
170
     0
171
     0
290
     0
174
     0
 93
        1
 44
0.0
173
     0
291
     0
 45
0.0
1001
ACAD
1000
AcDbSavedByObjectVersion
1070
     0
  0
VISUALSTYLE
  5
31
102
{ACAD_REACTORS
330
2A
102
}
102
{ACAD_XDICTIONARY
360
29C
102
}
330
2A
100
AcDbVisualStyle
  2
3D Hidden
 70
     6
 71
     1
 72
     2
 73
     2
 90
        0
 40
-0.6
 41
-30.0
 62
     5
 63
     7
421
 16777215
 74
     2
 91
        2
 64
     7
 65
   257
 75
     2
175
     1
 42
40.0
 92
        0
 66
   257
 43
1.0
 76
     1
 77
     6
 78
     2
 67
     7
 79
     3
170
     0
171
     0
290
     0
174
     0
 93
        1
 44
0.0
173
     0
291
     0
 45
0.0
1001
ACAD
1000
AcDbSavedByObjectVersion
1070
     0
  0
VISUALSTYLE
  5
30
102
{ACAD_REACTORS
330
2A
102
}
102
{ACAD_XDICTIONARY
360
29A
102
}
330
2A
100
AcDbVisualStyle
  2
3dWireframe
 70
     5
 71
     0
 72
     2
 73
     0
 90
        0
 40
-0.6
 41
-30.0
 62
     5
 63
     7
421
 16777215
 74
     1
 91
        4
 64
     7
 65
   257
 75
     1
175
     1
 42
1.0
 92
        0
 66
   257
 43
1.0
 76
     1
 77
     6
 78
     2
 67
     7
 79
     5
170
     0
171
     0
290
     0
174
     0
 93
        1
 44
0.0
173
     0
291
     0
 45
0.0
1001
ACAD
1000
AcDbSavedByObjectVersion
1070
     0
  0
VISUALSTYLE
  5
32
102
{ACAD_REACTORS
330
2A
102
}
102
{ACAD_XDICTIONARY
360
29E
102
}
330
2A
100
AcDbVisualStyle
  2
Basic
 70
     7
 71
     1
 72
     0
 73
     1
 90
        0
 40
-0.6
 41
-30.0
 62
     5
 63
     7
421
 16777215
 74
     0
 91
        4
 64
     7
 65
   257
 75
     1
175
     1
 42
1.0
 92
        8
 66
     7
 43
1.0
 76
     1
 77
     6
 78
     2
 67
     7
 79
     5
170
     0
171
     0
290
     0
174
     0
 93
        1
 44
0.0
173
     0
291
     1
 45
0.0
1001
ACAD
1000
AcDbSavedByObjectVersion
1070
     0
  0
VISUALSTYLE
  5
36
102
{ACAD_REACTORS
330
2A
102
}
102
{ACAD_XDICTIONARY
360
2A6
102
}
330
2A
100
AcDbVisualStyle
  2
Brighten
 70
    12
 71
     2
 72
     2
 73
     0
 90
        0
 40
-0.6
 41
-30.0
 62
     5
 63
     7
421
 16777215
 74
     1
 91
        4
 64
     7
 65
   257
 75
     1
175
     1
 42
1.0
 92
        8
 66
     7
 43
1.0
 76
     1
 77
     6
 78
     2
 67
     7
 79
     5
170
     0
171
     0
290
     0
174
     0
 93
        1
 44
50.0
173
     0
291
     1
 45
0.0
1001
ACAD
1000
AcDbSavedByObjectVersion
1070
     0
  0
VISUALSTYLE
  5
3A
102
{ACAD_REACTORS
330
2A
102
}
102
{ACAD_XDICTIONARY
360
2AE
102
}
330
2A
100
AcDbVisualStyle
  2
ColorChange
 70
    16
 71
     2
 72
     2
 73
     3
 90
        0
 40
-0.6
 41
-30.0
 62
     5
 63
     8
421
  8421504
 74
     1
 91
        4
 64
     7
 65
   257
 75
     1
175
     1
 42
1.0
 92
        8
 66
     8
424
  8421504
 43
1.0
 76
     1
 77
     6
 78
     2
 67
     7
 79
     5
170
     0
171
     0
290
     0
174
     0
 93
        1
 44
0.0
173
     0
291
     1
 45
0.0
1001
ACAD
1000
AcDbSavedByObjectVersion
1070
     0
  0
VISUALSTYLE
  5
34
102
{ACAD_REACTORS
330
2A
102
}
102
{ACAD_XDICTIONARY
360
2A2
102
}
330
2A
100
AcDbVisualStyle
  2
Conceptual
 70
     9
 71
     3
 72
     2
 73
     0
 90
        0
 40
-0.6
 41
-30.0
 62
     5
 63
     7
421
 16777215
 74
     2
 91
        2
 64
     7
 65
   257
 75
     1
175
     1
 42
40.0
 92
        8
 66
     7
 43
1.0
 76
     1
 77
     6
 78
     2
 67
     7
 79
     3
170
     0
171
     0
290
     0
174
     0
 93
        1
 44
0.0
173
     0
291
     0
 45
0.0
1001
ACAD
1000
AcDbSavedByObjectVersion
1070
     0
  0
VISUALSTYLE
  5
35
102
{ACAD_REACTORS
330
2A
102
}
102
{ACAD_XDICTIONARY
360
2A4
102
}
330
2A
100
AcDbVisualStyle
  2
Dim
 70
    11
 71
     2
 72
     2
 73
     0
 90
        0
 40
-0.6
 41
-30.0
 62
     5
 63
     7
421
 16777215
 74
     1
 91
        4
 64
     7
 65
   257
 75
     1
175
     1
 42
1.0
 92
        8
 66
     7
 43
1.0
 76
     1
 77
     6
 78
     2
 67
     7
 79
     5
170
     0
171
     0
290
     0
174
     0
 93
        1
 44
-50.0
173
     0
291
     1
 45
0.0
1001
ACAD
1000
AcDbSavedByObjectVersion
1070
     0
  0
VISUALSTYLE
  5
39
102
{ACAD_REACTORS
330
2A
102
}
102
{ACAD_XDICTIONARY
360
2AC
102
}
330
2A
100
AcDbVisualStyle
  2
Facepattern
 70
    15
 71
     2
 72
     2
 73
     0
 90
        0
 40
-0.6
 41
-30.0
 62
     5
 63
     7
421
 16777215
 74
     1
 91
        4
 64
     7
 65
   257
 75
     1
175
     1
 42
1.0
 92
        8
 66
     7
 43
1.0
 76
     1
 77
     6
 78
     2
 67
     7
 79
     5
170
     0
171
     0
290
     0
174
     0
 93
        1
 44
0.0
173
     0
291
     1
 45
0.0
1001
ACAD
1000
AcDbSavedByObjectVersion
1070
     0
  0
VISUALSTYLE
  5
2B
102
{ACAD_REACTORS
330
2A
102
}
102
{ACAD_XDICTIONARY
360
290
102
}
330
2A
100
AcDbVisualStyle
  2
Flat
 70
     0
 71
     2
 72
     1
 73
     1
 90
        2
 40
-0.6
 41
30.0
 62
     5
 63
     7
421
 16777215
 74
     0
 91
        4
 64
     7
 65
   257
 75
     1
175
     1
 42
1.0
 92
        8
 66
     7
 43
1.0
 76
     1
 77
     6
 78
     2
 67
     7
 79
     5
170
     0
171
     0
290
     0
174
     0
 93
       13
 44
0.0
173
     0
291
     1
 45
0.0
1001
ACAD
1000
AcDbSavedByObjectVersion
1070
     0
  0
VISUALSTYLE
  5
2C
102
{ACAD_REACTORS
330
2A
102
}
102
{ACAD_XDICTIONARY
360
292
102
}
330
2A
100
AcDbVisualStyle
  2
FlatWithEdges
 70
     1
 71
     2
 72
     1
 73
     1
 90
        2
 40
-0.6
 41
30.0
 62
     5
 63
     7
421
 16777215
 74
     1
 91
        4
 64
     7
 65
   257
 75
     1
175
     1
 42
1.0
 92
        0
 66
   257
 43
1.0
 76
     1
 77
     6
 78
     2
 67
     7
 79
     5
170
     0
171
     0
290
     0
174
     0
 93
       13
 44
0.0
173
     0
291
     1
 45
0.0
1001
ACAD
1000
AcDbSavedByObjectVersion
1070
     0
  0
VISUALSTYLE
  5
2D
102
{ACAD_REACTORS
330
2A
102
}
102
{ACAD_XDICTIONARY
360
294
102
}
330
2A
100
AcDbVisualStyle
  2
Gouraud
 70
     2
 71
     2
 72
     2
 73
     1
 90
        2
 40
-0.6
 41
30.0
 62
     5
 63
     7
421
 16777215
 74
     0
 91
        4
 64
     7
 65
   257
 75
     1
175
     1
 42
1.0
 92
        0
 66
     7
 43
1.0
 76
     1
 77
     6
 78
     2
 67
     7
 79
     5
170
     0
171
     0
290
     0
174
     0
 93
       13
 44
0.0
173
     0
291
     1
 45
0.0
1001
ACAD
1000
AcDbSavedByObjectVersion
1070
     0
  0
VISUALSTYLE
  5
2E
102
{ACAD_REACTORS
330
2A
102
}
102
{ACAD_XDICTIONARY
360
296
102
}
330
2A
100
AcDbVisualStyle
  2
GouraudWithEdges
 70
     3
 71
     2
 72
     2
 73
     1
 90
        2
 40
-0.6
 41
30.0
 62
     5
 63
     7
421
 16777215
 74
     1
 91
        4
 64
     7
 65
   257
 75
     1
175
     1
 42
1.0
 92
        0
 66
   257
 43
1.0
 76
     1
 77
     6
 78
     2
 67
     7
 79
     5
170
     0
171
     0
290
     0
174
     0
 93
       13
 44
0.0
173
     0
291
     1
 45
0.0
1001
ACAD
1000
AcDbSavedByObjectVersion
1070
     0
  0
VISUALSTYLE
  5
38
102
{ACAD_REACTORS
330
2A
102
}
102
{ACAD_XDICTIONARY
360
2AA
102
}
330
2A
100
AcDbVisualStyle
  2
Linepattern
 70
    14
 71
     2
 72
     2
 73
     0
 90
        0
 40
-0.6
 41
-30.0
 62
     5
 63
     7
421
 16777215
 74
     1
 91
        4
 64
     7
 65
   257
 75
     7
175
     7
 42
1.0
 92
        8
 66
     7
 43
1.0
 76
     1
 77
     6
 78
     2
 67
     7
 79
     5
170
     0
171
     0
290
     0
174
     0
 93
        1
 44
0.0
173
     0
291
     1
 45
0.0
1001
ACAD
1000
AcDbSavedByObjectVersion
1070
     0
  0
VISUALSTYLE
  5
33
102
{ACAD_REACTORS
330
2A
102
}
102
{ACAD_XDICTIONARY
360
2A0
102
}
330
2A
100
AcDbVisualStyle
  2
Realistic
 70
     8
 71
     2
 72
     2
 73
     0
 90
        0
 40
-0.6
 41
-30.0
 62
     5
 63
     7
421
 16777215
 74
     1
 91
        0
 64
     7
 65
   257
 75
     1
175
     1
 42
1.0
 92
        8
 66
     8
424
  7895160
 43
1.0
 76
     1
 77
     6
 78
     2
 67
     7
 79
     5
170
     0
171
     0
290
     0
174
     0
 93
       13
 44
0.0
173
     0
291
     0
 45
0.0
1001
ACAD
1000
AcDbSavedByObjectVersion
1070
     0
  0
VISUALSTYLE
  5
37
102
{ACAD_REACTORS
330
2A
102
}
102
{ACAD_XDICTIONARY
360
2A8
102
}
330
2A
100
AcDbVisualStyle
  2
Thicken
 70
    13
 71
     2
 72
     2
 73
     0
 90
        0
 40
-0.6
 41
-30.0
 62
     5
 63
     7
421
 16777215
 74
     1
 91
        4
 64
     7
 65
   257
 75
     1
175
     1
 42
1.0
 92
       12
 66
     7
 43
1.0
 76
     1
 77
     6
 78
     2
 67
     7
 79
     5
170
     0
171
     0
290
     0
174
     0
 93
        1
 44
0.0
173
     0
291
     1
 45
0.0
1001
ACAD
1000
AcDbSavedByObjectVersion
1070
     0
  0
DICTIONARY
  5
2B2
330
3D
100
AcDbDictionary
280
     1
281
     1
  3
ACAD_XREC_ROUNDTRIP
360
2B3
  0
DICTIONARY
  5
2B0
330
3C
100
AcDbDictionary
280
     1
281
     1
  3
ACAD_XREC_ROUNDTRIP
360
2B1
  0
DICTIONARY
  5
2B4
330
3E
100
AcDbDictionary
280
     1
281
     1
  3
ACAD_XREC_ROUNDTRIP
360
2B5
  0
DICTIONARY
  5
298
330
2F
100
AcDbDictionary
280
     1
281
     1
  3
ACAD_XREC_ROUNDTRIP
360
299
  0
DICTIONARY
  5
29C
330
31
100
AcDbDictionary
280
     1
281
     1
  3
ACAD_XREC_ROUNDTRIP
360
29D
  0
DICTIONARY
  5
29A
330
30
100
AcDbDictionary
280
     1
281
     1
  3
ACAD_XREC_ROUNDTRIP
360
29B
  0
DICTIONARY
  5
29E
330
32
100
AcDbDictionary
280
     1
281
     1
  3
ACAD_XREC_ROUNDTRIP
360
29F
  0
DICTIONARY
  5
2A6
330
36
100
AcDbDictionary
280
     1
281
     1
  3
ACAD_XREC_ROUNDTRIP
360
2A7
  0
DICTIONARY
  5
2AE
330
3A
100
AcDbDictionary
280
     1
281
     1
  3
ACAD_XREC_ROUNDTRIP
360
2AF
  0
DICTIONARY
  5
2A2
330
34
100
AcDbDictionary
280
     1
281
     1
  3
ACAD_XREC_ROUNDTRIP
360
2A3
  0
DICTIONARY
  5
2A4
330
35
100
AcDbDictionary
280
     1
281
     1
  3
ACAD_XREC_ROUNDTRIP
360
2A5
  0
DICTIONARY
  5
2AC
330
39
100
AcDbDictionary
280
     1
281
     1
  3
ACAD_XREC_ROUNDTRIP
360
2AD
  0
DICTIONARY
  5
290
330
2B
100
AcDbDictionary
280
     1
281
     1
  3
ACAD_XREC_ROUNDTRIP
360
291
  0
DICTIONARY
  5
292
330
2C
100
AcDbDictionary
280
     1
281
     1
  3
ACAD_XREC_ROUNDTRIP
360
293
  0
DICTIONARY
  5
294
330
2D
100
AcDbDictionary
280
     1
281
     1
  3
ACAD_XREC_ROUNDTRIP
360
295
  0
DICTIONARY
  5
296
330
2E
100
AcDbDictionary
280
     1
281
     1
  3
ACAD_XREC_ROUNDTRIP
360
297
  0
DICTIONARY
  5
2AA
330
38
100
AcDbDictionary
280
     1
281
     1
  3
ACAD_XREC_ROUNDTRIP
360
2AB
  0
DICTIONARY
  5
2A0
330
33
100
AcDbDictionary
280
     1
281
     1
  3
ACAD_XREC_ROUNDTRIP
360
2A1
  0
DICTIONARY
  5
2A8
330
37
100
AcDbDictionary
280
     1
281
     1
  3
ACAD_XREC_ROUNDTRIP
360
2A9
  0
XRECORD
  5
2B3
102
{ACAD_REACTORS
330
2B2
102
}
330
2B2
100
AcDbXrecord
280
     1
102
MATERIAL
148
0.0
149
0.0
149
0.0
 93
        0
 94
      127
282
     0
 72
     1
 77
     1
171
     1
175
     1
179
     1
273
     0
  0
XRECORD
  5
2B1
102
{ACAD_REACTORS
330
2B0
102
}
330
2B0
100
AcDbXrecord
280
     1
102
MATERIAL
148
0.0
149
0.0
149
0.0
 93
        0
 94
      127
282
     0
 72
     1
 77
     1
171
     1
175
     1
179
     1
273
     0
  0
XRECORD
  5
2B5
102
{ACAD_REACTORS
330
2B4
102
}
330
2B4
100
AcDbXrecord
280
     1
102
MATERIAL
148
0.0
149
0.0
149
0.0
 93
        0
 94
      127
282
     0
 72
     1
 77
     1
171
     1
175
     1
179
     1
273
     0
  0
XRECORD
  5
299
102
{ACAD_REACTORS
330
298
102
}
330
298
100
AcDbXrecord
280
     1
102
RTVSPropertyOp0
 70
     1
102
RTVSPropertyOp1
 70
     1
102
RTVSPropertyOp2
 70
     1
102
RTVSPropertyOp3
 70
     1
102
RTVSPropertyOp4
 70
     1
102
RTVSPropertyOp5
 70
     1
102
RTVSPropertyOp6
 70
     1
102
RTVSPropertyOp7
 70
     1
102
RTVSPropertyOp8
 70
     1
102
RTVSPropertyOp9
 70
     1
102
RTVSPropertyOp10
 70
     1
102
RTVSPropertyOp11
 70
     1
102
RTVSPropertyOp12
 70
     1
102
RTVSPropertyOp13
 70
     1
102
RTVSPropertyOp14
 70
     1
102
RTVSPropertyOp15
 70
     1
102
RTVSPropertyOp16
 70
     1
102
RTVSPropertyOp17
 70
     1
102
RTVSPropertyOp18
 70
     1
102
RTVSPropertyOp19
 70
     1
102
RTVSPropertyOp20
 70
     1
102
RTVSPropertyOp21
 70
     1
102
RTVSPropertyOp22
 70
     1
102
RTVSPropertyOp23
 70
     1
102
RTVSPropertyOp24
 70
     1
102
RTVSPropertyOp25
 70
     1
102
RTVSPropertyOp26
 70
     1
102
RTVSPropertyOp27
 70
     1
102
RTVSPropertyOp28
 70
     1
102
RTVSPropertyOp29
 70
     1
102
RTVSPropertyOp30
 70
     1
102
RTVSPropertyOp31
 70
     1
102
RTVSPropertyOp32
 70
     1
  0
XRECORD
  5
29D
102
{ACAD_REACTORS
330
29C
102
}
330
29C
100
AcDbXrecord
280
     1
102
RTVSPropertyOp0
 70
     1
102
RTVSPropertyOp1
 70
     1
102
RTVSPropertyOp2
 70
     1
102
RTVSPropertyOp3
 70
     1
102
RTVSPropertyOp4
 70
     1
102
RTVSPropertyOp5
 70
     1
102
RTVSPropertyOp6
 70
     1
102
RTVSPropertyOp7
 70
     1
102
RTVSPropertyOp8
 70
     1
102
RTVSPropertyOp9
 70
     1
102
RTVSPropertyOp10
 70
     1
102
RTVSPropertyOp11
 70
     1
102
RTVSPropertyOp12
 70
     1
102
RTVSPropertyOp13
 70
     1
102
RTVSPropertyOp14
 70
     1
102
RTVSPropertyOp15
 70
     1
102
RTVSPropertyOp16
 70
     1
102
RTVSPropertyOp17
 70
     1
102
RTVSPropertyOp18
 70
     1
102
RTVSPropertyOp19
 70
     1
102
RTVSPropertyOp20
 70
     1
102
RTVSPropertyOp21
 70
     1
102
RTVSPropertyOp22
 70
     1
102
RTVSPropertyOp23
 70
     1
102
RTVSPropertyOp24
 70
     1
102
RTVSPropertyOp25
 70
     1
102
RTVSPropertyOp26
 70
     1
102
RTVSPropertyOp27
 70
     1
102
RTVSPropertyOp28
 70
     1
102
RTVSPropertyOp29
 70
     1
102
RTVSPropertyOp30
 70
     1
102
RTVSPropertyOp31
 70
     1
102
RTVSPropertyOp32
 70
     1
  0
XRECORD
  5
29B
102
{ACAD_REACTORS
330
29A
102
}
330
29A
100
AcDbXrecord
280
     1
102
RTVSPropertyOp0
 70
     1
102
RTVSPropertyOp1
 70
     1
102
RTVSPropertyOp2
 70
     1
102
RTVSPropertyOp3
 70
     1
102
RTVSPropertyOp4
 70
     1
102
RTVSPropertyOp5
 70
     1
102
RTVSPropertyOp6
 70
     1
102
RTVSPropertyOp7
 70
     1
102
RTVSPropertyOp8
 70
     1
102
RTVSPropertyOp9
 70
     1
102
RTVSPropertyOp10
 70
     1
102
RTVSPropertyOp11
 70
     1
102
RTVSPropertyOp12
 70
     1
102
RTVSPropertyOp13
 70
     1
102
RTVSPropertyOp14
 70
     1
102
RTVSPropertyOp15
 70
     1
102
RTVSPropertyOp16
 70
     1
102
RTVSPropertyOp17
 70
     1
102
RTVSPropertyOp18
 70
     1
102
RTVSPropertyOp19
 70
     1
102
RTVSPropertyOp20
 70
     1
102
RTVSPropertyOp21
 70
     1
102
RTVSPropertyOp22
 70
     1
102
RTVSPropertyOp23
 70
     1
102
RTVSPropertyOp24
 70
     1
102
RTVSPropertyOp25
 70
     1
102
RTVSPropertyOp26
 70
     1
102
RTVSPropertyOp27
 70
     1
102
RTVSPropertyOp28
 70
     1
102
RTVSPropertyOp29
 70
     1
102
RTVSPropertyOp30
 70
     1
102
RTVSPropertyOp31
 70
     1
102
RTVSPropertyOp32
 70
     1
  0
XRECORD
  5
29F
102
{ACAD_REACTORS
330
29E
102
}
330
29E
100
AcDbXrecord
280
     1
102
RTVSPropertyOp0
 70
     1
102
RTVSPropertyOp1
 70
     1
102
RTVSPropertyOp2
 70
     1
102
RTVSPropertyOp3
 70
     1
102
RTVSPropertyOp4
 70
     1
102
RTVSPropertyOp5
 70
     1
102
RTVSPropertyOp6
 70
     1
102
RTVSPropertyOp7
 70
     1
102
RTVSPropertyOp8
 70
     1
102
RTVSPropertyOp9
 70
     1
102
RTVSPropertyOp10
 70
     1
102
RTVSPropertyOp11
 70
     1
102
RTVSPropertyOp12
 70
     1
102
RTVSPropertyOp13
 70
     1
102
RTVSPropertyOp14
 70
     1
102
RTVSPropertyOp15
 70
     1
102
RTVSPropertyOp16
 70
     1
102
RTVSPropertyOp17
 70
     1
102
RTVSPropertyOp18
 70
     1
102
RTVSPropertyOp19
 70
     1
102
RTVSPropertyOp20
 70
     1
102
RTVSPropertyOp21
 70
     1
102
RTVSPropertyOp22
 70
     1
102
RTVSPropertyOp23
 70
     1
102
RTVSPropertyOp24
 70
     1
102
RTVSPropertyOp25
 70
     1
102
RTVSPropertyOp26
 70
     1
102
RTVSPropertyOp27
 70
     1
102
RTVSPropertyOp28
 70
     1
102
RTVSPropertyOp29
 70
     1
102
RTVSPropertyOp30
 70
     1
102
RTVSPropertyOp31
 70
     1
102
RTVSPropertyOp32
 70
     1
  0
XRECORD
  5
2A7
102
{ACAD_REACTORS
330
2A6
102
}
330
2A6
100
AcDbXrecord
280
     1
102
RTVSPropertyOp0
 70
     1
102
RTVSPropertyOp1
 70
     1
102
RTVSPropertyOp2
 70
     1
102
RTVSPropertyOp3
 70
     1
102
RTVSPropertyOp4
 70
     1
102
RTVSPropertyOp5
 70
     1
102
RTVSPropertyOp6
 70
     1
102
RTVSPropertyOp7
 70
     1
102
RTVSPropertyOp8
 70
     1
102
RTVSPropertyOp9
 70
     1
102
RTVSPropertyOp10
 70
     1
102
RTVSPropertyOp11
 70
     1
102
RTVSPropertyOp12
 70
     1
102
RTVSPropertyOp13
 70
     1
102
RTVSPropertyOp14
 70
     1
102
RTVSPropertyOp15
 70
     1
102
RTVSPropertyOp16
 70
     1
102
RTVSPropertyOp17
 70
     1
102
RTVSPropertyOp18
 70
     1
102
RTVSPropertyOp19
 70
     1
102
RTVSPropertyOp20
 70
     1
102
RTVSPropertyOp21
 70
     1
102
RTVSPropertyOp22
 70
     1
102
RTVSPropertyOp23
 70
     1
102
RTVSPropertyOp24
 70
     1
102
RTVSPropertyOp25
 70
     1
102
RTVSPropertyOp26
 70
     1
102
RTVSPropertyOp27
 70
     1
102
RTVSPropertyOp28
 70
     1
102
RTVSPropertyOp29
 70
     1
102
RTVSPropertyOp30
 70
     1
102
RTVSPropertyOp31
 70
     1
102
RTVSPropertyOp32
 70
     1
  0
XRECORD
  5
2AF
102
{ACAD_REACTORS
330
2AE
102
}
330
2AE
100
AcDbXrecord
280
     1
102
RTVSPropertyOp0
 70
     1
102
RTVSPropertyOp1
 70
     1
102
RTVSPropertyOp2
 70
     1
102
RTVSPropertyOp3
 70
     1
102
RTVSPropertyOp4
 70
     1
102
RTVSPropertyOp5
 70
     1
102
RTVSPropertyOp6
 70
     1
102
RTVSPropertyOp7
 70
     1
102
RTVSPropertyOp8
 70
     1
102
RTVSPropertyOp9
 70
     1
102
RTVSPropertyOp10
 70
     1
102
RTVSPropertyOp11
 70
     1
102
RTVSPropertyOp12
 70
     1
102
RTVSPropertyOp13
 70
     1
102
RTVSPropertyOp14
 70
     1
102
RTVSPropertyOp15
 70
     1
102
RTVSPropertyOp16
 70
     1
102
RTVSPropertyOp17
 70
     1
102
RTVSPropertyOp18
 70
     1
102
RTVSPropertyOp19
 70
     1
102
RTVSPropertyOp20
 70
     1
102
RTVSPropertyOp21
 70
     1
102
RTVSPropertyOp22
 70
     1
102
RTVSPropertyOp23
 70
     1
102
RTVSPropertyOp24
 70
     1
102
RTVSPropertyOp25
 70
     1
102
RTVSPropertyOp26
 70
     1
102
RTVSPropertyOp27
 70
     1
102
RTVSPropertyOp28
 70
     1
102
RTVSPropertyOp29
 70
     1
102
RTVSPropertyOp30
 70
     1
102
RTVSPropertyOp31
 70
     1
102
RTVSPropertyOp32
 70
     1
  0
XRECORD
  5
2A3
102
{ACAD_REACTORS
330
2A2
102
}
330
2A2
100
AcDbXrecord
280
     1
102
RTVSPropertyOp0
 70
     1
102
RTVSPropertyOp1
 70
     1
102
RTVSPropertyOp2
 70
     1
102
RTVSPropertyOp3
 70
     1
102
RTVSPropertyOp4
 70
     1
102
RTVSPropertyOp5
 70
     1
102
RTVSPropertyOp6
 70
     1
102
RTVSPropertyOp7
 70
     1
102
RTVSPropertyOp8
 70
     1
102
RTVSPropertyOp9
 70
     1
102
RTVSPropertyOp10
 70
     1
102
RTVSPropertyOp11
 70
     1
102
RTVSPropertyOp12
 70
     1
102
RTVSPropertyOp13
 70
     1
102
RTVSPropertyOp14
 70
     1
102
RTVSPropertyOp15
 70
     1
102
RTVSPropertyOp16
 70
     1
102
RTVSPropertyOp17
 70
     1
102
RTVSPropertyOp18
 70
     1
102
RTVSPropertyOp19
 70
     1
102
RTVSPropertyOp20
 70
     1
102
RTVSPropertyOp21
 70
     1
102
RTVSPropertyOp22
 70
     1
102
RTVSPropertyOp23
 70
     1
102
RTVSPropertyOp24
 70
     1
102
RTVSPropertyOp25
 70
     1
102
RTVSPropertyOp26
 70
     1
102
RTVSPropertyOp27
 70
     1
102
RTVSPropertyOp28
 70
     1
102
RTVSPropertyOp29
 70
     1
102
RTVSPropertyOp30
 70
     1
102
RTVSPropertyOp31
 70
     1
102
RTVSPropertyOp32
 70
     1
  0
XRECORD
  5
2A5
102
{ACAD_REACTORS
330
2A4
102
}
330
2A4
100
AcDbXrecord
280
     1
102
RTVSPropertyOp0
 70
     1
102
RTVSPropertyOp1
 70
     1
102
RTVSPropertyOp2
 70
     1
102
RTVSPropertyOp3
 70
     1
102
RTVSPropertyOp4
 70
     1
102
RTVSPropertyOp5
 70
     1
102
RTVSPropertyOp6
 70
     1
102
RTVSPropertyOp7
 70
     1
102
RTVSPropertyOp8
 70
     1
102
RTVSPropertyOp9
 70
     1
102
RTVSPropertyOp10
 70
     1
102
RTVSPropertyOp11
 70
     1
102
RTVSPropertyOp12
 70
     1
102
RTVSPropertyOp13
 70
     1
102
RTVSPropertyOp14
 70
     1
102
RTVSPropertyOp15
 70
     1
102
RTVSPropertyOp16
 70
     1
102
RTVSPropertyOp17
 70
     1
102
RTVSPropertyOp18
 70
     1
102
RTVSPropertyOp19
 70
     1
102
RTVSPropertyOp20
 70
     1
102
RTVSPropertyOp21
 70
     1
102
RTVSPropertyOp22
 70
     1
102
RTVSPropertyOp23
 70
     1
102
RTVSPropertyOp24
 70
     1
102
RTVSPropertyOp25
 70
     1
102
RTVSPropertyOp26
 70
     1
102
RTVSPropertyOp27
 70
     1
102
RTVSPropertyOp28
 70
     1
102
RTVSPropertyOp29
 70
     1
102
RTVSPropertyOp30
 70
     1
102
RTVSPropertyOp31
 70
     1
102
RTVSPropertyOp32
 70
     1
  0
XRECORD
  5
2AD
102
{ACAD_REACTORS
330
2AC
102
}
330
2AC
100
AcDbXrecord
280
     1
102
RTVSPropertyOp0
 70
     1
102
RTVSPropertyOp1
 70
     1
102
RTVSPropertyOp2
 70
     1
102
RTVSPropertyOp3
 70
     1
102
RTVSPropertyOp4
 70
     1
102
RTVSPropertyOp5
 70
     1
102
RTVSPropertyOp6
 70
     1
102
RTVSPropertyOp7
 70
     1
102
RTVSPropertyOp8
 70
     1
102
RTVSPropertyOp9
 70
     1
102
RTVSPropertyOp10
 70
     1
102
RTVSPropertyOp11
 70
     1
102
RTVSPropertyOp12
 70
     1
102
RTVSPropertyOp13
 70
     1
102
RTVSPropertyOp14
 70
     1
102
RTVSPropertyOp15
 70
     1
102
RTVSPropertyOp16
 70
     1
102
RTVSPropertyOp17
 70
     1
102
RTVSPropertyOp18
 70
     1
102
RTVSPropertyOp19
 70
     1
102
RTVSPropertyOp20
 70
     1
102
RTVSPropertyOp21
 70
     1
102
RTVSPropertyOp22
 70
     1
102
RTVSPropertyOp23
 70
     1
102
RTVSPropertyOp24
 70
     1
102
RTVSPropertyOp25
 70
     1
102
RTVSPropertyOp26
 70
     1
102
RTVSPropertyOp27
 70
     1
102
RTVSPropertyOp28
 70
     1
102
RTVSPropertyOp29
 70
     1
102
RTVSPropertyOp30
 70
     1
102
RTVSPropertyOp31
 70
     1
102
RTVSPropertyOp32
 70
     1
  0
XRECORD
  5
291
102
{ACAD_REACTORS
330
290
102
}
330
290
100
AcDbXrecord
280
     1
102
RTVSPropertyOp0
 70
     1
102
RTVSPropertyOp1
 70
     1
102
RTVSPropertyOp2
 70
     1
102
RTVSPropertyOp3
 70
     1
102
RTVSPropertyOp4
 70
     1
102
RTVSPropertyOp5
 70
     1
102
RTVSPropertyOp6
 70
     1
102
RTVSPropertyOp7
 70
     1
102
RTVSPropertyOp8
 70
     1
102
RTVSPropertyOp9
 70
     1
102
RTVSPropertyOp10
 70
     1
102
RTVSPropertyOp11
 70
     1
102
RTVSPropertyOp12
 70
     1
102
RTVSPropertyOp13
 70
     1
102
RTVSPropertyOp14
 70
     1
102
RTVSPropertyOp15
 70
     1
102
RTVSPropertyOp16
 70
     1
102
RTVSPropertyOp17
 70
     1
102
RTVSPropertyOp18
 70
     1
102
RTVSPropertyOp19
 70
     1
102
RTVSPropertyOp20
 70
     1
102
RTVSPropertyOp21
 70
     1
102
RTVSPropertyOp22
 70
     1
102
RTVSPropertyOp23
 70
     1
102
RTVSPropertyOp24
 70
     1
102
RTVSPropertyOp25
 70
     1
102
RTVSPropertyOp26
 70
     1
102
RTVSPropertyOp27
 70
     1
102
RTVSPropertyOp28
 70
     1
102
RTVSPropertyOp29
 70
     1
102
RTVSPropertyOp30
 70
     1
102
RTVSPropertyOp31
 70
     1
102
RTVSPropertyOp32
 70
     1
  0
XRECORD
  5
293
102
{ACAD_REACTORS
330
292
102
}
330
292
100
AcDbXrecord
280
     1
102
RTVSPropertyOp0
 70
     1
102
RTVSPropertyOp1
 70
     1
102
RTVSPropertyOp2
 70
     1
102
RTVSPropertyOp3
 70
     1
102
RTVSPropertyOp4
 70
     1
102
RTVSPropertyOp5
 70
     1
102
RTVSPropertyOp6
 70
     1
102
RTVSPropertyOp7
 70
     1
102
RTVSPropertyOp8
 70
     1
102
RTVSPropertyOp9
 70
     1
102
RTVSPropertyOp10
 70
     1
102
RTVSPropertyOp11
 70
     1
102
RTVSPropertyOp12
 70
     1
102
RTVSPropertyOp13
 70
     1
102
RTVSPropertyOp14
 70
     1
102
RTVSPropertyOp15
 70
     1
102
RTVSPropertyOp16
 70
     1
102
RTVSPropertyOp17
 70
     1
102
RTVSPropertyOp18
 70
     1
102
RTVSPropertyOp19
 70
     1
102
RTVSPropertyOp20
 70
     1
102
RTVSPropertyOp21
 70
     1
102
RTVSPropertyOp22
 70
     1
102
RTVSPropertyOp23
 70
     1
102
RTVSPropertyOp24
 70
     1
102
RTVSPropertyOp25
 70
     1
102
RTVSPropertyOp26
 70
     1
102
RTVSPropertyOp27
 70
     1
102
RTVSPropertyOp28
 70
     1
102
RTVSPropertyOp29
 70
     1
102
RTVSPropertyOp30
 70
     1
102
RTVSPropertyOp31
 70
     1
102
RTVSPropertyOp32
 70
     1
  0
XRECORD
  5
295
102
{ACAD_REACTORS
330
294
102
}
330
294
100
AcDbXrecord
280
     1
102
RTVSPropertyOp0
 70
     1
102
RTVSPropertyOp1
 70
     1
102
RTVSPropertyOp2
 70
     1
102
RTVSPropertyOp3
 70
     1
102
RTVSPropertyOp4
 70
     1
102
RTVSPropertyOp5
 70
     1
102
RTVSPropertyOp6
 70
     1
102
RTVSPropertyOp7
 70
     1
102
RTVSPropertyOp8
 70
     1
102
RTVSPropertyOp9
 70
     1
102
RTVSPropertyOp10
 70
     1
102
RTVSPropertyOp11
 70
     1
102
RTVSPropertyOp12
 70
     1
102
RTVSPropertyOp13
 70
     1
102
RTVSPropertyOp14
 70
     1
102
RTVSPropertyOp15
 70
     1
102
RTVSPropertyOp16
 70
     1
102
RTVSPropertyOp17
 70
     1
102
RTVSPropertyOp18
 70
     1
102
RTVSPropertyOp19
 70
     1
102
RTVSPropertyOp20
 70
     1
102
RTVSPropertyOp21
 70
     1
102
RTVSPropertyOp22
 70
     1
102
RTVSPropertyOp23
 70
     1
102
RTVSPropertyOp24
 70
     1
102
RTVSPropertyOp25
 70
     1
102
RTVSPropertyOp26
 70
     1
102
RTVSPropertyOp27
 70
     1
102
RTVSPropertyOp28
 70
     1
102
RTVSPropertyOp29
 70
     1
102
RTVSPropertyOp30
 70
     1
102
RTVSPropertyOp31
 70
     1
102
RTVSPropertyOp32
 70
     1
  0
XRECORD
  5
297
102
{ACAD_REACTORS
330
296
102
}
330
296
100
AcDbXrecord
280
     1
102
RTVSPropertyOp0
 70
     1
102
RTVSPropertyOp1
 70
     1
102
RTVSPropertyOp2
 70
     1
102
RTVSPropertyOp3
 70
     1
102
RTVSPropertyOp4
 70
     1
102
RTVSPropertyOp5
 70
     1
102
RTVSPropertyOp6
 70
     1
102
RTVSPropertyOp7
 70
     1
102
RTVSPropertyOp8
 70
     1
102
RTVSPropertyOp9
 70
     1
102
RTVSPropertyOp10
 70
     1
102
RTVSPropertyOp11
 70
     1
102
RTVSPropertyOp12
 70
     1
102
RTVSPropertyOp13
 70
     1
102
RTVSPropertyOp14
 70
     1
102
RTVSPropertyOp15
 70
     1
102
RTVSPropertyOp16
 70
     1
102
RTVSPropertyOp17
 70
     1
102
RTVSPropertyOp18
 70
     1
102
RTVSPropertyOp19
 70
     1
102
RTVSPropertyOp20
 70
     1
102
RTVSPropertyOp21
 70
     1
102
RTVSPropertyOp22
 70
     1
102
RTVSPropertyOp23
 70
     1
102
RTVSPropertyOp24
 70
     1
102
RTVSPropertyOp25
 70
     1
102
RTVSPropertyOp26
 70
     1
102
RTVSPropertyOp27
 70
     1
102
RTVSPropertyOp28
 70
     1
102
RTVSPropertyOp29
 70
     1
102
RTVSPropertyOp30
 70
     1
102
RTVSPropertyOp31
 70
     1
102
RTVSPropertyOp32
 70
     1
  0
XRECORD
  5
2AB
102
{ACAD_REACTORS
330
2AA
102
}
330
2AA
100
AcDbXrecord
280
     1
102
RTVSPropertyOp0
 70
     1
102
RTVSPropertyOp1
 70
     1
102
RTVSPropertyOp2
 70
     1
102
RTVSPropertyOp3
 70
     1
102
RTVSPropertyOp4
 70
     1
102
RTVSPropertyOp5
 70
     1
102
RTVSPropertyOp6
 70
     1
102
RTVSPropertyOp7
 70
     1
102
RTVSPropertyOp8
 70
     1
102
RTVSPropertyOp9
 70
     1
102
RTVSPropertyOp10
 70
     1
102
RTVSPropertyOp11
 70
     1
102
RTVSPropertyOp12
 70
     1
102
RTVSPropertyOp13
 70
     1
102
RTVSPropertyOp14
 70
     1
102
RTVSPropertyOp15
 70
     1
102
RTVSPropertyOp16
 70
     1
102
RTVSPropertyOp17
 70
     1
102
RTVSPropertyOp18
 70
     1
102
RTVSPropertyOp19
 70
     1
102
RTVSPropertyOp20
 70
     1
102
RTVSPropertyOp21
 70
     1
102
RTVSPropertyOp22
 70
     1
102
RTVSPropertyOp23
 70
     1
102
RTVSPropertyOp24
 70
     1
102
RTVSPropertyOp25
 70
     1
102
RTVSPropertyOp26
 70
     1
102
RTVSPropertyOp27
 70
     1
102
RTVSPropertyOp28
 70
     1
102
RTVSPropertyOp29
 70
     1
102
RTVSPropertyOp30
 70
     1
102
RTVSPropertyOp31
 70
     1
102
RTVSPropertyOp32
 70
     1
  0
XRECORD
  5
2A1
102
{ACAD_REACTORS
330
2A0
102
}
330
2A0
100
AcDbXrecord
280
     1
102
RTVSPropertyOp0
 70
     1
102
RTVSPropertyOp1
 70
     1
102
RTVSPropertyOp2
 70
     1
102
RTVSPropertyOp3
 70
     1
102
RTVSPropertyOp4
 70
     1
102
RTVSPropertyOp5
 70
     1
102
RTVSPropertyOp6
 70
     1
102
RTVSPropertyOp7
 70
     1
102
RTVSPropertyOp8
 70
     1
102
RTVSPropertyOp9
 70
     1
102
RTVSPropertyOp10
 70
     1
102
RTVSPropertyOp11
 70
     1
102
RTVSPropertyOp12
 70
     1
102
RTVSPropertyOp13
 70
     1
102
RTVSPropertyOp14
 70
     1
102
RTVSPropertyOp15
 70
     1
102
RTVSPropertyOp16
 70
     1
102
RTVSPropertyOp17
 70
     1
102
RTVSPropertyOp18
 70
     1
102
RTVSPropertyOp19
 70
     1
102
RTVSPropertyOp20
 70
     1
102
RTVSPropertyOp21
 70
     1
102
RTVSPropertyOp22
 70
     1
102
RTVSPropertyOp23
 70
     1
102
RTVSPropertyOp24
 70
     1
102
RTVSPropertyOp25
 70
     1
102
RTVSPropertyOp26
 70
     1
102
RTVSPropertyOp27
 70
     1
102
RTVSPropertyOp28
 70
     1
102
RTVSPropertyOp29
 70
     1
102
RTVSPropertyOp30
 70
     1
102
RTVSPropertyOp31
 70
     1
102
RTVSPropertyOp32
 70
     1
  0
XRECORD
  5
2A9
102
{ACAD_REACTORS
330
2A8
102
}
330
2A8
100
AcDbXrecord
280
     1
102
RTVSPropertyOp0
 70
     1
102
RTVSPropertyOp1
 70
     1
102
RTVSPropertyOp2
 70
     1
102
RTVSPropertyOp3
 70
     1
102
RTVSPropertyOp4
 70
     1
102
RTVSPropertyOp5
 70
     1
102
RTVSPropertyOp6
 70
     1
102
RTVSPropertyOp7
 70
     1
102
RTVSPropertyOp8
 70
     1
102
RTVSPropertyOp9
 70
     1
102
RTVSPropertyOp10
 70
     1
102
RTVSPropertyOp11
 70
     1
102
RTVSPropertyOp12
 70
     1
102
RTVSPropertyOp13
 70
     1
102
RTVSPropertyOp14
 70
     1
102
RTVSPropertyOp15
 70
     1
102
RTVSPropertyOp16
 70
     1
102
RTVSPropertyOp17
 70
     1
102
RTVSPropertyOp18
 70
     1
102
RTVSPropertyOp19
 70
     1
102
RTVSPropertyOp20
 70
     1
102
RTVSPropertyOp21
 70
     1
102
RTVSPropertyOp22
 70
     1
102
RTVSPropertyOp23
 70
     1
102
RTVSPropertyOp24
 70
     1
102
RTVSPropertyOp25
 70
     1
102
RTVSPropertyOp26
 70
     1
102
RTVSPropertyOp27
 70
     1
102
RTVSPropertyOp28
 70
     1
102
RTVSPropertyOp29
 70
     1
102
RTVSPropertyOp30
 70
     1
102
RTVSPropertyOp31
 70
     1
102
RTVSPropertyOp32
 70
     1
  0
ENDSEC
  0
EOF
