  0
SECTION
  2
HEADER
  9
$ACADVER
  1
AC1018
  9
$ACADMAINTVER
 70
     0
  9
$DWGCODEPAGE
  3
ANSI_1252
  9
$INSBASE
 10
0.0
 20
0.0
 30
0.0
  9
$EXTMIN
 10
-415.499999999989
 20
-267.0000000000051
 30
0.0
  9
$EXTMAX
 10
-118.4999999999909
 20
-57.000000000005
 30
0.0
  9
$LIMMIN
 10
0.0
 20
0.0
  9
$LIMMAX
 10
12.0
 20
9.0
  9
$ORTHOMODE
 70
     0
  9
$REGENMODE
 70
     1
  9
$FILLMODE
 70
     1
  9
$QTEXTMODE
 70
     0
  9
$MIRRTEXT
 70
     1
  9
$LTSCALE
 40
1.0
  9
$ATTMODE
 70
     1
  9
$TEXTSIZE
 40
0.2
  9
$TRACEWID
 40
0.05
  9
$TEXTSTYLE
  7
Standard
  9
$CLAYER
  8
0
  9
$CELTYPE
  6
ByLayer
  9
$CECOLOR
 62
   256
  9
$CELTSCALE
 40
1.0
  9
$DISPSILH
 70
     0
  9
$DIMSCALE
 40
1.0
  9
$DIMASZ
 40
0.18
  9
$DIMEXO
 40
0.0625
  9
$DIMDLI
 40
0.38
  9
$DIMRND
 40
0.0
  9
$DIMDLE
 40
0.0
  9
$DIMEXE
 40
0.18
  9
$DIMTP
 40
0.0
  9
$DIMTM
 40
0.0
  9
$DIMTXT
 40
0.18
  9
$DIMCEN
 40
0.09
  9
$DIMTSZ
 40
0.0
  9
$DIMTOL
 70
     0
  9
$DIMLIM
 70
     0
  9
$DIMTIH
 70
     1
  9
$DIMTOH
 70
     1
  9
$DIMSE1
 70
     0
  9
$DIMSE2
 70
     0
  9
$DIMTAD
 70
     0
  9
$DIMZIN
 70
     0
  9
$DIMBLK
  1

  9
$DIMASO
 70
     1
  9
$DIMSHO
 70
     1
  9
$DIMPOST
  1

  9
$DIMAPOST
  1

  9
$DIMALT
 70
     0
  9
$DIMALTD
 70
     2
  9
$DIMALTF
 40
25.4
  9
$DIMLFAC
 40
1.0
  9
$DIMTOFL
 70
     0
  9
$DIMTVP
 40
0.0
  9
$DIMTIX
 70
     0
  9
$DIMSOXD
 70
     0
  9
$DIMSAH
 70
     0
  9
$DIMBLK1
  1

  9
$DIMBLK2
  1

  9
$DIMSTYLE
  2
Standard
  9
$DIMCLRD
 70
     0
  9
$DIMCLRE
 70
     0
  9
$DIMCLRT
 70
     0
  9
$DIMTFAC
 40
1.0
  9
$DIMGAP
 40
0.09
  9
$DIMJUST
 70
     0
  9
$DIMSD1
 70
     0
  9
$DIMSD2
 70
     0
  9
$DIMTOLJ
 70
     1
  9
$DIMTZIN
 70
     0
  9
$DIMALTZ
 70
     0
  9
$DIMALTTZ
 70
     0
  9
$DIMUPT
 70
     0
  9
$DIMDEC
 70
     4
  9
$DIMTDEC
 70
     4
  9
$DIMALTU
 70
     2
  9
$DIMALTTD
 70
     2
  9
$DIMTXSTY
  7
Standard
  9
$DIMAUNIT
 70
     0
  9
$DIMADEC
 70
     0
  9
$DIMALTRND
 40
0.0
  9
$DIMAZIN
 70
     0
  9
$DIMDSEP
 70
    46
  9
$DIMATFIT
 70
     3
  9
$DIMFRAC
 70
     0
  9
$DIMLDRBLK
  1

  9
$DIMLUNIT
 70
     2
  9
$DIMLWD
 70
    -2
  9
$DIMLWE
 70
    -2
  9
$DIMTMOVE
 70
     0
  9
$LUNITS
 70
     2
  9
$LUPREC
 70
     4
  9
$SKETCHINC
 40
0.1
  9
$FILLETRAD
 40
0.5
  9
$AUNITS
 70
     0
  9
$AUPREC
 70
     0
  9
$MENU
  1
.
  9
$ELEVATION
 40
0.0
  9
$PELEVATION
 40
0.0
  9
$THICKNESS
 40
0.0
  9
$LIMCHECK
 70
     0
  9
$CHAMFERA
 40
0.5
  9
$CHAMFERB
 40
0.5
  9
$CHAMFERC
 40
1.0
  9
$CHAMFERD
 40
0.0
  9
$SKPOLY
 70
     0
  9
$TDCREATE
 40
2458158.812592014
  9
$TDUCREATE
 40
2458158.770925347
  9
$TDUPDATE
 40
2458158.812592558
  9
$TDUUPDATE
 40
2458158.770925891
  9
$TDINDWG
 40
0.0000000116
  9
$TDUSRTIMER
 40
0.0000000116
  9
$USRTIMER
 70
     1
  9
$ANGBASE
 50
0.0
  9
$ANGDIR
 70
     0
  9
$PDMODE
 70
     0
  9
$PDSIZE
 40
0.0
  9
$PLINEWID
 40
0.0
  9
$SPLFRAME
 70
     0
  9
$SPLINETYPE
 70
     6
  9
$SPLINESEGS
 70
     8
  9
$HANDSEED
  5
3D1
  9
$SURFTAB1
 70
     6
  9
$SURFTAB2
 70
     6
  9
$SURFTYPE
 70
     6
  9
$SURFU
 70
     6
  9
$SURFV
 70
     6
  9
$UCSBASE
  2

  9
$UCSNAME
  2

  9
$UCSORG
 10
0.0
 20
0.0
 30
0.0
  9
$UCSXDIR
 10
1.0
 20
0.0
 30
0.0
  9
$UCSYDIR
 10
0.0
 20
1.0
 30
0.0
  9
$UCSORTHOREF
  2

  9
$UCSORTHOVIEW
 70
     0
  9
$UCSORGTOP
 10
0.0
 20
0.0
 30
0.0
  9
$UCSORGBOTTOM
 10
0.0
 20
0.0
 30
0.0
  9
$UCSORGLEFT
 10
0.0
 20
0.0
 30
0.0
  9
$UCSORGRIGHT
 10
0.0
 20
0.0
 30
0.0
  9
$UCSORGFRONT
 10
0.0
 20
0.0
 30
0.0
  9
$UCSORGBACK
 10
0.0
 20
0.0
 30
0.0
  9
$PUCSBASE
  2

  9
$PUCSNAME
  2

  9
$PUCSORG
 10
0.0
 20
0.0
 30
0.0
  9
$PUCSXDIR
 10
1.0
 20
0.0
 30
0.0
  9
$PUCSYDIR
 10
0.0
 20
1.0
 30
0.0
  9
$PUCSORTHOREF
  2

  9
$PUCSORTHOVIEW
 70
     0
  9
$PUCSORGTOP
 10
0.0
 20
0.0
 30
0.0
  9
$PUCSORGBOTTOM
 10
0.0
 20
0.0
 30
0.0
  9
$PUCSORGLEFT
 10
0.0
 20
0.0
 30
0.0
  9
$PUCSORGRIGHT
 10
0.0
 20
0.0
 30
0.0
  9
$PUCSORGFRONT
 10
0.0
 20
0.0
 30
0.0
  9
$PUCSORGBACK
 10
0.0
 20
0.0
 30
0.0
  9
$USERI1
 70
     0
  9
$USERI2
 70
     0
  9
$USERI3
 70
     0
  9
$USERI4
 70
     0
  9
$USERI5
 70
     0
  9
$USERR1
 40
18.1
  9
$USERR2
 40
0.0
  9
$USERR3
 40
0.0
  9
$USERR4
 40
0.0
  9
$USERR5
 40
0.0
  9
$WORLDVIEW
 70
     1
  9
$SHADEDGE
 70
     3
  9
$SHADEDIF
 70
    70
  9
$TILEMODE
 70
     1
  9
$MAXACTVP
 70
    64
  9
$PINSBASE
 10
0.0
 20
0.0
 30
0.0
  9
$PLIMCHECK
 70
     0
  9
$PEXTMIN
 10
1.00000000000000E+20
 20
1.00000000000000E+20
 30
1.00000000000000E+20
  9
$PEXTMAX
 10
-1.00000000000000E+20
 20
-1.00000000000000E+20
 30
-1.00000000000000E+20
  9
$PLIMMIN
 10
0.0
 20
0.0
  9
$PLIMMAX
 10
12.0
 20
9.0
  9
$UNITMODE
 70
     0
  9
$VISRETAIN
 70
     1
  9
$PLINEGEN
 70
     0
  9
$PSLTSCALE
 70
     1
  9
$TREEDEPTH
 70
  3020
  9
$CMLSTYLE
  2
Standard
  9
$CMLJUST
 70
     0
  9
$CMLSCALE
 40
1.0
  9
$PROXYGRAPHICS
 70
     1
  9
$MEASUREMENT
 70
     1
  9
$CELWEIGHT
370
    -1
  9
$ENDCAPS
280
     0
  9
$JOINSTYLE
280
     0
  9
$LWDISPLAY
290
     0
  9
$INSUNITS
 70
     4
  9
$HYPERLINKBASE
  1

  9
$STYLESHEET
  1

  9
$XEDIT
290
     1
  9
$CEPSNTYPE
380
     0
  9
$PSTYLEMODE
290
     1
  9
$FINGERPRINTGUID
  2
{BBCEA45E-F2AF-4EB6-BFF8-6E0E54E43514}
  9
$VERSIONGUID
  2
{FAEB1C32-E019-11D5-929B-00C0DF256EC4}
  9
$EXTNAMES
290
     1
  9
$PSVPSCALE
 40
0.0
  9
$OLESTARTUP
290
     0
  9
$SORTENTS
280
   127
  9
$INDEXCTL
280
     0
  9
$HIDETEXT
280
     1
  9
$XCLIPFRAME
290
     0
  9
$HALOGAP
280
     0
  9
$OBSCOLOR
 70
   257
  9
$OBSLTYPE
280
     0
  9
$INTERSECTIONDISPLAY
280
     0
  9
$INTERSECTIONCOLOR
 70
   257
  9
$DIMASSOC
280
     2
  9
$PROJECTNAME
  1

  0
ENDSEC
  0
SECTION
  2
CLASSES
  0
CLASS
  1
ACDBDICTIONARYWDFLT
  2
AcDbDictionaryWithDefault
  3
ObjectDBX Classes
 90
        0
 91
        4
280
     0
281
     0
  0
CLASS
  1
VISUALSTYLE
  2
AcDbVisualStyle
  3
ObjectDBX Classes
 90
     4095
 91
        4
280
     0
281
     0
  0
CLASS
  1
MATERIAL
  2
AcDbMaterial
  3
ObjectDBX Classes
 90
     1153
 91
        4
280
     0
281
     0
  0
ENDSEC
  0
SECTION
  2
TABLES
  0
TABLE
  2
VPORT
  5
8
330
0
100
AcDbSymbolTable
 70
     1
  0
VPORT
  5
29
330
8
100
AcDbSymbolTableRecord
100
AcDbViewportTableRecord
  2
*Active
 70
     0
 10
0.0
 20
0.0
 11
1.0
 21
1.0
 12
-266.9999999999899
 22
-162.0000000000051
 13
0.0
 23
0.0
 14
0.5
 24
0.5
 15
0.5
 25
0.5
 16
0.0
 26
0.0
 36
1.0
 17
0.0
 27
0.0
 37
0.0
 40
231.0000000000001
 41
1.60267857142857
 42
50.0
 43
0.0
 44
0.0
 50
0.0
 51
0.0
 71
     0
 72
   100
 73
     1
 74
     3
 75
     0
 76
     0
 77
     0
 78
     0
281
     0
 65
     1
110
0.0
120
0.0
130
0.0
111
1.0
121
0.0
131
0.0
112
0.0
122
1.0
132
0.0
 79
     0
146
0.0
  0
ENDTAB
  0
TABLE
  2
LTYPE
  5
5
330
0
100
AcDbSymbolTable
 70
     8
  0
LTYPE
  5
14
330
5
100
AcDbSymbolTableRecord
100
AcDbLinetypeTableRecord
  2
ByBlock
 70
     0
  3

 72
    65
 73
     0
 40
0.0
  0
LTYPE
  5
15
330
5
100
AcDbSymbolTableRecord
100
AcDbLinetypeTableRecord
  2
ByLayer
 70
     0
  3

 72
    65
 73
     0
 40
0.0
  0
LTYPE
  5
16
330
5
100
AcDbSymbolTableRecord
100
AcDbLinetypeTableRecord
  2
Continuous
 70
     0
  3
Solid line
 72
    65
 73
     0
 40
0.0
  0
LTYPE
  5
3F
330
5
100
AcDbSymbolTableRecord
100
AcDbLinetypeTableRecord
  2
DASHED
 70
     0
  3
Dashed
 72
    65
 73
     2
 40
15.0
 49
7.0
 74
     0
 49
-8.0
 74
     0
  0
LTYPE
  5
40
330
5
100
AcDbSymbolTableRecord
100
AcDbLinetypeTableRecord
  2
DOTTED
 70
     0
  3
Dotted
 72
    65
 73
     2
 40
1.0
 49
0.0
 74
     0
 49
-1.0
 74
     0
  0
LTYPE
  5
41
330
5
100
AcDbSymbolTableRecord
100
AcDbLinetypeTableRecord
  2
DOT_CENTER
 70
     0
  3
Dot_Center
 72
    65
 73
     4
 40
14.0
 49
12.0
 74
     0
 49
-1.0
 74
     0
 49
0.0
 74
     0
 49
-1.0
 74
     0
  0
LTYPE
  5
42
330
5
100
AcDbSymbolTableRecord
100
AcDbLinetypeTableRecord
  2
LONG_DASHED
 70
     0
  3
Long_Dashed
 72
    65
 73
     2
 40
15.0
 49
10.0
 74
     0
 49
-5.0
 74
     0
  0
LTYPE
  5
43
330
5
100
AcDbSymbolTableRecord
100
AcDbLinetypeTableRecord
  2
DASH_CENTER
 70
     0
  3
Dash_Center
 72
    65
 73
     4
 40
14.0
 49
11.0
 74
     0
 49
-1.0
 74
     0
 49
1.0
 74
     0
 49
-1.0
 74
     0
  0
LTYPE
  5
44
330
5
100
AcDbSymbolTableRecord
100
AcDbLinetypeTableRecord
  2
PHANTOM
 70
     0
  3
Phantom
 72
    65
 73
     6
 40
13.0
 49
10.0
 74
     0
 49
-1.0
 74
     0
 49
0.0
 74
     0
 49
-1.0
 74
     0
 49
0.0
 74
     0
 49
-1.0
 74
     0
  0
LTYPE
  5
45
330
5
100
AcDbSymbolTableRecord
100
AcDbLinetypeTableRecord
  2
CENTER_DASH_DASH
 70
     0
  3
Center_Dash_Dash
 72
    65
 73
     6
 40
14.0
 49
9.0
 74
     0
 49
-1.0
 74
     0
 49
1.0
 74
     0
 49
-1.0
 74
     0
 49
1.0
 74
     0
 49
-1.0
 74
     0
  0
ENDTAB
  0
TABLE
  2
LAYER
  5
2
330
0
100
AcDbSymbolTable
 70
     2
  0
LAYER
  5
10
330
2
100
AcDbSymbolTableRecord
100
AcDbLayerTableRecord
  2
0
 70
     0
 62
     7
  6
Continuous
370
    -3
390
F
  0
LAYER
  5
46
330
2
100
AcDbSymbolTableRecord
100
AcDbLayerTableRecord
  2
1
 70
     0
 62
     7
  6
Continuous
370
    -3
390
F
  0
ENDTAB
  0
TABLE
  2
STYLE
  5
3
330
0
100
AcDbSymbolTable
 70
     5
  0
STYLE
  5
11
330
3
100
AcDbSymbolTableRecord
100
AcDbTextStyleTableRecord
  2
Standard
 70
     0
 40
0.0
 41
1.0
 50
0.0
 71
     0
 42
0.2
  3
txt
  4

  0
STYLE
  5
BE
330
3
100
AcDbSymbolTableRecord
100
AcDbTextStyleTableRecord
  2
CONVERTER_11
 70
     0
 40
0.0
 41
0.9
 50
0.0
 71
     0
 42
0.2
  3
txt.shx
  4

  0
STYLE
  5
367
330
3
100
AcDbSymbolTableRecord
100
AcDbTextStyleTableRecord
  2
CONVERTER_12
 70
     0
 40
0.0
 41
0.81
 50
0.0
 71
     0
 42
0.2
  3
txt.shx
  4

  0
STYLE
  5
36D
330
3
100
AcDbSymbolTableRecord
100
AcDbTextStyleTableRecord
  2
CONVERTER_13
 70
     0
 40
0.0
 41
0.855
 50
0.0
 71
     0
 42
0.2
  3
txt.shx
  4

  0
STYLE
  5
370
330
3
100
AcDbSymbolTableRecord
100
AcDbTextStyleTableRecord
  2
CONVERTER_14
 70
     0
 40
0.0
 41
0.72
 50
0.0
 71
     0
 42
0.2
  3
txt.shx
  4

  0
ENDTAB
  0
TABLE
  2
VIEW
  5
6
330
0
100
AcDbSymbolTable
 70
     0
  0
ENDTAB
  0
TABLE
  2
UCS
  5
7
330
0
100
AcDbSymbolTable
 70
     0
  0
ENDTAB
  0
TABLE
  2
APPID
  5
9
330
0
100
AcDbSymbolTable
 70
     1
  0
APPID
  5
12
330
9
100
AcDbSymbolTableRecord
100
AcDbRegAppTableRecord
  2
ACAD
 70
     0
  0
ENDTAB
  0
TABLE
  2
DIMSTYLE
  5
A
330
0
100
AcDbSymbolTable
 70
     4
100
AcDbDimStyleTable
  0
DIMSTYLE
105
27
330
A
100
AcDbSymbolTableRecord
100
AcDbDimStyleTableRecord
  2
Standard
 70
     0
178
     0
340
11
  0
DIMSTYLE
105
C2
102
{ACAD_REACTORS
330
C3
102
}
330
A
100
AcDbSymbolTableRecord
100
AcDbDimStyleTableRecord
  2
ME10_DIM_10
 70
     0
 41
1.75
 42
0.0
 44
0.75
 73
     0
 74
     0
 77
     1
 78
     8
140
1.75
147
0.75
172
     1
173
     1
174
     1
175
     1
176
     2
177
     2
271
     2
178
     3
271
     2
340
BE
  0
DIMSTYLE
105
CD
102
{ACAD_REACTORS
330
CE
102
}
330
A
100
AcDbSymbolTableRecord
100
AcDbDimStyleTableRecord
  2
ME10_DIM_11
 70
     0
 41
1.75
 42
0.0
 44
0.75
 73
     0
 74
     0
 77
     1
 78
     8
140
1.75
147
0.75
172
     1
173
     1
174
     1
175
     1
176
     2
177
     2
178
     3
340
BE
  0
DIMSTYLE
105
26E
102
{ACAD_REACTORS
330
26F
102
}
330
A
100
AcDbSymbolTableRecord
100
AcDbDimStyleTableRecord
  2
ME10_DIM_12
 70
     0
 41
1.75
 42
0.0
 44
0.75
 73
     0
 74
     0
 77
     1
 78
     8
140
1.75
147
0.75
172
     1
173
     1
174
     1
175
     1
176
     2
177
     2
271
     2
178
     3
271
     2
340
BE
  0
ENDTAB
  0
TABLE
  2
BLOCK_RECORD
  5
1
330
0
100
AcDbSymbolTable
 70
    20
  0
BLOCK_RECORD
  5
1F
330
1
100
AcDbSymbolTableRecord
100
AcDbBlockTableRecord
  2
*Model_Space
340
22
  0
BLOCK_RECORD
  5
1B
330
1
100
AcDbSymbolTableRecord
100
AcDbBlockTableRecord
  2
*Paper_Space
340
1E
  0
BLOCK_RECORD
  5
23
330
1
100
AcDbSymbolTableRecord
100
AcDbBlockTableRecord
  2
*Paper_Space0
340
26
  0
BLOCK_RECORD
  5
47
330
1
100
AcDbSymbolTableRecord
100
AcDbBlockTableRecord
  2
FB_4-6-select__1
340
0
102
{BLKREFS
331
4B
102
}
  0
BLOCK_RECORD
  5
4A
330
1
100
AcDbSymbolTableRecord
100
AcDbBlockTableRecord
  2
Back1
340
0
102
{BLKREFS
331
7D
102
}
  0
BLOCK_RECORD
  5
4E
330
1
100
AcDbSymbolTableRecord
100
AcDbBlockTableRecord
  2
FB_4-6-select__2
340
0
102
{BLKREFS
331
52
102
}
  0
BLOCK_RECORD
  5
51
330
1
100
AcDbSymbolTableRecord
100
AcDbBlockTableRecord
  2
Front1
340
0
102
{BLKREFS
331
7E
102
}
  0
BLOCK_RECORD
  5
55
330
1
100
AcDbSymbolTableRecord
100
AcDbBlockTableRecord
  2
FB_4-6-select__3
340
0
102
{BLKREFS
331
59
102
}
  0
BLOCK_RECORD
  5
58
330
1
100
AcDbSymbolTableRecord
100
AcDbBlockTableRecord
  2
Gen1
340
0
102
{BLKREFS
331
7F
102
}
  0
BLOCK_RECORD
  5
5C
330
1
100
AcDbSymbolTableRecord
100
AcDbBlockTableRecord
  2
FB_4-6-select__4
340
0
102
{BLKREFS
331
60
102
}
  0
BLOCK_RECORD
  5
5F
330
1
100
AcDbSymbolTableRecord
100
AcDbBlockTableRecord
  2
Left1
340
0
102
{BLKREFS
331
80
102
}
  0
BLOCK_RECORD
  5
63
330
1
100
AcDbSymbolTableRecord
100
AcDbBlockTableRecord
  2
FB_4-6-select__5
340
0
102
{BLKREFS
331
67
102
}
  0
BLOCK_RECORD
  5
66
330
1
100
AcDbSymbolTableRecord
100
AcDbBlockTableRecord
  2
Right1
340
0
102
{BLKREFS
331
81
102
}
  0
BLOCK_RECORD
  5
6A
330
1
100
AcDbSymbolTableRecord
100
AcDbBlockTableRecord
  2
FB_4-6-select__6
340
0
102
{BLKREFS
331
6E
102
}
  0
BLOCK_RECORD
  5
6D
330
1
100
AcDbSymbolTableRecord
100
AcDbBlockTableRecord
  2
Top1
340
0
102
{BLKREFS
331
82
102
}
  0
BLOCK_RECORD
  5
71
330
1
100
AcDbSymbolTableRecord
100
AcDbBlockTableRecord
  2
_rahmen
340
0
102
{BLKREFS
331
78
102
}
  0
BLOCK_RECORD
  5
74
330
1
100
AcDbSymbolTableRecord
100
AcDbBlockTableRecord
  2
_punkt
340
0
102
{BLKREFS
331
79
102
}
  0
BLOCK_RECORD
  5
77
330
1
100
AcDbSymbolTableRecord
100
AcDbBlockTableRecord
  2
A4I_CS
340
0
102
{BLKREFS
331
83
102
}
  0
BLOCK_RECORD
  5
7C
330
1
100
AcDbSymbolTableRecord
100
AcDbBlockTableRecord
  2
1
340
0
102
{BLKREFS
331
86
102
}
  0
BLOCK_RECORD
  5
B8
330
1
100
AcDbSymbolTableRecord
100
AcDbBlockTableRecord
  2
*D17
340
0
  0
BLOCK_RECORD
  5
C4
330
1
100
AcDbSymbolTableRecord
100
AcDbBlockTableRecord
  2
*D18
340
0
  0
BLOCK_RECORD
  5
265
330
1
100
AcDbSymbolTableRecord
100
AcDbBlockTableRecord
  2
*D19
340
0
  0
ENDTAB
  0
ENDSEC
  0
SECTION
  2
BLOCKS
  0
BLOCK
  5
20
330
1F
100
AcDbEntity
  8
0
100
AcDbBlockBegin
  2
*Model_Space
 70
     0
 10
0.0
 20
0.0
 30
0.0
  3
*Model_Space
  1

  0
ENDBLK
  5
21
330
1F
100
AcDbEntity
  8
0
100
AcDbBlockEnd
  0
BLOCK
  5
1C
330
1B
100
AcDbEntity
 67
     1
  8
0
100
AcDbBlockBegin
  2
*Paper_Space
 70
     0
 10
0.0
 20
0.0
 30
0.0
  3
*Paper_Space
  1

  0
ENDBLK
  5
1D
330
1B
100
AcDbEntity
 67
     1
  8
0
100
AcDbBlockEnd
  0
BLOCK
  5
24
330
23
100
AcDbEntity
  8
0
100
AcDbBlockBegin
  2
*Paper_Space0
 70
     0
 10
0.0
 20
0.0
 30
0.0
  3
*Paper_Space0
  1

  0
ENDBLK
  5
25
330
23
100
AcDbEntity
  8
0
100
AcDbBlockEnd
  0
BLOCK
  5
48
330
47
100
AcDbEntity
  8
0
100
AcDbBlockBegin
  2
FB_4-6-select__1
 70
     0
 10
-84.00000059176914
 20
-74.20000012420145
 30
0.0
  3
FB_4-6-select__1
  1

  0
LINE
  5
87
330
47
100
AcDbEntity
  8
0
  6
Continuous
 62
     7
100
AcDbLine
 10
-81.64884059176913
 20
-59.00000011918078
 30
0.0
 11
-83.57500459127571
 21
-59.00000011918925
 31
0.0
  0
LINE
  5
88
330
47
100
AcDbEntity
  8
0
  6
Continuous
 62
     7
100
AcDbLine
 10
-78.92499659226254
 20
-59.00000011918925
 30
0.0
 11
-80.85000622082148
 21
-59.00000011918071
 31
0.0
  0
LINE
  5
89
330
47
100
AcDbEntity
  8
0
  6
Continuous
 62
     7
100
AcDbLine
 10
-80.85000622082148
 20
-60.00311584517228
 30
0.0
 11
-81.64884059176913
 21
-60.00311584517228
 31
0.0
  0
LINE
  5
8A
330
47
100
AcDbEntity
  8
0
  6
Continuous
 62
     7
100
AcDbLine
 10
-83.75000059176914
 20
-61.00000011918925
 30
0.0
 11
-78.75000059176914
 21
-61.00000011918925
 31
0.0
  0
LINE
  5
8B
330
47
100
AcDbEntity
  8
0
  6
Continuous
 62
     7
100
AcDbLine
 10
-84.00000059176914
 20
-61.00000011918925
 30
0.0
 11
-83.75000059176914
 21
-61.00000011918925
 31
0.0
  0
LINE
  5
8C
330
47
100
AcDbEntity
  8
0
  6
Continuous
 62
     7
100
AcDbLine
 10
-78.92499659226254
 20
-59.00000011918925
 30
0.0
 11
-78.75000059176914
 21
-61.00000011918925
 31
0.0
  0
LINE
  5
8D
330
47
100
AcDbEntity
  8
0
  6
Continuous
 62
     7
100
AcDbLine
 10
-83.00000059176914
 20
-69.70000011918926
 30
0.0
 11
-84.00000059176914
 21
-69.70000011918926
 31
0.0
  0
LINE
  5
8E
330
47
100
AcDbEntity
  8
0
  6
Continuous
 62
     7
100
AcDbLine
 10
-83.00000059176914
 20
-62.00000011918925
 30
0.0
 11
-83.00000059176914
 21
-69.70000011918926
 31
0.0
  0
LINE
  5
8F
330
47
100
AcDbEntity
  8
0
  6
Continuous
 62
     7
100
AcDbLine
 10
-82.75000059176914
 20
-62.00000011918925
 30
0.0
 11
-82.75000059176914
 21
-74.20000012420145
 31
0.0
  0
LINE
  5
90
330
47
100
AcDbEntity
  8
0
  6
Continuous
 62
     7
100
AcDbLine
 10
-81.64884059176913
 20
-59.00000011918078
 30
0.0
 11
-81.64884059176913
 21
-60.00311584517228
 31
0.0
  0
LINE
  5
91
330
47
100
AcDbEntity
  8
0
  6
Continuous
 62
     7
100
AcDbLine
 10
-82.75000059176914
 20
-62.00000011918925
 30
0.0
 11
-83.00000059176914
 21
-62.00000011918925
 31
0.0
  0
LINE
  5
92
330
47
100
AcDbEntity
  8
0
  6
Continuous
 62
     7
100
AcDbLine
 10
-80.85000622082148
 20
-60.00311584517228
 30
0.0
 11
-80.85000622082148
 21
-59.00000011918071
 31
0.0
  0
LINE
  5
93
330
47
100
AcDbEntity
  8
0
  6
Continuous
 62
     7
100
AcDbLine
 10
-79.75000059176914
 20
-62.00000011918925
 30
0.0
 11
-79.75000059176914
 21
-74.20000012420145
 31
0.0
  0
LINE
  5
94
330
47
100
AcDbEntity
  8
0
  6
Continuous
 62
     7
100
AcDbLine
 10
-84.00000059176914
 20
-69.70000011918926
 30
0.0
 11
-84.00000059176914
 21
-61.00000011918925
 31
0.0
  0
LINE
  5
95
330
47
100
AcDbEntity
  8
0
  6
Continuous
 62
     7
100
AcDbLine
 10
-79.50000059176914
 20
-69.70000011918926
 30
0.0
 11
-78.50000059176914
 21
-69.70000011918926
 31
0.0
  0
LINE
  5
96
330
47
100
AcDbEntity
  8
0
  6
Continuous
 62
     7
100
AcDbLine
 10
-79.50000059176914
 20
-62.00000011918925
 30
0.0
 11
-79.50000059176914
 21
-69.70000011918926
 31
0.0
  0
LINE
  5
97
330
47
100
AcDbEntity
  8
0
  6
Continuous
 62
     7
100
AcDbLine
 10
-78.50000059176914
 20
-61.00000011918925
 30
0.0
 11
-78.75000059176914
 21
-61.00000011918925
 31
0.0
  0
LINE
  5
98
330
47
100
AcDbEntity
  8
0
  6
Continuous
 62
     7
100
AcDbLine
 10
-78.50000059176914
 20
-69.70000011918926
 30
0.0
 11
-78.50000059176914
 21
-61.00000011918925
 31
0.0
  0
LINE
  5
99
330
47
100
AcDbEntity
  8
0
  6
Continuous
 62
     7
100
AcDbLine
 10
-79.75000059176914
 20
-62.00000011918925
 30
0.0
 11
-79.50000059176914
 21
-62.00000011918925
 31
0.0
  0
LINE
  5
9A
330
47
100
AcDbEntity
  8
0
  6
Continuous
 62
     7
100
AcDbLine
 10
-82.75000059176914
 20
-62.00000011918925
 30
0.0
 11
-79.75000059176914
 21
-62.00000011918925
 31
0.0
  0
LINE
  5
9B
330
47
100
AcDbEntity
  8
0
  6
Continuous
 62
     7
100
AcDbLine
 10
-79.75000059176914
 20
-74.20000012420145
 30
0.0
 11
-81.25000059176914
 21
-74.20000012420145
 31
0.0
  0
LINE
  5
9C
330
47
100
AcDbEntity
  8
0
  6
Continuous
 62
     7
100
AcDbLine
 10
-81.25000059176914
 20
-74.20000012420145
 30
0.0
 11
-82.75000059176914
 21
-74.20000012420145
 31
0.0
  0
LINE
  5
9D
330
47
100
AcDbEntity
  8
0
  6
Continuous
 62
     7
100
AcDbLine
 10
-83.57500459127571
 20
-59.00000011918925
 30
0.0
 11
-83.75000059176914
 21
-61.00000011918925
 31
0.0
  0
LINE
  5
9E
330
47
100
AcDbEntity
  8
1
  6
DOT_CENTER
 62
     2
100
AcDbLine
 10
-81.25000059176914
 20
-62.00000011918925
 30
0.0
 11
-81.25000059176914
 21
-74.20000012420145
 31
0.0
  0
LINE
  5
9F
330
47
100
AcDbEntity
  8
1
  6
DOT_CENTER
 62
     2
100
AcDbLine
 10
-81.25000059176914
 20
-59.00000011918925
 30
0.0
 11
-81.25000059176914
 21
-61.00000011918926
 31
0.0
  0
ENDBLK
  5
49
330
47
100
AcDbEntity
  8
0
100
AcDbBlockEnd
  0
BLOCK
  5
4C
330
4A
100
AcDbEntity
  8
0
100
AcDbBlockBegin
  2
Back1
 70
     0
 10
-81.25000000004498
 20
-66.49999999999
 30
0.0
  3
Back1
  1

  0
INSERT
  5
4B
330
4A
100
AcDbEntity
  8
0
100
AcDbBlockReference
  2
FB_4-6-select__1
 10
-84.00000059176914
 20
-74.20000012420145
 30
0.0
  0
ENDBLK
  5
4D
330
4A
100
AcDbEntity
  8
0
100
AcDbBlockEnd
  0
BLOCK
  5
4F
330
4E
100
AcDbEntity
  8
0
100
AcDbBlockBegin
  2
FB_4-6-select__2
 70
     0
 10
-156.9999994082309
 20
-74.20000012420145
 30
0.0
  3
FB_4-6-select__2
  1

  0
LINE
  5
A0
330
4E
100
AcDbEntity
  8
0
  6
Continuous
 62
     7
100
AcDbLine
 10
-152.7499994082309
 20
-62.00000011918925
 30
0.0
 11
-155.7499994082309
 21
-62.00000011918925
 31
0.0
  0
LINE
  5
A1
330
4E
100
AcDbEntity
  8
0
  6
Continuous
 62
     7
100
AcDbLine
 10
-152.4999994082309
 20
-62.00000011918925
 30
0.0
 11
-152.7499994082309
 21
-62.00000011918925
 31
0.0
  0
LINE
  5
A2
330
4E
100
AcDbEntity
  8
0
  6
Continuous
 62
     7
100
AcDbLine
 10
-155.7499994082309
 20
-62.00000011918925
 30
0.0
 11
-155.9999994082309
 21
-62.00000011918925
 31
0.0
  0
LINE
  5
A3
330
4E
100
AcDbEntity
  8
0
  6
Continuous
 62
     7
100
AcDbLine
 10
-151.7499994082309
 20
-61.00000011918925
 30
0.0
 11
-156.7499994082309
 21
-61.00000011918925
 31
0.0
  0
LINE
  5
A4
330
4E
100
AcDbEntity
  8
0
  6
Continuous
 62
     7
100
AcDbLine
 10
-155.9999994082309
 20
-69.70000011918926
 30
0.0
 11
-156.9999994082309
 21
-69.70000011918926
 31
0.0
  0
LINE
  5
A5
330
4E
100
AcDbEntity
  8
0
  6
Continuous
 62
     7
100
AcDbLine
 10
-152.7499994082309
 20
-74.20000012420145
 30
0.0
 11
-155.7499994082309
 21
-74.20000012420145
 31
0.0
  0
LINE
  5
A6
330
4E
100
AcDbEntity
  8
0
  6
Continuous
 62
     7
100
AcDbLine
 10
-156.9999994082309
 20
-69.70000011918926
 30
0.0
 11
-156.9999994082309
 21
-61.00000011918925
 31
0.0
  0
LINE
  5
A7
330
4E
100
AcDbEntity
  8
0
  6
Continuous
 62
     7
100
AcDbLine
 10
-151.4999994082309
 20
-61.00000011918925
 30
0.0
 11
-151.4999994082309
 21
-69.70000011918926
 31
0.0
  0
LINE
  5
A8
330
4E
100
AcDbEntity
  8
0
  6
Continuous
 62
     7
100
AcDbLine
 10
-151.4999994082309
 20
-69.70000011918926
 30
0.0
 11
-152.4999994082309
 21
-69.70000011918926
 31
0.0
  0
LINE
  5
A9
330
4E
100
AcDbEntity
  8
0
  6
Continuous
 62
     7
100
AcDbLine
 10
-156.9999994082309
 20
-61.00000011918925
 30
0.0
 11
-156.7499994082309
 21
-61.00000011918925
 31
0.0
  0
LINE
  5
AA
330
4E
100
AcDbEntity
  8
0
  6
Continuous
 62
     7
100
AcDbLine
 10
-154.6499937791785
 20
-59.00000011918525
 30
0.0
 11
-156.5750034077375
 21
-59.00000011918925
 31
0.0
  0
LINE
  5
AB
330
4E
100
AcDbEntity
  8
0
  6
Continuous
 62
     7
100
AcDbLine
 10
-151.7499994082309
 20
-61.00000011918925
 30
0.0
 11
-151.4999994082309
 21
-61.00000011918925
 31
0.0
  0
LINE
  5
AC
330
4E
100
AcDbEntity
  8
0
  6
Continuous
 62
     7
100
AcDbLine
 10
-151.9249954087243
 20
-59.00000011918925
 30
0.0
 11
-151.7499994082309
 21
-61.00000011918925
 31
0.0
  0
LINE
  5
AD
330
4E
100
AcDbEntity
  8
0
  6
Continuous
 62
     7
100
AcDbLine
 10
-153.8511594082309
 20
-60.00311584517228
 30
0.0
 11
-154.6499937791785
 21
-60.00311584517228
 31
0.0
  0
LINE
  5
AE
330
4E
100
AcDbEntity
  8
0
  6
Continuous
 62
     7
100
AcDbLine
 10
-154.6499937791785
 20
-59.00000011918525
 30
0.0
 11
-154.6499937791785
 21
-60.00311584517228
 31
0.0
  0
LINE
  5
AF
330
4E
100
AcDbEntity
  8
0
  6
Continuous
 62
     7
100
AcDbLine
 10
-153.8511594082309
 20
-60.00311584517228
 30
0.0
 11
-153.8511594082309
 21
-59.00000011918528
 31
0.0
  0
LINE
  5
B0
330
4E
100
AcDbEntity
  8
0
  6
Continuous
 62
     7
100
AcDbLine
 10
-151.9249954087243
 20
-59.00000011918925
 30
0.0
 11
-153.8511594082309
 21
-59.00000011918528
 31
0.0
  0
LINE
  5
B1
330
4E
100
AcDbEntity
  8
0
  6
Continuous
 62
     7
100
AcDbLine
 10
-152.4999994082309
 20
-69.70000011918926
 30
0.0
 11
-152.4999994082309
 21
-62.00000011918925
 31
0.0
  0
LINE
  5
B2
330
4E
100
AcDbEntity
  8
0
  6
Continuous
 62
     7
100
AcDbLine
 10
-152.7499994082309
 20
-62.00000011918925
 30
0.0
 11
-152.7499994082309
 21
-74.20000012420145
 31
0.0
  0
LINE
  5
B3
330
4E
100
AcDbEntity
  8
0
  6
Continuous
 62
     7
100
AcDbLine
 10
-155.9999994082309
 20
-62.00000011918925
 30
0.0
 11
-155.9999994082309
 21
-69.70000011918926
 31
0.0
  0
LINE
  5
B4
330
4E
100
AcDbEntity
  8
0
  6
Continuous
 62
     7
100
AcDbLine
 10
-155.7499994082309
 20
-62.00000011918925
 30
0.0
 11
-155.7499994082309
 21
-74.20000012420145
 31
0.0
  0
LINE
  5
B5
330
4E
100
AcDbEntity
  8
0
  6
Continuous
 62
     7
100
AcDbLine
 10
-156.5750034077375
 20
-59.00000011918925
 30
0.0
 11
-156.7499994082309
 21
-61.00000011918925
 31
0.0
  0
LINE
  5
B6
330
4E
100
AcDbEntity
  8
1
  6
DOT_CENTER
 62
     2
100
AcDbLine
 10
-154.2499994082309
 20
-62.00000011918925
 30
0.0
 11
-154.2499994082309
 21
-74.20000012420145
 31
0.0
  0
LINE
  5
B7
330
4E
100
AcDbEntity
  8
1
  6
DOT_CENTER
 62
     2
100
AcDbLine
 10
-154.2499994082309
 20
-59.00000011918924
 30
0.0
 11
-154.2499994082309
 21
-61.00000011918927
 31
0.0
  0
ENDBLK
  5
50
330
4E
100
AcDbEntity
  8
0
100
AcDbBlockEnd
  0
BLOCK
  5
53
330
51
100
AcDbEntity
  8
0
100
AcDbBlockBegin
  2
Front1
 70
     0
 10
-154.249999999955
 20
-66.49999999999
 30
0.0
  3
Front1
  1

  0
INSERT
  5
52
330
51
100
AcDbEntity
  8
0
100
AcDbBlockReference
  2
FB_4-6-select__2
 10
-156.9999994082309
 20
-74.20000012420145
 30
0.0
  0
DIMENSION
  5
C3
330
51
100
AcDbEntity
  8
1
100
AcDbDimension
  2
*D17
 10
-156.9999994082308
 20
-56.00000011918925
 30
0.0
 11
-154.358120690823
 21
-54.28750011918925
 31
0.0
 70
    32
  1
<>
 71
     5
 42
-1.0
 53
0.00013888888889
  3
ME10_DIM_10
100
AcDbAlignedDimension
 13
-151.4999994082309
 23
-61.00000011918925
 33
0.0
 14
-156.9999994082309
 24
-61.00000011918925
 34
0.0
100
AcDbRotatedDimension
  0
DIMENSION
  5
CE
330
51
100
AcDbEntity
  8
1
100
AcDbDimension
  2
*D18
 10
-161.5750034077375
 20
-59.00000011918925
 30
0.0
 11
-163.2875034077375
 21
-66.2706731173365
 31
0.0
 70
    32
  1
<>
 71
     5
 42
-1.0
 53
90.0
  3
ME10_DIM_11
100
AcDbAlignedDimension
 13
-155.7499994082309
 23
-74.20000012420145
 33
0.0
 14
-156.5750034077375
 24
-59.00000011918925
 34
0.0
 50
90.0
100
AcDbRotatedDimension
  0
ENDBLK
  5
54
330
51
100
AcDbEntity
  8
0
100
AcDbBlockEnd
  0
BLOCK
  5
56
330
55
100
AcDbEntity
  8
0
100
AcDbBlockBegin
  2
FB_4-6-select__3
 70
     0
 10
-81.2083281532736
 20
-114.9129373787495
 30
0.0
  3
FB_4-6-select__3
  1

  0
LINE
  5
CF
330
55
100
AcDbEntity
  8
0
  6
Continuous
 62
     7
100
AcDbLine
 10
-70.03925829286638
 20
-106.3907287184279
 30
0.0
 11
-70.03925829286638
 21
-108.8368811454752
 31
0.0
  0
LINE
  5
D0
330
55
100
AcDbEntity
  8
0
  6
Continuous
 62
     7
100
AcDbLine
 10
-73.1142582928664
 20
-109.053756835065
 30
0.0
 11
-73.1142582928664
 21
-111.4999092621123
 31
0.0
  0
LINE
  5
D1
330
55
100
AcDbEntity
  8
0
  6
Continuous
 62
     7
100
AcDbLine
 10
-73.37018843245919
 20
-101.7409778246219
 30
0.0
 11
-71.0951884324592
 21
-99.77077003101226
 31
0.0
  0
LINE
  5
D2
330
55
100
AcDbEntity
  8
0
  6
Continuous
 62
     7
100
AcDbLine
 10
-71.0951884324592
 20
-107.3051910439369
 30
0.0
 11
-73.37018843245919
 21
-109.2753988375465
 31
0.0
  0
LINE
  5
D3
330
55
100
AcDbEntity
  8
0
  6
Continuous
 62
     7
100
AcDbLine
 10
-79.18925829286638
 20
-104.4778866087528
 30
0.0
 11
-79.18925829286638
 21
-114.1629373787495
 31
0.0
  0
LINE
  5
D4
330
55
100
AcDbEntity
  8
0
  6
Continuous
 62
     7
100
AcDbLine
 10
-80.34230274948916
 20
-110.8134269541836
 30
0.0
 11
-81.2083281532736
 21
-110.5634269541836
 31
0.0
  0
LINE
  5
D5
330
55
100
AcDbEntity
  8
0
  6
Continuous
 62
     7
100
AcDbLine
 10
-81.2083281532736
 20
-110.5634269541836
 30
0.0
 11
-81.2083281532736
 21
-103.029005941259
 31
0.0
  0
LINE
  5
D6
330
55
100
AcDbEntity
  8
0
  6
Continuous
 62
     7
100
AcDbLine
 10
-80.34230274948916
 20
-104.1450313450434
 30
0.0
 11
-80.34230274948916
 21
-110.8134269541836
 31
0.0
  0
LINE
  5
D7
330
55
100
AcDbEntity
  8
0
  6
Continuous
 62
     7
100
AcDbLine
 10
-77.31121383624361
 20
-105.0200313450434
 30
0.0
 11
-80.34230274948916
 21
-104.1450313450434
 31
0.0
  0
LINE
  5
D8
330
55
100
AcDbEntity
  8
0
  6
Continuous
 62
     7
100
AcDbLine
 10
-79.18925829286638
 20
-109.8148611630555
 30
0.0
 11
-80.34230274948916
 21
-110.8134269541836
 31
0.0
  0
LINE
  5
D9
330
55
100
AcDbEntity
  8
0
  6
Continuous
 62
     7
100
AcDbLine
 10
-66.96425829286638
 20
-103.7277006017907
 30
0.0
 11
-66.96425829286638
 21
-106.173853028838
 31
0.0
  0
LINE
  5
DA
330
55
100
AcDbEntity
  8
0
  6
Continuous
 62
     7
100
AcDbLine
 10
-67.66549458529745
 20
-91.9185228536431
 30
0.0
 11
-69.9558325736584
 21
-93.90201373482014
 31
0.0
  0
LINE
  5
DB
330
55
100
AcDbEntity
  8
0
  6
Continuous
 62
     7
100
AcDbLine
 10
-68.02018843245918
 20
-104.6421629272997
 30
0.0
 11
-68.02018843245918
 21
-97.10774191437511
 31
0.0
  0
LINE
  5
DC
330
55
100
AcDbEntity
  8
0
  6
Continuous
 62
     7
100
AcDbLine
 10
-70.29518843245918
 20
-106.6123707209093
 30
0.0
 11
-71.0951884324592
 21
-106.3814306132335
 31
0.0
  0
LINE
  5
DD
330
55
100
AcDbEntity
  8
0
  6
Continuous
 62
     7
100
AcDbLine
 10
-70.29518843245918
 20
-99.07794970798471
 30
0.0
 11
-70.29518843245918
 21
-106.6123707209093
 31
0.0
  0
LINE
  5
DE
330
55
100
AcDbEntity
  8
0
  6
Continuous
 62
     7
100
AcDbLine
 10
-71.0951884324592
 20
-99.77077003101226
 30
0.0
 11
-71.0951884324592
 21
-107.3051910439369
 31
0.0
  0
LINE
  5
DF
330
55
100
AcDbEntity
  8
0
  6
Continuous
 62
     7
100
AcDbLine
 10
-69.26770592498562
 20
-94.17480227768894
 30
0.0
 11
-69.99469422658187
 21
-94.80439261512538
 31
0.0
  0
LINE
  5
E0
330
55
100
AcDbEntity
  8
0
  6
Continuous
 62
     7
100
AcDbLine
 10
-68.02018843245918
 20
-104.6421629272997
 30
0.0
 11
-70.29518843245918
 21
-106.6123707209093
 31
0.0
  0
LINE
  5
E1
330
55
100
AcDbEntity
  8
0
  6
Continuous
 62
     7
100
AcDbLine
 10
-69.2641223672493
 20
-94.10180949496056
 30
0.0
 11
-66.97358307439252
 21
-92.1181442789836
 31
0.0
  0
LINE
  5
E2
330
55
100
AcDbEntity
  8
0
  6
Continuous
 62
     7
100
AcDbLine
 10
-76.89049458529706
 20
-99.90760720356161
 30
0.0
 11
-79.18083257365862
 21
-101.8910980847352
 31
0.0
  0
LINE
  5
E3
330
55
100
AcDbEntity
  8
0
  6
Continuous
 62
     7
100
AcDbLine
 10
-78.48912236724931
 20
-102.090893844872
 30
0.0
 11
-76.19858307439293
 21
-100.107228628888
 31
0.0
  0
LINE
  5
E4
330
55
100
AcDbEntity
  8
0
  6
Continuous
 62
     7
100
AcDbLine
 10
-77.52566990695985
 20
-99.83973034649506
 30
0.0
 11
-77.0529052155368
 21
-99.43030411371038
 31
0.0
  0
LINE
  5
E5
330
55
100
AcDbEntity
  8
0
  6
Continuous
 62
     7
100
AcDbLine
 10
-78.49270592498569
 20
-102.1638866276004
 30
0.0
 11
-79.22535743378828
 21
-102.7983814463445
 31
0.0
  0
LINE
  5
E6
330
55
100
AcDbEntity
  8
0
  6
Continuous
 62
     7
100
AcDbLine
 10
-74.63262399775739
 20
-102.3003044985955
 30
0.0
 11
-74.5826239977574
 21
-102.2570032284063
 31
0.0
  0
LINE
  5
E7
330
55
100
AcDbEntity
  8
0
  6
Continuous
 62
     7
100
AcDbLine
 10
-81.2083281532736
 20
-103.029005941259
 30
0.0
 11
-79.72441148313558
 21
-103.4573757857385
 31
0.0
  0
LINE
  5
E8
330
55
100
AcDbEntity
  8
0
  6
Continuous
 62
     7
100
AcDbLine
 10
-80.01129373087403
 20
-100.9406251303435
 30
0.0
 11
-80.18606629674557
 21
-102.6682558019592
 31
0.0
  0
LINE
  5
E9
330
55
100
AcDbEntity
  8
0
  6
Continuous
 62
     7
100
AcDbLine
 10
-81.2083281532736
 20
-103.029005941259
 30
0.0
 11
-80.1279052155368
 21
-102.0933322303475
 31
0.0
  0
LINE
  5
EA
330
55
100
AcDbEntity
  8
0
  6
Continuous
 62
     7
100
AcDbLine
 10
-76.44518843245918
 20
-111.9384269541836
 30
0.0
 11
-77.31121383624361
 21
-111.6884269541836
 31
0.0
  0
LINE
  5
EB
330
55
100
AcDbEntity
  8
0
  6
Continuous
 62
     7
100
AcDbLine
 10
-76.44518843245918
 20
-104.404005941259
 30
0.0
 11
-76.44518843245918
 21
-111.9384269541836
 31
0.0
  0
LINE
  5
EC
330
55
100
AcDbEntity
  8
0
  6
Continuous
 62
     7
100
AcDbLine
 10
-77.31121383624361
 20
-111.6884269541836
 30
0.0
 11
-77.31121383624361
 21
-105.0200313450434
 31
0.0
  0
LINE
  5
ED
330
55
100
AcDbEntity
  8
0
  6
Continuous
 62
     7
100
AcDbLine
 10
-77.92910510259753
 20
-103.9756360967794
 30
0.0
 11
-76.44518843245918
 21
-104.404005941259
 31
0.0
  0
LINE
  5
EE
330
55
100
AcDbEntity
  8
0
  6
Continuous
 62
     7
100
AcDbLine
 10
-76.18925829286638
 20
-111.7167849517022
 30
0.0
 11
-76.18925829286638
 21
-114.1629373787495
 31
0.0
  0
LINE
  5
EF
330
55
100
AcDbEntity
  8
0
  6
Continuous
 62
     7
100
AcDbLine
 10
-70.78629373087404
 20
-92.95154078043201
 30
0.0
 11
-70.94790019223518
 21
-94.54902421833069
 31
0.0
  0
LINE
  5
F0
330
55
100
AcDbEntity
  8
0
  6
Continuous
 62
     7
100
AcDbLine
 10
-66.14222285485874
 20
-92.95154078043201
 30
0.0
 11
-65.96745028898721
 21
-94.67917145204777
 31
0.0
  0
LINE
  5
F1
330
55
100
AcDbEntity
  8
0
  6
Continuous
 62
     7
100
AcDbLine
 10
-71.5076239977574
 20
-98.7279497079847
 30
0.0
 11
-70.29518843245918
 21
-99.07794970798471
 31
0.0
  0
LINE
  5
F2
330
55
100
AcDbEntity
  8
0
  6
Continuous
 62
     7
100
AcDbLine
 10
-64.94518843245919
 20
-101.9791348106626
 30
0.0
 11
-64.94518843245919
 21
-94.44471379773796
 31
0.0
  0
LINE
  5
F3
330
55
100
AcDbEntity
  8
0
  6
Continuous
 62
     7
100
AcDbLine
 10
-68.08621383624363
 20
-97.030946995132
 30
0.0
 11
-68.43262399775739
 21
-96.930946995132
 31
0.0
  0
LINE
  5
F4
330
55
100
AcDbEntity
  8
0
  6
Continuous
 62
     7
100
AcDbLine
 10
-68.43262399775739
 20
-96.06492159134756
 30
0.0
 11
-67.2201884324592
 21
-96.41492159134756
 31
0.0
  0
LINE
  5
F5
330
55
100
AcDbEntity
  8
0
  6
Continuous
 62
     7
100
AcDbLine
 10
-64.94518843245919
 20
-94.44471379773796
 30
0.0
 11
-67.2201884324592
 21
-96.41492159134756
 31
0.0
  0
LINE
  5
F6
330
55
100
AcDbEntity
  8
0
  6
Continuous
 62
     7
100
AcDbLine
 10
-64.94518843245919
 20
-94.44471379773796
 30
0.0
 11
-66.02263370791356
 21
-94.13368213782763
 31
0.0
  0
LINE
  5
F7
330
55
100
AcDbEntity
  8
0
  6
Continuous
 62
     7
100
AcDbLine
 10
-70.74049458529706
 20
-94.58155097028731
 30
0.0
 11
-73.03083257365842
 21
-96.5650418514573
 31
0.0
  0
LINE
  5
F8
330
55
100
AcDbEntity
  8
0
  6
Continuous
 62
     7
100
AcDbLine
 10
-72.33912236724947
 20
-96.76483761160131
 30
0.0
 11
-70.04858307439291
 21
-94.78117239561374
 31
0.0
  0
LINE
  5
F9
330
55
100
AcDbEntity
  8
0
  6
Continuous
 62
     7
100
AcDbLine
 10
-70.90290521553679
 20
-94.10424788043608
 30
0.0
 11
-71.37566990695984
 21
-94.51367411322076
 31
0.0
  0
LINE
  5
FA
330
55
100
AcDbEntity
  8
0
  6
Continuous
 62
     7
100
AcDbLine
 10
-72.34270592498564
 20
-96.83783039432608
 30
0.0
 11
-73.06969422658187
 21
-97.46742073176253
 31
0.0
  0
LINE
  5
FB
330
55
100
AcDbEntity
  8
0
  6
Continuous
 62
     7
100
AcDbLine
 10
-73.86129373087404
 20
-95.61456889706916
 30
0.0
 11
-74.02290019223517
 21
-97.21205233496784
 31
0.0
  0
LINE
  5
FC
330
55
100
AcDbEntity
  8
0
  6
Continuous
 62
     7
100
AcDbLine
 10
-69.21722285485873
 20
-95.61456889706916
 30
0.0
 11
-69.04245028898723
 21
-97.34219956868492
 31
0.0
  0
LINE
  5
FD
330
55
100
AcDbEntity
  8
0
  6
Continuous
 62
     7
100
AcDbLine
 10
-71.5076239977574
 20
-98.7279497079847
 30
0.0
 11
-72.18713214266393
 21
-99.31642102355221
 31
0.0
  0
LINE
  5
FE
330
55
100
AcDbEntity
  8
0
  6
Continuous
 62
     7
100
AcDbLine
 10
-71.16121383624362
 20
-99.75171013868811
 30
0.0
 11
-71.16121383624363
 21
-99.69397511176915
 31
0.0
  0
LINE
  5
FF
330
55
100
AcDbEntity
  8
0
  6
Continuous
 62
     7
100
AcDbLine
 10
-71.16121383624363
 20
-99.69397511176915
 30
0.0
 11
-71.5076239977574
 21
-99.59397511176914
 31
0.0
  0
LINE
  5
100
330
55
100
AcDbEntity
  8
0
  6
Continuous
 62
     7
100
AcDbLine
 10
-71.55762399775739
 20
-99.63727638195837
 30
0.0
 11
-71.5076239977574
 21
-99.59397511176914
 31
0.0
  0
LINE
  5
101
330
55
100
AcDbEntity
  8
0
  6
Continuous
 62
     7
100
AcDbLine
 10
-72.17263370791356
 20
-99.45973837110192
 30
0.0
 11
-71.0951884324592
 21
-99.77077003101226
 31
0.0
  0
LINE
  5
102
330
55
100
AcDbEntity
  8
0
  6
Continuous
 62
     7
100
AcDbLine
 10
-71.5076239977574
 20
-99.59397511176914
 30
0.0
 11
-71.5076239977574
 21
-98.7279497079847
 31
0.0
  0
LINE
  5
103
330
55
100
AcDbEntity
  8
0
  6
Continuous
 62
     7
100
AcDbLine
 10
-72.29222285485875
 20
-98.27759701370631
 30
0.0
 11
-72.11745028898721
 21
-100.0052276853221
 31
0.0
  0
LINE
  5
104
330
55
100
AcDbEntity
  8
0
  6
Continuous
 62
     7
100
AcDbLine
 10
-73.81549458529707
 20
-97.24457908692446
 30
0.0
 11
-76.10583257365862
 21
-99.22806996809805
 31
0.0
  0
LINE
  5
105
330
55
100
AcDbEntity
  8
0
  6
Continuous
 62
     7
100
AcDbLine
 10
-73.9779052155368
 20
-96.76727599707323
 30
0.0
 11
-74.45066990695986
 21
-97.17670222985791
 31
0.0
  0
LINE
  5
106
330
55
100
AcDbEntity
  8
0
  6
Continuous
 62
     7
100
AcDbLine
 10
-73.37018843245919
 20
-109.2753988375465
 30
0.0
 11
-74.1701884324592
 21
-109.0444587298706
 31
0.0
  0
LINE
  5
107
330
55
100
AcDbEntity
  8
0
  6
Continuous
 62
     7
100
AcDbLine
 10
-73.37018843245919
 20
-101.7409778246219
 30
0.0
 11
-73.37018843245919
 21
-109.2753988375465
 31
0.0
  0
LINE
  5
108
330
55
100
AcDbEntity
  8
0
  6
Continuous
 62
     7
100
AcDbLine
 10
-74.2362138362436
 20
-102.4147382553253
 30
0.0
 11
-74.23621383624362
 21
-102.3570032284063
 31
0.0
  0
LINE
  5
109
330
55
100
AcDbEntity
  8
0
  6
Continuous
 62
     7
100
AcDbLine
 10
-74.5826239977574
 20
-102.2570032284063
 30
0.0
 11
-74.5826239977574
 21
-101.3909778246219
 31
0.0
  0
LINE
  5
10A
330
55
100
AcDbEntity
  8
0
  6
Continuous
 62
     7
100
AcDbLine
 10
-74.23621383624362
 20
-102.3570032284063
 30
0.0
 11
-74.5826239977574
 21
-102.2570032284063
 31
0.0
  0
LINE
  5
10B
330
55
100
AcDbEntity
  8
0
  6
Continuous
 62
     7
100
AcDbLine
 10
-74.5826239977574
 20
-101.3909778246219
 30
0.0
 11
-73.37018843245919
 21
-101.7409778246219
 31
0.0
  0
LINE
  5
10C
330
55
100
AcDbEntity
  8
0
  6
Continuous
 62
     7
100
AcDbLine
 10
-75.4141223672493
 20
-99.42786572823486
 30
0.0
 11
-73.12358307439291
 21
-97.44420051225089
 31
0.0
  0
LINE
  5
10D
330
55
100
AcDbEntity
  8
0
  6
Continuous
 62
     7
100
AcDbLine
 10
-75.41770592498564
 20
-99.50085851096324
 30
0.0
 11
-76.14469422658186
 21
-100.1304488483997
 31
0.0
  0
LINE
  5
10E
330
55
100
AcDbEntity
  8
0
  6
Continuous
 62
     7
100
AcDbLine
 10
-76.93629373087403
 20
-98.27759701370631
 30
0.0
 11
-77.09790019223519
 21
-99.87508045160499
 31
0.0
  0
LINE
  5
10F
330
55
100
AcDbEntity
  8
0
  6
Continuous
 62
     7
100
AcDbLine
 10
-74.5826239977574
 20
-101.3909778246219
 30
0.0
 11
-75.26213214266393
 21
-101.9794491401894
 31
0.0
  0
LINE
  5
110
330
55
100
AcDbEntity
  8
0
  6
Continuous
 62
     7
100
AcDbLine
 10
-75.36722285485874
 20
-100.9406251303435
 30
0.0
 11
-75.19245028898723
 21
-102.6682558019592
 31
0.0
  0
LINE
  5
111
330
55
100
AcDbEntity
  8
0
  6
Continuous
 62
     7
100
AcDbLine
 10
-74.17018843245918
 20
-102.4337981476494
 30
0.0
 11
-74.17018843245918
 21
-109.968219160574
 31
0.0
  0
LINE
  5
112
330
55
100
AcDbEntity
  8
0
  6
Continuous
 62
     7
100
AcDbLine
 10
-75.24763370791356
 20
-102.1227664877391
 30
0.0
 11
-74.17018843245918
 21
-102.4337981476494
 31
0.0
  0
LINE
  5
113
330
55
100
AcDbEntity
  8
0
  6
Continuous
 62
     7
100
AcDbLine
 10
-76.44518843245918
 20
-104.404005941259
 30
0.0
 11
-74.17018843245918
 21
-102.4337981476494
 31
0.0
  0
LINE
  5
114
330
55
100
AcDbEntity
  8
0
  6
Continuous
 62
     7
100
AcDbLine
 10
-74.17018843245918
 20
-109.968219160574
 30
0.0
 11
-76.44518843245918
 21
-111.9384269541836
 31
0.0
  0
LINE
  5
115
330
55
100
AcDbEntity
  8
0
  6
Continuous
 62
     7
100
AcDbLine
 10
-67.2201884324592
 20
-96.41492159134756
 30
0.0
 11
-67.2201884324592
 21
-103.9493426042722
 31
0.0
  0
LINE
  5
116
330
55
100
AcDbEntity
  8
0
  6
Continuous
 62
     7
100
AcDbLine
 10
-68.02018843245918
 20
-97.10774191437511
 30
0.0
 11
-69.09763370791356
 21
-96.79671025446478
 31
0.0
  0
LINE
  5
117
330
55
100
AcDbEntity
  8
0
  6
Continuous
 62
     7
100
AcDbLine
 10
-67.2201884324592
 20
-103.9493426042722
 30
0.0
 11
-68.02018843245918
 21
-103.7184024965963
 31
0.0
  0
LINE
  5
118
330
55
100
AcDbEntity
  8
0
  6
Continuous
 62
     7
100
AcDbLine
 10
-68.08621383624362
 20
-97.08868202205097
 30
0.0
 11
-68.08621383624363
 21
-97.030946995132
 31
0.0
  0
LINE
  5
119
330
55
100
AcDbEntity
  8
0
  6
Continuous
 62
     7
100
AcDbLine
 10
-68.43262399775739
 20
-96.930946995132
 30
0.0
 11
-68.43262399775739
 21
-96.06492159134756
 31
0.0
  0
LINE
  5
11A
330
55
100
AcDbEntity
  8
0
  6
Continuous
 62
     7
100
AcDbLine
 10
-68.48262399775739
 20
-96.97424826532122
 30
0.0
 11
-68.43262399775739
 21
-96.930946995132
 31
0.0
  0
LINE
  5
11B
330
55
100
AcDbEntity
  8
0
  6
Continuous
 62
     7
100
AcDbLine
 10
-68.43262399775739
 20
-96.06492159134756
 30
0.0
 11
-69.11213214266391
 21
-96.65339290691506
 31
0.0
  0
LINE
  5
11C
330
55
100
AcDbEntity
  8
0
  6
Continuous
 62
     7
100
AcDbLine
 10
-68.02018843245918
 20
-97.10774191437511
 30
0.0
 11
-70.29518843245918
 21
-99.07794970798471
 31
0.0
  0
LINE
  5
11D
330
55
100
AcDbEntity
  8
0
  6
Continuous
 62
     7
100
AcDbLine
 10
-64.94518843245919
 20
-101.9791348106626
 30
0.0
 11
-67.2201884324592
 21
-103.9493426042722
 31
0.0
  0
SPLINE
  5
11E
330
55
100
AcDbEntity
  8
0
  6
Continuous
 62
     7
100
AcDbSpline
210
0.0
220
0.0
230
1.0
 70
     8
 71
     3
 72
    17
 73
    13
 74
    11
 42
0.000000001
 43
0.0000000001
 44
0.00000001
 40
0.0
 40
0.0
 40
0.0
 40
0.0
 40
0.2287004332877844
 40
0.5050173383235806
 40
0.8459496833551241
 40
1.243862376472312
 40
1.677769997423793
 40
2.120300716071186
 40
2.542706850639168
 40
2.919536908964134
 40
3.234167320946004
 40
3.487325718599399
 40
3.487325718599399
 40
3.487325718599399
 40
3.487325718599399
 10
-70.03925829286638
 20
-108.8368811454752
 30
0.0
 10
-70.05436899527238
 20
-108.9133485766929
 30
0.0
 10
-70.08773653374769
 20
-109.0822042988402
 30
0.0
 10
-70.30799437464358
 20
-109.2811779476761
 30
0.0
 10
-70.60671417890732
 20
-109.4382464043068
 30
0.0
 10
-70.98627549965683
 20
-109.5453274734405
 30
0.0
 10
-71.40941577193779
 20
-109.5947408357919
 30
0.0
 10
-71.8434776604264
 20
-109.5819439287248
 30
0.0
 10
-72.25375942454525
 20
-109.5090226702856
 30
0.0
 10
-72.6008095477959
 20
-109.3788169193609
 30
0.0
 10
-72.87852840442625
 20
-109.2095237220555
 30
0.0
 10
-72.97356598278364
 20
-109.0429019706507
 30
0.0
 10
-73.01594011332523
 20
-108.9686107939284
 30
0.0
 11
-70.03925829286638
 21
-108.8368811454752
 31
0.0
 11
-70.10471330018973
 21
-109.0560147413581
 31
0.0
 11
-70.29536275630969
 21
-109.2560242875324
 31
0.0
 11
-70.59457113436936
 21
-109.4194538104628
 31
0.0
 11
-70.97622348504547
 21
-109.5320415235863
 31
0.0
 11
-71.40701376568053
 21
-109.5839602665228
 31
0.0
 11
-71.84934518359042
 21
-109.5706805254492
 31
0.0
 11
-72.26461428189603
 21
-109.4933596593222
 31
0.0
 11
-72.6165806997758
 21
-109.3587471320012
 31
0.0
 11
-72.87452558961041
 21
-109.178589615387
 31
0.0
 11
-73.01594011332523
 21
-108.9686107939284
 31
0.0
  0
SPLINE
  5
11F
330
55
100
AcDbEntity
  8
0
  6
Continuous
 62
     7
100
AcDbSpline
210
0.0
220
0.0
230
1.0
 70
     8
 71
     3
 72
    11
 73
     7
 74
     5
 42
0.000000001
 43
0.0000000001
 44
0.00000001
 40
0.0
 40
0.0
 40
0.0
 40
0.0
 40
0.5251835789758191
 40
1.02471422069625
 40
1.483334965944581
 40
1.889881729102269
 40
1.889881729102269
 40
1.889881729102269
 40
1.889881729102269
 10
-77.92910510259753
 20
-103.9756360967794
 30
0.0
 10
-78.10387684090678
 20
-103.9620169246714
 30
0.0
 10
-78.44488347533314
 20
-103.9354438031776
 30
0.0
 10
-78.9280946036617
 20
-103.8258892739194
 30
0.0
 10
-79.36132347132454
 20
-103.6782810633974
 30
0.0
 10
-79.60833804100052
 20
-103.5279956828956
 30
0.0
 10
-79.72441148313558
 20
-103.4573757857385
 30
0.0
 11
-77.92910510259753
 21
-103.9756360967794
 31
0.0
 11
-78.45153017375769
 21
-103.9218789019091
 31
0.0
 11
-78.93925829286638
 21
-103.8139337991848
 31
0.0
 11
-79.37008875476764
 21
-103.6567138799029
 31
0.0
 11
-79.72441148313558
 21
-103.4573757857385
 31
0.0
  0
SPLINE
  5
120
330
55
100
AcDbEntity
  8
0
  6
Continuous
 62
     7
100
AcDbSpline
210
0.0
220
0.0
230
1.0
 70
     8
 71
     3
 72
    15
 73
    11
 74
     9
 42
0.000000001
 43
0.0000000001
 44
0.00000001
 40
0.0
 40
0.0
 40
0.0
 40
0.0
 40
0.2823340378416232
 40
0.609848793476044
 40
0.9988120597251051
 40
1.448627007893962
 40
1.948052029559774
 40
2.479513152491091
 40
3.022022343083393
 40
3.553503427596196
 40
3.553503427596196
 40
3.553503427596196
 40
3.553503427596196
 10
-70.78629373087404
 20
-92.95154078043201
 30
0.0
 10
-70.76285636322503
 20
-92.85902265453305
 30
0.0
 10
-70.71223103205458
 20
-92.65918112597436
 30
0.0
 10
-70.47557045775412
 20
-92.40902049280176
 30
0.0
 10
-70.15091217250941
 20
-92.19458520517685
 30
0.0
 10
-69.73521822804108
 20
-92.0246826139572
 30
0.0
 10
-69.25489337945275
 20
-91.90582317261993
 30
0.0
 10
-68.73278816895836
 20
-91.84593642384358
 30
0.0
 10
-68.19579286867689
 20
-91.8419742098161
 30
0.0
 10
-67.84104645972947
 20
-91.89318191029251
 30
0.0
 10
-67.66549458529745
 20
-91.9185228536431
 30
0.0
 11
-70.78629373087404
 21
-92.95154078043201
 31
0.0
 11
-70.6958617524081
 21
-92.68408130614347
 31
0.0
 11
-70.48392823538498
 21
-92.4343812817951
 31
0.0
 11
-70.16203101489904
 21
-92.21603614003581
 31
0.0
 11
-69.747697122044
 21
-92.04093356330745
 31
0.0
 11
-69.26348463969607
 21
-91.9186076704898
 31
0.0
 11
-68.73575760265429
 21
-91.8557180873874
 31
0.0
 11
-68.19324841286404
 21
-91.85568949912211
 31
0.0
 11
-67.66549458529745
 21
-91.9185228536431
 31
0.0
  0
SPLINE
  5
121
330
55
100
AcDbEntity
  8
0
  6
Continuous
 62
     7
100
AcDbSpline
210
0.0
220
0.0
230
1.0
 70
     8
 71
     3
 72
    11
 73
     7
 74
     5
 42
0.000000001
 43
0.0000000001
 44
0.00000001
 40
0.0
 40
0.0
 40
0.0
 40
0.0
 40
0.1749807274222148
 40
0.3487997910726839
 40
0.5578498549532362
 40
0.7644725988327722
 40
0.7644725988327722
 40
0.7644725988327722
 40
0.7644725988327722
 10
-67.6245500129515
 20
-92.68189818479945
 30
0.0
 10
-67.62767255147794
 20
-92.62365491838035
 30
0.0
 10
-67.63389691342446
 20
-92.50755505230656
 30
0.0
 10
-67.64385472686708
 20
-92.32187191771281
 30
0.0
 10
-67.65437972956543
 20
-92.12565670554841
 30
0.0
 10
-67.66180407984947
 20
-91.98729815590914
 30
0.0
 10
-67.66549458529745
 20
-91.9185228536431
 30
0.0
 11
-67.6245500129515
 21
-92.68189818479945
 31
0.0
 11
-67.6339180953218
 21
-92.50716841057097
 31
0.0
 11
-67.64322614833497
 21
-92.33359875009577
 31
0.0
 11
-67.65442376008907
 21
-92.12484879752205
 31
0.0
 11
-67.66549458529745
 21
-91.9185228536431
 31
0.0
  0
SPLINE
  5
122
330
55
100
AcDbEntity
  8
0
  6
Continuous
 62
     7
100
AcDbSpline
210
0.0
220
0.0
230
1.0
 70
     8
 71
     3
 72
    11
 73
     7
 74
     5
 42
0.000000001
 43
0.0000000001
 44
0.00000001
 40
0.0
 40
0.0
 40
0.0
 40
0.0
 40
0.4171871656764173
 40
0.7729833246779714
 40
1.07350571135779
 40
1.343383537846313
 40
1.343383537846313
 40
1.343383537846313
 40
1.343383537846313
 10
-69.9558325736584
 20
-93.90201373482014
 30
0.0
 10
-70.08232647078835
 20
-93.84264140028314
 30
0.0
 10
-70.31670010103626
 20
-93.7326336317503
 30
0.0
 10
-70.59224186326425
 20
-93.50112797123148
 30
0.0
 10
-70.77423807085077
 20
-93.23630411180483
 30
0.0
 10
-70.7824217369603
 20
-93.04300016159264
 30
0.0
 10
-70.78629373087404
 20
-92.95154078043201
 30
0.0
 11
-69.9558325736584
 21
-93.90201373482014
 31
0.0
 11
-70.32483713006181
 21
-93.7073839182126
 31
0.0
 11
-70.59482244558777
 21
-93.4756538197675
 31
0.0
 11
-70.75141896358083
 21
-93.21915579089864
 31
0.0
 11
-70.78629373087404
 21
-92.95154078043201
 31
0.0
  0
SPLINE
  5
123
330
55
100
AcDbEntity
  8
0
  6
Continuous
 62
     7
100
AcDbSpline
210
0.0
220
0.0
230
1.0
 70
     8
 71
     3
 72
    17
 73
    13
 74
    11
 42
0.000000001
 43
0.0000000001
 44
0.00000001
 40
0.0
 40
0.0
 40
0.0
 40
0.0
 40
0.2287004332878702
 40
0.5050173383236263
 40
0.8459496833551436
 40
1.243862376472298
 40
1.677769997423744
 40
2.120300716071123
 40
2.542706850639092
 40
2.919536908964083
 40
3.234167320945953
 40
3.487325718599399
 40
3.487325718599399
 40
3.487325718599399
 40
3.487325718599399
 10
-66.96425829286638
 20
-106.173853028838
 30
0.0
 10
-66.97936899527238
 20
-106.2503204600557
 30
0.0
 10
-67.01273653374767
 20
-106.4191761822031
 30
0.0
 10
-67.23299437464357
 20
-106.618149831039
 30
0.0
 10
-67.53171417890734
 20
-106.7752182876697
 30
0.0
 10
-67.91127549965675
 20
-106.8822993568033
 30
0.0
 10
-68.3344157719377
 20
-106.9317127191549
 30
0.0
 10
-68.76847766042627
 20
-106.9189158120877
 30
0.0
 10
-69.1787594245451
 20
-106.8459945536485
 30
0.0
 10
-69.52580954779577
 20
-106.7157888027238
 30
0.0
 10
-69.8035284044262
 20
-106.5464956054185
 30
0.0
 10
-69.89856598278358
 20
-106.3798738540136
 30
0.0
 10
-69.94094011332517
 20
-106.3055826772913
 30
0.0
 11
-66.96425829286638
 21
-106.173853028838
 31
0.0
 11
-67.02971330018974
 21
-106.392986624721
 31
0.0
 11
-67.22036275630967
 21
-106.5929961708952
 31
0.0
 11
-67.51957113436933
 21
-106.7564256938256
 31
0.0
 11
-67.90122348504539
 21
-106.8690134069491
 31
0.0
 11
-68.33201376568041
 21
-106.9209321498857
 31
0.0
 11
-68.77434518359028
 21
-106.9076524088121
 31
0.0
 11
-69.18961428189589
 21
-106.8303315426851
 31
0.0
 11
-69.54158069977568
 21
-106.6957190153641
 31
0.0
 11
-69.79952558961033
 21
-106.51556149875
 31
0.0
 11
-69.94094011332517
 21
-106.3055826772913
 31
0.0
  0
SPLINE
  5
124
330
55
100
AcDbEntity
  8
0
  6
Continuous
 62
     7
100
AcDbSpline
210
0.0
220
0.0
230
1.0
 70
     8
 71
     3
 72
     9
 73
     5
 74
     3
 42
0.000000001
 43
0.0000000001
 44
0.00000001
 40
0.0
 40
0.0
 40
0.0
 40
0.0
 40
0.3164232516762532
 40
0.6163836119694045
 40
0.6163836119694045
 40
0.6163836119694045
 40
0.6163836119694045
 10
-75.4586434607335
 20
-100.3351458278368
 30
0.0
 10
-75.56208480086536
 20
-100.3139171958709
 30
0.0
 10
-75.76358562287007
 20
-100.2725643973314
 30
0.0
 10
-75.95818463758883
 20
-100.2059479408298
 30
0.0
 10
-76.0528853851842
 20
-100.1735293274028
 30
0.0
 11
-75.4586434607335
 21
-100.3351458278368
 31
0.0
 11
-75.76714862642956
 21
-100.2648021201644
 31
0.0
 11
-76.0528853851842
 21
-100.1735293274028
 31
0.0
  0
SPLINE
  5
125
330
55
100
AcDbEntity
  8
0
  6
Continuous
 62
     7
100
AcDbSpline
210
0.0
220
0.0
230
1.0
 70
     8
 71
     3
 72
    11
 73
     7
 74
     5
 42
0.000000001
 43
0.0000000001
 44
0.00000001
 40
0.0
 40
0.0
 40
0.0
 40
0.0
 40
0.3749902602350769
 40
0.7012856212803095
 40
0.9813385165242453
 40
1.22871746142375
 40
1.22871746142375
 40
1.22871746142375
 40
1.22871746142375
 10
-76.19858307439293
 20
-100.107228628888
 30
0.0
 10
-76.08474958758093
 20
-100.1599938397223
 30
0.0
 10
-75.87186463140945
 20
-100.2586723707297
 30
0.0
 10
-75.6129373673532
 20
-100.4607841620658
 30
0.0
 10
-75.4263801966861
 20
-100.6860776393496
 30
0.0
 10
-75.3861104046734
 20
-100.8593540741044
 30
0.0
 10
-75.36722285485874
 20
-100.9406251303435
 30
0.0
 11
-76.19858307439293
 21
-100.107228628888
 31
0.0
 11
-75.86504558244178
 21
-100.2786066740099
 31
0.0
 11
-75.60869578091479
 21
-100.4804814961065
 31
0.0
 11
-75.44038108405385
 21
-100.7043113191576
 31
0.0
 11
-75.36722285485874
 21
-100.9406251303435
 31
0.0
  0
SPLINE
  5
126
330
55
100
AcDbEntity
  8
0
  6
Continuous
 62
     7
100
AcDbSpline
210
0.0
220
0.0
230
1.0
 70
     8
 71
     3
 72
    11
 73
     7
 74
     5
 42
0.000000001
 43
0.0000000001
 44
0.00000001
 40
0.0
 40
0.0
 40
0.0
 40
0.0
 40
0.1752518642422595
 40
0.3487997910727102
 40
0.557459783439065
 40
0.7644725988256968
 40
0.7644725988256968
 40
0.7644725988256968
 40
0.7644725988256968
 10
-76.84955001295154
 20
-100.6709825347109
 30
0.0
 10
-76.85267739019493
 20
-100.6126490189725
 30
0.0
 10
-76.8589017526613
 20
-100.4965491529266
 30
0.0
 10
-76.86885260502747
 20
-100.3109958557
 30
0.0
 10
-76.87937276398861
 20
-100.1148708925879
 30
0.0
 10
-76.88679711326283
 20
-99.97651234289683
 30
0.0
 10
-76.89049458529706
 20
-99.90760720356161
 30
0.0
 11
-76.84955001295154
 21
-100.6709825347109
 31
0.0
 11
-76.85893261307163
 21
-100.4959820126105
 31
0.0
 11
-76.86822614833497
 21
-100.3226831000072
 31
0.0
 11
-76.87940286316494
 21
-100.1143226588001
 31
0.0
 11
-76.89049458529706
 21
-99.90760720356161
 31
0.0
  0
SPLINE
  5
127
330
55
100
AcDbEntity
  8
0
  6
Continuous
 62
     7
100
AcDbSpline
210
0.0
220
0.0
230
1.0
 70
     8
 71
     3
 72
    15
 73
    11
 74
     9
 42
0.000000001
 43
0.0000000001
 44
0.00000001
 40
0.0
 40
0.0
 40
0.0
 40
0.0
 40
0.2823340378416591
 40
0.6098487934760707
 40
0.9988120597250998
 40
1.448627007893981
 40
1.948052029559803
 40
2.479513152491132
 40
3.022022343083478
 40
3.553503427597351
 40
3.553503427597351
 40
3.553503427597351
 40
3.553503427597351
 10
-80.01129373087403
 20
-100.9406251303435
 30
0.0
 10
-79.987856363225
 20
-100.8481070044445
 30
0.0
 10
-79.93723103205461
 20
-100.6482654758858
 30
0.0
 10
-79.70057045775417
 20
-100.3981048427132
 30
0.0
 10
-79.3759121725094
 20
-100.1836695550884
 30
0.0
 10
-78.96021822804109
 20
-100.0137669638687
 30
0.0
 10
-78.47989337945273
 20
-99.89490752253134
 30
0.0
 10
-77.95778816895842
 20
-99.83502077375518
 30
0.0
 10
-77.42079286867632
 20
-99.83105855972704
 30
0.0
 10
-77.06604645972912
 20
-99.88226626020854
 30
0.0
 10
-76.89049458529706
 20
-99.90760720356161
 30
0.0
 11
-80.01129373087403
 21
-100.9406251303435
 31
0.0
 11
-79.92086175240811
 21
-100.6731656560549
 31
0.0
 11
-79.708928235385
 21
-100.4234656317065
 31
0.0
 11
-79.38703101489907
 21
-100.2051204899473
 31
0.0
 11
-78.97269712204401
 21
-100.0300179132189
 31
0.0
 11
-78.48848463969608
 21
-99.90769202040124
 31
0.0
 11
-77.96075760265428
 21
-99.84480243729885
 31
0.0
 11
-77.41824841286399
 21
-99.84477384903442
 31
0.0
 11
-76.89049458529706
 21
-99.90760720356161
 31
0.0
  0
SPLINE
  5
128
330
55
100
AcDbEntity
  8
0
  6
Continuous
 62
     7
100
AcDbSpline
210
0.0
220
0.0
230
1.0
 70
     8
 71
     3
 72
    11
 73
     7
 74
     5
 42
0.000000001
 43
0.0000000001
 44
0.00000001
 40
0.0
 40
0.0
 40
0.0
 40
0.0
 40
0.2257131820335475
 40
0.454192183942146
 40
0.6764972553726843
 40
0.9011106879392304
 40
0.9011106879392304
 40
0.9011106879392304
 40
0.9011106879392304
 10
-76.10583257365862
 20
-99.22806996809805
 30
0.0
 10
-76.10952208563224
 20
-99.30321717774385
 30
0.0
 10
-76.1169463046732
 20
-99.4544324285566
 30
0.0
 10
-76.12800053644175
 20
-99.67966040496216
 30
0.0
 10
-76.1390343464709
 20
-99.90452235924083
 30
0.0
 10
-76.14633324442636
 20
-100.0533162823613
 30
0.0
 10
-76.15000153552889
 20
-100.128097509101
 30
0.0
 11
-76.10583257365862
 21
-99.22806996809805
 31
0.0
 11
-76.11690047737969
 21
-99.45351162807012
 31
0.0
 11
-76.12810101056829
 21
-99.68171592769987
 31
0.0
 11
-76.13899607513844
 21
-99.90375385768436
 31
0.0
 11
-76.15000153552889
 21
-100.128097509101
 31
0.0
  0
SPLINE
  5
129
330
55
100
AcDbEntity
  8
0
  6
Continuous
 62
     7
100
AcDbSpline
210
0.0
220
0.0
230
1.0
 70
     8
 71
     3
 72
    11
 73
     7
 74
     5
 42
0.000000001
 43
0.0000000001
 44
0.00000001
 40
0.0
 40
0.0
 40
0.0
 40
0.0
 40
0.2261450748934593
 40
0.4541921839421318
 40
0.6801056166839942
 40
0.9083752317129655
 40
0.9083752317129655
 40
0.9083752317129655
 40
0.9083752317129655
 10
-79.18083257365862
 20
-101.8910980847352
 30
0.0
 10
-79.18452914487737
 20
-101.9663890854895
 30
0.0
 10
-79.19195336297672
 20
-102.1176043363485
 30
0.0
 10
-79.20306655416485
 20
-102.3440336539229
 30
0.0
 10
-79.21421196777646
 20
-102.5711704224868
 30
0.0
 10
-79.22162945679354
 20
-102.7223829545212
 30
0.0
 10
-79.22535743378828
 20
-102.7983814463445
 30
0.0
 11
-79.18083257365862
 21
-101.8910980847352
 31
0.0
 11
-79.19192165251233
 21
-102.1169711181606
 31
0.0
 11
-79.20310101056829
 21
-102.344744044337
 31
0.0
 11
-79.21417289676926
 21
-102.5703860006067
 31
0.0
 11
-79.22535743378828
 21
-102.7983814463445
 31
0.0
  0
SPLINE
  5
12A
330
55
100
AcDbEntity
  8
0
  6
Continuous
 62
     7
100
AcDbSpline
210
0.0
220
0.0
230
1.0
 70
     8
 71
     3
 72
     9
 73
     5
 74
     3
 42
0.000000001
 43
0.0000000001
 44
0.00000001
 40
0.0
 40
0.0
 40
0.0
 40
0.0
 40
0.3724515068310862
 40
0.7209375840426293
 40
0.7209375840426293
 40
0.7209375840426293
 40
0.7209375840426293
 10
-78.53364346073349
 20
-102.998173944474
 30
0.0
 10
-78.6553980171229
 20
-102.972838379869
 30
0.0
 10
-78.89107281562576
 20
-102.9237974507998
 30
0.0
 10
-79.1164262988687
 20
-102.8392499436717
 30
0.0
 10
-79.22535743378828
 20
-102.7983814463445
 30
0.0
 11
-78.53364346073349
 21
-102.998173944474
 31
0.0
 11
-78.89615239650394
 21
-102.9126906314277
 31
0.0
 11
-79.22535743378828
 21
-102.7983814463445
 31
0.0
  0
SPLINE
  5
12B
330
55
100
AcDbEntity
  8
0
  6
Continuous
 62
     7
100
AcDbSpline
210
0.0
220
0.0
230
1.0
 70
     8
 71
     3
 72
    15
 73
    11
 74
     9
 42
0.000000001
 43
0.0000000001
 44
0.00000001
 40
0.0
 40
0.0
 40
0.0
 40
0.0
 40
0.2881658471575197
 40
0.6136033928802707
 40
1.003783003471269
 40
1.463119404821487
 40
1.980961625869537
 40
2.53785251977183
 40
3.109596426148078
 40
3.670360589952426
 40
3.670360589952426
 40
3.670360589952426
 40
3.670360589952426
 10
-75.36722285485874
 20
-100.9406251303435
 30
0.0
 10
-75.37247856027285
 20
-101.0383853711343
 30
0.0
 10
-75.38366976204075
 20
-101.2465502699113
 30
0.0
 10
-75.5932946736124
 20
-101.5267986571886
 30
0.0
 10
-75.9062307851298
 20
-101.7636335396525
 30
0.0
 10
-76.3242697850714
 20
-101.9544243674681
 30
0.0
 10
-76.81893424227061
 20
-102.089911600887
 30
0.0
 10
-77.36439145474507
 20
-102.161149582313
 30
0.0
 10
-77.92961279183243
 20
-102.1706531104285
 30
0.0
 10
-78.3038285245694
 20
-102.117307873096
 30
0.0
 10
-78.48912236724931
 20
-102.090893844872
 30
0.0
 11
-75.36722285485874
 21
-100.9406251303435
 31
0.0
 11
-75.40878357730158
 21
-101.2257781886732
 31
0.0
 11
-75.58828476869593
 21
-101.4972352214782
 31
0.0
 11
-75.89487034692009
 21
-101.7385760818677
 31
0.0
 11
-76.30999416635143
 21
-101.9352029969187
 31
0.0
 11
-76.80854737400587
 21
-102.0752217987693
 31
0.0
 11
-77.36037268168806
 21
-102.1501637598969
 31
0.0
 11
-77.93209173184388
 21
-102.1554949895416
 31
0.0
 11
-78.48912236724931
 21
-102.090893844872
 31
0.0
  0
SPLINE
  5
12C
330
55
100
AcDbEntity
  8
0
  6
Continuous
 62
     7
100
AcDbSpline
210
0.0
220
0.0
230
1.0
 70
     8
 71
     3
 72
    11
 73
     7
 74
     5
 42
0.000000001
 43
0.0000000001
 44
0.00000001
 40
0.0
 40
0.0
 40
0.0
 40
0.0
 40
0.2792802333234257
 40
0.5258318701203926
 40
0.7471630449304281
 40
0.9567093479653365
 40
0.9567093479653365
 40
0.9567093479653365
 40
0.9567093479653365
 10
-79.72441148313558
 20
-103.4573757857385
 30
0.0
 10
-79.79855449292754
 20
-103.4004600214041
 30
0.0
 10
-79.9381517512278
 20
-103.2932983887615
 30
0.0
 10
-80.09225633024727
 20
-103.095071660917
 30
0.0
 10
-80.18637461131596
 20
-102.8838341502059
 30
0.0
 10
-80.18616718186851
 20
-102.7387929173558
 30
0.0
 10
-80.18606629674557
 20
-102.6682558019592
 30
0.0
 11
-79.72441148313558
 21
-103.4573757857385
 31
0.0
 11
-79.9380554338582
 21
-103.2775044134624
 31
0.0
 11
-80.08871206719013
 21
-103.0823370757932
 31
0.0
 11
-80.17216141737832
 21
-102.8773402551523
 31
0.0
 11
-80.18606629674557
 21
-102.6682558019592
 31
0.0
  0
SPLINE
  5
12D
330
55
100
AcDbEntity
  8
0
  6
Continuous
 62
     7
100
AcDbSpline
210
0.0
220
0.0
230
1.0
 70
     8
 71
     3
 72
    11
 73
     7
 74
     5
 42
0.000000001
 43
0.0000000001
 44
0.00000001
 40
0.0
 40
0.0
 40
0.0
 40
0.0
 40
0.4171871656777257
 40
0.7729833246795437
 40
1.073505711359358
 40
1.34338353784785
 40
1.34338353784785
 40
1.34338353784785
 40
1.34338353784785
 10
-79.18083257365862
 20
-101.8910980847352
 30
0.0
 10
-79.30732647078844
 20
-101.831725750197
 30
0.0
 10
-79.54170010103581
 20
-101.721717981662
 30
0.0
 10
-79.81724186326417
 20
-101.4902123211431
 30
0.0
 10
-79.99923807085077
 20
-101.2253884617162
 30
0.0
 10
-80.00742173696034
 20
-101.0320845115042
 30
0.0
 10
-80.01129373087403
 20
-100.9406251303435
 30
0.0
 11
-79.18083257365862
 21
-101.8910980847352
 31
0.0
 11
-79.54983713006185
 21
-101.6964682681245
 31
0.0
 11
-79.81982244558776
 21
-101.464738169679
 31
0.0
 11
-79.97641896358084
 21
-101.2082401408101
 31
0.0
 11
-80.01129373087403
 21
-100.9406251303435
 31
0.0
  0
SPLINE
  5
12E
330
55
100
AcDbEntity
  8
0
  6
Continuous
 62
     7
100
AcDbSpline
210
0.0
220
0.0
230
1.0
 70
     8
 71
     3
 72
    15
 73
    11
 74
     9
 42
0.000000001
 43
0.0000000001
 44
0.00000001
 40
0.0
 40
0.0
 40
0.0
 40
0.0
 40
0.2881658471575599
 40
0.6136033928803304
 40
1.003783003471309
 40
1.463119404821521
 40
1.980961625869588
 40
2.537852519771881
 40
3.109596426148115
 40
3.670360589952459
 40
3.670360589952459
 40
3.670360589952459
 40
3.670360589952459
 10
-72.29222285485875
 20
-98.27759701370631
 30
0.0
 10
-72.29747856027286
 20
-98.37535725449708
 30
0.0
 10
-72.30866976204072
 20
-98.58352215327417
 30
0.0
 10
-72.51829467361243
 20
-98.86377054055154
 30
0.0
 10
-72.83123078512978
 20
-99.1006054230154
 30
0.0
 10
-73.2492697850714
 20
-99.29139625083093
 30
0.0
 10
-73.74393424227061
 20
-99.42688348424983
 30
0.0
 10
-74.2893914547451
 20
-99.4981214656759
 30
0.0
 10
-74.85461279183244
 20
-99.50762499379134
 30
0.0
 10
-75.22882852456942
 20
-99.45427975645887
 30
0.0
 10
-75.4141223672493
 20
-99.42786572823486
 30
0.0
 11
-72.29222285485875
 21
-98.27759701370631
 31
0.0
 11
-72.33378357730157
 21
-98.56275007203605
 31
0.0
 11
-72.51328476869594
 21
-98.83420710484107
 31
0.0
 11
-72.81987034692008
 21
-99.07554796523054
 31
0.0
 11
-73.23499416635143
 21
-99.27217488028158
 31
0.0
 11
-73.73354737400588
 21
-99.41219368213216
 31
0.0
 11
-74.28537268168807
 21
-99.48713564325979
 31
0.0
 11
-74.85709173184388
 21
-99.49246687290444
 31
0.0
 11
-75.4141223672493
 21
-99.42786572823486
 31
0.0
  0
SPLINE
  5
12F
330
55
100
AcDbEntity
  8
0
  6
Continuous
 62
     7
100
AcDbSpline
210
0.0
220
0.0
230
1.0
 70
     8
 71
     3
 72
    19
 73
    15
 74
    13
 42
0.000000001
 43
0.0000000001
 44
0.00000001
 40
0.0
 40
0.0
 40
0.0
 40
0.0
 40
0.2007305004267558
 40
0.4356235739690889
 40
0.7201434630657557
 40
1.052883018584648
 40
1.422331824992795
 40
1.811400512172314
 40
2.200469199351821
 40
2.569918005759951
 40
2.902657561278825
 40
3.187177450375511
 40
3.422070523917846
 40
3.622801024344585
 40
3.622801024344585
 40
3.622801024344585
 40
3.622801024344585
 10
-76.18925829286638
 20
-114.1629373787495
 30
0.0
 10
-76.20068795261616
 20
-114.2301480754316
 30
0.0
 10
-76.22549251835875
 20
-114.3760081332649
 30
0.0
 10
-76.39747573064804
 20
-114.5586015350652
 30
0.0
 10
-76.6378565797042
 20
-114.7098375564294
 30
0.0
 10
-76.94887628954359
 20
-114.8246708244918
 30
0.0
 10
-77.30636824418387
 20
-114.8967034565324
 30
0.0
 10
-77.68925829286641
 20
-114.9212643090234
 30
0.0
 10
-78.07214834154894
 20
-114.8967034565324
 30
0.0
 10
-78.42964029618918
 20
-114.8246708244918
 30
0.0
 10
-78.74066000602862
 20
-114.7098375564294
 30
0.0
 10
-78.98104085508476
 20
-114.5586015350652
 30
0.0
 10
-79.15302406737403
 20
-114.3760081332649
 30
0.0
 10
-79.17782863311658
 20
-114.2301480754316
 30
0.0
 10
-79.18925829286638
 20
-114.1629373787495
 30
0.0
 11
-76.18925829286638
 21
-114.1629373787495
 31
0.0
 11
-76.24036993971488
 21
-114.3570516108244
 31
0.0
 11
-76.39022018718974
 21
-114.5379373787495
 31
0.0
 11
-76.62859840386469
 21
-114.6932673232503
 31
0.0
 11
-76.9392582928664
 21
-114.8124564315878
 31
0.0
 11
-77.30102982871661
 21
-114.8873815553252
 31
0.0
 11
-77.68925829286641
 21
-114.9129373787495
 31
0.0
 11
-78.0774867570162
 21
-114.8873815553252
 31
0.0
 11
-78.4392582928664
 21
-114.8124564315878
 31
0.0
 11
-78.7499181818681
 21
-114.6932673232504
 31
0.0
 11
-78.98829639854306
 21
-114.5379373787495
 31
0.0
 11
-79.1381466460179
 21
-114.3570516108244
 31
0.0
 11
-79.18925829286638
 21
-114.1629373787495
 31
0.0
  0
SPLINE
  5
130
330
55
100
AcDbEntity
  8
0
  6
Continuous
 62
     7
100
AcDbSpline
210
0.0
220
0.0
230
1.0
 70
     8
 71
     3
 72
    11
 73
     7
 74
     5
 42
0.000000001
 43
0.0000000001
 44
0.00000001
 40
0.0
 40
0.0
 40
0.0
 40
0.0
 40
0.2278674248144069
 40
0.4541813538345906
 40
0.6825897191385477
 40
0.9083717890070195
 40
0.9083717890070195
 40
0.9083717890070195
 40
0.9083717890070195
 10
-78.53364346073349
 20
-102.998173944474
 30
0.0
 10
-78.52992234350585
 20
-102.9223093407585
 30
0.0
 10
-78.52250546297321
 20
-102.7710973442013
 30
0.0
 10
-78.51135507120614
 20
-102.5438408216022
 30
0.0
 10
-78.50023626758816
 20
-102.3172787036608
 30
0.0
 10
-78.49281269707771
 20
-102.1660640046338
 30
0.0
 10
-78.48912236724931
 20
-102.090893844872
 30
0.0
 11
-78.53364346073349
 21
-102.998173944474
 31
0.0
 11
-78.52247950899118
 21
-102.770580162764
 31
0.0
 11
-78.51138888470743
 21
-102.5445381478163
 31
0.0
 11
-78.50019272794603
 21
-102.3164043550221
 31
0.0
 11
-78.48912236724931
 21
-102.090893844872
 31
0.0
  0
SPLINE
  5
131
330
55
100
AcDbEntity
  8
0
  6
Continuous
 62
     7
100
AcDbSpline
210
0.0
220
0.0
230
1.0
 70
     8
 71
     3
 72
     9
 73
     5
 74
     3
 42
0.000000001
 43
0.0000000001
 44
0.00000001
 40
0.0
 40
0.0
 40
0.0
 40
0.0
 40
0.0180339380601763
 40
0.0359160759623248
 40
0.0359160759623248
 40
0.0359160759623248
 40
0.0359160759623248
 10
-76.826272805577
 20
-100.6508238817954
 30
0.0
 10
-76.83061837262805
 20
-100.6466700743612
 30
0.0
 10
-76.83927291412378
 20
-100.6383974096878
 30
0.0
 10
-76.84775328698018
 20
-100.6299462998238
 30
0.0
 10
-76.85197554517855
 20
-100.6257385971998
 30
0.0
 11
-76.826272805577
 21
-100.6508238817954
 31
0.0
 11
-76.83926558873453
 21
-100.6383174630321
 31
0.0
 11
-76.85197554517855
 21
-100.6257385971998
 31
0.0
  0
SPLINE
  5
132
330
55
100
AcDbEntity
  8
0
  6
Continuous
 62
     7
100
AcDbSpline
210
0.0
220
0.0
230
1.0
 70
     8
 71
     3
 72
    15
 73
    11
 74
     9
 42
0.000000001
 43
0.0000000001
 44
0.00000001
 40
0.0
 40
0.0
 40
0.0
 40
0.0
 40
0.2691237237691044
 40
0.5644347450799503
 40
0.908983168011182
 40
1.310509105541983
 40
1.765504404685386
 40
2.263291771263174
 40
2.788779064933667
 40
3.324417782925019
 40
3.324417782925019
 40
3.324417782925019
 40
3.324417782925019
 10
-75.19245028898723
 20
-102.6682558019592
 30
0.0
 10
-75.1952405927983
 20
-102.7592806082816
 30
0.0
 10
-75.20109272604378
 20
-102.9501874590395
 30
0.0
 10
-75.36663556344814
 20
-103.2174342613713
 30
0.0
 10
-75.6237795539595
 20
-103.4527071174954
 30
0.0
 10
-75.97371671639945
 20
-103.6534348564279
 30
0.0
 10
-76.39756423423619
 20
-103.8127536245216
 30
0.0
 10
-76.878901701783
 20
-103.9232285516761
 30
0.0
 10
-77.396421433699
 20
-103.9847922964692
 30
0.0
 10
-77.75041503495227
 20
-103.9787075682466
 30
0.0
 10
-77.92910510259753
 20
-103.9756360967794
 30
0.0
 11
-75.19245028898723
 21
-102.6682558019592
 31
0.0
 11
-75.22286003183098
 21
-102.9356559336997
 31
0.0
 11
-75.36650117486182
 21
-103.1936788475601
 31
0.0
 11
-75.61677994374934
 21
-103.4304786639258
 31
0.0
 11
-75.96220540043473
 21
-103.6351841402527
 31
0.0
 11
-76.3869197413303
 21
-103.7983970402613
 31
0.0
 11
-76.87142394667629
 21
-103.9126246083887
 31
0.0
 11
-77.3934748728334
 21
-103.9726223266322
 31
0.0
 11
-77.92910510259753
 21
-103.9756360967794
 31
0.0
  0
SPLINE
  5
133
330
55
100
AcDbEntity
  8
0
  6
Continuous
 62
     7
100
AcDbSpline
210
0.0
220
0.0
230
1.0
 70
     8
 71
     3
 72
    11
 73
     7
 74
     5
 42
0.000000001
 43
0.0000000001
 44
0.00000001
 40
0.0
 40
0.0
 40
0.0
 40
0.0
 40
0.3749902602319358
 40
0.7012856212765873
 40
0.9813385165205004
 40
1.228717461419978
 40
1.228717461419978
 40
1.228717461419978
 40
1.228717461419978
 10
-66.97358307439252
 20
-92.1181442789836
 30
0.0
 10
-66.8597495875805
 20
-92.17090948981556
 30
0.0
 10
-66.64686463140832
 20
-92.26958802081873
 30
0.0
 10
-66.38793736735308
 20
-92.47169981215461
 30
0.0
 10
-66.2013801966861
 20
-92.6969932894381
 30
0.0
 10
-66.16111040467342
 20
-92.87026972419298
 30
0.0
 10
-66.14222285485874
 20
-92.95154078043201
 30
0.0
 11
-66.97358307439252
 21
-92.1181442789836
 31
0.0
 11
-66.64004558244173
 21
-92.28952232409938
 31
0.0
 11
-66.38369578091479
 21
-92.49139714619511
 31
0.0
 11
-66.21538108405386
 21
-92.71522696924617
 31
0.0
 11
-66.14222285485874
 21
-92.95154078043201
 31
0.0
  0
SPLINE
  5
134
330
55
100
AcDbEntity
  8
0
  6
Continuous
 62
     7
100
AcDbSpline
210
0.0
220
0.0
230
1.0
 70
     8
 71
     3
 72
    15
 73
    11
 74
     9
 42
0.000000001
 43
0.0000000001
 44
0.00000001
 40
0.0
 40
0.0
 40
0.0
 40
0.0
 40
0.2881658471575719
 40
0.6136033928803306
 40
1.00378300347134
 40
1.46311940482152
 40
1.980961625869579
 40
2.53785251977189
 40
3.109596426148124
 40
3.670360589952469
 40
3.670360589952469
 40
3.670360589952469
 40
3.670360589952469
 10
-66.14222285485874
 20
-92.95154078043201
 30
0.0
 10
-66.14747856027282
 20
-93.04930102122275
 30
0.0
 10
-66.15866976204073
 20
-93.2574659199999
 30
0.0
 10
-66.36829467361241
 20
-93.53771430727721
 30
0.0
 10
-66.68123078512978
 20
-93.77454918974112
 30
0.0
 10
-67.09926978507137
 20
-93.96534001755661
 30
0.0
 10
-67.59393424227062
 20
-94.1008272509755
 30
0.0
 10
-68.13939145474508
 20
-94.17206523240158
 30
0.0
 10
-68.7046127918324
 20
-94.18156876051702
 30
0.0
 10
-69.07882852456943
 20
-94.12822352318457
 30
0.0
 10
-69.2641223672493
 20
-94.10180949496056
 30
0.0
 11
-66.14222285485874
 21
-92.95154078043201
 31
0.0
 11
-66.18378357730155
 21
-93.23669383876177
 31
0.0
 11
-66.36328476869592
 21
-93.50815087156677
 31
0.0
 11
-66.66987034692009
 21
-93.74949173195625
 31
0.0
 11
-67.08499416635141
 21
-93.94611864700728
 31
0.0
 11
-67.58354737400586
 21
-94.08613744885783
 31
0.0
 11
-68.13537268168807
 21
-94.16107940998549
 31
0.0
 11
-68.70709173184387
 21
-94.16641063963014
 31
0.0
 11
-69.2641223672493
 21
-94.10180949496056
 31
0.0
  0
SPLINE
  5
135
330
55
100
AcDbEntity
  8
0
  6
Continuous
 62
     7
100
AcDbSpline
210
0.0
220
0.0
230
1.0
 70
     8
 71
     3
 72
    15
 73
    11
 74
     9
 42
0.000000001
 43
0.0000000001
 44
0.00000001
 40
0.0
 40
0.0
 40
0.0
 40
0.0
 40
0.3003977028877408
 40
0.6373470253430218
 40
1.03894098091732
 40
1.510902233342729
 40
2.043954039936656
 40
2.619872787755592
 40
3.215431152221731
 40
3.805346715417782
 40
3.805346715417782
 40
3.805346715417782
 40
3.805346715417782
 10
-65.96745028898721
 20
-94.67917145204777
 30
0.0
 10
-65.97236964192298
 20
-94.78101530357998
 30
0.0
 10
-65.98280693423057
 20
-94.99709510101
 30
0.0
 10
-66.19358014473434
 20
-95.29086238441059
 30
0.0
 10
-66.51108111878548
 20
-95.54154872311885
 30
0.0
 10
-66.93699881971631
 20
-95.74645929565344
 30
0.0
 10
-67.44383922460456
 20
-95.89638402430177
 30
0.0
 10
-68.00681261967387
 20
-95.98217903887513
 30
0.0
 10
-68.59557913811602
 20
-96.00564904344336
 30
0.0
 10
-68.98872888256311
 20
-95.96137222904795
 30
0.0
 10
-69.18436806729784
 20
-95.93933919735382
 30
0.0
 11
-65.96745028898721
 21
-94.67917145204777
 31
0.0
 11
-66.0086135300975
 21
-94.97673551653797
 31
0.0
 11
-66.18959924881867
 21
-95.26095201497768
 31
0.0
 11
-66.50010363145213
 21
-95.51563757144281
 31
0.0
 11
-66.92244543264619
 21
-95.72629090353522
 31
0.0
 11
-67.43257777202268
 21
-95.8809169836807
 31
0.0
 11
-68.00145318723584
 21
-95.97071211758063
 31
0.0
 11
-68.59668063929158
 21
-95.9905627009575
 31
0.0
 11
-69.18436806729784
 21
-95.93933919735382
 31
0.0
  0
SPLINE
  5
136
330
55
100
AcDbEntity
  8
0
  6
Continuous
 62
     7
100
AcDbSpline
210
0.0
220
0.0
230
1.0
 70
     8
 71
     3
 72
    11
 73
     7
 74
     5
 42
0.000000001
 43
0.0000000001
 44
0.00000001
 40
0.0
 40
0.0
 40
0.0
 40
0.0
 40
0.228427703317558
 40
0.4541813538346321
 40
0.6821561740347649
 40
0.9083717890069908
 40
0.9083717890069908
 40
0.9083717890069908
 40
0.9083717890069908
 10
-69.30864346073346
 20
-95.00908959456254
 30
0.0
 10
-69.3049131935044
 20
-94.9330384556259
 30
0.0
 10
-69.29749631190299
 20
-94.7818264591211
 30
0.0
 10
-69.28635299879159
 20
-94.55471427808877
 30
0.0
 10
-69.27524335233218
 20
-94.3283386950173
 30
0.0
 10
-69.26781978275028
 20
-94.1771239959447
 30
0.0
 10
-69.2641223672493
 20
-94.10180949496056
 30
0.0
 11
-69.30864346073346
 21
-95.00908959456254
 31
0.0
 11
-69.29745205572775
 21
-94.78093620734911
 31
0.0
 11
-69.28638888470743
 21
-94.5554537979048
 31
0.0
 11
-69.27521398233388
 21
-94.32775302890678
 31
0.0
 11
-69.2641223672493
 21
-94.10180949496056
 31
0.0
  0
SPLINE
  5
137
330
55
100
AcDbEntity
  8
0
  6
Continuous
 62
     7
100
AcDbSpline
210
0.0
220
0.0
230
1.0
 70
     8
 71
     3
 72
     9
 73
     5
 74
     3
 42
0.000000001
 43
0.0000000001
 44
0.00000001
 40
0.0
 40
0.0
 40
0.0
 40
0.0
 40
0.3164232516762904
 40
0.6163836119694688
 40
0.6163836119694688
 40
0.6163836119694688
 40
0.6163836119694688
 10
-69.30864346073346
 20
-95.00908959456254
 30
0.0
 10
-69.41208480086536
 20
-94.98786096259667
 30
0.0
 10
-69.61358562287008
 20
-94.94650816405712
 30
0.0
 10
-69.80818463758882
 20
-94.87989170755554
 30
0.0
 10
-69.90288538518422
 20
-94.8474730941285
 30
0.0
 11
-69.30864346073346
 21
-95.00908959456254
 31
0.0
 11
-69.61714862642955
 21
-94.93874588689006
 31
0.0
 11
-69.90288538518422
 21
-94.8474730941285
 31
0.0
  0
SPLINE
  5
138
330
55
100
AcDbEntity
  8
0
  6
Continuous
 62
     7
100
AcDbSpline
210
0.0
220
0.0
230
1.0
 70
     8
 71
     3
 72
    11
 73
     7
 74
     5
 42
0.000000001
 43
0.0000000001
 44
0.00000001
 40
0.0
 40
0.0
 40
0.0
 40
0.0
 40
0.3749902602350448
 40
0.7012856212802862
 40
0.9813385165241992
 40
1.228717461423677
 40
1.228717461423677
 40
1.228717461423677
 40
1.228717461423677
 10
-70.04858307439291
 20
-94.78117239561374
 30
0.0
 10
-69.93474958758091
 20
-94.83393760644805
 30
0.0
 10
-69.72186463140945
 20
-94.9326161374554
 30
0.0
 10
-69.46293736735319
 20
-95.13472792879153
 30
0.0
 10
-69.2763801966861
 20
-95.36002140607528
 30
0.0
 10
-69.23611040467341
 20
-95.53329784083016
 30
0.0
 10
-69.21722285485873
 20
-95.61456889706916
 30
0.0
 11
-70.04858307439291
 21
-94.78117239561374
 31
0.0
 11
-69.71504558244177
 21
-94.95255044073565
 31
0.0
 11
-69.45869578091478
 21
-95.15442526283226
 31
0.0
 11
-69.29038108405385
 21
-95.37825508588332
 31
0.0
 11
-69.21722285485873
 21
-95.61456889706916
 31
0.0
  0
SPLINE
  5
139
330
55
100
AcDbEntity
  8
0
  6
Continuous
 62
     7
100
AcDbSpline
210
0.0
220
0.0
230
1.0
 70
     8
 71
     3
 72
    11
 73
     7
 74
     5
 42
0.000000001
 43
0.0000000001
 44
0.00000001
 40
0.0
 40
0.0
 40
0.0
 40
0.0
 40
0.1753252988160813
 40
0.348799791072726
 40
0.5578512695472482
 40
0.7644725988257395
 40
0.7644725988257395
 40
0.7644725988257395
 40
0.7644725988257395
 10
-70.69955001295153
 20
-95.34492630143664
 30
0.0
 10
-70.70267870071602
 20
-95.28656834261376
 30
0.0
 10
-70.70890306333368
 20
-95.17046847657592
 30
0.0
 10
-70.71886090427911
 20
-94.98478487124828
 30
0.0
 10
-70.7293797548104
 20
-94.78868435133286
 30
0.0
 10
-70.73680410510866
 20
-94.65032580169672
 30
0.0
 10
-70.74049458529706
 20
-94.58155097028731
 30
0.0
 11
-70.69955001295153
 21
-95.34492630143664
 31
0.0
 11
-70.70893654505333
 21
-95.16985245010505
 31
0.0
 11
-70.71822614833499
 21
-94.99662686673292
 31
0.0
 11
-70.72942383587174
 21
-94.7878755015966
 31
0.0
 11
-70.74049458529706
 21
-94.58155097028731
 31
0.0
  0
SPLINE
  5
13A
330
55
100
AcDbEntity
  8
0
  6
Continuous
 62
     7
100
AcDbSpline
210
0.0
220
0.0
230
1.0
 70
     8
 71
     3
 72
    15
 73
    11
 74
     9
 42
0.000000001
 43
0.0000000001
 44
0.00000001
 40
0.0
 40
0.0
 40
0.0
 40
0.0
 40
0.2823340378416366
 40
0.6098487934760375
 40
0.9988120597251102
 40
1.44862700789398
 40
1.948052029559782
 40
2.479513152491097
 40
3.022022343083457
 40
3.55350342759733
 40
3.55350342759733
 40
3.55350342759733
 40
3.55350342759733
 10
-73.86129373087404
 20
-95.61456889706916
 30
0.0
 10
-73.837856363225
 20
-95.5220507711702
 30
0.0
 10
-73.78723103205459
 20
-95.3222092426115
 30
0.0
 10
-73.55057045775413
 20
-95.07204860943891
 30
0.0
 10
-73.22591217250941
 20
-94.85761332181397
 30
0.0
 10
-72.81021822804107
 20
-94.68771073059438
 30
0.0
 10
-72.32989337945274
 20
-94.56885128925705
 30
0.0
 10
-71.80778816895841
 20
-94.50896454048086
 30
0.0
 10
-71.2707928686763
 20
-94.50500232645274
 30
0.0
 10
-70.91604645972915
 20
-94.55621002693424
 30
0.0
 10
-70.74049458529706
 20
-94.58155097028731
 30
0.0
 11
-73.86129373087404
 21
-95.61456889706916
 31
0.0
 11
-73.77086175240811
 21
-95.3471094227806
 31
0.0
 11
-73.558928235385
 21
-95.09740939843225
 31
0.0
 11
-73.23703101489905
 21
-94.87906425667296
 31
0.0
 11
-72.82269712204399
 21
-94.7039616799446
 31
0.0
 11
-72.33848463969608
 21
-94.58163578712694
 31
0.0
 11
-71.81075760265429
 21
-94.51874620402455
 31
0.0
 11
-71.26824841286398
 21
-94.51871761576012
 31
0.0
 11
-70.74049458529706
 21
-94.58155097028731
 31
0.0
  0
SPLINE
  5
13B
330
55
100
AcDbEntity
  8
0
  6
Continuous
 62
     7
100
AcDbSpline
210
0.0
220
0.0
230
1.0
 70
     8
 71
     3
 72
    11
 73
     7
 74
     5
 42
0.000000001
 43
0.0000000001
 44
0.00000001
 40
0.0
 40
0.0
 40
0.0
 40
0.0
 40
0.225713027834456
 40
0.4541921839457617
 40
0.6764972553763013
 40
0.9011106879428183
 40
0.9011106879428183
 40
0.9011106879428183
 40
0.9011106879428183
 10
-69.9558325736584
 20
-93.90201373482014
 30
0.0
 10
-69.95952208311165
 20
-93.97716089312806
 30
0.0
 10
-69.96694630215303
 20
-94.12837614394203
 30
0.0
 10
-69.97800053392257
 20
-94.35360412034872
 30
0.0
 10
-69.98903434647093
 20
-94.57846612596654
 30
0.0
 10
-69.99633324442635
 20
-94.72726004908698
 30
0.0
 10
-70.0000015355289
 20
-94.80204127582667
 30
0.0
 11
-69.9558325736584
 21
-93.90201373482014
 31
0.0
 11
-69.96690046981931
 21
-94.12745524077856
 31
0.0
 11
-69.97810101056828
 21
-94.35565969442557
 31
0.0
 11
-69.98899607513846
 21
-94.57769762441006
 31
0.0
 11
-70.0000015355289
 21
-94.80204127582667
 31
0.0
  0
SPLINE
  5
13C
330
55
100
AcDbEntity
  8
0
  6
Continuous
 62
     7
100
AcDbSpline
210
0.0
220
0.0
230
1.0
 70
     8
 71
     3
 72
     9
 73
     5
 74
     3
 42
0.000000001
 43
0.0000000001
 44
0.00000001
 40
0.0
 40
0.0
 40
0.0
 40
0.0
 40
0.3164232516762873
 40
0.6163836119694834
 40
0.6163836119694834
 40
0.6163836119694834
 40
0.6163836119694834
 10
-72.38364346073348
 20
-97.67211771119969
 30
0.0
 10
-72.48708480086538
 20
-97.65088907923382
 30
0.0
 10
-72.6885856228701
 20
-97.60953628069427
 30
0.0
 10
-72.88318463758885
 20
-97.54291982419272
 30
0.0
 10
-72.97788538518425
 20
-97.51050121076565
 30
0.0
 11
-72.38364346073348
 21
-97.67211771119969
 31
0.0
 11
-72.69214862642957
 21
-97.60177400352723
 31
0.0
 11
-72.97788538518425
 21
-97.51050121076565
 31
0.0
  0
SPLINE
  5
13D
330
55
100
AcDbEntity
  8
0
  6
Continuous
 62
     7
100
AcDbSpline
210
0.0
220
0.0
230
1.0
 70
     8
 71
     3
 72
    11
 73
     7
 74
     5
 42
0.000000001
 43
0.0000000001
 44
0.00000001
 40
0.0
 40
0.0
 40
0.0
 40
0.0
 40
0.3749902602350321
 40
0.7012856212802823
 40
0.981338516524184
 40
1.228717461423662
 40
1.228717461423662
 40
1.228717461423662
 40
1.228717461423662
 10
-73.12358307439291
 20
-97.44420051225089
 30
0.0
 10
-73.00974958758093
 20
-97.49696572308521
 30
0.0
 10
-72.79686463140945
 20
-97.59564425409255
 30
0.0
 10
-72.53793736735321
 20
-97.79775604542868
 30
0.0
 10
-72.35138019668614
 20
-98.02304952271247
 30
0.0
 10
-72.31111040467341
 20
-98.19632595746725
 30
0.0
 10
-72.29222285485875
 20
-98.27759701370631
 30
0.0
 11
-73.12358307439291
 21
-97.44420051225089
 31
0.0
 11
-72.79004558244179
 21
-97.6155785573728
 31
0.0
 11
-72.5336957809148
 21
-97.81745337946943
 31
0.0
 11
-72.36538108405387
 21
-98.04128320252048
 31
0.0
 11
-72.29222285485875
 21
-98.27759701370631
 31
0.0
  0
SPLINE
  5
13E
330
55
100
AcDbEntity
  8
0
  6
Continuous
 62
     7
100
AcDbSpline
210
0.0
220
0.0
230
1.0
 70
     8
 71
     3
 72
    11
 73
     7
 74
     5
 42
0.000000001
 43
0.0000000001
 44
0.00000001
 40
0.0
 40
0.0
 40
0.0
 40
0.0
 40
0.228022958452833
 40
0.4541813538346333
 40
0.6821561375576832
 40
0.9083717890033919
 40
0.9083717890033919
 40
0.9083717890033919
 40
0.9083717890033919
 10
-72.38364346073348
 20
-97.67211771119969
 30
0.0
 10
-72.37991980346376
 20
-97.59620132519807
 30
0.0
 10
-72.37250292264167
 20
-97.44498932865508
 30
0.0
 10
-72.36135961259181
 20
-97.21787715964612
 30
0.0
 10
-72.35024335291477
 20
-96.99136682380072
 30
0.0
 10
-72.34281978334226
 20
-96.84015212472883
 30
0.0
 10
-72.33912236724947
 20
-96.76483761160131
 30
0.0
 11
-72.38364346073348
 21
-97.67211771119969
 31
0.0
 11
-72.37247188795098
 21
-97.44436858267628
 31
0.0
 11
-72.36138888470742
 21
-97.21848191454195
 31
0.0
 11
-72.35021398412216
 21
-96.99078118197716
 31
0.0
 11
-72.33912236724947
 21
-96.76483761160131
 31
0.0
  0
SPLINE
  5
13F
330
55
100
AcDbEntity
  8
0
  6
Continuous
 62
     7
100
AcDbSpline
210
0.0
220
0.0
230
1.0
 70
     8
 71
     3
 72
     9
 73
     5
 74
     3
 42
0.000000001
 43
0.0000000001
 44
0.00000001
 40
0.0
 40
0.0
 40
0.0
 40
0.0
 40
0.0180339380601858
 40
0.0359160759623544
 40
0.0359160759623544
 40
0.0359160759623544
 40
0.0359160759623544
 10
-73.751272805577
 20
-97.98779576515827
 30
0.0
 10
-73.755618372628
 20
-97.98364195772399
 30
0.0
 10
-73.76427291412375
 20
-97.9753692930506
 30
0.0
 10
-73.77275328698018
 20
-97.96691818318665
 30
0.0
 10
-73.77697554517856
 20
-97.96271048056263
 30
0.0
 11
-73.751272805577
 21
-97.98779576515827
 31
0.0
 11
-73.76426558873452
 21
-97.9752893463949
 31
0.0
 11
-73.77697554517856
 21
-97.96271048056263
 31
0.0
  0
SPLINE
  5
140
330
55
100
AcDbEntity
  8
0
  6
Continuous
 62
     7
100
AcDbSpline
210
0.0
220
0.0
230
1.0
 70
     8
 71
     3
 72
    11
 73
     7
 74
     5
 42
0.000000001
 43
0.0000000001
 44
0.00000001
 40
0.0
 40
0.0
 40
0.0
 40
0.0
 40
0.4171871656764047
 40
0.7729833246779481
 40
1.073505711357774
 40
1.343383537846297
 40
1.343383537846297
 40
1.343383537846297
 40
1.343383537846297
 10
-73.03083257365842
 20
-96.5650418514573
 30
0.0
 10
-73.15732647078836
 20
-96.5056695169203
 30
0.0
 10
-73.39170010103628
 20
-96.39566174838745
 30
0.0
 10
-73.66724186326421
 20
-96.1641560878686
 30
0.0
 10
-73.84923807085079
 20
-95.89933222844198
 30
0.0
 10
-73.85742173696032
 20
-95.70602827822984
 30
0.0
 10
-73.86129373087404
 20
-95.61456889706916
 30
0.0
 11
-73.03083257365842
 21
-96.5650418514573
 31
0.0
 11
-73.39983713006181
 21
-96.37041203484975
 31
0.0
 11
-73.66982244558776
 21
-96.13868193640465
 31
0.0
 11
-73.82641896358083
 21
-95.88218390753579
 31
0.0
 11
-73.86129373087404
 21
-95.61456889706916
 31
0.0
  0
SPLINE
  5
141
330
55
100
AcDbEntity
  8
0
  6
Continuous
 62
     7
100
AcDbSpline
210
0.0
220
0.0
230
1.0
 70
     8
 71
     3
 72
     9
 73
     5
 74
     3
 42
0.000000001
 43
0.0000000001
 44
0.00000001
 40
0.0
 40
0.0
 40
0.0
 40
0.0
 40
0.0180339380601763
 40
0.0359160759623549
 40
0.0359160759623549
 40
0.0359160759623549
 40
0.0359160759623549
 10
-70.676272805577
 20
-95.32476764852112
 30
0.0
 10
-70.68061837262803
 20
-95.3206138410869
 30
0.0
 10
-70.68927291412379
 20
-95.31234117641348
 30
0.0
 10
-70.69775328698019
 20
-95.30389006654951
 30
0.0
 10
-70.70197554517856
 20
-95.29968236392548
 30
0.0
 11
-70.676272805577
 21
-95.32476764852112
 31
0.0
 11
-70.68926558873453
 21
-95.31226122975778
 31
0.0
 11
-70.70197554517856
 21
-95.29968236392548
 31
0.0
  0
SPLINE
  5
142
330
55
100
AcDbEntity
  8
0
  6
Continuous
 62
     7
100
AcDbSpline
210
0.0
220
0.0
230
1.0
 70
     8
 71
     3
 72
    15
 73
    11
 74
     9
 42
0.000000001
 43
0.0000000001
 44
0.00000001
 40
0.0
 40
0.0
 40
0.0
 40
0.0
 40
0.2881658471575599
 40
0.6136033928803186
 40
1.003783003471317
 40
1.463119404821516
 40
1.980961625869575
 40
2.537852519771872
 40
3.109596426148138
 40
3.670360589952275
 40
3.670360589952275
 40
3.670360589952275
 40
3.670360589952275
 10
-69.21722285485873
 20
-95.61456889706916
 30
0.0
 10
-69.22247856027282
 20
-95.7123291378599
 30
0.0
 10
-69.2336697620407
 20
-95.920494036637
 30
0.0
 10
-69.44329467361241
 20
-96.20074242391436
 30
0.0
 10
-69.75623078512977
 20
-96.43757730637824
 30
0.0
 10
-70.17426978507137
 20
-96.62836813419378
 30
0.0
 10
-70.66893424227061
 20
-96.76385536761263
 30
0.0
 10
-71.21439145474511
 20
-96.83509334903881
 30
0.0
 10
-71.77961279183225
 20
-96.8445968771539
 30
0.0
 10
-72.1538285245695
 20
-96.79125163982407
 30
0.0
 10
-72.33912236724947
 20
-96.76483761160131
 30
0.0
 11
-69.21722285485873
 21
-95.61456889706916
 31
0.0
 11
-69.25878357730156
 21
-95.8997219553989
 31
0.0
 11
-69.43828476869592
 21
-96.1711789882039
 31
0.0
 11
-69.74487034692008
 21
-96.41251984859339
 31
0.0
 11
-70.15999416635141
 21
-96.60914676364443
 31
0.0
 11
-70.65854737400586
 21
-96.74916556549498
 31
0.0
 11
-71.21037268168806
 21
-96.82410752662264
 31
0.0
 11
-71.78209173184389
 21
-96.82943875626773
 31
0.0
 11
-72.33912236724947
 21
-96.76483761160131
 31
0.0
  0
SPLINE
  5
143
330
55
100
AcDbEntity
  8
0
  6
Continuous
 62
     7
100
AcDbSpline
210
0.0
220
0.0
230
1.0
 70
     8
 71
     3
 72
    15
 73
    11
 74
     9
 42
0.000000001
 43
0.0000000001
 44
0.00000001
 40
0.0
 40
0.0
 40
0.0
 40
0.0
 40
0.3003977028877408
 40
0.6373470253430142
 40
1.038940980917302
 40
1.510902233342711
 40
2.043954039936634
 40
2.619872787755572
 40
3.215431152221711
 40
3.80534671541779
 40
3.80534671541779
 40
3.80534671541779
 40
3.80534671541779
 10
-69.04245028898723
 20
-97.34219956868492
 30
0.0
 10
-69.04736964192298
 20
-97.44404342021711
 30
0.0
 10
-69.05780693423058
 20
-97.66012321764715
 30
0.0
 10
-69.26858014473436
 20
-97.95389050104777
 30
0.0
 10
-69.58608111878549
 20
-98.20457683975602
 30
0.0
 10
-70.01199881971628
 20
-98.40948741229059
 30
0.0
 10
-70.51883922460456
 20
-98.55941214093892
 30
0.0
 10
-71.08181261967385
 20
-98.64520715551228
 30
0.0
 10
-71.67057913811604
 20
-98.66867716008053
 30
0.0
 10
-72.06372888256311
 20
-98.62440034568507
 30
0.0
 10
-72.25936806729786
 20
-98.60236731399097
 30
0.0
 11
-69.04245028898723
 21
-97.34219956868492
 31
0.0
 11
-69.08361353009752
 21
-97.63976363317512
 31
0.0
 11
-69.26459924881867
 21
-97.92398013161483
 31
0.0
 11
-69.57510363145212
 21
-98.17866568807996
 31
0.0
 11
-69.99744543264617
 21
-98.38931902017237
 31
0.0
 11
-70.50757777202267
 21
-98.54394510031784
 31
0.0
 11
-71.07645318723583
 21
-98.63374023421778
 31
0.0
 11
-71.67168063929157
 21
-98.65359081759465
 31
0.0
 11
-72.25936806729786
 21
-98.60236731399097
 31
0.0
  0
SPLINE
  5
144
330
55
100
AcDbEntity
  8
0
  6
Continuous
 62
     7
100
AcDbSpline
210
0.0
220
0.0
230
1.0
 70
     8
 71
     3
 72
    17
 73
    13
 74
    11
 42
0.000000001
 43
0.0000000001
 44
0.00000001
 40
0.0
 40
0.0
 40
0.0
 40
0.0
 40
0.2287004332878621
 40
0.5050173383236083
 40
0.8459496833551257
 40
1.24386237647228
 40
1.677769997423722
 40
2.120300716071087
 40
2.542706850639055
 40
2.919536908964047
 40
3.234167320945919
 40
3.487325718599303
 40
3.487325718599303
 40
3.487325718599303
 40
3.487325718599303
 10
-73.1142582928664
 20
-111.4999092621123
 30
0.0
 10
-73.12936899527239
 20
-111.57637669333
 30
0.0
 10
-73.16273653374766
 20
-111.7452324154774
 30
0.0
 10
-73.38299437464353
 20
-111.9442060643132
 30
0.0
 10
-73.68171417890727
 20
-112.101274520944
 30
0.0
 10
-74.06127549965676
 20
-112.2083555900776
 30
0.0
 10
-74.48441577193765
 20
-112.2577689524291
 30
0.0
 10
-74.91847766042623
 20
-112.244972045362
 30
0.0
 10
-75.32875942454507
 20
-112.1720507869228
 30
0.0
 10
-75.67580954779577
 20
-112.0418450359981
 30
0.0
 10
-75.95352840442612
 20
-111.8725518386928
 30
0.0
 10
-76.04856598278356
 20
-111.705930087288
 30
0.0
 10
-76.09094011332516
 20
-111.6316389105657
 30
0.0
 11
-73.1142582928664
 21
-111.4999092621123
 31
0.0
 11
-73.17971330018973
 21
-111.7190428579953
 31
0.0
 11
-73.37036275630965
 21
-111.9190524041695
 31
0.0
 11
-73.6695711343693
 21
-112.0824819270999
 31
0.0
 11
-74.05122348504537
 21
-112.1950696402234
 31
0.0
 11
-74.48201376568039
 21
-112.24698838316
 31
0.0
 11
-74.92434518359025
 21
-112.2337086420864
 31
0.0
 11
-75.33961428189585
 21
-112.1563877759594
 31
0.0
 11
-75.69158069977564
 21
-112.0217752486384
 31
0.0
 11
-75.9495255896103
 21
-111.8416177320243
 31
0.0
 11
-76.09094011332516
 21
-111.6316389105657
 31
0.0
  0
SPLINE
  5
145
330
55
100
AcDbEntity
  8
0
  6
Continuous
 62
     7
100
AcDbSpline
210
0.0
220
0.0
230
1.0
 70
     8
 71
     3
 72
    11
 73
     7
 74
     5
 42
0.000000001
 43
0.0000000001
 44
0.00000001
 40
0.0
 40
0.0
 40
0.0
 40
0.0
 40
0.2261495304960411
 40
0.4541921839457602
 40
0.6764973074529654
 40
0.9011106879428453
 40
0.9011106879428453
 40
0.9011106879428453
 40
0.9011106879428453
 10
-73.03083257365842
 20
-96.5650418514573
 30
0.0
 10
-73.03452921770835
 20
-96.64033433562561
 30
0.0
 10
-73.0419534357961
 20
-96.79154958648643
 30
0.0
 10
-73.0530076657564
 20
-97.01677758036169
 30
0.0
 10
-73.06403434733627
 20
-97.24149425994102
 30
0.0
 10
-73.07133324528156
 20
-97.39028818306195
 30
0.0
 10
-73.07500153552888
 20
-97.46506939246385
 30
0.0
 11
-73.03083257365842
 21
-96.5650418514573
 31
0.0
 11
-73.04192187096439
 21
-96.7909193351268
 31
0.0
 11
-73.05310101056827
 21
-97.01868781106272
 31
0.0
 11
-73.06399607769038
 21
-97.24072579306132
 31
0.0
 11
-73.07500153552888
 21
-97.46506939246385
 31
0.0
  0
SPLINE
  5
146
330
55
100
AcDbEntity
  8
0
  6
Continuous
 62
     7
100
AcDbSpline
210
0.0
220
0.0
230
1.0
 70
     8
 71
     3
 72
    11
 73
     7
 74
     5
 42
0.000000001
 43
0.0000000001
 44
0.00000001
 40
0.0
 40
0.0
 40
0.0
 40
0.0
 40
0.1753256382748248
 40
0.3487997910727103
 40
0.5572118887066546
 40
0.7644725988257253
 40
0.7644725988257253
 40
0.7644725988257253
 40
0.7644725988257253
 10
-73.77455001295155
 20
-98.00795441807378
 30
0.0
 10
-73.77767870676756
 20
-97.94959634625994
 30
0.0
 10
-73.78390306937227
 20
-97.83349648022141
 30
0.0
 10
-73.79384949725309
 20
-97.64802569603329
 30
0.0
 10
-73.80436833729314
 20
-97.45192528887074
 30
0.0
 10
-73.81179268592285
 20
-97.31356673914509
 30
0.0
 10
-73.81549458529707
 20
-97.24457908692446
 30
0.0
 11
-73.77455001295155
 21
-98.00795441807378
 31
0.0
 11
-73.78393656322932
 21
-97.8328802277704
 31
0.0
 11
-73.79322614833498
 21
-97.65965498337007
 31
0.0
 11
-73.80438958294603
 21
-97.45154208091583
 31
0.0
 11
-73.81549458529707
 21
-97.24457908692446
 31
0.0
  0
SPLINE
  5
147
330
55
100
AcDbEntity
  8
0
  6
Continuous
 62
     7
100
AcDbSpline
210
0.0
220
0.0
230
1.0
 70
     8
 71
     3
 72
    11
 73
     7
 74
     5
 42
0.000000001
 43
0.0000000001
 44
0.00000001
 40
0.0
 40
0.0
 40
0.0
 40
0.0
 40
0.2280231365441942
 40
0.4541813538345772
 40
0.6821561375580961
 40
0.9083717890069493
 40
0.9083717890069493
 40
0.9083717890069493
 40
0.9083717890069493
 10
-75.4586434607335
 20
-100.3351458278368
 30
0.0
 10
-75.45491980055536
 20
-100.2592293825427
 30
0.0
 10
-75.44750291973287
 20
-100.1080173859997
 30
0.0
 10
-75.43635960968196
 20
-99.88090521699071
 30
0.0
 10
-75.42524335291473
 20
-99.65439494043653
 30
0.0
 10
-75.41781978334217
 20
-99.50318024136348
 30
0.0
 10
-75.4141223672493
 20
-99.42786572823486
 30
0.0
 11
-75.4586434607335
 21
-100.3351458278368
 31
0.0
 11
-75.44747187922462
 21
-100.1073965214359
 31
0.0
 11
-75.43638888470743
 21
-99.8815100311791
 31
0.0
 11
-75.42521398412215
 21
-99.65380929861385
 31
0.0
 11
-75.4141223672493
 21
-99.42786572823486
 31
0.0
  0
SPLINE
  5
148
330
55
100
AcDbEntity
  8
0
  6
Continuous
 62
     7
100
AcDbSpline
210
0.0
220
0.0
230
1.0
 70
     8
 71
     3
 72
    11
 73
     7
 74
     5
 42
0.000000001
 43
0.0000000001
 44
0.00000001
 40
0.0
 40
0.0
 40
0.0
 40
0.0
 40
0.4171871656777257
 40
0.7729833246795544
 40
1.073505711359369
 40
1.343383537847902
 40
1.343383537847902
 40
1.343383537847902
 40
1.343383537847902
 10
-76.10583257365862
 20
-99.22806996809805
 30
0.0
 10
-76.23232647078841
 20
-99.1686976335598
 30
0.0
 10
-76.46670010103583
 20
-99.05868986502486
 30
0.0
 10
-76.74224186326418
 20
-98.82718420450588
 30
0.0
 10
-76.92423807085078
 20
-98.5623603450791
 30
0.0
 10
-76.93242173696035
 20
-98.36905639486699
 30
0.0
 10
-76.93629373087403
 20
-98.27759701370631
 30
0.0
 11
-76.10583257365862
 21
-99.22806996809805
 31
0.0
 11
-76.47483713006184
 21
-99.03344015148735
 31
0.0
 11
-76.74482244558777
 21
-98.8017100530418
 31
0.0
 11
-76.90141896358085
 21
-98.54521202417295
 31
0.0
 11
-76.93629373087403
 21
-98.27759701370631
 31
0.0
  0
SPLINE
  5
149
330
55
100
AcDbEntity
  8
0
  6
Continuous
 62
     7
100
AcDbSpline
210
0.0
220
0.0
230
1.0
 70
     8
 71
     3
 72
    15
 73
    11
 74
     9
 42
0.000000001
 43
0.0000000001
 44
0.00000001
 40
0.0
 40
0.0
 40
0.0
 40
0.0
 40
0.2823340378416186
 40
0.6098487934760395
 40
0.9988120597251042
 40
1.448627007893967
 40
1.948052029559765
 40
2.479513152491096
 40
3.022022343083441
 40
3.553503427597301
 40
3.553503427597301
 40
3.553503427597301
 40
3.553503427597301
 10
-76.93629373087403
 20
-98.27759701370631
 30
0.0
 10
-76.91285636322499
 20
-98.18507888780734
 30
0.0
 10
-76.86223103205461
 20
-97.98523735924866
 30
0.0
 10
-76.62557045775412
 20
-97.73507672607607
 30
0.0
 10
-76.3009121725094
 20
-97.52064143845115
 30
0.0
 10
-75.88521822804108
 20
-97.35073884723151
 30
0.0
 10
-75.40489337945273
 20
-97.23187940589422
 30
0.0
 10
-74.8827881689584
 20
-97.171992657118
 30
0.0
 10
-74.34579286867631
 20
-97.16803044308989
 30
0.0
 10
-73.99104645972913
 20
-97.21923814357136
 30
0.0
 10
-73.81549458529707
 20
-97.24457908692446
 30
0.0
 11
-76.93629373087403
 21
-98.27759701370631
 31
0.0
 11
-76.84586175240811
 21
-98.01013753941777
 31
0.0
 11
-76.63392823538499
 21
-97.7604375150694
 31
0.0
 11
-76.31203101489903
 21
-97.54209237331013
 31
0.0
 11
-75.897697122044
 21
-97.36698979658175
 31
0.0
 11
-75.41348463969608
 21
-97.2446639037641
 31
0.0
 11
-74.88575760265428
 21
-97.1817743206617
 31
0.0
 11
-74.34324841286399
 21
-97.18174573239727
 31
0.0
 11
-73.81549458529707
 21
-97.24457908692446
 31
0.0
  0
SPLINE
  5
14A
330
55
100
AcDbEntity
  8
0
  6
Continuous
 62
     7
100
AcDbSpline
210
0.0
220
0.0
230
1.0
 70
     8
 71
     3
 72
    15
 73
    11
 74
     9
 42
0.000000001
 43
0.0000000001
 44
0.00000001
 40
0.0
 40
0.0
 40
0.0
 40
0.0
 40
0.3003977028877126
 40
0.6373470253430176
 40
1.038940980917307
 40
1.510902233342704
 40
2.043954039936621
 40
2.619872787755559
 40
3.215431152221712
 40
3.805346715417762
 40
3.805346715417762
 40
3.805346715417762
 40
3.805346715417762
 10
-72.11745028898721
 20
-100.0052276853221
 30
0.0
 10
-72.12236964192299
 20
-100.1070715368543
 30
0.0
 10
-72.13280693423059
 20
-100.3231513342843
 30
0.0
 10
-72.34358014473435
 20
-100.6169186176849
 30
0.0
 10
-72.66108111878549
 20
-100.8676049563932
 30
0.0
 10
-73.08699881971629
 20
-101.0725155289277
 30
0.0
 10
-73.59383922460458
 20
-101.2224402575761
 30
0.0
 10
-74.15681261967387
 20
-101.3082352721495
 30
0.0
 10
-74.74557913811603
 20
-101.3317052767176
 30
0.0
 10
-75.1387288825631
 20
-101.2874284623222
 30
0.0
 10
-75.33436806729785
 20
-101.2653954306281
 30
0.0
 11
-72.11745028898721
 21
-100.0052276853221
 31
0.0
 11
-72.15861353009751
 21
-100.3027917498123
 31
0.0
 11
-72.33959924881867
 21
-100.587008248252
 31
0.0
 11
-72.65010363145214
 21
-100.8416938047171
 31
0.0
 11
-73.07244543264619
 21
-101.0523471368095
 31
0.0
 11
-73.58257777202267
 21
-101.206973216955
 31
0.0
 11
-74.15145318723583
 21
-101.2967683508549
 31
0.0
 11
-74.74668063929158
 21
-101.3166189342318
 31
0.0
 11
-75.33436806729785
 21
-101.2653954306281
 31
0.0
  0
ENDBLK
  5
57
330
55
100
AcDbEntity
  8
0
100
AcDbBlockEnd
  0
BLOCK
  5
5A
330
58
100
AcDbEntity
  8
0
100
AcDbBlockBegin
  2
Gen1
 70
     0
 10
-73.07675956832648
 20
-103.49999999994
 30
0.0
  3
Gen1
  1

  0
INSERT
  5
59
330
58
100
AcDbEntity
  8
0
100
AcDbBlockReference
  2
FB_4-6-select__3
 10
-81.2083281532736
 20
-114.9129373787495
 30
0.0
  0
ENDBLK
  5
5B
330
58
100
AcDbEntity
  8
0
100
AcDbBlockEnd
  0
BLOCK
  5
5D
330
5C
100
AcDbEntity
  8
0
100
AcDbBlockBegin
  2
FB_4-6-select__4
 70
     0
 10
-124.2250015261689
 20
-74.20000012420135
 30
0.0
  3
FB_4-6-select__4
  1

  0
LINE
  5
14B
330
5C
100
AcDbEntity
  8
0
  6
Continuous
 62
     7
100
AcDbLine
 10
-124.137776145715
 20
-60.00311584517219
 30
0.0
 11
-124.2250015261689
 21
-61.00000011918917
 31
0.0
  0
LINE
  5
14C
330
5C
100
AcDbEntity
  8
0
  6
Continuous
 62
     7
100
AcDbLine
 10
-124.0000015261689
 20
-61.00000011918917
 30
0.0
 11
-124.2250015261689
 21
-61.00000011918917
 31
0.0
  0
LINE
  5
14D
330
5C
100
AcDbEntity
  8
0
  6
Continuous
 62
     7
100
AcDbLine
 10
-124.1043892347898
 20
-60.00311584517219
 30
0.0
 11
-124.1045830059939
 21
-60.0031158451722
 31
0.0
  0
LINE
  5
14E
330
5C
100
AcDbEntity
  8
0
  6
Continuous
 62
     7
100
AcDbLine
 10
-124.1045830059939
 20
-60.0031158451722
 30
0.0
 11
-124.137776145715
 21
-60.00311584517219
 31
0.0
  0
LINE
  5
14F
330
5C
100
AcDbEntity
  8
0
  6
Continuous
 62
     7
100
AcDbLine
 10
-124.0153395145296
 20
-59.00000011918063
 30
0.0
 11
-124.0155408190251
 21
-59.00000011918071
 31
0.0
  0
LINE
  5
150
330
5C
100
AcDbEntity
  8
0
  6
Continuous
 62
     7
100
AcDbLine
 10
-119.3454200463439
 20
-60.00311584517219
 30
0.0
 11
-119.345613817548
 21
-60.00311584517219
 31
0.0
  0
LINE
  5
151
330
5C
100
AcDbEntity
  8
0
  6
Continuous
 62
     7
100
AcDbLine
 10
-119.3122269066228
 20
-60.00311584517219
 30
0.0
 11
-119.3454200463439
 21
-60.00311584517219
 31
0.0
  0
LINE
  5
152
330
5C
100
AcDbEntity
  8
0
  6
Continuous
 62
     7
100
AcDbLine
 10
-119.3122269066228
 20
-60.00311584517219
 30
0.0
 11
-119.2250015261689
 21
-61.00000011918917
 31
0.0
  0
LINE
  5
153
330
5C
100
AcDbEntity
  8
0
  6
Continuous
 62
     7
100
AcDbLine
 10
-119.4346635378078
 20
-59.00000011918517
 30
0.0
 11
-124.0153395145296
 21
-59.00000011918063
 31
0.0
  0
LINE
  5
154
330
5C
100
AcDbEntity
  8
0
  6
Continuous
 62
     7
100
AcDbLine
 10
-119.4344622333123
 20
-59.0000001191852
 30
0.0
 11
-119.4346635378078
 21
-59.00000011918517
 31
0.0
  0
LINE
  5
155
330
5C
100
AcDbEntity
  8
0
  6
Continuous
 62
     7
100
AcDbLine
 10
-117.987776145715
 20
-60.00311584517219
 30
0.0
 11
-118.0750015261689
 21
-61.00000011918917
 31
0.0
  0
LINE
  5
156
330
5C
100
AcDbEntity
  8
0
  6
Continuous
 62
     7
100
AcDbLine
 10
-117.9543892347898
 20
-60.00311584517219
 30
0.0
 11
-117.9545830059939
 21
-60.0031158451722
 31
0.0
  0
LINE
  5
157
330
5C
100
AcDbEntity
  8
0
  6
Continuous
 62
     7
100
AcDbLine
 10
-117.9545830059939
 20
-60.0031158451722
 30
0.0
 11
-117.987776145715
 21
-60.00311584517219
 31
0.0
  0
LINE
  5
158
330
5C
100
AcDbEntity
  8
0
  6
Continuous
 62
     7
100
AcDbLine
 10
-117.8653395145296
 20
-59.00000011918063
 30
0.0
 11
-117.8655408190251
 21
-59.00000011918071
 31
0.0
  0
LINE
  5
159
330
5C
100
AcDbEntity
  8
0
  6
Continuous
 62
     7
100
AcDbLine
 10
-113.1954200463439
 20
-60.00311584517219
 30
0.0
 11
-113.195613817548
 21
-60.00311584517219
 31
0.0
  0
LINE
  5
15A
330
5C
100
AcDbEntity
  8
0
  6
Continuous
 62
     7
100
AcDbLine
 10
-113.1622269066228
 20
-60.00311584517219
 30
0.0
 11
-113.1954200463439
 21
-60.00311584517219
 31
0.0
  0
LINE
  5
15B
330
5C
100
AcDbEntity
  8
0
  6
Continuous
 62
     7
100
AcDbLine
 10
-113.1622269066228
 20
-60.00311584517219
 30
0.0
 11
-113.0750015261689
 21
-61.00000011918917
 31
0.0
  0
LINE
  5
15C
330
5C
100
AcDbEntity
  8
0
  6
Continuous
 62
     7
100
AcDbLine
 10
-113.2846635378078
 20
-59.00000011918517
 30
0.0
 11
-117.8653395145296
 21
-59.00000011918063
 31
0.0
  0
LINE
  5
15D
330
5C
100
AcDbEntity
  8
0
  6
Continuous
 62
     7
100
AcDbLine
 10
-113.2844622333123
 20
-59.0000001191852
 30
0.0
 11
-113.2846635378078
 21
-59.00000011918517
 31
0.0
  0
LINE
  5
15E
330
5C
100
AcDbEntity
  8
0
  6
Continuous
 62
     7
100
AcDbLine
 10
-111.837776145715
 20
-60.00311584517219
 30
0.0
 11
-111.9250015261689
 21
-61.00000011918917
 31
0.0
  0
LINE
  5
15F
330
5C
100
AcDbEntity
  8
0
  6
Continuous
 62
     7
100
AcDbLine
 10
-111.8043892347898
 20
-60.00311584517219
 30
0.0
 11
-111.8045830059939
 21
-60.0031158451722
 31
0.0
  0
LINE
  5
160
330
5C
100
AcDbEntity
  8
0
  6
Continuous
 62
     7
100
AcDbLine
 10
-111.8045830059939
 20
-60.0031158451722
 30
0.0
 11
-111.837776145715
 21
-60.00311584517219
 31
0.0
  0
LINE
  5
161
330
5C
100
AcDbEntity
  8
0
  6
Continuous
 62
     7
100
AcDbLine
 10
-111.7153395145296
 20
-59.00000011918063
 30
0.0
 11
-111.7155408190251
 21
-59.00000011918071
 31
0.0
  0
LINE
  5
162
330
5C
100
AcDbEntity
  8
0
  6
Continuous
 62
     7
100
AcDbLine
 10
-107.1346635378077
 20
-59.00000011918517
 30
0.0
 11
-111.7153395145296
 21
-59.00000011918063
 31
0.0
  0
LINE
  5
163
330
5C
100
AcDbEntity
  8
0
  6
Continuous
 62
     7
100
AcDbLine
 10
-107.1344622333123
 20
-59.0000001191852
 30
0.0
 11
-107.1346635378077
 21
-59.00000011918517
 31
0.0
  0
LINE
  5
164
330
5C
100
AcDbEntity
  8
0
  6
Continuous
 62
     7
100
AcDbLine
 10
-107.0454200463439
 20
-60.00311584517219
 30
0.0
 11
-107.045613817548
 21
-60.00311584517219
 31
0.0
  0
LINE
  5
165
330
5C
100
AcDbEntity
  8
0
  6
Continuous
 62
     7
100
AcDbLine
 10
-107.0122269066228
 20
-60.00311584517219
 30
0.0
 11
-107.0454200463439
 21
-60.00311584517219
 31
0.0
  0
LINE
  5
166
330
5C
100
AcDbEntity
  8
0
  6
Continuous
 62
     7
100
AcDbLine
 10
-105.5653395145296
 20
-59.00000011918063
 30
0.0
 11
-105.5655408190251
 21
-59.00000011918071
 31
0.0
  0
LINE
  5
167
330
5C
100
AcDbEntity
  8
0
  6
Continuous
 62
     7
100
AcDbLine
 10
-100.9846635378077
 20
-59.00000011918517
 30
0.0
 11
-105.5653395145296
 21
-59.00000011918063
 31
0.0
  0
LINE
  5
168
330
5C
100
AcDbEntity
  8
0
  6
Continuous
 62
     7
100
AcDbLine
 10
-105.6543892347898
 20
-60.00311584517219
 30
0.0
 11
-105.6545830059938
 21
-60.0031158451722
 31
0.0
  0
LINE
  5
169
330
5C
100
AcDbEntity
  8
0
  6
Continuous
 62
     7
100
AcDbLine
 10
-105.6545830059938
 20
-60.0031158451722
 30
0.0
 11
-105.687776145715
 21
-60.00311584517219
 31
0.0
  0
LINE
  5
16A
330
5C
100
AcDbEntity
  8
0
  6
Continuous
 62
     7
100
AcDbLine
 10
-101.0000015261689
 20
-69.70000011918917
 30
0.0
 11
-101.0000015261689
 21
-61.00000011918917
 31
0.0
  0
LINE
  5
16B
330
5C
100
AcDbEntity
  8
0
  6
Continuous
 62
     7
100
AcDbLine
 10
-105.5500015261689
 20
-62.00000011918917
 30
0.0
 11
-105.5500015261689
 21
-61.00000011918917
 31
0.0
  0
LINE
  5
16C
330
5C
100
AcDbEntity
  8
0
  6
Continuous
 62
     7
100
AcDbLine
 10
-106.9250015261689
 20
-61.00000011918917
 30
0.0
 11
-107.1500015261689
 21
-61.00000011918917
 31
0.0
  0
LINE
  5
16D
330
5C
100
AcDbEntity
  8
0
  6
Continuous
 62
     7
100
AcDbLine
 10
-105.5500015261689
 20
-61.00000011918917
 30
0.0
 11
-105.7750015261689
 21
-61.00000011918917
 31
0.0
  0
LINE
  5
16E
330
5C
100
AcDbEntity
  8
0
  6
Continuous
 62
     7
100
AcDbLine
 10
-105.7750015261689
 20
-61.00000011918917
 30
0.0
 11
-106.9250015261689
 21
-61.00000011918917
 31
0.0
  0
LINE
  5
16F
330
5C
100
AcDbEntity
  8
0
  6
Continuous
 62
     7
100
AcDbLine
 10
-107.1500015261689
 20
-61.00000011918917
 30
0.0
 11
-111.7000015261689
 21
-61.00000011918917
 31
0.0
  0
LINE
  5
170
330
5C
100
AcDbEntity
  8
0
  6
Continuous
 62
     7
100
AcDbLine
 10
-107.1500015261689
 20
-62.00000011918917
 30
0.0
 11
-107.1500015261689
 21
-61.00000011918917
 31
0.0
  0
LINE
  5
171
330
5C
100
AcDbEntity
  8
0
  6
Continuous
 62
     7
100
AcDbLine
 10
-107.1500015261689
 20
-62.00000011918917
 30
0.0
 11
-105.5500015261689
 21
-62.00000011918917
 31
0.0
  0
LINE
  5
172
330
5C
100
AcDbEntity
  8
0
  6
Continuous
 62
     7
100
AcDbLine
 10
-101.0000015261689
 20
-61.00000011918917
 30
0.0
 11
-105.5500015261689
 21
-61.00000011918917
 31
0.0
  0
LINE
  5
173
330
5C
100
AcDbEntity
  8
0
  6
Continuous
 62
     7
100
AcDbLine
 10
-105.687776145715
 20
-60.00311584517219
 30
0.0
 11
-105.7750015261689
 21
-61.00000011918917
 31
0.0
  0
LINE
  5
174
330
5C
100
AcDbEntity
  8
0
  6
Continuous
 62
     7
100
AcDbLine
 10
-107.0122269066228
 20
-60.00311584517219
 30
0.0
 11
-106.9250015261689
 21
-61.00000011918917
 31
0.0
  0
LINE
  5
175
330
5C
100
AcDbEntity
  8
0
  6
Continuous
 62
     7
100
AcDbLine
 10
-101.7750015261689
 20
-69.70000011918917
 30
0.0
 11
-101.0000015261689
 21
-69.70000011918917
 31
0.0
  0
LINE
  5
176
330
5C
100
AcDbEntity
  8
0
  6
Continuous
 62
     7
100
AcDbLine
 10
-111.7000015261689
 20
-69.70000011918917
 30
0.0
 11
-110.9250015261689
 21
-69.70000011918917
 31
0.0
  0
LINE
  5
177
330
5C
100
AcDbEntity
  8
0
  6
Continuous
 62
     7
100
AcDbLine
 10
-110.9250015261689
 20
-69.70000011918917
 30
0.0
 11
-107.9250015261689
 21
-69.70000011918917
 31
0.0
  0
LINE
  5
178
330
5C
100
AcDbEntity
  8
0
  6
Continuous
 62
     7
100
AcDbLine
 10
-104.7750015261689
 20
-69.70000011918917
 30
0.0
 11
-101.7750015261689
 21
-69.70000011918917
 31
0.0
  0
LINE
  5
179
330
5C
100
AcDbEntity
  8
0
  6
Continuous
 62
     7
100
AcDbLine
 10
-100.9844622333123
 20
-59.0000001191852
 30
0.0
 11
-100.9846635378077
 21
-59.00000011918517
 31
0.0
  0
LINE
  5
17A
330
5C
100
AcDbEntity
  8
0
  6
Continuous
 62
     7
100
AcDbLine
 10
-100.8954200463439
 20
-60.00311584517219
 30
0.0
 11
-100.895613817548
 21
-60.00311584517219
 31
0.0
  0
LINE
  5
17B
330
5C
100
AcDbEntity
  8
0
  6
Continuous
 62
     7
100
AcDbLine
 10
-100.8622269066228
 20
-60.00311584517219
 30
0.0
 11
-100.8954200463439
 21
-60.00311584517219
 31
0.0
  0
LINE
  5
17C
330
5C
100
AcDbEntity
  8
0
  6
Continuous
 62
     7
100
AcDbLine
 10
-101.7750015261689
 20
-69.70000011918917
 30
0.0
 11
-101.7750015261689
 21
-74.20000012420135
 31
0.0
  0
LINE
  5
17D
330
5C
100
AcDbEntity
  8
0
  6
Continuous
 62
     7
100
AcDbLine
 10
-100.7750015261689
 20
-61.00000011918917
 30
0.0
 11
-101.0000015261689
 21
-61.00000011918917
 31
0.0
  0
LINE
  5
17E
330
5C
100
AcDbEntity
  8
0
  6
Continuous
 62
     7
100
AcDbLine
 10
-100.8622269066228
 20
-60.00311584517219
 30
0.0
 11
-100.7750015261689
 21
-61.00000011918917
 31
0.0
  0
LINE
  5
17F
330
5C
100
AcDbEntity
  8
0
  6
Continuous
 62
     7
100
AcDbLine
 10
-107.9250015261689
 20
-69.70000011918917
 30
0.0
 11
-107.9250015261689
 21
-74.20000012420135
 31
0.0
  0
LINE
  5
180
330
5C
100
AcDbEntity
  8
0
  6
Continuous
 62
     7
100
AcDbLine
 10
-113.3000015261689
 20
-62.00000011918917
 30
0.0
 11
-111.7000015261689
 21
-62.00000011918917
 31
0.0
  0
LINE
  5
181
330
5C
100
AcDbEntity
  8
0
  6
Continuous
 62
     7
100
AcDbLine
 10
-113.3000015261689
 20
-69.70000011918917
 30
0.0
 11
-113.3000015261689
 21
-62.00000011918917
 31
0.0
  0
LINE
  5
182
330
5C
100
AcDbEntity
  8
0
  6
Continuous
 62
     7
100
AcDbLine
 10
-124.0000015261689
 20
-69.70000011918917
 30
0.0
 11
-119.4500015261689
 21
-69.70000011918917
 31
0.0
  0
LINE
  5
183
330
5C
100
AcDbEntity
  8
0
  6
Continuous
 62
     7
100
AcDbLine
 10
-114.0750015261689
 20
-69.70000011918917
 30
0.0
 11
-113.3000015261689
 21
-69.70000011918917
 31
0.0
  0
LINE
  5
184
330
5C
100
AcDbEntity
  8
0
  6
Continuous
 62
     7
100
AcDbLine
 10
-117.0750015261689
 20
-69.70000011918917
 30
0.0
 11
-117.0750015261689
 21
-74.20000012420135
 31
0.0
  0
LINE
  5
185
330
5C
100
AcDbEntity
  8
0
  6
Continuous
 62
     7
100
AcDbLine
 10
-117.8500015261689
 20
-62.00000011918917
 30
0.0
 11
-117.8500015261689
 21
-69.70000011918917
 31
0.0
  0
LINE
  5
186
330
5C
100
AcDbEntity
  8
0
  6
Continuous
 62
     7
100
AcDbLine
 10
-123.2250015261689
 20
-69.70000011918917
 30
0.0
 11
-123.2250015261689
 21
-74.20000012420135
 31
0.0
  0
LINE
  5
187
330
5C
100
AcDbEntity
  8
0
  6
Continuous
 62
     7
100
AcDbLine
 10
-119.4500015261689
 20
-62.00000011918917
 30
0.0
 11
-117.8500015261689
 21
-62.00000011918917
 31
0.0
  0
LINE
  5
188
330
5C
100
AcDbEntity
  8
0
  6
Continuous
 62
     7
100
AcDbLine
 10
-117.8500015261689
 20
-69.70000011918917
 30
0.0
 11
-117.0750015261689
 21
-69.70000011918917
 31
0.0
  0
LINE
  5
189
330
5C
100
AcDbEntity
  8
0
  6
Continuous
 62
     7
100
AcDbLine
 10
-117.0750015261689
 20
-69.70000011918917
 30
0.0
 11
-114.0750015261689
 21
-69.70000011918917
 31
0.0
  0
LINE
  5
18A
330
5C
100
AcDbEntity
  8
0
  6
Continuous
 62
     7
100
AcDbLine
 10
-120.2250015261689
 20
-69.70000011918917
 30
0.0
 11
-120.2250015261689
 21
-74.20000012420135
 31
0.0
  0
LINE
  5
18B
330
5C
100
AcDbEntity
  8
0
  6
Continuous
 62
     7
100
AcDbLine
 10
-114.0750015261689
 20
-69.70000011918917
 30
0.0
 11
-114.0750015261689
 21
-74.20000012420135
 31
0.0
  0
LINE
  5
18C
330
5C
100
AcDbEntity
  8
0
  6
Continuous
 62
     7
100
AcDbLine
 10
-110.9250015261689
 20
-69.70000011918917
 30
0.0
 11
-110.9250015261689
 21
-74.20000012420135
 31
0.0
  0
LINE
  5
18D
330
5C
100
AcDbEntity
  8
0
  6
Continuous
 62
     7
100
AcDbLine
 10
-119.4500015261689
 20
-69.70000011918917
 30
0.0
 11
-119.4500015261689
 21
-62.00000011918917
 31
0.0
  0
LINE
  5
18E
330
5C
100
AcDbEntity
  8
0
  6
Continuous
 62
     7
100
AcDbLine
 10
-113.3000015261689
 20
-62.00000011918917
 30
0.0
 11
-113.3000015261689
 21
-61.00000011918917
 31
0.0
  0
LINE
  5
18F
330
5C
100
AcDbEntity
  8
0
  6
Continuous
 62
     7
100
AcDbLine
 10
-117.8500015261689
 20
-61.00000011918917
 30
0.0
 11
-117.8500015261689
 21
-62.00000011918917
 31
0.0
  0
LINE
  5
190
330
5C
100
AcDbEntity
  8
0
  6
Continuous
 62
     7
100
AcDbLine
 10
-113.0750015261689
 20
-61.00000011918917
 30
0.0
 11
-113.3000015261689
 21
-61.00000011918917
 31
0.0
  0
LINE
  5
191
330
5C
100
AcDbEntity
  8
0
  6
Continuous
 62
     7
100
AcDbLine
 10
-111.7000015261689
 20
-61.00000011918917
 30
0.0
 11
-111.9250015261689
 21
-61.00000011918917
 31
0.0
  0
LINE
  5
192
330
5C
100
AcDbEntity
  8
0
  6
Continuous
 62
     7
100
AcDbLine
 10
-111.9250015261689
 20
-61.00000011918917
 30
0.0
 11
-113.0750015261689
 21
-61.00000011918917
 31
0.0
  0
LINE
  5
193
330
5C
100
AcDbEntity
  8
0
  6
Continuous
 62
     7
100
AcDbLine
 10
-117.8500015261689
 20
-61.00000011918917
 30
0.0
 11
-113.3000015261689
 21
-61.00000011918917
 31
0.0
  0
LINE
  5
194
330
5C
100
AcDbEntity
  8
0
  6
Continuous
 62
     7
100
AcDbLine
 10
-119.4500015261689
 20
-62.00000011918917
 30
0.0
 11
-119.4500015261689
 21
-61.00000011918917
 31
0.0
  0
LINE
  5
195
330
5C
100
AcDbEntity
  8
0
  6
Continuous
 62
     7
100
AcDbLine
 10
-124.0000015261689
 20
-61.00000011918917
 30
0.0
 11
-124.0000015261689
 21
-69.70000011918917
 31
0.0
  0
LINE
  5
196
330
5C
100
AcDbEntity
  8
0
  6
Continuous
 62
     7
100
AcDbLine
 10
-119.2250015261689
 20
-61.00000011918917
 30
0.0
 11
-119.4500015261689
 21
-61.00000011918917
 31
0.0
  0
LINE
  5
197
330
5C
100
AcDbEntity
  8
0
  6
Continuous
 62
     7
100
AcDbLine
 10
-117.8500015261689
 20
-61.00000011918917
 30
0.0
 11
-118.0750015261689
 21
-61.00000011918917
 31
0.0
  0
LINE
  5
198
330
5C
100
AcDbEntity
  8
0
  6
Continuous
 62
     7
100
AcDbLine
 10
-118.0750015261689
 20
-61.00000011918917
 30
0.0
 11
-119.2250015261689
 21
-61.00000011918917
 31
0.0
  0
LINE
  5
199
330
5C
100
AcDbEntity
  8
0
  6
Continuous
 62
     7
100
AcDbLine
 10
-124.0000015261689
 20
-61.00000011918917
 30
0.0
 11
-119.4500015261689
 21
-61.00000011918917
 31
0.0
  0
LINE
  5
19A
330
5C
100
AcDbEntity
  8
0
  6
Continuous
 62
     7
100
AcDbLine
 10
-111.7000015261689
 20
-62.00000011918917
 30
0.0
 11
-111.7000015261689
 21
-61.00000011918917
 31
0.0
  0
LINE
  5
19B
330
5C
100
AcDbEntity
  8
0
  6
Continuous
 62
     7
100
AcDbLine
 10
-111.7000015261689
 20
-69.70000011918917
 30
0.0
 11
-111.7000015261689
 21
-62.00000011918917
 31
0.0
  0
LINE
  5
19C
330
5C
100
AcDbEntity
  8
0
  6
Continuous
 62
     7
100
AcDbLine
 10
-101.7750015261689
 20
-74.20000012420135
 30
0.0
 11
-104.7750015261689
 21
-74.20000012420135
 31
0.0
  0
LINE
  5
19D
330
5C
100
AcDbEntity
  8
0
  6
Continuous
 62
     7
100
AcDbLine
 10
-105.5500015261689
 20
-69.70000011918917
 30
0.0
 11
-104.7750015261689
 21
-69.70000011918917
 31
0.0
  0
LINE
  5
19E
330
5C
100
AcDbEntity
  8
0
  6
Continuous
 62
     7
100
AcDbLine
 10
-104.7750015261689
 20
-69.70000011918917
 30
0.0
 11
-104.7750015261689
 21
-74.20000012420135
 31
0.0
  0
LINE
  5
19F
330
5C
100
AcDbEntity
  8
0
  6
Continuous
 62
     7
100
AcDbLine
 10
-105.5500015261689
 20
-69.70000011918917
 30
0.0
 11
-105.5500015261689
 21
-62.00000011918917
 31
0.0
  0
LINE
  5
1A0
330
5C
100
AcDbEntity
  8
0
  6
Continuous
 62
     7
100
AcDbLine
 10
-120.2250015261689
 20
-74.20000012420135
 30
0.0
 11
-123.2250015261689
 21
-74.20000012420135
 31
0.0
  0
LINE
  5
1A1
330
5C
100
AcDbEntity
  8
0
  6
Continuous
 62
     7
100
AcDbLine
 10
-107.9250015261689
 20
-74.20000012420135
 30
0.0
 11
-110.9250015261689
 21
-74.20000012420135
 31
0.0
  0
LINE
  5
1A2
330
5C
100
AcDbEntity
  8
0
  6
Continuous
 62
     7
100
AcDbLine
 10
-114.0750015261689
 20
-74.20000012420135
 30
0.0
 11
-117.0750015261689
 21
-74.20000012420135
 31
0.0
  0
LINE
  5
1A3
330
5C
100
AcDbEntity
  8
0
  6
Continuous
 62
     7
100
AcDbLine
 10
-107.9250015261689
 20
-69.70000011918917
 30
0.0
 11
-107.1500015261689
 21
-69.70000011918917
 31
0.0
  0
LINE
  5
1A4
330
5C
100
AcDbEntity
  8
0
  6
Continuous
 62
     7
100
AcDbLine
 10
-107.1500015261689
 20
-69.70000011918917
 30
0.0
 11
-107.1500015261689
 21
-62.00000011918917
 31
0.0
  0
LINE
  5
1A5
330
5C
100
AcDbEntity
  8
1
  6
DOT_CENTER
 62
     2
100
AcDbLine
 10
-103.2750015261689
 20
-69.70000011918917
 30
0.0
 11
-103.2750015261689
 21
-74.20000012420135
 31
0.0
  0
LINE
  5
1A6
330
5C
100
AcDbEntity
  8
1
  6
DOT_CENTER
 62
     2
100
AcDbLine
 10
-115.5750015261689
 20
-69.70000011918917
 30
0.0
 11
-115.5750015261689
 21
-74.20000012420135
 31
0.0
  0
LINE
  5
1A7
330
5C
100
AcDbEntity
  8
1
  6
DOT_CENTER
 62
     2
100
AcDbLine
 10
-109.4250015261689
 20
-69.70000011918917
 30
0.0
 11
-109.4250015261689
 21
-74.20000012420135
 31
0.0
  0
LINE
  5
1A8
330
5C
100
AcDbEntity
  8
1
  6
DOT_CENTER
 62
     2
100
AcDbLine
 10
-121.7250015261689
 20
-69.70000011918917
 30
0.0
 11
-121.7250015261689
 21
-74.20000012420135
 31
0.0
  0
LINE
  5
1A9
330
5C
100
AcDbEntity
  8
1
  6
DOT_CENTER
 62
     2
100
AcDbLine
 10
-115.5750015261689
 20
-60.00311584517219
 30
0.0
 11
-115.5750015261689
 21
-61.00000011918917
 31
0.0
  0
LINE
  5
1AA
330
5C
100
AcDbEntity
  8
1
  6
DOT_CENTER
 62
     2
100
AcDbLine
 10
-103.2750015261689
 20
-60.00311584517218
 30
0.0
 11
-103.2750015261689
 21
-61.00000011918918
 31
0.0
  0
LINE
  5
1AB
330
5C
100
AcDbEntity
  8
1
  6
DOT_CENTER
 62
     2
100
AcDbLine
 10
-109.4250015261689
 20
-60.00311584517219
 30
0.0
 11
-109.4250015261689
 21
-61.00000011918917
 31
0.0
  0
LINE
  5
1AC
330
5C
100
AcDbEntity
  8
1
  6
DOT_CENTER
 62
     2
100
AcDbLine
 10
-121.7250015261689
 20
-60.00311584517219
 30
0.0
 11
-121.7250015261689
 21
-61.00000011918917
 31
0.0
  0
SPLINE
  5
1AD
330
5C
100
AcDbEntity
  8
0
  6
Continuous
 62
     7
100
AcDbSpline
210
0.0
220
0.0
230
1.0
 70
     8
 71
     3
 72
    11
 73
     7
 74
     5
 42
0.000000001
 43
0.0000000001
 44
0.00000001
 40
0.0
 40
0.0
 40
0.0
 40
0.0
 40
0.2527887823667014
 40
0.5035299568966984
 40
0.7562717941766249
 40
1.007059914553194
 40
1.007059914553194
 40
1.007059914553194
 40
1.007059914553194
 10
-107.0454200463439
 20
-60.00311584517219
 30
0.0
 10
-107.0528670214032
 20
-59.91918263656817
 30
0.0
 10
-107.0677006653768
 20
-59.75199608588102
 30
0.0
 10
-107.0899873182995
 20
-59.50089257187624
 30
0.0
 10
-107.1122201344875
 20
-59.25045378850244
 30
0.0
 10
-107.1270673980618
 20
-59.08326844651966
 30
0.0
 10
-107.1344622333123
 20
-59.0000001191852
 30
0.0
 11
-107.0454200463439
 21
-60.00311584517219
 31
0.0
 11
-107.0677622198774
 21
-59.75131633013634
 31
0.0
 11
-107.089929198396
 21
-59.50155692256946
 31
0.0
 11
-107.1122790392567
 21
-59.24980521765913
 31
0.0
 11
-107.1344622333123
 21
-59.0000001191852
 31
0.0
  0
SPLINE
  5
1AE
330
5C
100
AcDbEntity
  8
0
  6
Continuous
 62
     7
100
AcDbSpline
210
0.0
220
0.0
230
1.0
 70
     8
 71
     3
 72
    11
 73
     7
 74
     5
 42
0.000000001
 43
0.0000000001
 44
0.00000001
 40
0.0
 40
0.0
 40
0.0
 40
0.0
 40
0.2531387804797915
 40
0.5035302887672972
 40
0.7562193249580821
 40
1.00706058066835
 40
1.00706058066835
 40
1.00706058066835
 40
1.00706058066835
 10
-111.8043892347898
 20
-60.00311584517219
 30
0.0
 10
-111.7969313426028
 20
-59.91906648085008
 30
0.0
 10
-111.7820964825756
 20
-59.75187992700359
 30
0.0
 10
-111.759809517192
 20
-59.5007939992293
 30
0.0
 10
-111.7375851186788
 20
-59.2504713705304
 30
0.0
 10
-111.7227365578735
 20
-59.08328603190264
 30
0.0
 10
-111.7153395145296
 20
-59.00000011918063
 30
0.0
 11
-111.8043892347898
 21
-60.00311584517219
 31
0.0
 11
-111.7820142985032
 21
-59.75096786400039
 31
0.0
 11
-111.7598763884546
 21
-59.50155691724525
 31
0.0
 11
-111.7375293242972
 21
-59.24985797458815
 31
0.0
 11
-111.7153395145296
 21
-59.00000011918063
 31
0.0
  0
SPLINE
  5
1AF
330
5C
100
AcDbEntity
  8
0
  6
Continuous
 62
     7
100
AcDbSpline
210
0.0
220
0.0
230
1.0
 70
     8
 71
     3
 72
    11
 73
     7
 74
     5
 42
0.000000001
 43
0.0000000001
 44
0.00000001
 40
0.0
 40
0.0
 40
0.0
 40
0.0
 40
0.250727935891621
 40
0.5035299588312553
 40
0.7543050969420737
 40
1.007059914557717
 40
1.007059914557717
 40
1.007059914557717
 40
1.007059914557717
 10
-111.7155408190251
 20
-59.00000011918071
 30
0.0
 10
-111.7229338797764
 20
-59.08324846365418
 30
0.0
 10
-111.7377811436313
 20
-59.25043380600518
 30
0.0
 10
-111.7600149616543
 20
-59.50088386655137
 30
0.0
 10
-111.7823033877555
 20
-59.75200736353597
 30
0.0
 10
-111.7971370315732
 20
-59.91919391384531
 30
0.0
 10
-111.8045830059939
 20
-60.0031158451722
 30
0.0
 11
-111.7155408190251
 21
-59.00000011918071
 31
0.0
 11
-111.737718690265
 21
-59.2497452690111
 31
0.0
 11
-111.7600738540452
 21
-59.50155692373514
 31
0.0
 11
-111.7822438347484
 21
-59.75135016193473
 31
0.0
 11
-111.8045830059939
 21
-60.0031158451722
 31
0.0
  0
SPLINE
  5
1B0
330
5C
100
AcDbEntity
  8
0
  6
Continuous
 62
     7
100
AcDbSpline
210
0.0
220
0.0
230
1.0
 70
     8
 71
     3
 72
    11
 73
     7
 74
     5
 42
0.000000001
 43
0.0000000001
 44
0.00000001
 40
0.0
 40
0.0
 40
0.0
 40
0.0
 40
0.2502383369797145
 40
0.5035302907118289
 40
0.7539643362689603
 40
1.007060580663791
 40
1.007060580663791
 40
1.007060580663791
 40
1.007060580663791
 10
-107.1346635378077
 20
-59.00000011918517
 30
0.0
 10
-107.1272842726496
 20
-59.0830858468759
 30
0.0
 10
-107.1124357093876
 20
-59.25027118488747
 30
0.0
 10
-107.0902100500815
 20
-59.50060793611446
 30
0.0
 10
-107.0679053164153
 20
-59.75189404979777
 30
0.0
 10
-107.0530704564838
 20
-59.91908060404921
 30
0.0
 10
-107.045613817548
 20
-60.00311584517219
 30
0.0
 11
-107.1346635378077
 21
-59.00000011918517
 31
0.0
 11
-107.1125270557473
 21
-59.24925741889056
 31
0.0
 11
-107.090126663988
 21
-59.50155691606523
 31
0.0
 11
-107.0679849935792
 21
-59.75101023355317
 31
0.0
 11
-107.045613817548
 21
-60.00311584517219
 31
0.0
  0
SPLINE
  5
1B1
330
5C
100
AcDbEntity
  8
0
  6
Continuous
 62
     7
100
AcDbSpline
210
0.0
220
0.0
230
1.0
 70
     8
 71
     3
 72
    11
 73
     7
 74
     5
 42
0.000000001
 43
0.0000000001
 44
0.00000001
 40
0.0
 40
0.0
 40
0.0
 40
0.0
 40
0.2527889005687129
 40
0.5035299568966984
 40
0.7562717590979695
 40
1.007059914553194
 40
1.007059914553194
 40
1.007059914553194
 40
1.007059914553194
 10
-113.1954200463439
 20
-60.00311584517219
 30
0.0
 10
-113.2028670248856
 20
-59.91918259732168
 30
0.0
 10
-113.2177006688598
 20
-59.75199604663461
 30
0.0
 10
-113.2399873207499
 20
-59.50089254427699
 30
0.0
 10
-113.2622201334534
 20
-59.25045380014954
 30
0.0
 10
-113.2770673970274
 20
-59.0832684581667
 30
0.0
 10
-113.2844622333123
 20
-59.0000001191852
 30
0.0
 11
-113.1954200463439
 21
-60.00311584517219
 31
0.0
 11
-113.2177622303259
 21
-59.75131621239703
 31
0.0
 11
-113.239929198396
 21
-59.50155692256946
 31
0.0
 11
-113.2622790361543
 21
-59.24980525260032
 31
0.0
 11
-113.2844622333123
 21
-59.0000001191852
 31
0.0
  0
SPLINE
  5
1B2
330
5C
100
AcDbEntity
  8
0
  6
Continuous
 62
     7
100
AcDbSpline
210
0.0
220
0.0
230
1.0
 70
     8
 71
     3
 72
    11
 73
     7
 74
     5
 42
0.000000001
 43
0.0000000001
 44
0.00000001
 40
0.0
 40
0.0
 40
0.0
 40
0.0
 40
0.2531401958399898
 40
0.5035302887672972
 40
0.7566489159209187
 40
1.007060580668351
 40
1.007060580668351
 40
1.007060580668351
 40
1.007060580668351
 10
-117.9543892347898
 20
-60.00311584517219
 30
0.0
 10
-117.9469313008925
 20
-59.91906601091078
 30
0.0
 10
-117.9320964408419
 20
-59.75187945706634
 30
0.0
 10
-117.9097968148591
 20
-59.50065089308873
 30
0.0
 10
-117.887572453164
 20
-59.25032873476347
 30
0.0
 10
-117.8727238905821
 20
-59.08314339629349
 30
0.0
 10
-117.8653395145296
 20
-59.00000011918063
 30
0.0
 11
-117.9543892347898
 21
-60.00311584517219
 31
0.0
 11
-117.9320141733831
 21
-59.75096645418144
 31
0.0
 11
-117.9098763884546
 21
-59.50155691724525
 31
0.0
 11
-117.8874913273041
 21
-59.2494300673273
 31
0.0
 11
-117.8653395145296
 21
-59.00000011918063
 31
0.0
  0
SPLINE
  5
1B3
330
5C
100
AcDbEntity
  8
0
  6
Continuous
 62
     7
100
AcDbSpline
210
0.0
220
0.0
230
1.0
 70
     8
 71
     3
 72
    11
 73
     7
 74
     5
 42
0.000000001
 43
0.0000000001
 44
0.00000001
 40
0.0
 40
0.0
 40
0.0
 40
0.0
 40
0.2507312989874082
 40
0.5035299588312541
 40
0.7537154425440837
 40
1.007059914557717
 40
1.007059914557717
 40
1.007059914557717
 40
1.007059914557717
 10
-117.8655408190251
 20
-59.00000011918071
 30
0.0
 10
-117.8729339789467
 20
-59.083249580291
 30
0.0
 10
-117.8877812428121
 20
-59.2504349226411
 30
0.0
 10
-117.9099976800249
 20
-59.50068920171159
 30
0.0
 10
-117.9322860137177
 20
-59.75181158145906
 30
0.0
 10
-117.9471196596868
 20
-59.91899813157757
 30
0.0
 10
-117.9545830059939
 20
-60.0031158451722
 30
0.0
 11
-117.8655408190251
 21
-59.00000011918071
 31
0.0
 11
-117.8877189877027
 21
-59.24974861892812
 31
0.0
 11
-117.9100738540452
 21
-59.50155692373514
 31
0.0
 11
-117.9321917126859
 21
-59.75076281569977
 31
0.0
 11
-117.9545830059939
 21
-60.0031158451722
 31
0.0
  0
SPLINE
  5
1B4
330
5C
100
AcDbEntity
  8
0
  6
Continuous
 62
     7
100
AcDbSpline
210
0.0
220
0.0
230
1.0
 70
     8
 71
     3
 72
    11
 73
     7
 74
     5
 42
0.000000001
 43
0.0000000001
 44
0.00000001
 40
0.0
 40
0.0
 40
0.0
 40
0.0
 40
0.2502380957796044
 40
0.5035302907118389
 40
0.7543926136878942
 40
1.0070605806638
 40
1.0070605806638
 40
1.0070605806638
 40
1.0070605806638
 10
-113.2846635378078
 20
-59.00000011918517
 30
0.0
 10
-113.2772842797705
 20
-59.08308576679178
 30
0.0
 10
-113.2624357165252
 20
-59.25027110480487
 30
0.0
 10
-113.2401974321525
 20
-59.50075005581967
 30
0.0
 10
-113.2178926962761
 20
-59.75203625002302
 30
0.0
 10
-113.2030578379171
 20
-59.91922280441393
 30
0.0
 10
-113.195613817548
 20
-60.00311584517219
 30
0.0
 11
-113.2846635378078
 21
-59.00000011918517
 31
0.0
 11
-113.2625270770812
 21
-59.24925717863578
 31
0.0
 11
-113.240126663988
 21
-59.50155691606523
 31
0.0
 11
-113.2179471332042
 21
-59.75143683423249
 31
0.0
 11
-113.195613817548
 21
-60.00311584517219
 31
0.0
  0
SPLINE
  5
1B5
330
5C
100
AcDbEntity
  8
0
  6
Continuous
 62
     7
100
AcDbSpline
210
0.0
220
0.0
230
1.0
 70
     8
 71
     3
 72
    11
 73
     7
 74
     5
 42
0.000000001
 43
0.0000000001
 44
0.00000001
 40
0.0
 40
0.0
 40
0.0
 40
0.0
 40
0.253273496706826
 40
0.503529956896708
 40
0.7562717941766257
 40
1.007059914553194
 40
1.007059914553194
 40
1.007059914553194
 40
1.007059914553194
 10
-119.3454200463439
 20
-60.00311584517219
 30
0.0
 10
-119.3528813016367
 20
-59.91902169742644
 30
0.0
 10
-119.3677149473789
 20
-59.75183514689618
 30
0.0
 10
-119.3900016058074
 20
-59.50073163338017
 30
0.0
 10
-119.4122201344578
 20
-59.25045378849981
 30
0.0
 10
-119.427067398052
 20
-59.08326844651879
 30
0.0
 10
-119.4344622333123
 20
-59.0000001191852
 30
0.0
 11
-119.3454200463439
 21
-60.00311584517219
 31
0.0
 11
-119.3678050658407
 21
-59.75083351317829
 31
0.0
 11
-119.3899291983961
 21
-59.50155692256946
 31
0.0
 11
-119.4122790392567
 21
-59.24980521765913
 31
0.0
 11
-119.4344622333123
 21
-59.0000001191852
 31
0.0
  0
SPLINE
  5
1B6
330
5C
100
AcDbEntity
  8
0
  6
Continuous
 62
     7
100
AcDbSpline
210
0.0
220
0.0
230
1.0
 70
     8
 71
     3
 72
    11
 73
     7
 74
     5
 42
0.000000001
 43
0.0000000001
 44
0.00000001
 40
0.0
 40
0.0
 40
0.0
 40
0.0
 40
0.2531402868395783
 40
0.5035302887672984
 40
0.7562244728510181
 40
1.007060580668351
 40
1.007060580668351
 40
1.007060580668351
 40
1.007060580668351
 10
-124.1043892347898
 20
-60.00311584517219
 30
0.0
 10
-124.0969312982201
 20
-59.91906598069554
 30
0.0
 10
-124.0820964381872
 20
-59.75187942684956
 30
0.0
 10
-124.0598093210713
 20
-59.50079178983243
 30
0.0
 10
-124.037584966905
 20
-59.25046966129136
 30
0.0
 10
-124.0227364060783
 20
-59.08328432266546
 30
0.0
 10
-124.0153395145296
 20
-59.00000011918063
 30
0.0
 11
-124.1043892347898
 21
-60.00311584517219
 31
0.0
 11
-124.0820141653386
 21
-59.75096636353812
 31
0.0
 11
-124.0598763884546
 21
-59.50155691724525
 31
0.0
 11
-124.0375288689701
 21
-59.24985284687142
 31
0.0
 11
-124.0153395145296
 21
-59.00000011918063
 31
0.0
  0
SPLINE
  5
1B7
330
5C
100
AcDbEntity
  8
0
  6
Continuous
 62
     7
100
AcDbSpline
210
0.0
220
0.0
230
1.0
 70
     8
 71
     3
 72
    11
 73
     7
 74
     5
 42
0.000000001
 43
0.0000000001
 44
0.00000001
 40
0.0
 40
0.0
 40
0.0
 40
0.0
 40
0.2502037522854273
 40
0.5035299588312545
 40
0.7537098702306371
 40
1.007059914557717
 40
1.007059914557717
 40
1.007059914557717
 40
1.007059914557717
 10
-124.0155408190251
 20
-59.00000011918071
 30
0.0
 10
-124.0229184245888
 20
-59.08307442065575
 30
0.0
 10
-124.037765690623
 20
-59.25025976281314
 30
0.0
 10
-124.0599819695718
 20
-59.50051219119103
 30
0.0
 10
-124.0822858494976
 20
-59.751809731295
 30
0.0
 10
-124.0971194955093
 20
-59.91899628140975
 30
0.0
 10
-124.1045830059939
 20
-60.0031158451722
 30
0.0
 11
-124.0155408190251
 21
-59.00000011918071
 31
0.0
 11
-124.0376723305822
 21
-59.24922313949378
 31
0.0
 11
-124.0600738540452
 21
-59.50155692373514
 31
0.0
 11
-124.0821912201252
 21
-59.75075726519879
 31
0.0
 11
-124.1045830059939
 21
-60.0031158451722
 31
0.0
  0
SPLINE
  5
1B8
330
5C
100
AcDbEntity
  8
0
  6
Continuous
 62
     7
100
AcDbSpline
210
0.0
220
0.0
230
1.0
 70
     8
 71
     3
 72
    11
 73
     7
 74
     5
 42
0.000000001
 43
0.0000000001
 44
0.00000001
 40
0.0
 40
0.0
 40
0.0
 40
0.0
 40
0.2502383369797221
 40
0.5035302907118376
 40
0.7539643362689665
 40
1.007060580663799
 40
1.007060580663799
 40
1.007060580663799
 40
1.007060580663799
 10
-119.4346635378078
 20
-59.00000011918517
 30
0.0
 10
-119.4272842726497
 20
-59.08308584687588
 30
0.0
 10
-119.4124357093876
 20
-59.25027118488745
 30
0.0
 10
-119.3902100500815
 20
-59.50060793611446
 30
0.0
 10
-119.3679053164154
 20
-59.75189404979778
 30
0.0
 10
-119.3530704564839
 20
-59.9190806040492
 30
0.0
 10
-119.345613817548
 20
-60.00311584517219
 30
0.0
 11
-119.4346635378078
 21
-59.00000011918517
 31
0.0
 11
-119.4125270557473
 21
-59.24925741889056
 31
0.0
 11
-119.390126663988
 21
-59.50155691606523
 31
0.0
 11
-119.3679849935792
 21
-59.75101023355317
 31
0.0
 11
-119.345613817548
 21
-60.00311584517219
 31
0.0
  0
SPLINE
  5
1B9
330
5C
100
AcDbEntity
  8
0
  6
Continuous
 62
     7
100
AcDbSpline
210
0.0
220
0.0
230
1.0
 70
     8
 71
     3
 72
    11
 73
     7
 74
     5
 42
0.000000001
 43
0.0000000001
 44
0.00000001
 40
0.0
 40
0.0
 40
0.0
 40
0.0
 40
0.2534826772413687
 40
0.5035299568966995
 40
0.7560187322846159
 40
1.007059914553194
 40
1.007059914553194
 40
1.007059914553194
 40
1.007059914553194
 10
-100.8954200463439
 20
-60.00311584517219
 30
0.0
 10
-100.9028874643278
 20
-59.91895224345513
 30
0.0
 10
-100.9177211108225
 20
-59.75176569299164
 30
0.0
 10
-100.9400003141941
 20
-59.50074620336137
 30
0.0
 10
-100.9622126741275
 20
-59.25053781191751
 30
0.0
 10
-100.9770599366906
 20
-59.08335246984491
 30
0.0
 10
-100.9844622333123
 20
-59.0000001191852
 30
0.0
 11
-100.8954200463439
 21
-60.00311584517219
 31
0.0
 11
-100.917823556205
 21
-59.75062515146763
 31
0.0
 11
-100.939929198396
 21
-59.50155692256946
 31
0.0
 11
-100.9622566580469
 21
-59.25005728789269
 31
0.0
 11
-100.9844622333123
 21
-59.0000001191852
 31
0.0
  0
SPLINE
  5
1BA
330
5C
100
AcDbEntity
  8
0
  6
Continuous
 62
     7
100
AcDbSpline
210
0.0
220
0.0
230
1.0
 70
     8
 71
     3
 72
    11
 73
     7
 74
     5
 42
0.000000001
 43
0.0000000001
 44
0.00000001
 40
0.0
 40
0.0
 40
0.0
 40
0.0
 40
0.2502285688358348
 40
0.5035302907118301
 40
0.7538475431176761
 40
1.007060580663792
 40
1.007060580663792
 40
1.007060580663792
 40
1.007060580663792
 10
-100.9846635378077
 20
-59.00000011918517
 30
0.0
 10
-100.9772845606793
 20
-59.08308260359249
 30
0.0
 10
-100.962435997372
 20
-59.25026794160003
 30
0.0
 10
-100.9402137808652
 20
-59.50056591430438
 30
0.0
 10
-100.9179087579842
 20
-59.75185527116588
 30
0.0
 10
-100.9030738976236
 20
-59.91904182537923
 30
0.0
 10
-100.895613817548
 20
-60.00311584517219
 30
0.0
 11
-100.9846635378077
 21
-59.00000011918517
 31
0.0
 11
-100.9625279197325
 21
-59.24924768903114
 31
0.0
 11
-100.940126663988
 21
-59.50155691606523
 31
0.0
 11
-100.9179953182742
 21
-59.75089389765647
 31
0.0
 11
-100.895613817548
 21
-60.00311584517219
 31
0.0
  0
SPLINE
  5
1BB
330
5C
100
AcDbEntity
  8
0
  6
Continuous
 62
     7
100
AcDbSpline
210
0.0
220
0.0
230
1.0
 70
     8
 71
     3
 72
    11
 73
     7
 74
     5
 42
0.000000001
 43
0.0000000001
 44
0.00000001
 40
0.0
 40
0.0
 40
0.0
 40
0.0
 40
0.250955586290476
 40
0.5035299588312537
 40
0.7545022176121543
 40
1.007059914557707
 40
1.007059914557707
 40
1.007059914557707
 40
1.007059914557707
 10
-105.5655408190251
 20
-59.00000011918071
 30
0.0
 10
-105.5729405918894
 20
-59.08332404968459
 30
0.0
 10
-105.5877878548005
 20
-59.25050939211943
 30
0.0
 10
-105.6100274806075
 20
-59.50102490237954
 30
0.0
 10
-105.6323091958865
 20
-59.75207281321903
 30
0.0
 10
-105.6471428389751
 20
-59.91925936359306
 30
0.0
 10
-105.6545830059938
 20
-60.0031158451722
 30
0.0
 11
-105.5655408190251
 21
-59.00000011918071
 31
0.0
 11
-105.5877388240421
 21
-59.24997202732986
 31
0.0
 11
-105.6100738540452
 21
-59.50155692373514
 31
0.0
 11
-105.6322612590765
 21
-59.75154651098965
 31
0.0
 11
-105.6545830059938
 21
-60.0031158451722
 31
0.0
  0
SPLINE
  5
1BC
330
5C
100
AcDbEntity
  8
0
  6
Continuous
 62
     7
100
AcDbSpline
210
0.0
220
0.0
230
1.0
 70
     8
 71
     3
 72
    11
 73
     7
 74
     5
 42
0.000000001
 43
0.0000000001
 44
0.00000001
 40
0.0
 40
0.0
 40
0.0
 40
0.0
 40
0.2531418257483392
 40
0.5035302887672984
 40
0.7562890576517669
 40
1.007060580668351
 40
1.007060580668351
 40
1.007060580668351
 40
1.007060580668351
 10
-105.6543892347898
 20
-60.00311584517219
 30
0.0
 10
-105.646931252877
 20
-59.91906546973387
 30
0.0
 10
-105.6320963928357
 20
-59.75187891588862
 30
0.0
 10
-105.6098073723075
 20
-59.50076983491443
 30
0.0
 10
-105.5875830627688
 20
-59.25044821739843
 30
0.0
 10
-105.5727345016751
 20
-59.0832628787963
 30
0.0
 10
-105.5653395145296
 20
-59.00000011918063
 30
0.0
 11
-105.6543892347898
 21
-60.00311584517219
 31
0.0
 11
-105.6320140292967
 21
-59.75096483065431
 31
0.0
 11
-105.6098763884546
 21
-59.50155691724525
 31
0.0
 11
-105.5875231564948
 21
-59.2497885151987
 31
0.0
 11
-105.5653395145296
 21
-59.00000011918063
 31
0.0
  0
ENDBLK
  5
5E
330
5C
100
AcDbEntity
  8
0
100
AcDbBlockEnd
  0
BLOCK
  5
61
330
5F
100
AcDbEntity
  8
0
100
AcDbBlockBegin
  2
Left1
 70
     0
 10
-112.500000000145
 20
-66.49999999998991
 30
0.0
  3
Left1
  1

  0
INSERT
  5
60
330
5F
100
AcDbEntity
  8
0
100
AcDbBlockReference
  2
FB_4-6-select__4
 10
-124.2250015261689
 20
-74.20000012420135
 30
0.0
  0
ENDBLK
  5
62
330
5F
100
AcDbEntity
  8
0
100
AcDbBlockEnd
  0
BLOCK
  5
64
330
63
100
AcDbEntity
  8
0
100
AcDbBlockBegin
  2
FB_4-6-select__5
 70
     0
 10
-199.724998473831
 20
-74.20000012420141
 30
0.0
  3
FB_4-6-select__5
  1

  0
LINE
  5
1BD
330
63
100
AcDbEntity
  8
0
  6
Continuous
 62
     7
100
AcDbLine
 10
-177.274998473831
 20
-74.20000012420141
 30
0.0
 11
-180.274998473831
 21
-74.20000012420141
 31
0.0
  0
LINE
  5
1BE
330
63
100
AcDbEntity
  8
0
  6
Continuous
 62
     7
100
AcDbLine
 10
-177.274998473831
 20
-69.70000011918923
 30
0.0
 11
-177.274998473831
 21
-74.20000012420141
 31
0.0
  0
LINE
  5
1BF
330
63
100
AcDbEntity
  8
0
  6
Continuous
 62
     7
100
AcDbLine
 10
-176.499998473831
 20
-69.70000011918923
 30
0.0
 11
-181.049998473831
 21
-69.70000011918923
 31
0.0
  0
LINE
  5
1C0
330
63
100
AcDbEntity
  8
0
  6
Continuous
 62
     7
100
AcDbLine
 10
-188.799998473831
 20
-69.70000011918923
 30
0.0
 11
-193.349998473831
 21
-69.70000011918923
 31
0.0
  0
LINE
  5
1C1
330
63
100
AcDbEntity
  8
0
  6
Continuous
 62
     7
100
AcDbLine
 10
-182.649998473831
 20
-69.70000011918923
 30
0.0
 11
-187.199998473831
 21
-69.70000011918923
 31
0.0
  0
LINE
  5
1C2
330
63
100
AcDbEntity
  8
0
  6
Continuous
 62
     7
100
AcDbLine
 10
-180.274998473831
 20
-69.70000011918923
 30
0.0
 11
-180.274998473831
 21
-74.20000012420141
 31
0.0
  0
LINE
  5
1C3
330
63
100
AcDbEntity
  8
0
  6
Continuous
 62
     7
100
AcDbLine
 10
-176.4844591809748
 20
-59.00000011918075
 30
0.0
 11
-181.0655377666876
 21
-59.00000011918526
 31
0.0
  0
LINE
  5
1C4
330
63
100
AcDbEntity
  8
0
  6
Continuous
 62
     7
100
AcDbLine
 10
-182.6344591809748
 20
-59.00000011918077
 30
0.0
 11
-187.2155377666876
 21
-59.00000011918526
 31
0.0
  0
LINE
  5
1C5
330
63
100
AcDbEntity
  8
0
  6
Continuous
 62
     7
100
AcDbLine
 10
-182.424998473831
 20
-61.00000011918922
 30
0.0
 11
-182.649998473831
 21
-61.00000011918922
 31
0.0
  0
LINE
  5
1C6
330
63
100
AcDbEntity
  8
0
  6
Continuous
 62
     7
100
AcDbLine
 10
-188.574998473831
 20
-61.00000011918922
 30
0.0
 11
-188.799998473831
 21
-61.00000011918922
 31
0.0
  0
LINE
  5
1C7
330
63
100
AcDbEntity
  8
0
  6
Continuous
 62
     7
100
AcDbLine
 10
-193.349998473831
 20
-61.00000011918922
 30
0.0
 11
-188.799998473831
 21
-61.00000011918922
 31
0.0
  0
LINE
  5
1C8
330
63
100
AcDbEntity
  8
0
  6
Continuous
 62
     7
100
AcDbLine
 10
-182.649998473831
 20
-61.00000011918922
 30
0.0
 11
-187.199998473831
 21
-61.00000011918922
 31
0.0
  0
LINE
  5
1C9
330
63
100
AcDbEntity
  8
0
  6
Continuous
 62
     7
100
AcDbLine
 10
-176.499998473831
 20
-69.70000011918923
 30
0.0
 11
-176.499998473831
 21
-61.00000011918922
 31
0.0
  0
LINE
  5
1CA
330
63
100
AcDbEntity
  8
0
  6
Continuous
 62
     7
100
AcDbLine
 10
-187.199998473831
 20
-62.00000011918922
 30
0.0
 11
-187.199998473831
 21
-69.70000011918923
 31
0.0
  0
LINE
  5
1CB
330
63
100
AcDbEntity
  8
0
  6
Continuous
 62
     7
100
AcDbLine
 10
-188.799998473831
 20
-62.00000011918922
 30
0.0
 11
-188.799998473831
 21
-69.70000011918923
 31
0.0
  0
LINE
  5
1CC
330
63
100
AcDbEntity
  8
0
  6
Continuous
 62
     7
100
AcDbLine
 10
-182.649998473831
 20
-69.70000011918923
 30
0.0
 11
-182.649998473831
 21
-62.00000011918922
 31
0.0
  0
LINE
  5
1CD
330
63
100
AcDbEntity
  8
0
  6
Continuous
 62
     7
100
AcDbLine
 10
-181.049998473831
 20
-62.00000011918922
 30
0.0
 11
-181.049998473831
 21
-69.70000011918923
 31
0.0
  0
LINE
  5
1CE
330
63
100
AcDbEntity
  8
0
  6
Continuous
 62
     7
100
AcDbLine
 10
-199.499998473831
 20
-61.00000011918922
 30
0.0
 11
-199.724998473831
 21
-61.00000011918922
 31
0.0
  0
LINE
  5
1CF
330
63
100
AcDbEntity
  8
0
  6
Continuous
 62
     7
100
AcDbLine
 10
-194.9344591809748
 20
-59.00000011918077
 30
0.0
 11
-199.5155377666876
 21
-59.00000011918526
 31
0.0
  0
LINE
  5
1D0
330
63
100
AcDbEntity
  8
0
  6
Continuous
 62
     7
100
AcDbLine
 10
-199.499998473831
 20
-61.00000011918922
 30
0.0
 11
-199.499998473831
 21
-69.70000011918923
 31
0.0
  0
LINE
  5
1D1
330
63
100
AcDbEntity
  8
0
  6
Continuous
 62
     7
100
AcDbLine
 10
-199.604579953656
 20
-60.00311584517225
 30
0.0
 11
-199.6377730933771
 21
-60.00311584517225
 31
0.0
  0
LINE
  5
1D2
330
63
100
AcDbEntity
  8
0
  6
Continuous
 62
     7
100
AcDbLine
 10
-199.6377730933771
 20
-60.00311584517225
 30
0.0
 11
-199.724998473831
 21
-61.00000011918922
 31
0.0
  0
LINE
  5
1D3
330
63
100
AcDbEntity
  8
0
  6
Continuous
 62
     7
100
AcDbLine
 10
-193.349998473831
 20
-61.00000011918922
 30
0.0
 11
-193.349998473831
 21
-62.00000011918922
 31
0.0
  0
LINE
  5
1D4
330
63
100
AcDbEntity
  8
0
  6
Continuous
 62
     7
100
AcDbLine
 10
-193.349998473831
 20
-62.00000011918922
 30
0.0
 11
-193.349998473831
 21
-69.70000011918923
 31
0.0
  0
LINE
  5
1D5
330
63
100
AcDbEntity
  8
0
  6
Continuous
 62
     7
100
AcDbLine
 10
-183.424998473831
 20
-74.20000012420141
 30
0.0
 11
-186.424998473831
 21
-74.20000012420141
 31
0.0
  0
LINE
  5
1D6
330
63
100
AcDbEntity
  8
0
  6
Continuous
 62
     7
100
AcDbLine
 10
-186.424998473831
 20
-69.70000011918923
 30
0.0
 11
-186.424998473831
 21
-74.20000012420141
 31
0.0
  0
LINE
  5
1D7
330
63
100
AcDbEntity
  8
0
  6
Continuous
 62
     7
100
AcDbLine
 10
-195.724998473831
 20
-74.20000012420141
 30
0.0
 11
-198.724998473831
 21
-74.20000012420141
 31
0.0
  0
LINE
  5
1D8
330
63
100
AcDbEntity
  8
0
  6
Continuous
 62
     7
100
AcDbLine
 10
-198.724998473831
 20
-69.70000011918923
 30
0.0
 11
-198.724998473831
 21
-74.20000012420141
 31
0.0
  0
LINE
  5
1D9
330
63
100
AcDbEntity
  8
0
  6
Continuous
 62
     7
100
AcDbLine
 10
-195.724998473831
 20
-69.70000011918923
 30
0.0
 11
-195.724998473831
 21
-74.20000012420141
 31
0.0
  0
LINE
  5
1DA
330
63
100
AcDbEntity
  8
0
  6
Continuous
 62
     7
100
AcDbLine
 10
-189.574998473831
 20
-74.20000012420141
 30
0.0
 11
-192.574998473831
 21
-74.20000012420141
 31
0.0
  0
LINE
  5
1DB
330
63
100
AcDbEntity
  8
0
  6
Continuous
 62
     7
100
AcDbLine
 10
-189.574998473831
 20
-69.70000011918923
 30
0.0
 11
-189.574998473831
 21
-74.20000012420141
 31
0.0
  0
LINE
  5
1DC
330
63
100
AcDbEntity
  8
0
  6
Continuous
 62
     7
100
AcDbLine
 10
-194.949998473831
 20
-69.70000011918923
 30
0.0
 11
-199.499998473831
 21
-69.70000011918923
 31
0.0
  0
LINE
  5
1DD
330
63
100
AcDbEntity
  8
0
  6
Continuous
 62
     7
100
AcDbLine
 10
-192.574998473831
 20
-69.70000011918923
 30
0.0
 11
-192.574998473831
 21
-74.20000012420141
 31
0.0
  0
LINE
  5
1DE
330
63
100
AcDbEntity
  8
0
  6
Continuous
 62
     7
100
AcDbLine
 10
-183.424998473831
 20
-69.70000011918923
 30
0.0
 11
-183.424998473831
 21
-74.20000012420141
 31
0.0
  0
LINE
  5
1DF
330
63
100
AcDbEntity
  8
0
  6
Continuous
 62
     7
100
AcDbLine
 10
-188.6622238542849
 20
-60.00311584517225
 30
0.0
 11
-188.6954169940061
 21
-60.00311584517225
 31
0.0
  0
LINE
  5
1E0
330
63
100
AcDbEntity
  8
0
  6
Continuous
 62
     7
100
AcDbLine
 10
-188.6622238542849
 20
-60.00311584517225
 30
0.0
 11
-188.574998473831
 21
-61.00000011918922
 31
0.0
  0
LINE
  5
1E1
330
63
100
AcDbEntity
  8
0
  6
Continuous
 62
     7
100
AcDbLine
 10
-187.304579953656
 20
-60.00311584517225
 30
0.0
 11
-187.3377730933771
 21
-60.00311584517225
 31
0.0
  0
LINE
  5
1E2
330
63
100
AcDbEntity
  8
0
  6
Continuous
 62
     7
100
AcDbLine
 10
-187.3377730933771
 20
-60.00311584517225
 30
0.0
 11
-187.424998473831
 21
-61.00000011918922
 31
0.0
  0
LINE
  5
1E3
330
63
100
AcDbEntity
  8
0
  6
Continuous
 62
     7
100
AcDbLine
 10
-182.5122238542849
 20
-60.00311584517225
 30
0.0
 11
-182.545416994006
 21
-60.00311584517225
 31
0.0
  0
LINE
  5
1E4
330
63
100
AcDbEntity
  8
0
  6
Continuous
 62
     7
100
AcDbLine
 10
-182.5122238542849
 20
-60.00311584517225
 30
0.0
 11
-182.424998473831
 21
-61.00000011918922
 31
0.0
  0
LINE
  5
1E5
330
63
100
AcDbEntity
  8
0
  6
Continuous
 62
     7
100
AcDbLine
 10
-176.274998473831
 20
-61.00000011918922
 30
0.0
 11
-176.499998473831
 21
-61.00000011918922
 31
0.0
  0
LINE
  5
1E6
330
63
100
AcDbEntity
  8
0
  6
Continuous
 62
     7
100
AcDbLine
 10
-176.3622238542849
 20
-60.00311584517225
 30
0.0
 11
-176.395416994006
 21
-60.00311584517225
 31
0.0
  0
LINE
  5
1E7
330
63
100
AcDbEntity
  8
0
  6
Continuous
 62
     7
100
AcDbLine
 10
-176.3622238542849
 20
-60.00311584517225
 30
0.0
 11
-176.274998473831
 21
-61.00000011918922
 31
0.0
  0
LINE
  5
1E8
330
63
100
AcDbEntity
  8
0
  6
Continuous
 62
     7
100
AcDbLine
 10
-181.1545799536559
 20
-60.00311584517225
 30
0.0
 11
-181.1877730933771
 21
-60.00311584517225
 31
0.0
  0
LINE
  5
1E9
330
63
100
AcDbEntity
  8
0
  6
Continuous
 62
     7
100
AcDbLine
 10
-187.199998473831
 20
-61.00000011918922
 30
0.0
 11
-187.424998473831
 21
-61.00000011918922
 31
0.0
  0
LINE
  5
1EA
330
63
100
AcDbEntity
  8
0
  6
Continuous
 62
     7
100
AcDbLine
 10
-187.424998473831
 20
-61.00000011918922
 30
0.0
 11
-188.574998473831
 21
-61.00000011918922
 31
0.0
  0
LINE
  5
1EB
330
63
100
AcDbEntity
  8
0
  6
Continuous
 62
     7
100
AcDbLine
 10
-181.049998473831
 20
-61.00000011918922
 30
0.0
 11
-181.049998473831
 21
-62.00000011918922
 31
0.0
  0
LINE
  5
1EC
330
63
100
AcDbEntity
  8
0
  6
Continuous
 62
     7
100
AcDbLine
 10
-181.049998473831
 20
-61.00000011918922
 30
0.0
 11
-181.274998473831
 21
-61.00000011918922
 31
0.0
  0
LINE
  5
1ED
330
63
100
AcDbEntity
  8
0
  6
Continuous
 62
     7
100
AcDbLine
 10
-182.649998473831
 20
-62.00000011918922
 30
0.0
 11
-182.649998473831
 21
-61.00000011918922
 31
0.0
  0
LINE
  5
1EE
330
63
100
AcDbEntity
  8
0
  6
Continuous
 62
     7
100
AcDbLine
 10
-187.199998473831
 20
-61.00000011918922
 30
0.0
 11
-187.199998473831
 21
-62.00000011918922
 31
0.0
  0
LINE
  5
1EF
330
63
100
AcDbEntity
  8
0
  6
Continuous
 62
     7
100
AcDbLine
 10
-188.799998473831
 20
-61.00000011918922
 30
0.0
 11
-188.799998473831
 21
-62.00000011918922
 31
0.0
  0
LINE
  5
1F0
330
63
100
AcDbEntity
  8
0
  6
Continuous
 62
     7
100
AcDbLine
 10
-181.274998473831
 20
-61.00000011918922
 30
0.0
 11
-182.424998473831
 21
-61.00000011918922
 31
0.0
  0
LINE
  5
1F1
330
63
100
AcDbEntity
  8
0
  6
Continuous
 62
     7
100
AcDbLine
 10
-176.499998473831
 20
-61.00000011918922
 30
0.0
 11
-181.049998473831
 21
-61.00000011918922
 31
0.0
  0
LINE
  5
1F2
330
63
100
AcDbEntity
  8
0
  6
Continuous
 62
     7
100
AcDbLine
 10
-181.1877730933771
 20
-60.00311584517225
 30
0.0
 11
-181.274998473831
 21
-61.00000011918922
 31
0.0
  0
LINE
  5
1F3
330
63
100
AcDbEntity
  8
0
  6
Continuous
 62
     7
100
AcDbLine
 10
-194.949998473831
 20
-61.00000011918922
 30
0.0
 11
-194.949998473831
 21
-62.00000011918922
 31
0.0
  0
LINE
  5
1F4
330
63
100
AcDbEntity
  8
0
  6
Continuous
 62
     7
100
AcDbLine
 10
-194.949998473831
 20
-62.00000011918922
 30
0.0
 11
-194.949998473831
 21
-69.70000011918923
 31
0.0
  0
LINE
  5
1F5
330
63
100
AcDbEntity
  8
0
  6
Continuous
 62
     7
100
AcDbLine
 10
-194.8122238542849
 20
-60.00311584517225
 30
0.0
 11
-194.724998473831
 21
-61.00000011918922
 31
0.0
  0
LINE
  5
1F6
330
63
100
AcDbEntity
  8
0
  6
Continuous
 62
     7
100
AcDbLine
 10
-188.799998473831
 20
-62.00000011918922
 30
0.0
 11
-187.199998473831
 21
-62.00000011918922
 31
0.0
  0
LINE
  5
1F7
330
63
100
AcDbEntity
  8
0
  6
Continuous
 62
     7
100
AcDbLine
 10
-194.949998473831
 20
-62.00000011918922
 30
0.0
 11
-193.349998473831
 21
-62.00000011918922
 31
0.0
  0
LINE
  5
1F8
330
63
100
AcDbEntity
  8
0
  6
Continuous
 62
     7
100
AcDbLine
 10
-182.649998473831
 20
-62.00000011918922
 30
0.0
 11
-181.049998473831
 21
-62.00000011918922
 31
0.0
  0
LINE
  5
1F9
330
63
100
AcDbEntity
  8
0
  6
Continuous
 62
     7
100
AcDbLine
 10
-188.7844591809748
 20
-59.00000011918075
 30
0.0
 11
-193.3655377666876
 21
-59.00000011918526
 31
0.0
  0
LINE
  5
1FA
330
63
100
AcDbEntity
  8
0
  6
Continuous
 62
     7
100
AcDbLine
 10
-193.454579953656
 20
-60.00311584517225
 30
0.0
 11
-193.4877730933771
 21
-60.00311584517225
 31
0.0
  0
LINE
  5
1FB
330
63
100
AcDbEntity
  8
0
  6
Continuous
 62
     7
100
AcDbLine
 10
-194.8122238542849
 20
-60.00311584517225
 30
0.0
 11
-194.845416994006
 21
-60.00311584517225
 31
0.0
  0
LINE
  5
1FC
330
63
100
AcDbEntity
  8
0
  6
Continuous
 62
     7
100
AcDbLine
 10
-193.349998473831
 20
-61.00000011918922
 30
0.0
 11
-193.574998473831
 21
-61.00000011918922
 31
0.0
  0
LINE
  5
1FD
330
63
100
AcDbEntity
  8
0
  6
Continuous
 62
     7
100
AcDbLine
 10
-194.724998473831
 20
-61.00000011918922
 30
0.0
 11
-194.949998473831
 21
-61.00000011918922
 31
0.0
  0
LINE
  5
1FE
330
63
100
AcDbEntity
  8
0
  6
Continuous
 62
     7
100
AcDbLine
 10
-193.574998473831
 20
-61.00000011918922
 30
0.0
 11
-194.724998473831
 21
-61.00000011918922
 31
0.0
  0
LINE
  5
1FF
330
63
100
AcDbEntity
  8
0
  6
Continuous
 62
     7
100
AcDbLine
 10
-199.499998473831
 20
-61.00000011918922
 30
0.0
 11
-194.949998473831
 21
-61.00000011918922
 31
0.0
  0
LINE
  5
200
330
63
100
AcDbEntity
  8
0
  6
Continuous
 62
     7
100
AcDbLine
 10
-193.4877730933771
 20
-60.00311584517225
 30
0.0
 11
-193.574998473831
 21
-61.00000011918922
 31
0.0
  0
LINE
  5
201
330
63
100
AcDbEntity
  8
1
  6
DOT_CENTER
 62
     2
100
AcDbLine
 10
-197.224998473831
 20
-69.70000011918923
 30
0.0
 11
-197.224998473831
 21
-74.20000012420141
 31
0.0
  0
LINE
  5
202
330
63
100
AcDbEntity
  8
1
  6
DOT_CENTER
 62
     2
100
AcDbLine
 10
-184.924998473831
 20
-69.70000011918923
 30
0.0
 11
-184.924998473831
 21
-74.20000012420141
 31
0.0
  0
LINE
  5
203
330
63
100
AcDbEntity
  8
1
  6
DOT_CENTER
 62
     2
100
AcDbLine
 10
-178.774998473831
 20
-69.70000011918923
 30
0.0
 11
-178.774998473831
 21
-74.20000012420141
 31
0.0
  0
LINE
  5
204
330
63
100
AcDbEntity
  8
1
  6
DOT_CENTER
 62
     2
100
AcDbLine
 10
-191.074998473831
 20
-69.70000011918923
 30
0.0
 11
-191.074998473831
 21
-74.20000012420141
 31
0.0
  0
LINE
  5
205
330
63
100
AcDbEntity
  8
1
  6
DOT_CENTER
 62
     2
100
AcDbLine
 10
-197.224998473831
 20
-60.00311584517225
 30
0.0
 11
-197.224998473831
 21
-61.00000011918922
 31
0.0
  0
LINE
  5
206
330
63
100
AcDbEntity
  8
1
  6
DOT_CENTER
 62
     2
100
AcDbLine
 10
-184.924998473831
 20
-60.00311584517225
 30
0.0
 11
-184.924998473831
 21
-61.00000011918922
 31
0.0
  0
LINE
  5
207
330
63
100
AcDbEntity
  8
1
  6
DOT_CENTER
 62
     2
100
AcDbLine
 10
-178.774998473831
 20
-60.00311584517225
 30
0.0
 11
-178.774998473831
 21
-61.00000011918922
 31
0.0
  0
LINE
  5
208
330
63
100
AcDbEntity
  8
1
  6
DOT_CENTER
 62
     2
100
AcDbLine
 10
-191.074998473831
 20
-60.00311584517225
 30
0.0
 11
-191.074998473831
 21
-61.00000011918922
 31
0.0
  0
SPLINE
  5
209
330
63
100
AcDbEntity
  8
0
  6
Continuous
 62
     7
100
AcDbSpline
210
0.0
220
0.0
230
1.0
 70
     8
 71
     3
 72
    11
 73
     7
 74
     5
 42
0.000000001
 43
0.0000000001
 44
0.00000001
 40
0.0
 40
0.0
 40
0.0
 40
0.0
 40
0.2502037522854402
 40
0.5035299588312687
 40
0.7537098702306538
 40
1.00705991455773
 40
1.00705991455773
 40
1.00705991455773
 40
1.00705991455773
 10
-176.4844591809748
 20
-59.00000011918075
 30
0.0
 10
-176.4770815754111
 20
-59.08307442065579
 30
0.0
 10
-176.4622343093769
 20
-59.2502597628132
 30
0.0
 10
-176.4400180304281
 20
-59.50051219119105
 30
0.0
 10
-176.4177141505023
 20
-59.75180973129505
 30
0.0
 10
-176.4028805044907
 20
-59.91899628140981
 30
0.0
 10
-176.395416994006
 20
-60.00311584517225
 30
0.0
 11
-176.4844591809748
 21
-59.00000011918075
 31
0.0
 11
-176.4623276694177
 21
-59.24922313949383
 31
0.0
 11
-176.4399261459547
 21
-59.50155692373519
 31
0.0
 11
-176.4178087798747
 21
-59.75075726519884
 31
0.0
 11
-176.395416994006
 21
-60.00311584517225
 31
0.0
  0
SPLINE
  5
20A
330
63
100
AcDbEntity
  8
0
  6
Continuous
 62
     7
100
AcDbSpline
210
0.0
220
0.0
230
1.0
 70
     8
 71
     3
 72
    11
 73
     7
 74
     5
 42
0.000000001
 43
0.0000000001
 44
0.00000001
 40
0.0
 40
0.0
 40
0.0
 40
0.0
 40
0.2507279358916313
 40
0.5035299588312683
 40
0.7543050969421085
 40
1.007059914557721
 40
1.007059914557721
 40
1.007059914557721
 40
1.007059914557721
 10
-188.7844591809748
 20
-59.00000011918075
 30
0.0
 10
-188.7770661202235
 20
-59.08324846365421
 30
0.0
 10
-188.7622188563687
 20
-59.25043380600522
 30
0.0
 10
-188.7399850383456
 20
-59.50088386655148
 30
0.0
 10
-188.7176966122443
 20
-59.75200736353597
 30
0.0
 10
-188.7028629684267
 20
-59.91919391384537
 30
0.0
 10
-188.6954169940061
 20
-60.00311584517225
 30
0.0
 11
-188.7844591809748
 21
-59.00000011918075
 31
0.0
 11
-188.762281309735
 21
-59.24974526901115
 31
0.0
 11
-188.7399261459547
 21
-59.50155692373519
 31
0.0
 11
-188.7177561652515
 21
-59.75135016193479
 31
0.0
 11
-188.6954169940061
 21
-60.00311584517225
 31
0.0
  0
SPLINE
  5
20B
330
63
100
AcDbEntity
  8
0
  6
Continuous
 62
     7
100
AcDbSpline
210
0.0
220
0.0
230
1.0
 70
     8
 71
     3
 72
    11
 73
     7
 74
     5
 42
0.000000001
 43
0.0000000001
 44
0.00000001
 40
0.0
 40
0.0
 40
0.0
 40
0.0
 40
0.2527889005687187
 40
0.5035299568967214
 40
0.7562717590979721
 40
1.007059914553202
 40
1.007059914553202
 40
1.007059914553202
 40
1.007059914553202
 10
-187.304579953656
 20
-60.00311584517225
 30
0.0
 10
-187.2971329751143
 20
-59.91918259732174
 30
0.0
 10
-187.2822993311402
 20
-59.75199604663466
 30
0.0
 10
-187.2600126792498
 20
-59.50089254427706
 30
0.0
 10
-187.2377798665465
 20
-59.25045380014957
 30
0.0
 10
-187.2229326029725
 20
-59.08326845816676
 30
0.0
 10
-187.2155377666876
 20
-59.00000011918526
 30
0.0
 11
-187.304579953656
 21
-60.00311584517225
 31
0.0
 11
-187.282237769674
 21
-59.75131621239709
 31
0.0
 11
-187.2600708016038
 21
-59.50155692256951
 31
0.0
 11
-187.2377209638456
 21
-59.24980525260039
 31
0.0
 11
-187.2155377666876
 21
-59.00000011918526
 31
0.0
  0
SPLINE
  5
20C
330
63
100
AcDbEntity
  8
0
  6
Continuous
 62
     7
100
AcDbSpline
210
0.0
220
0.0
230
1.0
 70
     8
 71
     3
 72
    11
 73
     7
 74
     5
 42
0.000000001
 43
0.0000000001
 44
0.00000001
 40
0.0
 40
0.0
 40
0.0
 40
0.0
 40
0.2532734967068244
 40
0.5035299568967146
 40
0.7562717941766266
 40
1.007059914553193
 40
1.007059914553193
 40
1.007059914553193
 40
1.007059914553193
 10
-181.1545799536559
 20
-60.00311584517225
 30
0.0
 10
-181.1471186983632
 20
-59.91902169742651
 30
0.0
 10
-181.132285052621
 20
-59.75183514689626
 30
0.0
 10
-181.1099983941925
 20
-59.50073163338019
 30
0.0
 10
-181.0877798655421
 20
-59.25045378849988
 30
0.0
 10
-181.0729326019478
 20
-59.08326844651884
 30
0.0
 10
-181.0655377666876
 20
-59.00000011918526
 30
0.0
 11
-181.1545799536559
 21
-60.00311584517225
 31
0.0
 11
-181.1321949341592
 21
-59.75083351317834
 31
0.0
 11
-181.1100708016038
 21
-59.50155692256951
 31
0.0
 11
-181.0877209607432
 21
-59.24980521765919
 31
0.0
 11
-181.0655377666876
 21
-59.00000011918526
 31
0.0
  0
SPLINE
  5
20D
330
63
100
AcDbEntity
  8
0
  6
Continuous
 62
     7
100
AcDbSpline
210
0.0
220
0.0
230
1.0
 70
     8
 71
     3
 72
    11
 73
     7
 74
     5
 42
0.000000001
 43
0.0000000001
 44
0.00000001
 40
0.0
 40
0.0
 40
0.0
 40
0.0
 40
0.2507312989874108
 40
0.503529958831247
 40
0.75371544254408
 40
1.007059914557711
 40
1.007059914557711
 40
1.007059914557711
 40
1.007059914557711
 10
-182.6344591809748
 20
-59.00000011918077
 30
0.0
 10
-182.6270660210531
 20
-59.08324958029106
 30
0.0
 10
-182.6122187571878
 20
-59.25043492264115
 30
0.0
 10
-182.590002319975
 20
-59.50068920171166
 30
0.0
 10
-182.5677139862823
 20
-59.75181158145909
 30
0.0
 10
-182.5528803403131
 20
-59.91899813157762
 30
0.0
 10
-182.545416994006
 20
-60.00311584517225
 30
0.0
 11
-182.6344591809748
 21
-59.00000011918077
 31
0.0
 11
-182.6122810122971
 21
-59.24974861892818
 31
0.0
 11
-182.5899261459547
 21
-59.50155692373519
 31
0.0
 11
-182.5678082873141
 21
-59.75076281569983
 31
0.0
 11
-182.545416994006
 21
-60.00311584517225
 31
0.0
  0
SPLINE
  5
20E
330
63
100
AcDbEntity
  8
0
  6
Continuous
 62
     7
100
AcDbSpline
210
0.0
220
0.0
230
1.0
 70
     8
 71
     3
 72
    11
 73
     7
 74
     5
 42
0.000000001
 43
0.0000000001
 44
0.00000001
 40
0.0
 40
0.0
 40
0.0
 40
0.0
 40
0.2534826772413771
 40
0.5035299568967224
 40
0.7560187322846267
 40
1.007059914553202
 40
1.007059914553202
 40
1.007059914553202
 40
1.007059914553202
 10
-199.604579953656
 20
-60.00311584517225
 30
0.0
 10
-199.5971125356721
 20
-59.9189522434552
 30
0.0
 10
-199.5822788891774
 20
-59.75176569299168
 30
0.0
 10
-199.5599996858057
 20
-59.50074620336144
 30
0.0
 10
-199.5377873258723
 20
-59.25053781191757
 30
0.0
 10
-199.5229400633093
 20
-59.08335246984495
 30
0.0
 10
-199.5155377666876
 20
-59.00000011918526
 30
0.0
 11
-199.604579953656
 21
-60.00311584517225
 31
0.0
 11
-199.5821764437949
 21
-59.75062515146769
 31
0.0
 11
-199.5600708016038
 21
-59.50155692256951
 31
0.0
 11
-199.5377433419529
 21
-59.25005728789274
 31
0.0
 11
-199.5155377666876
 21
-59.00000011918526
 31
0.0
  0
SPLINE
  5
20F
330
63
100
AcDbEntity
  8
0
  6
Continuous
 62
     7
100
AcDbSpline
210
0.0
220
0.0
230
1.0
 70
     8
 71
     3
 72
    11
 73
     7
 74
     5
 42
0.000000001
 43
0.0000000001
 44
0.00000001
 40
0.0
 40
0.0
 40
0.0
 40
0.0
 40
0.2527887823667052
 40
0.5035299568967139
 40
0.7562717941766333
 40
1.007059914553202
 40
1.007059914553202
 40
1.007059914553202
 40
1.007059914553202
 10
-193.454579953656
 20
-60.00311584517225
 30
0.0
 10
-193.4471329785966
 20
-59.91918263656824
 30
0.0
 10
-193.432299334623
 20
-59.75199608588109
 30
0.0
 10
-193.4100126817004
 20
-59.50089257187626
 30
0.0
 10
-193.3877798655123
 20
-59.25045378850251
 30
0.0
 10
-193.3729326019382
 20
-59.08326844651971
 30
0.0
 10
-193.3655377666876
 20
-59.00000011918526
 30
0.0
 11
-193.454579953656
 21
-60.00311584517225
 31
0.0
 11
-193.4322377801224
 21
-59.7513163301364
 31
0.0
 11
-193.4100708016039
 21
-59.50155692256951
 31
0.0
 11
-193.3877209607432
 21
-59.24980521765919
 31
0.0
 11
-193.3655377666876
 21
-59.00000011918526
 31
0.0
  0
SPLINE
  5
210
330
63
100
AcDbEntity
  8
0
  6
Continuous
 62
     7
100
AcDbSpline
210
0.0
220
0.0
230
1.0
 70
     8
 71
     3
 72
    11
 73
     7
 74
     5
 42
0.000000001
 43
0.0000000001
 44
0.00000001
 40
0.0
 40
0.0
 40
0.0
 40
0.0
 40
0.2509555862904785
 40
0.5035299588312492
 40
0.7545022176121581
 40
1.007059914557709
 40
1.007059914557709
 40
1.007059914557709
 40
1.007059914557709
 10
-194.9344591809748
 20
-59.00000011918077
 30
0.0
 10
-194.9270594081106
 20
-59.08332404968468
 30
0.0
 10
-194.9122121451993
 20
-59.25050939211948
 30
0.0
 10
-194.8899725193925
 20
-59.50102490237958
 30
0.0
 10
-194.8676908041133
 20
-59.75207281321909
 30
0.0
 10
-194.8528571610248
 20
-59.91925936359312
 30
0.0
 10
-194.845416994006
 20
-60.00311584517225
 30
0.0
 11
-194.9344591809748
 21
-59.00000011918077
 31
0.0
 11
-194.9122611759578
 21
-59.24997202732992
 31
0.0
 11
-194.8899261459547
 21
-59.50155692373519
 31
0.0
 11
-194.8677387409234
 21
-59.75154651098971
 31
0.0
 11
-194.845416994006
 21
-60.00311584517225
 31
0.0
  0
ENDBLK
  5
65
330
63
100
AcDbEntity
  8
0
100
AcDbBlockEnd
  0
BLOCK
  5
68
330
66
100
AcDbEntity
  8
0
100
AcDbBlockBegin
  2
Right1
 70
     0
 10
-187.9999999998549
 20
-66.49999999998997
 30
0.0
  3
Right1
  1

  0
INSERT
  5
67
330
66
100
AcDbEntity
  8
0
100
AcDbBlockReference
  2
FB_4-6-select__5
 10
-199.724998473831
 20
-74.20000012420141
 30
0.0
  0
ENDBLK
  5
69
330
66
100
AcDbEntity
  8
0
100
AcDbBlockEnd
  0
BLOCK
  5
6B
330
6A
100
AcDbEntity
  8
0
100
AcDbBlockBegin
  2
FB_4-6-select__6
 70
     0
 10
-156.9999994082309
 20
-112.4249984023055
 30
0.0
  3
FB_4-6-select__6
  1

  0
LINE
  5
211
330
6A
100
AcDbEntity
  8
0
  6
Continuous
 62
     7
100
AcDbLine
 10
-153.8511594082309
 20
-89.18445910944932
 30
0.0
 11
-153.8511594082309
 21
-89.09541692248057
 31
0.0
  0
LINE
  5
212
330
6A
100
AcDbEntity
  8
0
  6
Continuous
 62
     7
100
AcDbLine
 10
-153.8511594082309
 20
-93.76553769516212
 30
0.0
 11
-153.8511594082309
 21
-89.18445910944932
 31
0.0
  0
LINE
  5
213
330
6A
100
AcDbEntity
  8
0
  6
Continuous
 62
     7
100
AcDbLine
 10
-154.6499937791785
 20
-89.09561069368463
 30
0.0
 11
-154.6499937791785
 21
-89.18466041394478
 31
0.0
  0
LINE
  5
214
330
6A
100
AcDbEntity
  8
0
  6
Continuous
 62
     7
100
AcDbLine
 10
-154.6499937791785
 20
-89.18466041394478
 30
0.0
 11
-154.6499937791785
 21
-93.76533639066668
 31
0.0
  0
LINE
  5
215
330
6A
100
AcDbEntity
  8
0
  6
Continuous
 62
     7
100
AcDbLine
 10
-156.9999994082309
 20
-93.74999840230554
 30
0.0
 11
-155.5999994082309
 21
-93.74999840230554
 31
0.0
  0
LINE
  5
216
330
6A
100
AcDbEntity
  8
0
  6
Continuous
 62
     7
100
AcDbLine
 10
-156.9999994082309
 20
-89.19999840230554
 30
0.0
 11
-156.9999994082309
 21
-93.74999840230554
 31
0.0
  0
LINE
  5
217
330
6A
100
AcDbEntity
  8
0
  6
Continuous
 62
     7
100
AcDbLine
 10
-155.2865200303147
 20
-89.19999840230554
 30
0.0
 11
-156.9999994082309
 21
-89.19999840230554
 31
0.0
  0
LINE
  5
218
330
6A
100
AcDbEntity
  8
0
  6
Continuous
 62
     7
100
AcDbLine
 10
-154.6499937791785
 20
-93.76533639066668
 30
0.0
 11
-154.6499937791785
 21
-93.85438611092641
 31
0.0
  0
LINE
  5
219
330
6A
100
AcDbEntity
  8
0
  6
Continuous
 62
     7
100
AcDbLine
 10
-153.8511594082309
 20
-93.85457988213048
 30
0.0
 11
-153.8511594082309
 21
-93.76553769516212
 31
0.0
  0
LINE
  5
21A
330
6A
100
AcDbEntity
  8
0
  6
Continuous
 62
     7
100
AcDbLine
 10
-155.5999994082309
 20
-95.34999840230554
 30
0.0
 11
-155.5999994082309
 21
-93.74999840230554
 31
0.0
  0
LINE
  5
21B
330
6A
100
AcDbEntity
  8
0
  6
Continuous
 62
     7
100
AcDbLine
 10
-152.8999994082309
 20
-93.74999840230554
 30
0.0
 11
-152.8999994082309
 21
-95.34999840230554
 31
0.0
  0
LINE
  5
21C
330
6A
100
AcDbEntity
  8
0
  6
Continuous
 62
     7
100
AcDbLine
 10
-152.8999994082309
 20
-93.74999840230554
 30
0.0
 11
-151.4999994082309
 21
-93.74999840230554
 31
0.0
  0
LINE
  5
21D
330
6A
100
AcDbEntity
  8
0
  6
Continuous
 62
     7
100
AcDbLine
 10
-151.4999994082309
 20
-89.19999840230554
 30
0.0
 11
-151.4999994082309
 21
-93.74999840230554
 31
0.0
  0
LINE
  5
21E
330
6A
100
AcDbEntity
  8
0
  6
Continuous
 62
     7
100
AcDbLine
 10
-151.4999994082309
 20
-89.19999840230554
 30
0.0
 11
-153.213478786149
 21
-89.19999840230554
 31
0.0
  0
LINE
  5
21F
330
6A
100
AcDbEntity
  8
0
  6
Continuous
 62
     7
100
AcDbLine
 10
-151.4999994082309
 20
-95.34999840230554
 30
0.0
 11
-152.8999994082309
 21
-95.34999840230554
 31
0.0
  0
LINE
  5
220
330
6A
100
AcDbEntity
  8
0
  6
Continuous
 62
     7
100
AcDbLine
 10
-156.9999994082309
 20
-95.34999840230554
 30
0.0
 11
-156.9999994082309
 21
-99.89999840230553
 31
0.0
  0
LINE
  5
221
330
6A
100
AcDbEntity
  8
0
  6
Continuous
 62
     7
100
AcDbLine
 10
-156.9999994082309
 20
-106.0499984023055
 30
0.0
 11
-156.9999994082309
 21
-101.4999984023055
 31
0.0
  0
LINE
  5
222
330
6A
100
AcDbEntity
  8
0
  6
Continuous
 62
     7
100
AcDbLine
 10
-156.9999994082309
 20
-112.1999984023055
 30
0.0
 11
-156.9999994082309
 21
-107.6499984023056
 31
0.0
  0
LINE
  5
223
330
6A
100
AcDbEntity
  8
0
  6
Continuous
 62
     7
100
AcDbLine
 10
-155.5999994082309
 20
-95.34999840230554
 30
0.0
 11
-156.9999994082309
 21
-95.34999840230554
 31
0.0
  0
LINE
  5
224
330
6A
100
AcDbEntity
  8
0
  6
Continuous
 62
     7
100
AcDbLine
 10
-153.8511594082309
 20
-112.2155376951621
 30
0.0
 11
-153.8511594082309
 21
-107.6344591094493
 31
0.0
  0
LINE
  5
225
330
6A
100
AcDbEntity
  8
0
  6
Continuous
 62
     7
100
AcDbLine
 10
-152.8999994082309
 20
-101.4999984023055
 30
0.0
 11
-151.4999994082309
 21
-101.4999984023055
 31
0.0
  0
LINE
  5
226
330
6A
100
AcDbEntity
  8
0
  6
Continuous
 62
     7
100
AcDbLine
 10
-151.4999994082309
 20
-112.1999984023055
 30
0.0
 11
-151.4999994082309
 21
-107.6499984023056
 31
0.0
  0
LINE
  5
227
330
6A
100
AcDbEntity
  8
0
  6
Continuous
 62
     7
100
AcDbLine
 10
-152.8999994082309
 20
-106.0499984023055
 30
0.0
 11
-151.4999994082309
 21
-106.0499984023055
 31
0.0
  0
LINE
  5
228
330
6A
100
AcDbEntity
  8
0
  6
Continuous
 62
     7
100
AcDbLine
 10
-152.8999994082309
 20
-107.6499984023056
 30
0.0
 11
-151.4999994082309
 21
-107.6499984023056
 31
0.0
  0
LINE
  5
229
330
6A
100
AcDbEntity
  8
0
  6
Continuous
 62
     7
100
AcDbLine
 10
-153.2134787861473
 20
-112.1999984023045
 30
0.0
 11
-151.4999994082309
 21
-112.1999984023055
 31
0.0
  0
LINE
  5
22A
330
6A
100
AcDbEntity
  8
0
  6
Continuous
 62
     7
100
AcDbLine
 10
-152.8999994082309
 20
-99.89999840230553
 30
0.0
 11
-151.4999994082309
 21
-99.89999840230553
 31
0.0
  0
LINE
  5
22B
330
6A
100
AcDbEntity
  8
0
  6
Continuous
 62
     7
100
AcDbLine
 10
-151.4999994082309
 20
-106.0499984023055
 30
0.0
 11
-151.4999994082309
 21
-101.4999984023055
 31
0.0
  0
LINE
  5
22C
330
6A
100
AcDbEntity
  8
0
  6
Continuous
 62
     7
100
AcDbLine
 10
-153.8511594082309
 20
-112.3045798821305
 30
0.0
 11
-153.8511594082309
 21
-112.2155376951621
 31
0.0
  0
LINE
  5
22D
330
6A
100
AcDbEntity
  8
0
  6
Continuous
 62
     7
100
AcDbLine
 10
-154.6499937791785
 20
-112.2153363906667
 30
0.0
 11
-154.6499937791785
 21
-112.3043861109264
 31
0.0
  0
LINE
  5
22E
330
6A
100
AcDbEntity
  8
0
  6
Continuous
 62
     7
100
AcDbLine
 10
-154.6499937791785
 20
-107.6346604139448
 30
0.0
 11
-154.6499937791785
 21
-112.2153363906667
 31
0.0
  0
LINE
  5
22F
330
6A
100
AcDbEntity
  8
0
  6
Continuous
 62
     7
100
AcDbLine
 10
-151.4999994082309
 20
-95.34999840230554
 30
0.0
 11
-151.4999994082309
 21
-99.89999840230553
 31
0.0
  0
LINE
  5
230
330
6A
100
AcDbEntity
  8
0
  6
Continuous
 62
     7
100
AcDbLine
 10
-153.8511594082309
 20
-106.1545798821305
 30
0.0
 11
-153.8511594082309
 21
-106.0655376951621
 31
0.0
  0
LINE
  5
231
330
6A
100
AcDbEntity
  8
0
  6
Continuous
 62
     7
100
AcDbLine
 10
-153.8511594082309
 20
-101.4844591094493
 30
0.0
 11
-153.8511594082309
 21
-101.3954169224806
 31
0.0
  0
LINE
  5
232
330
6A
100
AcDbEntity
  8
0
  6
Continuous
 62
     7
100
AcDbLine
 10
-153.8511594082309
 20
-106.0655376951621
 30
0.0
 11
-153.8511594082309
 21
-101.4844591094493
 31
0.0
  0
LINE
  5
233
330
6A
100
AcDbEntity
  8
0
  6
Continuous
 62
     7
100
AcDbLine
 10
-152.8999994082309
 20
-106.0499984023055
 30
0.0
 11
-152.8999994082309
 21
-107.6499984023056
 31
0.0
  0
LINE
  5
234
330
6A
100
AcDbEntity
  8
0
  6
Continuous
 62
     7
100
AcDbLine
 10
-152.8999994082309
 20
-99.89999840230553
 30
0.0
 11
-152.8999994082309
 21
-101.4999984023055
 31
0.0
  0
LINE
  5
235
330
6A
100
AcDbEntity
  8
0
  6
Continuous
 62
     7
100
AcDbLine
 10
-153.8511594082309
 20
-107.6344591094493
 30
0.0
 11
-153.8511594082309
 21
-107.5454169224806
 31
0.0
  0
LINE
  5
236
330
6A
100
AcDbEntity
  8
0
  6
Continuous
 62
     7
100
AcDbLine
 10
-154.6499937791785
 20
-106.0653363906667
 30
0.0
 11
-154.6499937791785
 21
-106.1543861109264
 31
0.0
  0
LINE
  5
237
330
6A
100
AcDbEntity
  8
0
  6
Continuous
 62
     7
100
AcDbLine
 10
-154.6499937791785
 20
-101.3956106936847
 30
0.0
 11
-154.6499937791785
 21
-101.4846604139448
 31
0.0
  0
LINE
  5
238
330
6A
100
AcDbEntity
  8
0
  6
Continuous
 62
     7
100
AcDbLine
 10
-154.6499937791785
 20
-101.4846604139448
 30
0.0
 11
-154.6499937791785
 21
-106.0653363906667
 31
0.0
  0
LINE
  5
239
330
6A
100
AcDbEntity
  8
0
  6
Continuous
 62
     7
100
AcDbLine
 10
-154.6499937791785
 20
-107.5456106936847
 30
0.0
 11
-154.6499937791785
 21
-107.6346604139448
 31
0.0
  0
LINE
  5
23A
330
6A
100
AcDbEntity
  8
0
  6
Continuous
 62
     7
100
AcDbLine
 10
-156.9999994082309
 20
-107.6499984023056
 30
0.0
 11
-155.5999994082309
 21
-107.6499984023056
 31
0.0
  0
LINE
  5
23B
330
6A
100
AcDbEntity
  8
0
  6
Continuous
 62
     7
100
AcDbLine
 10
-156.9999994082309
 20
-101.4999984023055
 30
0.0
 11
-155.5999994082309
 21
-101.4999984023055
 31
0.0
  0
LINE
  5
23C
330
6A
100
AcDbEntity
  8
0
  6
Continuous
 62
     7
100
AcDbLine
 10
-156.9999994082309
 20
-99.89999840230553
 30
0.0
 11
-155.5999994082309
 21
-99.89999840230553
 31
0.0
  0
LINE
  5
23D
330
6A
100
AcDbEntity
  8
0
  6
Continuous
 62
     7
100
AcDbLine
 10
-155.5999994082309
 20
-101.4999984023055
 30
0.0
 11
-155.5999994082309
 21
-99.89999840230553
 31
0.0
  0
LINE
  5
23E
330
6A
100
AcDbEntity
  8
0
  6
Continuous
 62
     7
100
AcDbLine
 10
-156.9999994082309
 20
-106.0499984023055
 30
0.0
 11
-155.5999994082309
 21
-106.0499984023055
 31
0.0
  0
LINE
  5
23F
330
6A
100
AcDbEntity
  8
0
  6
Continuous
 62
     7
100
AcDbLine
 10
-155.5999994082309
 20
-107.6499984023056
 30
0.0
 11
-155.5999994082309
 21
-106.0499984023055
 31
0.0
  0
LINE
  5
240
330
6A
100
AcDbEntity
  8
0
  6
Continuous
 62
     7
100
AcDbLine
 10
-156.9999994082309
 20
-112.1999984023055
 30
0.0
 11
-155.2865200303127
 21
-112.1999984023053
 31
0.0
  0
LINE
  5
241
330
6A
100
AcDbEntity
  8
0
  6
Continuous
 62
     7
100
AcDbLine
 10
-154.6499937791785
 20
-99.91533639066668
 30
0.0
 11
-154.6499937791785
 21
-100.0043861109264
 31
0.0
  0
LINE
  5
242
330
6A
100
AcDbEntity
  8
0
  6
Continuous
 62
     7
100
AcDbLine
 10
-154.6499937791785
 20
-95.24561069368465
 30
0.0
 11
-154.6499937791785
 21
-95.33466041394479
 31
0.0
  0
LINE
  5
243
330
6A
100
AcDbEntity
  8
0
  6
Continuous
 62
     7
100
AcDbLine
 10
-154.6499937791785
 20
-95.33466041394479
 30
0.0
 11
-154.6499937791785
 21
-99.91533639066668
 31
0.0
  0
LINE
  5
244
330
6A
100
AcDbEntity
  8
0
  6
Continuous
 62
     7
100
AcDbLine
 10
-153.8511594082309
 20
-100.0045798821305
 30
0.0
 11
-153.8511594082309
 21
-99.91553769516213
 31
0.0
  0
LINE
  5
245
330
6A
100
AcDbEntity
  8
0
  6
Continuous
 62
     7
100
AcDbLine
 10
-153.8511594082309
 20
-99.91553769516213
 30
0.0
 11
-153.8511594082309
 21
-95.33445910944933
 31
0.0
  0
LINE
  5
246
330
6A
100
AcDbEntity
  8
0
  6
Continuous
 62
     7
100
AcDbLine
 10
-153.8511594082309
 20
-95.33445910944933
 30
0.0
 11
-153.8511594082309
 21
-95.24541692248056
 31
0.0
  0
LINE
  5
247
330
6A
100
AcDbEntity
  8
1
  6
DOT_CENTER
 62
     2
100
AcDbLine
 10
-151.4999994082309
 20
-109.9249984023055
 30
0.0
 11
-156.9999994082309
 21
-109.9249984023055
 31
0.0
  0
LINE
  5
248
330
6A
100
AcDbEntity
  8
1
  6
DOT_CENTER
 62
     2
100
AcDbLine
 10
-154.2499994082309
 20
-107.1749984023055
 30
0.0
 11
-154.2499994082309
 21
-112.6749984023055
 31
0.0
  0
LINE
  5
249
330
6A
100
AcDbEntity
  8
1
  6
DOT_CENTER
 62
     2
100
AcDbLine
 10
-151.4999994082309
 20
-103.7749984023055
 30
0.0
 11
-156.9999994082309
 21
-103.7749984023055
 31
0.0
  0
LINE
  5
24A
330
6A
100
AcDbEntity
  8
1
  6
DOT_CENTER
 62
     2
100
AcDbLine
 10
-154.2499994082309
 20
-101.0249984023055
 30
0.0
 11
-154.2499994082309
 21
-106.5249984023055
 31
0.0
  0
LINE
  5
24B
330
6A
100
AcDbEntity
  8
1
  6
DOT_CENTER
 62
     2
100
AcDbLine
 10
-151.4999994082309
 20
-97.62499840230552
 30
0.0
 11
-156.9999994082309
 21
-97.62499840230552
 31
0.0
  0
LINE
  5
24C
330
6A
100
AcDbEntity
  8
1
  6
DOT_CENTER
 62
     2
100
AcDbLine
 10
-154.2499994082309
 20
-94.87499840230552
 30
0.0
 11
-154.2499994082309
 21
-100.3749984023055
 31
0.0
  0
LINE
  5
24D
330
6A
100
AcDbEntity
  8
1
  6
DOT_CENTER
 62
     2
100
AcDbLine
 10
-151.4999994082307
 20
-91.47499840230552
 30
0.0
 11
-156.9999994082311
 21
-91.47499840230552
 31
0.0
  0
LINE
  5
24E
330
6A
100
AcDbEntity
  8
1
  6
DOT_CENTER
 62
     2
100
AcDbLine
 10
-154.2499994082309
 20
-88.72499840230532
 30
0.0
 11
-154.2499994082309
 21
-94.22499840230572
 31
0.0
  0
ARC
  5
24F
330
6A
100
AcDbEntity
  8
0
  6
Continuous
 62
     7
100
AcDbCircle
 10
-154.2499994082309
 20
-91.47499840230552
 30
0.0
 40
2.412774619546115
100
AcDbArc
 50
80.48513630188287
 51
99.5426598780764
  0
ARC
  5
250
330
6A
100
AcDbEntity
  8
0
  6
Continuous
 62
     7
100
AcDbCircle
 10
-154.2499994082309
 20
-91.47499840230552
 30
0.0
 40
2.500000000000187
100
AcDbArc
 50
65.50535152856966
 51
114.4946484714701
  0
ARC
  5
251
330
6A
100
AcDbEntity
  8
0
  6
Continuous
 62
     7
100
AcDbCircle
 10
-154.2499994082309
 20
-91.47499840230552
 30
0.0
 40
2.412774619546126
100
AcDbArc
 50
260.4573401219236
 51
279.5148636981171
  0
ARC
  5
252
330
6A
100
AcDbEntity
  8
0
  6
Continuous
 62
     7
100
AcDbCircle
 10
-154.2499994082309
 20
-91.47499840230552
 30
0.0
 40
2.500000000000976
100
AcDbArc
 50
114.4946484714701
 51
65.50535152856966
  0
ARC
  5
253
330
6A
100
AcDbEntity
  8
0
  6
Continuous
 62
     7
100
AcDbCircle
 10
-154.2499994082309
 20
-91.47499840230552
 30
0.0
 40
2.325003999505816
100
AcDbArc
 50
99.90646727908673
 51
260.0935327209151
  0
ARC
  5
254
330
6A
100
AcDbEntity
  8
0
  6
Continuous
 62
     7
100
AcDbCircle
 10
-154.2499994082309
 20
-91.47499840230552
 30
0.0
 40
2.325003999506249
100
AcDbArc
 50
279.8775904601578
 51
80.12240953984049
  0
ARC
  5
255
330
6A
100
AcDbEntity
  8
0
  6
Continuous
 62
     7
100
AcDbCircle
 10
-154.2499994082309
 20
-109.9249984023055
 30
0.0
 40
2.325003999505788
100
AcDbArc
 50
99.90646727908685
 51
260.0935327209152
  0
ARC
  5
256
330
6A
100
AcDbEntity
  8
0
  6
Continuous
 62
     7
100
AcDbCircle
 10
-154.2499994082309
 20
-109.9249984023055
 30
0.0
 40
2.325003999506234
100
AcDbArc
 50
279.8775904601578
 51
80.12240953984056
  0
ARC
  5
257
330
6A
100
AcDbEntity
  8
0
  6
Continuous
 62
     7
100
AcDbCircle
 10
-154.2499994082309
 20
-109.9249984023055
 30
0.0
 40
2.412774619546126
100
AcDbArc
 50
260.4573401219236
 51
279.514863698117
  0
ARC
  5
258
330
6A
100
AcDbEntity
  8
0
  6
Continuous
 62
     7
100
AcDbCircle
 10
-154.2499994082309
 20
-109.9249984023055
 30
0.0
 40
2.499999999999972
100
AcDbArc
 50
245.5053515285703
 51
294.4946484714752
  0
ARC
  5
259
330
6A
100
AcDbEntity
  8
0
  6
Continuous
 62
     7
100
AcDbCircle
 10
-154.2499994082309
 20
-103.7749984023055
 30
0.0
 40
2.412774619546126
100
AcDbArc
 50
260.4573401219236
 51
279.5148636981169
  0
ARC
  5
25A
330
6A
100
AcDbEntity
  8
0
  6
Continuous
 62
     7
100
AcDbCircle
 10
-154.2499994082309
 20
-103.7749984023055
 30
0.0
 40
2.325003999506249
100
AcDbArc
 50
279.8775904601578
 51
80.12240953984049
  0
ARC
  5
25B
330
6A
100
AcDbEntity
  8
0
  6
Continuous
 62
     7
100
AcDbCircle
 10
-154.2499994082309
 20
-109.9249984023055
 30
0.0
 40
2.412774619546073
100
AcDbArc
 50
80.48513630188272
 51
99.54265987807668
  0
ARC
  5
25C
330
6A
100
AcDbEntity
  8
0
  6
Continuous
 62
     7
100
AcDbCircle
 10
-154.2499994082309
 20
-103.7749984023055
 30
0.0
 40
2.325003999505788
100
AcDbArc
 50
99.90646727908685
 51
260.0935327209152
  0
ARC
  5
25D
330
6A
100
AcDbEntity
  8
0
  6
Continuous
 62
     7
100
AcDbCircle
 10
-154.2499994082309
 20
-103.7749984023055
 30
0.0
 40
2.41277461954606
100
AcDbArc
 50
80.48513630188266
 51
99.54265987807675
  0
ARC
  5
25E
330
6A
100
AcDbEntity
  8
0
  6
Continuous
 62
     7
100
AcDbCircle
 10
-154.2499994082309
 20
-109.9249984023055
 30
0.0
 40
2.500000000000002
100
AcDbArc
 50
294.4946484714752
 51
245.5053515285703
  0
ARC
  5
25F
330
6A
100
AcDbEntity
  8
0
  6
Continuous
 62
     7
100
AcDbCircle
 10
-154.2499994082309
 20
-97.62499840230552
 30
0.0
 40
2.325003999506249
100
AcDbArc
 50
279.8775904601578
 51
80.12240953984049
  0
ARC
  5
260
330
6A
100
AcDbEntity
  8
0
  6
Continuous
 62
     7
100
AcDbCircle
 10
-154.2499994082309
 20
-97.62499840230552
 30
0.0
 40
2.412774619546129
100
AcDbArc
 50
80.48513630188295
 51
99.54265987807646
  0
ARC
  5
261
330
6A
100
AcDbEntity
  8
0
  6
Continuous
 62
     7
100
AcDbCircle
 10
-154.2499994082309
 20
-97.62499840230552
 30
0.0
 40
2.412774619546111
100
AcDbArc
 50
260.4573401219236
 51
279.514863698117
  0
ARC
  5
262
330
6A
100
AcDbEntity
  8
0
  6
Continuous
 62
     7
100
AcDbCircle
 10
-154.2499994082309
 20
-97.62499840230552
 30
0.0
 40
2.325003999505816
100
AcDbArc
 50
99.90646727908673
 51
260.0935327209151
  0
CIRCLE
  5
263
330
6A
100
AcDbEntity
  8
0
  6
Continuous
 62
     7
100
AcDbCircle
 10
-154.2499994082309
 20
-97.62499840230552
 30
0.0
 40
2.5
  0
CIRCLE
  5
264
330
6A
100
AcDbEntity
  8
0
  6
Continuous
 62
     7
100
AcDbCircle
 10
-154.2499994082309
 20
-103.7749984023055
 30
0.0
 40
2.5
  0
ENDBLK
  5
6C
330
6A
100
AcDbEntity
  8
0
100
AcDbBlockEnd
  0
BLOCK
  5
6F
330
6D
100
AcDbEntity
  8
0
100
AcDbBlockBegin
  2
Top1
 70
     0
 10
-154.249999999955
 20
-100.6999999283294
 30
0.0
  3
Top1
  1

  0
INSERT
  5
6E
330
6D
100
AcDbEntity
  8
0
100
AcDbBlockReference
  2
FB_4-6-select__6
 10
-156.9999994082309
 20
-112.4249984023055
 30
0.0
  0
DIMENSION
  5
26F
330
6D
100
AcDbEntity
  8
1
100
AcDbDimension
  2
*D19
 10
-161.9999994082309
 20
-89.19999840230551
 30
0.0
 11
-163.6249994082309
 21
-101.0514927985085
 31
0.0
 70
    32
  1
<>
 71
     5
 42
-1.0
 53
90.0
  3
ME10_DIM_12
100
AcDbAlignedDimension
 13
-153.2134787861473
 23
-112.1999984023045
 33
0.0
 14
-156.9999994082309
 24
-89.19999840230554
 34
0.0
 50
90.0
100
AcDbRotatedDimension
  0
ENDBLK
  5
70
330
6D
100
AcDbEntity
  8
0
100
AcDbBlockEnd
  0
BLOCK
  5
72
330
71
100
AcDbEntity
  8
0
100
AcDbBlockBegin
  2
_rahmen
 70
     0
 10
-123.4999999999899
 20
-267.0000000000051
 30
0.0
  3
_rahmen
  1

  0
LINE
  5
270
330
71
100
AcDbEntity
  8
1
  6
DOT_CENTER
 62
     2
100
AcDbLine
 10
-249.0581496401773
 20
-240.8750000000051
 30
0.0
 11
-243.5581496401773
 21
-240.8750000000051
 31
0.0
  0
LINE
  5
271
330
71
100
AcDbEntity
  8
1
  6
PHANTOM
 62
     2
100
AcDbLine
 10
-240.3081496401773
 20
-238.1250000000051
 30
0.0
 11
-240.3081496401773
 21
-243.6250000000051
 31
0.0
  0
LINE
  5
272
330
71
100
AcDbEntity
  8
1
  6
PHANTOM
 62
     2
100
AcDbLine
 10
-237.5581496401773
 20
-240.8750000000051
 30
0.0
 11
-243.0581496401773
 21
-240.8750000000051
 31
0.0
  0
LINE
  5
273
330
71
100
AcDbEntity
  8
1
  6
Continuous
 62
     7
100
AcDbLine
 10
-188.7448045267399
 20
-253.5000000000051
 30
0.0
 11
-188.7448045267399
 21
-245.000000000005
 31
0.0
  0
LINE
  5
274
330
71
100
AcDbEntity
  8
1
  6
Continuous
 62
     6
100
AcDbLine
 10
-216.64480452674
 20
-245.000000000005
 30
0.0
 11
-123.4999999999882
 21
-245.000000000005
 31
0.0
  0
LINE
  5
275
330
71
100
AcDbEntity
  8
1
  6
Continuous
 62
     7
100
AcDbLine
 10
-253.0448045267399
 20
-245.000000000005
 30
0.0
 11
-253.0448045267399
 21
-236.500000000005
 31
0.0
  0
LINE
  5
276
330
71
100
AcDbEntity
  8
1
  6
Continuous
 62
     7
100
AcDbLine
 10
-216.64480452674
 20
-245.000000000005
 30
0.0
 11
-216.64480452674
 21
-236.500000000005
 31
0.0
  0
LINE
  5
277
330
71
100
AcDbEntity
  8
1
  6
Continuous
 62
     7
100
AcDbLine
 10
-158.918408281667
 20
-236.500000000005
 30
0.0
 11
-158.918408281667
 21
-245.000000000005
 31
0.0
  0
LINE
  5
278
330
71
100
AcDbEntity
  8
1
  6
Continuous
 62
     7
100
AcDbLine
 10
-132.4184082816674
 20
-236.500000000005
 30
0.0
 11
-132.4184082816674
 21
-245.000000000005
 31
0.0
  0
LINE
  5
279
330
71
100
AcDbEntity
  8
1
  6
Continuous
 62
     6
100
AcDbLine
 10
-322.0448045267399
 20
-262.000000000005
 30
0.0
 11
-366.9999999999899
 21
-262.000000000005
 31
0.0
  0
LINE
  5
27A
330
71
100
AcDbEntity
  8
1
  6
Continuous
 62
     7
100
AcDbLine
 10
-123.4999999999886
 20
-253.500000000005
 30
0.0
 11
-216.64480452674
 21
-253.500000000005
 31
0.0
  0
LINE
  5
27B
102
{ACAD_REACTORS
330
38D
330
38E
102
}
330
71
100
AcDbEntity
  8
0
  6
Continuous
 62
     2
100
AcDbLine
 10
-239.3373755849725
 20
-252.6997108843417
 30
0.0
 11
-239.3373755849725
 21
-251.8271938775384
 31
0.0
  0
LINE
  5
27C
102
{ACAD_REACTORS
330
38D
330
38E
102
}
330
71
100
AcDbEntity
  8
0
  6
Continuous
 62
     2
100
AcDbLine
 10
-239.3373755849725
 20
-253.6594795918246
 30
0.0
 11
-239.3373755849725
 21
-254.5319965986278
 31
0.0
  0
LINE
  5
27D
102
{ACAD_REACTORS
330
38F
330
390
102
}
330
71
100
AcDbEntity
  8
0
  6
Continuous
 62
     2
100
AcDbLine
 10
-224.004331448682
 20
-252.4379557823012
 30
0.0
 11
-222.9006921491139
 21
-252.4379557823012
 31
0.0
  0
LINE
  5
27E
102
{ACAD_REACTORS
330
38F
330
390
102
}
330
71
100
AcDbEntity
  8
0
  6
Continuous
 62
     2
100
AcDbLine
 10
-223.2346741057206
 20
-253.6594795918251
 30
0.0
 11
-223.2346741057206
 21
-254.5319965986284
 31
0.0
  0
LINE
  5
27F
102
{ACAD_REACTORS
330
399
330
39A
102
}
330
71
100
AcDbEntity
  8
0
  6
Continuous
 62
     2
100
AcDbLine
 10
-225.0954307211005
 20
-251.3473095238144
 30
0.0
 11
-223.6974776741602
 21
-249.7664505300394
 31
0.0
  0
LINE
  5
280
102
{ACAD_REACTORS
330
399
330
39A
102
}
330
71
100
AcDbEntity
  8
0
  6
Continuous
 62
     2
100
AcDbLine
 10
-225.0000073049277
 20
-248.2935000000032
 30
0.0
 11
-223.6974776741602
 21
-249.7664505300394
 31
0.0
  0
LINE
  5
281
102
{ACAD_REACTORS
330
399
330
39A
102
}
330
71
100
AcDbEntity
  8
0
  6
Continuous
 62
     2
100
AcDbLine
 10
-222.3949480433938
 20
-248.2935000000032
 30
0.0
 11
-220.9922238256466
 21
-248.2935000000032
 31
0.0
  0
LINE
  5
282
102
{ACAD_REACTORS
330
399
330
39A
102
}
330
71
100
AcDbEntity
  8
0
  6
Continuous
 62
     2
100
AcDbLine
 10
-223.6927065033523
 20
-251.3473095238144
 30
0.0
 11
-222.9961155652866
 21
-250.5595777385207
 31
0.0
  0
LINE
  5
283
102
{ACAD_REACTORS
330
399
330
39A
102
}
330
71
100
AcDbEntity
  8
0
  6
Continuous
 62
     2
100
AcDbLine
 10
-223.6927065033523
 20
-251.3473095238144
 30
0.0
 11
-225.0954307211005
 21
-251.3473095238144
 31
0.0
  0
LINE
  5
284
102
{ACAD_REACTORS
330
39B
330
39C
102
}
330
71
100
AcDbEntity
  8
0
  6
Continuous
 62
     2
100
AcDbLine
 10
-225.2147099913174
 20
-251.3473095238144
 30
0.0
 11
-226.4552144015703
 21
-251.3473095238144
 31
0.0
  0
LINE
  5
285
102
{ACAD_REACTORS
330
39D
330
39E
102
}
330
71
100
AcDbEntity
  8
0
  6
Continuous
 62
     2
100
AcDbLine
 10
-227.3231940097254
 20
-253.4849761904642
 30
0.0
 11
-227.6233592469155
 21
-252.7171612244775
 31
0.0
  0
LINE
  5
286
102
{ACAD_REACTORS
330
39D
330
39E
102
}
330
71
100
AcDbEntity
  8
0
  6
Continuous
 62
     2
100
AcDbLine
 10
-227.9235244841079
 20
-253.4849761904642
 30
0.0
 11
-227.3231940097254
 21
-253.4849761904642
 31
0.0
  0
LINE
  5
287
102
{ACAD_REACTORS
330
39D
330
39E
102
}
330
71
100
AcDbEntity
  8
0
  6
Continuous
 62
     2
100
AcDbLine
 10
-229.6415644989817
 20
-254.7064999999887
 30
0.0
 11
-228.4010600887287
 21
-254.7064999999887
 31
0.0
  0
LINE
  5
288
102
{ACAD_REACTORS
330
39D
330
39E
102
}
330
71
100
AcDbEntity
  8
0
  6
Continuous
 62
     2
100
AcDbLine
 10
-228.2436114520424
 20
-251.6526904761776
 30
0.0
 11
-227.0031070417897
 21
-251.6526904761776
 31
0.0
  0
LINE
  5
289
102
{ACAD_REACTORS
330
39D
330
39E
102
}
330
71
100
AcDbEntity
  8
0
  6
Continuous
 62
     2
100
AcDbLine
 10
-227.0031070417897
 20
-251.6526904761776
 30
0.0
 11
-225.6051539948494
 21
-254.7064999999887
 31
0.0
  0
LINE
  5
28A
102
{ACAD_REACTORS
330
39D
330
39E
102
}
330
71
100
AcDbEntity
  8
0
  6
Continuous
 62
     2
100
AcDbLine
 10
-226.8456584051033
 20
-254.7064999999887
 30
0.0
 11
-227.0571384585791
 21
-254.1655394557708
 31
0.0
  0
LINE
  5
28B
102
{ACAD_REACTORS
330
39F
330
3A0
102
}
330
71
100
AcDbEntity
  8
0
  6
Continuous
 62
     2
100
AcDbLine
 10
-230.9879776006893
 20
-254.7064999999887
 30
0.0
 11
-229.7951848985228
 21
-254.7064999999887
 31
0.0
  0
LINE
  5
28C
102
{ACAD_REACTORS
330
39F
330
3A0
102
}
330
71
100
AcDbEntity
  8
0
  6
Continuous
 62
     2
100
AcDbLine
 10
-230.9879776006893
 20
-252.4379557823012
 30
0.0
 11
-230.9879776006893
 21
-254.7064999999887
 31
0.0
  0
LINE
  5
28D
102
{ACAD_REACTORS
330
39F
330
3A0
102
}
330
71
100
AcDbEntity
  8
0
  6
Continuous
 62
     2
100
AcDbLine
 10
-231.7990766381639
 20
-251.6526904761776
 30
0.0
 11
-231.7990766381639
 21
-252.4379557823012
 31
0.0
  0
LINE
  5
28E
102
{ACAD_REACTORS
330
3A1
330
3A2
102
}
330
71
100
AcDbEntity
  8
0
  6
Continuous
 62
     2
100
AcDbLine
 10
-230.3198627565913
 20
-251.3473095238144
 30
0.0
 11
-229.1270700544248
 21
-251.3473095238144
 31
0.0
  0
LINE
  5
28F
102
{ACAD_REACTORS
330
3A1
330
3A2
102
}
330
71
100
AcDbEntity
  8
0
  6
Continuous
 62
     2
100
AcDbLine
 10
-227.8865656441708
 20
-249.6022755102084
 30
0.0
 11
-229.1270700544248
 21
-248.2935000000032
 31
0.0
  0
LINE
  5
290
102
{ACAD_REACTORS
330
3A1
330
3A2
102
}
330
71
100
AcDbEntity
  8
0
  6
Continuous
 62
     2
100
AcDbLine
 10
-226.6937729420042
 20
-248.2935000000032
 30
0.0
 11
-227.8865656441708
 21
-248.2935000000032
 31
0.0
  0
LINE
  5
291
102
{ACAD_REACTORS
330
3A1
330
3A2
102
}
330
71
100
AcDbEntity
  8
0
  6
Continuous
 62
     2
100
AcDbLine
 10
-226.6937729420042
 20
-251.3473095238144
 30
0.0
 11
-226.6937729420042
 21
-248.2935000000032
 31
0.0
  0
LINE
  5
292
102
{ACAD_REACTORS
330
3A1
330
3A2
102
}
330
71
100
AcDbEntity
  8
0
  6
Continuous
 62
     2
100
AcDbLine
 10
-227.8865656441708
 20
-251.3473095238144
 30
0.0
 11
-226.6937729420042
 21
-251.3473095238144
 31
0.0
  0
LINE
  5
293
102
{ACAD_REACTORS
330
3A1
330
3A2
102
}
330
71
100
AcDbEntity
  8
0
  6
Continuous
 62
     2
100
AcDbLine
 10
-229.1270700544248
 20
-250.0385340136097
 30
0.0
 11
-227.8865656441708
 21
-251.3473095238144
 31
0.0
  0
LINE
  5
294
102
{ACAD_REACTORS
330
3A3
330
3A4
102
}
330
71
100
AcDbEntity
  8
0
  6
Continuous
 62
     2
100
AcDbLine
 10
-233.1350044645905
 20
-252.9614659863827
 30
0.0
 11
-234.3755088748434
 21
-251.6526904761776
 31
0.0
  0
LINE
  5
295
102
{ACAD_REACTORS
330
3A3
330
3A4
102
}
330
71
100
AcDbEntity
  8
0
  6
Continuous
 62
     2
100
AcDbLine
 10
-233.1350044645905
 20
-251.6526904761776
 30
0.0
 11
-233.1350044645905
 21
-252.9614659863827
 31
0.0
  0
LINE
  5
296
102
{ACAD_REACTORS
330
3A3
330
3A4
102
}
330
71
100
AcDbEntity
  8
0
  6
Continuous
 62
     2
100
AcDbLine
 10
-231.9422117624241
 20
-251.6526904761776
 30
0.0
 11
-233.1350044645905
 21
-251.6526904761776
 31
0.0
  0
LINE
  5
297
102
{ACAD_REACTORS
330
3A3
330
3A4
102
}
330
71
100
AcDbEntity
  8
0
  6
Continuous
 62
     2
100
AcDbLine
 10
-231.9422117624241
 20
-254.7064999999887
 30
0.0
 11
-231.9422117624241
 21
-251.6526904761776
 31
0.0
  0
LINE
  5
298
102
{ACAD_REACTORS
330
3A3
330
3A4
102
}
330
71
100
AcDbEntity
  8
0
  6
Continuous
 62
     2
100
AcDbLine
 10
-234.3755088748434
 20
-253.3977244897841
 30
0.0
 11
-233.1350044645905
 21
-254.7064999999887
 31
0.0
  0
LINE
  5
299
102
{ACAD_REACTORS
330
3A3
330
3A4
102
}
330
71
100
AcDbEntity
  8
0
  6
Continuous
 62
     2
100
AcDbLine
 10
-234.3755088748434
 20
-254.7064999999887
 30
0.0
 11
-234.3755088748434
 21
-253.3977244897841
 31
0.0
  0
LINE
  5
29A
102
{ACAD_REACTORS
330
393
330
394
102
}
330
71
100
AcDbEntity
  8
0
  6
Continuous
 62
     2
100
AcDbLine
 10
-231.8943491234519
 20
-248.9915136054462
 30
0.0
 11
-230.5584212970242
 21
-248.9915136054462
 31
0.0
  0
LINE
  5
29B
102
{ACAD_REACTORS
330
393
330
394
102
}
330
71
100
AcDbEntity
  8
0
  6
Continuous
 62
     2
100
AcDbLine
 10
-231.8943491234519
 20
-250.6492959183719
 30
0.0
 11
-231.8943491234519
 21
-250.1694115646302
 31
0.0
  0
LINE
  5
29C
102
{ACAD_REACTORS
330
393
330
394
102
}
330
71
100
AcDbEntity
  8
0
  6
Continuous
 62
     2
100
AcDbLine
 10
-230.5584212970242
 20
-250.6492959183719
 30
0.0
 11
-231.8943491234519
 21
-250.6492959183719
 31
0.0
  0
LINE
  5
29D
102
{ACAD_REACTORS
330
393
330
394
102
}
330
71
100
AcDbEntity
  8
0
  6
Continuous
 62
     2
100
AcDbLine
 10
-230.5584212970242
 20
-251.3473095238144
 30
0.0
 11
-230.5584212970242
 21
-250.6492959183719
 31
0.0
  0
LINE
  5
29E
102
{ACAD_REACTORS
330
393
330
394
102
}
330
71
100
AcDbEntity
  8
0
  6
Continuous
 62
     2
100
AcDbLine
 10
-233.7087410208052
 20
-251.3473095238144
 30
0.0
 11
-230.5584212970242
 21
-251.3473095238144
 31
0.0
  0
LINE
  5
29F
102
{ACAD_REACTORS
330
393
330
394
102
}
330
71
100
AcDbEntity
  8
0
  6
Continuous
 62
     2
100
AcDbLine
 10
-233.7087410208052
 20
-248.2935000000032
 30
0.0
 11
-230.5584212970242
 21
-248.2935000000032
 31
0.0
  0
LINE
  5
2A0
102
{ACAD_REACTORS
330
393
330
394
102
}
330
71
100
AcDbEntity
  8
0
  6
Continuous
 62
     2
100
AcDbLine
 10
-230.5584212970242
 20
-248.9915136054462
 30
0.0
 11
-230.5584212970242
 21
-248.2935000000032
 31
0.0
  0
LINE
  5
2A1
102
{ACAD_REACTORS
330
3A5
330
3A6
102
}
330
71
100
AcDbEntity
  8
0
  6
Continuous
 62
     2
100
AcDbLine
 10
-236.5700965159452
 20
-249.3623333333378
 30
0.0
 11
-236.5700965159452
 21
-248.2935000000032
 31
0.0
  0
LINE
  5
2A2
102
{ACAD_REACTORS
330
3A5
330
3A6
102
}
330
71
100
AcDbEntity
  8
0
  6
Continuous
 62
     2
100
AcDbLine
 10
-236.5700965159452
 20
-248.2935000000032
 30
0.0
 11
-235.3773038137788
 21
-248.2935000000032
 31
0.0
  0
LINE
  5
2A3
102
{ACAD_REACTORS
330
3A5
330
3A6
102
}
330
71
100
AcDbEntity
  8
0
  6
Continuous
 62
     2
100
AcDbLine
 10
-236.5700965159452
 20
-250.2130374149706
 30
0.0
 11
-237.6197540938527
 21
-250.2130374149706
 31
0.0
  0
LINE
  5
2A4
102
{ACAD_REACTORS
330
3A5
330
3A6
102
}
330
71
100
AcDbEntity
  8
0
  6
Continuous
 62
     2
100
AcDbLine
 10
-237.6197540938527
 20
-250.2130374149706
 30
0.0
 11
-237.6197540938527
 21
-251.3473095238144
 31
0.0
  0
LINE
  5
2A5
102
{ACAD_REACTORS
330
3A5
330
3A6
102
}
330
71
100
AcDbEntity
  8
0
  6
Continuous
 62
     2
100
AcDbLine
 10
-238.8125467960193
 20
-248.2935000000032
 30
0.0
 11
-238.8125467960193
 21
-251.3473095238144
 31
0.0
  0
LINE
  5
2A6
102
{ACAD_REACTORS
330
397
330
398
102
}
330
71
100
AcDbEntity
  8
0
  6
Continuous
 62
     2
100
AcDbLine
 10
-240.7687268275729
 20
-249.6623334947855
 30
0.0
 11
-240.7687268275729
 21
-248.9566058454433
 31
0.0
  0
LINE
  5
2A7
102
{ACAD_REACTORS
330
397
330
398
102
}
330
71
100
AcDbEntity
  8
0
  6
Continuous
 62
     2
100
AcDbLine
 10
-242.009231237827
 20
-251.3473095238144
 30
0.0
 11
-240.7687268275729
 21
-251.3473095238144
 31
0.0
  0
LINE
  5
2A8
102
{ACAD_REACTORS
330
397
330
398
102
}
330
71
100
AcDbEntity
  8
0
  6
Continuous
 62
     2
100
AcDbLine
 10
-240.7687268275729
 20
-251.3473095238144
 30
0.0
 11
-240.7687268275729
 21
-250.4042312826706
 31
0.0
  0
LINE
  5
2A9
102
{ACAD_REACTORS
330
391
330
392
102
}
330
71
100
AcDbEntity
  8
0
  6
Continuous
 62
     2
100
AcDbLine
 10
-246.3141770870384
 20
-253.9939444444318
 30
0.0
 11
-247.790010348048
 21
-253.9939444444318
 31
0.0
  0
LINE
  5
2AA
102
{ACAD_REACTORS
330
391
330
392
102
}
330
71
100
AcDbEntity
  8
0
  6
Continuous
 62
     2
100
AcDbLine
 10
-248.8081496401773
 20
-248.7177446154052
 30
0.0
 11
-248.8081496401773
 21
-254.2822553846054
 31
0.0
  0
LINE
  5
2AB
102
{ACAD_REACTORS
330
391
330
392
102
}
330
71
100
AcDbEntity
  8
0
  6
Continuous
 62
     2
100
AcDbLine
 10
-248.3839050247945
 20
-248.2935000000214
 30
0.0
 11
-242.9105929340777
 21
-248.2935000000214
 31
0.0
  0
LINE
  5
2AC
102
{ACAD_REACTORS
330
391
330
392
102
}
330
71
100
AcDbEntity
  8
0
  6
Continuous
 62
     2
100
AcDbLine
 10
-242.4863483186938
 20
-248.7177446154052
 30
0.0
 11
-242.4863483186938
 21
-254.2822553846054
 31
0.0
  0
LINE
  5
2AD
102
{ACAD_REACTORS
330
391
330
392
102
}
330
71
100
AcDbEntity
  8
0
  6
Continuous
 62
     2
100
AcDbLine
 10
-242.9105929340777
 20
-254.7064999999887
 30
0.0
 11
-248.3839050247945
 21
-254.7064999999887
 31
0.0
  0
LINE
  5
2AE
102
{ACAD_REACTORS
330
391
330
392
102
}
330
71
100
AcDbEntity
  8
0
  6
Continuous
 62
     2
100
AcDbLine
 10
-245.9984601639618
 20
-253.6782275213551
 30
0.0
 11
-245.9984601639618
 21
-252.1474565898235
 31
0.0
  0
LINE
  5
2AF
102
{ACAD_REACTORS
330
391
330
392
102
}
330
71
100
AcDbEntity
  8
0
  6
Continuous
 62
     2
100
AcDbLine
 10
-245.9984601639618
 20
-249.9257970976985
 30
0.0
 11
-245.9984601639618
 21
-249.321772478638
 31
0.0
  0
LINE
  5
2B0
102
{ACAD_REACTORS
330
391
330
392
102
}
330
71
100
AcDbEntity
  8
0
  6
Continuous
 62
     2
100
AcDbLine
 10
-247.790010348048
 20
-249.0060555555618
 30
0.0
 11
-246.3141770870384
 21
-249.0060555555618
 31
0.0
  0
LINE
  5
2B1
102
{ACAD_REACTORS
330
391
330
392
102
}
330
71
100
AcDbEntity
  8
0
  6
Continuous
 62
     2
100
AcDbLine
 10
-248.1057272711237
 20
-249.321772478638
 30
0.0
 11
-248.1057272711237
 21
-253.6782275213551
 31
0.0
  0
LINE
  5
2B2
102
{ACAD_REACTORS
330
397
330
398
102
}
330
71
100
AcDbEntity
  8
0
  6
Continuous
 62
     2
100
AcDbLine
 10
-240.7687268275729
 20
-250.4042312826706
 30
0.0
 11
-240.0099592397926
 21
-250.4042312826706
 31
0.0
  0
LINE
  5
2B3
102
{ACAD_REACTORS
330
397
330
398
102
}
330
71
100
AcDbEntity
  8
0
  6
Continuous
 62
     2
100
AcDbLine
 10
-242.009231237827
 20
-248.2935000000032
 30
0.0
 11
-240.0099592397926
 21
-248.2935000000032
 31
0.0
  0
LINE
  5
2B4
102
{ACAD_REACTORS
330
397
330
398
102
}
330
71
100
AcDbEntity
  8
0
  6
Continuous
 62
     2
100
AcDbLine
 10
-242.009231237827
 20
-248.2935000000032
 30
0.0
 11
-242.009231237827
 21
-251.3473095238144
 31
0.0
  0
LINE
  5
2B5
102
{ACAD_REACTORS
330
397
330
398
102
}
330
71
100
AcDbEntity
  8
0
  6
Continuous
 62
     2
100
AcDbLine
 10
-240.7687268275729
 20
-249.6623334947855
 30
0.0
 11
-240.451431766031
 21
-249.6623334947855
 31
0.0
  0
LINE
  5
2B6
102
{ACAD_REACTORS
330
397
330
398
102
}
330
71
100
AcDbEntity
  8
0
  6
Continuous
 62
     2
100
AcDbLine
 10
-240.7687268275729
 20
-248.9566058454433
 30
0.0
 11
-240.451431766031
 21
-248.9566058454433
 31
0.0
  0
LINE
  5
2B7
102
{ACAD_REACTORS
330
3A5
330
3A6
102
}
330
71
100
AcDbEntity
  8
0
  6
Continuous
 62
     2
100
AcDbLine
 10
-237.6197540938527
 20
-249.3623333333378
 30
0.0
 11
-236.5700965159452
 21
-249.3623333333378
 31
0.0
  0
LINE
  5
2B8
102
{ACAD_REACTORS
330
3A5
330
3A6
102
}
330
71
100
AcDbEntity
  8
0
  6
Continuous
 62
     2
100
AcDbLine
 10
-237.6197540938527
 20
-248.2935000000032
 30
0.0
 11
-237.6197540938527
 21
-249.3623333333378
 31
0.0
  0
LINE
  5
2B9
102
{ACAD_REACTORS
330
3A5
330
3A6
102
}
330
71
100
AcDbEntity
  8
0
  6
Continuous
 62
     2
100
AcDbLine
 10
-238.8125467960193
 20
-248.2935000000032
 30
0.0
 11
-237.6197540938527
 21
-248.2935000000032
 31
0.0
  0
LINE
  5
2BA
102
{ACAD_REACTORS
330
3A5
330
3A6
102
}
330
71
100
AcDbEntity
  8
0
  6
Continuous
 62
     2
100
AcDbLine
 10
-237.6197540938527
 20
-251.3473095238144
 30
0.0
 11
-238.8125467960193
 21
-251.3473095238144
 31
0.0
  0
LINE
  5
2BB
102
{ACAD_REACTORS
330
3A5
330
3A6
102
}
330
71
100
AcDbEntity
  8
0
  6
Continuous
 62
     2
100
AcDbLine
 10
-236.5700965159452
 20
-251.3473095238144
 30
0.0
 11
-236.5700965159452
 21
-250.2130374149706
 31
0.0
  0
LINE
  5
2BC
102
{ACAD_REACTORS
330
3A5
330
3A6
102
}
330
71
100
AcDbEntity
  8
0
  6
Continuous
 62
     2
100
AcDbLine
 10
-235.3773038137788
 20
-251.3473095238144
 30
0.0
 11
-236.5700965159452
 21
-251.3473095238144
 31
0.0
  0
LINE
  5
2BD
102
{ACAD_REACTORS
330
3A5
330
3A6
102
}
330
71
100
AcDbEntity
  8
0
  6
Continuous
 62
     2
100
AcDbLine
 10
-235.3773038137788
 20
-248.2935000000032
 30
0.0
 11
-235.3773038137788
 21
-251.3473095238144
 31
0.0
  0
LINE
  5
2BE
102
{ACAD_REACTORS
330
393
330
394
102
}
330
71
100
AcDbEntity
  8
0
  6
Continuous
 62
     2
100
AcDbLine
 10
-231.8943491234519
 20
-250.1694115646302
 30
0.0
 11
-230.5584212970242
 21
-250.1694115646302
 31
0.0
  0
LINE
  5
2BF
102
{ACAD_REACTORS
330
393
330
394
102
}
330
71
100
AcDbEntity
  8
0
  6
Continuous
 62
     2
100
AcDbLine
 10
-230.5584212970242
 20
-250.1694115646302
 30
0.0
 11
-230.5584212970242
 21
-249.4713979591879
 31
0.0
  0
LINE
  5
2C0
102
{ACAD_REACTORS
330
393
330
394
102
}
330
71
100
AcDbEntity
  8
0
  6
Continuous
 62
     2
100
AcDbLine
 10
-230.5584212970242
 20
-249.4713979591879
 30
0.0
 11
-231.8943491234519
 21
-249.4713979591879
 31
0.0
  0
LINE
  5
2C1
102
{ACAD_REACTORS
330
393
330
394
102
}
330
71
100
AcDbEntity
  8
0
  6
Continuous
 62
     2
100
AcDbLine
 10
-231.8943491234519
 20
-249.4713979591879
 30
0.0
 11
-231.8943491234519
 21
-248.9915136054462
 31
0.0
  0
LINE
  5
2C2
102
{ACAD_REACTORS
330
3A3
330
3A4
102
}
330
71
100
AcDbEntity
  8
0
  6
Continuous
 62
     2
100
AcDbLine
 10
-235.568301577011
 20
-254.7064999999887
 30
0.0
 11
-234.3755088748434
 21
-254.7064999999887
 31
0.0
  0
LINE
  5
2C3
102
{ACAD_REACTORS
330
3A3
330
3A4
102
}
330
71
100
AcDbEntity
  8
0
  6
Continuous
 62
     2
100
AcDbLine
 10
-233.1350044645905
 20
-254.7064999999887
 30
0.0
 11
-231.9422117624241
 21
-254.7064999999887
 31
0.0
  0
LINE
  5
2C4
102
{ACAD_REACTORS
330
3A3
330
3A4
102
}
330
71
100
AcDbEntity
  8
0
  6
Continuous
 62
     2
100
AcDbLine
 10
-234.3755088748434
 20
-251.6526904761776
 30
0.0
 11
-235.568301577011
 21
-251.6526904761776
 31
0.0
  0
LINE
  5
2C5
102
{ACAD_REACTORS
330
3A3
330
3A4
102
}
330
71
100
AcDbEntity
  8
0
  6
Continuous
 62
     2
100
AcDbLine
 10
-235.568301577011
 20
-251.6526904761776
 30
0.0
 11
-235.568301577011
 21
-254.7064999999887
 31
0.0
  0
LINE
  5
2C6
102
{ACAD_REACTORS
330
3A1
330
3A2
102
}
330
71
100
AcDbEntity
  8
0
  6
Continuous
 62
     2
100
AcDbLine
 10
-227.8865656441708
 20
-248.2935000000032
 30
0.0
 11
-227.8865656441708
 21
-249.6022755102084
 31
0.0
  0
LINE
  5
2C7
102
{ACAD_REACTORS
330
3A1
330
3A2
102
}
330
71
100
AcDbEntity
  8
0
  6
Continuous
 62
     2
100
AcDbLine
 10
-229.1270700544248
 20
-248.2935000000032
 30
0.0
 11
-230.3198627565913
 21
-248.2935000000032
 31
0.0
  0
LINE
  5
2C8
102
{ACAD_REACTORS
330
3A1
330
3A2
102
}
330
71
100
AcDbEntity
  8
0
  6
Continuous
 62
     2
100
AcDbLine
 10
-230.3198627565913
 20
-248.2935000000032
 30
0.0
 11
-230.3198627565913
 21
-251.3473095238144
 31
0.0
  0
LINE
  5
2C9
102
{ACAD_REACTORS
330
3A1
330
3A2
102
}
330
71
100
AcDbEntity
  8
0
  6
Continuous
 62
     2
100
AcDbLine
 10
-229.1270700544248
 20
-251.3473095238144
 30
0.0
 11
-229.1270700544248
 21
-250.0385340136097
 31
0.0
  0
LINE
  5
2CA
102
{ACAD_REACTORS
330
39F
330
3A0
102
}
330
71
100
AcDbEntity
  8
0
  6
Continuous
 62
     2
100
AcDbLine
 10
-229.7951848985228
 20
-254.7064999999887
 30
0.0
 11
-229.7951848985228
 21
-252.4379557823012
 31
0.0
  0
LINE
  5
2CB
102
{ACAD_REACTORS
330
39F
330
3A0
102
}
330
71
100
AcDbEntity
  8
0
  6
Continuous
 62
     2
100
AcDbLine
 10
-229.7951848985228
 20
-252.4379557823012
 30
0.0
 11
-228.9840858610503
 21
-252.4379557823012
 31
0.0
  0
LINE
  5
2CC
102
{ACAD_REACTORS
330
39F
330
3A0
102
}
330
71
100
AcDbEntity
  8
0
  6
Continuous
 62
     2
100
AcDbLine
 10
-228.9840858610503
 20
-252.4379557823012
 30
0.0
 11
-228.9840858610503
 21
-251.6526904761776
 31
0.0
  0
LINE
  5
2CD
102
{ACAD_REACTORS
330
39F
330
3A0
102
}
330
71
100
AcDbEntity
  8
0
  6
Continuous
 62
     2
100
AcDbLine
 10
-228.9840858610503
 20
-251.6526904761776
 30
0.0
 11
-231.7990766381639
 21
-251.6526904761776
 31
0.0
  0
LINE
  5
2CE
102
{ACAD_REACTORS
330
39F
330
3A0
102
}
330
71
100
AcDbEntity
  8
0
  6
Continuous
 62
     2
100
AcDbLine
 10
-231.7990766381639
 20
-252.4379557823012
 30
0.0
 11
-230.9879776006893
 21
-252.4379557823012
 31
0.0
  0
LINE
  5
2CF
102
{ACAD_REACTORS
330
39D
330
39E
102
}
330
71
100
AcDbEntity
  8
0
  6
Continuous
 62
     2
100
AcDbLine
 10
-228.1895800352529
 20
-254.1655394557708
 30
0.0
 11
-227.0571384585791
 21
-254.1655394557708
 31
0.0
  0
LINE
  5
2D0
102
{ACAD_REACTORS
330
39D
330
39E
102
}
330
71
100
AcDbEntity
  8
0
  6
Continuous
 62
     2
100
AcDbLine
 10
-225.6051539948494
 20
-254.7064999999887
 30
0.0
 11
-226.8456584051033
 21
-254.7064999999887
 31
0.0
  0
LINE
  5
2D1
102
{ACAD_REACTORS
330
39D
330
39E
102
}
330
71
100
AcDbEntity
  8
0
  6
Continuous
 62
     2
100
AcDbLine
 10
-228.2436114520424
 20
-251.6526904761776
 30
0.0
 11
-229.6415644989817
 21
-254.7064999999887
 31
0.0
  0
LINE
  5
2D2
102
{ACAD_REACTORS
330
39D
330
39E
102
}
330
71
100
AcDbEntity
  8
0
  6
Continuous
 62
     2
100
AcDbLine
 10
-228.4010600887287
 20
-254.7064999999887
 30
0.0
 11
-228.1895800352529
 21
-254.1655394557708
 31
0.0
  0
LINE
  5
2D3
102
{ACAD_REACTORS
330
39D
330
39E
102
}
330
71
100
AcDbEntity
  8
0
  6
Continuous
 62
     2
100
AcDbLine
 10
-227.9235244841079
 20
-253.4849761904642
 30
0.0
 11
-227.6233592469155
 21
-252.7171612244775
 31
0.0
  0
LINE
  5
2D4
102
{ACAD_REACTORS
330
39B
330
39C
102
}
330
71
100
AcDbEntity
  8
0
  6
Continuous
 62
     2
100
AcDbLine
 10
-226.4552144015703
 20
-251.3473095238144
 30
0.0
 11
-226.4552144015703
 21
-248.2935000000032
 31
0.0
  0
LINE
  5
2D5
102
{ACAD_REACTORS
330
39B
330
39C
102
}
330
71
100
AcDbEntity
  8
0
  6
Continuous
 62
     2
100
AcDbLine
 10
-225.2147099913174
 20
-248.2935000000032
 30
0.0
 11
-225.2147099913174
 21
-251.3473095238144
 31
0.0
  0
LINE
  5
2D6
102
{ACAD_REACTORS
330
39B
330
39C
102
}
330
71
100
AcDbEntity
  8
0
  6
Continuous
 62
     2
100
AcDbLine
 10
-226.4552144015703
 20
-248.2935000000032
 30
0.0
 11
-225.2147099913174
 21
-248.2935000000032
 31
0.0
  0
LINE
  5
2D7
102
{ACAD_REACTORS
330
399
330
39A
102
}
330
71
100
AcDbEntity
  8
0
  6
Continuous
 62
     2
100
AcDbLine
 10
-222.9961155652866
 20
-250.5595777385207
 30
0.0
 11
-222.2995246272211
 21
-251.3473095238144
 31
0.0
  0
LINE
  5
2D8
102
{ACAD_REACTORS
330
399
330
39A
102
}
330
71
100
AcDbEntity
  8
0
  6
Continuous
 62
     2
100
AcDbLine
 10
-222.2995246272211
 20
-251.3473095238144
 30
0.0
 11
-220.8968004094728
 21
-251.3473095238144
 31
0.0
  0
LINE
  5
2D9
102
{ACAD_REACTORS
330
399
330
39A
102
}
330
71
100
AcDbEntity
  8
0
  6
Continuous
 62
     2
100
AcDbLine
 10
-222.2947534564131
 20
-249.7664505300394
 30
0.0
 11
-220.8968004094728
 21
-251.3473095238144
 31
0.0
  0
LINE
  5
2DA
102
{ACAD_REACTORS
330
399
330
39A
102
}
330
71
100
AcDbEntity
  8
0
  6
Continuous
 62
     2
100
AcDbLine
 10
-222.2947534564131
 20
-249.7664505300394
 30
0.0
 11
-220.9922238256466
 21
-248.2935000000032
 31
0.0
  0
LINE
  5
2DB
102
{ACAD_REACTORS
330
399
330
39A
102
}
330
71
100
AcDbEntity
  8
0
  6
Continuous
 62
     2
100
AcDbLine
 10
-222.9961155652866
 20
-248.9733233215587
 30
0.0
 11
-222.3949480433938
 21
-248.2935000000032
 31
0.0
  0
LINE
  5
2DC
102
{ACAD_REACTORS
330
399
330
39A
102
}
330
71
100
AcDbEntity
  8
0
  6
Continuous
 62
     2
100
AcDbLine
 10
-223.5972830871784
 20
-248.2935000000032
 30
0.0
 11
-222.9961155652866
 21
-248.9733233215587
 31
0.0
  0
LINE
  5
2DD
102
{ACAD_REACTORS
330
399
330
39A
102
}
330
71
100
AcDbEntity
  8
0
  6
Continuous
 62
     2
100
AcDbLine
 10
-223.5972830871784
 20
-248.2935000000032
 30
0.0
 11
-225.0000073049277
 21
-248.2935000000032
 31
0.0
  0
LINE
  5
2DE
102
{ACAD_REACTORS
330
38F
330
390
102
}
330
71
100
AcDbEntity
  8
0
  6
Continuous
 62
     2
100
AcDbLine
 10
-222.9006921491139
 20
-254.7064999999887
 30
0.0
 11
-221.7078994469462
 21
-254.7064999999887
 31
0.0
  0
LINE
  5
2DF
102
{ACAD_REACTORS
330
38F
330
390
102
}
330
71
100
AcDbEntity
  8
0
  6
Continuous
 62
     2
100
AcDbLine
 10
-221.7078994469462
 20
-254.7064999999887
 30
0.0
 11
-221.7078994469462
 21
-252.4379557823012
 31
0.0
  0
LINE
  5
2E0
102
{ACAD_REACTORS
330
38F
330
390
102
}
330
71
100
AcDbEntity
  8
0
  6
Continuous
 62
     2
100
AcDbLine
 10
-221.7078994469462
 20
-252.4379557823012
 30
0.0
 11
-220.8968004094728
 21
-252.4379557823012
 31
0.0
  0
LINE
  5
2E1
102
{ACAD_REACTORS
330
38F
330
390
102
}
330
71
100
AcDbEntity
  8
0
  6
Continuous
 62
     2
100
AcDbLine
 10
-220.8968004094728
 20
-252.4379557823012
 30
0.0
 11
-220.8968004094728
 21
-251.6526904761776
 31
0.0
  0
LINE
  5
2E2
102
{ACAD_REACTORS
330
38F
330
390
102
}
330
71
100
AcDbEntity
  8
0
  6
Continuous
 62
     2
100
AcDbLine
 10
-224.2817459281015
 20
-251.6526904761781
 30
0.0
 11
-220.8968004094728
 21
-251.6526904761776
 31
0.0
  0
LINE
  5
2E3
102
{ACAD_REACTORS
330
38F
330
390
102
}
330
71
100
AcDbEntity
  8
0
  6
Continuous
 62
     2
100
AcDbLine
 10
-222.9006921491139
 20
-252.4379557823012
 30
0.0
 11
-222.9006921491139
 21
-254.7064999999887
 31
0.0
  0
LINE
  5
2E4
102
{ACAD_REACTORS
330
391
330
392
102
}
330
71
100
AcDbEntity
  8
0
  6
Continuous
 62
     2
100
AcDbLine
 10
-245.5301785845931
 20
-252.7276198504242
 30
0.0
 11
-245.5301785845931
 21
-252.1457684437291
 31
0.0
  0
LINE
  5
2E5
102
{ACAD_REACTORS
330
391
330
392
102
}
330
71
100
AcDbEntity
  8
0
  6
Continuous
 62
     2
100
AcDbLine
 10
-245.5301785845931
 20
-249.9274852437929
 30
0.0
 11
-245.5301785845931
 21
-249.3219499552861
 31
0.0
  0
LINE
  5
2E6
330
71
100
AcDbEntity
  8
1
  6
Continuous
 62
     6
100
AcDbLine
 10
-266.9999999999899
 20
-262.000000000005
 30
0.0
 11
-253.0448045267399
 21
-262.0000000000051
 31
0.0
  0
LINE
  5
2E7
330
71
100
AcDbEntity
  8
1
  6
Continuous
 62
     6
100
AcDbLine
 10
-316.9999999999901
 20
-262.000000000005
 30
0.0
 11
-322.0448045267399
 21
-262.000000000005
 31
0.0
  0
LINE
  5
2E8
330
71
100
AcDbEntity
  8
1
  6
Continuous
 62
     6
100
AcDbLine
 10
-166.9999999999899
 20
-262.000000000005
 30
0.0
 11
-123.4999999999899
 21
-262.000000000005
 31
0.0
  0
LINE
  5
2E9
330
71
100
AcDbEntity
  8
1
  6
Continuous
 62
     6
100
AcDbLine
 10
-216.9999999999899
 20
-262.000000000005
 30
0.0
 11
-234.8448045267399
 21
-262.000000000005
 31
0.0
  0
LINE
  5
2EA
330
71
100
AcDbEntity
  8
1
  6
Continuous
 62
     2
100
AcDbLine
 10
-123.4999999999899
 20
-262.000000000005
 30
0.0
 11
-118.4999999999909
 21
-262.000000000005
 31
0.0
  0
LINE
  5
2EB
330
71
100
AcDbEntity
  8
1
  6
Continuous
 62
     2
100
AcDbLine
 10
-123.4999999999899
 20
-262.000000000005
 30
0.0
 11
-123.4999999999899
 21
-267.0000000000051
 31
0.0
  0
LINE
  5
2EC
330
71
100
AcDbEntity
  8
1
  6
Continuous
 62
     6
100
AcDbLine
 10
-253.0448045267399
 20
-245.000000000005
 30
0.0
 11
-216.64480452674
 21
-245.000000000005
 31
0.0
  0
LINE
  5
2ED
330
71
100
AcDbEntity
  8
1
  6
Continuous
 62
     2
100
AcDbLine
 10
-118.4999999999909
 20
-267.0000000000051
 30
0.0
 11
-118.4999999999909
 21
-262.000000000005
 31
0.0
  0
LINE
  5
2EE
330
71
100
AcDbEntity
  8
1
  6
Continuous
 62
     2
100
AcDbLine
 10
-118.4999999999909
 20
-267.0000000000051
 30
0.0
 11
-123.4999999999899
 21
-267.0000000000051
 31
0.0
  0
LINE
  5
2EF
330
71
100
AcDbEntity
  8
1
  6
Continuous
 62
     2
100
AcDbLine
 10
-123.4999999999899
 20
-267.0000000000051
 30
0.0
 11
-166.9999999999899
 21
-267.0000000000051
 31
0.0
  0
LINE
  5
2F0
330
71
100
AcDbEntity
  8
1
  6
Continuous
 62
     6
100
AcDbLine
 10
-123.4999999999882
 20
-245.000000000005
 30
0.0
 11
-123.499999999989
 21
-212.0000000000049
 31
0.0
  0
LINE
  5
2F1
330
71
100
AcDbEntity
  8
1
  6
Continuous
 62
     2
100
AcDbLine
 10
-118.4999999999909
 20
-57.000000000005
 30
0.0
 11
-266.9999999999899
 21
-57.000000000005
 31
0.0
  0
LINE
  5
2F2
330
71
100
AcDbEntity
  8
1
  6
Continuous
 62
     6
100
AcDbLine
 10
-123.4999999999909
 20
-77.000000000005
 30
0.0
 11
-410.499999999989
 21
-77.000000000005
 31
0.0
  0
LINE
  5
2F3
330
71
100
AcDbEntity
  8
1
  6
Continuous
 62
     2
100
AcDbLine
 10
-123.499999999989
 20
-212.0000000000049
 30
0.0
 11
-118.4999999999909
 21
-212.0000000000049
 31
0.0
  0
LINE
  5
2F4
330
71
100
AcDbEntity
  8
1
  6
Continuous
 62
     6
100
AcDbLine
 10
-123.499999999989
 20
-212.0000000000049
 30
0.0
 11
-123.4999999999895
 21
-162.0000000000051
 31
0.0
  0
LINE
  5
2F5
330
71
100
AcDbEntity
  8
1
  6
Continuous
 62
     2
100
AcDbLine
 10
-118.4999999999909
 20
-212.0000000000049
 30
0.0
 11
-118.4999999999909
 21
-162.0000000000051
 31
0.0
  0
LINE
  5
2F6
330
71
100
AcDbEntity
  8
1
  6
Continuous
 62
     2
100
AcDbLine
 10
-123.4999999999895
 20
-162.0000000000051
 30
0.0
 11
-118.4999999999909
 21
-162.0000000000051
 31
0.0
  0
LINE
  5
2F7
330
71
100
AcDbEntity
  8
1
  6
Continuous
 62
     6
100
AcDbLine
 10
-123.4999999999895
 20
-162.0000000000051
 30
0.0
 11
-123.4999999999907
 21
-112.000000000005
 31
0.0
  0
LINE
  5
2F8
330
71
100
AcDbEntity
  8
1
  6
Continuous
 62
     2
100
AcDbLine
 10
-118.4999999999909
 20
-162.0000000000051
 30
0.0
 11
-118.4999999999909
 21
-112.000000000005
 31
0.0
  0
LINE
  5
2F9
330
71
100
AcDbEntity
  8
1
  6
Continuous
 62
     2
100
AcDbLine
 10
-123.4999999999907
 20
-112.000000000005
 30
0.0
 11
-118.4999999999909
 21
-112.000000000005
 31
0.0
  0
LINE
  5
2FA
330
71
100
AcDbEntity
  8
1
  6
Continuous
 62
     6
100
AcDbLine
 10
-123.4999999999907
 20
-112.000000000005
 30
0.0
 11
-123.4999999999909
 21
-77.000000000005
 31
0.0
  0
LINE
  5
2FB
330
71
100
AcDbEntity
  8
1
  6
Continuous
 62
     2
100
AcDbLine
 10
-118.4999999999909
 20
-112.000000000005
 30
0.0
 11
-118.4999999999909
 21
-57.000000000005
 31
0.0
  0
LINE
  5
2FC
330
71
100
AcDbEntity
  8
1
  6
Continuous
 62
     2
100
AcDbLine
 10
-118.4999999999909
 20
-262.000000000005
 30
0.0
 11
-118.4999999999909
 21
-212.0000000000049
 31
0.0
  0
LINE
  5
2FD
330
71
100
AcDbEntity
  8
1
  6
Continuous
 62
     2
100
AcDbLine
 10
-266.9999999999899
 20
-57.000000000005
 30
0.0
 11
-415.499999999989
 21
-57.000000000005
 31
0.0
  0
LINE
  5
2FE
330
71
100
AcDbEntity
  8
1
  6
Continuous
 62
     2
100
AcDbLine
 10
-266.9999999999899
 20
-57.000000000005
 30
0.0
 11
-266.9999999999899
 21
-66.20869184470632
 31
0.0
  0
LINE
  5
2FF
330
71
100
AcDbEntity
  8
1
  6
Continuous
 62
     2
100
AcDbLine
 10
-415.499999999989
 20
-267.0000000000051
 30
0.0
 11
-410.499999999988
 21
-267.0000000000051
 31
0.0
  0
LINE
  5
300
330
71
100
AcDbEntity
  8
1
  6
Continuous
 62
     2
100
AcDbLine
 10
-415.499999999989
 20
-57.000000000005
 30
0.0
 11
-415.499999999989
 21
-112.000000000005
 31
0.0
  0
LINE
  5
301
330
71
100
AcDbEntity
  8
1
  6
Continuous
 62
     6
100
AcDbLine
 10
-410.499999999989
 20
-77.000000000005
 30
0.0
 11
-410.4999999999889
 21
-112.000000000005
 31
0.0
  0
LINE
  5
302
330
71
100
AcDbEntity
  8
1
  6
Continuous
 62
     2
100
AcDbLine
 10
-415.499999999989
 20
-112.000000000005
 30
0.0
 11
-410.4999999999889
 21
-112.000000000005
 31
0.0
  0
LINE
  5
303
330
71
100
AcDbEntity
  8
1
  6
Continuous
 62
     2
100
AcDbLine
 10
-415.499999999989
 20
-112.000000000005
 30
0.0
 11
-415.499999999989
 21
-162.0000000000051
 31
0.0
  0
LINE
  5
304
330
71
100
AcDbEntity
  8
1
  6
Continuous
 62
     6
100
AcDbLine
 10
-410.4999999999889
 20
-112.000000000005
 30
0.0
 11
-410.4999999999884
 21
-162.0000000000051
 31
0.0
  0
LINE
  5
305
330
71
100
AcDbEntity
  8
1
  6
Continuous
 62
     2
100
AcDbLine
 10
-415.499999999989
 20
-162.0000000000051
 30
0.0
 11
-410.4999999999884
 21
-162.0000000000051
 31
0.0
  0
LINE
  5
306
330
71
100
AcDbEntity
  8
1
  6
Continuous
 62
     2
100
AcDbLine
 10
-415.499999999989
 20
-162.0000000000051
 30
0.0
 11
-415.499999999989
 21
-212.0000000000049
 31
0.0
  0
LINE
  5
307
330
71
100
AcDbEntity
  8
1
  6
Continuous
 62
     6
100
AcDbLine
 10
-410.4999999999884
 20
-162.0000000000051
 30
0.0
 11
-410.4999999999882
 21
-212.0000000000049
 31
0.0
  0
LINE
  5
308
330
71
100
AcDbEntity
  8
1
  6
Continuous
 62
     2
100
AcDbLine
 10
-415.499999999989
 20
-212.0000000000049
 30
0.0
 11
-410.4999999999882
 21
-212.0000000000049
 31
0.0
  0
LINE
  5
309
330
71
100
AcDbEntity
  8
1
  6
Continuous
 62
     2
100
AcDbLine
 10
-415.499999999989
 20
-212.0000000000049
 30
0.0
 11
-415.499999999989
 21
-262.000000000005
 31
0.0
  0
LINE
  5
30A
330
71
100
AcDbEntity
  8
1
  6
Continuous
 62
     6
100
AcDbLine
 10
-410.4999999999882
 20
-212.0000000000049
 30
0.0
 11
-410.499999999988
 21
-262.000000000005
 31
0.0
  0
LINE
  5
30B
330
71
100
AcDbEntity
  8
1
  6
Continuous
 62
     2
100
AcDbLine
 10
-366.9999999999899
 20
-267.0000000000051
 30
0.0
 11
-366.9999999999899
 21
-262.000000000005
 31
0.0
  0
LINE
  5
30C
330
71
100
AcDbEntity
  8
1
  6
Continuous
 62
     2
100
AcDbLine
 10
-366.9999999999899
 20
-267.0000000000051
 30
0.0
 11
-316.9999999999901
 21
-267.0000000000051
 31
0.0
  0
LINE
  5
30D
330
71
100
AcDbEntity
  8
1
  6
Continuous
 62
     2
100
AcDbLine
 10
-316.9999999999901
 20
-267.0000000000051
 30
0.0
 11
-316.9999999999901
 21
-262.000000000005
 31
0.0
  0
LINE
  5
30E
330
71
100
AcDbEntity
  8
1
  6
Continuous
 62
     2
100
AcDbLine
 10
-316.9999999999901
 20
-267.0000000000051
 30
0.0
 11
-266.9999999999899
 21
-267.0000000000051
 31
0.0
  0
LINE
  5
30F
330
71
100
AcDbEntity
  8
1
  6
Continuous
 62
     2
100
AcDbLine
 10
-266.9999999999899
 20
-267.0000000000051
 30
0.0
 11
-266.9999999999899
 21
-262.000000000005
 31
0.0
  0
LINE
  5
310
330
71
100
AcDbEntity
  8
1
  6
Continuous
 62
     2
100
AcDbLine
 10
-266.9999999999899
 20
-267.0000000000051
 30
0.0
 11
-216.9999999999899
 21
-267.0000000000051
 31
0.0
  0
LINE
  5
311
330
71
100
AcDbEntity
  8
1
  6
Continuous
 62
     2
100
AcDbLine
 10
-216.9999999999899
 20
-267.0000000000051
 30
0.0
 11
-216.9999999999899
 21
-262.000000000005
 31
0.0
  0
LINE
  5
312
330
71
100
AcDbEntity
  8
1
  6
Continuous
 62
     2
100
AcDbLine
 10
-166.9999999999899
 20
-267.0000000000051
 30
0.0
 11
-166.9999999999899
 21
-262.000000000005
 31
0.0
  0
LINE
  5
313
330
71
100
AcDbEntity
  8
1
  6
Continuous
 62
     2
100
AcDbLine
 10
-166.9999999999899
 20
-267.0000000000051
 30
0.0
 11
-216.9999999999899
 21
-267.0000000000051
 31
0.0
  0
LINE
  5
314
330
71
100
AcDbEntity
  8
1
  6
Continuous
 62
     2
100
AcDbLine
 10
-410.499999999988
 20
-262.000000000005
 30
0.0
 11
-410.499999999988
 21
-267.0000000000051
 31
0.0
  0
LINE
  5
315
330
71
100
AcDbEntity
  8
1
  6
Continuous
 62
     2
100
AcDbLine
 10
-410.499999999988
 20
-267.0000000000051
 30
0.0
 11
-366.9999999999899
 21
-267.0000000000051
 31
0.0
  0
LINE
  5
316
330
71
100
AcDbEntity
  8
1
  6
Continuous
 62
     2
100
AcDbLine
 10
-410.499999999988
 20
-262.000000000005
 30
0.0
 11
-415.499999999989
 21
-262.000000000005
 31
0.0
  0
LINE
  5
317
330
71
100
AcDbEntity
  8
1
  6
Continuous
 62
     2
100
AcDbLine
 10
-415.499999999989
 20
-262.000000000005
 30
0.0
 11
-415.499999999989
 21
-267.0000000000051
 31
0.0
  0
LINE
  5
318
330
71
100
AcDbEntity
  8
1
  6
Continuous
 62
     6
100
AcDbLine
 10
-123.4999999999899
 20
-262.000000000005
 30
0.0
 11
-123.4999999999886
 21
-253.500000000005
 31
0.0
  0
LINE
  5
319
330
71
100
AcDbEntity
  8
1
  6
Continuous
 62
     6
100
AcDbLine
 10
-216.64480452674
 20
-262.0000000000051
 30
0.0
 11
-166.9999999999899
 21
-262.000000000005
 31
0.0
  0
LINE
  5
31A
330
71
100
AcDbEntity
  8
1
  6
Continuous
 62
     6
100
AcDbLine
 10
-369.2999999999901
 20
-262.0000000000051
 30
0.0
 11
-366.9999999999899
 21
-262.000000000005
 31
0.0
  0
LINE
  5
31B
330
71
100
AcDbEntity
  8
1
  6
Continuous
 62
     6
100
AcDbLine
 10
-266.9999999999899
 20
-262.000000000005
 30
0.0
 11
-316.9999999999901
 21
-262.000000000005
 31
0.0
  0
LINE
  5
31C
330
71
100
AcDbEntity
  8
1
  6
Continuous
 62
     7
100
AcDbLine
 10
-253.0448045267399
 20
-245.000000000005
 30
0.0
 11
-253.0448045267399
 21
-257.7500000000051
 31
0.0
  0
LINE
  5
31D
330
71
100
AcDbEntity
  8
1
  6
Continuous
 62
     7
100
AcDbLine
 10
-216.64480452674
 20
-245.000000000005
 30
0.0
 11
-216.64480452674
 21
-257.750000000005
 31
0.0
  0
LINE
  5
31E
330
71
100
AcDbEntity
  8
1
  6
Continuous
 62
     6
100
AcDbLine
 10
-369.2999999999901
 20
-262.0000000000051
 30
0.0
 11
-375.4999999999881
 21
-262.000000000005
 31
0.0
  0
LINE
  5
31F
330
71
100
AcDbEntity
  8
1
  6
Continuous
 62
     6
100
AcDbLine
 10
-216.64480452674
 20
-262.0000000000051
 30
0.0
 11
-216.9999999999899
 21
-262.000000000005
 31
0.0
  0
LINE
  5
320
330
71
100
AcDbEntity
  8
1
  6
Continuous
 62
     6
100
AcDbLine
 10
-123.4999999999882
 20
-245.000000000005
 30
0.0
 11
-123.4999999999886
 21
-253.500000000005
 31
0.0
  0
LINE
  5
321
330
71
100
AcDbEntity
  8
1
  6
Continuous
 62
     6
100
AcDbLine
 10
-375.4999999999881
 20
-262.000000000005
 30
0.0
 11
-410.499999999988
 21
-262.000000000005
 31
0.0
  0
LINE
  5
322
330
71
100
AcDbEntity
  8
1
  6
Continuous
 62
     2
100
AcDbLine
 10
-248.8081496401773
 20
-239.6250000000051
 30
0.0
 11
-243.8081496401773
 21
-238.3750000000051
 31
0.0
  0
LINE
  5
323
330
71
100
AcDbEntity
  8
1
  6
Continuous
 62
     2
100
AcDbLine
 10
-248.8081496401773
 20
-242.1250000000051
 30
0.0
 11
-248.8081496401773
 21
-239.6250000000051
 31
0.0
  0
LINE
  5
324
330
71
100
AcDbEntity
  8
1
  6
Continuous
 62
     2
100
AcDbLine
 10
-243.8081496401773
 20
-243.3750000000051
 30
0.0
 11
-248.8081496401773
 21
-242.1250000000051
 31
0.0
  0
LINE
  5
325
330
71
100
AcDbEntity
  8
1
  6
Continuous
 62
     2
100
AcDbLine
 10
-243.8081496401773
 20
-238.3750000000051
 30
0.0
 11
-243.8081496401773
 21
-243.3750000000051
 31
0.0
  0
LINE
  5
326
330
71
100
AcDbEntity
  8
1
  6
Continuous
 62
     7
100
AcDbLine
 10
-253.0448045267399
 20
-257.7500000000051
 30
0.0
 11
-234.8448045267399
 21
-257.750000000005
 31
0.0
  0
LINE
  5
327
330
71
100
AcDbEntity
  8
1
  6
Continuous
 62
     7
100
AcDbLine
 10
-253.0448045267399
 20
-257.7500000000051
 30
0.0
 11
-253.0448045267399
 21
-262.0000000000051
 31
0.0
  0
LINE
  5
328
330
71
100
AcDbEntity
  8
1
  6
Continuous
 62
     7
100
AcDbLine
 10
-216.64480452674
 20
-257.750000000005
 30
0.0
 11
-216.64480452674
 21
-262.0000000000051
 31
0.0
  0
LINE
  5
329
330
71
100
AcDbEntity
  8
1
  6
Continuous
 62
     7
100
AcDbLine
 10
-234.8448045267399
 20
-257.750000000005
 30
0.0
 11
-234.8448045267399
 21
-262.000000000005
 31
0.0
  0
LINE
  5
32A
330
71
100
AcDbEntity
  8
1
  6
Continuous
 62
     6
100
AcDbLine
 10
-234.8448045267399
 20
-262.000000000005
 30
0.0
 11
-253.0448045267399
 21
-262.0000000000051
 31
0.0
  0
LINE
  5
32B
330
71
100
AcDbEntity
  8
1
  6
Continuous
 62
     7
100
AcDbLine
 10
-234.8448045267399
 20
-257.750000000005
 30
0.0
 11
-216.64480452674
 21
-257.750000000005
 31
0.0
  0
LINE
  5
32C
330
71
100
AcDbEntity
  8
1
  6
Continuous
 62
     6
100
AcDbLine
 10
-253.0448045267399
 20
-236.500000000005
 30
0.0
 11
-123.4999999999882
 21
-236.500000000005
 31
0.0
  0
ARC
  5
32D
102
{ACAD_REACTORS
330
395
330
396
102
}
330
71
100
AcDbEntity
  8
0
  6
Continuous
 62
     2
100
AcDbCircle
 10
-237.6531565277799
 20
-253.1795952380834
 30
0.0
 40
0.7717997786796947
100
AcDbArc
 50
321.8795802028417
 51
38.12041979715329
  0
ARC
  5
32E
102
{ACAD_REACTORS
330
395
330
396
102
}
330
71
100
AcDbEntity
  8
0
  6
Continuous
 62
     2
100
AcDbCircle
 10
-237.4534164914335
 20
-253.3363264162034
 30
0.0
 40
0.5179085730137354
100
AcDbArc
 50
218.1204197971931
 51
321.879580202801
  0
ARC
  5
32F
102
{ACAD_REACTORS
330
395
330
396
102
}
330
71
100
AcDbEntity
  8
0
  6
Continuous
 62
     2
100
AcDbCircle
 10
-237.2536764550874
 20
-253.1795952380834
 30
0.0
 40
0.7717997786794633
100
AcDbArc
 50
141.8795802028363
 51
218.1204197971687
  0
ARC
  5
330
102
{ACAD_REACTORS
330
395
330
396
102
}
330
71
100
AcDbEntity
  8
0
  6
Continuous
 62
     2
100
AcDbCircle
 10
-237.4534164914335
 20
-253.0228640599629
 30
0.0
 40
0.5179085730132998
100
AcDbArc
 50
38.12041979714704
 51
141.8795802028588
  0
ARC
  5
331
102
{ACAD_REACTORS
330
38D
330
38E
102
}
330
71
100
AcDbEntity
  8
0
  6
Continuous
 62
     2
100
AcDbCircle
 10
-240.5154306269974
 20
-254.5900616034916
 30
0.0
 40
2.227384008973478
100
AcDbArc
 50
58.06909105004071
 51
71.55192388186722
  0
ARC
  5
332
102
{ACAD_REACTORS
330
38D
330
38E
102
}
330
71
100
AcDbEntity
  8
0
  6
Continuous
 62
     2
100
AcDbCircle
 10
-240.2537029260386
 20
-252.9745238087444
 30
0.0
 40
0.5115800601948779
100
AcDbArc
 50
113.3722778881992
 51
151.4785267423044
  0
ARC
  5
333
102
{ACAD_REACTORS
330
38D
330
38E
102
}
330
71
100
AcDbEntity
  8
0
  6
Continuous
 62
     2
100
AcDbCircle
 10
-239.8763456679583
 20
-253.1795952380834
 30
0.0
 40
0.9410597353332545
100
AcDbArc
 50
151.4785267422669
 51
208.5214732577057
  0
ARC
  5
334
102
{ACAD_REACTORS
330
38D
330
38E
102
}
330
71
100
AcDbEntity
  8
0
  6
Continuous
 62
     2
100
AcDbCircle
 10
-240.6733035020903
 20
-249.866914292827
 30
0.0
 40
4.852596863498138
100
AcDbArc
 50
275.1581447696249
 51
285.9799912583529
  0
ARC
  5
335
102
{ACAD_REACTORS
330
38D
330
38E
102
}
330
71
100
AcDbEntity
  8
0
  6
Continuous
 62
     2
100
AcDbCircle
 10
-240.3844474073544
 20
-253.0668048760486
 30
0.0
 40
1.639695123939387
100
AcDbArc
 50
195.0618917770896
 51
275.1581447696395
  0
ARC
  5
336
102
{ACAD_REACTORS
330
38D
330
38E
102
}
330
71
100
AcDbEntity
  8
0
  6
Continuous
 62
     2
100
AcDbCircle
 10
-240.8035752508172
 20
-253.1795952380834
 30
0.0
 40
1.205656168390944
100
AcDbArc
 50
164.9381082228765
 51
195.0618917770948
  0
ARC
  5
337
102
{ACAD_REACTORS
330
38D
330
38E
102
}
330
71
100
AcDbEntity
  8
0
  6
Continuous
 62
     2
100
AcDbCircle
 10
-240.3844474073544
 20
-253.2923856001183
 30
0.0
 40
1.639695123940507
100
AcDbArc
 50
84.84185523036236
 51
164.9381082228864
  0
ARC
  5
338
102
{ACAD_REACTORS
330
391
330
392
102
}
330
71
100
AcDbEntity
  8
0
  6
Continuous
 62
     2
100
AcDbCircle
 10
-245.2144616615163
 20
-252.1457684437291
 30
0.0
 40
0.3157169230765328
100
AcDbArc
 50
115.3740086783519
 51
180.0
  0
ARC
  5
339
102
{ACAD_REACTORS
330
391
330
392
102
}
330
71
100
AcDbEntity
  8
0
  6
Continuous
 62
     2
100
AcDbCircle
 10
-245.2144616615163
 20
-249.9274852437929
 30
0.0
 40
0.315716923076792
100
AcDbArc
 50
180.0
 51
244.6259913216482
  0
ARC
  5
33A
102
{ACAD_REACTORS
330
391
330
392
102
}
330
71
100
AcDbEntity
  8
0
  6
Continuous
 62
     2
100
AcDbCircle
 10
-245.2088455262063
 20
-251.0247849028552
 30
0.0
 40
2.018561131933266
100
AcDbArc
 50
269.8110329575858
 51
90.18896704241416
  0
ARC
  5
33B
102
{ACAD_REACTORS
330
391
330
392
102
}
330
71
100
AcDbEntity
  8
0
  6
Continuous
 62
     2
100
AcDbCircle
 10
-245.2144616615163
 20
-252.7276198504242
 30
0.0
 40
0.315716923076792
100
AcDbArc
 50
180.0
 51
269.8110329574542
  0
ARC
  5
33C
102
{ACAD_REACTORS
330
38F
330
390
102
}
330
71
100
AcDbEntity
  8
0
  6
Continuous
 62
     2
100
AcDbCircle
 10
-224.1510014467857
 20
-252.9745238087444
 30
0.0
 40
0.5115800601944143
100
AcDbArc
 50
109.3371432194853
 51
151.4785267424225
  0
ARC
  5
33D
102
{ACAD_REACTORS
330
38F
330
390
102
}
330
71
100
AcDbEntity
  8
0
  6
Continuous
 62
     2
100
AcDbCircle
 10
-224.1510014467857
 20
-253.3846666674219
 30
0.0
 40
0.5115800601960215
100
AcDbArc
 50
208.5214732576866
 51
246.6277221118449
  0
ARC
  5
33E
102
{ACAD_REACTORS
330
38F
330
390
102
}
330
71
100
AcDbEntity
  8
0
  6
Continuous
 62
     2
100
AcDbCircle
 10
-224.7008737715631
 20
-253.1795952380834
 30
0.0
 40
1.205656168393002
100
AcDbArc
 50
164.9381082229028
 51
195.0618917770959
  0
ARC
  5
33F
102
{ACAD_REACTORS
330
38F
330
390
102
}
330
71
100
AcDbEntity
  8
0
  6
Continuous
 62
     2
100
AcDbCircle
 10
-224.2817459281015
 20
-253.2923856001183
 30
0.0
 40
1.639695123940214
100
AcDbArc
 50
90.0
 51
164.938108222895
  0
ARC
  5
340
102
{ACAD_REACTORS
330
393
330
394
102
}
330
71
100
AcDbEntity
  8
0
  6
Continuous
 62
     2
100
AcDbCircle
 10
-233.7087410208052
 20
-249.8204047619091
 30
0.0
 40
1.526904761905882
100
AcDbArc
 50
90.0
 51
270.0
  0
ARC
  5
341
102
{ACAD_REACTORS
330
397
330
398
102
}
330
71
100
AcDbEntity
  8
0
  6
Continuous
 62
     2
100
AcDbCircle
 10
-240.451431766031
 20
-249.3094696701144
 30
0.0
 40
0.3528638246711182
100
AcDbArc
 50
270.0
 51
90.0
  0
ARC
  5
342
102
{ACAD_REACTORS
330
391
330
392
102
}
330
71
100
AcDbEntity
  8
0
  6
Continuous
 62
     2
100
AcDbCircle
 10
-247.790010348048
 20
-249.321772478638
 30
0.0
 40
0.3157169230761951
100
AcDbArc
 50
90.0
 51
180.0
  0
ARC
  5
343
102
{ACAD_REACTORS
330
391
330
392
102
}
330
71
100
AcDbEntity
  8
0
  6
Continuous
 62
     2
100
AcDbCircle
 10
-245.7915926394634
 20
-251.0366268437607
 30
0.0
 40
0.9118975235576147
100
AcDbArc
 50
115.1944106485282
 51
244.8055893514878
  0
ARC
  5
344
102
{ACAD_REACTORS
330
391
330
392
102
}
330
71
100
AcDbEntity
  8
0
  6
Continuous
 62
     2
100
AcDbCircle
 10
-246.3141770870384
 20
-252.1474565898235
 30
0.0
 40
0.315716923076593
100
AcDbArc
 50
0.0
 51
64.80558935146027
  0
ARC
  5
345
102
{ACAD_REACTORS
330
391
330
392
102
}
330
71
100
AcDbEntity
  8
0
  6
Continuous
 62
     2
100
AcDbCircle
 10
-248.3839050247945
 20
-254.2822553846054
 30
0.0
 40
0.4242446153828041
100
AcDbArc
 50
180.0
 51
270.0
  0
ARC
  5
346
102
{ACAD_REACTORS
330
393
330
394
102
}
330
71
100
AcDbEntity
  8
0
  6
Continuous
 62
     2
100
AcDbCircle
 10
-233.49246901064
 20
-249.6636735837886
 30
0.0
 40
0.5179085730135266
100
AcDbArc
 50
38.12041979714334
 51
141.8795802028489
  0
ARC
  5
347
102
{ACAD_REACTORS
330
393
330
394
102
}
330
71
100
AcDbEntity
  8
0
  6
Continuous
 62
     2
100
AcDbCircle
 10
-233.2927289742937
 20
-249.8204047619091
 30
0.0
 40
0.7717997786796724
100
AcDbArc
 50
141.8795802028404
 51
218.1204197971562
  0
ARC
  5
348
102
{ACAD_REACTORS
330
395
330
396
102
}
330
71
100
AcDbEntity
  8
0
  6
Continuous
 62
     2
100
AcDbCircle
 10
-237.4534164914335
 20
-252.6410202277801
 30
0.0
 40
2.065479772208509
100
AcDbArc
 50
242.4518518243402
 51
297.5481481756871
  0
ARC
  5
349
102
{ACAD_REACTORS
330
395
330
396
102
}
330
71
100
AcDbEntity
  8
0
  6
Continuous
 62
     2
100
AcDbCircle
 10
-237.4534164914335
 20
-253.7181702483862
 30
0.0
 40
2.065479772208568
100
AcDbArc
 50
62.45185182430637
 51
117.5481481756664
  0
ARC
  5
34A
102
{ACAD_REACTORS
330
395
330
396
102
}
330
71
100
AcDbEntity
  8
0
  6
Continuous
 62
     2
100
AcDbCircle
 10
-237.7343563832668
 20
-253.1795952380834
 30
0.0
 40
1.45803408365149
100
AcDbArc
 50
117.5481481756624
 51
242.4518518243375
  0
ARC
  5
34B
102
{ACAD_REACTORS
330
395
330
396
102
}
330
71
100
AcDbEntity
  8
0
  6
Continuous
 62
     2
100
AcDbCircle
 10
-237.1724765996002
 20
-253.1795952380834
 30
0.0
 40
1.458034083652003
100
AcDbArc
 50
297.548148175701
 51
62.45185182429896
  0
ARC
  5
34C
102
{ACAD_REACTORS
330
393
330
394
102
}
330
71
100
AcDbEntity
  8
0
  6
Continuous
 62
     2
100
AcDbCircle
 10
-233.49246901064
 20
-249.9771359400295
 30
0.0
 40
0.5179085730134372
100
AcDbArc
 50
218.1204197971511
 51
321.8795802028566
  0
ARC
  5
34D
102
{ACAD_REACTORS
330
393
330
394
102
}
330
71
100
AcDbEntity
  8
0
  6
Continuous
 62
     2
100
AcDbCircle
 10
-233.6922090469862
 20
-249.8204047619091
 30
0.0
 40
0.7717997786796373
100
AcDbArc
 50
321.8795802028437
 51
38.12041979715956
  0
ARC
  5
34E
102
{ACAD_REACTORS
330
391
330
392
102
}
330
71
100
AcDbEntity
  8
0
  6
Continuous
 62
     2
100
AcDbCircle
 10
-242.9105929340777
 20
-254.2822553846054
 30
0.0
 40
0.4242446153832873
100
AcDbArc
 50
270.0
 51
0.0
  0
ARC
  5
34F
102
{ACAD_REACTORS
330
391
330
392
102
}
330
71
100
AcDbEntity
  8
0
  6
Continuous
 62
     2
100
AcDbCircle
 10
-242.9105929340777
 20
-248.7177446154052
 30
0.0
 40
0.4242446153838841
100
AcDbArc
 50
0.0
 51
90.0
  0
ARC
  5
350
102
{ACAD_REACTORS
330
391
330
392
102
}
330
71
100
AcDbEntity
  8
0
  6
Continuous
 62
     2
100
AcDbCircle
 10
-248.3839050247945
 20
-248.7177446154052
 30
0.0
 40
0.4242446153837989
100
AcDbArc
 50
90.0
 51
180.0
  0
ARC
  5
351
102
{ACAD_REACTORS
330
391
330
392
102
}
330
71
100
AcDbEntity
  8
0
  6
Continuous
 62
     2
100
AcDbCircle
 10
-246.3141770870384
 20
-253.6782275213551
 30
0.0
 40
0.3157169230767067
100
AcDbArc
 50
270.0
 51
0.0
  0
ARC
  5
352
102
{ACAD_REACTORS
330
391
330
392
102
}
330
71
100
AcDbEntity
  8
0
  6
Continuous
 62
     2
100
AcDbCircle
 10
-246.3141770870384
 20
-249.9257970976985
 30
0.0
 40
0.3157169230761203
100
AcDbArc
 50
295.1944106485397
 51
0.0
  0
ARC
  5
353
102
{ACAD_REACTORS
330
391
330
392
102
}
330
71
100
AcDbEntity
  8
0
  6
Continuous
 62
     2
100
AcDbCircle
 10
-246.3141770870384
 20
-249.321772478638
 30
0.0
 40
0.315716923076593
100
AcDbArc
 50
0.0
 51
90.0
  0
ARC
  5
354
102
{ACAD_REACTORS
330
391
330
392
102
}
330
71
100
AcDbEntity
  8
0
  6
Continuous
 62
     2
100
AcDbCircle
 10
-247.790010348048
 20
-253.6782275213551
 30
0.0
 40
0.3157169230756836
100
AcDbArc
 50
180.0
 51
270.0
  0
ARC
  5
355
102
{ACAD_REACTORS
330
397
330
398
102
}
330
71
100
AcDbEntity
  8
0
  6
Continuous
 62
     2
100
AcDbCircle
 10
-240.0099592397926
 20
-249.3488656413369
 30
0.0
 40
1.055365641333708
100
AcDbArc
 50
270.0
 51
90.0
  0
ARC
  5
356
102
{ACAD_REACTORS
330
38F
330
390
102
}
330
71
100
AcDbEntity
  8
0
  6
Continuous
 62
     2
100
AcDbCircle
 10
-224.2817459281015
 20
-253.0668048760486
 30
0.0
 40
1.639695123940448
100
AcDbArc
 50
195.0618917771012
 51
275.1581447696762
  0
ARC
  5
357
102
{ACAD_REACTORS
330
38F
330
390
102
}
330
71
100
AcDbEntity
  8
0
  6
Continuous
 62
     2
100
AcDbCircle
 10
-224.5706020228373
 20
-249.866914292827
 30
0.0
 40
4.852596863498825
100
AcDbArc
 50
275.1581447696364
 51
285.9799912583387
  0
ARC
  5
358
102
{ACAD_REACTORS
330
38F
330
390
102
}
330
71
100
AcDbEntity
  8
0
  6
Continuous
 62
     2
100
AcDbCircle
 10
-224.4127291477445
 20
-251.7691288726753
 30
0.0
 40
2.227384008972746
100
AcDbArc
 50
288.4480761181335
 51
301.9309089499397
  0
ARC
  5
359
102
{ACAD_REACTORS
330
38F
330
390
102
}
330
71
100
AcDbEntity
  8
0
  6
Continuous
 62
     2
100
AcDbCircle
 10
-223.9945614140826
 20
-253.0226746487119
 30
0.0
 40
0.9059297849852801
100
AcDbArc
 50
246.6277221118183
 51
288.4480761180817
  0
ARC
  5
35A
102
{ACAD_REACTORS
330
38F
330
390
102
}
330
71
100
AcDbEntity
  8
0
  6
Continuous
 62
     2
100
AcDbCircle
 10
-223.7736441887043
 20
-253.1795952380834
 30
0.0
 40
0.9410597353348924
100
AcDbArc
 50
151.4785267423624
 51
208.5214732576695
  0
ARC
  5
35B
102
{ACAD_REACTORS
330
38F
330
390
102
}
330
71
100
AcDbEntity
  8
0
  6
Continuous
 62
     2
100
AcDbCircle
 10
-224.004331448682
 20
-253.3924787891273
 30
0.0
 40
0.9545230068260935
100
AcDbArc
 50
90.0
 51
109.337143219432
  0
ARC
  5
35C
102
{ACAD_REACTORS
330
391
330
392
102
}
330
71
100
AcDbEntity
  8
0
  6
Continuous
 62
     2
100
AcDbCircle
 10
-245.2144616615163
 20
-249.3219499552861
 30
0.0
 40
0.3157169230760711
100
AcDbArc
 50
90.18896704254594
 51
180.0
  0
ARC
  5
35D
102
{ACAD_REACTORS
330
391
330
392
102
}
330
71
100
AcDbEntity
  8
0
  6
Continuous
 62
     2
100
AcDbCircle
 10
-245.7405043596042
 20
-251.0366268437607
 30
0.0
 40
0.911848150144459
100
AcDbArc
 50
295.3740086781764
 51
64.62599132180748
  0
ARC
  5
35E
102
{ACAD_REACTORS
330
38D
330
38E
102
}
330
71
100
AcDbEntity
  8
0
  6
Continuous
 62
     2
100
AcDbCircle
 10
-240.5154306269974
 20
-251.7691288726747
 30
0.0
 40
2.227384008972737
100
AcDbArc
 50
288.4480761181328
 51
301.9309089499593
  0
ARC
  5
35F
102
{ACAD_REACTORS
330
38D
330
38E
102
}
330
71
100
AcDbEntity
  8
0
  6
Continuous
 62
     2
100
AcDbCircle
 10
-240.0972628933366
 20
-253.0226746487119
 30
0.0
 40
0.9059297849849192
100
AcDbArc
 50
246.627722111871
 51
288.4480761181584
  0
ARC
  5
360
102
{ACAD_REACTORS
330
38D
330
38E
102
}
330
71
100
AcDbEntity
  8
0
  6
Continuous
 62
     2
100
AcDbCircle
 10
-240.2537029260386
 20
-253.3846666674219
 30
0.0
 40
0.5115800601948034
100
AcDbArc
 50
208.5214732576956
 51
246.6277221118274
  0
ARC
  5
361
102
{ACAD_REACTORS
330
38D
330
38E
102
}
330
71
100
AcDbEntity
  8
0
  6
Continuous
 62
     2
100
AcDbCircle
 10
-240.0972628933366
 20
-253.336515827455
 30
0.0
 40
0.9059297849853228
100
AcDbArc
 50
71.55192388185348
 51
113.372277888129
  0
ARC
  5
362
102
{ACAD_REACTORS
330
38D
330
38E
102
}
330
71
100
AcDbEntity
  8
0
  6
Continuous
 62
     2
100
AcDbCircle
 10
-240.6733035020903
 20
-256.4922761833393
 30
0.0
 40
4.852596863498068
100
AcDbArc
 50
74.02000874164739
 51
84.84185523037506
  0
CIRCLE
  5
363
102
{ACAD_REACTORS
330
391
330
392
102
}
330
71
100
AcDbEntity
  8
0
  6
Continuous
 62
     2
100
AcDbCircle
 10
-245.764319374277
 20
-251.0366268437607
 30
0.0
 40
0.4709789327785074
  0
CIRCLE
  5
364
330
71
100
AcDbEntity
  8
1
  6
Continuous
 62
     2
100
AcDbCircle
 10
-240.3081496401773
 20
-240.8750000000051
 30
0.0
 40
1.249999999999915
  0
CIRCLE
  5
365
330
71
100
AcDbEntity
  8
1
  6
Continuous
 62
     2
100
AcDbCircle
 10
-240.3081496401773
 20
-240.8750000000051
 30
0.0
 40
2.5
  0
TEXT
  5
366
330
71
100
AcDbEntity
  8
1
 62
     7
100
AcDbText
 10
-197.6712568047261
 20
-243.7000000000051
 30
0.0
 40
2.5
  1
/
 41
0.9
  7
CONVERTER_11
100
AcDbText
  0
TEXT
  5
368
330
71
100
AcDbEntity
  8
1
 62
     7
100
AcDbText
 10
-195.5148923076841
 20
-243.7000000000051
 30
0.0
 40
2.5
  1
00
 41
0.81
  7
CONVERTER_12
100
AcDbText
  0
TEXT
  5
369
330
71
100
AcDbEntity
  8
1
 62
     3
100
AcDbText
 10
-157.918408281667
 20
-243.7000000000051
 30
0.0
 40
2.5
  1
29.01.2018
 41
0.81
  7
CONVERTER_12
100
AcDbText
  0
MTEXT
  5
36A
330
71
100
AcDbEntity
  8
1
 62
     2
100
AcDbMText
 10
-157.918408281667
 20
-237.5000000000051
 30
0.0
 40
1.8
 41
0.0
 71
     1
 72
     1
  1
date
  7
CONVERTER_11
 73
     1
 44
1.32052821128451
  0
MTEXT
  5
36B
330
71
100
AcDbEntity
  8
1
 62
     2
100
AcDbMText
 10
-187.7448045267399
 20
-246.0000000000051
 30
0.0
 40
1.8
 41
0.0
 71
     1
 72
     1
  1
document-type
  7
CONVERTER_11
 73
     1
 44
1.20048019207683
  0
TEXT
  5
36C
330
71
100
AcDbEntity
  8
1
 62
     3
100
AcDbText
 10
-187.7448045267399
 20
-252.2000000000051
 30
0.0
 40
2.5
  1
TECDOC 2D_Productdrawing
 41
0.81
  7
CONVERTER_12
100
AcDbText
  0
MTEXT
  5
36E
330
71
100
AcDbEntity
  8
1
 62
     2
100
AcDbMText
 10
-215.5448045267399
 20
-237.500000000005
 30
0.0
 40
1.8
 41
0.0
 71
     1
 72
     1
  1
document-No. / RI
  7
CONVERTER_13
 73
     1
 44
1.32052821128451
  0
TEXT
  5
36F
330
71
100
AcDbEntity
  8
1
 62
     7
100
AcDbText
 10
-215.5448045267399
 20
-243.7000000000051
 30
0.0
 40
2.5
  1
01105377
 41
0.81
  7
CONVERTER_12
100
AcDbText
  0
MTEXT
  5
371
330
71
100
AcDbEntity
  8
1
 62
     3
100
AcDbMText
 10
-127.9592041408276
 20
-243.7000000000049
 30
0.0
 40
2.5
 41
0.0
 71
     8
 72
     1
  1
2:1
  7
CONVERTER_14
 73
     1
 44
1.32052821128451
  0
MTEXT
  5
372
330
71
100
AcDbEntity
  8
1
 62
     2
100
AcDbMText
 10
-131.3184082816672
 20
-237.500000000005
 30
0.0
 40
1.8
 41
0.0
 71
     1
 72
     1
  1
scale
  7
CONVERTER_11
 73
     1
 44
1.20048019207683
  0
MTEXT
  5
373
330
71
100
AcDbEntity
  8
1
 62
     2
100
AcDbMText
 10
-215.5448045267399
 20
-246.000000000005
 30
0.0
 40
1.8
 41
0.0
 71
     1
 72
     1
  1
ident.-No.
  7
CONVERTER_11
 73
     1
 44
1.20048019207683
  0
TEXT
  5
374
330
71
100
AcDbEntity
  8
1
 62
     7
100
AcDbText
 10
-215.1448045267402
 20
-252.2000000000051
 30
0.0
 40
2.5
  1
0201252
 41
0.81
  7
CONVERTER_12
100
AcDbText
  0
MTEXT
  5
375
330
71
100
AcDbEntity
  8
1
 62
     2
100
AcDbMText
 10
-287.4828192517874
 20
-249.2500000000051
 30
0.0
 40
2.0
 41
0.0
 71
     5
 72
     1
  1
General Information\P- Simplified representation\P- Document excluded from change process\P- Linear dimensions [mm]
  7
CONVERTER_11
 73
     1
 44
1.20048019207683
  0
MTEXT
  5
376
330
71
100
AcDbEntity
  8
1
 62
     7
100
AcDbMText
 10
-120.9999999999909
 20
-187.0000000000031
 30
0.0
 40
3.5
 41
0.0
 71
     5
 72
     1
  1
C
  7
CONVERTER_11
 73
     1
 44
1.20048019207683
  0
MTEXT
  5
377
330
71
100
AcDbEntity
  8
1
 62
     7
100
AcDbMText
 10
-120.9999999999909
 20
-84.500000000005
 30
0.0
 40
3.5
 41
0.0
 71
     5
 72
     1
  1
A
  7
CONVERTER_11
 73
     1
 44
1.20048019207683
  0
MTEXT
  5
378
330
71
100
AcDbEntity
  8
1
 62
     7
100
AcDbMText
 10
-120.9999999999909
 20
-137.0000000000031
 30
0.0
 40
3.5
 41
0.0
 71
     5
 72
     1
  1
B
  7
CONVERTER_11
 73
     1
 44
1.20048019207683
  0
MTEXT
  5
379
330
71
100
AcDbEntity
  8
1
 62
     7
100
AcDbMText
 10
-120.9999999999909
 20
-239.500000000005
 30
0.0
 40
3.5
 41
0.0
 71
     5
 72
     1
  1
D
  7
CONVERTER_11
 73
     1
 44
1.20048019207683
  0
MTEXT
  5
37A
330
71
100
AcDbEntity
  8
1
 62
     7
100
AcDbMText
 10
-391.2499999999895
 20
-264.5000000000051
 30
0.0
 40
3.5
 41
0.0
 71
     5
 72
     1
  1
1
  7
CONVERTER_11
 73
     1
 44
1.20048019207683
  0
MTEXT
  5
37B
330
71
100
AcDbEntity
  8
1
 62
     7
100
AcDbMText
 10
-341.9999999999899
 20
-264.5000000000051
 30
0.0
 40
3.5
 41
0.0
 71
     5
 72
     1
  1
2
  7
CONVERTER_11
 73
     1
 44
1.20048019207683
  0
MTEXT
  5
37C
330
71
100
AcDbEntity
  8
1
 62
     7
100
AcDbMText
 10
-291.9999999999899
 20
-264.5000000000051
 30
0.0
 40
3.5
 41
0.0
 71
     5
 72
     1
  1
3
  7
CONVERTER_11
 73
     1
 44
1.20048019207683
  0
MTEXT
  5
37D
330
71
100
AcDbEntity
  8
1
 62
     7
100
AcDbMText
 10
-241.99999999999
 20
-264.5000000000051
 30
0.0
 40
3.5
 41
0.0
 71
     5
 72
     1
  1
4
  7
CONVERTER_11
 73
     1
 44
1.20048019207683
  0
MTEXT
  5
37E
330
71
100
AcDbEntity
  8
1
 62
     7
100
AcDbMText
 10
-191.9999999999899
 20
-264.5000000000051
 30
0.0
 40
3.5
 41
0.0
 71
     5
 72
     1
  1
5
  7
CONVERTER_11
 73
     1
 44
1.20048019207683
  0
MTEXT
  5
37F
330
71
100
AcDbEntity
  8
1
 62
     7
100
AcDbMText
 10
-142.7499999999907
 20
-264.5000000000051
 30
0.0
 40
3.5
 41
0.0
 71
     5
 72
     1
  1
6
  7
CONVERTER_11
 73
     1
 44
1.20048019207683
  0
MTEXT
  5
380
330
71
100
AcDbEntity
  8
1
 62
     7
100
AcDbMText
 10
-412.999999999989
 20
-84.500000000005
 30
0.0
 40
3.5
 41
0.0
 71
     5
 72
     1
  1
A
  7
CONVERTER_11
 73
     1
 44
1.20048019207683
  0
MTEXT
  5
381
330
71
100
AcDbEntity
  8
1
 62
     7
100
AcDbMText
 10
-412.999999999989
 20
-137.000000000005
 30
0.0
 40
3.5
 41
0.0
 71
     5
 72
     1
  1
B
  7
CONVERTER_11
 73
     1
 44
1.20048019207683
  0
MTEXT
  5
382
330
71
100
AcDbEntity
  8
1
 62
     7
100
AcDbMText
 10
-412.999999999989
 20
-187.000000000005
 30
0.0
 40
3.5
 41
0.0
 71
     5
 72
     1
  1
C
  7
CONVERTER_11
 73
     1
 44
1.20048019207683
  0
MTEXT
  5
383
330
71
100
AcDbEntity
  8
1
 62
     7
100
AcDbMText
 10
-412.999999999989
 20
-239.500000000005
 30
0.0
 40
3.5
 41
0.0
 71
     5
 72
     1
  1
D
  7
CONVERTER_11
 73
     1
 44
1.20048019207683
  0
MTEXT
  5
384
330
71
100
AcDbEntity
  8
1
 62
     3
100
AcDbMText
 10
-226.84480452674
 20
-240.875000000005
 30
0.0
 40
2.5
 41
0.0
 71
     5
 72
     1
  1
DIN A4
  7
CONVERTER_11
 73
     1
 44
1.20048019207683
  0
MTEXT
  5
385
330
71
100
AcDbEntity
  8
1
 62
     2
100
AcDbMText
 10
-215.64480452674
 20
-254.500000000005
 30
0.0
 40
1.8
 41
0.0
 71
     1
 72
     1
  1
description
  7
CONVERTER_11
 73
     1
 44
1.20048019207683
  0
MTEXT
  5
386
330
71
100
AcDbEntity
  8
1
 62
     7
100
AcDbMText
 10
-170.0724022633644
 20
-258.7500000000048
 30
0.0
 40
3.0
 41
0.0
 71
     5
 72
     1
  1
FB  4- 6
  7
CONVERTER_12
 73
     1
 44
1.20048019207683
  0
TEXT
  5
387
330
71
100
AcDbEntity
  8
1
 62
     2
100
AcDbText
 10
-228.6094957169264
 20
-260.7500000000051
 30
0.0
 40
1.8
  1
1
 41
0.9
  7
CONVERTER_11
100
AcDbText
  0
TEXT
  5
388
330
71
100
AcDbEntity
  8
1
 62
     2
100
AcDbText
 10
-243.3985395563979
 20
-260.799248653807
 30
0.0
 40
1.8
  1
1
 41
0.9
  7
CONVERTER_11
100
AcDbText
  0
TEXT
  5
389
330
71
100
AcDbEntity
  8
1
 62
     2
100
AcDbText
 10
-252.0448045267399
 20
-260.7590172149967
 30
0.0
 40
1.8
  1
page
 41
0.9
  7
CONVERTER_11
100
AcDbText
  0
TEXT
  5
38A
330
71
100
AcDbEntity
  8
1
 62
     2
100
AcDbText
 10
-233.8448045267401
 20
-260.7590172149966
 30
0.0
 40
1.8
  1
of
 41
0.9
  7
CONVERTER_11
100
AcDbText
  0
MTEXT
  5
38B
330
71
100
AcDbEntity
  8
1
 62
     3
100
AcDbMText
 10
-227.64182237513
 20
-75.20869184470621
 30
0.0
 40
1.8
 41
0.0
 71
     7
 72
     1
  3
Transfer or duplication of this document as well as the utilisation or\Pcommunication of its content are not permitted unless express consent\Pis granted. Violations give rise to claims for damages. All rights reserved\Pin case of patent, utility mo
  1
del or design patent registrations.
  7
CONVERTER_11
 73
     1
 44
0.99639855942377
  0
MTEXT
  5
38C
330
71
100
AcDbEntity
  8
1
 62
     3
100
AcDbMText
 10
-410.4949322139181
 20
-75.20869184470621
 30
0.0
 40
1.8
 41
0.0
 71
     7
 72
     1
  3
Weitergabe sowie Vervielf\U+00e4ltigung dieses Dokuments, Verwertung und \PMitteilung seines Inhalts sind verboten, soweit nicht ausdr\U+00fccklich gestattet. \PZuwiderhandlungen verpflichten zu Schadenersatz. Alle Rechte f\U+00fcr den Fall\Pder Pat
  1
ent-, Gebrauchsmuster- oder Designeintragung vorbehalten.
  7
CONVERTER_11
 73
     1
 44
0.99639855942377
  0
HATCH
  5
38D
330
71
100
AcDbEntity
  8
1
  6
Continuous
 62
     2
100
AcDbHatch
 10
0.0
 20
0.0
 30
0.0
210
0.0
220
0.0
230
1.0
  2
_USER
 70
     0
 71
     1
 91
        1
 92
        1
 93
       14
 72
     2
 10
-240.8035752508172
 20
-253.1795952380834
 40
1.205656168390944
 50
164.9381082228765
 51
195.0618917770948
 73
     1
 72
     2
 10
-240.3844474073544
 20
-253.0668048760486
 40
1.639695123939387
 50
195.0618917770896
 51
275.1581447696395
 73
     1
 72
     2
 10
-240.6733035020903
 20
-249.866914292827
 40
4.852596863498138
 50
275.1581447696249
 51
285.9799912583529
 73
     1
 72
     1
 10
-239.3373755849725
 20
-254.5319965986278
 11
-239.3373755849725
 21
-253.6594795918246
 72
     2
 10
-240.5154306269974
 20
-251.7691288726747
 40
2.227384008972737
 50
58.0690910500407
 51
71.55192388186722
 73
     0
 72
     2
 10
-240.0972628933366
 20
-253.0226746487119
 40
0.9059297849849192
 50
71.55192388184153
 51
113.372277888129
 73
     0
 72
     2
 10
-240.2537029260386
 20
-253.3846666674219
 40
0.5115800601948034
 50
113.3722778881726
 51
151.4785267423044
 73
     0
 72
     2
 10
-239.8763456679583
 20
-253.1795952380834
 40
0.9410597353332545
 50
151.4785267422943
 51
208.5214732577331
 73
     0
 72
     2
 10
-240.2537029260386
 20
-252.9745238087444
 40
0.5115800601948779
 50
208.5214732576956
 51
246.6277221118009
 73
     0
 72
     2
 10
-240.0972628933366
 20
-253.336515827455
 40
0.9059297849853228
 50
246.627722111871
 51
288.4480761181465
 73
     0
 72
     2
 10
-240.5154306269974
 20
-254.5900616034916
 40
2.227384008973478
 50
288.4480761181328
 51
301.9309089499592
 73
     0
 72
     1
 10
-239.3373755849725
 20
-252.6997108843417
 11
-239.3373755849725
 21
-251.8271938775384
 72
     2
 10
-240.6733035020903
 20
-256.4922761833393
 40
4.852596863498068
 50
74.02000874164739
 51
84.84185523037506
 73
     1
 72
     2
 10
-240.3844474073544
 20
-253.2923856001183
 40
1.639695123940507
 50
84.84185523036236
 51
164.9381082228864
 73
     1
 97
       14
330
362
330
27B
330
331
330
361
330
332
330
333
330
360
330
35F
330
35E
330
27C
330
334
330
335
330
336
330
337
 75
     1
 76
     0
 52
45.0
 41
0.1
 77
     0
 78
     1
 53
45.0
 43
0.0
 44
0.0
 45
-0.0707106781186548
 46
0.0707106781186548
 79
     0
 98
        1
 10
0.0
 20
0.0
  0
HATCH
  5
38E
330
71
100
AcDbEntity
  8
1
  6
Continuous
 62
     2
100
AcDbHatch
 10
0.0
 20
0.0
 30
0.0
210
0.0
220
0.0
230
1.0
  2
_USER
 70
     0
 71
     1
 91
        1
 92
        1
 93
       14
 72
     2
 10
-240.8035752508172
 20
-253.1795952380834
 40
1.205656168390944
 50
164.9381082228765
 51
195.0618917770948
 73
     1
 72
     2
 10
-240.3844474073544
 20
-253.0668048760486
 40
1.639695123939387
 50
195.0618917770896
 51
275.1581447696395
 73
     1
 72
     2
 10
-240.6733035020903
 20
-249.866914292827
 40
4.852596863498138
 50
275.1581447696249
 51
285.9799912583529
 73
     1
 72
     1
 10
-239.3373755849725
 20
-254.5319965986278
 11
-239.3373755849725
 21
-253.6594795918246
 72
     2
 10
-240.5154306269974
 20
-251.7691288726747
 40
2.227384008972737
 50
58.0690910500407
 51
71.55192388186722
 73
     0
 72
     2
 10
-240.0972628933366
 20
-253.0226746487119
 40
0.9059297849849192
 50
71.55192388184153
 51
113.372277888129
 73
     0
 72
     2
 10
-240.2537029260386
 20
-253.3846666674219
 40
0.5115800601948034
 50
113.3722778881726
 51
151.4785267423044
 73
     0
 72
     2
 10
-239.8763456679583
 20
-253.1795952380834
 40
0.9410597353332545
 50
151.4785267422943
 51
208.5214732577331
 73
     0
 72
     2
 10
-240.2537029260386
 20
-252.9745238087444
 40
0.5115800601948779
 50
208.5214732576956
 51
246.6277221118009
 73
     0
 72
     2
 10
-240.0972628933366
 20
-253.336515827455
 40
0.9059297849853228
 50
246.627722111871
 51
288.4480761181465
 73
     0
 72
     2
 10
-240.5154306269974
 20
-254.5900616034916
 40
2.227384008973478
 50
288.4480761181328
 51
301.9309089499592
 73
     0
 72
     1
 10
-239.3373755849725
 20
-252.6997108843417
 11
-239.3373755849725
 21
-251.8271938775384
 72
     2
 10
-240.6733035020903
 20
-256.4922761833393
 40
4.852596863498068
 50
74.02000874164739
 51
84.84185523037506
 73
     1
 72
     2
 10
-240.3844474073544
 20
-253.2923856001183
 40
1.639695123940507
 50
84.84185523036236
 51
164.9381082228864
 73
     1
 97
       14
330
362
330
27B
330
331
330
361
330
332
330
333
330
360
330
35F
330
35E
330
27C
330
334
330
335
330
336
330
337
 75
     1
 76
     0
 52
45.0
 41
0.1
 77
     0
 78
     1
 53
45.0
 43
0.0
 44
0.0
 45
-0.0707106781186548
 46
0.0707106781186548
 79
     0
 98
        1
 10
0.0
 20
0.0
  0
HATCH
  5
38F
330
71
100
AcDbEntity
  8
1
  6
Continuous
 62
     2
100
AcDbHatch
 10
0.0
 20
0.0
 30
0.0
210
0.0
220
0.0
230
1.0
  2
_USER
 70
     0
 71
     1
 91
        1
 92
        1
 93
       18
 72
     2
 10
-224.2817459281015
 20
-253.2923856001183
 40
1.639695123940214
 50
90.0
 51
164.938108222895
 73
     1
 72
     2
 10
-224.7008737715631
 20
-253.1795952380834
 40
1.205656168393002
 50
164.9381082229028
 51
195.0618917770959
 73
     1
 72
     2
 10
-224.2817459281015
 20
-253.0668048760486
 40
1.639695123940448
 50
195.0618917771012
 51
275.1581447696762
 73
     1
 72
     2
 10
-224.5706020228373
 20
-249.866914292827
 40
4.852596863498825
 50
275.1581447696364
 51
285.9799912583387
 73
     1
 72
     1
 10
-223.2346741057206
 20
-254.5319965986284
 11
-223.2346741057206
 21
-253.6594795918251
 72
     2
 10
-224.4127291477445
 20
-251.7691288726753
 40
2.227384008972746
 50
58.06909105006029
 51
71.55192388186651
 73
     0
 72
     2
 10
-223.9945614140826
 20
-253.0226746487119
 40
0.9059297849852801
 50
71.55192388191827
 51
113.3722778881817
 73
     0
 72
     2
 10
-224.1510014467857
 20
-253.3846666674219
 40
0.5115800601960215
 50
113.3722778881551
 51
151.4785267423134
 73
     0
 72
     2
 10
-223.7736441887043
 20
-253.1795952380834
 40
0.9410597353348924
 50
151.4785267423305
 51
208.5214732576376
 73
     0
 72
     2
 10
-224.1510014467857
 20
-252.9745238087444
 40
0.5115800601944143
 50
208.5214732575775
 51
250.6628567805147
 73
     0
 72
     2
 10
-224.004331448682
 20
-253.3924787891273
 40
0.9545230068260935
 50
250.662856780568
 51
270.0
 73
     0
 72
     1
 10
-224.004331448682
 20
-252.4379557823012
 11
-222.9006921491139
 21
-252.4379557823012
 72
     1
 10
-222.9006921491139
 20
-252.4379557823012
 11
-222.9006921491139
 21
-254.7064999999887
 72
     1
 10
-222.9006921491139
 20
-254.7064999999887
 11
-221.7078994469462
 21
-254.7064999999887
 72
     1
 10
-221.7078994469462
 20
-254.7064999999887
 11
-221.7078994469462
 21
-252.4379557823012
 72
     1
 10
-221.7078994469462
 20
-252.4379557823012
 11
-220.8968004094728
 21
-252.4379557823012
 72
     1
 10
-220.8968004094728
 20
-252.4379557823012
 11
-220.8968004094728
 21
-251.6526904761776
 72
     1
 10
-220.8968004094728
 20
-251.6526904761776
 11
-224.2817459281015
 21
-251.6526904761781
 97
       18
330
2E1
330
2E0
330
2DF
330
2DE
330
2E3
330
27D
330
35B
330
33C
330
35A
330
33D
330
359
330
358
330
27E
330
357
330
356
330
33E
330
33F
330
2E2
 75
     1
 76
     0
 52
45.0
 41
0.1
 77
     0
 78
     1
 53
45.0
 43
0.0
 44
0.0
 45
-0.0707106781186548
 46
0.0707106781186548
 79
     0
 98
        1
 10
0.0
 20
0.0
  0
HATCH
  5
390
330
71
100
AcDbEntity
  8
1
  6
Continuous
 62
     2
100
AcDbHatch
 10
0.0
 20
0.0
 30
0.0
210
0.0
220
0.0
230
1.0
  2
_USER
 70
     0
 71
     1
 91
        1
 92
        1
 93
       18
 72
     2
 10
-224.2817459281015
 20
-253.2923856001183
 40
1.639695123940214
 50
90.0
 51
164.938108222895
 73
     1
 72
     2
 10
-224.7008737715631
 20
-253.1795952380834
 40
1.205656168393002
 50
164.9381082229028
 51
195.0618917770959
 73
     1
 72
     2
 10
-224.2817459281015
 20
-253.0668048760486
 40
1.639695123940448
 50
195.0618917771012
 51
275.1581447696762
 73
     1
 72
     2
 10
-224.5706020228373
 20
-249.866914292827
 40
4.852596863498825
 50
275.1581447696364
 51
285.9799912583387
 73
     1
 72
     1
 10
-223.2346741057206
 20
-254.5319965986284
 11
-223.2346741057206
 21
-253.6594795918251
 72
     2
 10
-224.4127291477445
 20
-251.7691288726753
 40
2.227384008972746
 50
58.06909105006029
 51
71.55192388186651
 73
     0
 72
     2
 10
-223.9945614140826
 20
-253.0226746487119
 40
0.9059297849852801
 50
71.55192388191827
 51
113.3722778881817
 73
     0
 72
     2
 10
-224.1510014467857
 20
-253.3846666674219
 40
0.5115800601960215
 50
113.3722778881551
 51
151.4785267423134
 73
     0
 72
     2
 10
-223.7736441887043
 20
-253.1795952380834
 40
0.9410597353348924
 50
151.4785267423305
 51
208.5214732576376
 73
     0
 72
     2
 10
-224.1510014467857
 20
-252.9745238087444
 40
0.5115800601944143
 50
208.5214732575775
 51
250.6628567805147
 73
     0
 72
     2
 10
-224.004331448682
 20
-253.3924787891273
 40
0.9545230068260935
 50
250.662856780568
 51
270.0
 73
     0
 72
     1
 10
-224.004331448682
 20
-252.4379557823012
 11
-222.9006921491139
 21
-252.4379557823012
 72
     1
 10
-222.9006921491139
 20
-252.4379557823012
 11
-222.9006921491139
 21
-254.7064999999887
 72
     1
 10
-222.9006921491139
 20
-254.7064999999887
 11
-221.7078994469462
 21
-254.7064999999887
 72
     1
 10
-221.7078994469462
 20
-254.7064999999887
 11
-221.7078994469462
 21
-252.4379557823012
 72
     1
 10
-221.7078994469462
 20
-252.4379557823012
 11
-220.8968004094728
 21
-252.4379557823012
 72
     1
 10
-220.8968004094728
 20
-252.4379557823012
 11
-220.8968004094728
 21
-251.6526904761776
 72
     1
 10
-220.8968004094728
 20
-251.6526904761776
 11
-224.2817459281015
 21
-251.6526904761781
 97
       18
330
2E1
330
2E0
330
2DF
330
2DE
330
2E3
330
27D
330
35B
330
33C
330
35A
330
33D
330
359
330
358
330
27E
330
357
330
356
330
33E
330
33F
330
2E2
 75
     1
 76
     0
 52
45.0
 41
0.1
 77
     0
 78
     1
 53
45.0
 43
0.0
 44
0.0
 45
-0.0707106781186548
 46
0.0707106781186548
 79
     0
 98
        1
 10
0.0
 20
0.0
  0
HATCH
  5
391
330
71
100
AcDbEntity
  8
1
  6
Continuous
 62
     2
100
AcDbHatch
 10
0.0
 20
0.0
 30
0.0
210
0.0
220
0.0
230
1.0
  2
_USER
 70
     0
 71
     1
 91
        4
 92
        1
 93
        8
 72
     2
 10
-248.3839050247945
 20
-248.7177446154052
 40
0.4242446153837989
 50
90.0
 51
180.0
 73
     1
 72
     1
 10
-248.8081496401773
 20
-248.7177446154052
 11
-248.8081496401773
 21
-254.2822553846054
 72
     2
 10
-248.3839050247945
 20
-254.2822553846054
 40
0.4242446153828041
 50
180.0
 51
270.0
 73
     1
 72
     1
 10
-248.3839050247945
 20
-254.7064999999887
 11
-242.9105929340777
 21
-254.7064999999887
 72
     2
 10
-242.9105929340777
 20
-254.2822553846054
 40
0.4242446153832873
 50
270.0
 51
360.0
 73
     1
 72
     1
 10
-242.4863483186938
 20
-254.2822553846054
 11
-242.4863483186938
 21
-248.7177446154052
 72
     2
 10
-242.9105929340777
 20
-248.7177446154052
 40
0.4242446153838841
 50
0.0
 51
90.0
 73
     1
 72
     1
 10
-242.9105929340777
 20
-248.2935000000214
 11
-248.3839050247945
 21
-248.2935000000214
 97
        8
330
34F
330
2AC
330
34E
330
2AD
330
345
330
2AA
330
350
330
2AB
 92
       16
 93
        1
 72
     2
 10
-245.764319374277
 20
-251.0366268437607
 40
0.4709789327785074
 50
0.0
 51
360.0
 73
     1
 97
        1
330
363
 92
       16
 93
        8
 72
     2
 10
-245.7405043596042
 20
-251.0366268437607
 40
0.911848150144459
 50
295.3740086781764
 51
424.6259913218075
 73
     1
 72
     2
 10
-245.2144616615163
 20
-249.9274852437929
 40
0.315716923076792
 50
115.3740086783518
 51
180.0
 73
     0
 72
     1
 10
-245.5301785845931
 20
-249.9274852437929
 11
-245.5301785845931
 21
-249.3219499552861
 72
     2
 10
-245.2144616615163
 20
-249.3219499552861
 40
0.3157169230760711
 50
180.0
 51
269.8110329574541
 73
     0
 72
     2
 10
-245.2088455262063
 20
-251.0247849028552
 40
2.018561131933266
 50
269.8110329575858
 51
450.1889670424142
 73
     0
 72
     2
 10
-245.2144616615163
 20
-252.7276198504242
 40
0.315716923076792
 50
90.18896704254585
 51
180.0
 73
     0
 72
     1
 10
-245.5301785845931
 20
-252.7276198504242
 11
-245.5301785845931
 21
-252.1457684437291
 72
     2
 10
-245.2144616615163
 20
-252.1457684437291
 40
0.3157169230765328
 50
180.0
 51
244.6259913216482
 73
     0
 97
        8
330
35D
330
339
330
2E5
330
35C
330
33A
330
33B
330
2E4
330
338
 92
       16
 93
       12
 72
     1
 10
-247.790010348048
 20
-253.9939444444318
 11
-246.3141770870384
 21
-253.9939444444318
 72
     2
 10
-246.3141770870384
 20
-253.6782275213551
 40
0.3157169230767067
 50
270.0
 51
360.0
 73
     1
 72
     1
 10
-245.9984601639618
 20
-253.6782275213551
 11
-245.9984601639618
 21
-252.1474565898235
 72
     2
 10
-246.3141770870384
 20
-252.1474565898235
 40
0.315716923076593
 50
0.0
 51
64.80558935146027
 73
     1
 72
     2
 10
-245.7915926394634
 20
-251.0366268437607
 40
0.9118975235576147
 50
115.1944106485122
 51
244.8055893514718
 73
     0
 72
     2
 10
-246.3141770870384
 20
-249.9257970976985
 40
0.3157169230761203
 50
295.1944106485397
 51
360.0
 73
     1
 72
     1
 10
-245.9984601639618
 20
-249.9257970976985
 11
-245.9984601639618
 21
-249.321772478638
 72
     2
 10
-246.3141770870384
 20
-249.321772478638
 40
0.315716923076593
 50
0.0
 51
90.0
 73
     1
 72
     1
 10
-246.3141770870384
 20
-249.0060555555618
 11
-247.790010348048
 21
-249.0060555555618
 72
     2
 10
-247.790010348048
 20
-249.321772478638
 40
0.3157169230761951
 50
90.0
 51
180.0
 73
     1
 72
     1
 10
-248.1057272711237
 20
-249.321772478638
 11
-248.1057272711237
 21
-253.6782275213551
 72
     2
 10
-247.790010348048
 20
-253.6782275213551
 40
0.3157169230756836
 50
180.0
 51
270.0
 73
     1
 97
       12
330
2B1
330
342
330
2B0
330
353
330
2AF
330
352
330
343
330
344
330
2AE
330
351
330
2A9
330
354
 75
     1
 76
     0
 52
45.0
 41
0.1
 77
     0
 78
     1
 53
45.0
 43
0.0
 44
0.0
 45
-0.0707106781186548
 46
0.0707106781186548
 79
     0
 98
        1
 10
0.0
 20
0.0
  0
HATCH
  5
392
330
71
100
AcDbEntity
  8
1
  6
Continuous
 62
     2
100
AcDbHatch
 10
0.0
 20
0.0
 30
0.0
210
0.0
220
0.0
230
1.0
  2
_USER
 70
     0
 71
     1
 91
        4
 92
        1
 93
        8
 72
     2
 10
-248.3839050247945
 20
-248.7177446154052
 40
0.4242446153837989
 50
90.0
 51
180.0
 73
     1
 72
     1
 10
-248.8081496401773
 20
-248.7177446154052
 11
-248.8081496401773
 21
-254.2822553846054
 72
     2
 10
-248.3839050247945
 20
-254.2822553846054
 40
0.4242446153828041
 50
180.0
 51
270.0
 73
     1
 72
     1
 10
-248.3839050247945
 20
-254.7064999999887
 11
-242.9105929340777
 21
-254.7064999999887
 72
     2
 10
-242.9105929340777
 20
-254.2822553846054
 40
0.4242446153832873
 50
270.0
 51
360.0
 73
     1
 72
     1
 10
-242.4863483186938
 20
-254.2822553846054
 11
-242.4863483186938
 21
-248.7177446154052
 72
     2
 10
-242.9105929340777
 20
-248.7177446154052
 40
0.4242446153838841
 50
0.0
 51
90.0
 73
     1
 72
     1
 10
-242.9105929340777
 20
-248.2935000000214
 11
-248.3839050247945
 21
-248.2935000000214
 97
        8
330
34F
330
2AC
330
34E
330
2AD
330
345
330
2AA
330
350
330
2AB
 92
       16
 93
        1
 72
     2
 10
-245.764319374277
 20
-251.0366268437607
 40
0.4709789327785074
 50
0.0
 51
360.0
 73
     1
 97
        1
330
363
 92
       16
 93
        8
 72
     2
 10
-245.7405043596042
 20
-251.0366268437607
 40
0.911848150144459
 50
295.3740086781764
 51
424.6259913218075
 73
     1
 72
     2
 10
-245.2144616615163
 20
-249.9274852437929
 40
0.315716923076792
 50
115.3740086783518
 51
180.0
 73
     0
 72
     1
 10
-245.5301785845931
 20
-249.9274852437929
 11
-245.5301785845931
 21
-249.3219499552861
 72
     2
 10
-245.2144616615163
 20
-249.3219499552861
 40
0.3157169230760711
 50
180.0
 51
269.8110329574541
 73
     0
 72
     2
 10
-245.2088455262063
 20
-251.0247849028552
 40
2.018561131933266
 50
269.8110329575858
 51
450.1889670424142
 73
     0
 72
     2
 10
-245.2144616615163
 20
-252.7276198504242
 40
0.315716923076792
 50
90.18896704254585
 51
180.0
 73
     0
 72
     1
 10
-245.5301785845931
 20
-252.7276198504242
 11
-245.5301785845931
 21
-252.1457684437291
 72
     2
 10
-245.2144616615163
 20
-252.1457684437291
 40
0.3157169230765328
 50
180.0
 51
244.6259913216482
 73
     0
 97
        8
330
35D
330
339
330
2E5
330
35C
330
33A
330
33B
330
2E4
330
338
 92
       16
 93
       12
 72
     1
 10
-247.790010348048
 20
-253.9939444444318
 11
-246.3141770870384
 21
-253.9939444444318
 72
     2
 10
-246.3141770870384
 20
-253.6782275213551
 40
0.3157169230767067
 50
270.0
 51
360.0
 73
     1
 72
     1
 10
-245.9984601639618
 20
-253.6782275213551
 11
-245.9984601639618
 21
-252.1474565898235
 72
     2
 10
-246.3141770870384
 20
-252.1474565898235
 40
0.315716923076593
 50
0.0
 51
64.80558935146027
 73
     1
 72
     2
 10
-245.7915926394634
 20
-251.0366268437607
 40
0.9118975235576147
 50
115.1944106485122
 51
244.8055893514718
 73
     0
 72
     2
 10
-246.3141770870384
 20
-249.9257970976985
 40
0.3157169230761203
 50
295.1944106485397
 51
360.0
 73
     1
 72
     1
 10
-245.9984601639618
 20
-249.9257970976985
 11
-245.9984601639618
 21
-249.321772478638
 72
     2
 10
-246.3141770870384
 20
-249.321772478638
 40
0.315716923076593
 50
0.0
 51
90.0
 73
     1
 72
     1
 10
-246.3141770870384
 20
-249.0060555555618
 11
-247.790010348048
 21
-249.0060555555618
 72
     2
 10
-247.790010348048
 20
-249.321772478638
 40
0.3157169230761951
 50
90.0
 51
180.0
 73
     1
 72
     1
 10
-248.1057272711237
 20
-249.321772478638
 11
-248.1057272711237
 21
-253.6782275213551
 72
     2
 10
-247.790010348048
 20
-253.6782275213551
 40
0.3157169230756836
 50
180.0
 51
270.0
 73
     1
 97
       12
330
2B1
330
342
330
2B0
330
353
330
2AF
330
352
330
343
330
344
330
2AE
330
351
330
2A9
330
354
 75
     1
 76
     0
 52
45.0
 41
0.1
 77
     0
 78
     1
 53
45.0
 43
0.0
 44
0.0
 45
-0.0707106781186548
 46
0.0707106781186548
 79
     0
 98
        1
 10
0.0
 20
0.0
  0
HATCH
  5
393
330
71
100
AcDbEntity
  8
1
  6
Continuous
 62
     2
100
AcDbHatch
 10
0.0
 20
0.0
 30
0.0
210
0.0
220
0.0
230
1.0
  2
_USER
 70
     0
 71
     1
 91
        2
 92
        1
 93
       12
 72
     2
 10
-233.7087410208052
 20
-249.8204047619091
 40
1.526904761905882
 50
90.0
 51
270.0
 73
     1
 72
     1
 10
-233.7087410208052
 20
-251.3473095238144
 11
-230.5584212970242
 21
-251.3473095238144
 72
     1
 10
-230.5584212970242
 20
-251.3473095238144
 11
-230.5584212970242
 21
-250.6492959183719
 72
     1
 10
-230.5584212970242
 20
-250.6492959183719
 11
-231.8943491234519
 21
-250.6492959183719
 72
     1
 10
-231.8943491234519
 20
-250.6492959183719
 11
-231.8943491234519
 21
-250.1694115646302
 72
     1
 10
-231.8943491234519
 20
-250.1694115646302
 11
-230.5584212970242
 21
-250.1694115646302
 72
     1
 10
-230.5584212970242
 20
-250.1694115646302
 11
-230.5584212970242
 21
-249.4713979591879
 72
     1
 10
-230.5584212970242
 20
-249.4713979591879
 11
-231.8943491234519
 21
-249.4713979591879
 72
     1
 10
-231.8943491234519
 20
-249.4713979591879
 11
-231.8943491234519
 21
-248.9915136054462
 72
     1
 10
-231.8943491234519
 20
-248.9915136054462
 11
-230.5584212970242
 21
-248.9915136054462
 72
     1
 10
-230.5584212970242
 20
-248.9915136054462
 11
-230.5584212970242
 21
-248.2935000000032
 72
     1
 10
-230.5584212970242
 20
-248.2935000000032
 11
-233.7087410208052
 21
-248.2935000000032
 97
       12
330
2A0
330
29A
330
2C1
330
2C0
330
2BF
330
2BE
330
29B
330
29C
330
29D
330
29E
330
340
330
29F
 92
       16
 93
        4
 72
     2
 10
-233.2927289742937
 20
-249.8204047619091
 40
0.7717997786796724
 50
141.8795802028404
 51
218.1204197971562
 73
     1
 72
     2
 10
-233.49246901064
 20
-249.9771359400295
 40
0.5179085730134372
 50
218.1204197971511
 51
321.8795802028566
 73
     1
 72
     2
 10
-233.6922090469862
 20
-249.8204047619091
 40
0.7717997786796373
 50
321.8795802028437
 51
398.1204197971596
 73
     1
 72
     2
 10
-233.49246901064
 20
-249.6636735837886
 40
0.5179085730135266
 50
38.12041979714334
 51
141.8795802028489
 73
     1
 97
        4
330
34D
330
34C
330
347
330
346
 75
     1
 76
     0
 52
45.0
 41
0.1
 77
     0
 78
     1
 53
45.0
 43
0.0
 44
0.0
 45
-0.0707106781186548
 46
0.0707106781186548
 79
     0
 98
        1
 10
0.0
 20
0.0
  0
HATCH
  5
394
330
71
100
AcDbEntity
  8
1
  6
Continuous
 62
     2
100
AcDbHatch
 10
0.0
 20
0.0
 30
0.0
210
0.0
220
0.0
230
1.0
  2
_USER
 70
     0
 71
     1
 91
        2
 92
        1
 93
       12
 72
     2
 10
-233.7087410208052
 20
-249.8204047619091
 40
1.526904761905882
 50
90.0
 51
270.0
 73
     1
 72
     1
 10
-233.7087410208052
 20
-251.3473095238144
 11
-230.5584212970242
 21
-251.3473095238144
 72
     1
 10
-230.5584212970242
 20
-251.3473095238144
 11
-230.5584212970242
 21
-250.6492959183719
 72
     1
 10
-230.5584212970242
 20
-250.6492959183719
 11
-231.8943491234519
 21
-250.6492959183719
 72
     1
 10
-231.8943491234519
 20
-250.6492959183719
 11
-231.8943491234519
 21
-250.1694115646302
 72
     1
 10
-231.8943491234519
 20
-250.1694115646302
 11
-230.5584212970242
 21
-250.1694115646302
 72
     1
 10
-230.5584212970242
 20
-250.1694115646302
 11
-230.5584212970242
 21
-249.4713979591879
 72
     1
 10
-230.5584212970242
 20
-249.4713979591879
 11
-231.8943491234519
 21
-249.4713979591879
 72
     1
 10
-231.8943491234519
 20
-249.4713979591879
 11
-231.8943491234519
 21
-248.9915136054462
 72
     1
 10
-231.8943491234519
 20
-248.9915136054462
 11
-230.5584212970242
 21
-248.9915136054462
 72
     1
 10
-230.5584212970242
 20
-248.9915136054462
 11
-230.5584212970242
 21
-248.2935000000032
 72
     1
 10
-230.5584212970242
 20
-248.2935000000032
 11
-233.7087410208052
 21
-248.2935000000032
 97
       12
330
2A0
330
29A
330
2C1
330
2C0
330
2BF
330
2BE
330
29B
330
29C
330
29D
330
29E
330
340
330
29F
 92
       16
 93
        4
 72
     2
 10
-233.2927289742937
 20
-249.8204047619091
 40
0.7717997786796724
 50
141.8795802028404
 51
218.1204197971562
 73
     1
 72
     2
 10
-233.49246901064
 20
-249.9771359400295
 40
0.5179085730134372
 50
218.1204197971511
 51
321.8795802028566
 73
     1
 72
     2
 10
-233.6922090469862
 20
-249.8204047619091
 40
0.7717997786796373
 50
321.8795802028437
 51
398.1204197971596
 73
     1
 72
     2
 10
-233.49246901064
 20
-249.6636735837886
 40
0.5179085730135266
 50
38.12041979714334
 51
141.8795802028489
 73
     1
 97
        4
330
34D
330
34C
330
347
330
346
 75
     1
 76
     0
 52
45.0
 41
0.1
 77
     0
 78
     1
 53
45.0
 43
0.0
 44
0.0
 45
-0.0707106781186548
 46
0.0707106781186548
 79
     0
 98
        1
 10
0.0
 20
0.0
  0
HATCH
  5
395
330
71
100
AcDbEntity
  8
1
  6
Continuous
 62
     2
100
AcDbHatch
 10
0.0
 20
0.0
 30
0.0
210
0.0
220
0.0
230
1.0
  2
_USER
 70
     0
 71
     1
 91
        2
 92
        1
 93
        4
 72
     2
 10
-237.7343563832668
 20
-253.1795952380834
 40
1.45803408365149
 50
117.5481481756624
 51
242.4518518243375
 73
     1
 72
     2
 10
-237.4534164914335
 20
-252.6410202277801
 40
2.065479772208509
 50
242.4518518243402
 51
297.5481481756871
 73
     1
 72
     2
 10
-237.1724765996002
 20
-253.1795952380834
 40
1.458034083652003
 50
297.548148175701
 51
422.451851824299
 73
     1
 72
     2
 10
-237.4534164914335
 20
-253.7181702483862
 40
2.065479772208568
 50
62.45185182430637
 51
117.5481481756664
 73
     1
 97
        4
330
34B
330
348
330
34A
330
349
 92
       16
 93
        4
 72
     2
 10
-237.4534164914335
 20
-253.0228640599629
 40
0.5179085730132998
 50
38.12041979714704
 51
141.8795802028588
 73
     1
 72
     2
 10
-237.2536764550874
 20
-253.1795952380834
 40
0.7717997786794633
 50
141.8795802028363
 51
218.1204197971687
 73
     1
 72
     2
 10
-237.4534164914335
 20
-253.3363264162034
 40
0.5179085730137354
 50
218.1204197971931
 51
321.879580202801
 73
     1
 72
     2
 10
-237.6531565277799
 20
-253.1795952380834
 40
0.7717997786796947
 50
321.8795802028417
 51
398.1204197971533
 73
     1
 97
        4
330
32E
330
32F
330
330
330
32D
 75
     1
 76
     0
 52
45.0
 41
0.1
 77
     0
 78
     1
 53
45.0
 43
0.0
 44
0.0
 45
-0.0707106781186548
 46
0.0707106781186548
 79
     0
 98
        1
 10
0.0
 20
0.0
  0
HATCH
  5
396
330
71
100
AcDbEntity
  8
1
  6
Continuous
 62
     2
100
AcDbHatch
 10
0.0
 20
0.0
 30
0.0
210
0.0
220
0.0
230
1.0
  2
_USER
 70
     0
 71
     1
 91
        2
 92
        1
 93
        4
 72
     2
 10
-237.7343563832668
 20
-253.1795952380834
 40
1.45803408365149
 50
117.5481481756624
 51
242.4518518243375
 73
     1
 72
     2
 10
-237.4534164914335
 20
-252.6410202277801
 40
2.065479772208509
 50
242.4518518243402
 51
297.5481481756871
 73
     1
 72
     2
 10
-237.1724765996002
 20
-253.1795952380834
 40
1.458034083652003
 50
297.548148175701
 51
422.451851824299
 73
     1
 72
     2
 10
-237.4534164914335
 20
-253.7181702483862
 40
2.065479772208568
 50
62.45185182430637
 51
117.5481481756664
 73
     1
 97
        4
330
34B
330
348
330
34A
330
349
 92
       16
 93
        4
 72
     2
 10
-237.4534164914335
 20
-253.0228640599629
 40
0.5179085730132998
 50
38.12041979714704
 51
141.8795802028588
 73
     1
 72
     2
 10
-237.2536764550874
 20
-253.1795952380834
 40
0.7717997786794633
 50
141.8795802028363
 51
218.1204197971687
 73
     1
 72
     2
 10
-237.4534164914335
 20
-253.3363264162034
 40
0.5179085730137354
 50
218.1204197971931
 51
321.879580202801
 73
     1
 72
     2
 10
-237.6531565277799
 20
-253.1795952380834
 40
0.7717997786796947
 50
321.8795802028417
 51
398.1204197971533
 73
     1
 97
        4
330
32E
330
32F
330
330
330
32D
 75
     1
 76
     0
 52
45.0
 41
0.1
 77
     0
 78
     1
 53
45.0
 43
0.0
 44
0.0
 45
-0.0707106781186548
 46
0.0707106781186548
 79
     0
 98
        1
 10
0.0
 20
0.0
  0
HATCH
  5
397
330
71
100
AcDbEntity
  8
1
  6
Continuous
 62
     2
100
AcDbHatch
 10
0.0
 20
0.0
 30
0.0
210
0.0
220
0.0
230
1.0
  2
_USER
 70
     0
 71
     1
 91
        2
 92
        1
 93
        6
 72
     1
 10
-242.009231237827
 20
-248.2935000000032
 11
-242.009231237827
 21
-251.3473095238144
 72
     1
 10
-242.009231237827
 20
-251.3473095238144
 11
-240.7687268275729
 21
-251.3473095238144
 72
     1
 10
-240.7687268275729
 20
-251.3473095238144
 11
-240.7687268275729
 21
-250.4042312826706
 72
     1
 10
-240.7687268275729
 20
-250.4042312826706
 11
-240.0099592397926
 21
-250.4042312826706
 72
     2
 10
-240.0099592397926
 20
-249.3488656413369
 40
1.055365641333708
 50
270.0
 51
450.0
 73
     1
 72
     1
 10
-240.0099592397926
 20
-248.2935000000032
 11
-242.009231237827
 21
-248.2935000000032
 97
        6
330
355
330
2B2
330
2A8
330
2A7
330
2B4
330
2B3
 92
       16
 93
        4
 72
     1
 10
-240.451431766031
 20
-248.9566058454433
 11
-240.7687268275729
 21
-248.9566058454433
 72
     1
 10
-240.7687268275729
 20
-248.9566058454433
 11
-240.7687268275729
 21
-249.6623334947855
 72
     1
 10
-240.7687268275729
 20
-249.6623334947855
 11
-240.451431766031
 21
-249.6623334947855
 72
     2
 10
-240.451431766031
 20
-249.3094696701144
 40
0.3528638246711182
 50
270.0
 51
450.0
 73
     1
 97
        4
330
2B5
330
2A6
330
2B6
330
341
 75
     1
 76
     0
 52
45.0
 41
0.1
 77
     0
 78
     1
 53
45.0
 43
0.0
 44
0.0
 45
-0.0707106781186548
 46
0.0707106781186548
 79
     0
 98
        1
 10
0.0
 20
0.0
  0
HATCH
  5
398
330
71
100
AcDbEntity
  8
1
  6
Continuous
 62
     2
100
AcDbHatch
 10
0.0
 20
0.0
 30
0.0
210
0.0
220
0.0
230
1.0
  2
_USER
 70
     0
 71
     1
 91
        2
 92
        1
 93
        6
 72
     1
 10
-242.009231237827
 20
-248.2935000000032
 11
-242.009231237827
 21
-251.3473095238144
 72
     1
 10
-242.009231237827
 20
-251.3473095238144
 11
-240.7687268275729
 21
-251.3473095238144
 72
     1
 10
-240.7687268275729
 20
-251.3473095238144
 11
-240.7687268275729
 21
-250.4042312826706
 72
     1
 10
-240.7687268275729
 20
-250.4042312826706
 11
-240.0099592397926
 21
-250.4042312826706
 72
     2
 10
-240.0099592397926
 20
-249.3488656413369
 40
1.055365641333708
 50
270.0
 51
450.0
 73
     1
 72
     1
 10
-240.0099592397926
 20
-248.2935000000032
 11
-242.009231237827
 21
-248.2935000000032
 97
        6
330
355
330
2B2
330
2A8
330
2A7
330
2B4
330
2B3
 92
       16
 93
        4
 72
     1
 10
-240.451431766031
 20
-248.9566058454433
 11
-240.7687268275729
 21
-248.9566058454433
 72
     1
 10
-240.7687268275729
 20
-248.9566058454433
 11
-240.7687268275729
 21
-249.6623334947855
 72
     1
 10
-240.7687268275729
 20
-249.6623334947855
 11
-240.451431766031
 21
-249.6623334947855
 72
     2
 10
-240.451431766031
 20
-249.3094696701144
 40
0.3528638246711182
 50
270.0
 51
450.0
 73
     1
 97
        4
330
2B5
330
2A6
330
2B6
330
341
 75
     1
 76
     0
 52
45.0
 41
0.1
 77
     0
 78
     1
 53
45.0
 43
0.0
 44
0.0
 45
-0.0707106781186548
 46
0.0707106781186548
 79
     0
 98
        1
 10
0.0
 20
0.0
  0
HATCH
  5
399
330
71
100
AcDbEntity
  8
1
  6
Continuous
 62
     2
100
AcDbHatch
 10
0.0
 20
0.0
 30
0.0
210
0.0
220
0.0
230
1.0
  2
_USER
 70
     0
 71
     1
 91
        1
 92
        1
 93
       12
 72
     1
 10
-222.3949480433938
 20
-248.2935000000032
 11
-220.9922238256466
 21
-248.2935000000032
 72
     1
 10
-220.9922238256466
 20
-248.2935000000032
 11
-222.2947534564131
 21
-249.7664505300394
 72
     1
 10
-222.2947534564131
 20
-249.7664505300394
 11
-220.8968004094728
 21
-251.3473095238144
 72
     1
 10
-220.8968004094728
 20
-251.3473095238144
 11
-222.2995246272211
 21
-251.3473095238144
 72
     1
 10
-222.2995246272211
 20
-251.3473095238144
 11
-222.9961155652866
 21
-250.5595777385207
 72
     1
 10
-222.9961155652866
 20
-250.5595777385207
 11
-223.6927065033523
 21
-251.3473095238144
 72
     1
 10
-223.6927065033523
 20
-251.3473095238144
 11
-225.0954307211005
 21
-251.3473095238144
 72
     1
 10
-225.0954307211005
 20
-251.3473095238144
 11
-223.6974776741602
 21
-249.7664505300394
 72
     1
 10
-223.6974776741602
 20
-249.7664505300394
 11
-225.0000073049277
 21
-248.2935000000032
 72
     1
 10
-225.0000073049277
 20
-248.2935000000032
 11
-223.5972830871784
 21
-248.2935000000032
 72
     1
 10
-223.5972830871784
 20
-248.2935000000032
 11
-222.9961155652866
 21
-248.9733233215587
 72
     1
 10
-222.9961155652866
 20
-248.9733233215587
 11
-222.3949480433938
 21
-248.2935000000032
 97
       12
330
281
330
2DA
330
2D9
330
2D8
330
2D7
330
282
330
283
330
27F
330
280
330
2DD
330
2DC
330
2DB
 75
     1
 76
     0
 52
45.0
 41
0.1
 77
     0
 78
     1
 53
45.0
 43
0.0
 44
0.0
 45
-0.0707106781186548
 46
0.0707106781186548
 79
     0
 98
        1
 10
0.0
 20
0.0
  0
HATCH
  5
39A
330
71
100
AcDbEntity
  8
1
  6
Continuous
 62
     2
100
AcDbHatch
 10
0.0
 20
0.0
 30
0.0
210
0.0
220
0.0
230
1.0
  2
_USER
 70
     0
 71
     1
 91
        1
 92
        1
 93
       12
 72
     1
 10
-222.3949480433938
 20
-248.2935000000032
 11
-220.9922238256466
 21
-248.2935000000032
 72
     1
 10
-220.9922238256466
 20
-248.2935000000032
 11
-222.2947534564131
 21
-249.7664505300394
 72
     1
 10
-222.2947534564131
 20
-249.7664505300394
 11
-220.8968004094728
 21
-251.3473095238144
 72
     1
 10
-220.8968004094728
 20
-251.3473095238144
 11
-222.2995246272211
 21
-251.3473095238144
 72
     1
 10
-222.2995246272211
 20
-251.3473095238144
 11
-222.9961155652866
 21
-250.5595777385207
 72
     1
 10
-222.9961155652866
 20
-250.5595777385207
 11
-223.6927065033523
 21
-251.3473095238144
 72
     1
 10
-223.6927065033523
 20
-251.3473095238144
 11
-225.0954307211005
 21
-251.3473095238144
 72
     1
 10
-225.0954307211005
 20
-251.3473095238144
 11
-223.6974776741602
 21
-249.7664505300394
 72
     1
 10
-223.6974776741602
 20
-249.7664505300394
 11
-225.0000073049277
 21
-248.2935000000032
 72
     1
 10
-225.0000073049277
 20
-248.2935000000032
 11
-223.5972830871784
 21
-248.2935000000032
 72
     1
 10
-223.5972830871784
 20
-248.2935000000032
 11
-222.9961155652866
 21
-248.9733233215587
 72
     1
 10
-222.9961155652866
 20
-248.9733233215587
 11
-222.3949480433938
 21
-248.2935000000032
 97
       12
330
281
330
2DA
330
2D9
330
2D8
330
2D7
330
282
330
283
330
27F
330
280
330
2DD
330
2DC
330
2DB
 75
     1
 76
     0
 52
45.0
 41
0.1
 77
     0
 78
     1
 53
45.0
 43
0.0
 44
0.0
 45
-0.0707106781186548
 46
0.0707106781186548
 79
     0
 98
        1
 10
0.0
 20
0.0
  0
HATCH
  5
39B
330
71
100
AcDbEntity
  8
1
  6
Continuous
 62
     2
100
AcDbHatch
 10
0.0
 20
0.0
 30
0.0
210
0.0
220
0.0
230
1.0
  2
_USER
 70
     0
 71
     1
 91
        1
 92
        1
 93
        4
 72
     1
 10
-225.2147099913174
 20
-248.2935000000032
 11
-225.2147099913174
 21
-251.3473095238144
 72
     1
 10
-225.2147099913174
 20
-251.3473095238144
 11
-226.4552144015703
 21
-251.3473095238144
 72
     1
 10
-226.4552144015703
 20
-251.3473095238144
 11
-226.4552144015703
 21
-248.2935000000032
 72
     1
 10
-226.4552144015703
 20
-248.2935000000032
 11
-225.2147099913174
 21
-248.2935000000032
 97
        4
330
2D5
330
284
330
2D4
330
2D6
 75
     1
 76
     0
 52
45.0
 41
0.1
 77
     0
 78
     1
 53
45.0
 43
0.0
 44
0.0
 45
-0.0707106781186548
 46
0.0707106781186548
 79
     0
 98
        1
 10
0.0
 20
0.0
  0
HATCH
  5
39C
330
71
100
AcDbEntity
  8
1
  6
Continuous
 62
     2
100
AcDbHatch
 10
0.0
 20
0.0
 30
0.0
210
0.0
220
0.0
230
1.0
  2
_USER
 70
     0
 71
     1
 91
        1
 92
        1
 93
        4
 72
     1
 10
-225.2147099913174
 20
-248.2935000000032
 11
-225.2147099913174
 21
-251.3473095238144
 72
     1
 10
-225.2147099913174
 20
-251.3473095238144
 11
-226.4552144015703
 21
-251.3473095238144
 72
     1
 10
-226.4552144015703
 20
-251.3473095238144
 11
-226.4552144015703
 21
-248.2935000000032
 72
     1
 10
-226.4552144015703
 20
-248.2935000000032
 11
-225.2147099913174
 21
-248.2935000000032
 97
        4
330
2D5
330
284
330
2D4
330
2D6
 75
     1
 76
     0
 52
45.0
 41
0.1
 77
     0
 78
     1
 53
45.0
 43
0.0
 44
0.0
 45
-0.0707106781186548
 46
0.0707106781186548
 79
     0
 98
        1
 10
0.0
 20
0.0
  0
HATCH
  5
39D
330
71
100
AcDbEntity
  8
1
  6
Continuous
 62
     2
100
AcDbHatch
 10
0.0
 20
0.0
 30
0.0
210
0.0
220
0.0
230
1.0
  2
_USER
 70
     0
 71
     1
 91
        2
 92
        1
 93
        8
 72
     1
 10
-225.6051539948494
 20
-254.7064999999887
 11
-226.8456584051033
 21
-254.7064999999887
 72
     1
 10
-226.8456584051033
 20
-254.7064999999887
 11
-227.0571384585791
 21
-254.1655394557708
 72
     1
 10
-227.0571384585791
 20
-254.1655394557708
 11
-228.1895800352529
 21
-254.1655394557708
 72
     1
 10
-228.1895800352529
 20
-254.1655394557708
 11
-228.4010600887287
 21
-254.7064999999887
 72
     1
 10
-228.4010600887287
 20
-254.7064999999887
 11
-229.6415644989817
 21
-254.7064999999887
 72
     1
 10
-229.6415644989817
 20
-254.7064999999887
 11
-228.2436114520424
 21
-251.6526904761776
 72
     1
 10
-228.2436114520424
 20
-251.6526904761776
 11
-227.0031070417897
 21
-251.6526904761776
 72
     1
 10
-227.0031070417897
 20
-251.6526904761776
 11
-225.6051539948494
 21
-254.7064999999887
 97
        8
330
2D0
330
28A
330
2CF
330
2D2
330
287
330
2D1
330
288
330
289
 92
       16
 93
        3
 72
     1
 10
-227.9235244841079
 20
-253.4849761904642
 11
-227.3231940097254
 21
-253.4849761904642
 72
     1
 10
-227.3231940097254
 20
-253.4849761904642
 11
-227.6233592469155
 21
-252.7171612244775
 72
     1
 10
-227.6233592469155
 20
-252.7171612244775
 11
-227.9235244841079
 21
-253.4849761904642
 97
        3
330
286
330
285
330
2D3
 75
     1
 76
     0
 52
45.0
 41
0.1
 77
     0
 78
     1
 53
45.0
 43
0.0
 44
0.0
 45
-0.0707106781186548
 46
0.0707106781186548
 79
     0
 98
        1
 10
0.0
 20
0.0
  0
HATCH
  5
39E
330
71
100
AcDbEntity
  8
1
  6
Continuous
 62
     2
100
AcDbHatch
 10
0.0
 20
0.0
 30
0.0
210
0.0
220
0.0
230
1.0
  2
_USER
 70
     0
 71
     1
 91
        2
 92
        1
 93
        8
 72
     1
 10
-225.6051539948494
 20
-254.7064999999887
 11
-226.8456584051033
 21
-254.7064999999887
 72
     1
 10
-226.8456584051033
 20
-254.7064999999887
 11
-227.0571384585791
 21
-254.1655394557708
 72
     1
 10
-227.0571384585791
 20
-254.1655394557708
 11
-228.1895800352529
 21
-254.1655394557708
 72
     1
 10
-228.1895800352529
 20
-254.1655394557708
 11
-228.4010600887287
 21
-254.7064999999887
 72
     1
 10
-228.4010600887287
 20
-254.7064999999887
 11
-229.6415644989817
 21
-254.7064999999887
 72
     1
 10
-229.6415644989817
 20
-254.7064999999887
 11
-228.2436114520424
 21
-251.6526904761776
 72
     1
 10
-228.2436114520424
 20
-251.6526904761776
 11
-227.0031070417897
 21
-251.6526904761776
 72
     1
 10
-227.0031070417897
 20
-251.6526904761776
 11
-225.6051539948494
 21
-254.7064999999887
 97
        8
330
2D0
330
28A
330
2CF
330
2D2
330
287
330
2D1
330
288
330
289
 92
       16
 93
        3
 72
     1
 10
-227.9235244841079
 20
-253.4849761904642
 11
-227.3231940097254
 21
-253.4849761904642
 72
     1
 10
-227.3231940097254
 20
-253.4849761904642
 11
-227.6233592469155
 21
-252.7171612244775
 72
     1
 10
-227.6233592469155
 20
-252.7171612244775
 11
-227.9235244841079
 21
-253.4849761904642
 97
        3
330
286
330
285
330
2D3
 75
     1
 76
     0
 52
45.0
 41
0.1
 77
     0
 78
     1
 53
45.0
 43
0.0
 44
0.0
 45
-0.0707106781186548
 46
0.0707106781186548
 79
     0
 98
        1
 10
0.0
 20
0.0
  0
HATCH
  5
39F
330
71
100
AcDbEntity
  8
1
  6
Continuous
 62
     2
100
AcDbHatch
 10
0.0
 20
0.0
 30
0.0
210
0.0
220
0.0
230
1.0
  2
_USER
 70
     0
 71
     1
 91
        1
 92
        1
 93
        8
 72
     1
 10
-231.7990766381639
 20
-251.6526904761776
 11
-231.7990766381639
 21
-252.4379557823012
 72
     1
 10
-231.7990766381639
 20
-252.4379557823012
 11
-230.9879776006893
 21
-252.4379557823012
 72
     1
 10
-230.9879776006893
 20
-252.4379557823012
 11
-230.9879776006893
 21
-254.7064999999887
 72
     1
 10
-230.9879776006893
 20
-254.7064999999887
 11
-229.7951848985228
 21
-254.7064999999887
 72
     1
 10
-229.7951848985228
 20
-254.7064999999887
 11
-229.7951848985228
 21
-252.4379557823012
 72
     1
 10
-229.7951848985228
 20
-252.4379557823012
 11
-228.9840858610503
 21
-252.4379557823012
 72
     1
 10
-228.9840858610503
 20
-252.4379557823012
 11
-228.9840858610503
 21
-251.6526904761776
 72
     1
 10
-228.9840858610503
 20
-251.6526904761776
 11
-231.7990766381639
 21
-251.6526904761776
 97
        8
330
2CC
330
2CB
330
2CA
330
28B
330
28C
330
2CE
330
28D
330
2CD
 75
     1
 76
     0
 52
45.0
 41
0.1
 77
     0
 78
     1
 53
45.0
 43
0.0
 44
0.0
 45
-0.0707106781186548
 46
0.0707106781186548
 79
     0
 98
        1
 10
0.0
 20
0.0
  0
HATCH
  5
3A0
330
71
100
AcDbEntity
  8
1
  6
Continuous
 62
     2
100
AcDbHatch
 10
0.0
 20
0.0
 30
0.0
210
0.0
220
0.0
230
1.0
  2
_USER
 70
     0
 71
     1
 91
        1
 92
        1
 93
        8
 72
     1
 10
-231.7990766381639
 20
-251.6526904761776
 11
-231.7990766381639
 21
-252.4379557823012
 72
     1
 10
-231.7990766381639
 20
-252.4379557823012
 11
-230.9879776006893
 21
-252.4379557823012
 72
     1
 10
-230.9879776006893
 20
-252.4379557823012
 11
-230.9879776006893
 21
-254.7064999999887
 72
     1
 10
-230.9879776006893
 20
-254.7064999999887
 11
-229.7951848985228
 21
-254.7064999999887
 72
     1
 10
-229.7951848985228
 20
-254.7064999999887
 11
-229.7951848985228
 21
-252.4379557823012
 72
     1
 10
-229.7951848985228
 20
-252.4379557823012
 11
-228.9840858610503
 21
-252.4379557823012
 72
     1
 10
-228.9840858610503
 20
-252.4379557823012
 11
-228.9840858610503
 21
-251.6526904761776
 72
     1
 10
-228.9840858610503
 20
-251.6526904761776
 11
-231.7990766381639
 21
-251.6526904761776
 97
        8
330
2CC
330
2CB
330
2CA
330
28B
330
28C
330
2CE
330
28D
330
2CD
 75
     1
 76
     0
 52
45.0
 41
0.1
 77
     0
 78
     1
 53
45.0
 43
0.0
 44
0.0
 45
-0.0707106781186548
 46
0.0707106781186548
 79
     0
 98
        1
 10
0.0
 20
0.0
  0
HATCH
  5
3A1
330
71
100
AcDbEntity
  8
1
  6
Continuous
 62
     2
100
AcDbHatch
 10
0.0
 20
0.0
 30
0.0
210
0.0
220
0.0
230
1.0
  2
_USER
 70
     0
 71
     1
 91
        1
 92
        1
 93
       10
 72
     1
 10
-229.1270700544248
 20
-248.2935000000032
 11
-230.3198627565913
 21
-248.2935000000032
 72
     1
 10
-230.3198627565913
 20
-248.2935000000032
 11
-230.3198627565913
 21
-251.3473095238144
 72
     1
 10
-230.3198627565913
 20
-251.3473095238144
 11
-229.1270700544248
 21
-251.3473095238144
 72
     1
 10
-229.1270700544248
 20
-251.3473095238144
 11
-229.1270700544248
 21
-250.0385340136097
 72
     1
 10
-229.1270700544248
 20
-250.0385340136097
 11
-227.8865656441708
 21
-251.3473095238144
 72
     1
 10
-227.8865656441708
 20
-251.3473095238144
 11
-226.6937729420042
 21
-251.3473095238144
 72
     1
 10
-226.6937729420042
 20
-251.3473095238144
 11
-226.6937729420042
 21
-248.2935000000032
 72
     1
 10
-226.6937729420042
 20
-248.2935000000032
 11
-227.8865656441708
 21
-248.2935000000032
 72
     1
 10
-227.8865656441708
 20
-248.2935000000032
 11
-227.8865656441708
 21
-249.6022755102084
 72
     1
 10
-227.8865656441708
 20
-249.6022755102084
 11
-229.1270700544248
 21
-248.2935000000032
 97
       10
330
2C6
330
290
330
291
330
292
330
293
330
2C9
330
28E
330
2C8
330
2C7
330
28F
 75
     1
 76
     0
 52
45.0
 41
0.1
 77
     0
 78
     1
 53
45.0
 43
0.0
 44
0.0
 45
-0.0707106781186548
 46
0.0707106781186548
 79
     0
 98
        1
 10
0.0
 20
0.0
  0
HATCH
  5
3A2
330
71
100
AcDbEntity
  8
1
  6
Continuous
 62
     2
100
AcDbHatch
 10
0.0
 20
0.0
 30
0.0
210
0.0
220
0.0
230
1.0
  2
_USER
 70
     0
 71
     1
 91
        1
 92
        1
 93
       10
 72
     1
 10
-229.1270700544248
 20
-248.2935000000032
 11
-230.3198627565913
 21
-248.2935000000032
 72
     1
 10
-230.3198627565913
 20
-248.2935000000032
 11
-230.3198627565913
 21
-251.3473095238144
 72
     1
 10
-230.3198627565913
 20
-251.3473095238144
 11
-229.1270700544248
 21
-251.3473095238144
 72
     1
 10
-229.1270700544248
 20
-251.3473095238144
 11
-229.1270700544248
 21
-250.0385340136097
 72
     1
 10
-229.1270700544248
 20
-250.0385340136097
 11
-227.8865656441708
 21
-251.3473095238144
 72
     1
 10
-227.8865656441708
 20
-251.3473095238144
 11
-226.6937729420042
 21
-251.3473095238144
 72
     1
 10
-226.6937729420042
 20
-251.3473095238144
 11
-226.6937729420042
 21
-248.2935000000032
 72
     1
 10
-226.6937729420042
 20
-248.2935000000032
 11
-227.8865656441708
 21
-248.2935000000032
 72
     1
 10
-227.8865656441708
 20
-248.2935000000032
 11
-227.8865656441708
 21
-249.6022755102084
 72
     1
 10
-227.8865656441708
 20
-249.6022755102084
 11
-229.1270700544248
 21
-248.2935000000032
 97
       10
330
2C6
330
290
330
291
330
292
330
293
330
2C9
330
28E
330
2C8
330
2C7
330
28F
 75
     1
 76
     0
 52
45.0
 41
0.1
 77
     0
 78
     1
 53
45.0
 43
0.0
 44
0.0
 45
-0.0707106781186548
 46
0.0707106781186548
 79
     0
 98
        1
 10
0.0
 20
0.0
  0
HATCH
  5
3A3
330
71
100
AcDbEntity
  8
1
  6
Continuous
 62
     2
100
AcDbHatch
 10
0.0
 20
0.0
 30
0.0
210
0.0
220
0.0
230
1.0
  2
_USER
 70
     0
 71
     1
 91
        1
 92
        1
 93
       10
 72
     1
 10
-234.3755088748434
 20
-251.6526904761776
 11
-235.568301577011
 21
-251.6526904761776
 72
     1
 10
-235.568301577011
 20
-251.6526904761776
 11
-235.568301577011
 21
-254.7064999999887
 72
     1
 10
-235.568301577011
 20
-254.7064999999887
 11
-234.3755088748434
 21
-254.7064999999887
 72
     1
 10
-234.3755088748434
 20
-254.7064999999887
 11
-234.3755088748434
 21
-253.3977244897841
 72
     1
 10
-234.3755088748434
 20
-253.3977244897841
 11
-233.1350044645905
 21
-254.7064999999887
 72
     1
 10
-233.1350044645905
 20
-254.7064999999887
 11
-231.9422117624241
 21
-254.7064999999887
 72
     1
 10
-231.9422117624241
 20
-254.7064999999887
 11
-231.9422117624241
 21
-251.6526904761776
 72
     1
 10
-231.9422117624241
 20
-251.6526904761776
 11
-233.1350044645905
 21
-251.6526904761776
 72
     1
 10
-233.1350044645905
 20
-251.6526904761776
 11
-233.1350044645905
 21
-252.9614659863827
 72
     1
 10
-233.1350044645905
 20
-252.9614659863827
 11
-234.3755088748434
 21
-251.6526904761776
 97
       10
330
295
330
296
330
297
330
2C3
330
298
330
299
330
2C2
330
2C5
330
2C4
330
294
 75
     1
 76
     0
 52
45.0
 41
0.1
 77
     0
 78
     1
 53
45.0
 43
0.0
 44
0.0
 45
-0.0707106781186548
 46
0.0707106781186548
 79
     0
 98
        1
 10
0.0
 20
0.0
  0
HATCH
  5
3A4
330
71
100
AcDbEntity
  8
1
  6
Continuous
 62
     2
100
AcDbHatch
 10
0.0
 20
0.0
 30
0.0
210
0.0
220
0.0
230
1.0
  2
_USER
 70
     0
 71
     1
 91
        1
 92
        1
 93
       10
 72
     1
 10
-234.3755088748434
 20
-251.6526904761776
 11
-235.568301577011
 21
-251.6526904761776
 72
     1
 10
-235.568301577011
 20
-251.6526904761776
 11
-235.568301577011
 21
-254.7064999999887
 72
     1
 10
-235.568301577011
 20
-254.7064999999887
 11
-234.3755088748434
 21
-254.7064999999887
 72
     1
 10
-234.3755088748434
 20
-254.7064999999887
 11
-234.3755088748434
 21
-253.3977244897841
 72
     1
 10
-234.3755088748434
 20
-253.3977244897841
 11
-233.1350044645905
 21
-254.7064999999887
 72
     1
 10
-233.1350044645905
 20
-254.7064999999887
 11
-231.9422117624241
 21
-254.7064999999887
 72
     1
 10
-231.9422117624241
 20
-254.7064999999887
 11
-231.9422117624241
 21
-251.6526904761776
 72
     1
 10
-231.9422117624241
 20
-251.6526904761776
 11
-233.1350044645905
 21
-251.6526904761776
 72
     1
 10
-233.1350044645905
 20
-251.6526904761776
 11
-233.1350044645905
 21
-252.9614659863827
 72
     1
 10
-233.1350044645905
 20
-252.9614659863827
 11
-234.3755088748434
 21
-251.6526904761776
 97
       10
330
295
330
296
330
297
330
2C3
330
298
330
299
330
2C2
330
2C5
330
2C4
330
294
 75
     1
 76
     0
 52
45.0
 41
0.1
 77
     0
 78
     1
 53
45.0
 43
0.0
 44
0.0
 45
-0.0707106781186548
 46
0.0707106781186548
 79
     0
 98
        1
 10
0.0
 20
0.0
  0
HATCH
  5
3A5
330
71
100
AcDbEntity
  8
1
  6
Continuous
 62
     2
100
AcDbHatch
 10
0.0
 20
0.0
 30
0.0
210
0.0
220
0.0
230
1.0
  2
_USER
 70
     0
 71
     1
 91
        1
 92
        1
 93
       12
 72
     1
 10
-235.3773038137788
 20
-248.2935000000032
 11
-235.3773038137788
 21
-251.3473095238144
 72
     1
 10
-235.3773038137788
 20
-251.3473095238144
 11
-236.5700965159452
 21
-251.3473095238144
 72
     1
 10
-236.5700965159452
 20
-251.3473095238144
 11
-236.5700965159452
 21
-250.2130374149706
 72
     1
 10
-236.5700965159452
 20
-250.2130374149706
 11
-237.6197540938527
 21
-250.2130374149706
 72
     1
 10
-237.6197540938527
 20
-250.2130374149706
 11
-237.6197540938527
 21
-251.3473095238144
 72
     1
 10
-237.6197540938527
 20
-251.3473095238144
 11
-238.8125467960193
 21
-251.3473095238144
 72
     1
 10
-238.8125467960193
 20
-251.3473095238144
 11
-238.8125467960193
 21
-248.2935000000032
 72
     1
 10
-238.8125467960193
 20
-248.2935000000032
 11
-237.6197540938527
 21
-248.2935000000032
 72
     1
 10
-237.6197540938527
 20
-248.2935000000032
 11
-237.6197540938527
 21
-249.3623333333378
 72
     1
 10
-237.6197540938527
 20
-249.3623333333378
 11
-236.5700965159452
 21
-249.3623333333378
 72
     1
 10
-236.5700965159452
 20
-249.3623333333378
 11
-236.5700965159452
 21
-248.2935000000032
 72
     1
 10
-236.5700965159452
 20
-248.2935000000032
 11
-235.3773038137788
 21
-248.2935000000032
 97
       12
330
2BD
330
2BC
330
2BB
330
2A3
330
2A4
330
2BA
330
2A5
330
2B9
330
2B8
330
2B7
330
2A1
330
2A2
 75
     1
 76
     0
 52
45.0
 41
0.1
 77
     0
 78
     1
 53
45.0
 43
0.0
 44
0.0
 45
-0.0707106781186548
 46
0.0707106781186548
 79
     0
 98
        1
 10
0.0
 20
0.0
  0
HATCH
  5
3A6
330
71
100
AcDbEntity
  8
1
  6
Continuous
 62
     2
100
AcDbHatch
 10
0.0
 20
0.0
 30
0.0
210
0.0
220
0.0
230
1.0
  2
_USER
 70
     0
 71
     1
 91
        1
 92
        1
 93
       12
 72
     1
 10
-235.3773038137788
 20
-248.2935000000032
 11
-235.3773038137788
 21
-251.3473095238144
 72
     1
 10
-235.3773038137788
 20
-251.3473095238144
 11
-236.5700965159452
 21
-251.3473095238144
 72
     1
 10
-236.5700965159452
 20
-251.3473095238144
 11
-236.5700965159452
 21
-250.2130374149706
 72
     1
 10
-236.5700965159452
 20
-250.2130374149706
 11
-237.6197540938527
 21
-250.2130374149706
 72
     1
 10
-237.6197540938527
 20
-250.2130374149706
 11
-237.6197540938527
 21
-251.3473095238144
 72
     1
 10
-237.6197540938527
 20
-251.3473095238144
 11
-238.8125467960193
 21
-251.3473095238144
 72
     1
 10
-238.8125467960193
 20
-251.3473095238144
 11
-238.8125467960193
 21
-248.2935000000032
 72
     1
 10
-238.8125467960193
 20
-248.2935000000032
 11
-237.6197540938527
 21
-248.2935000000032
 72
     1
 10
-237.6197540938527
 20
-248.2935000000032
 11
-237.6197540938527
 21
-249.3623333333378
 72
     1
 10
-237.6197540938527
 20
-249.3623333333378
 11
-236.5700965159452
 21
-249.3623333333378
 72
     1
 10
-236.5700965159452
 20
-249.3623333333378
 11
-236.5700965159452
 21
-248.2935000000032
 72
     1
 10
-236.5700965159452
 20
-248.2935000000032
 11
-235.3773038137788
 21
-248.2935000000032
 97
       12
330
2BD
330
2BC
330
2BB
330
2A3
330
2A4
330
2BA
330
2A5
330
2B9
330
2B8
330
2B7
330
2A1
330
2A2
 75
     1
 76
     0
 52
45.0
 41
0.1
 77
     0
 78
     1
 53
45.0
 43
0.0
 44
0.0
 45
-0.0707106781186548
 46
0.0707106781186548
 79
     0
 98
        1
 10
0.0
 20
0.0
  0
ENDBLK
  5
73
330
71
100
AcDbEntity
  8
0
100
AcDbBlockEnd
  0
BLOCK
  5
75
330
74
100
AcDbEntity
  8
0
100
AcDbBlockBegin
  2
_punkt
 70
     0
 10
-123.4999999999899
 20
-262.000000000005
 30
0.0
  3
_punkt
  1

  0
LINE
  5
3A7
330
74
100
AcDbEntity
  8
1
  6
Continuous
 62
     2
100
AcDbLine
 10
-123.4999999999899
 20
-262.000000000005
 30
0.0
 11
-123.4999999999899
 21
-267.0000000000051
 31
0.0
  0
LINE
  5
3A8
330
74
100
AcDbEntity
  8
1
  6
Continuous
 62
     2
100
AcDbLine
 10
-123.4999999999899
 20
-262.000000000005
 30
0.0
 11
-118.4999999999909
 21
-262.000000000005
 31
0.0
  0
ENDBLK
  5
76
330
74
100
AcDbEntity
  8
0
100
AcDbBlockEnd
  0
BLOCK
  5
7A
330
77
100
AcDbEntity
  8
0
100
AcDbBlockBegin
  2
A4I_CS
 70
     0
 10
-123.4999999999899
 20
-267.0000000000051
 30
0.0
  3
A4I_CS
  1

  0
INSERT
  5
78
330
77
100
AcDbEntity
  8
1
100
AcDbBlockReference
  2
_rahmen
 10
-123.4999999999899
 20
-267.0000000000051
 30
0.0
  0
INSERT
  5
79
330
77
100
AcDbEntity
  8
1
100
AcDbBlockReference
  2
_punkt
 10
-123.4999999999899
 20
-262.000000000005
 30
0.0
  0
ENDBLK
  5
7B
330
77
100
AcDbEntity
  8
0
100
AcDbBlockEnd
  0
BLOCK
  5
84
330
7C
100
AcDbEntity
  8
0
100
AcDbBlockBegin
  2
1
 70
     0
 10
0.0
 20
0.0
 30
0.0
  3
1
  1

  0
INSERT
  5
7D
330
7C
100
AcDbEntity
  8
0
100
AcDbBlockReference
  2
Back1
 10
-162.50000000009
 20
-132.99999999998
 30
0.0
 41
2.0
 42
2.0
 43
2.0
  0
INSERT
  5
7E
330
7C
100
AcDbEntity
  8
0
100
AcDbBlockReference
  2
Front1
 10
-308.49999999991
 20
-132.99999999998
 30
0.0
 41
2.0
 42
2.0
 43
2.0
  0
INSERT
  5
7F
330
7C
100
AcDbEntity
  8
0
100
AcDbBlockReference
  2
Gen1
 10
-146.153519136653
 20
-206.99999999988
 30
0.0
 41
2.0
 42
2.0
 43
2.0
  0
INSERT
  5
80
330
7C
100
AcDbEntity
  8
0
100
AcDbBlockReference
  2
Left1
 10
-225.00000000029
 20
-132.9999999999798
 30
0.0
 41
2.0
 42
2.0
 43
2.0
  0
INSERT
  5
81
330
7C
100
AcDbEntity
  8
0
100
AcDbBlockReference
  2
Right1
 10
-375.9999999997098
 20
-132.9999999999799
 30
0.0
 41
2.0
 42
2.0
 43
2.0
  0
INSERT
  5
82
330
7C
100
AcDbEntity
  8
0
100
AcDbBlockReference
  2
Top1
 10
-308.49999999991
 20
-201.3999998566588
 30
0.0
 41
2.0
 42
2.0
 43
2.0
  0
INSERT
  5
83
330
7C
100
AcDbEntity
  8
0
100
AcDbBlockReference
  2
A4I_CS
 10
-123.4999999999899
 20
-267.0000000000051
 30
0.0
  0
ENDBLK
  5
85
330
7C
100
AcDbEntity
  8
0
100
AcDbBlockEnd
  0
BLOCK
  5
C0
330
B8
100
AcDbEntity
  8
0
100
AcDbBlockBegin
  2
*D17
 70
     1
 10
0.0
 20
0.0
 30
0.0
  3
*D17
  1

  0
LINE
  5
B9
330
B8
100
AcDbEntity
  8
1
  6
Continuous
 62
     2
100
AcDbLine
 10
-156.9999994082308
 20
-56.00000011918925
 30
0.0
 11
-151.4999994082308
 21
-56.00000011918925
 31
0.0
  0
LINE
  5
BA
330
B8
100
AcDbEntity
  8
1
  6
Continuous
 62
     2
100
AcDbLine
 10
-156.9999994082308
 20
-61.00000011918925
 30
0.0
 11
-156.9999994082308
 21
-55.25000011918925
 31
0.0
  0
LINE
  5
BB
330
B8
100
AcDbEntity
  8
1
  6
Continuous
 62
     2
100
AcDbLine
 10
-151.4999994082308
 20
-61.00000011918925
 30
0.0
 11
-151.4999994082308
 21
-55.25000011918925
 31
0.0
  0
SOLID
  5
BC
330
B8
100
AcDbEntity
  8
1
 62
     2
100
AcDbTrace
 10
-155.2499994082308
 20
-55.7696082484113
 30
0.0
 11
-155.2499994082308
 21
-56.23039198996719
 31
0.0
 12
-156.9999994082308
 22
-56.00000011918925
 32
0.0
 13
-156.9999994082308
 23
-56.00000011918925
 33
0.0
  0
SOLID
  5
BD
330
B8
100
AcDbEntity
  8
1
 62
     2
100
AcDbTrace
 10
-153.2499994082308
 20
-56.23039198996719
 30
0.0
 11
-153.2499994082308
 21
-55.7696082484113
 31
0.0
 12
-151.4999994082308
 22
-56.00000011918925
 32
0.0
 13
-151.4999994082308
 23
-56.00000011918925
 33
0.0
  0
MTEXT
  5
BF
330
B8
100
AcDbEntity
  8
1
 62
     3
100
AcDbMText
 10
-155.976870690823
 20
-55.07500011918925
 30
0.0
 40
1.75
 41
0.0
 71
     7
 72
     1
  1
5,5
  7
CONVERTER_11
 11
0.9999999999970619
 21
2.424068405545306E-6
 31
0.0
 73
     1
 44
0.60024009603842
  0
ENDBLK
  5
C1
330
B8
100
AcDbEntity
  8
0
100
AcDbBlockEnd
  0
BLOCK
  5
CB
330
C4
100
AcDbEntity
  8
0
100
AcDbBlockBegin
  2
*D18
 70
     1
 10
0.0
 20
0.0
 30
0.0
  3
*D18
  1

  0
LINE
  5
C5
330
C4
100
AcDbEntity
  8
1
  6
Continuous
 62
     2
100
AcDbLine
 10
-161.5750034077375
 20
-59.00000011918925
 30
0.0
 11
-161.5750034077375
 21
-74.20000012420145
 31
0.0
  0
LINE
  5
C6
330
C4
100
AcDbEntity
  8
1
  6
Continuous
 62
     2
100
AcDbLine
 10
-156.5750034077375
 20
-59.00000011918925
 30
0.0
 11
-162.3250034077375
 21
-59.00000011918925
 31
0.0
  0
LINE
  5
C7
330
C4
100
AcDbEntity
  8
1
  6
Continuous
 62
     2
100
AcDbLine
 10
-155.7499994082309
 20
-74.20000012420145
 30
0.0
 11
-162.3250034077375
 21
-74.20000012420145
 31
0.0
  0
SOLID
  5
C8
330
C4
100
AcDbEntity
  8
1
 62
     2
100
AcDbTrace
 10
-161.3446115369595
 20
-60.75000011918925
 30
0.0
 11
-161.8053952785154
 21
-60.75000011918925
 31
0.0
 12
-161.5750034077375
 22
-59.00000011918925
 32
0.0
 13
-161.5750034077375
 23
-59.00000011918925
 33
0.0
  0
SOLID
  5
C9
330
C4
100
AcDbEntity
  8
1
 62
     2
100
AcDbTrace
 10
-161.8053952785154
 20
-72.45000012420145
 30
0.0
 11
-161.3446115369595
 21
-72.45000012420145
 31
0.0
 12
-161.5750034077375
 22
-74.20000012420145
 32
0.0
 13
-161.5750034077375
 23
-74.20000012420145
 33
0.0
  0
MTEXT
  5
CA
330
C4
100
AcDbEntity
  8
1
 62
     3
100
AcDbMText
 10
-162.5000034077375
 20
-68.4144231173365
 30
0.0
 40
1.75
 41
0.0
 71
     7
 72
     1
  1
15,2
  7
CONVERTER_11
 11
0.0
 21
1.0
 31
0.0
 73
     1
 44
0.60024009603842
  0
ENDBLK
  5
CC
330
C4
100
AcDbEntity
  8
0
100
AcDbBlockEnd
  0
BLOCK
  5
26C
330
265
100
AcDbEntity
  8
0
100
AcDbBlockBegin
  2
*D19
 70
     1
 10
0.0
 20
0.0
 30
0.0
  3
*D19
  1

  0
LINE
  5
266
330
265
100
AcDbEntity
  8
1
  6
Continuous
 62
     2
100
AcDbLine
 10
-161.9999994082309
 20
-89.19999840230551
 30
0.0
 11
-161.9999994082309
 21
-112.1999984023045
 31
0.0
  0
LINE
  5
267
330
265
100
AcDbEntity
  8
1
  6
Continuous
 62
     2
100
AcDbLine
 10
-156.9999994082309
 20
-89.19999840230551
 30
0.0
 11
-162.7499994082309
 21
-89.19999840230551
 31
0.0
  0
LINE
  5
268
330
265
100
AcDbEntity
  8
1
  6
Continuous
 62
     2
100
AcDbLine
 10
-153.2134787861473
 20
-112.1999984023045
 30
0.0
 11
-162.7499994082309
 21
-112.1999984023045
 31
0.0
  0
SOLID
  5
269
330
265
100
AcDbEntity
  8
1
 62
     2
100
AcDbTrace
 10
-161.769607537453
 20
-90.94999840230551
 30
0.0
 11
-162.2303912790088
 21
-90.94999840230551
 31
0.0
 12
-161.9999994082309
 22
-89.19999840230551
 32
0.0
 13
-161.9999994082309
 23
-89.19999840230551
 33
0.0
  0
SOLID
  5
26A
330
265
100
AcDbEntity
  8
1
 62
     2
100
AcDbTrace
 10
-162.2303912790088
 20
-110.4499984023045
 30
0.0
 11
-161.769607537453
 21
-110.4499984023045
 31
0.0
 12
-161.9999994082309
 22
-112.1999984023045
 32
0.0
 13
-161.9999994082309
 23
-112.1999984023045
 33
0.0
  0
MTEXT
  5
26B
330
265
100
AcDbEntity
  8
1
 62
     3
100
AcDbMText
 10
-162.7499994082309
 20
-102.3639927985085
 30
0.0
 40
1.75
 41
0.0
 71
     7
 72
     1
  1
23
  7
CONVERTER_11
 11
0.0
 21
1.0
 31
0.0
 73
     1
 44
0.60024009603842
  0
ENDBLK
  5
26D
330
265
100
AcDbEntity
  8
0
100
AcDbBlockEnd
  0
ENDSEC
  0
SECTION
  2
ENTITIES
  0
INSERT
  5
86
330
1F
100
AcDbEntity
  8
1
100
AcDbBlockReference
  2
1
 10
0.0
 20
0.0
 30
0.0
  0
ENDSEC
  0
SECTION
  2
OBJECTS
  0
DICTIONARY
  5
C
330
0
100
AcDbDictionary
281
     1
  3
ACAD_GROUP
350
D
  3
ACAD_LAYOUT
350
1A
  3
ACAD_MATERIAL
350
3B
  3
ACAD_MLEADERSTYLE
350
3D0
  3
ACAD_MLINESTYLE
350
17
  3
ACAD_PLOTSETTINGS
350
19
  3
ACAD_PLOTSTYLENAME
350
E
  3
ACAD_TABLESTYLE
350
3CF
  3
ACAD_VISUALSTYLE
350
2A
  0
DICTIONARY
  5
D
102
{ACAD_REACTORS
330
C
102
}
330
C
100
AcDbDictionary
281
     1
  0
DICTIONARY
  5
1A
102
{ACAD_REACTORS
330
C
102
}
330
C
100
AcDbDictionary
281
     1
  3
Layout1
350
1E
  3
Layout2
350
26
  3
Model
350
22
  0
DICTIONARY
  5
3B
102
{ACAD_REACTORS
330
C
102
}
330
C
100
AcDbDictionary
281
     1
  3
ByBlock
350
3D
  3
ByLayer
350
3C
  3
Global
350
3E
  0
DICTIONARY
  5
3D0
102
{ACAD_REACTORS
330
C
102
}
330
C
100
AcDbDictionary
281
     1
  0
DICTIONARY
  5
17
102
{ACAD_REACTORS
330
C
102
}
330
C
100
AcDbDictionary
281
     1
  3
Standard
350
18
  0
DICTIONARY
  5
19
102
{ACAD_REACTORS
330
C
102
}
330
C
100
AcDbDictionary
281
     1
  0
ACDBDICTIONARYWDFLT
  5
E
102
{ACAD_REACTORS
330
C
102
}
330
C
100
AcDbDictionary
281
     1
  3
Normal
350
F
100
AcDbDictionaryWithDefault
340
F
  0
DICTIONARY
  5
3CF
102
{ACAD_REACTORS
330
C
102
}
330
C
100
AcDbDictionary
281
     1
  0
DICTIONARY
  5
2A
102
{ACAD_REACTORS
330
C
102
}
330
C
100
AcDbDictionary
281
     1
  3
2dWireframe
350
2F
  3
3D Hidden
350
31
  3
3dWireframe
350
30
  3
Basic
350
32
  3
Brighten
350
36
  3
ColorChange
350
3A
  3
Conceptual
350
34
  3
Dim
350
35
  3
Facepattern
350
39
  3
Flat
350
2B
  3
FlatWithEdges
350
2C
  3
Gouraud
350
2D
  3
GouraudWithEdges
350
2E
  3
Linepattern
350
38
  3
Realistic
350
33
  3
Thicken
350
37
  0
LAYOUT
  5
1E
102
{ACAD_REACTORS
330
1A
102
}
330
1A
100
AcDbPlotSettings
  1

  2
none_device
  4

  6

 40
0.0
 41
0.0
 42
0.0
 43
0.0
 44
0.0
 45
0.0
 46
0.0
 47
0.0
 48
0.0
 49
0.0
140
0.0
141
0.0
142
1.0
143
1.0
 70
   688
 72
     0
 73
     0
 74
     5
  7

 75
    16
 76
     0
 77
     2
 78
   300
147
1.0
148
0.0
149
0.0
100
AcDbLayout
  1
Layout1
 70
     1
 71
     1
 10
0.0
 20
0.0
 11
12.0
 21
9.0
 12
0.0
 22
0.0
 32
0.0
 14
1.00000000000000E+20
 24
1.00000000000000E+20
 34
1.00000000000000E+20
 15
-1.00000000000000E+20
 25
-1.00000000000000E+20
 35
-1.00000000000000E+20
146
0.0
 13
0.0
 23
0.0
 33
0.0
 16
1.0
 26
0.0
 36
0.0
 17
0.0
 27
1.0
 37
0.0
 76
     0
330
1B
  0
LAYOUT
  5
26
102
{ACAD_REACTORS
330
1A
102
}
330
1A
100
AcDbPlotSettings
  1

  2
none_device
  4

  6

 40
0.0
 41
0.0
 42
0.0
 43
0.0
 44
0.0
 45
0.0
 46
0.0
 47
0.0
 48
0.0
 49
0.0
140
0.0
141
0.0
142
1.0
143
1.0
 70
   688
 72
     0
 73
     0
 74
     5
  7

 75
    16
 76
     0
 77
     2
 78
   300
147
1.0
148
0.0
149
0.0
100
AcDbLayout
  1
Layout2
 70
     1
 71
     2
 10
0.0
 20
0.0
 11
0.0
 21
0.0
 12
0.0
 22
0.0
 32
0.0
 14
0.0
 24
0.0
 34
0.0
 15
0.0
 25
0.0
 35
0.0
146
0.0
 13
0.0
 23
0.0
 33
0.0
 16
1.0
 26
0.0
 36
0.0
 17
0.0
 27
1.0
 37
0.0
 76
     0
330
23
  0
LAYOUT
  5
22
102
{ACAD_REACTORS
330
1A
102
}
330
1A
100
AcDbPlotSettings
  1

  2
none_device
  4

  6

 40
0.0
 41
0.0
 42
0.0
 43
0.0
 44
0.0
 45
0.0
 46
0.0
 47
0.0
 48
0.0
 49
0.0
140
0.0
141
0.0
142
1.0
143
1.0
 70
  1712
 72
     0
 73
     0
 74
     0
  7

 75
     0
 76
     0
 77
     2
 78
   300
147
1.0
148
0.0
149
0.0
100
AcDbLayout
  1
Model
 70
     1
 71
     0
 10
0.0
 20
0.0
 11
12.0
 21
9.0
 12
0.0
 22
0.0
 32
0.0
 14
-415.499999999989
 24
-267.0000000000051
 34
0.0
 15
-118.4999999999909
 25
-57.000000000005
 35
0.0
146
0.0
 13
0.0
 23
0.0
 33
0.0
 16
1.0
 26
0.0
 36
0.0
 17
0.0
 27
1.0
 37
0.0
 76
     0
330
1F
331
29
  0
MATERIAL
  5
3D
102
{ACAD_REACTORS
330
3B
102
}
102
{ACAD_XDICTIONARY
360
3CB
102
}
330
3B
100
AcDbMaterial
  1
ByBlock
  0
MATERIAL
  5
3C
102
{ACAD_REACTORS
330
3B
102
}
102
{ACAD_XDICTIONARY
360
3C9
102
}
330
3B
100
AcDbMaterial
  1
ByLayer
  0
MATERIAL
  5
3E
102
{ACAD_REACTORS
330
3B
102
}
102
{ACAD_XDICTIONARY
360
3CD
102
}
330
3B
100
AcDbMaterial
  1
Global
  0
MLINESTYLE
  5
18
102
{ACAD_REACTORS
330
17
102
}
330
17
100
AcDbMlineStyle
  2
Standard
 70
     0
  3

 62
   256
 51
90.0
 52
90.0
 71
     2
 49
0.5
 62
   256
  6
BYLAYER
 49
-0.5
 62
   256
  6
BYLAYER
  0
ACDBPLACEHOLDER
  5
F
102
{ACAD_REACTORS
330
E
102
}
330
E
  0
VISUALSTYLE
  5
2F
102
{ACAD_REACTORS
330
2A
102
}
102
{ACAD_XDICTIONARY
360
3B1
102
}
330
2A
100
AcDbVisualStyle
  2
2dWireframe
 70
     4
 71
     0
 72
     2
 73
     0
 90
        0
 40
-0.6
 41
-30.0
 62
     5
 63
     7
421
 16777215
 74
     1
 91
        4
 64
     7
 65
   257
 75
     1
175
     1
 42
1.0
 92
        0
 66
   257
 43
1.0
 76
     1
 77
     6
 78
     2
 67
     7
 79
     5
170
     0
171
     0
290
     0
174
     0
 93
        1
 44
0.0
173
     0
291
     0
 45
0.0
1001
ACAD
1000
AcDbSavedByObjectVersion
1070
     0
  0
VISUALSTYLE
  5
31
102
{ACAD_REACTORS
330
2A
102
}
102
{ACAD_XDICTIONARY
360
3B5
102
}
330
2A
100
AcDbVisualStyle
  2
3D Hidden
 70
     6
 71
     1
 72
     2
 73
     2
 90
        0
 40
-0.6
 41
-30.0
 62
     5
 63
     7
421
 16777215
 74
     2
 91
        2
 64
     7
 65
   257
 75
     2
175
     1
 42
40.0
 92
        0
 66
   257
 43
1.0
 76
     1
 77
     6
 78
     2
 67
     7
 79
     3
170
     0
171
     0
290
     0
174
     0
 93
        1
 44
0.0
173
     0
291
     0
 45
0.0
1001
ACAD
1000
AcDbSavedByObjectVersion
1070
     0
  0
VISUALSTYLE
  5
30
102
{ACAD_REACTORS
330
2A
102
}
102
{ACAD_XDICTIONARY
360
3B3
102
}
330
2A
100
AcDbVisualStyle
  2
3dWireframe
 70
     5
 71
     0
 72
     2
 73
     0
 90
        0
 40
-0.6
 41
-30.0
 62
     5
 63
     7
421
 16777215
 74
     1
 91
        4
 64
     7
 65
   257
 75
     1
175
     1
 42
1.0
 92
        0
 66
   257
 43
1.0
 76
     1
 77
     6
 78
     2
 67
     7
 79
     5
170
     0
171
     0
290
     0
174
     0
 93
        1
 44
0.0
173
     0
291
     0
 45
0.0
1001
ACAD
1000
AcDbSavedByObjectVersion
1070
     0
  0
VISUALSTYLE
  5
32
102
{ACAD_REACTORS
330
2A
102
}
102
{ACAD_XDICTIONARY
360
3B7
102
}
330
2A
100
AcDbVisualStyle
  2
Basic
 70
     7
 71
     1
 72
     0
 73
     1
 90
        0
 40
-0.6
 41
-30.0
 62
     5
 63
     7
421
 16777215
 74
     0
 91
        4
 64
     7
 65
   257
 75
     1
175
     1
 42
1.0
 92
        8
 66
     7
 43
1.0
 76
     1
 77
     6
 78
     2
 67
     7
 79
     5
170
     0
171
     0
290
     0
174
     0
 93
        1
 44
0.0
173
     0
291
     1
 45
0.0
1001
ACAD
1000
AcDbSavedByObjectVersion
1070
     0
  0
VISUALSTYLE
  5
36
102
{ACAD_REACTORS
330
2A
102
}
102
{ACAD_XDICTIONARY
360
3BF
102
}
330
2A
100
AcDbVisualStyle
  2
Brighten
 70
    12
 71
     2
 72
     2
 73
     0
 90
        0
 40
-0.6
 41
-30.0
 62
     5
 63
     7
421
 16777215
 74
     1
 91
        4
 64
     7
 65
   257
 75
     1
175
     1
 42
1.0
 92
        8
 66
     7
 43
1.0
 76
     1
 77
     6
 78
     2
 67
     7
 79
     5
170
     0
171
     0
290
     0
174
     0
 93
        1
 44
50.0
173
     0
291
     1
 45
0.0
1001
ACAD
1000
AcDbSavedByObjectVersion
1070
     0
  0
VISUALSTYLE
  5
3A
102
{ACAD_REACTORS
330
2A
102
}
102
{ACAD_XDICTIONARY
360
3C7
102
}
330
2A
100
AcDbVisualStyle
  2
ColorChange
 70
    16
 71
     2
 72
     2
 73
     3
 90
        0
 40
-0.6
 41
-30.0
 62
     5
 63
     8
421
  8421504
 74
     1
 91
        4
 64
     7
 65
   257
 75
     1
175
     1
 42
1.0
 92
        8
 66
     8
424
  8421504
 43
1.0
 76
     1
 77
     6
 78
     2
 67
     7
 79
     5
170
     0
171
     0
290
     0
174
     0
 93
        1
 44
0.0
173
     0
291
     1
 45
0.0
1001
ACAD
1000
AcDbSavedByObjectVersion
1070
     0
  0
VISUALSTYLE
  5
34
102
{ACAD_REACTORS
330
2A
102
}
102
{ACAD_XDICTIONARY
360
3BB
102
}
330
2A
100
AcDbVisualStyle
  2
Conceptual
 70
     9
 71
     3
 72
     2
 73
     0
 90
        0
 40
-0.6
 41
-30.0
 62
     5
 63
     7
421
 16777215
 74
     2
 91
        2
 64
     7
 65
   257
 75
     1
175
     1
 42
40.0
 92
        8
 66
     7
 43
1.0
 76
     1
 77
     6
 78
     2
 67
     7
 79
     3
170
     0
171
     0
290
     0
174
     0
 93
        1
 44
0.0
173
     0
291
     0
 45
0.0
1001
ACAD
1000
AcDbSavedByObjectVersion
1070
     0
  0
VISUALSTYLE
  5
35
102
{ACAD_REACTORS
330
2A
102
}
102
{ACAD_XDICTIONARY
360
3BD
102
}
330
2A
100
AcDbVisualStyle
  2
Dim
 70
    11
 71
     2
 72
     2
 73
     0
 90
        0
 40
-0.6
 41
-30.0
 62
     5
 63
     7
421
 16777215
 74
     1
 91
        4
 64
     7
 65
   257
 75
     1
175
     1
 42
1.0
 92
        8
 66
     7
 43
1.0
 76
     1
 77
     6
 78
     2
 67
     7
 79
     5
170
     0
171
     0
290
     0
174
     0
 93
        1
 44
-50.0
173
     0
291
     1
 45
0.0
1001
ACAD
1000
AcDbSavedByObjectVersion
1070
     0
  0
VISUALSTYLE
  5
39
102
{ACAD_REACTORS
330
2A
102
}
102
{ACAD_XDICTIONARY
360
3C5
102
}
330
2A
100
AcDbVisualStyle
  2
Facepattern
 70
    15
 71
     2
 72
     2
 73
     0
 90
        0
 40
-0.6
 41
-30.0
 62
     5
 63
     7
421
 16777215
 74
     1
 91
        4
 64
     7
 65
   257
 75
     1
175
     1
 42
1.0
 92
        8
 66
     7
 43
1.0
 76
     1
 77
     6
 78
     2
 67
     7
 79
     5
170
     0
171
     0
290
     0
174
     0
 93
        1
 44
0.0
173
     0
291
     1
 45
0.0
1001
ACAD
1000
AcDbSavedByObjectVersion
1070
     0
  0
VISUALSTYLE
  5
2B
102
{ACAD_REACTORS
330
2A
102
}
102
{ACAD_XDICTIONARY
360
3A9
102
}
330
2A
100
AcDbVisualStyle
  2
Flat
 70
     0
 71
     2
 72
     1
 73
     1
 90
        2
 40
-0.6
 41
30.0
 62
     5
 63
     7
421
 16777215
 74
     0
 91
        4
 64
     7
 65
   257
 75
     1
175
     1
 42
1.0
 92
        8
 66
     7
 43
1.0
 76
     1
 77
     6
 78
     2
 67
     7
 79
     5
170
     0
171
     0
290
     0
174
     0
 93
       13
 44
0.0
173
     0
291
     1
 45
0.0
1001
ACAD
1000
AcDbSavedByObjectVersion
1070
     0
  0
VISUALSTYLE
  5
2C
102
{ACAD_REACTORS
330
2A
102
}
102
{ACAD_XDICTIONARY
360
3AB
102
}
330
2A
100
AcDbVisualStyle
  2
FlatWithEdges
 70
     1
 71
     2
 72
     1
 73
     1
 90
        2
 40
-0.6
 41
30.0
 62
     5
 63
     7
421
 16777215
 74
     1
 91
        4
 64
     7
 65
   257
 75
     1
175
     1
 42
1.0
 92
        0
 66
   257
 43
1.0
 76
     1
 77
     6
 78
     2
 67
     7
 79
     5
170
     0
171
     0
290
     0
174
     0
 93
       13
 44
0.0
173
     0
291
     1
 45
0.0
1001
ACAD
1000
AcDbSavedByObjectVersion
1070
     0
  0
VISUALSTYLE
  5
2D
102
{ACAD_REACTORS
330
2A
102
}
102
{ACAD_XDICTIONARY
360
3AD
102
}
330
2A
100
AcDbVisualStyle
  2
Gouraud
 70
     2
 71
     2
 72
     2
 73
     1
 90
        2
 40
-0.6
 41
30.0
 62
     5
 63
     7
421
 16777215
 74
     0
 91
        4
 64
     7
 65
   257
 75
     1
175
     1
 42
1.0
 92
        0
 66
     7
 43
1.0
 76
     1
 77
     6
 78
     2
 67
     7
 79
     5
170
     0
171
     0
290
     0
174
     0
 93
       13
 44
0.0
173
     0
291
     1
 45
0.0
1001
ACAD
1000
AcDbSavedByObjectVersion
1070
     0
  0
VISUALSTYLE
  5
2E
102
{ACAD_REACTORS
330
2A
102
}
102
{ACAD_XDICTIONARY
360
3AF
102
}
330
2A
100
AcDbVisualStyle
  2
GouraudWithEdges
 70
     3
 71
     2
 72
     2
 73
     1
 90
        2
 40
-0.6
 41
30.0
 62
     5
 63
     7
421
 16777215
 74
     1
 91
        4
 64
     7
 65
   257
 75
     1
175
     1
 42
1.0
 92
        0
 66
   257
 43
1.0
 76
     1
 77
     6
 78
     2
 67
     7
 79
     5
170
     0
171
     0
290
     0
174
     0
 93
       13
 44
0.0
173
     0
291
     1
 45
0.0
1001
ACAD
1000
AcDbSavedByObjectVersion
1070
     0
  0
VISUALSTYLE
  5
38
102
{ACAD_REACTORS
330
2A
102
}
102
{ACAD_XDICTIONARY
360
3C3
102
}
330
2A
100
AcDbVisualStyle
  2
Linepattern
 70
    14
 71
     2
 72
     2
 73
     0
 90
        0
 40
-0.6
 41
-30.0
 62
     5
 63
     7
421
 16777215
 74
     1
 91
        4
 64
     7
 65
   257
 75
     7
175
     7
 42
1.0
 92
        8
 66
     7
 43
1.0
 76
     1
 77
     6
 78
     2
 67
     7
 79
     5
170
     0
171
     0
290
     0
174
     0
 93
        1
 44
0.0
173
     0
291
     1
 45
0.0
1001
ACAD
1000
AcDbSavedByObjectVersion
1070
     0
  0
VISUALSTYLE
  5
33
102
{ACAD_REACTORS
330
2A
102
}
102
{ACAD_XDICTIONARY
360
3B9
102
}
330
2A
100
AcDbVisualStyle
  2
Realistic
 70
     8
 71
     2
 72
     2
 73
     0
 90
        0
 40
-0.6
 41
-30.0
 62
     5
 63
     7
421
 16777215
 74
     1
 91
        0
 64
     7
 65
   257
 75
     1
175
     1
 42
1.0
 92
        8
 66
     8
424
  7895160
 43
1.0
 76
     1
 77
     6
 78
     2
 67
     7
 79
     5
170
     0
171
     0
290
     0
174
     0
 93
       13
 44
0.0
173
     0
291
     0
 45
0.0
1001
ACAD
1000
AcDbSavedByObjectVersion
1070
     0
  0
VISUALSTYLE
  5
37
102
{ACAD_REACTORS
330
2A
102
}
102
{ACAD_XDICTIONARY
360
3C1
102
}
330
2A
100
AcDbVisualStyle
  2
Thicken
 70
    13
 71
     2
 72
     2
 73
     0
 90
        0
 40
-0.6
 41
-30.0
 62
     5
 63
     7
421
 16777215
 74
     1
 91
        4
 64
     7
 65
   257
 75
     1
175
     1
 42
1.0
 92
       12
 66
     7
 43
1.0
 76
     1
 77
     6
 78
     2
 67
     7
 79
     5
170
     0
171
     0
290
     0
174
     0
 93
        1
 44
0.0
173
     0
291
     1
 45
0.0
1001
ACAD
1000
AcDbSavedByObjectVersion
1070
     0
  0
DICTIONARY
  5
3CB
330
3D
100
AcDbDictionary
280
     1
281
     1
  3
ACAD_XREC_ROUNDTRIP
360
3CC
  0
DICTIONARY
  5
3C9
330
3C
100
AcDbDictionary
280
     1
281
     1
  3
ACAD_XREC_ROUNDTRIP
360
3CA
  0
DICTIONARY
  5
3CD
330
3E
100
AcDbDictionary
280
     1
281
     1
  3
ACAD_XREC_ROUNDTRIP
360
3CE
  0
DICTIONARY
  5
3B1
330
2F
100
AcDbDictionary
280
     1
281
     1
  3
ACAD_XREC_ROUNDTRIP
360
3B2
  0
DICTIONARY
  5
3B5
330
31
100
AcDbDictionary
280
     1
281
     1
  3
ACAD_XREC_ROUNDTRIP
360
3B6
  0
DICTIONARY
  5
3B3
330
30
100
AcDbDictionary
280
     1
281
     1
  3
ACAD_XREC_ROUNDTRIP
360
3B4
  0
DICTIONARY
  5
3B7
330
32
100
AcDbDictionary
280
     1
281
     1
  3
ACAD_XREC_ROUNDTRIP
360
3B8
  0
DICTIONARY
  5
3BF
330
36
100
AcDbDictionary
280
     1
281
     1
  3
ACAD_XREC_ROUNDTRIP
360
3C0
  0
DICTIONARY
  5
3C7
330
3A
100
AcDbDictionary
280
     1
281
     1
  3
ACAD_XREC_ROUNDTRIP
360
3C8
  0
DICTIONARY
  5
3BB
330
34
100
AcDbDictionary
280
     1
281
     1
  3
ACAD_XREC_ROUNDTRIP
360
3BC
  0
DICTIONARY
  5
3BD
330
35
100
AcDbDictionary
280
     1
281
     1
  3
ACAD_XREC_ROUNDTRIP
360
3BE
  0
DICTIONARY
  5
3C5
330
39
100
AcDbDictionary
280
     1
281
     1
  3
ACAD_XREC_ROUNDTRIP
360
3C6
  0
DICTIONARY
  5
3A9
330
2B
100
AcDbDictionary
280
     1
281
     1
  3
ACAD_XREC_ROUNDTRIP
360
3AA
  0
DICTIONARY
  5
3AB
330
2C
100
AcDbDictionary
280
     1
281
     1
  3
ACAD_XREC_ROUNDTRIP
360
3AC
  0
DICTIONARY
  5
3AD
330
2D
100
AcDbDictionary
280
     1
281
     1
  3
ACAD_XREC_ROUNDTRIP
360
3AE
  0
DICTIONARY
  5
3AF
330
2E
100
AcDbDictionary
280
     1
281
     1
  3
ACAD_XREC_ROUNDTRIP
360
3B0
  0
DICTIONARY
  5
3C3
330
38
100
AcDbDictionary
280
     1
281
     1
  3
ACAD_XREC_ROUNDTRIP
360
3C4
  0
DICTIONARY
  5
3B9
330
33
100
AcDbDictionary
280
     1
281
     1
  3
ACAD_XREC_ROUNDTRIP
360
3BA
  0
DICTIONARY
  5
3C1
330
37
100
AcDbDictionary
280
     1
281
     1
  3
ACAD_XREC_ROUNDTRIP
360
3C2
  0
XRECORD
  5
3CC
102
{ACAD_REACTORS
330
3CB
102
}
330
3CB
100
AcDbXrecord
280
     1
102
MATERIAL
148
0.0
149
0.0
149
0.0
 93
        0
 94
      127
282
     0
 72
     1
 77
     1
171
     1
175
     1
179
     1
273
     0
  0
XRECORD
  5
3CA
102
{ACAD_REACTORS
330
3C9
102
}
330
3C9
100
AcDbXrecord
280
     1
102
MATERIAL
148
0.0
149
0.0
149
0.0
 93
        0
 94
      127
282
     0
 72
     1
 77
     1
171
     1
175
     1
179
     1
273
     0
  0
XRECORD
  5
3CE
102
{ACAD_REACTORS
330
3CD
102
}
330
3CD
100
AcDbXrecord
280
     1
102
MATERIAL
148
0.0
149
0.0
149
0.0
 93
        0
 94
      127
282
     0
 72
     1
 77
     1
171
     1
175
     1
179
     1
273
     0
  0
XRECORD
  5
3B2
102
{ACAD_REACTORS
330
3B1
102
}
330
3B1
100
AcDbXrecord
280
     1
102
RTVSPropertyOp0
 70
     1
102
RTVSPropertyOp1
 70
     1
102
RTVSPropertyOp2
 70
     1
102
RTVSPropertyOp3
 70
     1
102
RTVSPropertyOp4
 70
     1
102
RTVSPropertyOp5
 70
     1
102
RTVSPropertyOp6
 70
     1
102
RTVSPropertyOp7
 70
     1
102
RTVSPropertyOp8
 70
     1
102
RTVSPropertyOp9
 70
     1
102
RTVSPropertyOp10
 70
     1
102
RTVSPropertyOp11
 70
     1
102
RTVSPropertyOp12
 70
     1
102
RTVSPropertyOp13
 70
     1
102
RTVSPropertyOp14
 70
     1
102
RTVSPropertyOp15
 70
     1
102
RTVSPropertyOp16
 70
     1
102
RTVSPropertyOp17
 70
     1
102
RTVSPropertyOp18
 70
     1
102
RTVSPropertyOp19
 70
     1
102
RTVSPropertyOp20
 70
     1
102
RTVSPropertyOp21
 70
     1
102
RTVSPropertyOp22
 70
     1
102
RTVSPropertyOp23
 70
     1
102
RTVSPropertyOp24
 70
     1
102
RTVSPropertyOp25
 70
     1
102
RTVSPropertyOp26
 70
     1
102
RTVSPropertyOp27
 70
     1
102
RTVSPropertyOp28
 70
     1
102
RTVSPropertyOp29
 70
     1
102
RTVSPropertyOp30
 70
     1
102
RTVSPropertyOp31
 70
     1
102
RTVSPropertyOp32
 70
     1
  0
XRECORD
  5
3B6
102
{ACAD_REACTORS
330
3B5
102
}
330
3B5
100
AcDbXrecord
280
     1
102
RTVSPropertyOp0
 70
     1
102
RTVSPropertyOp1
 70
     1
102
RTVSPropertyOp2
 70
     1
102
RTVSPropertyOp3
 70
     1
102
RTVSPropertyOp4
 70
     1
102
RTVSPropertyOp5
 70
     1
102
RTVSPropertyOp6
 70
     1
102
RTVSPropertyOp7
 70
     1
102
RTVSPropertyOp8
 70
     1
102
RTVSPropertyOp9
 70
     1
102
RTVSPropertyOp10
 70
     1
102
RTVSPropertyOp11
 70
     1
102
RTVSPropertyOp12
 70
     1
102
RTVSPropertyOp13
 70
     1
102
RTVSPropertyOp14
 70
     1
102
RTVSPropertyOp15
 70
     1
102
RTVSPropertyOp16
 70
     1
102
RTVSPropertyOp17
 70
     1
102
RTVSPropertyOp18
 70
     1
102
RTVSPropertyOp19
 70
     1
102
RTVSPropertyOp20
 70
     1
102
RTVSPropertyOp21
 70
     1
102
RTVSPropertyOp22
 70
     1
102
RTVSPropertyOp23
 70
     1
102
RTVSPropertyOp24
 70
     1
102
RTVSPropertyOp25
 70
     1
102
RTVSPropertyOp26
 70
     1
102
RTVSPropertyOp27
 70
     1
102
RTVSPropertyOp28
 70
     1
102
RTVSPropertyOp29
 70
     1
102
RTVSPropertyOp30
 70
     1
102
RTVSPropertyOp31
 70
     1
102
RTVSPropertyOp32
 70
     1
  0
XRECORD
  5
3B4
102
{ACAD_REACTORS
330
3B3
102
}
330
3B3
100
AcDbXrecord
280
     1
102
RTVSPropertyOp0
 70
     1
102
RTVSPropertyOp1
 70
     1
102
RTVSPropertyOp2
 70
     1
102
RTVSPropertyOp3
 70
     1
102
RTVSPropertyOp4
 70
     1
102
RTVSPropertyOp5
 70
     1
102
RTVSPropertyOp6
 70
     1
102
RTVSPropertyOp7
 70
     1
102
RTVSPropertyOp8
 70
     1
102
RTVSPropertyOp9
 70
     1
102
RTVSPropertyOp10
 70
     1
102
RTVSPropertyOp11
 70
     1
102
RTVSPropertyOp12
 70
     1
102
RTVSPropertyOp13
 70
     1
102
RTVSPropertyOp14
 70
     1
102
RTVSPropertyOp15
 70
     1
102
RTVSPropertyOp16
 70
     1
102
RTVSPropertyOp17
 70
     1
102
RTVSPropertyOp18
 70
     1
102
RTVSPropertyOp19
 70
     1
102
RTVSPropertyOp20
 70
     1
102
RTVSPropertyOp21
 70
     1
102
RTVSPropertyOp22
 70
     1
102
RTVSPropertyOp23
 70
     1
102
RTVSPropertyOp24
 70
     1
102
RTVSPropertyOp25
 70
     1
102
RTVSPropertyOp26
 70
     1
102
RTVSPropertyOp27
 70
     1
102
RTVSPropertyOp28
 70
     1
102
RTVSPropertyOp29
 70
     1
102
RTVSPropertyOp30
 70
     1
102
RTVSPropertyOp31
 70
     1
102
RTVSPropertyOp32
 70
     1
  0
XRECORD
  5
3B8
102
{ACAD_REACTORS
330
3B7
102
}
330
3B7
100
AcDbXrecord
280
     1
102
RTVSPropertyOp0
 70
     1
102
RTVSPropertyOp1
 70
     1
102
RTVSPropertyOp2
 70
     1
102
RTVSPropertyOp3
 70
     1
102
RTVSPropertyOp4
 70
     1
102
RTVSPropertyOp5
 70
     1
102
RTVSPropertyOp6
 70
     1
102
RTVSPropertyOp7
 70
     1
102
RTVSPropertyOp8
 70
     1
102
RTVSPropertyOp9
 70
     1
102
RTVSPropertyOp10
 70
     1
102
RTVSPropertyOp11
 70
     1
102
RTVSPropertyOp12
 70
     1
102
RTVSPropertyOp13
 70
     1
102
RTVSPropertyOp14
 70
     1
102
RTVSPropertyOp15
 70
     1
102
RTVSPropertyOp16
 70
     1
102
RTVSPropertyOp17
 70
     1
102
RTVSPropertyOp18
 70
     1
102
RTVSPropertyOp19
 70
     1
102
RTVSPropertyOp20
 70
     1
102
RTVSPropertyOp21
 70
     1
102
RTVSPropertyOp22
 70
     1
102
RTVSPropertyOp23
 70
     1
102
RTVSPropertyOp24
 70
     1
102
RTVSPropertyOp25
 70
     1
102
RTVSPropertyOp26
 70
     1
102
RTVSPropertyOp27
 70
     1
102
RTVSPropertyOp28
 70
     1
102
RTVSPropertyOp29
 70
     1
102
RTVSPropertyOp30
 70
     1
102
RTVSPropertyOp31
 70
     1
102
RTVSPropertyOp32
 70
     1
  0
XRECORD
  5
3C0
102
{ACAD_REACTORS
330
3BF
102
}
330
3BF
100
AcDbXrecord
280
     1
102
RTVSPropertyOp0
 70
     1
102
RTVSPropertyOp1
 70
     1
102
RTVSPropertyOp2
 70
     1
102
RTVSPropertyOp3
 70
     1
102
RTVSPropertyOp4
 70
     1
102
RTVSPropertyOp5
 70
     1
102
RTVSPropertyOp6
 70
     1
102
RTVSPropertyOp7
 70
     1
102
RTVSPropertyOp8
 70
     1
102
RTVSPropertyOp9
 70
     1
102
RTVSPropertyOp10
 70
     1
102
RTVSPropertyOp11
 70
     1
102
RTVSPropertyOp12
 70
     1
102
RTVSPropertyOp13
 70
     1
102
RTVSPropertyOp14
 70
     1
102
RTVSPropertyOp15
 70
     1
102
RTVSPropertyOp16
 70
     1
102
RTVSPropertyOp17
 70
     1
102
RTVSPropertyOp18
 70
     1
102
RTVSPropertyOp19
 70
     1
102
RTVSPropertyOp20
 70
     1
102
RTVSPropertyOp21
 70
     1
102
RTVSPropertyOp22
 70
     1
102
RTVSPropertyOp23
 70
     1
102
RTVSPropertyOp24
 70
     1
102
RTVSPropertyOp25
 70
     1
102
RTVSPropertyOp26
 70
     1
102
RTVSPropertyOp27
 70
     1
102
RTVSPropertyOp28
 70
     1
102
RTVSPropertyOp29
 70
     1
102
RTVSPropertyOp30
 70
     1
102
RTVSPropertyOp31
 70
     1
102
RTVSPropertyOp32
 70
     1
  0
XRECORD
  5
3C8
102
{ACAD_REACTORS
330
3C7
102
}
330
3C7
100
AcDbXrecord
280
     1
102
RTVSPropertyOp0
 70
     1
102
RTVSPropertyOp1
 70
     1
102
RTVSPropertyOp2
 70
     1
102
RTVSPropertyOp3
 70
     1
102
RTVSPropertyOp4
 70
     1
102
RTVSPropertyOp5
 70
     1
102
RTVSPropertyOp6
 70
     1
102
RTVSPropertyOp7
 70
     1
102
RTVSPropertyOp8
 70
     1
102
RTVSPropertyOp9
 70
     1
102
RTVSPropertyOp10
 70
     1
102
RTVSPropertyOp11
 70
     1
102
RTVSPropertyOp12
 70
     1
102
RTVSPropertyOp13
 70
     1
102
RTVSPropertyOp14
 70
     1
102
RTVSPropertyOp15
 70
     1
102
RTVSPropertyOp16
 70
     1
102
RTVSPropertyOp17
 70
     1
102
RTVSPropertyOp18
 70
     1
102
RTVSPropertyOp19
 70
     1
102
RTVSPropertyOp20
 70
     1
102
RTVSPropertyOp21
 70
     1
102
RTVSPropertyOp22
 70
     1
102
RTVSPropertyOp23
 70
     1
102
RTVSPropertyOp24
 70
     1
102
RTVSPropertyOp25
 70
     1
102
RTVSPropertyOp26
 70
     1
102
RTVSPropertyOp27
 70
     1
102
RTVSPropertyOp28
 70
     1
102
RTVSPropertyOp29
 70
     1
102
RTVSPropertyOp30
 70
     1
102
RTVSPropertyOp31
 70
     1
102
RTVSPropertyOp32
 70
     1
  0
XRECORD
  5
3BC
102
{ACAD_REACTORS
330
3BB
102
}
330
3BB
100
AcDbXrecord
280
     1
102
RTVSPropertyOp0
 70
     1
102
RTVSPropertyOp1
 70
     1
102
RTVSPropertyOp2
 70
     1
102
RTVSPropertyOp3
 70
     1
102
RTVSPropertyOp4
 70
     1
102
RTVSPropertyOp5
 70
     1
102
RTVSPropertyOp6
 70
     1
102
RTVSPropertyOp7
 70
     1
102
RTVSPropertyOp8
 70
     1
102
RTVSPropertyOp9
 70
     1
102
RTVSPropertyOp10
 70
     1
102
RTVSPropertyOp11
 70
     1
102
RTVSPropertyOp12
 70
     1
102
RTVSPropertyOp13
 70
     1
102
RTVSPropertyOp14
 70
     1
102
RTVSPropertyOp15
 70
     1
102
RTVSPropertyOp16
 70
     1
102
RTVSPropertyOp17
 70
     1
102
RTVSPropertyOp18
 70
     1
102
RTVSPropertyOp19
 70
     1
102
RTVSPropertyOp20
 70
     1
102
RTVSPropertyOp21
 70
     1
102
RTVSPropertyOp22
 70
     1
102
RTVSPropertyOp23
 70
     1
102
RTVSPropertyOp24
 70
     1
102
RTVSPropertyOp25
 70
     1
102
RTVSPropertyOp26
 70
     1
102
RTVSPropertyOp27
 70
     1
102
RTVSPropertyOp28
 70
     1
102
RTVSPropertyOp29
 70
     1
102
RTVSPropertyOp30
 70
     1
102
RTVSPropertyOp31
 70
     1
102
RTVSPropertyOp32
 70
     1
  0
XRECORD
  5
3BE
102
{ACAD_REACTORS
330
3BD
102
}
330
3BD
100
AcDbXrecord
280
     1
102
RTVSPropertyOp0
 70
     1
102
RTVSPropertyOp1
 70
     1
102
RTVSPropertyOp2
 70
     1
102
RTVSPropertyOp3
 70
     1
102
RTVSPropertyOp4
 70
     1
102
RTVSPropertyOp5
 70
     1
102
RTVSPropertyOp6
 70
     1
102
RTVSPropertyOp7
 70
     1
102
RTVSPropertyOp8
 70
     1
102
RTVSPropertyOp9
 70
     1
102
RTVSPropertyOp10
 70
     1
102
RTVSPropertyOp11
 70
     1
102
RTVSPropertyOp12
 70
     1
102
RTVSPropertyOp13
 70
     1
102
RTVSPropertyOp14
 70
     1
102
RTVSPropertyOp15
 70
     1
102
RTVSPropertyOp16
 70
     1
102
RTVSPropertyOp17
 70
     1
102
RTVSPropertyOp18
 70
     1
102
RTVSPropertyOp19
 70
     1
102
RTVSPropertyOp20
 70
     1
102
RTVSPropertyOp21
 70
     1
102
RTVSPropertyOp22
 70
     1
102
RTVSPropertyOp23
 70
     1
102
RTVSPropertyOp24
 70
     1
102
RTVSPropertyOp25
 70
     1
102
RTVSPropertyOp26
 70
     1
102
RTVSPropertyOp27
 70
     1
102
RTVSPropertyOp28
 70
     1
102
RTVSPropertyOp29
 70
     1
102
RTVSPropertyOp30
 70
     1
102
RTVSPropertyOp31
 70
     1
102
RTVSPropertyOp32
 70
     1
  0
XRECORD
  5
3C6
102
{ACAD_REACTORS
330
3C5
102
}
330
3C5
100
AcDbXrecord
280
     1
102
RTVSPropertyOp0
 70
     1
102
RTVSPropertyOp1
 70
     1
102
RTVSPropertyOp2
 70
     1
102
RTVSPropertyOp3
 70
     1
102
RTVSPropertyOp4
 70
     1
102
RTVSPropertyOp5
 70
     1
102
RTVSPropertyOp6
 70
     1
102
RTVSPropertyOp7
 70
     1
102
RTVSPropertyOp8
 70
     1
102
RTVSPropertyOp9
 70
     1
102
RTVSPropertyOp10
 70
     1
102
RTVSPropertyOp11
 70
     1
102
RTVSPropertyOp12
 70
     1
102
RTVSPropertyOp13
 70
     1
102
RTVSPropertyOp14
 70
     1
102
RTVSPropertyOp15
 70
     1
102
RTVSPropertyOp16
 70
     1
102
RTVSPropertyOp17
 70
     1
102
RTVSPropertyOp18
 70
     1
102
RTVSPropertyOp19
 70
     1
102
RTVSPropertyOp20
 70
     1
102
RTVSPropertyOp21
 70
     1
102
RTVSPropertyOp22
 70
     1
102
RTVSPropertyOp23
 70
     1
102
RTVSPropertyOp24
 70
     1
102
RTVSPropertyOp25
 70
     1
102
RTVSPropertyOp26
 70
     1
102
RTVSPropertyOp27
 70
     1
102
RTVSPropertyOp28
 70
     1
102
RTVSPropertyOp29
 70
     1
102
RTVSPropertyOp30
 70
     1
102
RTVSPropertyOp31
 70
     1
102
RTVSPropertyOp32
 70
     1
  0
XRECORD
  5
3AA
102
{ACAD_REACTORS
330
3A9
102
}
330
3A9
100
AcDbXrecord
280
     1
102
RTVSPropertyOp0
 70
     1
102
RTVSPropertyOp1
 70
     1
102
RTVSPropertyOp2
 70
     1
102
RTVSPropertyOp3
 70
     1
102
RTVSPropertyOp4
 70
     1
102
RTVSPropertyOp5
 70
     1
102
RTVSPropertyOp6
 70
     1
102
RTVSPropertyOp7
 70
     1
102
RTVSPropertyOp8
 70
     1
102
RTVSPropertyOp9
 70
     1
102
RTVSPropertyOp10
 70
     1
102
RTVSPropertyOp11
 70
     1
102
RTVSPropertyOp12
 70
     1
102
RTVSPropertyOp13
 70
     1
102
RTVSPropertyOp14
 70
     1
102
RTVSPropertyOp15
 70
     1
102
RTVSPropertyOp16
 70
     1
102
RTVSPropertyOp17
 70
     1
102
RTVSPropertyOp18
 70
     1
102
RTVSPropertyOp19
 70
     1
102
RTVSPropertyOp20
 70
     1
102
RTVSPropertyOp21
 70
     1
102
RTVSPropertyOp22
 70
     1
102
RTVSPropertyOp23
 70
     1
102
RTVSPropertyOp24
 70
     1
102
RTVSPropertyOp25
 70
     1
102
RTVSPropertyOp26
 70
     1
102
RTVSPropertyOp27
 70
     1
102
RTVSPropertyOp28
 70
     1
102
RTVSPropertyOp29
 70
     1
102
RTVSPropertyOp30
 70
     1
102
RTVSPropertyOp31
 70
     1
102
RTVSPropertyOp32
 70
     1
  0
XRECORD
  5
3AC
102
{ACAD_REACTORS
330
3AB
102
}
330
3AB
100
AcDbXrecord
280
     1
102
RTVSPropertyOp0
 70
     1
102
RTVSPropertyOp1
 70
     1
102
RTVSPropertyOp2
 70
     1
102
RTVSPropertyOp3
 70
     1
102
RTVSPropertyOp4
 70
     1
102
RTVSPropertyOp5
 70
     1
102
RTVSPropertyOp6
 70
     1
102
RTVSPropertyOp7
 70
     1
102
RTVSPropertyOp8
 70
     1
102
RTVSPropertyOp9
 70
     1
102
RTVSPropertyOp10
 70
     1
102
RTVSPropertyOp11
 70
     1
102
RTVSPropertyOp12
 70
     1
102
RTVSPropertyOp13
 70
     1
102
RTVSPropertyOp14
 70
     1
102
RTVSPropertyOp15
 70
     1
102
RTVSPropertyOp16
 70
     1
102
RTVSPropertyOp17
 70
     1
102
RTVSPropertyOp18
 70
     1
102
RTVSPropertyOp19
 70
     1
102
RTVSPropertyOp20
 70
     1
102
RTVSPropertyOp21
 70
     1
102
RTVSPropertyOp22
 70
     1
102
RTVSPropertyOp23
 70
     1
102
RTVSPropertyOp24
 70
     1
102
RTVSPropertyOp25
 70
     1
102
RTVSPropertyOp26
 70
     1
102
RTVSPropertyOp27
 70
     1
102
RTVSPropertyOp28
 70
     1
102
RTVSPropertyOp29
 70
     1
102
RTVSPropertyOp30
 70
     1
102
RTVSPropertyOp31
 70
     1
102
RTVSPropertyOp32
 70
     1
  0
XRECORD
  5
3AE
102
{ACAD_REACTORS
330
3AD
102
}
330
3AD
100
AcDbXrecord
280
     1
102
RTVSPropertyOp0
 70
     1
102
RTVSPropertyOp1
 70
     1
102
RTVSPropertyOp2
 70
     1
102
RTVSPropertyOp3
 70
     1
102
RTVSPropertyOp4
 70
     1
102
RTVSPropertyOp5
 70
     1
102
RTVSPropertyOp6
 70
     1
102
RTVSPropertyOp7
 70
     1
102
RTVSPropertyOp8
 70
     1
102
RTVSPropertyOp9
 70
     1
102
RTVSPropertyOp10
 70
     1
102
RTVSPropertyOp11
 70
     1
102
RTVSPropertyOp12
 70
     1
102
RTVSPropertyOp13
 70
     1
102
RTVSPropertyOp14
 70
     1
102
RTVSPropertyOp15
 70
     1
102
RTVSPropertyOp16
 70
     1
102
RTVSPropertyOp17
 70
     1
102
RTVSPropertyOp18
 70
     1
102
RTVSPropertyOp19
 70
     1
102
RTVSPropertyOp20
 70
     1
102
RTVSPropertyOp21
 70
     1
102
RTVSPropertyOp22
 70
     1
102
RTVSPropertyOp23
 70
     1
102
RTVSPropertyOp24
 70
     1
102
RTVSPropertyOp25
 70
     1
102
RTVSPropertyOp26
 70
     1
102
RTVSPropertyOp27
 70
     1
102
RTVSPropertyOp28
 70
     1
102
RTVSPropertyOp29
 70
     1
102
RTVSPropertyOp30
 70
     1
102
RTVSPropertyOp31
 70
     1
102
RTVSPropertyOp32
 70
     1
  0
XRECORD
  5
3B0
102
{ACAD_REACTORS
330
3AF
102
}
330
3AF
100
AcDbXrecord
280
     1
102
RTVSPropertyOp0
 70
     1
102
RTVSPropertyOp1
 70
     1
102
RTVSPropertyOp2
 70
     1
102
RTVSPropertyOp3
 70
     1
102
RTVSPropertyOp4
 70
     1
102
RTVSPropertyOp5
 70
     1
102
RTVSPropertyOp6
 70
     1
102
RTVSPropertyOp7
 70
     1
102
RTVSPropertyOp8
 70
     1
102
RTVSPropertyOp9
 70
     1
102
RTVSPropertyOp10
 70
     1
102
RTVSPropertyOp11
 70
     1
102
RTVSPropertyOp12
 70
     1
102
RTVSPropertyOp13
 70
     1
102
RTVSPropertyOp14
 70
     1
102
RTVSPropertyOp15
 70
     1
102
RTVSPropertyOp16
 70
     1
102
RTVSPropertyOp17
 70
     1
102
RTVSPropertyOp18
 70
     1
102
RTVSPropertyOp19
 70
     1
102
RTVSPropertyOp20
 70
     1
102
RTVSPropertyOp21
 70
     1
102
RTVSPropertyOp22
 70
     1
102
RTVSPropertyOp23
 70
     1
102
RTVSPropertyOp24
 70
     1
102
RTVSPropertyOp25
 70
     1
102
RTVSPropertyOp26
 70
     1
102
RTVSPropertyOp27
 70
     1
102
RTVSPropertyOp28
 70
     1
102
RTVSPropertyOp29
 70
     1
102
RTVSPropertyOp30
 70
     1
102
RTVSPropertyOp31
 70
     1
102
RTVSPropertyOp32
 70
     1
  0
XRECORD
  5
3C4
102
{ACAD_REACTORS
330
3C3
102
}
330
3C3
100
AcDbXrecord
280
     1
102
RTVSPropertyOp0
 70
     1
102
RTVSPropertyOp1
 70
     1
102
RTVSPropertyOp2
 70
     1
102
RTVSPropertyOp3
 70
     1
102
RTVSPropertyOp4
 70
     1
102
RTVSPropertyOp5
 70
     1
102
RTVSPropertyOp6
 70
     1
102
RTVSPropertyOp7
 70
     1
102
RTVSPropertyOp8
 70
     1
102
RTVSPropertyOp9
 70
     1
102
RTVSPropertyOp10
 70
     1
102
RTVSPropertyOp11
 70
     1
102
RTVSPropertyOp12
 70
     1
102
RTVSPropertyOp13
 70
     1
102
RTVSPropertyOp14
 70
     1
102
RTVSPropertyOp15
 70
     1
102
RTVSPropertyOp16
 70
     1
102
RTVSPropertyOp17
 70
     1
102
RTVSPropertyOp18
 70
     1
102
RTVSPropertyOp19
 70
     1
102
RTVSPropertyOp20
 70
     1
102
RTVSPropertyOp21
 70
     1
102
RTVSPropertyOp22
 70
     1
102
RTVSPropertyOp23
 70
     1
102
RTVSPropertyOp24
 70
     1
102
RTVSPropertyOp25
 70
     1
102
RTVSPropertyOp26
 70
     1
102
RTVSPropertyOp27
 70
     1
102
RTVSPropertyOp28
 70
     1
102
RTVSPropertyOp29
 70
     1
102
RTVSPropertyOp30
 70
     1
102
RTVSPropertyOp31
 70
     1
102
RTVSPropertyOp32
 70
     1
  0
XRECORD
  5
3BA
102
{ACAD_REACTORS
330
3B9
102
}
330
3B9
100
AcDbXrecord
280
     1
102
RTVSPropertyOp0
 70
     1
102
RTVSPropertyOp1
 70
     1
102
RTVSPropertyOp2
 70
     1
102
RTVSPropertyOp3
 70
     1
102
RTVSPropertyOp4
 70
     1
102
RTVSPropertyOp5
 70
     1
102
RTVSPropertyOp6
 70
     1
102
RTVSPropertyOp7
 70
     1
102
RTVSPropertyOp8
 70
     1
102
RTVSPropertyOp9
 70
     1
102
RTVSPropertyOp10
 70
     1
102
RTVSPropertyOp11
 70
     1
102
RTVSPropertyOp12
 70
     1
102
RTVSPropertyOp13
 70
     1
102
RTVSPropertyOp14
 70
     1
102
RTVSPropertyOp15
 70
     1
102
RTVSPropertyOp16
 70
     1
102
RTVSPropertyOp17
 70
     1
102
RTVSPropertyOp18
 70
     1
102
RTVSPropertyOp19
 70
     1
102
RTVSPropertyOp20
 70
     1
102
RTVSPropertyOp21
 70
     1
102
RTVSPropertyOp22
 70
     1
102
RTVSPropertyOp23
 70
     1
102
RTVSPropertyOp24
 70
     1
102
RTVSPropertyOp25
 70
     1
102
RTVSPropertyOp26
 70
     1
102
RTVSPropertyOp27
 70
     1
102
RTVSPropertyOp28
 70
     1
102
RTVSPropertyOp29
 70
     1
102
RTVSPropertyOp30
 70
     1
102
RTVSPropertyOp31
 70
     1
102
RTVSPropertyOp32
 70
     1
  0
XRECORD
  5
3C2
102
{ACAD_REACTORS
330
3C1
102
}
330
3C1
100
AcDbXrecord
280
     1
102
RTVSPropertyOp0
 70
     1
102
RTVSPropertyOp1
 70
     1
102
RTVSPropertyOp2
 70
     1
102
RTVSPropertyOp3
 70
     1
102
RTVSPropertyOp4
 70
     1
102
RTVSPropertyOp5
 70
     1
102
RTVSPropertyOp6
 70
     1
102
RTVSPropertyOp7
 70
     1
102
RTVSPropertyOp8
 70
     1
102
RTVSPropertyOp9
 70
     1
102
RTVSPropertyOp10
 70
     1
102
RTVSPropertyOp11
 70
     1
102
RTVSPropertyOp12
 70
     1
102
RTVSPropertyOp13
 70
     1
102
RTVSPropertyOp14
 70
     1
102
RTVSPropertyOp15
 70
     1
102
RTVSPropertyOp16
 70
     1
102
RTVSPropertyOp17
 70
     1
102
RTVSPropertyOp18
 70
     1
102
RTVSPropertyOp19
 70
     1
102
RTVSPropertyOp20
 70
     1
102
RTVSPropertyOp21
 70
     1
102
RTVSPropertyOp22
 70
     1
102
RTVSPropertyOp23
 70
     1
102
RTVSPropertyOp24
 70
     1
102
RTVSPropertyOp25
 70
     1
102
RTVSPropertyOp26
 70
     1
102
RTVSPropertyOp27
 70
     1
102
RTVSPropertyOp28
 70
     1
102
RTVSPropertyOp29
 70
     1
102
RTVSPropertyOp30
 70
     1
102
RTVSPropertyOp31
 70
     1
102
RTVSPropertyOp32
 70
     1
  0
ENDSEC
  0
EOF
