  0
SECTION
  2
HEADER
  9
$ACADVER
  1
AC1018
  9
$ACADMAINTVER
 70
     0
  9
$DWGCODEPAGE
  3
ANSI_1252
  9
$INSBASE
 10
0.0
 20
0.0
 30
0.0
  9
$EXTMIN
 10
-228.7060211288766
 20
-6.50887558845255
 30
0.0
  9
$EXTMAX
 10
68.29397887112148
 20
203.4911244115476
 30
0.0
  9
$LIMMIN
 10
0.0
 20
0.0
  9
$LIMMAX
 10
12.0
 20
9.0
  9
$ORTHOMODE
 70
     0
  9
$REGENMODE
 70
     1
  9
$FILLMODE
 70
     1
  9
$QTEXTMODE
 70
     0
  9
$MIRRTEXT
 70
     1
  9
$LTSCALE
 40
1.0
  9
$ATTMODE
 70
     1
  9
$TEXTSIZE
 40
0.2
  9
$TRACEWID
 40
0.05
  9
$TEXTSTYLE
  7
Standard
  9
$CLAYER
  8
0
  9
$CELTYPE
  6
ByLayer
  9
$CECOLOR
 62
   256
  9
$CELTSCALE
 40
1.0
  9
$DISPSILH
 70
     0
  9
$DIMSCALE
 40
1.0
  9
$DIMASZ
 40
0.18
  9
$DIMEXO
 40
0.0625
  9
$DIMDLI
 40
0.38
  9
$DIMRND
 40
0.0
  9
$DIMDLE
 40
0.0
  9
$DIMEXE
 40
0.18
  9
$DIMTP
 40
0.0
  9
$DIMTM
 40
0.0
  9
$DIMTXT
 40
0.18
  9
$DIMCEN
 40
0.09
  9
$DIMTSZ
 40
0.0
  9
$DIMTOL
 70
     0
  9
$DIMLIM
 70
     0
  9
$DIMTIH
 70
     1
  9
$DIMTOH
 70
     1
  9
$DIMSE1
 70
     0
  9
$DIMSE2
 70
     0
  9
$DIMTAD
 70
     0
  9
$DIMZIN
 70
     0
  9
$DIMBLK
  1

  9
$DIMASO
 70
     1
  9
$DIMSHO
 70
     1
  9
$DIMPOST
  1

  9
$DIMAPOST
  1

  9
$DIMALT
 70
     0
  9
$DIMALTD
 70
     2
  9
$DIMALTF
 40
25.4
  9
$DIMLFAC
 40
1.0
  9
$DIMTOFL
 70
     0
  9
$DIMTVP
 40
0.0
  9
$DIMTIX
 70
     0
  9
$DIMSOXD
 70
     0
  9
$DIMSAH
 70
     0
  9
$DIMBLK1
  1

  9
$DIMBLK2
  1

  9
$DIMSTYLE
  2
Standard
  9
$DIMCLRD
 70
     0
  9
$DIMCLRE
 70
     0
  9
$DIMCLRT
 70
     0
  9
$DIMTFAC
 40
1.0
  9
$DIMGAP
 40
0.09
  9
$DIMJUST
 70
     0
  9
$DIMSD1
 70
     0
  9
$DIMSD2
 70
     0
  9
$DIMTOLJ
 70
     1
  9
$DIMTZIN
 70
     0
  9
$DIMALTZ
 70
     0
  9
$DIMALTTZ
 70
     0
  9
$DIMUPT
 70
     0
  9
$DIMDEC
 70
     4
  9
$DIMTDEC
 70
     4
  9
$DIMALTU
 70
     2
  9
$DIMALTTD
 70
     2
  9
$DIMTXSTY
  7
Standard
  9
$DIMAUNIT
 70
     0
  9
$DIMADEC
 70
     0
  9
$DIMALTRND
 40
0.0
  9
$DIMAZIN
 70
     0
  9
$DIMDSEP
 70
    46
  9
$DIMATFIT
 70
     3
  9
$DIMFRAC
 70
     0
  9
$DIMLDRBLK
  1

  9
$DIMLUNIT
 70
     2
  9
$DIMLWD
 70
    -2
  9
$DIMLWE
 70
    -2
  9
$DIMTMOVE
 70
     0
  9
$LUNITS
 70
     2
  9
$LUPREC
 70
     4
  9
$SKETCHINC
 40
0.1
  9
$FILLETRAD
 40
0.5
  9
$AUNITS
 70
     0
  9
$AUPREC
 70
     0
  9
$MENU
  1
.
  9
$ELEVATION
 40
0.0
  9
$PELEVATION
 40
0.0
  9
$THICKNESS
 40
0.0
  9
$LIMCHECK
 70
     0
  9
$CHAMFERA
 40
0.5
  9
$CHAMFERB
 40
0.5
  9
$CHAMFERC
 40
1.0
  9
$CHAMFERD
 40
0.0
  9
$SKPOLY
 70
     0
  9
$TDCREATE
 40
2458150.764154664
  9
$TDUCREATE
 40
2458150.722487998
  9
$TDUPDATE
 40
2458150.764155023
  9
$TDUUPDATE
 40
2458150.722488356
  9
$TDINDWG
 40
0.0000000116
  9
$TDUSRTIMER
 40
0.0000000116
  9
$USRTIMER
 70
     1
  9
$ANGBASE
 50
0.0
  9
$ANGDIR
 70
     0
  9
$PDMODE
 70
     0
  9
$PDSIZE
 40
0.0
  9
$PLINEWID
 40
0.0
  9
$SPLFRAME
 70
     0
  9
$SPLINETYPE
 70
     6
  9
$SPLINESEGS
 70
     8
  9
$HANDSEED
  5
29C
  9
$SURFTAB1
 70
     6
  9
$SURFTAB2
 70
     6
  9
$SURFTYPE
 70
     6
  9
$SURFU
 70
     6
  9
$SURFV
 70
     6
  9
$UCSBASE
  2

  9
$UCSNAME
  2

  9
$UCSORG
 10
0.0
 20
0.0
 30
0.0
  9
$UCSXDIR
 10
1.0
 20
0.0
 30
0.0
  9
$UCSYDIR
 10
0.0
 20
1.0
 30
0.0
  9
$UCSORTHOREF
  2

  9
$UCSORTHOVIEW
 70
     0
  9
$UCSORGTOP
 10
0.0
 20
0.0
 30
0.0
  9
$UCSORGBOTTOM
 10
0.0
 20
0.0
 30
0.0
  9
$UCSORGLEFT
 10
0.0
 20
0.0
 30
0.0
  9
$UCSORGRIGHT
 10
0.0
 20
0.0
 30
0.0
  9
$UCSORGFRONT
 10
0.0
 20
0.0
 30
0.0
  9
$UCSORGBACK
 10
0.0
 20
0.0
 30
0.0
  9
$PUCSBASE
  2

  9
$PUCSNAME
  2

  9
$PUCSORG
 10
0.0
 20
0.0
 30
0.0
  9
$PUCSXDIR
 10
1.0
 20
0.0
 30
0.0
  9
$PUCSYDIR
 10
0.0
 20
1.0
 30
0.0
  9
$PUCSORTHOREF
  2

  9
$PUCSORTHOVIEW
 70
     0
  9
$PUCSORGTOP
 10
0.0
 20
0.0
 30
0.0
  9
$PUCSORGBOTTOM
 10
0.0
 20
0.0
 30
0.0
  9
$PUCSORGLEFT
 10
0.0
 20
0.0
 30
0.0
  9
$PUCSORGRIGHT
 10
0.0
 20
0.0
 30
0.0
  9
$PUCSORGFRONT
 10
0.0
 20
0.0
 30
0.0
  9
$PUCSORGBACK
 10
0.0
 20
0.0
 30
0.0
  9
$USERI1
 70
     0
  9
$USERI2
 70
     0
  9
$USERI3
 70
     0
  9
$USERI4
 70
     0
  9
$USERI5
 70
     0
  9
$USERR1
 40
18.1
  9
$USERR2
 40
0.0
  9
$USERR3
 40
0.0
  9
$USERR4
 40
0.0
  9
$USERR5
 40
0.0
  9
$WORLDVIEW
 70
     1
  9
$SHADEDGE
 70
     3
  9
$SHADEDIF
 70
    70
  9
$TILEMODE
 70
     1
  9
$MAXACTVP
 70
    64
  9
$PINSBASE
 10
0.0
 20
0.0
 30
0.0
  9
$PLIMCHECK
 70
     0
  9
$PEXTMIN
 10
1.00000000000000E+20
 20
1.00000000000000E+20
 30
1.00000000000000E+20
  9
$PEXTMAX
 10
-1.00000000000000E+20
 20
-1.00000000000000E+20
 30
-1.00000000000000E+20
  9
$PLIMMIN
 10
0.0
 20
0.0
  9
$PLIMMAX
 10
12.0
 20
9.0
  9
$UNITMODE
 70
     0
  9
$VISRETAIN
 70
     1
  9
$PLINEGEN
 70
     0
  9
$PSLTSCALE
 70
     1
  9
$TREEDEPTH
 70
  3020
  9
$CMLSTYLE
  2
Standard
  9
$CMLJUST
 70
     0
  9
$CMLSCALE
 40
1.0
  9
$PROXYGRAPHICS
 70
     1
  9
$MEASUREMENT
 70
     1
  9
$CELWEIGHT
370
    -1
  9
$ENDCAPS
280
     0
  9
$JOINSTYLE
280
     0
  9
$LWDISPLAY
290
     0
  9
$INSUNITS
 70
     4
  9
$HYPERLINKBASE
  1

  9
$STYLESHEET
  1

  9
$XEDIT
290
     1
  9
$CEPSNTYPE
380
     0
  9
$PSTYLEMODE
290
     1
  9
$FINGERPRINTGUID
  2
{4CCFAFCB-9EB1-4848-8EAA-F2C839DE1083}
  9
$VERSIONGUID
  2
{FAEB1C32-E019-11D5-929B-00C0DF256EC4}
  9
$EXTNAMES
290
     1
  9
$PSVPSCALE
 40
0.0
  9
$OLESTARTUP
290
     0
  9
$SORTENTS
280
   127
  9
$INDEXCTL
280
     0
  9
$HIDETEXT
280
     1
  9
$XCLIPFRAME
290
     0
  9
$HALOGAP
280
     0
  9
$OBSCOLOR
 70
   257
  9
$OBSLTYPE
280
     0
  9
$INTERSECTIONDISPLAY
280
     0
  9
$INTERSECTIONCOLOR
 70
   257
  9
$DIMASSOC
280
     2
  9
$PROJECTNAME
  1

  0
ENDSEC
  0
SECTION
  2
CLASSES
  0
CLASS
  1
ACDBDICTIONARYWDFLT
  2
AcDbDictionaryWithDefault
  3
ObjectDBX Classes
 90
        0
 91
        4
280
     0
281
     0
  0
CLASS
  1
VISUALSTYLE
  2
AcDbVisualStyle
  3
ObjectDBX Classes
 90
     4095
 91
        4
280
     0
281
     0
  0
CLASS
  1
MATERIAL
  2
AcDbMaterial
  3
ObjectDBX Classes
 90
     1153
 91
        4
280
     0
281
     0
  0
ENDSEC
  0
SECTION
  2
TABLES
  0
TABLE
  2
VPORT
  5
8
330
0
100
AcDbSymbolTable
 70
     1
  0
VPORT
  5
29
330
8
100
AcDbSymbolTableRecord
100
AcDbViewportTableRecord
  2
*Active
 70
     0
 10
0.0
 20
0.0
 11
1.0
 21
1.0
 12
-80.20602112887757
 22
98.49112441154752
 13
0.0
 23
0.0
 14
0.5
 24
0.5
 15
0.5
 25
0.5
 16
0.0
 26
0.0
 36
1.0
 17
0.0
 27
0.0
 37
0.0
 40
231.0000000000002
 41
1.60267857142857
 42
50.0
 43
0.0
 44
0.0
 50
0.0
 51
0.0
 71
     0
 72
   100
 73
     1
 74
     3
 75
     0
 76
     0
 77
     0
 78
     0
281
     0
 65
     1
110
0.0
120
0.0
130
0.0
111
1.0
121
0.0
131
0.0
112
0.0
122
1.0
132
0.0
 79
     0
146
0.0
  0
ENDTAB
  0
TABLE
  2
LTYPE
  5
5
330
0
100
AcDbSymbolTable
 70
     8
  0
LTYPE
  5
14
330
5
100
AcDbSymbolTableRecord
100
AcDbLinetypeTableRecord
  2
ByBlock
 70
     0
  3

 72
    65
 73
     0
 40
0.0
  0
LTYPE
  5
15
330
5
100
AcDbSymbolTableRecord
100
AcDbLinetypeTableRecord
  2
ByLayer
 70
     0
  3

 72
    65
 73
     0
 40
0.0
  0
LTYPE
  5
16
330
5
100
AcDbSymbolTableRecord
100
AcDbLinetypeTableRecord
  2
Continuous
 70
     0
  3
Solid line
 72
    65
 73
     0
 40
0.0
  0
LTYPE
  5
3F
330
5
100
AcDbSymbolTableRecord
100
AcDbLinetypeTableRecord
  2
DASHED
 70
     0
  3
Dashed
 72
    65
 73
     2
 40
15.0
 49
7.0
 74
     0
 49
-8.0
 74
     0
  0
LTYPE
  5
40
330
5
100
AcDbSymbolTableRecord
100
AcDbLinetypeTableRecord
  2
DOTTED
 70
     0
  3
Dotted
 72
    65
 73
     2
 40
1.0
 49
0.0
 74
     0
 49
-1.0
 74
     0
  0
LTYPE
  5
41
330
5
100
AcDbSymbolTableRecord
100
AcDbLinetypeTableRecord
  2
DOT_CENTER
 70
     0
  3
Dot_Center
 72
    65
 73
     4
 40
14.0
 49
12.0
 74
     0
 49
-1.0
 74
     0
 49
0.0
 74
     0
 49
-1.0
 74
     0
  0
LTYPE
  5
42
330
5
100
AcDbSymbolTableRecord
100
AcDbLinetypeTableRecord
  2
LONG_DASHED
 70
     0
  3
Long_Dashed
 72
    65
 73
     2
 40
15.0
 49
10.0
 74
     0
 49
-5.0
 74
     0
  0
LTYPE
  5
43
330
5
100
AcDbSymbolTableRecord
100
AcDbLinetypeTableRecord
  2
DASH_CENTER
 70
     0
  3
Dash_Center
 72
    65
 73
     4
 40
14.0
 49
11.0
 74
     0
 49
-1.0
 74
     0
 49
1.0
 74
     0
 49
-1.0
 74
     0
  0
LTYPE
  5
44
330
5
100
AcDbSymbolTableRecord
100
AcDbLinetypeTableRecord
  2
PHANTOM
 70
     0
  3
Phantom
 72
    65
 73
     6
 40
13.0
 49
10.0
 74
     0
 49
-1.0
 74
     0
 49
0.0
 74
     0
 49
-1.0
 74
     0
 49
0.0
 74
     0
 49
-1.0
 74
     0
  0
LTYPE
  5
45
330
5
100
AcDbSymbolTableRecord
100
AcDbLinetypeTableRecord
  2
CENTER_DASH_DASH
 70
     0
  3
Center_Dash_Dash
 72
    65
 73
     6
 40
14.0
 49
9.0
 74
     0
 49
-1.0
 74
     0
 49
1.0
 74
     0
 49
-1.0
 74
     0
 49
1.0
 74
     0
 49
-1.0
 74
     0
  0
ENDTAB
  0
TABLE
  2
LAYER
  5
2
330
0
100
AcDbSymbolTable
 70
     2
  0
LAYER
  5
10
330
2
100
AcDbSymbolTableRecord
100
AcDbLayerTableRecord
  2
0
 70
     0
 62
     7
  6
Continuous
370
    -3
390
F
  0
LAYER
  5
46
330
2
100
AcDbSymbolTableRecord
100
AcDbLayerTableRecord
  2
1
 70
     0
 62
     7
  6
Continuous
370
    -3
390
F
  0
ENDTAB
  0
TABLE
  2
STYLE
  5
3
330
0
100
AcDbSymbolTable
 70
     5
  0
STYLE
  5
11
330
3
100
AcDbSymbolTableRecord
100
AcDbTextStyleTableRecord
  2
Standard
 70
     0
 40
0.0
 41
1.0
 50
0.0
 71
     0
 42
0.2
  3
txt
  4

  0
STYLE
  5
B6
330
3
100
AcDbSymbolTableRecord
100
AcDbTextStyleTableRecord
  2
CONVERTER_11
 70
     0
 40
0.0
 41
0.9
 50
0.0
 71
     0
 42
0.2
  3
txt.shx
  4

  0
STYLE
  5
232
330
3
100
AcDbSymbolTableRecord
100
AcDbTextStyleTableRecord
  2
CONVERTER_12
 70
     0
 40
0.0
 41
0.81
 50
0.0
 71
     0
 42
0.2
  3
txt.shx
  4

  0
STYLE
  5
238
330
3
100
AcDbSymbolTableRecord
100
AcDbTextStyleTableRecord
  2
CONVERTER_13
 70
     0
 40
0.0
 41
0.855
 50
0.0
 71
     0
 42
0.2
  3
txt.shx
  4

  0
STYLE
  5
23B
330
3
100
AcDbSymbolTableRecord
100
AcDbTextStyleTableRecord
  2
CONVERTER_14
 70
     0
 40
0.0
 41
0.72
 50
0.0
 71
     0
 42
0.2
  3
txt.shx
  4

  0
ENDTAB
  0
TABLE
  2
VIEW
  5
6
330
0
100
AcDbSymbolTable
 70
     0
  0
ENDTAB
  0
TABLE
  2
UCS
  5
7
330
0
100
AcDbSymbolTable
 70
     0
  0
ENDTAB
  0
TABLE
  2
APPID
  5
9
330
0
100
AcDbSymbolTable
 70
     1
  0
APPID
  5
12
330
9
100
AcDbSymbolTableRecord
100
AcDbRegAppTableRecord
  2
ACAD
 70
     0
  0
ENDTAB
  0
TABLE
  2
DIMSTYLE
  5
A
330
0
100
AcDbSymbolTable
 70
     2
100
AcDbDimStyleTable
  0
DIMSTYLE
105
27
330
A
100
AcDbSymbolTableRecord
100
AcDbDimStyleTableRecord
  2
Standard
 70
     0
178
     0
340
11
  0
DIMSTYLE
105
DA
102
{ACAD_REACTORS
330
DB
102
}
330
A
100
AcDbSymbolTableRecord
100
AcDbDimStyleTableRecord
  2
ME10_DIM_10
 70
     0
 41
3.5
 42
0.0
 44
1.5
 73
     0
 74
     0
 77
     1
 78
     8
140
3.5
147
1.5
172
     1
173
     1
174
     1
175
     1
176
     2
177
     2
178
     3
340
B6
  0
ENDTAB
  0
TABLE
  2
BLOCK_RECORD
  5
1
330
0
100
AcDbSymbolTable
 70
    20
  0
BLOCK_RECORD
  5
1F
330
1
100
AcDbSymbolTableRecord
100
AcDbBlockTableRecord
  2
*Model_Space
340
22
  0
BLOCK_RECORD
  5
1B
330
1
100
AcDbSymbolTableRecord
100
AcDbBlockTableRecord
  2
*Paper_Space
340
1E
  0
BLOCK_RECORD
  5
23
330
1
100
AcDbSymbolTableRecord
100
AcDbBlockTableRecord
  2
*Paper_Space0
340
26
  0
BLOCK_RECORD
  5
47
330
1
100
AcDbSymbolTableRecord
100
AcDbBlockTableRecord
  2
ATS-SSK_0525_110-select__1
340
0
102
{BLKREFS
331
4B
102
}
  0
BLOCK_RECORD
  5
4A
330
1
100
AcDbSymbolTableRecord
100
AcDbBlockTableRecord
  2
AllgSicht1
340
0
102
{BLKREFS
331
7D
102
}
  0
BLOCK_RECORD
  5
4E
330
1
100
AcDbSymbolTableRecord
100
AcDbBlockTableRecord
  2
ATS-SSK_0525_110-select__2
340
0
102
{BLKREFS
331
52
102
}
  0
BLOCK_RECORD
  5
51
330
1
100
AcDbSymbolTableRecord
100
AcDbBlockTableRecord
  2
Drfsicht1
340
0
102
{BLKREFS
331
7E
102
}
  0
BLOCK_RECORD
  5
55
330
1
100
AcDbSymbolTableRecord
100
AcDbBlockTableRecord
  2
ATS-SSK_0525_110-select__3
340
0
102
{BLKREFS
331
59
102
}
  0
BLOCK_RECORD
  5
58
330
1
100
AcDbSymbolTableRecord
100
AcDbBlockTableRecord
  2
Rckans1
340
0
102
{BLKREFS
331
7F
102
}
  0
BLOCK_RECORD
  5
5C
330
1
100
AcDbSymbolTableRecord
100
AcDbBlockTableRecord
  2
ATS-SSK_0525_110-select__4
340
0
102
{BLKREFS
331
60
102
}
  0
BLOCK_RECORD
  5
5F
330
1
100
AcDbSymbolTableRecord
100
AcDbBlockTableRecord
  2
SA_Links1
340
0
102
{BLKREFS
331
80
102
}
  0
BLOCK_RECORD
  5
63
330
1
100
AcDbSymbolTableRecord
100
AcDbBlockTableRecord
  2
ATS-SSK_0525_110-select__5
340
0
102
{BLKREFS
331
67
102
}
  0
BLOCK_RECORD
  5
66
330
1
100
AcDbSymbolTableRecord
100
AcDbBlockTableRecord
  2
SA_Rechts1
340
0
102
{BLKREFS
331
81
102
}
  0
BLOCK_RECORD
  5
6A
330
1
100
AcDbSymbolTableRecord
100
AcDbBlockTableRecord
  2
ATS-SSK_0525_110-select__6
340
0
102
{BLKREFS
331
6E
102
}
  0
BLOCK_RECORD
  5
6D
330
1
100
AcDbSymbolTableRecord
100
AcDbBlockTableRecord
  2
Vordans1
340
0
102
{BLKREFS
331
82
102
}
  0
BLOCK_RECORD
  5
71
330
1
100
AcDbSymbolTableRecord
100
AcDbBlockTableRecord
  2
_rahmen
340
0
102
{BLKREFS
331
78
102
}
  0
BLOCK_RECORD
  5
74
330
1
100
AcDbSymbolTableRecord
100
AcDbBlockTableRecord
  2
_punkt
340
0
102
{BLKREFS
331
79
102
}
  0
BLOCK_RECORD
  5
77
330
1
100
AcDbSymbolTableRecord
100
AcDbBlockTableRecord
  2
A4I_CS
340
0
102
{BLKREFS
331
83
102
}
  0
BLOCK_RECORD
  5
7C
330
1
100
AcDbSymbolTableRecord
100
AcDbBlockTableRecord
  2
1
340
0
102
{BLKREFS
331
86
102
}
  0
BLOCK_RECORD
  5
CF
330
1
100
AcDbSymbolTableRecord
100
AcDbBlockTableRecord
  2
*D17
340
0
  0
BLOCK_RECORD
  5
127
330
1
100
AcDbSymbolTableRecord
100
AcDbBlockTableRecord
  2
*D18
340
0
102
{BLKREFS
331
130
102
}
  0
BLOCK_RECORD
  5
131
330
1
100
AcDbSymbolTableRecord
100
AcDbBlockTableRecord
  2
*D19
340
0
102
{BLKREFS
331
13A
102
}
  0
ENDTAB
  0
ENDSEC
  0
SECTION
  2
BLOCKS
  0
BLOCK
  5
20
330
1F
100
AcDbEntity
  8
0
100
AcDbBlockBegin
  2
*Model_Space
 70
     0
 10
0.0
 20
0.0
 30
0.0
  3
*Model_Space
  1

  0
ENDBLK
  5
21
330
1F
100
AcDbEntity
  8
0
100
AcDbBlockEnd
  0
BLOCK
  5
1C
330
1B
100
AcDbEntity
 67
     1
  8
0
100
AcDbBlockBegin
  2
*Paper_Space
 70
     0
 10
0.0
 20
0.0
 30
0.0
  3
*Paper_Space
  1

  0
ENDBLK
  5
1D
330
1B
100
AcDbEntity
 67
     1
  8
0
100
AcDbBlockEnd
  0
BLOCK
  5
24
330
23
100
AcDbEntity
  8
0
100
AcDbBlockBegin
  2
*Paper_Space0
 70
     0
 10
0.0
 20
0.0
 30
0.0
  3
*Paper_Space0
  1

  0
ENDBLK
  5
25
330
23
100
AcDbEntity
  8
0
100
AcDbBlockEnd
  0
BLOCK
  5
48
330
47
100
AcDbEntity
  8
0
100
AcDbBlockBegin
  2
ATS-SSK_0525_110-select__1
 70
     0
 10
-24.42678971898974
 20
50.82163461240031
 30
0.0
  3
ATS-SSK_0525_110-select__1
  1

  0
LINE
  5
87
330
47
100
AcDbEntity
  8
0
  6
Continuous
 62
     7
100
AcDbLine
 10
-16.61578907771485
 20
85.86261704043712
 30
0.0
 11
-16.36578907771485
 21
86.07912339138323
 31
0.0
  0
LINE
  5
88
330
47
100
AcDbEntity
  8
0
  6
Continuous
 62
     7
100
AcDbLine
 10
-16.61578907771485
 20
85.86261704043712
 30
0.0
 11
-6.22348423230144
 21
93.25492188585054
 31
0.0
  0
LINE
  5
89
330
47
100
AcDbEntity
  8
0
  6
Continuous
 62
     7
100
AcDbLine
 10
-6.22348423230144
 20
93.25492188585054
 30
0.0
 11
-5.97348423230153
 21
93.47142823679665
 31
0.0
  0
LINE
  5
8A
330
47
100
AcDbEntity
  8
0
  6
Continuous
 62
     7
100
AcDbLine
 10
-16.36578907771485
 20
86.07912339138323
 30
0.0
 11
-5.97348423230153
 21
93.47142823679665
 31
0.0
  0
LINE
  5
8B
330
47
100
AcDbEntity
  8
0
  6
Continuous
 62
     7
100
AcDbLine
 10
-10.55361125122366
 20
63.92838029693761
 30
0.0
 11
-18.95917135264244
 21
64.1025934494532
 31
0.0
  0
LINE
  5
8C
330
47
100
AcDbEntity
  8
0
  6
Continuous
 62
     7
100
AcDbLine
 10
-0.59431910770263
 20
64.35012166664072
 30
0.0
 11
-4.05842072284034
 21
65.35012166664072
 31
0.0
  0
LINE
  5
8D
330
47
100
AcDbEntity
  8
0
  6
Continuous
 62
     7
100
AcDbLine
 10
-0.59431910770263
 20
64.35012166664072
 30
0.0
 11
-0.59431910770263
 21
64.78313436853293
 31
0.0
  0
LINE
  5
8E
330
47
100
AcDbEntity
  8
0
  6
Continuous
 62
     7
100
AcDbLine
 10
-0.59431910770263
 20
64.78313436853293
 30
0.0
 11
6.33388412257287
 21
62.78313436853293
 31
0.0
  0
LINE
  5
8F
330
47
100
AcDbEntity
  8
0
  6
Continuous
 62
     7
100
AcDbLine
 10
-24.02878865276983
 20
71.52521853270689
 30
0.0
 11
-16.61578907771485
 21
85.86261704043712
 31
0.0
  0
LINE
  5
90
330
47
100
AcDbEntity
  8
0
  6
Continuous
 62
     7
100
AcDbLine
 10
-0.34431910770263
 20
64.56662801758682
 30
0.0
 11
-0.34431910770263
 21
64.71096558488424
 31
0.0
  0
LINE
  5
91
330
47
100
AcDbEntity
  8
0
  6
Continuous
 62
     7
100
AcDbLine
 10
6.33388412257287
 20
62.78313436853293
 30
0.0
 11
6.33388412257287
 21
62.35012166664072
 31
0.0
  0
LINE
  5
92
330
47
100
AcDbEntity
  8
0
  6
Continuous
 62
     7
100
AcDbLine
 10
-4.05842072284034
 20
65.78313436853293
 30
0.0
 11
-4.05842072284034
 21
65.35012166664072
 31
0.0
  0
LINE
  5
93
330
47
100
AcDbEntity
  8
0
  6
Continuous
 62
     7
100
AcDbLine
 10
-10.55361125122366
 20
63.92838029693761
 30
0.0
 11
-7.52252233797813
 21
66.78313436853293
 31
0.0
  0
LINE
  5
94
330
47
100
AcDbEntity
  8
0
  6
Continuous
 62
     7
100
AcDbLine
 10
-7.52252233797813
 20
66.78313436853293
 30
0.0
 11
-4.05842072284034
 21
65.78313436853293
 31
0.0
  0
LINE
  5
95
330
47
100
AcDbEntity
  8
0
  6
Continuous
 62
     7
100
AcDbLine
 10
-10.55361125122366
 20
63.92838029693761
 30
0.0
 11
-10.30361125122366
 21
64.14488664788372
 31
0.0
  0
LINE
  5
96
330
47
100
AcDbEntity
  8
0
  6
Continuous
 62
     7
100
AcDbLine
 10
-0.59431910770263
 20
64.35012166664072
 30
0.0
 11
-0.34431910770263
 21
64.56662801758682
 31
0.0
  0
LINE
  5
97
330
47
100
AcDbEntity
  8
0
  6
Continuous
 62
     7
100
AcDbLine
 10
-10.30361125122366
 20
64.14488664788372
 30
0.0
 11
-7.50712225615064
 21
66.77868874783863
 31
0.0
  0
LINE
  5
98
330
47
100
AcDbEntity
  8
0
  6
Continuous
 62
     7
100
AcDbLine
 10
9.79798573771066
 20
61.35012166664071
 30
0.0
 11
9.79798573771066
 21
61.78313436853293
 31
0.0
  0
LINE
  5
99
330
47
100
AcDbEntity
  8
0
  6
Continuous
 62
     7
100
AcDbLine
 10
10.04798573771066
 20
61.56662801758682
 30
0.0
 11
10.04798573771066
 21
61.71096558488422
 31
0.0
  0
LINE
  5
9A
330
47
100
AcDbEntity
  8
0
  6
Continuous
 62
     7
100
AcDbLine
 10
9.79798573771066
 20
61.78313436853293
 30
0.0
 11
13.26208735284837
 21
60.78313436853293
 31
0.0
  0
LINE
  5
9B
330
47
100
AcDbEntity
  8
0
  6
Continuous
 62
     7
100
AcDbLine
 10
13.26208735284837
 20
60.78313436853293
 30
0.0
 11
16.29317626609395
 21
56.1783802969376
 31
0.0
  0
LINE
  5
9C
330
47
100
AcDbEntity
  8
0
  6
Continuous
 62
     7
100
AcDbLine
 10
12.21304924717006
 20
88.2214282367954
 30
0.0
 11
22.60535409258495
 21
74.82912339138348
 31
0.0
  0
LINE
  5
9D
330
47
100
AcDbEntity
  8
0
  6
Continuous
 62
     7
100
AcDbLine
 10
22.35535409258495
 20
74.61261704043737
 30
0.0
 11
22.60535409258495
 21
74.82912339138348
 31
0.0
  0
LINE
  5
9E
330
47
100
AcDbEntity
  8
0
  6
Continuous
 62
     7
100
AcDbLine
 10
-6.22348423230144
 20
93.25492188585054
 30
0.0
 11
11.96304924716824
 21
88.00492188585152
 31
0.0
  0
LINE
  5
9F
330
47
100
AcDbEntity
  8
0
  6
Continuous
 62
     7
100
AcDbLine
 10
11.96304924716824
 20
88.00492188585152
 30
0.0
 11
12.21304924717006
 21
88.2214282367954
 31
0.0
  0
LINE
  5
A0
330
47
100
AcDbEntity
  8
0
  6
Continuous
 62
     7
100
AcDbLine
 10
-5.97348423230153
 20
93.47142823679665
 30
0.0
 11
12.21304924717006
 21
88.2214282367954
 31
0.0
  0
LINE
  5
A1
330
47
100
AcDbEntity
  8
0
  6
Continuous
 62
     2
100
AcDbLine
 10
29.76835366764036
 20
55.99532123254631
 30
0.0
 11
30.01835366764036
 21
56.21182758349242
 31
0.0
  0
LINE
  5
A2
330
47
100
AcDbEntity
  8
0
  6
Continuous
 62
     7
100
AcDbLine
 10
29.09272406126254
 20
51.57905404442805
 30
0.0
 11
29.34272406126266
 21
51.79556039537416
 31
0.0
  0
LINE
  5
A3
330
47
100
AcDbEntity
  8
0
  6
Continuous
 62
     7
100
AcDbLine
 10
22.35535409258495
 20
74.61261704043737
 30
0.0
 11
29.76835366764036
 21
55.99532123254631
 31
0.0
  0
LINE
  5
A4
330
47
100
AcDbEntity
  8
0
  6
Continuous
 62
     7
100
AcDbLine
 10
24.69873636751265
 20
51.49964106220944
 30
0.0
 11
16.29317626609395
 21
56.1783802969376
 31
0.0
  0
LINE
  5
A5
330
47
100
AcDbEntity
  8
0
  6
Continuous
 62
     7
100
AcDbLine
 10
22.60535409258495
 20
74.82912339138348
 30
0.0
 11
30.01835366764036
 21
56.21182758349242
 31
0.0
  0
LINE
  5
A6
330
47
100
AcDbEntity
  8
0
  6
Continuous
 62
     7
100
AcDbLine
 10
9.79798573771066
 20
61.35012166664071
 30
0.0
 11
6.33388412257287
 21
62.35012166664072
 31
0.0
  0
LINE
  5
A7
330
47
100
AcDbEntity
  8
0
  6
Continuous
 62
     7
100
AcDbLine
 10
9.79798573771066
 20
61.35012166664071
 30
0.0
 11
10.04798573771066
 21
61.56662801758682
 31
0.0
  0
LINE
  5
A8
330
47
100
AcDbEntity
  8
0
  6
Continuous
 62
     7
100
AcDbLine
 10
11.96304924716824
 20
88.00492188585152
 30
0.0
 11
22.35535409258495
 21
74.61261704043737
 31
0.0
  0
SPLINE
  5
A9
330
47
100
AcDbEntity
  8
0
  6
Continuous
 62
     7
100
AcDbSpline
210
0.0
220
0.0
230
1.0
 70
     8
 71
     3
 72
    17
 73
    13
 74
    11
 42
0.000000001
 43
0.0000000001
 44
0.00000001
 40
0.0
 40
0.0
 40
0.0
 40
0.0
 40
0.9729314455948972
 40
2.007423664860904
 40
3.092583435996851
 40
4.209410632615325
 40
5.334319517378224
 40
6.442605753433506
 40
7.511887450734543
 40
8.5255967339986
 40
9.476481596101667
 40
10.36966773184171
 40
10.36966773184171
 40
10.36966773184171
 40
10.36966773184171
 10
-18.95917135264244
 20
64.1025934494532
 30
0.0
 10
-19.28338623048819
 20
64.13284504570379
 30
0.0
 10
-19.95233019283355
 20
64.19526237720957
 30
0.0
 10
-20.92440903713897
 20
64.57179999992032
 30
0.0
 10
-21.85258987617616
 20
65.12900840660362
 30
0.0
 10
-22.69152249753105
 20
65.86356876371568
 30
0.0
 10
-23.40101473172343
 20
66.73248445889907
 30
0.0
 10
-23.94578260060239
 20
67.69509236799182
 30
0.0
 10
-24.3008520815953
 20
68.70537129985398
 30
0.0
 10
-24.4406418202888
 20
69.71149545487988
 30
0.0
 10
-24.37970691458474
 20
70.6772674250538
 30
0.0
 10
-24.14329573896177
 20
71.24852616077483
 30
0.0
 10
-24.02878865276983
 20
71.52521853270689
 30
0.0
 11
-18.95917135264244
 21
64.1025934494532
 31
0.0
 11
-19.92289938011713
 21
64.23609958157677
 31
0.0
 11
-20.89457916743198
 21
64.59108203652099
 31
0.0
 11
-21.82499385981505
 21
65.14956232071665
 31
0.0
 11
-22.66701741106964
 21
65.88325116808448
 31
0.0
 11
-23.37799942564
 21
66.75498769590985
 31
0.0
 11
-23.9219290848106
 21
67.72061645925618
 31
0.0
 11
-24.27125420013076
 21
68.7312278167966
 31
0.0
 11
-24.40828275310083
 21
69.73563296139028
 31
0.0
 11
-24.32607227809723
 21
70.68295733504624
 31
0.0
 11
-24.02878865276983
 21
71.52521853270689
 31
0.0
  0
SPLINE
  5
AA
330
47
100
AcDbEntity
  8
0
  6
Continuous
 62
     7
100
AcDbSpline
210
0.0
220
0.0
230
1.0
 70
     8
 71
     3
 72
    15
 73
    11
 74
     9
 42
0.000000001
 43
0.0000000001
 44
0.00000001
 40
0.0
 40
0.0
 40
0.0
 40
0.0
 40
0.2859325734247842
 40
0.5899180089409549
 40
0.9214335781563041
 40
1.279194578298664
 40
1.653649505143972
 40
2.030751620275737
 40
2.395787007220672
 40
2.737181925993257
 40
2.737181925993257
 40
2.737181925993257
 40
2.737181925993257
 10
14.17582107203236
 20
72.44307453006438
 30
0.0
 10
14.25597701597608
 20
72.49691868751395
 30
0.0
 10
14.42134969854903
 20
72.60800653697527
 30
0.0
 10
14.73760599403258
 20
72.63990016825434
 30
0.0
 10
15.06518472531475
 20
72.57463118069582
 30
0.0
 10
15.38508776384052
 20
72.41215792304652
 30
0.0
 10
15.66944164436385
 20
72.17048885876801
 30
0.0
 10
15.89215262949713
 20
71.86963130001539
 30
0.0
 10
16.04465738592125
 20
71.53558135576517
 30
0.0
 10
16.06623982669432
 20
71.29967113046598
 30
0.0
 10
16.07666991514785
 20
71.18566334754131
 30
0.0
 11
14.17582107203236
 21
72.44307453006438
 31
0.0
 11
14.42500496318389
 21
72.58330586728168
 31
0.0
 11
14.72620551422886
 21
72.62435920950668
 31
0.0
 11
15.05189477564813
 21
72.56247965168846
 31
0.0
 11
15.37230529700152
 21
72.40332553761363
 31
0.0
 11
15.65815181276382
 21
72.16144072599297
 31
0.0
 11
15.88330994751696
 21
71.85893482606188
 31
0.0
 11
16.02719888765321
 21
71.52345486203488
 31
0.0
 11
16.07666991514785
 21
71.18566334754131
 31
0.0
  0
SPLINE
  5
AB
330
47
100
AcDbEntity
  8
0
  6
Continuous
 62
     7
100
AcDbSpline
210
0.0
220
0.0
230
1.0
 70
     8
 71
     3
 72
    17
 73
    13
 74
    11
 42
0.000000001
 43
0.0000000001
 44
0.00000001
 40
0.0
 40
0.0
 40
0.0
 40
0.0
 40
0.2700759699870124
 40
0.560621338726991
 40
0.8750332269749754
 40
1.20952446031803
 40
1.555300818728572
 40
1.901077177139095
 40
2.235568410482159
 40
2.549980298730161
 40
2.840525667470114
 40
3.110601637457128
 40
3.110601637457128
 40
3.110601637457128
 40
3.110601637457128
 10
15.92462529489526
 20
70.6763200951751
 30
0.0
 10
15.83986450103149
 20
70.64351495136805
 30
0.0
 10
15.66391878152074
 20
70.57541833427915
 30
0.0
 10
15.36517567172587
 20
70.59111340374868
 30
0.0
 10
15.06430044809052
 20
70.68473323364753
 30
0.0
 10
14.77748845688055
 20
70.8573879737775
 30
0.0
 10
14.52641671297686
 20
71.0931046921631
 30
0.0
 10
14.32898505785613
 20
71.37527509009595
 30
0.0
 10
14.19907432398738
 20
71.68381030496917
 30
0.0
 10
14.14939689766057
 20
71.99497380871195
 30
0.0
 10
14.17654039463158
 20
72.29289495839377
 30
0.0
 10
14.26907366920255
 20
72.45730797056213
 30
0.0
 10
14.31365102593935
 20
72.53651295085363
 30
0.0
 11
15.92462529489526
 21
70.6763200951751
 31
0.0
 11
15.66675621452701
 21
70.59604202343819
 31
0.0
 11
15.37627375937361
 21
70.60208828937846
 31
0.0
 11
15.0755942217534
 21
70.69399396390617
 31
0.0
 11
14.78792119577166
 21
70.86466503887601
 31
0.0
 11
14.53545504854177
 21
71.10093212037023
 31
0.0
 11
14.33767787568661
 21
71.38456124297988
 31
0.0
 11
14.20985346612388
 21
71.6936652805284
 31
0.0
 11
14.1618446584777
 21
72.0043902260064
 31
0.0
 11
14.19735790075414
 21
72.29275704744529
 31
0.0
 11
14.31365102593935
 21
72.53651295085363
 31
0.0
  0
SPLINE
  5
AC
330
47
100
AcDbEntity
  8
0
  6
Continuous
 62
     7
100
AcDbSpline
210
0.0
220
0.0
230
1.0
 70
     8
 71
     3
 72
     9
 73
     5
 74
     3
 42
0.000000001
 43
0.0000000001
 44
0.00000001
 40
0.0
 40
0.0
 40
0.0
 40
0.0
 40
0.2784043609824519
 40
0.5380867595555183
 40
0.5380867595555183
 40
0.5380867595555183
 40
0.5380867595555183
 10
-10.08710490027755
 20
79.02716969848743
 30
0.0
 10
-10.081344669896
 20
79.12124431870544
 30
0.0
 10
-10.07021155039919
 20
79.30306728357259
 30
0.0
 10
-9.979053470830078
 20
79.46052389021885
 30
0.0
 10
-9.935060280024942
 20
79.53651295085363
 30
0.0
 11
-10.08710490027755
 21
79.02716969848743
 31
0.0
 11
-10.04840156224535
 21
79.3028706972249
 31
0.0
 11
-9.935060280024942
 21
79.53651295085363
 31
0.0
  0
SPLINE
  5
AD
330
47
100
AcDbEntity
  8
0
  6
Continuous
 62
     7
100
AcDbSpline
210
0.0
220
0.0
230
1.0
 70
     8
 71
     3
 72
    15
 73
    11
 74
     9
 42
0.000000001
 43
0.0000000001
 44
0.00000001
 40
0.0
 40
0.0
 40
0.0
 40
0.0
 40
0.285932573424809
 40
0.5899180089409606
 40
0.9214335781563621
 40
1.27919457829875
 40
1.653649505144019
 40
2.030751620275759
 40
2.395787007220711
 40
2.737181925993283
 40
2.737181925993283
 40
2.737181925993283
 40
2.737181925993283
 10
-8.43625605716204
 20
77.55325216501825
 30
0.0
 10
-8.516412001105774
 20
77.49940800756869
 30
0.0
 10
-8.68178468367873
 20
77.38832015810735
 30
0.0
 10
-8.998040979162289
 20
77.35642652682829
 30
0.0
 10
-9.325619710444478
 20
77.42169551438678
 30
0.0
 10
-9.645522748970283
 20
77.58416877203608
 30
0.0
 10
-9.929876629493576
 20
77.82583783631459
 30
0.0
 10
-10.15258761462681
 20
78.12669539506724
 30
0.0
 10
-10.30509237105094
 20
78.46074533931747
 30
0.0
 10
-10.32667481182402
 20
78.69665556461665
 30
0.0
 10
-10.33710490027755
 20
78.81066334754131
 30
0.0
 11
-8.43625605716204
 21
77.55325216501825
 31
0.0
 11
-8.685439948313597
 21
77.41302082780095
 31
0.0
 11
-8.986640499358543
 21
77.37196748557594
 31
0.0
 11
-9.312329760777871
 21
77.43384704339415
 31
0.0
 11
-9.632740282131294
 21
77.59300115746899
 31
0.0
 11
-9.918586797893543
 21
77.83488596908964
 31
0.0
 11
-10.14374493264664
 21
78.13739186902073
 31
0.0
 11
-10.28763387278289
 21
78.47287183304775
 31
0.0
 11
-10.33710490027755
 21
78.81066334754131
 31
0.0
  0
SPLINE
  5
AE
330
47
100
AcDbEntity
  8
0
  6
Continuous
 62
     7
100
AcDbSpline
210
0.0
220
0.0
230
1.0
 70
     8
 71
     3
 72
    11
 73
     7
 74
     5
 42
0.000000001
 43
0.0000000001
 44
0.00000001
 40
0.0
 40
0.0
 40
0.0
 40
0.0
 40
0.18795998287012
 40
0.3667011423024312
 40
0.5382421013804324
 40
0.7058143646542954
 40
0.7058143646542954
 40
0.7058143646542954
 40
0.7058143646542954
 10
-10.33710490027755
 20
78.81066334754131
 30
0.0
 10
-10.33399975481442
 20
78.87346423349464
 30
0.0
 10
-10.32794174655424
 20
78.99598582541813
 30
0.0
 10
-10.27507345231136
 20
79.1689500898497
 30
0.0
 10
-10.19318763382545
 20
79.32331654676491
 30
0.0
 10
-10.11267528796581
 20
79.40346788012526
 30
0.0
 10
-10.07289023393196
 20
79.44307453006438
 30
0.0
 11
-10.33710490027755
 21
78.81066334754131
 31
0.0
 11
-10.31991790731692
 21
78.99783589527459
 31
0.0
 11
-10.26890278467215
 21
79.1691422292235
 31
0.0
 11
-10.18567932025587
 21
79.31914275063464
 31
0.0
 11
-10.07289023393196
 21
79.44307453006438
 31
0.0
  0
SPLINE
  5
AF
330
47
100
AcDbEntity
  8
0
  6
Continuous
 62
     7
100
AcDbSpline
210
0.0
220
0.0
230
1.0
 70
     8
 71
     3
 72
    19
 73
    15
 74
    13
 42
0.000000001
 43
0.0000000001
 44
0.00000001
 40
0.0
 40
0.0
 40
0.0
 40
0.0
 40
0.2463527714021874
 40
0.5046516001377812
 40
0.782428993303905
 40
1.081121937410447
 40
1.396810818528171
 40
1.721907830630876
 40
2.047004842733577
 40
2.362693723851311
 40
2.661386667957871
 40
2.939164061124024
 40
3.197462889859623
 40
3.443815661261808
 40
3.443815661261808
 40
3.443815661261808
 40
3.443815661261808
 10
-10.07289023393196
 20
79.44307453006438
 30
0.0
 10
-10.00489118566342
 20
79.49054888229577
 30
0.0
 10
-9.86559569496736
 20
79.58779968567792
 30
0.0
 10
-9.602085451643326
 20
79.63595726883429
 30
0.0
 10
-9.32275415601386
 20
79.61081234494013
 30
0.0
 10
-9.03983547063536
 20
79.50963269318375
 30
0.0
 10
-8.772762469284158
 20
79.34208672333006
 30
0.0
 10
-8.537909680747186
 20
79.11881211402216
 30
0.0
 10
-8.350475526331682
 20
78.85447176295227
 30
0.0
 10
-8.222801308016152
 20
78.56620290573309
 30
0.0
 10
-8.163076378764911
 20
78.27173179120435
 30
0.0
 10
-8.178093829147913
 20
77.9916733756913
 30
0.0
 10
-8.263401795792237
 20
77.73774552771246
 30
0.0
 10
-8.37955448448301
 20
77.61377171839516
 30
0.0
 10
-8.43625605716204
 20
77.55325216501825
 30
0.0
 11
-10.07289023393196
 21
79.44307453006438
 31
0.0
 11
-9.861585836003108
 21
79.56972421216047
 31
0.0
 11
-9.608914838993144
 21
79.62334934407065
 31
0.0
 11
-9.33209585865105
 21
79.6002943302562
 31
0.0
 11
-9.049993873450788
 21
79.50213147897207
 31
0.0
 11
-8.781833732927717
 21
79.33554934158018
 31
0.0
 11
-8.545889758654738
 21
79.11190116383004
 31
0.0
 11
-8.358241751046064
 21
78.84642745204829
 31
0.0
 11
-8.231676785065801
 21
78.557220296449
 31
0.0
 11
-8.174821042471565
 21
78.26398847696103
 31
0.0
 11
-8.191548065208536
 21
77.9867151673007
 31
0.0
 11
-8.280719037942
 21
77.74429646933339
 31
0.0
 11
-8.43625605716204
 21
77.55325216501825
 31
0.0
  0
SPLINE
  5
B0
330
47
100
AcDbEntity
  8
0
  6
Continuous
 62
     7
100
AcDbSpline
210
0.0
220
0.0
230
1.0
 70
     8
 71
     3
 72
    15
 73
    11
 74
     9
 42
0.000000001
 43
0.0000000001
 44
0.00000001
 40
0.0
 40
0.0
 40
0.0
 40
0.0
 40
0.2726773645126061
 40
0.5662739213324164
 40
0.8841703947907957
 40
1.222325733027842
 40
1.571574091191999
 40
1.920261853759131
 40
2.25685636486099
 40
2.572558429299889
 40
2.572558429299889
 40
2.572558429299889
 40
2.572558429299889
 10
-8.324086011069056
 20
77.6763200951751
 30
0.0
 10
-8.409713883413007
 20
77.64328824337277
 30
0.0
 10
-8.587538809391283
 20
77.57469042440536
 30
0.0
 10
-8.889438044717897
 20
77.59194075002063
 30
0.0
 10
-9.193040415968605
 20
77.68841805188589
 30
0.0
 10
-9.481551415548157
 20
77.86508141816601
 30
0.0
 10
-9.733403300296583
 20
78.10531951271263
 30
0.0
 10
-9.927965043022702
 20
78.39211215282589
 30
0.0
 10
-10.05976207933435
 20
78.70395619331379
 30
0.0
 10
-10.07818734606575
 20
78.92175718315917
 30
0.0
 10
-10.08710490027755
 20
79.02716969848743
 30
0.0
 11
-8.324086011069056
 21
77.6763200951751
 31
0.0
 11
-8.584570306333502
 21
77.59569206494632
 31
0.0
 11
-8.878074970884896
 21
77.60303737973712
 31
0.0
 11
-9.181525044996924
 21
77.6977803089231
 31
0.0
 11
-9.471063267758595
 21
77.87247046710935
 31
0.0
 11
-9.72392558326884
 21
78.11337514823305
 31
0.0
 11
-9.920232845043031
 21
78.40155324335745
 31
0.0
 11
-10.0445500504074
 21
78.71434885881179
 31
0.0
 11
-10.08710490027755
 21
79.02716969848743
 31
0.0
  0
SPLINE
  5
B1
330
47
100
AcDbEntity
  8
0
  6
Continuous
 62
     7
100
AcDbSpline
210
0.0
220
0.0
230
1.0
 70
     8
 71
     3
 72
    13
 73
     9
 74
     7
 42
0.000000001
 43
0.0000000001
 44
0.00000001
 40
0.0
 40
0.0
 40
0.0
 40
0.0
 40
0.7006317769989043
 40
1.41931409088567
 40
2.170460386907363
 40
2.962592548875957
 40
3.797796601810552
 40
4.672359594962726
 40
4.672359594962726
 40
4.672359594962726
 40
4.672359594962726
 10
29.09272406126254
 20
51.57905404442805
 30
0.0
 10
28.90453819688108
 20
51.43873060086623
 30
0.0
 10
28.52331818467761
 20
51.15446854068703
 30
0.0
 10
27.82895915656926
 20
50.91650574697047
 30
0.0
 10
27.07610865944632
 20
50.82500606663323
 30
0.0
 10
26.28163990200692
 20
50.89609976482708
 30
0.0
 10
25.47037834397408
 20
51.11247898812444
 30
0.0
 10
24.95986768632363
 20
51.36862156061169
 30
0.0
 10
24.69873636751265
 20
51.49964106220944
 30
0.0
 11
29.09272406126254
 21
51.57905404442805
 31
0.0
 11
28.51041734162768
 21
51.18943400484444
 31
0.0
 11
27.83480548454756
 21
50.944377090011
 31
0.0
 11
27.08931406193538
 21
50.85238089197191
 31
0.0
 11
26.29979216828901
 21
50.91663463971629
 31
0.0
 11
25.49361524852284
 21
51.13491103671743
 31
0.0
 11
24.69873636751265
 21
51.49964106220944
 31
0.0
  0
SPLINE
  5
B2
330
47
100
AcDbEntity
  8
0
  6
Continuous
 62
     7
100
AcDbSpline
210
0.0
220
0.0
230
1.0
 70
     8
 71
     3
 72
    13
 73
     9
 74
     7
 42
0.000000001
 43
0.0000000001
 44
0.00000001
 40
0.0
 40
0.0
 40
0.0
 40
0.0
 40
0.8914123556152037
 40
1.742746048249489
 40
2.549726606456438
 40
3.314182029248868
 40
4.044776330959082
 40
4.756481676694873
 40
4.756481676694873
 40
4.756481676694873
 40
4.756481676694873
 10
29.76835366764036
 20
55.99532123254631
 30
0.0
 10
29.8664448509635
 20
55.7141433958794
 30
0.0
 10
30.05821694035929
 20
55.16442971470602
 30
0.0
 10
30.16878342341975
 20
54.31583423833067
 30
0.0
 10
30.13358273013009
 20
53.50400180335723
 30
0.0
 10
29.9383510757676
 20
52.75718299045304
 30
0.0
 10
29.60182935100316
 20
52.09073243650663
 30
0.0
 10
29.2609376749805
 20
51.74811783086962
 30
0.0
 10
29.09272406126254
 20
51.57905404442805
 30
0.0
 11
29.76835366764036
 21
55.99532123254631
 31
0.0
 11
30.03222581507496
 21
55.14385926898326
 31
0.0
 11
30.14540445780796
 21
54.30008225314171
 31
0.0
 11
30.10384047316738
 21
53.49417279222577
 31
0.0
 11
29.90902128130135
 21
52.75495862863663
 31
0.0
 11
29.56791507628946
 21
52.10888232091416
 31
0.0
 11
29.09272406126254
 21
51.57905404442805
 31
0.0
  0
SPLINE
  5
B3
330
47
100
AcDbEntity
  8
0
  6
Continuous
 62
     7
100
AcDbSpline
210
0.0
220
0.0
230
1.0
 70
     8
 71
     3
 72
    13
 73
     9
 74
     7
 42
0.000000001
 43
0.0000000001
 44
0.00000001
 40
0.0
 40
0.0
 40
0.0
 40
0.0
 40
0.8914123556152037
 40
1.742746048249482
 40
2.549726606456431
 40
3.314182029248868
 40
4.044776330959088
 40
4.756481676694798
 40
4.756481676694798
 40
4.756481676694798
 40
4.756481676694798
 10
30.01835366764036
 20
56.21182758349242
 30
0.0
 10
30.1164448509635
 20
55.93064974682552
 30
0.0
 10
30.3082169403593
 20
55.38093606565214
 30
0.0
 10
30.41878342341974
 20
54.53234058927681
 30
0.0
 10
30.38358273013009
 20
53.72050815430332
 30
0.0
 10
30.18835107576759
 20
52.97368934139915
 30
0.0
 10
29.8518293510032
 20
52.30723878745277
 30
0.0
 10
29.51093767498058
 20
51.96462418181573
 30
0.0
 10
29.34272406126266
 20
51.79556039537416
 30
0.0
 11
30.01835366764036
 21
56.21182758349242
 31
0.0
 11
30.28222581507496
 21
55.36036561992937
 31
0.0
 11
30.39540445780796
 21
54.51658860408783
 31
0.0
 11
30.35384047316738
 21
53.71067914317189
 31
0.0
 11
30.15902128130135
 21
52.97146497958274
 31
0.0
 11
29.81791507628948
 21
52.32538867186026
 31
0.0
 11
29.34272406126266
 21
51.79556039537416
 31
0.0
  0
SPLINE
  5
B4
330
47
100
AcDbEntity
  8
0
  6
Continuous
 62
     7
100
AcDbSpline
210
0.0
220
0.0
230
1.0
 70
     8
 71
     3
 72
    11
 73
     7
 74
     5
 42
0.000000001
 43
0.0000000001
 44
0.00000001
 40
0.0
 40
0.0
 40
0.0
 40
0.0
 40
0.1879599828701241
 40
0.3667011423024207
 40
0.538242101380429
 40
0.7058143646542454
 40
0.7058143646542454
 40
0.7058143646542454
 40
0.7058143646542454
 10
16.07666991514785
 20
71.18566334754131
 30
0.0
 10
16.0735647696847
 20
71.12286246158796
 30
0.0
 10
16.0675067614245
 20
71.00034086966448
 30
0.0
 10
16.01463846718156
 20
70.82737660523296
 30
0.0
 10
15.93275264869568
 20
70.6730101483177
 30
0.0
 10
15.85224030283608
 20
70.59285881495738
 30
0.0
 10
15.81245524880225
 20
70.55325216501825
 30
0.0
 11
16.07666991514785
 21
71.18566334754131
 31
0.0
 11
16.05948292218718
 21
70.99849079980802
 31
0.0
 11
16.00846779954236
 21
70.82718446585915
 31
0.0
 11
15.92524433512609
 21
70.67718394444799
 31
0.0
 11
15.81245524880225
 21
70.55325216501825
 31
0.0
  0
SPLINE
  5
B5
330
47
100
AcDbEntity
  8
0
  6
Continuous
 62
     7
100
AcDbSpline
210
0.0
220
0.0
230
1.0
 70
     8
 71
     3
 72
    19
 73
    15
 74
    13
 42
0.000000001
 43
0.0000000001
 44
0.00000001
 40
0.0
 40
0.0
 40
0.0
 40
0.0
 40
0.2463527714022164
 40
0.5046516001378184
 40
0.7824289933039487
 40
1.081121937410523
 40
1.396810818528234
 40
1.721907830630936
 40
2.047004842733642
 40
2.362693723851364
 40
2.661386667957943
 40
2.939164061124066
 40
3.197462889859654
 40
3.443815661261906
 40
3.443815661261906
 40
3.443815661261906
 40
3.443815661261906
 10
15.81245524880225
 20
70.55325216501825
 30
0.0
 10
15.7444562005337
 20
70.50577781278687
 30
0.0
 10
15.60516070983762
 20
70.40852700940468
 30
0.0
 10
15.34165046651358
 20
70.36036942624835
 30
0.0
 10
15.0623191708841
 20
70.38551435014247
 30
0.0
 10
14.77940048550557
 20
70.48669400189885
 30
0.0
 10
14.51232748415439
 20
70.65423997175257
 30
0.0
 10
14.27747469561741
 20
70.87751458106044
 30
0.0
 10
14.0900405412019
 20
71.14185493213034
 30
0.0
 10
13.96236632288638
 20
71.43012378934952
 30
0.0
 10
13.90264139363523
 20
71.72459490387828
 30
0.0
 10
13.91765884401818
 20
72.00465331939134
 30
0.0
 10
14.00296681066246
 20
72.25858116737021
 30
0.0
 10
14.11911949935329
 20
72.38255497668746
 30
0.0
 10
14.17582107203236
 20
72.44307453006438
 30
0.0
 11
15.81245524880225
 21
70.55325216501825
 31
0.0
 11
15.60115085087337
 21
70.42660248292216
 31
0.0
 11
15.3484798538634
 21
70.37297735101197
 31
0.0
 11
15.0716608735213
 21
70.39603236482643
 31
0.0
 11
14.78955888832099
 21
70.49419521611054
 31
0.0
 11
14.52139874779794
 21
70.66077735350244
 31
0.0
 11
14.28545477352496
 21
70.88442553125257
 31
0.0
 11
14.09780676591628
 21
71.14989924303433
 31
0.0
 11
13.97124179993605
 21
71.43910639863361
 31
0.0
 11
13.91438605734186
 21
71.73233821812161
 31
0.0
 11
13.9311130800788
 21
72.00961152778191
 31
0.0
 11
14.02028405281223
 21
72.25203022574922
 31
0.0
 11
14.17582107203236
 21
72.44307453006438
 31
0.0
  0
ENDBLK
  5
49
330
47
100
AcDbEntity
  8
0
100
AcDbBlockEnd
  0
BLOCK
  5
4C
330
4A
100
AcDbEntity
  8
0
100
AcDbBlockBegin
  2
AllgSicht1
 70
     0
 10
2.99478300000115
 20
74.25
 30
0.0
  3
AllgSicht1
  1

  0
INSERT
  5
4B
330
4A
100
AcDbEntity
  8
0
100
AcDbBlockReference
  2
ATS-SSK_0525_110-select__1
 10
-24.42678971898974
 20
50.82163461240031
 30
0.0
  0
MTEXT
  5
B7
330
4A
100
AcDbEntity
  8
1
 62
     6
100
AcDbMText
 10
2.99999999999795
 20
41.58224887047504
 30
0.0
 40
5.0
 41
0.0
 71
     2
 72
     1
  1
 
  7
CONVERTER_11
 73
     1
 44
1.32052821128451
  0
ENDBLK
  5
4D
330
4A
100
AcDbEntity
  8
0
100
AcDbBlockEnd
  0
BLOCK
  5
4F
330
4E
100
AcDbEntity
  8
0
100
AcDbBlockBegin
  2
ATS-SSK_0525_110-select__2
 70
     0
 10
-166.5000005722045
 20
76.75000000595031
 30
0.0
  3
ATS-SSK_0525_110-select__2
  1

  0
LINE
  5
B8
330
4E
100
AcDbEntity
  8
0
  6
Continuous
 62
     7
100
AcDbLine
 10
-112.5000005722047
 20
76.75000000595031
 30
0.0
 11
-103.9402059718831
 21
76.75000000595031
 31
0.0
  0
LINE
  5
B9
330
4E
100
AcDbEntity
  8
0
  6
Continuous
 62
     7
100
AcDbLine
 10
-124.5000005722086
 20
76.75000000595031
 30
0.0
 11
-112.5000005722047
 21
76.75000000595031
 31
0.0
  0
LINE
  5
BA
330
4E
100
AcDbEntity
  8
0
  6
Continuous
 62
     7
100
AcDbLine
 10
-145.5000005722046
 20
76.75000000595031
 30
0.0
 11
-124.5000005722086
 21
76.75000000595031
 31
0.0
  0
LINE
  5
BB
330
4E
100
AcDbEntity
  8
0
  6
Continuous
 62
     7
100
AcDbLine
 10
-103.9402059718831
 20
76.75000000595031
 30
0.0
 11
-103.5000005722047
 21
76.75000000595031
 31
0.0
  0
LINE
  5
BC
330
4E
100
AcDbEntity
  8
0
  6
Continuous
 62
     7
100
AcDbLine
 10
-166.5000005722045
 20
77.25000000595034
 30
0.0
 11
-166.0597951725259
 21
77.25000000595034
 31
0.0
  0
LINE
  5
BD
330
4E
100
AcDbEntity
  8
0
  6
Continuous
 62
     7
100
AcDbLine
 10
-166.5000005722045
 20
76.75000000595034
 30
0.0
 11
-166.5000005722045
 21
77.25000000595034
 31
0.0
  0
LINE
  5
BE
330
4E
100
AcDbEntity
  8
0
  6
Continuous
 62
     7
100
AcDbLine
 10
-166.5000005722045
 20
76.75000000595034
 30
0.0
 11
-166.0597951725259
 21
76.75000000595034
 31
0.0
  0
LINE
  5
BF
330
4E
100
AcDbEntity
  8
0
  6
Continuous
 62
     7
100
AcDbLine
 10
-157.5000005722047
 20
76.75000000595031
 30
0.0
 11
-145.5000005722046
 21
76.75000000595031
 31
0.0
  0
LINE
  5
C0
330
4E
100
AcDbEntity
  8
0
  6
Continuous
 62
     7
100
AcDbLine
 10
-112.5000005722047
 20
77.25000000595031
 30
0.0
 11
-103.9402059718831
 21
77.25000000595031
 31
0.0
  0
LINE
  5
C1
330
4E
100
AcDbEntity
  8
0
  6
Continuous
 62
     7
100
AcDbLine
 10
-103.9402059718831
 20
77.25000000595031
 30
0.0
 11
-103.5000005722047
 21
77.25000000595031
 31
0.0
  0
LINE
  5
C2
330
4E
100
AcDbEntity
  8
0
  6
Continuous
 62
     2
100
AcDbLine
 10
-103.9402059718831
 20
76.75000000595031
 30
0.0
 11
-103.9402059718831
 21
77.25000000595031
 31
0.0
  0
LINE
  5
C3
330
4E
100
AcDbEntity
  8
0
  6
Continuous
 62
     7
100
AcDbLine
 10
-103.5000005722047
 20
76.75000000595031
 30
0.0
 11
-103.5000005722047
 21
77.25000000595031
 31
0.0
  0
LINE
  5
C4
330
4E
100
AcDbEntity
  8
0
  6
Continuous
 62
     7
100
AcDbLine
 10
-145.5000005722046
 20
76.75000000595031
 30
0.0
 11
-145.5000005722046
 21
77.25000000595031
 31
0.0
  0
LINE
  5
C5
330
4E
100
AcDbEntity
  8
0
  6
Continuous
 62
     7
100
AcDbLine
 10
-166.0597951725259
 20
76.75000000595034
 30
0.0
 11
-157.5000005722047
 21
76.75000000595031
 31
0.0
  0
LINE
  5
C6
330
4E
100
AcDbEntity
  8
0
  6
Continuous
 62
     7
100
AcDbLine
 10
-157.5000005722047
 20
76.75000000595031
 30
0.0
 11
-157.5000005722047
 21
77.25000000595031
 31
0.0
  0
LINE
  5
C7
330
4E
100
AcDbEntity
  8
0
  6
Continuous
 62
     2
100
AcDbLine
 10
-166.0597951725259
 20
76.75000000595034
 30
0.0
 11
-166.0597951725259
 21
77.25000000595034
 31
0.0
  0
LINE
  5
C8
330
4E
100
AcDbEntity
  8
0
  6
Continuous
 62
     7
100
AcDbLine
 10
-166.0597951725259
 20
77.25000000595034
 30
0.0
 11
-157.5000005722047
 21
77.25000000595031
 31
0.0
  0
LINE
  5
C9
330
4E
100
AcDbEntity
  8
0
  6
Continuous
 62
     7
100
AcDbLine
 10
-157.5000005722047
 20
77.25000000595031
 30
0.0
 11
-145.5000005722046
 21
77.25000000595031
 31
0.0
  0
LINE
  5
CA
330
4E
100
AcDbEntity
  8
0
  6
Continuous
 62
     7
100
AcDbLine
 10
-124.5000005722066
 20
77.25000000595031
 30
0.0
 11
-112.5000005722047
 21
77.25000000595031
 31
0.0
  0
LINE
  5
CB
330
4E
100
AcDbEntity
  8
0
  6
Continuous
 62
     7
100
AcDbLine
 10
-124.5000005722086
 20
76.75000000595031
 30
0.0
 11
-124.5000005722066
 21
77.25000000595031
 31
0.0
  0
LINE
  5
CC
330
4E
100
AcDbEntity
  8
0
  6
Continuous
 62
     7
100
AcDbLine
 10
-112.5000005722047
 20
76.75000000595031
 30
0.0
 11
-112.5000005722047
 21
77.25000000595031
 31
0.0
  0
LINE
  5
CD
330
4E
100
AcDbEntity
  8
0
  6
Continuous
 62
     7
100
AcDbLine
 10
-145.5000005722046
 20
77.25000000595031
 30
0.0
 11
-124.5000005722066
 21
77.25000000595031
 31
0.0
  0
ENDBLK
  5
50
330
4E
100
AcDbEntity
  8
0
100
AcDbBlockEnd
  0
BLOCK
  5
53
330
51
100
AcDbEntity
  8
0
100
AcDbBlockBegin
  2
Drfsicht1
 70
     0
 10
-135.0
 20
76.99999999999486
 30
0.0
  3
Drfsicht1
  1

  0
INSERT
  5
52
330
51
100
AcDbEntity
  8
0
100
AcDbBlockReference
  2
ATS-SSK_0525_110-select__2
 10
-166.5000005722045
 20
76.75000000595031
 30
0.0
  0
MTEXT
  5
CE
330
51
100
AcDbEntity
  8
1
 62
     6
100
AcDbMText
 10
-135.0
 20
71.59999999403453
 30
0.0
 40
5.0
 41
0.0
 71
     2
 72
     1
  1
 
  7
CONVERTER_11
 73
     1
 44
1.32052821128451
  0
DIMENSION
  5
DB
330
51
100
AcDbEntity
  8
1
100
AcDbDimension
  2
*D17
 10
-93.50000057220468
 20
76.75000000595031
 30
0.0
 11
-96.92500057220468
 21
89.6006342630282
 31
0.0
 70
    33
  1
<>
 71
     5
 42
-1.0
 53
90.0
  3
ME10_DIM_10
100
AcDbAlignedDimension
 13
-103.5000005722047
 23
77.25000000595031
 33
0.0
 14
-103.5000005722047
 24
76.75000000595031
 34
0.0
  0
ENDBLK
  5
54
330
51
100
AcDbEntity
  8
0
100
AcDbBlockEnd
  0
BLOCK
  5
56
330
55
100
AcDbEntity
  8
0
100
AcDbBlockBegin
  2
ATS-SSK_0525_110-select__3
 70
     0
 10
-53.5000013351428
 20
119.8610953280274
 30
0.0
  3
ATS-SSK_0525_110-select__3
  1

  0
LINE
  5
DC
330
55
100
AcDbEntity
  8
0
  6
Continuous
 62
     7
100
AcDbLine
 10
-26.00000133514288
 20
126.4389045772126
 30
0.0
 11
-26.00000133514288
 21
126.9389045772126
 31
0.0
  0
LINE
  5
DD
330
55
100
AcDbEntity
  8
0
  6
Continuous
 62
     7
100
AcDbLine
 10
-34.00000133514288
 20
126.9389045772126
 30
0.0
 11
-37.50000133514288
 21
122.6321555427192
 31
0.0
  0
LINE
  5
DE
330
55
100
AcDbEntity
  8
0
  6
Continuous
 62
     7
100
AcDbLine
 10
-10.00000133514288
 20
126.9389045772126
 30
0.0
 11
-14.00000133514288
 21
126.9389045772126
 31
0.0
  0
LINE
  5
DF
330
55
100
AcDbEntity
  8
0
  6
Continuous
 62
     7
100
AcDbLine
 10
-14.00000133514288
 20
126.4389045772126
 30
0.0
 11
-14.00000133514288
 21
126.9389045772126
 31
0.0
  0
LINE
  5
E0
330
55
100
AcDbEntity
  8
0
  6
Continuous
 62
     7
100
AcDbLine
 10
-6.50000133514288
 20
122.6321555427192
 30
0.0
 11
-10.00000133514288
 21
126.9389045772126
 31
0.0
  0
LINE
  5
E1
330
55
100
AcDbEntity
  8
0
  6
Continuous
 62
     7
100
AcDbLine
 10
0.4999986648572
 20
145.9389045772124
 30
0.0
 11
-11.50000133514288
 21
157.9389045772126
 31
0.0
  0
LINE
  5
E2
330
55
100
AcDbEntity
  8
0
  6
Continuous
 62
     7
100
AcDbLine
 10
-18.00000133514288
 20
126.4389045772126
 30
0.0
 11
-14.00000133514288
 21
126.4389045772126
 31
0.0
  0
LINE
  5
E3
330
55
100
AcDbEntity
  8
0
  6
Continuous
 62
     7
100
AcDbLine
 10
-18.00000133514288
 20
126.4389045772126
 30
0.0
 11
-18.00000133514288
 21
126.9389045772126
 31
0.0
  0
LINE
  5
E4
330
55
100
AcDbEntity
  8
0
  6
Continuous
 62
     7
100
AcDbLine
 10
-18.00000133514288
 20
126.9389045772126
 30
0.0
 11
-26.00000133514288
 21
126.9389045772126
 31
0.0
  0
LINE
  5
E5
330
55
100
AcDbEntity
  8
0
  6
Continuous
 62
     7
100
AcDbLine
 10
-47.20590610963029
 20
120.0314661965821
 30
0.0
 11
-37.50000133514288
 21
122.6321555427192
 31
0.0
  0
LINE
  5
E6
330
55
100
AcDbEntity
  8
0
  6
Continuous
 62
     7
100
AcDbLine
 10
-30.00000133514288
 20
126.4389045772126
 30
0.0
 11
-26.00000133514288
 21
126.4389045772126
 31
0.0
  0
LINE
  5
E7
330
55
100
AcDbEntity
  8
0
  6
Continuous
 62
     7
100
AcDbLine
 10
-6.50000133514288
 20
122.6321555427192
 30
0.0
 11
3.20590343934452
 21
120.0314661965821
 31
0.0
  0
LINE
  5
E8
330
55
100
AcDbEntity
  8
0
  6
Continuous
 62
     7
100
AcDbLine
 10
9.0597932651784
 20
126.9125029430267
 30
0.0
 11
0.4999986648572
 21
145.9389045772124
 31
0.0
  0
LINE
  5
E9
330
55
100
AcDbEntity
  8
0
  6
Continuous
 62
     7
100
AcDbLine
 10
-11.50000133514288
 20
157.9389045772126
 30
0.0
 11
-32.50000133514089
 21
157.9389045772106
 31
0.0
  0
LINE
  5
EA
330
55
100
AcDbEntity
  8
0
  6
Continuous
 62
     7
100
AcDbLine
 10
-30.00000133514288
 20
126.9389045772126
 30
0.0
 11
-34.00000133514288
 21
126.9389045772126
 31
0.0
  0
LINE
  5
EB
330
55
100
AcDbEntity
  8
0
  6
Continuous
 62
     7
100
AcDbLine
 10
-30.00000133514288
 20
126.4389045772126
 30
0.0
 11
-30.00000133514288
 21
126.9389045772126
 31
0.0
  0
LINE
  5
EC
330
55
100
AcDbEntity
  8
0
  6
Continuous
 62
     7
100
AcDbLine
 10
-32.50000133514089
 20
157.9389045772106
 30
0.0
 11
-44.5000013351428
 21
145.9389045772127
 31
0.0
  0
LINE
  5
ED
330
55
100
AcDbEntity
  8
0
  6
Continuous
 62
     7
100
AcDbLine
 10
-44.5000013351428
 20
145.9389045772127
 30
0.0
 11
-53.05979593546439
 21
126.9125029430269
 31
0.0
  0
LINE
  5
EE
330
55
100
AcDbEntity
  8
1
  6
DOT_CENTER
 62
     2
100
AcDbLine
 10
-34.62500133514288
 20
139.8889045772124
 30
0.0
 11
-37.37500133514288
 21
139.8889045772124
 31
0.0
  0
LINE
  5
EF
330
55
100
AcDbEntity
  8
1
  6
DOT_CENTER
 62
     2
100
AcDbLine
 10
-36.00000133514288
 20
141.2639045772124
 30
0.0
 11
-36.00000133514288
 21
138.5139045772124
 31
0.0
  0
LINE
  5
F0
330
55
100
AcDbEntity
  8
1
  6
DOT_CENTER
 62
     2
100
AcDbLine
 10
-6.62500133514288
 20
139.8889045772124
 30
0.0
 11
-9.37500133514288
 21
139.8889045772124
 31
0.0
  0
LINE
  5
F1
330
55
100
AcDbEntity
  8
1
  6
DOT_CENTER
 62
     2
100
AcDbLine
 10
-8.00000133514288
 20
141.2639045772124
 30
0.0
 11
-8.00000133514288
 21
138.5139045772124
 31
0.0
  0
ARC
  5
F2
330
55
100
AcDbEntity
  8
0
  6
Continuous
 62
     7
100
AcDbCircle
 10
-48.50000133514288
 20
124.8610953280274
 30
0.0
 40
4.999999999999909
100
AcDbArc
 50
155.7774791386764
 51
285.0
  0
ARC
  5
F3
330
55
100
AcDbEntity
  8
0
  6
Continuous
 62
     7
100
AcDbCircle
 10
4.49999866485712
 20
124.8610953280274
 30
0.0
 40
4.999999999999958
100
AcDbArc
 50
255.0
 51
24.22252086132263
  0
CIRCLE
  5
F4
330
55
100
AcDbEntity
  8
0
  6
Continuous
 62
     7
100
AcDbCircle
 10
-8.00000133514288
 20
139.8889045772124
 30
0.0
 40
1.25
  0
CIRCLE
  5
F5
330
55
100
AcDbEntity
  8
0
  6
Continuous
 62
     7
100
AcDbCircle
 10
-36.00000133514288
 20
139.8889045772124
 30
0.0
 40
1.25
  0
ENDBLK
  5
57
330
55
100
AcDbEntity
  8
0
100
AcDbBlockEnd
  0
BLOCK
  5
5A
330
58
100
AcDbEntity
  8
0
100
AcDbBlockBegin
  2
Rckans1
 70
     0
 10
-22.0000019073475
 20
138.9000001251698
 30
0.0
  3
Rckans1
  1

  0
INSERT
  5
59
330
58
100
AcDbEntity
  8
0
100
AcDbBlockReference
  2
ATS-SSK_0525_110-select__3
 10
-53.5000013351428
 20
119.8610953280274
 30
0.0
  0
MTEXT
  5
F6
330
58
100
AcDbEntity
  8
1
 62
     6
100
AcDbMText
 10
-22.00000190734863
 20
112.4000000059605
 30
0.0
 40
5.0
 41
0.0
 71
     2
 72
     1
  1
 
  7
CONVERTER_11
 73
     1
 44
1.32052821128451
  0
ENDBLK
  5
5B
330
58
100
AcDbEntity
  8
0
100
AcDbBlockEnd
  0
BLOCK
  5
5D
330
5C
100
AcDbEntity
  8
0
100
AcDbBlockBegin
  2
ATS-SSK_0525_110-select__4
 70
     0
 10
-78.75000095961978
 20
119.8610953280274
 30
0.0
  3
ATS-SSK_0525_110-select__4
  1

  0
LINE
  5
F7
330
5C
100
AcDbEntity
  8
0
  6
Continuous
 62
     7
100
AcDbLine
 10
-78.75000095961977
 20
145.9389045772123
 30
0.0
 11
-78.75000095961978
 21
126.9125029430267
 31
0.0
  0
LINE
  5
F8
330
5C
100
AcDbEntity
  8
0
  6
Continuous
 62
     7
100
AcDbLine
 10
-78.75000095961978
 20
126.9125029430267
 30
0.0
 11
-78.75000095961978
 21
119.8610953280274
 31
0.0
  0
LINE
  5
F9
330
5C
100
AcDbEntity
  8
0
  6
Continuous
 62
     7
100
AcDbLine
 10
-78.75000095961977
 20
145.9389045772123
 30
0.0
 11
-78.75000095961977
 21
157.9389045772125
 31
0.0
  0
LINE
  5
FA
330
5C
100
AcDbEntity
  8
0
  6
Continuous
 62
     2
100
AcDbLine
 10
-78.25000095961978
 20
126.9125029430267
 30
0.0
 11
-78.75000095961978
 21
126.9125029430267
 31
0.0
  0
LINE
  5
FB
330
5C
100
AcDbEntity
  8
0
  6
Continuous
 62
     7
100
AcDbLine
 10
-78.25000095961977
 20
145.9389045772123
 30
0.0
 11
-78.25000095961978
 21
126.9125029430267
 31
0.0
  0
LINE
  5
FC
330
5C
100
AcDbEntity
  8
0
  6
Continuous
 62
     7
100
AcDbLine
 10
-78.25000095961978
 20
126.9125029430267
 30
0.0
 11
-78.25000095961978
 21
119.8610953280274
 31
0.0
  0
LINE
  5
FD
330
5C
100
AcDbEntity
  8
0
  6
Continuous
 62
     7
100
AcDbLine
 10
-78.25000095961977
 20
145.9389045772123
 30
0.0
 11
-78.25000095961977
 21
157.9389045772125
 31
0.0
  0
LINE
  5
FE
330
5C
100
AcDbEntity
  8
0
  6
Continuous
 62
     7
100
AcDbLine
 10
-78.25000095961977
 20
145.9389045772123
 30
0.0
 11
-78.75000095961977
 21
145.9389045772123
 31
0.0
  0
LINE
  5
FF
330
5C
100
AcDbEntity
  8
0
  6
Continuous
 62
     7
100
AcDbLine
 10
-78.25000095961977
 20
157.9389045772125
 30
0.0
 11
-78.75000095961977
 21
157.9389045772125
 31
0.0
  0
LINE
  5
100
330
5C
100
AcDbEntity
  8
0
  6
Continuous
 62
     7
100
AcDbLine
 10
-78.25000095961978
 20
119.8610953280274
 30
0.0
 11
-78.75000095961978
 21
119.8610953280274
 31
0.0
  0
ENDBLK
  5
5E
330
5C
100
AcDbEntity
  8
0
100
AcDbBlockEnd
  0
BLOCK
  5
61
330
5F
100
AcDbEntity
  8
0
100
AcDbBlockBegin
  2
SA_Links1
 70
     0
 10
-78.50000095366431
 20
138.9000001251698
 30
0.0
  3
SA_Links1
  1

  0
INSERT
  5
60
330
5F
100
AcDbEntity
  8
0
100
AcDbBlockReference
  2
ATS-SSK_0525_110-select__4
 10
-78.75000095961978
 20
119.8610953280274
 30
0.0
  0
MTEXT
  5
101
330
5F
100
AcDbEntity
  8
1
 62
     6
100
AcDbMText
 10
-78.50000095366431
 20
112.4000000059605
 30
0.0
 40
5.0
 41
0.0
 71
     2
 72
     1
  1
 
  7
CONVERTER_11
 73
     1
 44
1.32052821128451
  0
ENDBLK
  5
62
330
5F
100
AcDbEntity
  8
0
100
AcDbBlockEnd
  0
BLOCK
  5
64
330
63
100
AcDbEntity
  8
0
100
AcDbBlockBegin
  2
ATS-SSK_0525_110-select__5
 70
     0
 10
-191.7499990403749
 20
119.8610953280274
 30
0.0
  3
ATS-SSK_0525_110-select__5
  1

  0
LINE
  5
102
330
63
100
AcDbEntity
  8
0
  6
Continuous
 62
     7
100
AcDbLine
 10
-191.7499990403749
 20
126.9125029430268
 30
0.0
 11
-191.7499990403749
 21
119.8610953280274
 31
0.0
  0
LINE
  5
103
330
63
100
AcDbEntity
  8
0
  6
Continuous
 62
     7
100
AcDbLine
 10
-191.7499990403749
 20
126.9125029430268
 30
0.0
 11
-191.7499990403749
 21
145.9389045772126
 31
0.0
  0
LINE
  5
104
330
63
100
AcDbEntity
  8
0
  6
Continuous
 62
     7
100
AcDbLine
 10
-191.7499990403749
 20
119.8610953280274
 30
0.0
 11
-191.2499990403749
 21
119.8610953280274
 31
0.0
  0
LINE
  5
105
330
63
100
AcDbEntity
  8
0
  6
Continuous
 62
     7
100
AcDbLine
 10
-191.2499990403749
 20
126.9125029430268
 30
0.0
 11
-191.2499990403749
 21
119.8610953280274
 31
0.0
  0
LINE
  5
106
330
63
100
AcDbEntity
  8
0
  6
Continuous
 62
     7
100
AcDbLine
 10
-191.2499990403749
 20
157.9389045772105
 30
0.0
 11
-191.2499990403749
 21
145.9389045772126
 31
0.0
  0
LINE
  5
107
330
63
100
AcDbEntity
  8
0
  6
Continuous
 62
     2
100
AcDbLine
 10
-191.7499990403749
 20
126.9125029430268
 30
0.0
 11
-191.2499990403749
 21
126.9125029430268
 31
0.0
  0
LINE
  5
108
330
63
100
AcDbEntity
  8
0
  6
Continuous
 62
     7
100
AcDbLine
 10
-191.2499990403749
 20
126.9125029430268
 30
0.0
 11
-191.2499990403749
 21
145.9389045772126
 31
0.0
  0
LINE
  5
109
330
63
100
AcDbEntity
  8
0
  6
Continuous
 62
     7
100
AcDbLine
 10
-191.7499990403749
 20
157.9389045772125
 30
0.0
 11
-191.7499990403749
 21
145.9389045772126
 31
0.0
  0
LINE
  5
10A
330
63
100
AcDbEntity
  8
0
  6
Continuous
 62
     7
100
AcDbLine
 10
-191.7499990403749
 20
157.9389045772125
 30
0.0
 11
-191.2499990403749
 21
157.9389045772105
 31
0.0
  0
LINE
  5
10B
330
63
100
AcDbEntity
  8
0
  6
Continuous
 62
     7
100
AcDbLine
 10
-191.7499990403749
 20
145.9389045772126
 30
0.0
 11
-191.2499990403749
 21
145.9389045772126
 31
0.0
  0
ENDBLK
  5
65
330
63
100
AcDbEntity
  8
0
100
AcDbBlockEnd
  0
BLOCK
  5
68
330
66
100
AcDbEntity
  8
0
100
AcDbBlockBegin
  2
SA_Rechts1
 70
     0
 10
-191.4999990463304
 20
138.9000001251698
 30
0.0
  3
SA_Rechts1
  1

  0
INSERT
  5
67
330
66
100
AcDbEntity
  8
0
100
AcDbBlockReference
  2
ATS-SSK_0525_110-select__5
 10
-191.7499990403749
 20
119.8610953280274
 30
0.0
  0
MTEXT
  5
10C
330
66
100
AcDbEntity
  8
1
 62
     6
100
AcDbMText
 10
-191.4999990463306
 20
112.4000000059605
 30
0.0
 40
5.0
 41
0.0
 71
     2
 72
     1
  1
 
  7
CONVERTER_11
 73
     1
 44
1.32052821128451
  0
ENDBLK
  5
69
330
66
100
AcDbEntity
  8
0
100
AcDbBlockEnd
  0
BLOCK
  5
6B
330
6A
100
AcDbEntity
  8
0
100
AcDbBlockBegin
  2
ATS-SSK_0525_110-select__6
 70
     0
 10
-166.5000005722043
 20
119.8610953280274
 30
0.0
  3
ATS-SSK_0525_110-select__6
  1

  0
LINE
  5
10D
330
6A
100
AcDbEntity
  8
0
  6
Continuous
 62
     7
100
AcDbLine
 10
-127.0000005722046
 20
126.4389045772126
 30
0.0
 11
-127.0000005722046
 21
126.9389045772126
 31
0.0
  0
LINE
  5
10E
330
6A
100
AcDbEntity
  8
0
  6
Continuous
 62
     7
100
AcDbLine
 10
-131.0000005722047
 20
126.9389045772126
 30
0.0
 11
-131.0000005722047
 21
126.4389045772126
 31
0.0
  0
LINE
  5
10F
330
6A
100
AcDbEntity
  8
0
  6
Continuous
 62
     7
100
AcDbLine
 10
-139.0000005722047
 20
126.4389045772126
 30
0.0
 11
-139.0000005722047
 21
126.9389045772126
 31
0.0
  0
LINE
  5
110
330
6A
100
AcDbEntity
  8
0
  6
Continuous
 62
     7
100
AcDbLine
 10
-147.0000005722047
 20
126.9389045772126
 30
0.0
 11
-143.0000005722047
 21
126.9389045772126
 31
0.0
  0
LINE
  5
111
330
6A
100
AcDbEntity
  8
0
  6
Continuous
 62
     7
100
AcDbLine
 10
-143.0000005722047
 20
126.9389045772126
 30
0.0
 11
-143.0000005722047
 21
126.4389045772126
 31
0.0
  0
LINE
  5
112
330
6A
100
AcDbEntity
  8
0
  6
Continuous
 62
     7
100
AcDbLine
 10
-139.0000005722047
 20
126.4389045772126
 30
0.0
 11
-143.0000005722047
 21
126.4389045772126
 31
0.0
  0
LINE
  5
113
330
6A
100
AcDbEntity
  8
0
  6
Continuous
 62
     7
100
AcDbLine
 10
-139.0000005722047
 20
126.9389045772126
 30
0.0
 11
-131.0000005722047
 21
126.9389045772126
 31
0.0
  0
LINE
  5
114
330
6A
100
AcDbEntity
  8
0
  6
Continuous
 62
     7
100
AcDbLine
 10
-127.0000005722046
 20
126.4389045772126
 30
0.0
 11
-131.0000005722047
 21
126.4389045772126
 31
0.0
  0
LINE
  5
115
330
6A
100
AcDbEntity
  8
0
  6
Continuous
 62
     7
100
AcDbLine
 10
-127.0000005722046
 20
126.9389045772126
 30
0.0
 11
-123.0000005722046
 21
126.9389045772126
 31
0.0
  0
LINE
  5
116
330
6A
100
AcDbEntity
  8
0
  6
Continuous
 62
     7
100
AcDbLine
 10
-150.5000005722047
 20
122.6321555427192
 30
0.0
 11
-147.0000005722047
 21
126.9389045772126
 31
0.0
  0
LINE
  5
117
330
6A
100
AcDbEntity
  8
0
  6
Continuous
 62
     7
100
AcDbLine
 10
-123.0000005722046
 20
126.9389045772126
 30
0.0
 11
-119.5000005722046
 21
122.6321555427192
 31
0.0
  0
LINE
  5
118
330
6A
100
AcDbEntity
  8
0
  6
Continuous
 62
     7
100
AcDbLine
 10
-166.0597951725259
 20
126.9125029430267
 30
0.0
 11
-157.5000005722048
 21
145.9389045772124
 31
0.0
  0
LINE
  5
119
330
6A
100
AcDbEntity
  8
0
  6
Continuous
 62
     7
100
AcDbLine
 10
-157.5000005722048
 20
145.9389045772124
 30
0.0
 11
-145.5000005722047
 21
157.9389045772126
 31
0.0
  0
LINE
  5
11A
330
6A
100
AcDbEntity
  8
0
  6
Continuous
 62
     7
100
AcDbLine
 10
-145.5000005722047
 20
157.9389045772126
 30
0.0
 11
-124.5000005722086
 21
157.9389045772126
 31
0.0
  0
LINE
  5
11B
330
6A
100
AcDbEntity
  8
0
  6
Continuous
 62
     7
100
AcDbLine
 10
-124.5000005722086
 20
157.9389045772126
 30
0.0
 11
-112.5000005722047
 21
145.9389045772127
 31
0.0
  0
LINE
  5
11C
330
6A
100
AcDbEntity
  8
0
  6
Continuous
 62
     7
100
AcDbLine
 10
-150.5000005722047
 20
122.6321555427192
 30
0.0
 11
-160.2059053466921
 21
120.0314661965821
 31
0.0
  0
LINE
  5
11D
330
6A
100
AcDbEntity
  8
0
  6
Continuous
 62
     7
100
AcDbLine
 10
-109.7940957977172
 20
120.0314661965821
 30
0.0
 11
-119.5000005722046
 21
122.6321555427192
 31
0.0
  0
LINE
  5
11E
330
6A
100
AcDbEntity
  8
0
  6
Continuous
 62
     7
100
AcDbLine
 10
-112.5000005722047
 20
145.9389045772127
 30
0.0
 11
-103.9402059718831
 21
126.9125029430269
 31
0.0
  0
LINE
  5
11F
330
6A
100
AcDbEntity
  8
1
  6
DOT_CENTER
 62
     2
100
AcDbLine
 10
-147.6250005722047
 20
139.8889045772124
 30
0.0
 11
-150.3750005722047
 21
139.8889045772124
 31
0.0
  0
LINE
  5
120
330
6A
100
AcDbEntity
  8
1
  6
DOT_CENTER
 62
     2
100
AcDbLine
 10
-149.0000005722047
 20
141.2639045772124
 30
0.0
 11
-149.0000005722047
 21
138.5139045772124
 31
0.0
  0
LINE
  5
121
330
6A
100
AcDbEntity
  8
1
  6
DOT_CENTER
 62
     2
100
AcDbLine
 10
-119.6250005722046
 20
139.8889045772124
 30
0.0
 11
-122.3750005722046
 21
139.8889045772124
 31
0.0
  0
LINE
  5
122
330
6A
100
AcDbEntity
  8
1
  6
DOT_CENTER
 62
     2
100
AcDbLine
 10
-121.0000005722046
 20
141.2639045772124
 30
0.0
 11
-121.0000005722046
 21
138.5139045772124
 31
0.0
  0
ARC
  5
123
330
6A
100
AcDbEntity
  8
0
  6
Continuous
 62
     7
100
AcDbCircle
 10
-108.5000005722046
 20
124.8610953280274
 30
0.0
 40
4.999999999999962
100
AcDbArc
 50
254.9999999999999
 51
24.2225208613237
  0
ARC
  5
124
330
6A
100
AcDbEntity
  8
0
  6
Continuous
 62
     7
100
AcDbCircle
 10
-161.5000005722047
 20
124.8610953280274
 30
0.0
 40
4.999999999999543
100
AcDbArc
 50
155.777479138677
 51
285.0
  0
CIRCLE
  5
125
330
6A
100
AcDbEntity
  8
0
  6
Continuous
 62
     7
100
AcDbCircle
 10
-121.0000005722046
 20
139.8889045772124
 30
0.0
 40
1.25
  0
CIRCLE
  5
126
330
6A
100
AcDbEntity
  8
0
  6
Continuous
 62
     7
100
AcDbCircle
 10
-149.0000005722047
 20
139.8889045772124
 30
0.0
 40
1.25
  0
ENDBLK
  5
6C
330
6A
100
AcDbEntity
  8
0
100
AcDbBlockEnd
  0
BLOCK
  5
6F
330
6D
100
AcDbEntity
  8
0
100
AcDbBlockBegin
  2
Vordans1
 70
     0
 10
-135.0
 20
138.9000001251698
 30
0.0
  3
Vordans1
  1

  0
INSERT
  5
6E
330
6D
100
AcDbEntity
  8
0
100
AcDbBlockReference
  2
ATS-SSK_0525_110-select__6
 10
-166.5000005722043
 20
119.8610953280274
 30
0.0
  0
INSERT
  5
130
330
6D
100
AcDbEntity
  8
1
100
AcDbBlockReference
  2
*D18
 10
0.0
 20
0.0
 30
0.0
  0
INSERT
  5
13A
330
6D
100
AcDbEntity
  8
1
100
AcDbBlockReference
  2
*D19
 10
0.0
 20
0.0
 30
0.0
  0
ENDBLK
  5
70
330
6D
100
AcDbEntity
  8
0
100
AcDbBlockEnd
  0
BLOCK
  5
72
330
71
100
AcDbEntity
  8
0
100
AcDbBlockBegin
  2
_rahmen
 70
     0
 10
63.29397887112249
 20
-6.50887558845255
 30
0.0
  3
_rahmen
  1

  0
LINE
  5
13B
330
71
100
AcDbEntity
  8
1
  6
DOT_CENTER
 62
     2
100
AcDbLine
 10
-62.26417076906492
 20
19.61612441154747
 30
0.0
 11
-56.76417076906492
 21
19.61612441154747
 31
0.0
  0
LINE
  5
13C
330
71
100
AcDbEntity
  8
1
  6
PHANTOM
 62
     2
100
AcDbLine
 10
-53.51417076906492
 20
22.36612441154747
 30
0.0
 11
-53.51417076906492
 21
16.86612441154747
 31
0.0
  0
LINE
  5
13D
330
71
100
AcDbEntity
  8
1
  6
PHANTOM
 62
     2
100
AcDbLine
 10
-50.76417076906492
 20
19.61612441154747
 30
0.0
 11
-56.26417076906492
 21
19.61612441154747
 31
0.0
  0
LINE
  5
13E
330
71
100
AcDbEntity
  8
1
  6
Continuous
 62
     7
100
AcDbLine
 10
-1.95082565562751
 20
6.99112441154747
 30
0.0
 11
-1.95082565562751
 21
15.49112441154756
 31
0.0
  0
LINE
  5
13F
330
71
100
AcDbEntity
  8
1
  6
Continuous
 62
     6
100
AcDbLine
 10
-29.8508256556276
 20
15.49112441154756
 30
0.0
 11
63.29397887112418
 21
15.49112441154756
 31
0.0
  0
LINE
  5
140
330
71
100
AcDbEntity
  8
1
  6
Continuous
 62
     7
100
AcDbLine
 10
-66.25082565562752
 20
15.49112441154756
 30
0.0
 11
-66.25082565562752
 21
23.99112441154756
 31
0.0
  0
LINE
  5
141
330
71
100
AcDbEntity
  8
1
  6
Continuous
 62
     7
100
AcDbLine
 10
-29.8508256556276
 20
15.49112441154756
 30
0.0
 11
-29.8508256556276
 21
23.99112441154756
 31
0.0
  0
LINE
  5
142
330
71
100
AcDbEntity
  8
1
  6
Continuous
 62
     7
100
AcDbLine
 10
27.87557058944537
 20
23.99112441154756
 30
0.0
 11
27.87557058944537
 21
15.49112441154756
 31
0.0
  0
LINE
  5
143
330
71
100
AcDbEntity
  8
1
  6
Continuous
 62
     7
100
AcDbLine
 10
54.37557058944498
 20
23.99112441154756
 30
0.0
 11
54.37557058944498
 21
15.49112441154756
 31
0.0
  0
LINE
  5
144
330
71
100
AcDbEntity
  8
1
  6
Continuous
 62
     6
100
AcDbLine
 10
-135.2508256556275
 20
-1.50887558845244
 30
0.0
 11
-180.2060211288775
 21
-1.50887558845244
 31
0.0
  0
LINE
  5
145
330
71
100
AcDbEntity
  8
1
  6
Continuous
 62
     7
100
AcDbLine
 10
63.29397887112378
 20
6.99112441154756
 30
0.0
 11
-29.8508256556276
 21
6.99112441154756
 31
0.0
  0
LINE
  5
146
102
{ACAD_REACTORS
330
258
330
259
102
}
330
71
100
AcDbEntity
  8
0
  6
Continuous
 62
     2
100
AcDbLine
 10
-52.54339671386012
 20
7.79141352721086
 30
0.0
 11
-52.54339671386012
 21
8.66393053401416
 31
0.0
  0
LINE
  5
147
102
{ACAD_REACTORS
330
258
330
259
102
}
330
71
100
AcDbEntity
  8
0
  6
Continuous
 62
     2
100
AcDbLine
 10
-52.54339671386012
 20
6.83164481972796
 30
0.0
 11
-52.54339671386012
 21
5.95912781292475
 31
0.0
  0
LINE
  5
148
102
{ACAD_REACTORS
330
25A
330
25B
102
}
330
71
100
AcDbEntity
  8
0
  6
Continuous
 62
     2
100
AcDbLine
 10
-37.21035257756961
 20
8.05316862925136
 30
0.0
 11
-36.10671327800151
 21
8.05316862925136
 31
0.0
  0
LINE
  5
149
102
{ACAD_REACTORS
330
25A
330
25B
102
}
330
71
100
AcDbEntity
  8
0
  6
Continuous
 62
     2
100
AcDbLine
 10
-36.4406952346082
 20
6.83164481972747
 30
0.0
 11
-36.4406952346082
 21
5.95912781292415
 31
0.0
  0
LINE
  5
14A
102
{ACAD_REACTORS
330
264
330
265
102
}
330
71
100
AcDbEntity
  8
0
  6
Continuous
 62
     2
100
AcDbLine
 10
-38.30145184998813
 20
9.14381488773816
 30
0.0
 11
-36.90349880304783
 21
10.72467388151316
 31
0.0
  0
LINE
  5
14B
102
{ACAD_REACTORS
330
264
330
265
102
}
330
71
100
AcDbEntity
  8
0
  6
Continuous
 62
     2
100
AcDbLine
 10
-38.20602843381531
 20
12.19762441154936
 30
0.0
 11
-36.90349880304783
 21
10.72467388151316
 31
0.0
  0
LINE
  5
14C
102
{ACAD_REACTORS
330
264
330
265
102
}
330
71
100
AcDbEntity
  8
0
  6
Continuous
 62
     2
100
AcDbLine
 10
-35.60096917228142
 20
12.19762441154936
 30
0.0
 11
-34.1982449545342
 21
12.19762441154936
 31
0.0
  0
LINE
  5
14D
102
{ACAD_REACTORS
330
264
330
265
102
}
330
71
100
AcDbEntity
  8
0
  6
Continuous
 62
     2
100
AcDbLine
 10
-36.89872763223991
 20
9.14381488773816
 30
0.0
 11
-36.20213669417421
 21
9.93154667303187
 31
0.0
  0
LINE
  5
14E
102
{ACAD_REACTORS
330
264
330
265
102
}
330
71
100
AcDbEntity
  8
0
  6
Continuous
 62
     2
100
AcDbLine
 10
-36.89872763223991
 20
9.14381488773816
 30
0.0
 11
-38.30145184998813
 21
9.14381488773816
 31
0.0
  0
LINE
  5
14F
102
{ACAD_REACTORS
330
266
330
267
102
}
330
71
100
AcDbEntity
  8
0
  6
Continuous
 62
     2
100
AcDbLine
 10
-38.42073112020501
 20
9.14381488773816
 30
0.0
 11
-39.6612355304579
 21
9.14381488773816
 31
0.0
  0
LINE
  5
150
102
{ACAD_REACTORS
330
268
330
269
102
}
330
71
100
AcDbEntity
  8
0
  6
Continuous
 62
     2
100
AcDbLine
 10
-40.52921513861301
 20
7.00614822108835
 30
0.0
 11
-40.82938037580311
 21
7.77396318707505
 31
0.0
  0
LINE
  5
151
102
{ACAD_REACTORS
330
268
330
269
102
}
330
71
100
AcDbEntity
  8
0
  6
Continuous
 62
     2
100
AcDbLine
 10
-41.12954561299551
 20
7.00614822108835
 30
0.0
 11
-40.52921513861301
 21
7.00614822108835
 31
0.0
  0
LINE
  5
152
102
{ACAD_REACTORS
330
268
330
269
102
}
330
71
100
AcDbEntity
  8
0
  6
Continuous
 62
     2
100
AcDbLine
 10
-42.84758562786931
 20
5.78462441156387
 30
0.0
 11
-41.60708121761633
 21
5.78462441156387
 31
0.0
  0
LINE
  5
153
102
{ACAD_REACTORS
330
268
330
269
102
}
330
71
100
AcDbEntity
  8
0
  6
Continuous
 62
     2
100
AcDbLine
 10
-41.44963258093
 20
8.83843393537495
 30
0.0
 11
-40.2091281706773
 21
8.83843393537495
 31
0.0
  0
LINE
  5
154
102
{ACAD_REACTORS
330
268
330
269
102
}
330
71
100
AcDbEntity
  8
0
  6
Continuous
 62
     2
100
AcDbLine
 10
-40.2091281706773
 20
8.83843393537495
 30
0.0
 11
-38.811175123737
 21
5.78462441156387
 31
0.0
  0
LINE
  5
155
102
{ACAD_REACTORS
330
268
330
269
102
}
330
71
100
AcDbEntity
  8
0
  6
Continuous
 62
     2
100
AcDbLine
 10
-40.05167953399092
 20
5.78462441156387
 30
0.0
 11
-40.2631595874667
 21
6.32558495578175
 31
0.0
  0
LINE
  5
156
102
{ACAD_REACTORS
330
26A
330
26B
102
}
330
71
100
AcDbEntity
  8
0
  6
Continuous
 62
     2
100
AcDbLine
 10
-44.19399872957692
 20
5.78462441156387
 30
0.0
 11
-43.0012060274104
 21
5.78462441156387
 31
0.0
  0
LINE
  5
157
102
{ACAD_REACTORS
330
26A
330
26B
102
}
330
71
100
AcDbEntity
  8
0
  6
Continuous
 62
     2
100
AcDbLine
 10
-44.19399872957692
 20
8.05316862925136
 30
0.0
 11
-44.19399872957692
 21
5.78462441156387
 31
0.0
  0
LINE
  5
158
102
{ACAD_REACTORS
330
26A
330
26B
102
}
330
71
100
AcDbEntity
  8
0
  6
Continuous
 62
     2
100
AcDbLine
 10
-45.00509776705152
 20
8.83843393537495
 30
0.0
 11
-45.00509776705152
 21
8.05316862925136
 31
0.0
  0
LINE
  5
159
102
{ACAD_REACTORS
330
26C
330
26D
102
}
330
71
100
AcDbEntity
  8
0
  6
Continuous
 62
     2
100
AcDbLine
 10
-43.52588388547892
 20
9.14381488773816
 30
0.0
 11
-42.33309118331241
 21
9.14381488773816
 31
0.0
  0
LINE
  5
15A
102
{ACAD_REACTORS
330
26C
330
26D
102
}
330
71
100
AcDbEntity
  8
0
  6
Continuous
 62
     2
100
AcDbLine
 10
-41.0925867730584
 20
10.88884890134418
 30
0.0
 11
-42.33309118331241
 21
12.19762441154936
 31
0.0
  0
LINE
  5
15B
102
{ACAD_REACTORS
330
26C
330
26D
102
}
330
71
100
AcDbEntity
  8
0
  6
Continuous
 62
     2
100
AcDbLine
 10
-39.8997940708918
 20
12.19762441154936
 30
0.0
 11
-41.0925867730584
 21
12.19762441154936
 31
0.0
  0
LINE
  5
15C
102
{ACAD_REACTORS
330
26C
330
26D
102
}
330
71
100
AcDbEntity
  8
0
  6
Continuous
 62
     2
100
AcDbLine
 10
-39.8997940708918
 20
9.14381488773816
 30
0.0
 11
-39.8997940708918
 21
12.19762441154936
 31
0.0
  0
LINE
  5
15D
102
{ACAD_REACTORS
330
26C
330
26D
102
}
330
71
100
AcDbEntity
  8
0
  6
Continuous
 62
     2
100
AcDbLine
 10
-41.0925867730584
 20
9.14381488773816
 30
0.0
 11
-39.8997940708918
 21
9.14381488773816
 31
0.0
  0
LINE
  5
15E
102
{ACAD_REACTORS
330
26C
330
26D
102
}
330
71
100
AcDbEntity
  8
0
  6
Continuous
 62
     2
100
AcDbLine
 10
-42.33309118331241
 20
10.45259039794286
 30
0.0
 11
-41.0925867730584
 21
9.14381488773816
 31
0.0
  0
LINE
  5
15F
102
{ACAD_REACTORS
330
26E
330
26F
102
}
330
71
100
AcDbEntity
  8
0
  6
Continuous
 62
     2
100
AcDbLine
 10
-46.34102559347812
 20
7.52965842516986
 30
0.0
 11
-47.58153000373102
 21
8.83843393537495
 31
0.0
  0
LINE
  5
160
102
{ACAD_REACTORS
330
26E
330
26F
102
}
330
71
100
AcDbEntity
  8
0
  6
Continuous
 62
     2
100
AcDbLine
 10
-46.34102559347812
 20
8.83843393537495
 30
0.0
 11
-46.34102559347812
 21
7.52965842516986
 31
0.0
  0
LINE
  5
161
102
{ACAD_REACTORS
330
26E
330
26F
102
}
330
71
100
AcDbEntity
  8
0
  6
Continuous
 62
     2
100
AcDbLine
 10
-45.14823289131172
 20
8.83843393537495
 30
0.0
 11
-46.34102559347812
 21
8.83843393537495
 31
0.0
  0
LINE
  5
162
102
{ACAD_REACTORS
330
26E
330
26F
102
}
330
71
100
AcDbEntity
  8
0
  6
Continuous
 62
     2
100
AcDbLine
 10
-45.14823289131172
 20
5.78462441156387
 30
0.0
 11
-45.14823289131172
 21
8.83843393537495
 31
0.0
  0
LINE
  5
163
102
{ACAD_REACTORS
330
26E
330
26F
102
}
330
71
100
AcDbEntity
  8
0
  6
Continuous
 62
     2
100
AcDbLine
 10
-47.58153000373102
 20
7.09339992176845
 30
0.0
 11
-46.34102559347812
 21
5.78462441156387
 31
0.0
  0
LINE
  5
164
102
{ACAD_REACTORS
330
26E
330
26F
102
}
330
71
100
AcDbEntity
  8
0
  6
Continuous
 62
     2
100
AcDbLine
 10
-47.58153000373102
 20
5.78462441156387
 30
0.0
 11
-47.58153000373102
 21
7.09339992176845
 31
0.0
  0
LINE
  5
165
102
{ACAD_REACTORS
330
25E
330
25F
102
}
330
71
100
AcDbEntity
  8
0
  6
Continuous
 62
     2
100
AcDbLine
 10
-45.1003702523395
 20
11.49961080610638
 30
0.0
 11
-43.76444242591182
 21
11.49961080610638
 31
0.0
  0
LINE
  5
166
102
{ACAD_REACTORS
330
25E
330
25F
102
}
330
71
100
AcDbEntity
  8
0
  6
Continuous
 62
     2
100
AcDbLine
 10
-45.1003702523395
 20
9.84182849318066
 30
0.0
 11
-45.1003702523395
 21
10.32171284692237
 31
0.0
  0
LINE
  5
167
102
{ACAD_REACTORS
330
25E
330
25F
102
}
330
71
100
AcDbEntity
  8
0
  6
Continuous
 62
     2
100
AcDbLine
 10
-43.76444242591182
 20
9.84182849318066
 30
0.0
 11
-45.1003702523395
 21
9.84182849318066
 31
0.0
  0
LINE
  5
168
102
{ACAD_REACTORS
330
25E
330
25F
102
}
330
71
100
AcDbEntity
  8
0
  6
Continuous
 62
     2
100
AcDbLine
 10
-43.76444242591182
 20
9.14381488773816
 30
0.0
 11
-43.76444242591182
 21
9.84182849318066
 31
0.0
  0
LINE
  5
169
102
{ACAD_REACTORS
330
25E
330
25F
102
}
330
71
100
AcDbEntity
  8
0
  6
Continuous
 62
     2
100
AcDbLine
 10
-46.91476214969282
 20
9.14381488773816
 30
0.0
 11
-43.76444242591182
 21
9.14381488773816
 31
0.0
  0
LINE
  5
16A
102
{ACAD_REACTORS
330
25E
330
25F
102
}
330
71
100
AcDbEntity
  8
0
  6
Continuous
 62
     2
100
AcDbLine
 10
-46.91476214969282
 20
12.19762441154936
 30
0.0
 11
-43.76444242591182
 21
12.19762441154936
 31
0.0
  0
LINE
  5
16B
102
{ACAD_REACTORS
330
25E
330
25F
102
}
330
71
100
AcDbEntity
  8
0
  6
Continuous
 62
     2
100
AcDbLine
 10
-43.76444242591182
 20
11.49961080610638
 30
0.0
 11
-43.76444242591182
 21
12.19762441154936
 31
0.0
  0
LINE
  5
16C
102
{ACAD_REACTORS
330
270
330
271
102
}
330
71
100
AcDbEntity
  8
0
  6
Continuous
 62
     2
100
AcDbLine
 10
-49.77611764483282
 20
11.12879107821476
 30
0.0
 11
-49.77611764483282
 21
12.19762441154936
 31
0.0
  0
LINE
  5
16D
102
{ACAD_REACTORS
330
270
330
271
102
}
330
71
100
AcDbEntity
  8
0
  6
Continuous
 62
     2
100
AcDbLine
 10
-49.77611764483282
 20
12.19762441154936
 30
0.0
 11
-48.58332494266642
 21
12.19762441154936
 31
0.0
  0
LINE
  5
16E
102
{ACAD_REACTORS
330
270
330
271
102
}
330
71
100
AcDbEntity
  8
0
  6
Continuous
 62
     2
100
AcDbLine
 10
-49.77611764483282
 20
10.27808699658198
 30
0.0
 11
-50.82577522274031
 21
10.27808699658198
 31
0.0
  0
LINE
  5
16F
102
{ACAD_REACTORS
330
270
330
271
102
}
330
71
100
AcDbEntity
  8
0
  6
Continuous
 62
     2
100
AcDbLine
 10
-50.82577522274031
 20
10.27808699658198
 30
0.0
 11
-50.82577522274031
 21
9.14381488773816
 31
0.0
  0
LINE
  5
170
102
{ACAD_REACTORS
330
270
330
271
102
}
330
71
100
AcDbEntity
  8
0
  6
Continuous
 62
     2
100
AcDbLine
 10
-52.0185679249069
 20
12.19762441154936
 30
0.0
 11
-52.0185679249069
 21
9.14381488773816
 31
0.0
  0
LINE
  5
171
102
{ACAD_REACTORS
330
262
330
263
102
}
330
71
100
AcDbEntity
  8
0
  6
Continuous
 62
     2
100
AcDbLine
 10
-53.9747479564605
 20
10.82879091676705
 30
0.0
 11
-53.9747479564605
 21
11.53451856610926
 31
0.0
  0
LINE
  5
172
102
{ACAD_REACTORS
330
262
330
263
102
}
330
71
100
AcDbEntity
  8
0
  6
Continuous
 62
     2
100
AcDbLine
 10
-55.21525236671462
 20
9.14381488773816
 30
0.0
 11
-53.9747479564605
 21
9.14381488773816
 31
0.0
  0
LINE
  5
173
102
{ACAD_REACTORS
330
262
330
263
102
}
330
71
100
AcDbEntity
  8
0
  6
Continuous
 62
     2
100
AcDbLine
 10
-53.9747479564605
 20
9.14381488773816
 30
0.0
 11
-53.9747479564605
 21
10.08689312888197
 31
0.0
  0
LINE
  5
174
102
{ACAD_REACTORS
330
25C
330
25D
102
}
330
71
100
AcDbEntity
  8
0
  6
Continuous
 62
     2
100
AcDbLine
 10
-59.520198215926
 20
6.49717996712076
 30
0.0
 11
-60.99603147693563
 21
6.49717996712076
 31
0.0
  0
LINE
  5
175
102
{ACAD_REACTORS
330
25C
330
25D
102
}
330
71
100
AcDbEntity
  8
0
  6
Continuous
 62
     2
100
AcDbLine
 10
-62.01417076906492
 20
11.77337979614737
 30
0.0
 11
-62.01417076906492
 21
6.20886902694716
 31
0.0
  0
LINE
  5
176
102
{ACAD_REACTORS
330
25C
330
25D
102
}
330
71
100
AcDbEntity
  8
0
  6
Continuous
 62
     2
100
AcDbLine
 10
-61.58992615368211
 20
12.19762441153117
 30
0.0
 11
-56.11661406296531
 21
12.19762441153117
 31
0.0
  0
LINE
  5
177
102
{ACAD_REACTORS
330
25C
330
25D
102
}
330
71
100
AcDbEntity
  8
0
  6
Continuous
 62
     2
100
AcDbLine
 10
-55.69236944758143
 20
11.77337979614737
 30
0.0
 11
-55.69236944758143
 21
6.20886902694716
 31
0.0
  0
LINE
  5
178
102
{ACAD_REACTORS
330
25C
330
25D
102
}
330
71
100
AcDbEntity
  8
0
  6
Continuous
 62
     2
100
AcDbLine
 10
-56.11661406296531
 20
5.78462441156387
 30
0.0
 11
-61.58992615368211
 21
5.78462441156387
 31
0.0
  0
LINE
  5
179
102
{ACAD_REACTORS
330
25C
330
25D
102
}
330
71
100
AcDbEntity
  8
0
  6
Continuous
 62
     2
100
AcDbLine
 10
-59.20448129284941
 20
6.81289689019747
 30
0.0
 11
-59.20448129284941
 21
8.34366782172907
 31
0.0
  0
LINE
  5
17A
102
{ACAD_REACTORS
330
25C
330
25D
102
}
330
71
100
AcDbEntity
  8
0
  6
Continuous
 62
     2
100
AcDbLine
 10
-59.20448129284941
 20
10.56532731385406
 30
0.0
 11
-59.20448129284941
 21
11.16935193291457
 31
0.0
  0
LINE
  5
17B
102
{ACAD_REACTORS
330
25C
330
25D
102
}
330
71
100
AcDbEntity
  8
0
  6
Continuous
 62
     2
100
AcDbLine
 10
-60.99603147693563
 20
11.48506885599076
 30
0.0
 11
-59.520198215926
 21
11.48506885599076
 31
0.0
  0
LINE
  5
17C
102
{ACAD_REACTORS
330
25C
330
25D
102
}
330
71
100
AcDbEntity
  8
0
  6
Continuous
 62
     2
100
AcDbLine
 10
-61.31174840001131
 20
11.16935193291457
 30
0.0
 11
-61.31174840001131
 21
6.81289689019747
 31
0.0
  0
LINE
  5
17D
102
{ACAD_REACTORS
330
262
330
263
102
}
330
71
100
AcDbEntity
  8
0
  6
Continuous
 62
     2
100
AcDbLine
 10
-53.9747479564605
 20
10.08689312888197
 30
0.0
 11
-53.21598036868022
 21
10.08689312888197
 31
0.0
  0
LINE
  5
17E
102
{ACAD_REACTORS
330
262
330
263
102
}
330
71
100
AcDbEntity
  8
0
  6
Continuous
 62
     2
100
AcDbLine
 10
-55.21525236671462
 20
12.19762441154936
 30
0.0
 11
-53.21598036868022
 21
12.19762441154936
 31
0.0
  0
LINE
  5
17F
102
{ACAD_REACTORS
330
262
330
263
102
}
330
71
100
AcDbEntity
  8
0
  6
Continuous
 62
     2
100
AcDbLine
 10
-55.21525236671462
 20
12.19762441154936
 30
0.0
 11
-55.21525236671462
 21
9.14381488773816
 31
0.0
  0
LINE
  5
180
102
{ACAD_REACTORS
330
262
330
263
102
}
330
71
100
AcDbEntity
  8
0
  6
Continuous
 62
     2
100
AcDbLine
 10
-53.9747479564605
 20
10.82879091676705
 30
0.0
 11
-53.65745289491861
 21
10.82879091676705
 31
0.0
  0
LINE
  5
181
102
{ACAD_REACTORS
330
262
330
263
102
}
330
71
100
AcDbEntity
  8
0
  6
Continuous
 62
     2
100
AcDbLine
 10
-53.9747479564605
 20
11.53451856610926
 30
0.0
 11
-53.65745289491861
 21
11.53451856610926
 31
0.0
  0
LINE
  5
182
102
{ACAD_REACTORS
330
270
330
271
102
}
330
71
100
AcDbEntity
  8
0
  6
Continuous
 62
     2
100
AcDbLine
 10
-50.82577522274031
 20
11.12879107821476
 30
0.0
 11
-49.77611764483282
 21
11.12879107821476
 31
0.0
  0
LINE
  5
183
102
{ACAD_REACTORS
330
270
330
271
102
}
330
71
100
AcDbEntity
  8
0
  6
Continuous
 62
     2
100
AcDbLine
 10
-50.82577522274031
 20
12.19762441154936
 30
0.0
 11
-50.82577522274031
 21
11.12879107821476
 31
0.0
  0
LINE
  5
184
102
{ACAD_REACTORS
330
270
330
271
102
}
330
71
100
AcDbEntity
  8
0
  6
Continuous
 62
     2
100
AcDbLine
 10
-52.0185679249069
 20
12.19762441154936
 30
0.0
 11
-50.82577522274031
 21
12.19762441154936
 31
0.0
  0
LINE
  5
185
102
{ACAD_REACTORS
330
270
330
271
102
}
330
71
100
AcDbEntity
  8
0
  6
Continuous
 62
     2
100
AcDbLine
 10
-50.82577522274031
 20
9.14381488773816
 30
0.0
 11
-52.0185679249069
 21
9.14381488773816
 31
0.0
  0
LINE
  5
186
102
{ACAD_REACTORS
330
270
330
271
102
}
330
71
100
AcDbEntity
  8
0
  6
Continuous
 62
     2
100
AcDbLine
 10
-49.77611764483282
 20
9.14381488773816
 30
0.0
 11
-49.77611764483282
 21
10.27808699658198
 31
0.0
  0
LINE
  5
187
102
{ACAD_REACTORS
330
270
330
271
102
}
330
71
100
AcDbEntity
  8
0
  6
Continuous
 62
     2
100
AcDbLine
 10
-48.58332494266642
 20
9.14381488773816
 30
0.0
 11
-49.77611764483282
 21
9.14381488773816
 31
0.0
  0
LINE
  5
188
102
{ACAD_REACTORS
330
270
330
271
102
}
330
71
100
AcDbEntity
  8
0
  6
Continuous
 62
     2
100
AcDbLine
 10
-48.58332494266642
 20
12.19762441154936
 30
0.0
 11
-48.58332494266642
 21
9.14381488773816
 31
0.0
  0
LINE
  5
189
102
{ACAD_REACTORS
330
25E
330
25F
102
}
330
71
100
AcDbEntity
  8
0
  6
Continuous
 62
     2
100
AcDbLine
 10
-45.1003702523395
 20
10.32171284692237
 30
0.0
 11
-43.76444242591182
 21
10.32171284692237
 31
0.0
  0
LINE
  5
18A
102
{ACAD_REACTORS
330
25E
330
25F
102
}
330
71
100
AcDbEntity
  8
0
  6
Continuous
 62
     2
100
AcDbLine
 10
-43.76444242591182
 20
10.32171284692237
 30
0.0
 11
-43.76444242591182
 21
11.01972645236467
 31
0.0
  0
LINE
  5
18B
102
{ACAD_REACTORS
330
25E
330
25F
102
}
330
71
100
AcDbEntity
  8
0
  6
Continuous
 62
     2
100
AcDbLine
 10
-43.76444242591182
 20
11.01972645236467
 30
0.0
 11
-45.1003702523395
 21
11.01972645236467
 31
0.0
  0
LINE
  5
18C
102
{ACAD_REACTORS
330
25E
330
25F
102
}
330
71
100
AcDbEntity
  8
0
  6
Continuous
 62
     2
100
AcDbLine
 10
-45.1003702523395
 20
11.01972645236467
 30
0.0
 11
-45.1003702523395
 21
11.49961080610638
 31
0.0
  0
LINE
  5
18D
102
{ACAD_REACTORS
330
26E
330
26F
102
}
330
71
100
AcDbEntity
  8
0
  6
Continuous
 62
     2
100
AcDbLine
 10
-48.77432270589861
 20
5.78462441156387
 30
0.0
 11
-47.58153000373102
 21
5.78462441156387
 31
0.0
  0
LINE
  5
18E
102
{ACAD_REACTORS
330
26E
330
26F
102
}
330
71
100
AcDbEntity
  8
0
  6
Continuous
 62
     2
100
AcDbLine
 10
-46.34102559347812
 20
5.78462441156387
 30
0.0
 11
-45.14823289131172
 21
5.78462441156387
 31
0.0
  0
LINE
  5
18F
102
{ACAD_REACTORS
330
26E
330
26F
102
}
330
71
100
AcDbEntity
  8
0
  6
Continuous
 62
     2
100
AcDbLine
 10
-47.58153000373102
 20
8.83843393537495
 30
0.0
 11
-48.77432270589861
 21
8.83843393537495
 31
0.0
  0
LINE
  5
190
102
{ACAD_REACTORS
330
26E
330
26F
102
}
330
71
100
AcDbEntity
  8
0
  6
Continuous
 62
     2
100
AcDbLine
 10
-48.77432270589861
 20
8.83843393537495
 30
0.0
 11
-48.77432270589861
 21
5.78462441156387
 31
0.0
  0
LINE
  5
191
102
{ACAD_REACTORS
330
26C
330
26D
102
}
330
71
100
AcDbEntity
  8
0
  6
Continuous
 62
     2
100
AcDbLine
 10
-41.0925867730584
 20
12.19762441154936
 30
0.0
 11
-41.0925867730584
 21
10.88884890134418
 31
0.0
  0
LINE
  5
192
102
{ACAD_REACTORS
330
26C
330
26D
102
}
330
71
100
AcDbEntity
  8
0
  6
Continuous
 62
     2
100
AcDbLine
 10
-42.33309118331241
 20
12.19762441154936
 30
0.0
 11
-43.52588388547892
 21
12.19762441154936
 31
0.0
  0
LINE
  5
193
102
{ACAD_REACTORS
330
26C
330
26D
102
}
330
71
100
AcDbEntity
  8
0
  6
Continuous
 62
     2
100
AcDbLine
 10
-43.52588388547892
 20
12.19762441154936
 30
0.0
 11
-43.52588388547892
 21
9.14381488773816
 31
0.0
  0
LINE
  5
194
102
{ACAD_REACTORS
330
26C
330
26D
102
}
330
71
100
AcDbEntity
  8
0
  6
Continuous
 62
     2
100
AcDbLine
 10
-42.33309118331241
 20
9.14381488773816
 30
0.0
 11
-42.33309118331241
 21
10.45259039794286
 31
0.0
  0
LINE
  5
195
102
{ACAD_REACTORS
330
26A
330
26B
102
}
330
71
100
AcDbEntity
  8
0
  6
Continuous
 62
     2
100
AcDbLine
 10
-43.0012060274104
 20
5.78462441156387
 30
0.0
 11
-43.0012060274104
 21
8.05316862925136
 31
0.0
  0
LINE
  5
196
102
{ACAD_REACTORS
330
26A
330
26B
102
}
330
71
100
AcDbEntity
  8
0
  6
Continuous
 62
     2
100
AcDbLine
 10
-43.0012060274104
 20
8.05316862925136
 30
0.0
 11
-42.1901069899379
 21
8.05316862925136
 31
0.0
  0
LINE
  5
197
102
{ACAD_REACTORS
330
26A
330
26B
102
}
330
71
100
AcDbEntity
  8
0
  6
Continuous
 62
     2
100
AcDbLine
 10
-42.1901069899379
 20
8.05316862925136
 30
0.0
 11
-42.1901069899379
 21
8.83843393537495
 31
0.0
  0
LINE
  5
198
102
{ACAD_REACTORS
330
26A
330
26B
102
}
330
71
100
AcDbEntity
  8
0
  6
Continuous
 62
     2
100
AcDbLine
 10
-42.1901069899379
 20
8.83843393537495
 30
0.0
 11
-45.00509776705152
 21
8.83843393537495
 31
0.0
  0
LINE
  5
199
102
{ACAD_REACTORS
330
26A
330
26B
102
}
330
71
100
AcDbEntity
  8
0
  6
Continuous
 62
     2
100
AcDbLine
 10
-45.00509776705152
 20
8.05316862925136
 30
0.0
 11
-44.19399872957692
 21
8.05316862925136
 31
0.0
  0
LINE
  5
19A
102
{ACAD_REACTORS
330
268
330
269
102
}
330
71
100
AcDbEntity
  8
0
  6
Continuous
 62
     2
100
AcDbLine
 10
-41.39560116414052
 20
6.32558495578175
 30
0.0
 11
-40.2631595874667
 21
6.32558495578175
 31
0.0
  0
LINE
  5
19B
102
{ACAD_REACTORS
330
268
330
269
102
}
330
71
100
AcDbEntity
  8
0
  6
Continuous
 62
     2
100
AcDbLine
 10
-38.811175123737
 20
5.78462441156387
 30
0.0
 11
-40.05167953399092
 21
5.78462441156387
 31
0.0
  0
LINE
  5
19C
102
{ACAD_REACTORS
330
268
330
269
102
}
330
71
100
AcDbEntity
  8
0
  6
Continuous
 62
     2
100
AcDbLine
 10
-41.44963258093
 20
8.83843393537495
 30
0.0
 11
-42.84758562786931
 21
5.78462441156387
 31
0.0
  0
LINE
  5
19D
102
{ACAD_REACTORS
330
268
330
269
102
}
330
71
100
AcDbEntity
  8
0
  6
Continuous
 62
     2
100
AcDbLine
 10
-41.60708121761633
 20
5.78462441156387
 30
0.0
 11
-41.39560116414052
 21
6.32558495578175
 31
0.0
  0
LINE
  5
19E
102
{ACAD_REACTORS
330
268
330
269
102
}
330
71
100
AcDbEntity
  8
0
  6
Continuous
 62
     2
100
AcDbLine
 10
-41.12954561299551
 20
7.00614822108835
 30
0.0
 11
-40.82938037580311
 21
7.77396318707505
 31
0.0
  0
LINE
  5
19F
102
{ACAD_REACTORS
330
266
330
267
102
}
330
71
100
AcDbEntity
  8
0
  6
Continuous
 62
     2
100
AcDbLine
 10
-39.6612355304579
 20
9.14381488773816
 30
0.0
 11
-39.6612355304579
 21
12.19762441154936
 31
0.0
  0
LINE
  5
1A0
102
{ACAD_REACTORS
330
266
330
267
102
}
330
71
100
AcDbEntity
  8
0
  6
Continuous
 62
     2
100
AcDbLine
 10
-38.42073112020501
 20
12.19762441154936
 30
0.0
 11
-38.42073112020501
 21
9.14381488773816
 31
0.0
  0
LINE
  5
1A1
102
{ACAD_REACTORS
330
266
330
267
102
}
330
71
100
AcDbEntity
  8
0
  6
Continuous
 62
     2
100
AcDbLine
 10
-39.6612355304579
 20
12.19762441154936
 30
0.0
 11
-38.42073112020501
 21
12.19762441154936
 31
0.0
  0
LINE
  5
1A2
102
{ACAD_REACTORS
330
264
330
265
102
}
330
71
100
AcDbEntity
  8
0
  6
Continuous
 62
     2
100
AcDbLine
 10
-36.20213669417421
 20
9.93154667303187
 30
0.0
 11
-35.50554575610872
 21
9.14381488773816
 31
0.0
  0
LINE
  5
1A3
102
{ACAD_REACTORS
330
264
330
265
102
}
330
71
100
AcDbEntity
  8
0
  6
Continuous
 62
     2
100
AcDbLine
 10
-35.50554575610872
 20
9.14381488773816
 30
0.0
 11
-34.10282153836042
 21
9.14381488773816
 31
0.0
  0
LINE
  5
1A4
102
{ACAD_REACTORS
330
264
330
265
102
}
330
71
100
AcDbEntity
  8
0
  6
Continuous
 62
     2
100
AcDbLine
 10
-35.50077458530072
 20
10.72467388151316
 30
0.0
 11
-34.10282153836042
 21
9.14381488773816
 31
0.0
  0
LINE
  5
1A5
102
{ACAD_REACTORS
330
264
330
265
102
}
330
71
100
AcDbEntity
  8
0
  6
Continuous
 62
     2
100
AcDbLine
 10
-35.50077458530072
 20
10.72467388151316
 30
0.0
 11
-34.1982449545342
 21
12.19762441154936
 31
0.0
  0
LINE
  5
1A6
102
{ACAD_REACTORS
330
264
330
265
102
}
330
71
100
AcDbEntity
  8
0
  6
Continuous
 62
     2
100
AcDbLine
 10
-36.20213669417421
 20
11.51780108999387
 30
0.0
 11
-35.60096917228142
 21
12.19762441154936
 31
0.0
  0
LINE
  5
1A7
102
{ACAD_REACTORS
330
264
330
265
102
}
330
71
100
AcDbEntity
  8
0
  6
Continuous
 62
     2
100
AcDbLine
 10
-36.80330421606601
 20
12.19762441154936
 30
0.0
 11
-36.20213669417421
 21
11.51780108999387
 31
0.0
  0
LINE
  5
1A8
102
{ACAD_REACTORS
330
264
330
265
102
}
330
71
100
AcDbEntity
  8
0
  6
Continuous
 62
     2
100
AcDbLine
 10
-36.80330421606601
 20
12.19762441154936
 30
0.0
 11
-38.20602843381531
 21
12.19762441154936
 31
0.0
  0
LINE
  5
1A9
102
{ACAD_REACTORS
330
25A
330
25B
102
}
330
71
100
AcDbEntity
  8
0
  6
Continuous
 62
     2
100
AcDbLine
 10
-36.10671327800151
 20
5.78462441156387
 30
0.0
 11
-34.9139205758338
 21
5.78462441156387
 31
0.0
  0
LINE
  5
1AA
102
{ACAD_REACTORS
330
25A
330
25B
102
}
330
71
100
AcDbEntity
  8
0
  6
Continuous
 62
     2
100
AcDbLine
 10
-34.9139205758338
 20
5.78462441156387
 30
0.0
 11
-34.9139205758338
 21
8.05316862925136
 31
0.0
  0
LINE
  5
1AB
102
{ACAD_REACTORS
330
25A
330
25B
102
}
330
71
100
AcDbEntity
  8
0
  6
Continuous
 62
     2
100
AcDbLine
 10
-34.9139205758338
 20
8.05316862925136
 30
0.0
 11
-34.10282153836042
 21
8.05316862925136
 31
0.0
  0
LINE
  5
1AC
102
{ACAD_REACTORS
330
25A
330
25B
102
}
330
71
100
AcDbEntity
  8
0
  6
Continuous
 62
     2
100
AcDbLine
 10
-34.10282153836042
 20
8.05316862925136
 30
0.0
 11
-34.10282153836042
 21
8.83843393537495
 31
0.0
  0
LINE
  5
1AD
102
{ACAD_REACTORS
330
25A
330
25B
102
}
330
71
100
AcDbEntity
  8
0
  6
Continuous
 62
     2
100
AcDbLine
 10
-37.4877670569891
 20
8.83843393537447
 30
0.0
 11
-34.10282153836042
 21
8.83843393537495
 31
0.0
  0
LINE
  5
1AE
102
{ACAD_REACTORS
330
25A
330
25B
102
}
330
71
100
AcDbEntity
  8
0
  6
Continuous
 62
     2
100
AcDbLine
 10
-36.10671327800151
 20
8.05316862925136
 30
0.0
 11
-36.10671327800151
 21
5.78462441156387
 31
0.0
  0
LINE
  5
1AF
102
{ACAD_REACTORS
330
25C
330
25D
102
}
330
71
100
AcDbEntity
  8
0
  6
Continuous
 62
     2
100
AcDbLine
 10
-58.73619971348072
 20
7.76350456112837
 30
0.0
 11
-58.73619971348072
 21
8.34535596782345
 31
0.0
  0
LINE
  5
1B0
102
{ACAD_REACTORS
330
25C
330
25D
102
}
330
71
100
AcDbEntity
  8
0
  6
Continuous
 62
     2
100
AcDbLine
 10
-58.73619971348072
 20
10.56363916775968
 30
0.0
 11
-58.73619971348072
 21
11.16917445626646
 31
0.0
  0
LINE
  5
1B1
330
71
100
AcDbEntity
  8
1
  6
Continuous
 62
     6
100
AcDbLine
 10
-80.2060211288775
 20
-1.50887558845244
 30
0.0
 11
-66.25082565562752
 21
-1.50887558845255
 31
0.0
  0
LINE
  5
1B2
330
71
100
AcDbEntity
  8
1
  6
Continuous
 62
     6
100
AcDbLine
 10
-130.2060211288777
 20
-1.50887558845244
 30
0.0
 11
-135.2508256556275
 21
-1.50887558845244
 31
0.0
  0
LINE
  5
1B3
330
71
100
AcDbEntity
  8
1
  6
Continuous
 62
     6
100
AcDbLine
 10
19.79397887112248
 20
-1.50887558845244
 30
0.0
 11
63.29397887112249
 21
-1.50887558845244
 31
0.0
  0
LINE
  5
1B4
330
71
100
AcDbEntity
  8
1
  6
Continuous
 62
     6
100
AcDbLine
 10
-30.20602112887752
 20
-1.50887558845244
 30
0.0
 11
-48.05082565562751
 21
-1.50887558845244
 31
0.0
  0
LINE
  5
1B5
330
71
100
AcDbEntity
  8
1
  6
Continuous
 62
     2
100
AcDbLine
 10
63.29397887112249
 20
-1.50887558845244
 30
0.0
 11
68.29397887112148
 21
-1.50887558845244
 31
0.0
  0
LINE
  5
1B6
330
71
100
AcDbEntity
  8
1
  6
Continuous
 62
     2
100
AcDbLine
 10
63.29397887112249
 20
-1.50887558845244
 30
0.0
 11
63.29397887112249
 21
-6.50887558845255
 31
0.0
  0
LINE
  5
1B7
330
71
100
AcDbEntity
  8
1
  6
Continuous
 62
     6
100
AcDbLine
 10
-66.25082565562752
 20
15.49112441154756
 30
0.0
 11
-29.8508256556276
 21
15.49112441154756
 31
0.0
  0
LINE
  5
1B8
330
71
100
AcDbEntity
  8
1
  6
Continuous
 62
     2
100
AcDbLine
 10
68.29397887112148
 20
-6.50887558845255
 30
0.0
 11
68.29397887112148
 21
-1.50887558845244
 31
0.0
  0
LINE
  5
1B9
330
71
100
AcDbEntity
  8
1
  6
Continuous
 62
     2
100
AcDbLine
 10
68.29397887112148
 20
-6.50887558845255
 30
0.0
 11
63.29397887112249
 21
-6.50887558845255
 31
0.0
  0
LINE
  5
1BA
330
71
100
AcDbEntity
  8
1
  6
Continuous
 62
     2
100
AcDbLine
 10
63.29397887112249
 20
-6.50887558845255
 30
0.0
 11
19.79397887112248
 21
-6.50887558845255
 31
0.0
  0
LINE
  5
1BB
330
71
100
AcDbEntity
  8
1
  6
Continuous
 62
     6
100
AcDbLine
 10
63.29397887112418
 20
15.49112441154756
 30
0.0
 11
63.29397887112339
 21
48.49112441154767
 31
0.0
  0
LINE
  5
1BC
330
71
100
AcDbEntity
  8
1
  6
Continuous
 62
     2
100
AcDbLine
 10
68.29397887112148
 20
203.4911244115476
 30
0.0
 11
-80.2060211288775
 21
203.4911244115476
 31
0.0
  0
LINE
  5
1BD
330
71
100
AcDbEntity
  8
1
  6
Continuous
 62
     6
100
AcDbLine
 10
63.29397887112148
 20
183.4911244115476
 30
0.0
 11
-223.7060211288766
 21
183.4911244115476
 31
0.0
  0
LINE
  5
1BE
330
71
100
AcDbEntity
  8
1
  6
Continuous
 62
     2
100
AcDbLine
 10
63.29397887112339
 20
48.49112441154767
 30
0.0
 11
68.29397887112148
 21
48.49112441154767
 31
0.0
  0
LINE
  5
1BF
330
71
100
AcDbEntity
  8
1
  6
Continuous
 62
     6
100
AcDbLine
 10
63.29397887112339
 20
48.49112441154767
 30
0.0
 11
63.29397887112289
 21
98.49112441154747
 31
0.0
  0
LINE
  5
1C0
330
71
100
AcDbEntity
  8
1
  6
Continuous
 62
     2
100
AcDbLine
 10
68.29397887112148
 20
48.49112441154767
 30
0.0
 11
68.29397887112148
 21
98.49112441154747
 31
0.0
  0
LINE
  5
1C1
330
71
100
AcDbEntity
  8
1
  6
Continuous
 62
     2
100
AcDbLine
 10
63.29397887112289
 20
98.49112441154747
 30
0.0
 11
68.29397887112148
 21
98.49112441154747
 31
0.0
  0
LINE
  5
1C2
330
71
100
AcDbEntity
  8
1
  6
Continuous
 62
     6
100
AcDbLine
 10
63.29397887112289
 20
98.49112441154747
 30
0.0
 11
63.29397887112168
 21
148.4911244115476
 31
0.0
  0
LINE
  5
1C3
330
71
100
AcDbEntity
  8
1
  6
Continuous
 62
     2
100
AcDbLine
 10
68.29397887112148
 20
98.49112441154747
 30
0.0
 11
68.29397887112148
 21
148.4911244115476
 31
0.0
  0
LINE
  5
1C4
330
71
100
AcDbEntity
  8
1
  6
Continuous
 62
     2
100
AcDbLine
 10
63.29397887112168
 20
148.4911244115476
 30
0.0
 11
68.29397887112148
 21
148.4911244115476
 31
0.0
  0
LINE
  5
1C5
330
71
100
AcDbEntity
  8
1
  6
Continuous
 62
     6
100
AcDbLine
 10
63.29397887112168
 20
148.4911244115476
 30
0.0
 11
63.29397887112148
 21
183.4911244115476
 31
0.0
  0
LINE
  5
1C6
330
71
100
AcDbEntity
  8
1
  6
Continuous
 62
     2
100
AcDbLine
 10
68.29397887112148
 20
148.4911244115476
 30
0.0
 11
68.29397887112148
 21
203.4911244115476
 31
0.0
  0
LINE
  5
1C7
330
71
100
AcDbEntity
  8
1
  6
Continuous
 62
     2
100
AcDbLine
 10
68.29397887112148
 20
-1.50887558845244
 30
0.0
 11
68.29397887112148
 21
48.49112441154767
 31
0.0
  0
LINE
  5
1C8
330
71
100
AcDbEntity
  8
1
  6
Continuous
 62
     2
100
AcDbLine
 10
-80.2060211288775
 20
203.4911244115476
 30
0.0
 11
-228.7060211288766
 21
203.4911244115476
 31
0.0
  0
LINE
  5
1C9
330
71
100
AcDbEntity
  8
1
  6
Continuous
 62
     2
100
AcDbLine
 10
-80.2060211288775
 20
203.4911244115476
 30
0.0
 11
-80.2060211288775
 21
194.2824325668462
 31
0.0
  0
LINE
  5
1CA
330
71
100
AcDbEntity
  8
1
  6
Continuous
 62
     2
100
AcDbLine
 10
-228.7060211288766
 20
-6.50887558845255
 30
0.0
 11
-223.7060211288756
 21
-6.50887558845255
 31
0.0
  0
LINE
  5
1CB
330
71
100
AcDbEntity
  8
1
  6
Continuous
 62
     2
100
AcDbLine
 10
-228.7060211288766
 20
203.4911244115476
 30
0.0
 11
-228.7060211288766
 21
148.4911244115476
 31
0.0
  0
LINE
  5
1CC
330
71
100
AcDbEntity
  8
1
  6
Continuous
 62
     6
100
AcDbLine
 10
-223.7060211288766
 20
183.4911244115476
 30
0.0
 11
-223.7060211288765
 21
148.4911244115476
 31
0.0
  0
LINE
  5
1CD
330
71
100
AcDbEntity
  8
1
  6
Continuous
 62
     2
100
AcDbLine
 10
-228.7060211288766
 20
148.4911244115476
 30
0.0
 11
-223.7060211288765
 21
148.4911244115476
 31
0.0
  0
LINE
  5
1CE
330
71
100
AcDbEntity
  8
1
  6
Continuous
 62
     2
100
AcDbLine
 10
-228.7060211288766
 20
148.4911244115476
 30
0.0
 11
-228.7060211288766
 21
98.49112441154747
 31
0.0
  0
LINE
  5
1CF
330
71
100
AcDbEntity
  8
1
  6
Continuous
 62
     6
100
AcDbLine
 10
-223.7060211288765
 20
148.4911244115476
 30
0.0
 11
-223.706021128876
 21
98.49112441154747
 31
0.0
  0
LINE
  5
1D0
330
71
100
AcDbEntity
  8
1
  6
Continuous
 62
     2
100
AcDbLine
 10
-228.7060211288766
 20
98.49112441154747
 30
0.0
 11
-223.706021128876
 21
98.49112441154747
 31
0.0
  0
LINE
  5
1D1
330
71
100
AcDbEntity
  8
1
  6
Continuous
 62
     2
100
AcDbLine
 10
-228.7060211288766
 20
98.49112441154747
 30
0.0
 11
-228.7060211288766
 21
48.49112441154767
 31
0.0
  0
LINE
  5
1D2
330
71
100
AcDbEntity
  8
1
  6
Continuous
 62
     6
100
AcDbLine
 10
-223.706021128876
 20
98.49112441154747
 30
0.0
 11
-223.7060211288758
 21
48.49112441154767
 31
0.0
  0
LINE
  5
1D3
330
71
100
AcDbEntity
  8
1
  6
Continuous
 62
     2
100
AcDbLine
 10
-228.7060211288766
 20
48.49112441154767
 30
0.0
 11
-223.7060211288758
 21
48.49112441154767
 31
0.0
  0
LINE
  5
1D4
330
71
100
AcDbEntity
  8
1
  6
Continuous
 62
     2
100
AcDbLine
 10
-228.7060211288766
 20
48.49112441154767
 30
0.0
 11
-228.7060211288766
 21
-1.50887558845244
 31
0.0
  0
LINE
  5
1D5
330
71
100
AcDbEntity
  8
1
  6
Continuous
 62
     6
100
AcDbLine
 10
-223.7060211288758
 20
48.49112441154767
 30
0.0
 11
-223.7060211288756
 21
-1.50887558845244
 31
0.0
  0
LINE
  5
1D6
330
71
100
AcDbEntity
  8
1
  6
Continuous
 62
     2
100
AcDbLine
 10
-180.2060211288775
 20
-6.50887558845255
 30
0.0
 11
-180.2060211288775
 21
-1.50887558845244
 31
0.0
  0
LINE
  5
1D7
330
71
100
AcDbEntity
  8
1
  6
Continuous
 62
     2
100
AcDbLine
 10
-180.2060211288775
 20
-6.50887558845255
 30
0.0
 11
-130.2060211288777
 21
-6.50887558845255
 31
0.0
  0
LINE
  5
1D8
330
71
100
AcDbEntity
  8
1
  6
Continuous
 62
     2
100
AcDbLine
 10
-130.2060211288777
 20
-6.50887558845255
 30
0.0
 11
-130.2060211288777
 21
-1.50887558845244
 31
0.0
  0
LINE
  5
1D9
330
71
100
AcDbEntity
  8
1
  6
Continuous
 62
     2
100
AcDbLine
 10
-130.2060211288777
 20
-6.50887558845255
 30
0.0
 11
-80.2060211288775
 21
-6.50887558845255
 31
0.0
  0
LINE
  5
1DA
330
71
100
AcDbEntity
  8
1
  6
Continuous
 62
     2
100
AcDbLine
 10
-80.2060211288775
 20
-6.50887558845255
 30
0.0
 11
-80.2060211288775
 21
-1.50887558845244
 31
0.0
  0
LINE
  5
1DB
330
71
100
AcDbEntity
  8
1
  6
Continuous
 62
     2
100
AcDbLine
 10
-80.2060211288775
 20
-6.50887558845255
 30
0.0
 11
-30.20602112887752
 21
-6.50887558845255
 31
0.0
  0
LINE
  5
1DC
330
71
100
AcDbEntity
  8
1
  6
Continuous
 62
     2
100
AcDbLine
 10
-30.20602112887752
 20
-6.50887558845255
 30
0.0
 11
-30.20602112887752
 21
-1.50887558845244
 31
0.0
  0
LINE
  5
1DD
330
71
100
AcDbEntity
  8
1
  6
Continuous
 62
     2
100
AcDbLine
 10
19.79397887112248
 20
-6.50887558845255
 30
0.0
 11
19.79397887112248
 21
-1.50887558845244
 31
0.0
  0
LINE
  5
1DE
330
71
100
AcDbEntity
  8
1
  6
Continuous
 62
     2
100
AcDbLine
 10
19.79397887112248
 20
-6.50887558845255
 30
0.0
 11
-30.20602112887752
 21
-6.50887558845255
 31
0.0
  0
LINE
  5
1DF
330
71
100
AcDbEntity
  8
1
  6
Continuous
 62
     2
100
AcDbLine
 10
-223.7060211288756
 20
-1.50887558845244
 30
0.0
 11
-223.7060211288756
 21
-6.50887558845255
 31
0.0
  0
LINE
  5
1E0
330
71
100
AcDbEntity
  8
1
  6
Continuous
 62
     2
100
AcDbLine
 10
-223.7060211288756
 20
-6.50887558845255
 30
0.0
 11
-180.2060211288775
 21
-6.50887558845255
 31
0.0
  0
LINE
  5
1E1
330
71
100
AcDbEntity
  8
1
  6
Continuous
 62
     2
100
AcDbLine
 10
-223.7060211288756
 20
-1.50887558845244
 30
0.0
 11
-228.7060211288766
 21
-1.50887558845244
 31
0.0
  0
LINE
  5
1E2
330
71
100
AcDbEntity
  8
1
  6
Continuous
 62
     2
100
AcDbLine
 10
-228.7060211288766
 20
-1.50887558845244
 30
0.0
 11
-228.7060211288766
 21
-6.50887558845255
 31
0.0
  0
LINE
  5
1E3
330
71
100
AcDbEntity
  8
1
  6
Continuous
 62
     6
100
AcDbLine
 10
63.29397887112249
 20
-1.50887558845244
 30
0.0
 11
63.29397887112378
 21
6.99112441154756
 31
0.0
  0
LINE
  5
1E4
330
71
100
AcDbEntity
  8
1
  6
Continuous
 62
     6
100
AcDbLine
 10
-29.8508256556276
 20
-1.50887558845255
 30
0.0
 11
19.79397887112248
 21
-1.50887558845244
 31
0.0
  0
LINE
  5
1E5
330
71
100
AcDbEntity
  8
1
  6
Continuous
 62
     6
100
AcDbLine
 10
-182.5060211288777
 20
-1.50887558845255
 30
0.0
 11
-180.2060211288775
 21
-1.50887558845244
 31
0.0
  0
LINE
  5
1E6
330
71
100
AcDbEntity
  8
1
  6
Continuous
 62
     6
100
AcDbLine
 10
-80.2060211288775
 20
-1.50887558845244
 30
0.0
 11
-130.2060211288777
 21
-1.50887558845244
 31
0.0
  0
LINE
  5
1E7
330
71
100
AcDbEntity
  8
1
  6
Continuous
 62
     7
100
AcDbLine
 10
-66.25082565562752
 20
15.49112441154756
 30
0.0
 11
-66.25082565562752
 21
2.74112441154745
 31
0.0
  0
LINE
  5
1E8
330
71
100
AcDbEntity
  8
1
  6
Continuous
 62
     7
100
AcDbLine
 10
-29.8508256556276
 20
15.49112441154756
 30
0.0
 11
-29.8508256556276
 21
2.74112441154756
 31
0.0
  0
LINE
  5
1E9
330
71
100
AcDbEntity
  8
1
  6
Continuous
 62
     6
100
AcDbLine
 10
-182.5060211288777
 20
-1.50887558845255
 30
0.0
 11
-188.7060211288757
 21
-1.50887558845244
 31
0.0
  0
LINE
  5
1EA
330
71
100
AcDbEntity
  8
1
  6
Continuous
 62
     6
100
AcDbLine
 10
-29.8508256556276
 20
-1.50887558845255
 30
0.0
 11
-30.20602112887752
 21
-1.50887558845244
 31
0.0
  0
LINE
  5
1EB
330
71
100
AcDbEntity
  8
1
  6
Continuous
 62
     6
100
AcDbLine
 10
63.29397887112418
 20
15.49112441154756
 30
0.0
 11
63.29397887112378
 21
6.99112441154756
 31
0.0
  0
LINE
  5
1EC
330
71
100
AcDbEntity
  8
1
  6
Continuous
 62
     6
100
AcDbLine
 10
-188.7060211288757
 20
-1.50887558845244
 30
0.0
 11
-223.7060211288756
 21
-1.50887558845244
 31
0.0
  0
LINE
  5
1ED
330
71
100
AcDbEntity
  8
1
  6
Continuous
 62
     2
100
AcDbLine
 10
-62.01417076906492
 20
20.86612441154747
 30
0.0
 11
-57.01417076906492
 21
22.11612441154747
 31
0.0
  0
LINE
  5
1EE
330
71
100
AcDbEntity
  8
1
  6
Continuous
 62
     2
100
AcDbLine
 10
-62.01417076906492
 20
18.36612441154747
 30
0.0
 11
-62.01417076906492
 21
20.86612441154747
 31
0.0
  0
LINE
  5
1EF
330
71
100
AcDbEntity
  8
1
  6
Continuous
 62
     2
100
AcDbLine
 10
-57.01417076906492
 20
17.11612441154747
 30
0.0
 11
-62.01417076906492
 21
18.36612441154747
 31
0.0
  0
LINE
  5
1F0
330
71
100
AcDbEntity
  8
1
  6
Continuous
 62
     2
100
AcDbLine
 10
-57.01417076906492
 20
22.11612441154747
 30
0.0
 11
-57.01417076906492
 21
17.11612441154747
 31
0.0
  0
LINE
  5
1F1
330
71
100
AcDbEntity
  8
1
  6
Continuous
 62
     7
100
AcDbLine
 10
-66.25082565562752
 20
2.74112441154745
 30
0.0
 11
-48.05082565562751
 21
2.74112441154756
 31
0.0
  0
LINE
  5
1F2
330
71
100
AcDbEntity
  8
1
  6
Continuous
 62
     7
100
AcDbLine
 10
-66.25082565562752
 20
2.74112441154745
 30
0.0
 11
-66.25082565562752
 21
-1.50887558845255
 31
0.0
  0
LINE
  5
1F3
330
71
100
AcDbEntity
  8
1
  6
Continuous
 62
     7
100
AcDbLine
 10
-29.8508256556276
 20
2.74112441154756
 30
0.0
 11
-29.8508256556276
 21
-1.50887558845255
 31
0.0
  0
LINE
  5
1F4
330
71
100
AcDbEntity
  8
1
  6
Continuous
 62
     7
100
AcDbLine
 10
-48.05082565562751
 20
2.74112441154756
 30
0.0
 11
-48.05082565562751
 21
-1.50887558845244
 31
0.0
  0
LINE
  5
1F5
330
71
100
AcDbEntity
  8
1
  6
Continuous
 62
     6
100
AcDbLine
 10
-48.05082565562751
 20
-1.50887558845244
 30
0.0
 11
-66.25082565562752
 21
-1.50887558845255
 31
0.0
  0
LINE
  5
1F6
330
71
100
AcDbEntity
  8
1
  6
Continuous
 62
     7
100
AcDbLine
 10
-48.05082565562751
 20
2.74112441154756
 30
0.0
 11
-29.8508256556276
 21
2.74112441154756
 31
0.0
  0
LINE
  5
1F7
330
71
100
AcDbEntity
  8
1
  6
Continuous
 62
     6
100
AcDbLine
 10
-66.25082565562752
 20
23.99112441154756
 30
0.0
 11
63.29397887112418
 21
23.99112441154756
 31
0.0
  0
ARC
  5
1F8
102
{ACAD_REACTORS
330
260
330
261
102
}
330
71
100
AcDbEntity
  8
0
  6
Continuous
 62
     2
100
AcDbCircle
 10
-50.85917765666753
 20
7.31152917346915
 30
0.0
 40
0.7717997786797003
100
AcDbArc
 50
321.879580202842
 51
38.12041979715296
  0
ARC
  5
1F9
102
{ACAD_REACTORS
330
260
330
261
102
}
330
71
100
AcDbEntity
  8
0
  6
Continuous
 62
     2
100
AcDbCircle
 10
-50.65943762032111
 20
7.15479799534916
 30
0.0
 40
0.5179085730137466
100
AcDbArc
 50
218.1204197971922
 51
321.8795802028005
  0
ARC
  5
1FA
102
{ACAD_REACTORS
330
260
330
261
102
}
330
71
100
AcDbEntity
  8
0
  6
Continuous
 62
     2
100
AcDbCircle
 10
-50.45969758397501
 20
7.31152917346915
 30
0.0
 40
0.7717997786794744
100
AcDbArc
 50
141.8795802028369
 51
218.120419797168
  0
ARC
  5
1FB
102
{ACAD_REACTORS
330
260
330
261
102
}
330
71
100
AcDbEntity
  8
0
  6
Continuous
 62
     2
100
AcDbCircle
 10
-50.65943762032111
 20
7.46826035158966
 30
0.0
 40
0.5179085730132943
100
AcDbArc
 50
38.12041979714752
 51
141.8795802028598
  0
ARC
  5
1FC
102
{ACAD_REACTORS
330
258
330
259
102
}
330
71
100
AcDbEntity
  8
0
  6
Continuous
 62
     2
100
AcDbCircle
 10
-53.721451755885
 20
5.90106280806097
 30
0.0
 40
2.227384008973478
100
AcDbArc
 50
58.06909105004071
 51
71.5519238818674
  0
ARC
  5
1FD
102
{ACAD_REACTORS
330
258
330
259
102
}
330
71
100
AcDbEntity
  8
0
  6
Continuous
 62
     2
100
AcDbCircle
 10
-53.45972405492623
 20
7.51660060280815
 30
0.0
 40
0.5115800601948779
100
AcDbArc
 50
113.3722778881992
 51
151.4785267423048
  0
ARC
  5
1FE
102
{ACAD_REACTORS
330
258
330
259
102
}
330
71
100
AcDbEntity
  8
0
  6
Continuous
 62
     2
100
AcDbCircle
 10
-53.08236679684592
 20
7.31152917346915
 30
0.0
 40
0.9410597353332607
100
AcDbArc
 50
151.4785267422671
 51
208.5214732577055
  0
ARC
  5
1FF
102
{ACAD_REACTORS
330
258
330
259
102
}
330
71
100
AcDbEntity
  8
0
  6
Continuous
 62
     2
100
AcDbCircle
 10
-53.87932463097792
 20
10.62421011872556
 30
0.0
 40
4.852596863498142
100
AcDbArc
 50
275.1581447696249
 51
285.9799912583529
  0
ARC
  5
200
102
{ACAD_REACTORS
330
258
330
259
102
}
330
71
100
AcDbEntity
  8
0
  6
Continuous
 62
     2
100
AcDbCircle
 10
-53.59046853624201
 20
7.42431953550397
 30
0.0
 40
1.639695123939394
100
AcDbArc
 50
195.0618917770895
 51
275.1581447696393
  0
ARC
  5
201
102
{ACAD_REACTORS
330
258
330
259
102
}
330
71
100
AcDbEntity
  8
0
  6
Continuous
 62
     2
100
AcDbCircle
 10
-54.00959637970482
 20
7.31152917346915
 30
0.0
 40
1.205656168390944
100
AcDbArc
 50
164.9381082228765
 51
195.0618917770948
  0
ARC
  5
202
102
{ACAD_REACTORS
330
258
330
259
102
}
330
71
100
AcDbEntity
  8
0
  6
Continuous
 62
     2
100
AcDbCircle
 10
-53.59046853624201
 20
7.19873881143425
 30
0.0
 40
1.639695123940506
100
AcDbArc
 50
84.84185523036261
 51
164.9381082228865
  0
ARC
  5
203
102
{ACAD_REACTORS
330
25C
330
25D
102
}
330
71
100
AcDbEntity
  8
0
  6
Continuous
 62
     2
100
AcDbCircle
 10
-58.42048279040392
 20
8.34535596782345
 30
0.0
 40
0.3157169230765328
100
AcDbArc
 50
115.3740086783519
 51
180.0
  0
ARC
  5
204
102
{ACAD_REACTORS
330
25C
330
25D
102
}
330
71
100
AcDbEntity
  8
0
  6
Continuous
 62
     2
100
AcDbCircle
 10
-58.42048279040392
 20
10.56363916775968
 30
0.0
 40
0.3157169230767991
100
AcDbArc
 50
180.0
 51
244.6259913216483
  0
ARC
  5
205
102
{ACAD_REACTORS
330
25C
330
25D
102
}
330
71
100
AcDbEntity
  8
0
  6
Continuous
 62
     2
100
AcDbCircle
 10
-58.4148666550939
 20
9.46633950869736
 30
0.0
 40
2.018561131933265
100
AcDbArc
 50
269.8110329575858
 51
90.18896704241416
  0
ARC
  5
206
102
{ACAD_REACTORS
330
25C
330
25D
102
}
330
71
100
AcDbEntity
  8
0
  6
Continuous
 62
     2
100
AcDbCircle
 10
-58.42048279040392
 20
7.76350456112837
 30
0.0
 40
0.3157169230767991
100
AcDbArc
 50
180.0
 51
269.8110329574542
  0
ARC
  5
207
102
{ACAD_REACTORS
330
25A
330
25B
102
}
330
71
100
AcDbEntity
  8
0
  6
Continuous
 62
     2
100
AcDbCircle
 10
-37.35702257567331
 20
7.51660060280815
 30
0.0
 40
0.5115800601944143
100
AcDbArc
 50
109.3371432194853
 51
151.4785267424225
  0
ARC
  5
208
102
{ACAD_REACTORS
330
25A
330
25B
102
}
330
71
100
AcDbEntity
  8
0
  6
Continuous
 62
     2
100
AcDbCircle
 10
-37.35702257567331
 20
7.10645774413067
 30
0.0
 40
0.5115800601960215
100
AcDbArc
 50
208.5214732576866
 51
246.6277221118442
  0
ARC
  5
209
102
{ACAD_REACTORS
330
25A
330
25B
102
}
330
71
100
AcDbEntity
  8
0
  6
Continuous
 62
     2
100
AcDbCircle
 10
-37.90689490045071
 20
7.31152917346915
 30
0.0
 40
1.205656168393002
100
AcDbArc
 50
164.9381082229028
 51
195.0618917770959
  0
ARC
  5
20A
102
{ACAD_REACTORS
330
25A
330
25B
102
}
330
71
100
AcDbEntity
  8
0
  6
Continuous
 62
     2
100
AcDbCircle
 10
-37.4877670569891
 20
7.19873881143425
 30
0.0
 40
1.639695123940214
100
AcDbArc
 50
90.0
 51
164.938108222895
  0
ARC
  5
20B
102
{ACAD_REACTORS
330
25E
330
25F
102
}
330
71
100
AcDbEntity
  8
0
  6
Continuous
 62
     2
100
AcDbCircle
 10
-46.91476214969282
 20
10.67071964964347
 30
0.0
 40
1.52690476190589
100
AcDbArc
 50
90.0
 51
270.0
  0
ARC
  5
20C
102
{ACAD_REACTORS
330
262
330
263
102
}
330
71
100
AcDbEntity
  8
0
  6
Continuous
 62
     2
100
AcDbCircle
 10
-53.65745289491861
 20
11.18165474143817
 30
0.0
 40
0.35286382467112
100
AcDbArc
 50
270.0
 51
90.0
  0
ARC
  5
20D
102
{ACAD_REACTORS
330
25C
330
25D
102
}
330
71
100
AcDbEntity
  8
0
  6
Continuous
 62
     2
100
AcDbCircle
 10
-60.99603147693563
 20
11.16935193291457
 30
0.0
 40
0.3157169230761898
100
AcDbArc
 50
90.0
 51
180.0
  0
ARC
  5
20E
102
{ACAD_REACTORS
330
25C
330
25D
102
}
330
71
100
AcDbEntity
  8
0
  6
Continuous
 62
     2
100
AcDbCircle
 10
-58.99761376835102
 20
9.45449756779186
 30
0.0
 40
0.9118975235576118
100
AcDbArc
 50
115.1944106485273
 51
244.8055893514886
  0
ARC
  5
20F
102
{ACAD_REACTORS
330
25C
330
25D
102
}
330
71
100
AcDbEntity
  8
0
  6
Continuous
 62
     2
100
AcDbCircle
 10
-59.520198215926
 20
8.34366782172907
 30
0.0
 40
0.315716923076593
100
AcDbArc
 50
0.0
 51
64.8055893514591
  0
ARC
  5
210
102
{ACAD_REACTORS
330
25C
330
25D
102
}
330
71
100
AcDbEntity
  8
0
  6
Continuous
 62
     2
100
AcDbCircle
 10
-61.58992615368211
 20
6.20886902694716
 30
0.0
 40
0.4242446153828112
100
AcDbArc
 50
180.0
 51
270.0
  0
ARC
  5
211
102
{ACAD_REACTORS
330
25E
330
25F
102
}
330
71
100
AcDbEntity
  8
0
  6
Continuous
 62
     2
100
AcDbCircle
 10
-46.69849013952762
 20
10.82745082776395
 30
0.0
 40
0.517908573013521
100
AcDbArc
 50
38.12041979714382
 51
141.8795802028489
  0
ARC
  5
212
102
{ACAD_REACTORS
330
25E
330
25F
102
}
330
71
100
AcDbEntity
  8
0
  6
Continuous
 62
     2
100
AcDbCircle
 10
-46.49875010318132
 20
10.67071964964347
 30
0.0
 40
0.7717997786796724
100
AcDbArc
 50
141.8795802028404
 51
218.120419797156
  0
ARC
  5
213
102
{ACAD_REACTORS
330
260
330
261
102
}
330
71
100
AcDbEntity
  8
0
  6
Continuous
 62
     2
100
AcDbCircle
 10
-50.65943762032111
 20
7.85010418377246
 30
0.0
 40
2.065479772208513
100
AcDbArc
 50
242.4518518243401
 51
297.5481481756869
  0
ARC
  5
214
102
{ACAD_REACTORS
330
260
330
261
102
}
330
71
100
AcDbEntity
  8
0
  6
Continuous
 62
     2
100
AcDbCircle
 10
-50.65943762032111
 20
6.77295416316636
 30
0.0
 40
2.065479772208564
100
AcDbArc
 50
62.45185182430654
 51
117.5481481756666
  0
ARC
  5
215
102
{ACAD_REACTORS
330
260
330
261
102
}
330
71
100
AcDbEntity
  8
0
  6
Continuous
 62
     2
100
AcDbCircle
 10
-50.94037751215441
 20
7.31152917346915
 30
0.0
 40
1.45803408365149
100
AcDbArc
 50
117.5481481756624
 51
242.4518518243375
  0
ARC
  5
216
102
{ACAD_REACTORS
330
260
330
261
102
}
330
71
100
AcDbEntity
  8
0
  6
Continuous
 62
     2
100
AcDbCircle
 10
-50.37849772848782
 20
7.31152917346915
 30
0.0
 40
1.458034083652006
100
AcDbArc
 50
297.5481481757013
 51
62.45185182429871
  0
ARC
  5
217
102
{ACAD_REACTORS
330
25E
330
25F
102
}
330
71
100
AcDbEntity
  8
0
  6
Continuous
 62
     2
100
AcDbCircle
 10
-46.69849013952762
 20
10.51398847152305
 30
0.0
 40
0.5179085730134372
100
AcDbArc
 50
218.1204197971511
 51
321.8795802028562
  0
ARC
  5
218
102
{ACAD_REACTORS
330
25E
330
25F
102
}
330
71
100
AcDbEntity
  8
0
  6
Continuous
 62
     2
100
AcDbCircle
 10
-46.89823017587381
 20
10.67071964964347
 30
0.0
 40
0.7717997786796351
100
AcDbArc
 50
321.879580202844
 51
38.12041979715956
  0
ARC
  5
219
102
{ACAD_REACTORS
330
25C
330
25D
102
}
330
71
100
AcDbEntity
  8
0
  6
Continuous
 62
     2
100
AcDbCircle
 10
-56.11661406296531
 20
6.20886902694716
 30
0.0
 40
0.4242446153832873
100
AcDbArc
 50
270.0
 51
0.0
  0
ARC
  5
21A
102
{ACAD_REACTORS
330
25C
330
25D
102
}
330
71
100
AcDbEntity
  8
0
  6
Continuous
 62
     2
100
AcDbCircle
 10
-56.11661406296531
 20
11.77337979614737
 30
0.0
 40
0.4242446153838841
100
AcDbArc
 50
0.0
 51
90.0
  0
ARC
  5
21B
102
{ACAD_REACTORS
330
25C
330
25D
102
}
330
71
100
AcDbEntity
  8
0
  6
Continuous
 62
     2
100
AcDbCircle
 10
-61.58992615368211
 20
11.77337979614737
 30
0.0
 40
0.4242446153837989
100
AcDbArc
 50
90.0
 51
180.0
  0
ARC
  5
21C
102
{ACAD_REACTORS
330
25C
330
25D
102
}
330
71
100
AcDbEntity
  8
0
  6
Continuous
 62
     2
100
AcDbCircle
 10
-59.520198215926
 20
6.81289689019747
 30
0.0
 40
0.3157169230767076
100
AcDbArc
 50
270.0
 51
0.0
  0
ARC
  5
21D
102
{ACAD_REACTORS
330
25C
330
25D
102
}
330
71
100
AcDbEntity
  8
0
  6
Continuous
 62
     2
100
AcDbCircle
 10
-59.520198215926
 20
10.56532731385406
 30
0.0
 40
0.3157169230761249
100
AcDbArc
 50
295.1944106485408
 51
0.0
  0
ARC
  5
21E
102
{ACAD_REACTORS
330
25C
330
25D
102
}
330
71
100
AcDbEntity
  8
0
  6
Continuous
 62
     2
100
AcDbCircle
 10
-59.520198215926
 20
11.16935193291457
 30
0.0
 40
0.315716923076593
100
AcDbArc
 50
0.0
 51
90.0
  0
ARC
  5
21F
102
{ACAD_REACTORS
330
25C
330
25D
102
}
330
71
100
AcDbEntity
  8
0
  6
Continuous
 62
     2
100
AcDbCircle
 10
-60.99603147693563
 20
6.81289689019747
 30
0.0
 40
0.3157169230756836
100
AcDbArc
 50
180.0
 51
270.0
  0
ARC
  5
220
102
{ACAD_REACTORS
330
262
330
263
102
}
330
71
100
AcDbEntity
  8
0
  6
Continuous
 62
     2
100
AcDbCircle
 10
-53.21598036868022
 20
11.14225877021568
 30
0.0
 40
1.05536564133371
100
AcDbArc
 50
270.0
 51
90.0
  0
ARC
  5
221
102
{ACAD_REACTORS
330
25A
330
25B
102
}
330
71
100
AcDbEntity
  8
0
  6
Continuous
 62
     2
100
AcDbCircle
 10
-37.4877670569891
 20
7.42431953550397
 30
0.0
 40
1.639695123940448
100
AcDbArc
 50
195.0618917771012
 51
275.1581447696765
  0
ARC
  5
222
102
{ACAD_REACTORS
330
25A
330
25B
102
}
330
71
100
AcDbEntity
  8
0
  6
Continuous
 62
     2
100
AcDbCircle
 10
-37.77662315172492
 20
10.62421011872556
 30
0.0
 40
4.852596863498828
100
AcDbArc
 50
275.1581447696364
 51
285.9799912583387
  0
ARC
  5
223
102
{ACAD_REACTORS
330
25A
330
25B
102
}
330
71
100
AcDbEntity
  8
0
  6
Continuous
 62
     2
100
AcDbCircle
 10
-37.61875027663211
 20
8.72199553887725
 30
0.0
 40
2.227384008972746
100
AcDbArc
 50
288.4480761181335
 51
301.9309089499397
  0
ARC
  5
224
102
{ACAD_REACTORS
330
25A
330
25B
102
}
330
71
100
AcDbEntity
  8
0
  6
Continuous
 62
     2
100
AcDbCircle
 10
-37.20058254297021
 20
7.46844976284066
 30
0.0
 40
0.9059297849852829
100
AcDbArc
 50
246.6277221118178
 51
288.4480761180817
  0
ARC
  5
225
102
{ACAD_REACTORS
330
25A
330
25B
102
}
330
71
100
AcDbEntity
  8
0
  6
Continuous
 62
     2
100
AcDbCircle
 10
-36.97966531759192
 20
7.31152917346915
 30
0.0
 40
0.9410597353348924
100
AcDbArc
 50
151.4785267423624
 51
208.5214732576695
  0
ARC
  5
226
102
{ACAD_REACTORS
330
25A
330
25B
102
}
330
71
100
AcDbEntity
  8
0
  6
Continuous
 62
     2
100
AcDbCircle
 10
-37.21035257756961
 20
7.09864562242527
 30
0.0
 40
0.9545230068260935
100
AcDbArc
 50
90.0
 51
109.337143219432
  0
ARC
  5
227
102
{ACAD_REACTORS
330
25C
330
25D
102
}
330
71
100
AcDbEntity
  8
0
  6
Continuous
 62
     2
100
AcDbCircle
 10
-58.42048279040392
 20
11.16917445626646
 30
0.0
 40
0.3157169230760746
100
AcDbArc
 50
90.18896704254594
 51
180.0
  0
ARC
  5
228
102
{ACAD_REACTORS
330
25C
330
25D
102
}
330
71
100
AcDbEntity
  8
0
  6
Continuous
 62
     2
100
AcDbCircle
 10
-58.9465254884918
 20
9.45449756779186
 30
0.0
 40
0.911848150144459
100
AcDbArc
 50
295.3740086781764
 51
64.62599132180755
  0
ARC
  5
229
102
{ACAD_REACTORS
330
258
330
259
102
}
330
71
100
AcDbEntity
  8
0
  6
Continuous
 62
     2
100
AcDbCircle
 10
-53.721451755885
 20
8.72199553887785
 30
0.0
 40
2.227384008972734
100
AcDbArc
 50
288.4480761181326
 51
301.9309089499593
  0
ARC
  5
22A
102
{ACAD_REACTORS
330
258
330
259
102
}
330
71
100
AcDbEntity
  8
0
  6
Continuous
 62
     2
100
AcDbCircle
 10
-53.3032840222242
 20
7.46844976284066
 30
0.0
 40
0.905929784984922
100
AcDbArc
 50
246.6277221118706
 51
288.4480761181576
  0
ARC
  5
22B
102
{ACAD_REACTORS
330
258
330
259
102
}
330
71
100
AcDbEntity
  8
0
  6
Continuous
 62
     2
100
AcDbCircle
 10
-53.45972405492623
 20
7.10645774413067
 30
0.0
 40
0.5115800601948092
100
AcDbArc
 50
208.5214732576951
 51
246.6277221118274
  0
ARC
  5
22C
102
{ACAD_REACTORS
330
258
330
259
102
}
330
71
100
AcDbEntity
  8
0
  6
Continuous
 62
     2
100
AcDbCircle
 10
-53.3032840222242
 20
7.15460858409756
 30
0.0
 40
0.9059297849853184
100
AcDbArc
 50
71.55192388185434
 51
113.3722778881294
  0
ARC
  5
22D
102
{ACAD_REACTORS
330
258
330
259
102
}
330
71
100
AcDbEntity
  8
0
  6
Continuous
 62
     2
100
AcDbCircle
 10
-53.87932463097792
 20
3.99884822821326
 30
0.0
 40
4.852596863498068
100
AcDbArc
 50
74.02000874164739
 51
84.84185523037506
  0
CIRCLE
  5
22E
102
{ACAD_REACTORS
330
25C
330
25D
102
}
330
71
100
AcDbEntity
  8
0
  6
Continuous
 62
     2
100
AcDbCircle
 10
-58.97034050316461
 20
9.45449756779186
 30
0.0
 40
0.4709789327785074
  0
CIRCLE
  5
22F
330
71
100
AcDbEntity
  8
1
  6
Continuous
 62
     2
100
AcDbCircle
 10
-53.51417076906492
 20
19.61612441154747
 30
0.0
 40
1.249999999999922
  0
CIRCLE
  5
230
330
71
100
AcDbEntity
  8
1
  6
Continuous
 62
     2
100
AcDbCircle
 10
-53.51417076906492
 20
19.61612441154747
 30
0.0
 40
2.5
  0
TEXT
  5
231
330
71
100
AcDbEntity
  8
1
 62
     7
100
AcDbText
 10
-10.87727793361373
 20
16.79112441154746
 30
0.0
 40
2.5
  1
/
 41
0.9
  7
CONVERTER_11
100
AcDbText
  0
TEXT
  5
233
330
71
100
AcDbEntity
  8
1
 62
     7
100
AcDbText
 10
-8.72091343657172
 20
16.79112441154746
 30
0.0
 40
2.5
  1
00
 41
0.81
  7
CONVERTER_12
100
AcDbText
  0
TEXT
  5
234
330
71
100
AcDbEntity
  8
1
 62
     3
100
AcDbText
 10
28.87557058944537
 20
16.79112441154746
 30
0.0
 40
2.5
  1
31.01.2018
 41
0.81
  7
CONVERTER_12
100
AcDbText
  0
MTEXT
  5
235
330
71
100
AcDbEntity
  8
1
 62
     2
100
AcDbMText
 10
28.87557058944537
 20
22.99112441154747
 30
0.0
 40
1.8
 41
0.0
 71
     1
 72
     1
  1
date
  7
CONVERTER_11
 73
     1
 44
1.32052821128451
  0
MTEXT
  5
236
330
71
100
AcDbEntity
  8
1
 62
     2
100
AcDbMText
 10
-0.95082565562751
 20
14.49112441154747
 30
0.0
 40
1.8
 41
0.0
 71
     1
 72
     1
  1
document-type
  7
CONVERTER_11
 73
     1
 44
1.20048019207683
  0
TEXT
  5
237
330
71
100
AcDbEntity
  8
1
 62
     3
100
AcDbText
 10
-0.95082565562751
 20
8.29112441154746
 30
0.0
 40
2.5
  1
TECDOC 2D_Productdrawing
 41
0.81
  7
CONVERTER_12
100
AcDbText
  0
MTEXT
  5
239
330
71
100
AcDbEntity
  8
1
 62
     2
100
AcDbMText
 10
-28.75082565562752
 20
22.99112441154756
 30
0.0
 40
1.8
 41
0.0
 71
     1
 72
     1
  1
document-No. / RI
  7
CONVERTER_13
 73
     1
 44
1.32052821128451
  0
TEXT
  5
23A
330
71
100
AcDbEntity
  8
1
 62
     7
100
AcDbText
 10
-28.75082565562752
 20
16.79112441154746
 30
0.0
 40
2.5
  1
01089711
 41
0.81
  7
CONVERTER_12
100
AcDbText
  0
MTEXT
  5
23C
330
71
100
AcDbEntity
  8
1
 62
     3
100
AcDbMText
 10
58.83477473028479
 20
16.79112441154766
 30
0.0
 40
2.5
 41
0.0
 71
     8
 72
     1
  1
1:1
  7
CONVERTER_14
 73
     1
 44
1.32052821128451
  0
MTEXT
  5
23D
330
71
100
AcDbEntity
  8
1
 62
     2
100
AcDbMText
 10
55.4755705894452
 20
22.99112441154756
 30
0.0
 40
1.8
 41
0.0
 71
     1
 72
     1
  1
scale
  7
CONVERTER_11
 73
     1
 44
1.20048019207683
  0
MTEXT
  5
23E
330
71
100
AcDbEntity
  8
1
 62
     2
100
AcDbMText
 10
-28.75082565562752
 20
14.49112441154756
 30
0.0
 40
1.8
 41
0.0
 71
     1
 72
     1
  1
ident.-No.
  7
CONVERTER_11
 73
     1
 44
1.20048019207683
  0
TEXT
  5
23F
330
71
100
AcDbEntity
  8
1
 62
     7
100
AcDbText
 10
-28.3508256556278
 20
8.29112441154746
 30
0.0
 40
2.5
  1
0201223
 41
0.81
  7
CONVERTER_12
100
AcDbText
  0
MTEXT
  5
240
330
71
100
AcDbEntity
  8
1
 62
     2
100
AcDbMText
 10
-100.688840380675
 20
11.24112441154747
 30
0.0
 40
2.0
 41
0.0
 71
     5
 72
     1
  1
General Information\P- Simplified representation\P- Document excluded from change process\P- Linear dimensions [mm]
  7
CONVERTER_11
 73
     1
 44
1.20048019207683
  0
MTEXT
  5
241
330
71
100
AcDbEntity
  8
1
 62
     7
100
AcDbMText
 10
65.79397887112148
 20
73.49112441154946
 30
0.0
 40
3.5
 41
0.0
 71
     5
 72
     1
  1
C
  7
CONVERTER_11
 73
     1
 44
1.20048019207683
  0
MTEXT
  5
242
330
71
100
AcDbEntity
  8
1
 62
     7
100
AcDbMText
 10
65.79397887112148
 20
175.9911244115476
 30
0.0
 40
3.5
 41
0.0
 71
     5
 72
     1
  1
A
  7
CONVERTER_11
 73
     1
 44
1.20048019207683
  0
MTEXT
  5
243
330
71
100
AcDbEntity
  8
1
 62
     7
100
AcDbMText
 10
65.79397887112148
 20
123.4911244115495
 30
0.0
 40
3.5
 41
0.0
 71
     5
 72
     1
  1
B
  7
CONVERTER_11
 73
     1
 44
1.20048019207683
  0
MTEXT
  5
244
330
71
100
AcDbEntity
  8
1
 62
     7
100
AcDbMText
 10
65.79397887112148
 20
20.99112441154756
 30
0.0
 40
3.5
 41
0.0
 71
     5
 72
     1
  1
D
  7
CONVERTER_11
 73
     1
 44
1.20048019207683
  0
MTEXT
  5
245
330
71
100
AcDbEntity
  8
1
 62
     7
100
AcDbMText
 10
-204.4560211288771
 20
-4.00887558845255
 30
0.0
 40
3.5
 41
0.0
 71
     5
 72
     1
  1
1
  7
CONVERTER_11
 73
     1
 44
1.20048019207683
  0
MTEXT
  5
246
330
71
100
AcDbEntity
  8
1
 62
     7
100
AcDbMText
 10
-155.2060211288775
 20
-4.00887558845255
 30
0.0
 40
3.5
 41
0.0
 71
     5
 72
     1
  1
2
  7
CONVERTER_11
 73
     1
 44
1.20048019207683
  0
MTEXT
  5
247
330
71
100
AcDbEntity
  8
1
 62
     7
100
AcDbMText
 10
-105.2060211288775
 20
-4.00887558845255
 30
0.0
 40
3.5
 41
0.0
 71
     5
 72
     1
  1
3
  7
CONVERTER_11
 73
     1
 44
1.20048019207683
  0
MTEXT
  5
248
330
71
100
AcDbEntity
  8
1
 62
     7
100
AcDbMText
 10
-55.20602112887761
 20
-4.00887558845255
 30
0.0
 40
3.5
 41
0.0
 71
     5
 72
     1
  1
4
  7
CONVERTER_11
 73
     1
 44
1.20048019207683
  0
MTEXT
  5
249
330
71
100
AcDbEntity
  8
1
 62
     7
100
AcDbMText
 10
-5.20602112887752
 20
-4.00887558845255
 30
0.0
 40
3.5
 41
0.0
 71
     5
 72
     1
  1
5
  7
CONVERTER_11
 73
     1
 44
1.20048019207683
  0
MTEXT
  5
24A
330
71
100
AcDbEntity
  8
1
 62
     7
100
AcDbMText
 10
44.04397887112168
 20
-4.00887558845255
 30
0.0
 40
3.5
 41
0.0
 71
     5
 72
     1
  1
6
  7
CONVERTER_11
 73
     1
 44
1.20048019207683
  0
MTEXT
  5
24B
330
71
100
AcDbEntity
  8
1
 62
     7
100
AcDbMText
 10
-226.2060211288766
 20
175.9911244115476
 30
0.0
 40
3.5
 41
0.0
 71
     5
 72
     1
  1
A
  7
CONVERTER_11
 73
     1
 44
1.20048019207683
  0
MTEXT
  5
24C
330
71
100
AcDbEntity
  8
1
 62
     7
100
AcDbMText
 10
-226.2060211288766
 20
123.4911244115476
 30
0.0
 40
3.5
 41
0.0
 71
     5
 72
     1
  1
B
  7
CONVERTER_11
 73
     1
 44
1.20048019207683
  0
MTEXT
  5
24D
330
71
100
AcDbEntity
  8
1
 62
     7
100
AcDbMText
 10
-226.2060211288766
 20
73.49112441154756
 30
0.0
 40
3.5
 41
0.0
 71
     5
 72
     1
  1
C
  7
CONVERTER_11
 73
     1
 44
1.20048019207683
  0
MTEXT
  5
24E
330
71
100
AcDbEntity
  8
1
 62
     7
100
AcDbMText
 10
-226.2060211288766
 20
20.99112441154756
 30
0.0
 40
3.5
 41
0.0
 71
     5
 72
     1
  1
D
  7
CONVERTER_11
 73
     1
 44
1.20048019207683
  0
MTEXT
  5
24F
330
71
100
AcDbEntity
  8
1
 62
     3
100
AcDbMText
 10
-40.05082565562762
 20
19.61612441154756
 30
0.0
 40
2.5
 41
0.0
 71
     5
 72
     1
  1
DIN A4
  7
CONVERTER_11
 73
     1
 44
1.20048019207683
  0
MTEXT
  5
250
330
71
100
AcDbEntity
  8
1
 62
     2
100
AcDbMText
 10
-28.8508256556276
 20
5.99112441154756
 30
0.0
 40
1.8
 41
0.0
 71
     1
 72
     1
  1
description
  7
CONVERTER_11
 73
     1
 44
1.20048019207683
  0
MTEXT
  5
251
330
71
100
AcDbEntity
  8
1
 62
     7
100
AcDbMText
 10
16.72157660774798
 20
1.74112441154779
 30
0.0
 40
3.0
 41
0.0
 71
     5
 72
     1
  1
ATS-SSK 0525/110
  7
CONVERTER_12
 73
     1
 44
1.20048019207683
  0
TEXT
  5
252
330
71
100
AcDbEntity
  8
1
 62
     2
100
AcDbText
 10
-41.81551684581402
 20
-0.25887558845255
 30
0.0
 40
1.8
  1
1
 41
0.9
  7
CONVERTER_11
100
AcDbText
  0
TEXT
  5
253
330
71
100
AcDbEntity
  8
1
 62
     2
100
AcDbText
 10
-56.60456068528552
 20
-0.30812424225445
 30
0.0
 40
1.8
  1
1
 41
0.9
  7
CONVERTER_11
100
AcDbText
  0
TEXT
  5
254
330
71
100
AcDbEntity
  8
1
 62
     2
100
AcDbText
 10
-65.25082565562752
 20
-0.26789280344411
 30
0.0
 40
1.8
  1
page
 41
0.9
  7
CONVERTER_11
100
AcDbText
  0
TEXT
  5
255
330
71
100
AcDbEntity
  8
1
 62
     2
100
AcDbText
 10
-47.05082565562771
 20
-0.26789280344406
 30
0.0
 40
1.8
  1
of
 41
0.9
  7
CONVERTER_11
100
AcDbText
  0
MTEXT
  5
256
330
71
100
AcDbEntity
  8
1
 62
     3
100
AcDbMText
 10
-40.84784350401762
 20
185.2824325668464
 30
0.0
 40
1.8
 41
0.0
 71
     7
 72
     1
  3
Transfer or duplication of this document as well as the utilisation or\Pcommunication of its content are not permitted unless express consent\Pis granted. Violations give rise to claims for damages. All rights reserved\Pin case of patent, utility mo
  1
del or design patent registrations.
  7
CONVERTER_11
 73
     1
 44
0.99639855942377
  0
MTEXT
  5
257
330
71
100
AcDbEntity
  8
1
 62
     3
100
AcDbMText
 10
-223.7009533428057
 20
185.2824325668464
 30
0.0
 40
1.8
 41
0.0
 71
     7
 72
     1
  3
Weitergabe sowie Vervielf\U+00e4ltigung dieses Dokuments, Verwertung und \PMitteilung seines Inhalts sind verboten, soweit nicht ausdr\U+00fccklich gestattet. \PZuwiderhandlungen verpflichten zu Schadenersatz. Alle Rechte f\U+00fcr den Fall\Pder Pat
  1
ent-, Gebrauchsmuster- oder Designeintragung vorbehalten.
  7
CONVERTER_11
 73
     1
 44
0.99639855942377
  0
HATCH
  5
258
330
71
100
AcDbEntity
  8
1
  6
Continuous
 62
     2
100
AcDbHatch
 10
0.0
 20
0.0
 30
0.0
210
0.0
220
0.0
230
1.0
  2
_USER
 70
     0
 71
     1
 91
        1
 92
        1
 93
       14
 72
     2
 10
-54.00959637970482
 20
7.311529173469154
 40
1.205656168390944
 50
164.9381082228765
 51
195.0618917770948
 73
     1
 72
     2
 10
-53.59046853624201
 20
7.424319535503969
 40
1.639695123939394
 50
195.0618917770895
 51
275.1581447696393
 73
     1
 72
     2
 10
-53.87932463097792
 20
10.62421011872556
 40
4.852596863498142
 50
275.1581447696249
 51
285.9799912583529
 73
     1
 72
     1
 10
-52.54339671386012
 20
5.959127812924749
 11
-52.54339671386012
 21
6.831644819727956
 72
     2
 10
-53.721451755885
 20
8.721995538877849
 40
2.227384008972734
 50
58.0690910500407
 51
71.55192388186738
 73
     0
 72
     2
 10
-53.3032840222242
 20
7.468449762840663
 40
0.905929784984922
 50
71.5519238818424
 51
113.3722778881294
 73
     0
 72
     2
 10
-53.45972405492623
 20
7.106457744130665
 40
0.5115800601948092
 50
113.3722778881726
 51
151.4785267423049
 73
     0
 72
     2
 10
-53.08236679684592
 20
7.311529173469154
 40
0.9410597353332607
 50
151.4785267422945
 51
208.5214732577329
 73
     0
 72
     2
 10
-53.45972405492623
 20
7.516600602808154
 40
0.5115800601948779
 50
208.5214732576952
 51
246.6277221118009
 73
     0
 72
     2
 10
-53.3032840222242
 20
7.154608584097559
 40
0.9059297849853184
 50
246.6277221118706
 51
288.4480761181457
 73
     0
 72
     2
 10
-53.721451755885
 20
5.901062808060971
 40
2.227384008973478
 50
288.4480761181326
 51
301.9309089499593
 73
     0
 72
     1
 10
-52.54339671386012
 20
7.791413527210864
 11
-52.54339671386012
 21
8.663930534014156
 72
     2
 10
-53.87932463097792
 20
3.998848228213262
 40
4.852596863498068
 50
74.02000874164739
 51
84.84185523037506
 73
     1
 72
     2
 10
-53.59046853624201
 20
7.198738811434254
 40
1.639695123940506
 50
84.84185523036261
 51
164.9381082228865
 73
     1
 97
       14
330
22D
330
146
330
1FC
330
22C
330
1FD
330
1FE
330
22B
330
22A
330
229
330
147
330
1FF
330
200
330
201
330
202
 75
     1
 76
     0
 52
45.0
 41
0.1
 77
     0
 78
     1
 53
45.0
 43
0.0
 44
0.0
 45
-0.0707106781186548
 46
0.0707106781186548
 79
     0
 98
        1
 10
0.0
 20
0.0
  0
HATCH
  5
259
330
71
100
AcDbEntity
  8
1
  6
Continuous
 62
     2
100
AcDbHatch
 10
0.0
 20
0.0
 30
0.0
210
0.0
220
0.0
230
1.0
  2
_USER
 70
     0
 71
     1
 91
        1
 92
        1
 93
       14
 72
     2
 10
-54.00959637970482
 20
7.311529173469154
 40
1.205656168390944
 50
164.9381082228765
 51
195.0618917770948
 73
     1
 72
     2
 10
-53.59046853624201
 20
7.424319535503969
 40
1.639695123939394
 50
195.0618917770895
 51
275.1581447696393
 73
     1
 72
     2
 10
-53.87932463097792
 20
10.62421011872556
 40
4.852596863498142
 50
275.1581447696249
 51
285.9799912583529
 73
     1
 72
     1
 10
-52.54339671386012
 20
5.959127812924749
 11
-52.54339671386012
 21
6.831644819727956
 72
     2
 10
-53.721451755885
 20
8.721995538877849
 40
2.227384008972734
 50
58.0690910500407
 51
71.55192388186738
 73
     0
 72
     2
 10
-53.3032840222242
 20
7.468449762840663
 40
0.905929784984922
 50
71.5519238818424
 51
113.3722778881294
 73
     0
 72
     2
 10
-53.45972405492623
 20
7.106457744130665
 40
0.5115800601948092
 50
113.3722778881726
 51
151.4785267423049
 73
     0
 72
     2
 10
-53.08236679684592
 20
7.311529173469154
 40
0.9410597353332607
 50
151.4785267422945
 51
208.5214732577329
 73
     0
 72
     2
 10
-53.45972405492623
 20
7.516600602808154
 40
0.5115800601948779
 50
208.5214732576952
 51
246.6277221118009
 73
     0
 72
     2
 10
-53.3032840222242
 20
7.154608584097559
 40
0.9059297849853184
 50
246.6277221118706
 51
288.4480761181457
 73
     0
 72
     2
 10
-53.721451755885
 20
5.901062808060971
 40
2.227384008973478
 50
288.4480761181326
 51
301.9309089499593
 73
     0
 72
     1
 10
-52.54339671386012
 20
7.791413527210864
 11
-52.54339671386012
 21
8.663930534014156
 72
     2
 10
-53.87932463097792
 20
3.998848228213262
 40
4.852596863498068
 50
74.02000874164739
 51
84.84185523037506
 73
     1
 72
     2
 10
-53.59046853624201
 20
7.198738811434254
 40
1.639695123940506
 50
84.84185523036261
 51
164.9381082228865
 73
     1
 97
       14
330
22D
330
146
330
1FC
330
22C
330
1FD
330
1FE
330
22B
330
22A
330
229
330
147
330
1FF
330
200
330
201
330
202
 75
     1
 76
     0
 52
45.0
 41
0.1
 77
     0
 78
     1
 53
45.0
 43
0.0
 44
0.0
 45
-0.0707106781186548
 46
0.0707106781186548
 79
     0
 98
        1
 10
0.0
 20
0.0
  0
HATCH
  5
25A
330
71
100
AcDbEntity
  8
1
  6
Continuous
 62
     2
100
AcDbHatch
 10
0.0
 20
0.0
 30
0.0
210
0.0
220
0.0
230
1.0
  2
_USER
 70
     0
 71
     1
 91
        1
 92
        1
 93
       18
 72
     2
 10
-37.4877670569891
 20
7.198738811434254
 40
1.639695123940214
 50
90.0
 51
164.938108222895
 73
     1
 72
     2
 10
-37.90689490045071
 20
7.311529173469154
 40
1.205656168393002
 50
164.9381082229028
 51
195.0618917770959
 73
     1
 72
     2
 10
-37.4877670569891
 20
7.424319535503969
 40
1.639695123940448
 50
195.0618917771012
 51
275.1581447696765
 73
     1
 72
     2
 10
-37.77662315172492
 20
10.62421011872556
 40
4.852596863498828
 50
275.1581447696364
 51
285.9799912583387
 73
     1
 72
     1
 10
-36.4406952346082
 20
5.959127812924152
 11
-36.4406952346082
 21
6.831644819727472
 72
     2
 10
-37.61875027663211
 20
8.721995538877252
 40
2.227384008972746
 50
58.06909105006029
 51
71.55192388186651
 73
     0
 72
     2
 10
-37.20058254297021
 20
7.468449762840663
 40
0.9059297849852829
 50
71.55192388191827
 51
113.3722778881822
 73
     0
 72
     2
 10
-37.35702257567331
 20
7.106457744130665
 40
0.5115800601960215
 50
113.3722778881558
 51
151.4785267423134
 73
     0
 72
     2
 10
-36.97966531759192
 20
7.311529173469154
 40
0.9410597353348924
 50
151.4785267423305
 51
208.5214732576376
 73
     0
 72
     2
 10
-37.35702257567331
 20
7.516600602808154
 40
0.5115800601944143
 50
208.5214732575775
 51
250.6628567805147
 73
     0
 72
     2
 10
-37.21035257756961
 20
7.098645622425266
 40
0.9545230068260935
 50
250.662856780568
 51
270.0
 73
     0
 72
     1
 10
-37.21035257756961
 20
8.05316862925136
 11
-36.10671327800151
 21
8.05316862925136
 72
     1
 10
-36.10671327800151
 20
8.05316862925136
 11
-36.10671327800151
 21
5.784624411563868
 72
     1
 10
-36.10671327800151
 20
5.784624411563868
 11
-34.9139205758338
 21
5.784624411563868
 72
     1
 10
-34.9139205758338
 20
5.784624411563868
 11
-34.9139205758338
 21
8.05316862925136
 72
     1
 10
-34.9139205758338
 20
8.05316862925136
 11
-34.10282153836042
 21
8.05316862925136
 72
     1
 10
-34.10282153836042
 20
8.05316862925136
 11
-34.10282153836042
 21
8.838433935374951
 72
     1
 10
-34.10282153836042
 20
8.838433935374951
 11
-37.4877670569891
 21
8.838433935374468
 97
       18
330
1AC
330
1AB
330
1AA
330
1A9
330
1AE
330
148
330
226
330
207
330
225
330
208
330
224
330
223
330
149
330
222
330
221
330
209
330
20A
330
1AD
 75
     1
 76
     0
 52
45.0
 41
0.1
 77
     0
 78
     1
 53
45.0
 43
0.0
 44
0.0
 45
-0.0707106781186548
 46
0.0707106781186548
 79
     0
 98
        1
 10
0.0
 20
0.0
  0
HATCH
  5
25B
330
71
100
AcDbEntity
  8
1
  6
Continuous
 62
     2
100
AcDbHatch
 10
0.0
 20
0.0
 30
0.0
210
0.0
220
0.0
230
1.0
  2
_USER
 70
     0
 71
     1
 91
        1
 92
        1
 93
       18
 72
     2
 10
-37.4877670569891
 20
7.198738811434254
 40
1.639695123940214
 50
90.0
 51
164.938108222895
 73
     1
 72
     2
 10
-37.90689490045071
 20
7.311529173469154
 40
1.205656168393002
 50
164.9381082229028
 51
195.0618917770959
 73
     1
 72
     2
 10
-37.4877670569891
 20
7.424319535503969
 40
1.639695123940448
 50
195.0618917771012
 51
275.1581447696765
 73
     1
 72
     2
 10
-37.77662315172492
 20
10.62421011872556
 40
4.852596863498828
 50
275.1581447696364
 51
285.9799912583387
 73
     1
 72
     1
 10
-36.4406952346082
 20
5.959127812924152
 11
-36.4406952346082
 21
6.831644819727472
 72
     2
 10
-37.61875027663211
 20
8.721995538877252
 40
2.227384008972746
 50
58.06909105006029
 51
71.55192388186651
 73
     0
 72
     2
 10
-37.20058254297021
 20
7.468449762840663
 40
0.9059297849852829
 50
71.55192388191827
 51
113.3722778881822
 73
     0
 72
     2
 10
-37.35702257567331
 20
7.106457744130665
 40
0.5115800601960215
 50
113.3722778881558
 51
151.4785267423134
 73
     0
 72
     2
 10
-36.97966531759192
 20
7.311529173469154
 40
0.9410597353348924
 50
151.4785267423305
 51
208.5214732576376
 73
     0
 72
     2
 10
-37.35702257567331
 20
7.516600602808154
 40
0.5115800601944143
 50
208.5214732575775
 51
250.6628567805147
 73
     0
 72
     2
 10
-37.21035257756961
 20
7.098645622425266
 40
0.9545230068260935
 50
250.662856780568
 51
270.0
 73
     0
 72
     1
 10
-37.21035257756961
 20
8.05316862925136
 11
-36.10671327800151
 21
8.05316862925136
 72
     1
 10
-36.10671327800151
 20
8.05316862925136
 11
-36.10671327800151
 21
5.784624411563868
 72
     1
 10
-36.10671327800151
 20
5.784624411563868
 11
-34.9139205758338
 21
5.784624411563868
 72
     1
 10
-34.9139205758338
 20
5.784624411563868
 11
-34.9139205758338
 21
8.05316862925136
 72
     1
 10
-34.9139205758338
 20
8.05316862925136
 11
-34.10282153836042
 21
8.05316862925136
 72
     1
 10
-34.10282153836042
 20
8.05316862925136
 11
-34.10282153836042
 21
8.838433935374951
 72
     1
 10
-34.10282153836042
 20
8.838433935374951
 11
-37.4877670569891
 21
8.838433935374468
 97
       18
330
1AC
330
1AB
330
1AA
330
1A9
330
1AE
330
148
330
226
330
207
330
225
330
208
330
224
330
223
330
149
330
222
330
221
330
209
330
20A
330
1AD
 75
     1
 76
     0
 52
45.0
 41
0.1
 77
     0
 78
     1
 53
45.0
 43
0.0
 44
0.0
 45
-0.0707106781186548
 46
0.0707106781186548
 79
     0
 98
        1
 10
0.0
 20
0.0
  0
HATCH
  5
25C
330
71
100
AcDbEntity
  8
1
  6
Continuous
 62
     2
100
AcDbHatch
 10
0.0
 20
0.0
 30
0.0
210
0.0
220
0.0
230
1.0
  2
_USER
 70
     0
 71
     1
 91
        4
 92
        1
 93
        8
 72
     2
 10
-61.58992615368211
 20
11.77337979614737
 40
0.4242446153837989
 50
90.0
 51
180.0
 73
     1
 72
     1
 10
-62.01417076906492
 20
11.77337979614737
 11
-62.01417076906492
 21
6.208869026947156
 72
     2
 10
-61.58992615368211
 20
6.208869026947156
 40
0.4242446153828112
 50
180.0
 51
270.0
 73
     1
 72
     1
 10
-61.58992615368211
 20
5.784624411563868
 11
-56.11661406296531
 21
5.784624411563868
 72
     2
 10
-56.11661406296531
 20
6.208869026947156
 40
0.4242446153832873
 50
270.0
 51
360.0
 73
     1
 72
     1
 10
-55.69236944758143
 20
6.208869026947156
 11
-55.69236944758143
 21
11.77337979614737
 72
     2
 10
-56.11661406296531
 20
11.77337979614737
 40
0.4242446153838841
 50
0.0
 51
90.0
 73
     1
 72
     1
 10
-56.11661406296531
 20
12.19762441153117
 11
-61.58992615368211
 21
12.19762441153117
 97
        8
330
21A
330
177
330
219
330
178
330
210
330
175
330
21B
330
176
 92
       16
 93
        1
 72
     2
 10
-58.97034050316461
 20
9.454497567791861
 40
0.4709789327785074
 50
0.0
 51
360.0
 73
     1
 97
        1
330
22E
 92
       16
 93
        8
 72
     2
 10
-58.9465254884918
 20
9.454497567791861
 40
0.911848150144459
 50
295.3740086781764
 51
424.6259913218075
 73
     1
 72
     2
 10
-58.42048279040392
 20
10.56363916775968
 40
0.3157169230767991
 50
115.3740086783517
 51
180.0
 73
     0
 72
     1
 10
-58.73619971348072
 20
10.56363916775968
 11
-58.73619971348072
 21
11.16917445626646
 72
     2
 10
-58.42048279040392
 20
11.16917445626646
 40
0.3157169230760746
 50
180.0
 51
269.8110329574541
 73
     0
 72
     2
 10
-58.4148666550939
 20
9.46633950869736
 40
2.018561131933265
 50
269.8110329575858
 51
450.1889670424142
 73
     0
 72
     2
 10
-58.42048279040392
 20
7.763504561128372
 40
0.3157169230767991
 50
90.18896704254585
 51
180.0
 73
     0
 72
     1
 10
-58.73619971348072
 20
7.763504561128372
 11
-58.73619971348072
 21
8.345355967823451
 72
     2
 10
-58.42048279040392
 20
8.345355967823451
 40
0.3157169230765328
 50
180.0
 51
244.6259913216482
 73
     0
 97
        8
330
228
330
204
330
1B0
330
227
330
205
330
206
330
1AF
330
203
 92
       16
 93
       12
 72
     1
 10
-60.99603147693563
 20
6.497179967120758
 11
-59.520198215926
 21
6.497179967120758
 72
     2
 10
-59.520198215926
 20
6.812896890197465
 40
0.3157169230767076
 50
270.0
 51
360.0
 73
     1
 72
     1
 10
-59.20448129284941
 20
6.812896890197465
 11
-59.20448129284941
 21
8.34366782172907
 72
     2
 10
-59.520198215926
 20
8.34366782172907
 40
0.315716923076593
 50
0.0
 51
64.8055893514591
 73
     1
 72
     2
 10
-58.99761376835102
 20
9.454497567791861
 40
0.9118975235576118
 50
115.1944106485114
 51
244.8055893514727
 73
     0
 72
     2
 10
-59.520198215926
 20
10.56532731385406
 40
0.3157169230761249
 50
295.1944106485408
 51
360.0
 73
     1
 72
     1
 10
-59.20448129284941
 20
10.56532731385406
 11
-59.20448129284941
 21
11.16935193291457
 72
     2
 10
-59.520198215926
 20
11.16935193291457
 40
0.315716923076593
 50
0.0
 51
90.0
 73
     1
 72
     1
 10
-59.520198215926
 20
11.48506885599076
 11
-60.99603147693563
 21
11.48506885599076
 72
     2
 10
-60.99603147693563
 20
11.16935193291457
 40
0.3157169230761898
 50
90.0
 51
180.0
 73
     1
 72
     1
 10
-61.31174840001131
 20
11.16935193291457
 11
-61.31174840001131
 21
6.812896890197465
 72
     2
 10
-60.99603147693563
 20
6.812896890197465
 40
0.3157169230756836
 50
180.0
 51
270.0
 73
     1
 97
       12
330
17C
330
20D
330
17B
330
21E
330
17A
330
21D
330
20E
330
20F
330
179
330
21C
330
174
330
21F
 75
     1
 76
     0
 52
45.0
 41
0.1
 77
     0
 78
     1
 53
45.0
 43
0.0
 44
0.0
 45
-0.0707106781186548
 46
0.0707106781186548
 79
     0
 98
        1
 10
0.0
 20
0.0
  0
HATCH
  5
25D
330
71
100
AcDbEntity
  8
1
  6
Continuous
 62
     2
100
AcDbHatch
 10
0.0
 20
0.0
 30
0.0
210
0.0
220
0.0
230
1.0
  2
_USER
 70
     0
 71
     1
 91
        4
 92
        1
 93
        8
 72
     2
 10
-61.58992615368211
 20
11.77337979614737
 40
0.4242446153837989
 50
90.0
 51
180.0
 73
     1
 72
     1
 10
-62.01417076906492
 20
11.77337979614737
 11
-62.01417076906492
 21
6.208869026947156
 72
     2
 10
-61.58992615368211
 20
6.208869026947156
 40
0.4242446153828112
 50
180.0
 51
270.0
 73
     1
 72
     1
 10
-61.58992615368211
 20
5.784624411563868
 11
-56.11661406296531
 21
5.784624411563868
 72
     2
 10
-56.11661406296531
 20
6.208869026947156
 40
0.4242446153832873
 50
270.0
 51
360.0
 73
     1
 72
     1
 10
-55.69236944758143
 20
6.208869026947156
 11
-55.69236944758143
 21
11.77337979614737
 72
     2
 10
-56.11661406296531
 20
11.77337979614737
 40
0.4242446153838841
 50
0.0
 51
90.0
 73
     1
 72
     1
 10
-56.11661406296531
 20
12.19762441153117
 11
-61.58992615368211
 21
12.19762441153117
 97
        8
330
21A
330
177
330
219
330
178
330
210
330
175
330
21B
330
176
 92
       16
 93
        1
 72
     2
 10
-58.97034050316461
 20
9.454497567791861
 40
0.4709789327785074
 50
0.0
 51
360.0
 73
     1
 97
        1
330
22E
 92
       16
 93
        8
 72
     2
 10
-58.9465254884918
 20
9.454497567791861
 40
0.911848150144459
 50
295.3740086781764
 51
424.6259913218075
 73
     1
 72
     2
 10
-58.42048279040392
 20
10.56363916775968
 40
0.3157169230767991
 50
115.3740086783517
 51
180.0
 73
     0
 72
     1
 10
-58.73619971348072
 20
10.56363916775968
 11
-58.73619971348072
 21
11.16917445626646
 72
     2
 10
-58.42048279040392
 20
11.16917445626646
 40
0.3157169230760746
 50
180.0
 51
269.8110329574541
 73
     0
 72
     2
 10
-58.4148666550939
 20
9.46633950869736
 40
2.018561131933265
 50
269.8110329575858
 51
450.1889670424142
 73
     0
 72
     2
 10
-58.42048279040392
 20
7.763504561128372
 40
0.3157169230767991
 50
90.18896704254585
 51
180.0
 73
     0
 72
     1
 10
-58.73619971348072
 20
7.763504561128372
 11
-58.73619971348072
 21
8.345355967823451
 72
     2
 10
-58.42048279040392
 20
8.345355967823451
 40
0.3157169230765328
 50
180.0
 51
244.6259913216482
 73
     0
 97
        8
330
228
330
204
330
1B0
330
227
330
205
330
206
330
1AF
330
203
 92
       16
 93
       12
 72
     1
 10
-60.99603147693563
 20
6.497179967120758
 11
-59.520198215926
 21
6.497179967120758
 72
     2
 10
-59.520198215926
 20
6.812896890197465
 40
0.3157169230767076
 50
270.0
 51
360.0
 73
     1
 72
     1
 10
-59.20448129284941
 20
6.812896890197465
 11
-59.20448129284941
 21
8.34366782172907
 72
     2
 10
-59.520198215926
 20
8.34366782172907
 40
0.315716923076593
 50
0.0
 51
64.8055893514591
 73
     1
 72
     2
 10
-58.99761376835102
 20
9.454497567791861
 40
0.9118975235576118
 50
115.1944106485114
 51
244.8055893514727
 73
     0
 72
     2
 10
-59.520198215926
 20
10.56532731385406
 40
0.3157169230761249
 50
295.1944106485408
 51
360.0
 73
     1
 72
     1
 10
-59.20448129284941
 20
10.56532731385406
 11
-59.20448129284941
 21
11.16935193291457
 72
     2
 10
-59.520198215926
 20
11.16935193291457
 40
0.315716923076593
 50
0.0
 51
90.0
 73
     1
 72
     1
 10
-59.520198215926
 20
11.48506885599076
 11
-60.99603147693563
 21
11.48506885599076
 72
     2
 10
-60.99603147693563
 20
11.16935193291457
 40
0.3157169230761898
 50
90.0
 51
180.0
 73
     1
 72
     1
 10
-61.31174840001131
 20
11.16935193291457
 11
-61.31174840001131
 21
6.812896890197465
 72
     2
 10
-60.99603147693563
 20
6.812896890197465
 40
0.3157169230756836
 50
180.0
 51
270.0
 73
     1
 97
       12
330
17C
330
20D
330
17B
330
21E
330
17A
330
21D
330
20E
330
20F
330
179
330
21C
330
174
330
21F
 75
     1
 76
     0
 52
45.0
 41
0.1
 77
     0
 78
     1
 53
45.0
 43
0.0
 44
0.0
 45
-0.0707106781186548
 46
0.0707106781186548
 79
     0
 98
        1
 10
0.0
 20
0.0
  0
HATCH
  5
25E
330
71
100
AcDbEntity
  8
1
  6
Continuous
 62
     2
100
AcDbHatch
 10
0.0
 20
0.0
 30
0.0
210
0.0
220
0.0
230
1.0
  2
_USER
 70
     0
 71
     1
 91
        2
 92
        1
 93
       12
 72
     2
 10
-46.91476214969282
 20
10.67071964964347
 40
1.52690476190589
 50
90.0
 51
270.0
 73
     1
 72
     1
 10
-46.91476214969282
 20
9.14381488773816
 11
-43.76444242591182
 21
9.14381488773816
 72
     1
 10
-43.76444242591182
 20
9.14381488773816
 11
-43.76444242591182
 21
9.841828493180657
 72
     1
 10
-43.76444242591182
 20
9.841828493180657
 11
-45.1003702523395
 21
9.841828493180657
 72
     1
 10
-45.1003702523395
 20
9.841828493180657
 11
-45.1003702523395
 21
10.32171284692237
 72
     1
 10
-45.1003702523395
 20
10.32171284692237
 11
-43.76444242591182
 21
10.32171284692237
 72
     1
 10
-43.76444242591182
 20
10.32171284692237
 11
-43.76444242591182
 21
11.01972645236467
 72
     1
 10
-43.76444242591182
 20
11.01972645236467
 11
-45.1003702523395
 21
11.01972645236467
 72
     1
 10
-45.1003702523395
 20
11.01972645236467
 11
-45.1003702523395
 21
11.49961080610638
 72
     1
 10
-45.1003702523395
 20
11.49961080610638
 11
-43.76444242591182
 21
11.49961080610638
 72
     1
 10
-43.76444242591182
 20
11.49961080610638
 11
-43.76444242591182
 21
12.19762441154936
 72
     1
 10
-43.76444242591182
 20
12.19762441154936
 11
-46.91476214969282
 21
12.19762441154936
 97
       12
330
16B
330
165
330
18C
330
18B
330
18A
330
189
330
166
330
167
330
168
330
169
330
20B
330
16A
 92
       16
 93
        4
 72
     2
 10
-46.49875010318132
 20
10.67071964964347
 40
0.7717997786796724
 50
141.8795802028404
 51
218.120419797156
 73
     1
 72
     2
 10
-46.69849013952762
 20
10.51398847152305
 40
0.5179085730134372
 50
218.1204197971511
 51
321.8795802028562
 73
     1
 72
     2
 10
-46.89823017587381
 20
10.67071964964347
 40
0.7717997786796351
 50
321.879580202844
 51
398.1204197971596
 73
     1
 72
     2
 10
-46.69849013952762
 20
10.82745082776395
 40
0.517908573013521
 50
38.12041979714382
 51
141.8795802028489
 73
     1
 97
        4
330
218
330
217
330
212
330
211
 75
     1
 76
     0
 52
45.0
 41
0.1
 77
     0
 78
     1
 53
45.0
 43
0.0
 44
0.0
 45
-0.0707106781186548
 46
0.0707106781186548
 79
     0
 98
        1
 10
0.0
 20
0.0
  0
HATCH
  5
25F
330
71
100
AcDbEntity
  8
1
  6
Continuous
 62
     2
100
AcDbHatch
 10
0.0
 20
0.0
 30
0.0
210
0.0
220
0.0
230
1.0
  2
_USER
 70
     0
 71
     1
 91
        2
 92
        1
 93
       12
 72
     2
 10
-46.91476214969282
 20
10.67071964964347
 40
1.52690476190589
 50
90.0
 51
270.0
 73
     1
 72
     1
 10
-46.91476214969282
 20
9.14381488773816
 11
-43.76444242591182
 21
9.14381488773816
 72
     1
 10
-43.76444242591182
 20
9.14381488773816
 11
-43.76444242591182
 21
9.841828493180657
 72
     1
 10
-43.76444242591182
 20
9.841828493180657
 11
-45.1003702523395
 21
9.841828493180657
 72
     1
 10
-45.1003702523395
 20
9.841828493180657
 11
-45.1003702523395
 21
10.32171284692237
 72
     1
 10
-45.1003702523395
 20
10.32171284692237
 11
-43.76444242591182
 21
10.32171284692237
 72
     1
 10
-43.76444242591182
 20
10.32171284692237
 11
-43.76444242591182
 21
11.01972645236467
 72
     1
 10
-43.76444242591182
 20
11.01972645236467
 11
-45.1003702523395
 21
11.01972645236467
 72
     1
 10
-45.1003702523395
 20
11.01972645236467
 11
-45.1003702523395
 21
11.49961080610638
 72
     1
 10
-45.1003702523395
 20
11.49961080610638
 11
-43.76444242591182
 21
11.49961080610638
 72
     1
 10
-43.76444242591182
 20
11.49961080610638
 11
-43.76444242591182
 21
12.19762441154936
 72
     1
 10
-43.76444242591182
 20
12.19762441154936
 11
-46.91476214969282
 21
12.19762441154936
 97
       12
330
16B
330
165
330
18C
330
18B
330
18A
330
189
330
166
330
167
330
168
330
169
330
20B
330
16A
 92
       16
 93
        4
 72
     2
 10
-46.49875010318132
 20
10.67071964964347
 40
0.7717997786796724
 50
141.8795802028404
 51
218.120419797156
 73
     1
 72
     2
 10
-46.69849013952762
 20
10.51398847152305
 40
0.5179085730134372
 50
218.1204197971511
 51
321.8795802028562
 73
     1
 72
     2
 10
-46.89823017587381
 20
10.67071964964347
 40
0.7717997786796351
 50
321.879580202844
 51
398.1204197971596
 73
     1
 72
     2
 10
-46.69849013952762
 20
10.82745082776395
 40
0.517908573013521
 50
38.12041979714382
 51
141.8795802028489
 73
     1
 97
        4
330
218
330
217
330
212
330
211
 75
     1
 76
     0
 52
45.0
 41
0.1
 77
     0
 78
     1
 53
45.0
 43
0.0
 44
0.0
 45
-0.0707106781186548
 46
0.0707106781186548
 79
     0
 98
        1
 10
0.0
 20
0.0
  0
HATCH
  5
260
330
71
100
AcDbEntity
  8
1
  6
Continuous
 62
     2
100
AcDbHatch
 10
0.0
 20
0.0
 30
0.0
210
0.0
220
0.0
230
1.0
  2
_USER
 70
     0
 71
     1
 91
        2
 92
        1
 93
        4
 72
     2
 10
-50.94037751215441
 20
7.311529173469154
 40
1.45803408365149
 50
117.5481481756624
 51
242.4518518243375
 73
     1
 72
     2
 10
-50.65943762032111
 20
7.850104183772459
 40
2.065479772208513
 50
242.4518518243401
 51
297.5481481756869
 73
     1
 72
     2
 10
-50.37849772848782
 20
7.311529173469154
 40
1.458034083652006
 50
297.5481481757013
 51
422.4518518242987
 73
     1
 72
     2
 10
-50.65943762032111
 20
6.772954163166361
 40
2.065479772208564
 50
62.45185182430654
 51
117.5481481756666
 73
     1
 97
        4
330
216
330
213
330
215
330
214
 92
       16
 93
        4
 72
     2
 10
-50.65943762032111
 20
7.468260351589663
 40
0.5179085730132943
 50
38.12041979714752
 51
141.8795802028598
 73
     1
 72
     2
 10
-50.45969758397501
 20
7.311529173469154
 40
0.7717997786794744
 50
141.8795802028369
 51
218.120419797168
 73
     1
 72
     2
 10
-50.65943762032111
 20
7.154797995349156
 40
0.5179085730137466
 50
218.1204197971922
 51
321.8795802028005
 73
     1
 72
     2
 10
-50.85917765666753
 20
7.311529173469154
 40
0.7717997786797003
 50
321.879580202842
 51
398.120419797153
 73
     1
 97
        4
330
1F9
330
1FA
330
1FB
330
1F8
 75
     1
 76
     0
 52
45.0
 41
0.1
 77
     0
 78
     1
 53
45.0
 43
0.0
 44
0.0
 45
-0.0707106781186548
 46
0.0707106781186548
 79
     0
 98
        1
 10
0.0
 20
0.0
  0
HATCH
  5
261
330
71
100
AcDbEntity
  8
1
  6
Continuous
 62
     2
100
AcDbHatch
 10
0.0
 20
0.0
 30
0.0
210
0.0
220
0.0
230
1.0
  2
_USER
 70
     0
 71
     1
 91
        2
 92
        1
 93
        4
 72
     2
 10
-50.94037751215441
 20
7.311529173469154
 40
1.45803408365149
 50
117.5481481756624
 51
242.4518518243375
 73
     1
 72
     2
 10
-50.65943762032111
 20
7.850104183772459
 40
2.065479772208513
 50
242.4518518243401
 51
297.5481481756869
 73
     1
 72
     2
 10
-50.37849772848782
 20
7.311529173469154
 40
1.458034083652006
 50
297.5481481757013
 51
422.4518518242987
 73
     1
 72
     2
 10
-50.65943762032111
 20
6.772954163166361
 40
2.065479772208564
 50
62.45185182430654
 51
117.5481481756666
 73
     1
 97
        4
330
216
330
213
330
215
330
214
 92
       16
 93
        4
 72
     2
 10
-50.65943762032111
 20
7.468260351589663
 40
0.5179085730132943
 50
38.12041979714752
 51
141.8795802028598
 73
     1
 72
     2
 10
-50.45969758397501
 20
7.311529173469154
 40
0.7717997786794744
 50
141.8795802028369
 51
218.120419797168
 73
     1
 72
     2
 10
-50.65943762032111
 20
7.154797995349156
 40
0.5179085730137466
 50
218.1204197971922
 51
321.8795802028005
 73
     1
 72
     2
 10
-50.85917765666753
 20
7.311529173469154
 40
0.7717997786797003
 50
321.879580202842
 51
398.120419797153
 73
     1
 97
        4
330
1F9
330
1FA
330
1FB
330
1F8
 75
     1
 76
     0
 52
45.0
 41
0.1
 77
     0
 78
     1
 53
45.0
 43
0.0
 44
0.0
 45
-0.0707106781186548
 46
0.0707106781186548
 79
     0
 98
        1
 10
0.0
 20
0.0
  0
HATCH
  5
262
330
71
100
AcDbEntity
  8
1
  6
Continuous
 62
     2
100
AcDbHatch
 10
0.0
 20
0.0
 30
0.0
210
0.0
220
0.0
230
1.0
  2
_USER
 70
     0
 71
     1
 91
        2
 92
        1
 93
        6
 72
     1
 10
-55.21525236671462
 20
12.19762441154936
 11
-55.21525236671462
 21
9.14381488773816
 72
     1
 10
-55.21525236671462
 20
9.14381488773816
 11
-53.9747479564605
 21
9.14381488773816
 72
     1
 10
-53.9747479564605
 20
9.14381488773816
 11
-53.9747479564605
 21
10.08689312888197
 72
     1
 10
-53.9747479564605
 20
10.08689312888197
 11
-53.21598036868022
 21
10.08689312888197
 72
     2
 10
-53.21598036868022
 20
11.14225877021568
 40
1.05536564133371
 50
270.0
 51
450.0
 73
     1
 72
     1
 10
-53.21598036868022
 20
12.19762441154936
 11
-55.21525236671462
 21
12.19762441154936
 97
        6
330
220
330
17D
330
173
330
172
330
17F
330
17E
 92
       16
 93
        4
 72
     1
 10
-53.65745289491861
 20
11.53451856610926
 11
-53.9747479564605
 21
11.53451856610926
 72
     1
 10
-53.9747479564605
 20
11.53451856610926
 11
-53.9747479564605
 21
10.82879091676705
 72
     1
 10
-53.9747479564605
 20
10.82879091676705
 11
-53.65745289491861
 21
10.82879091676705
 72
     2
 10
-53.65745289491861
 20
11.18165474143817
 40
0.35286382467112
 50
270.0
 51
450.0
 73
     1
 97
        4
330
180
330
171
330
181
330
20C
 75
     1
 76
     0
 52
45.0
 41
0.1
 77
     0
 78
     1
 53
45.0
 43
0.0
 44
0.0
 45
-0.0707106781186548
 46
0.0707106781186548
 79
     0
 98
        1
 10
0.0
 20
0.0
  0
HATCH
  5
263
330
71
100
AcDbEntity
  8
1
  6
Continuous
 62
     2
100
AcDbHatch
 10
0.0
 20
0.0
 30
0.0
210
0.0
220
0.0
230
1.0
  2
_USER
 70
     0
 71
     1
 91
        2
 92
        1
 93
        6
 72
     1
 10
-55.21525236671462
 20
12.19762441154936
 11
-55.21525236671462
 21
9.14381488773816
 72
     1
 10
-55.21525236671462
 20
9.14381488773816
 11
-53.9747479564605
 21
9.14381488773816
 72
     1
 10
-53.9747479564605
 20
9.14381488773816
 11
-53.9747479564605
 21
10.08689312888197
 72
     1
 10
-53.9747479564605
 20
10.08689312888197
 11
-53.21598036868022
 21
10.08689312888197
 72
     2
 10
-53.21598036868022
 20
11.14225877021568
 40
1.05536564133371
 50
270.0
 51
450.0
 73
     1
 72
     1
 10
-53.21598036868022
 20
12.19762441154936
 11
-55.21525236671462
 21
12.19762441154936
 97
        6
330
220
330
17D
330
173
330
172
330
17F
330
17E
 92
       16
 93
        4
 72
     1
 10
-53.65745289491861
 20
11.53451856610926
 11
-53.9747479564605
 21
11.53451856610926
 72
     1
 10
-53.9747479564605
 20
11.53451856610926
 11
-53.9747479564605
 21
10.82879091676705
 72
     1
 10
-53.9747479564605
 20
10.82879091676705
 11
-53.65745289491861
 21
10.82879091676705
 72
     2
 10
-53.65745289491861
 20
11.18165474143817
 40
0.35286382467112
 50
270.0
 51
450.0
 73
     1
 97
        4
330
180
330
171
330
181
330
20C
 75
     1
 76
     0
 52
45.0
 41
0.1
 77
     0
 78
     1
 53
45.0
 43
0.0
 44
0.0
 45
-0.0707106781186548
 46
0.0707106781186548
 79
     0
 98
        1
 10
0.0
 20
0.0
  0
HATCH
  5
264
330
71
100
AcDbEntity
  8
1
  6
Continuous
 62
     2
100
AcDbHatch
 10
0.0
 20
0.0
 30
0.0
210
0.0
220
0.0
230
1.0
  2
_USER
 70
     0
 71
     1
 91
        1
 92
        1
 93
       12
 72
     1
 10
-35.60096917228142
 20
12.19762441154936
 11
-34.1982449545342
 21
12.19762441154936
 72
     1
 10
-34.1982449545342
 20
12.19762441154936
 11
-35.50077458530072
 21
10.72467388151316
 72
     1
 10
-35.50077458530072
 20
10.72467388151316
 11
-34.10282153836042
 21
9.14381488773816
 72
     1
 10
-34.10282153836042
 20
9.14381488773816
 11
-35.50554575610872
 21
9.14381488773816
 72
     1
 10
-35.50554575610872
 20
9.14381488773816
 11
-36.20213669417421
 21
9.931546673031875
 72
     1
 10
-36.20213669417421
 20
9.931546673031875
 11
-36.89872763223991
 21
9.14381488773816
 72
     1
 10
-36.89872763223991
 20
9.14381488773816
 11
-38.30145184998813
 21
9.14381488773816
 72
     1
 10
-38.30145184998813
 20
9.14381488773816
 11
-36.90349880304783
 21
10.72467388151316
 72
     1
 10
-36.90349880304783
 20
10.72467388151316
 11
-38.20602843381531
 21
12.19762441154936
 72
     1
 10
-38.20602843381531
 20
12.19762441154936
 11
-36.80330421606601
 21
12.19762441154936
 72
     1
 10
-36.80330421606601
 20
12.19762441154936
 11
-36.20213669417421
 21
11.51780108999387
 72
     1
 10
-36.20213669417421
 20
11.51780108999387
 11
-35.60096917228142
 21
12.19762441154936
 97
       12
330
14C
330
1A5
330
1A4
330
1A3
330
1A2
330
14D
330
14E
330
14A
330
14B
330
1A8
330
1A7
330
1A6
 75
     1
 76
     0
 52
45.0
 41
0.1
 77
     0
 78
     1
 53
45.0
 43
0.0
 44
0.0
 45
-0.0707106781186548
 46
0.0707106781186548
 79
     0
 98
        1
 10
0.0
 20
0.0
  0
HATCH
  5
265
330
71
100
AcDbEntity
  8
1
  6
Continuous
 62
     2
100
AcDbHatch
 10
0.0
 20
0.0
 30
0.0
210
0.0
220
0.0
230
1.0
  2
_USER
 70
     0
 71
     1
 91
        1
 92
        1
 93
       12
 72
     1
 10
-35.60096917228142
 20
12.19762441154936
 11
-34.1982449545342
 21
12.19762441154936
 72
     1
 10
-34.1982449545342
 20
12.19762441154936
 11
-35.50077458530072
 21
10.72467388151316
 72
     1
 10
-35.50077458530072
 20
10.72467388151316
 11
-34.10282153836042
 21
9.14381488773816
 72
     1
 10
-34.10282153836042
 20
9.14381488773816
 11
-35.50554575610872
 21
9.14381488773816
 72
     1
 10
-35.50554575610872
 20
9.14381488773816
 11
-36.20213669417421
 21
9.931546673031875
 72
     1
 10
-36.20213669417421
 20
9.931546673031875
 11
-36.89872763223991
 21
9.14381488773816
 72
     1
 10
-36.89872763223991
 20
9.14381488773816
 11
-38.30145184998813
 21
9.14381488773816
 72
     1
 10
-38.30145184998813
 20
9.14381488773816
 11
-36.90349880304783
 21
10.72467388151316
 72
     1
 10
-36.90349880304783
 20
10.72467388151316
 11
-38.20602843381531
 21
12.19762441154936
 72
     1
 10
-38.20602843381531
 20
12.19762441154936
 11
-36.80330421606601
 21
12.19762441154936
 72
     1
 10
-36.80330421606601
 20
12.19762441154936
 11
-36.20213669417421
 21
11.51780108999387
 72
     1
 10
-36.20213669417421
 20
11.51780108999387
 11
-35.60096917228142
 21
12.19762441154936
 97
       12
330
14C
330
1A5
330
1A4
330
1A3
330
1A2
330
14D
330
14E
330
14A
330
14B
330
1A8
330
1A7
330
1A6
 75
     1
 76
     0
 52
45.0
 41
0.1
 77
     0
 78
     1
 53
45.0
 43
0.0
 44
0.0
 45
-0.0707106781186548
 46
0.0707106781186548
 79
     0
 98
        1
 10
0.0
 20
0.0
  0
HATCH
  5
266
330
71
100
AcDbEntity
  8
1
  6
Continuous
 62
     2
100
AcDbHatch
 10
0.0
 20
0.0
 30
0.0
210
0.0
220
0.0
230
1.0
  2
_USER
 70
     0
 71
     1
 91
        1
 92
        1
 93
        4
 72
     1
 10
-38.42073112020501
 20
12.19762441154936
 11
-38.42073112020501
 21
9.14381488773816
 72
     1
 10
-38.42073112020501
 20
9.14381488773816
 11
-39.6612355304579
 21
9.14381488773816
 72
     1
 10
-39.6612355304579
 20
9.14381488773816
 11
-39.6612355304579
 21
12.19762441154936
 72
     1
 10
-39.6612355304579
 20
12.19762441154936
 11
-38.42073112020501
 21
12.19762441154936
 97
        4
330
1A0
330
14F
330
19F
330
1A1
 75
     1
 76
     0
 52
45.0
 41
0.1
 77
     0
 78
     1
 53
45.0
 43
0.0
 44
0.0
 45
-0.0707106781186548
 46
0.0707106781186548
 79
     0
 98
        1
 10
0.0
 20
0.0
  0
HATCH
  5
267
330
71
100
AcDbEntity
  8
1
  6
Continuous
 62
     2
100
AcDbHatch
 10
0.0
 20
0.0
 30
0.0
210
0.0
220
0.0
230
1.0
  2
_USER
 70
     0
 71
     1
 91
        1
 92
        1
 93
        4
 72
     1
 10
-38.42073112020501
 20
12.19762441154936
 11
-38.42073112020501
 21
9.14381488773816
 72
     1
 10
-38.42073112020501
 20
9.14381488773816
 11
-39.6612355304579
 21
9.14381488773816
 72
     1
 10
-39.6612355304579
 20
9.14381488773816
 11
-39.6612355304579
 21
12.19762441154936
 72
     1
 10
-39.6612355304579
 20
12.19762441154936
 11
-38.42073112020501
 21
12.19762441154936
 97
        4
330
1A0
330
14F
330
19F
330
1A1
 75
     1
 76
     0
 52
45.0
 41
0.1
 77
     0
 78
     1
 53
45.0
 43
0.0
 44
0.0
 45
-0.0707106781186548
 46
0.0707106781186548
 79
     0
 98
        1
 10
0.0
 20
0.0
  0
HATCH
  5
268
330
71
100
AcDbEntity
  8
1
  6
Continuous
 62
     2
100
AcDbHatch
 10
0.0
 20
0.0
 30
0.0
210
0.0
220
0.0
230
1.0
  2
_USER
 70
     0
 71
     1
 91
        2
 92
        1
 93
        8
 72
     1
 10
-38.811175123737
 20
5.784624411563868
 11
-40.05167953399092
 21
5.784624411563868
 72
     1
 10
-40.05167953399092
 20
5.784624411563868
 11
-40.2631595874667
 21
6.32558495578175
 72
     1
 10
-40.2631595874667
 20
6.32558495578175
 11
-41.39560116414052
 21
6.32558495578175
 72
     1
 10
-41.39560116414052
 20
6.32558495578175
 11
-41.60708121761633
 21
5.784624411563868
 72
     1
 10
-41.60708121761633
 20
5.784624411563868
 11
-42.84758562786931
 21
5.784624411563868
 72
     1
 10
-42.84758562786931
 20
5.784624411563868
 11
-41.44963258093
 21
8.838433935374951
 72
     1
 10
-41.44963258093
 20
8.838433935374951
 11
-40.2091281706773
 21
8.838433935374951
 72
     1
 10
-40.2091281706773
 20
8.838433935374951
 11
-38.811175123737
 21
5.784624411563868
 97
        8
330
19B
330
155
330
19A
330
19D
330
152
330
19C
330
153
330
154
 92
       16
 93
        3
 72
     1
 10
-41.12954561299551
 20
7.006148221088353
 11
-40.52921513861301
 21
7.006148221088353
 72
     1
 10
-40.52921513861301
 20
7.006148221088353
 11
-40.82938037580311
 21
7.773963187075054
 72
     1
 10
-40.82938037580311
 20
7.773963187075054
 11
-41.12954561299551
 21
7.006148221088353
 97
        3
330
151
330
150
330
19E
 75
     1
 76
     0
 52
45.0
 41
0.1
 77
     0
 78
     1
 53
45.0
 43
0.0
 44
0.0
 45
-0.0707106781186548
 46
0.0707106781186548
 79
     0
 98
        1
 10
0.0
 20
0.0
  0
HATCH
  5
269
330
71
100
AcDbEntity
  8
1
  6
Continuous
 62
     2
100
AcDbHatch
 10
0.0
 20
0.0
 30
0.0
210
0.0
220
0.0
230
1.0
  2
_USER
 70
     0
 71
     1
 91
        2
 92
        1
 93
        8
 72
     1
 10
-38.811175123737
 20
5.784624411563868
 11
-40.05167953399092
 21
5.784624411563868
 72
     1
 10
-40.05167953399092
 20
5.784624411563868
 11
-40.2631595874667
 21
6.32558495578175
 72
     1
 10
-40.2631595874667
 20
6.32558495578175
 11
-41.39560116414052
 21
6.32558495578175
 72
     1
 10
-41.39560116414052
 20
6.32558495578175
 11
-41.60708121761633
 21
5.784624411563868
 72
     1
 10
-41.60708121761633
 20
5.784624411563868
 11
-42.84758562786931
 21
5.784624411563868
 72
     1
 10
-42.84758562786931
 20
5.784624411563868
 11
-41.44963258093
 21
8.838433935374951
 72
     1
 10
-41.44963258093
 20
8.838433935374951
 11
-40.2091281706773
 21
8.838433935374951
 72
     1
 10
-40.2091281706773
 20
8.838433935374951
 11
-38.811175123737
 21
5.784624411563868
 97
        8
330
19B
330
155
330
19A
330
19D
330
152
330
19C
330
153
330
154
 92
       16
 93
        3
 72
     1
 10
-41.12954561299551
 20
7.006148221088353
 11
-40.52921513861301
 21
7.006148221088353
 72
     1
 10
-40.52921513861301
 20
7.006148221088353
 11
-40.82938037580311
 21
7.773963187075054
 72
     1
 10
-40.82938037580311
 20
7.773963187075054
 11
-41.12954561299551
 21
7.006148221088353
 97
        3
330
151
330
150
330
19E
 75
     1
 76
     0
 52
45.0
 41
0.1
 77
     0
 78
     1
 53
45.0
 43
0.0
 44
0.0
 45
-0.0707106781186548
 46
0.0707106781186548
 79
     0
 98
        1
 10
0.0
 20
0.0
  0
HATCH
  5
26A
330
71
100
AcDbEntity
  8
1
  6
Continuous
 62
     2
100
AcDbHatch
 10
0.0
 20
0.0
 30
0.0
210
0.0
220
0.0
230
1.0
  2
_USER
 70
     0
 71
     1
 91
        1
 92
        1
 93
        8
 72
     1
 10
-45.00509776705152
 20
8.838433935374951
 11
-45.00509776705152
 21
8.05316862925136
 72
     1
 10
-45.00509776705152
 20
8.05316862925136
 11
-44.19399872957692
 21
8.05316862925136
 72
     1
 10
-44.19399872957692
 20
8.05316862925136
 11
-44.19399872957692
 21
5.784624411563868
 72
     1
 10
-44.19399872957692
 20
5.784624411563868
 11
-43.0012060274104
 21
5.784624411563868
 72
     1
 10
-43.0012060274104
 20
5.784624411563868
 11
-43.0012060274104
 21
8.05316862925136
 72
     1
 10
-43.0012060274104
 20
8.05316862925136
 11
-42.1901069899379
 21
8.05316862925136
 72
     1
 10
-42.1901069899379
 20
8.05316862925136
 11
-42.1901069899379
 21
8.838433935374951
 72
     1
 10
-42.1901069899379
 20
8.838433935374951
 11
-45.00509776705152
 21
8.838433935374951
 97
        8
330
197
330
196
330
195
330
156
330
157
330
199
330
158
330
198
 75
     1
 76
     0
 52
45.0
 41
0.1
 77
     0
 78
     1
 53
45.0
 43
0.0
 44
0.0
 45
-0.0707106781186548
 46
0.0707106781186548
 79
     0
 98
        1
 10
0.0
 20
0.0
  0
HATCH
  5
26B
330
71
100
AcDbEntity
  8
1
  6
Continuous
 62
     2
100
AcDbHatch
 10
0.0
 20
0.0
 30
0.0
210
0.0
220
0.0
230
1.0
  2
_USER
 70
     0
 71
     1
 91
        1
 92
        1
 93
        8
 72
     1
 10
-45.00509776705152
 20
8.838433935374951
 11
-45.00509776705152
 21
8.05316862925136
 72
     1
 10
-45.00509776705152
 20
8.05316862925136
 11
-44.19399872957692
 21
8.05316862925136
 72
     1
 10
-44.19399872957692
 20
8.05316862925136
 11
-44.19399872957692
 21
5.784624411563868
 72
     1
 10
-44.19399872957692
 20
5.784624411563868
 11
-43.0012060274104
 21
5.784624411563868
 72
     1
 10
-43.0012060274104
 20
5.784624411563868
 11
-43.0012060274104
 21
8.05316862925136
 72
     1
 10
-43.0012060274104
 20
8.05316862925136
 11
-42.1901069899379
 21
8.05316862925136
 72
     1
 10
-42.1901069899379
 20
8.05316862925136
 11
-42.1901069899379
 21
8.838433935374951
 72
     1
 10
-42.1901069899379
 20
8.838433935374951
 11
-45.00509776705152
 21
8.838433935374951
 97
        8
330
197
330
196
330
195
330
156
330
157
330
199
330
158
330
198
 75
     1
 76
     0
 52
45.0
 41
0.1
 77
     0
 78
     1
 53
45.0
 43
0.0
 44
0.0
 45
-0.0707106781186548
 46
0.0707106781186548
 79
     0
 98
        1
 10
0.0
 20
0.0
  0
HATCH
  5
26C
330
71
100
AcDbEntity
  8
1
  6
Continuous
 62
     2
100
AcDbHatch
 10
0.0
 20
0.0
 30
0.0
210
0.0
220
0.0
230
1.0
  2
_USER
 70
     0
 71
     1
 91
        1
 92
        1
 93
       10
 72
     1
 10
-42.33309118331241
 20
12.19762441154936
 11
-43.52588388547892
 21
12.19762441154936
 72
     1
 10
-43.52588388547892
 20
12.19762441154936
 11
-43.52588388547892
 21
9.14381488773816
 72
     1
 10
-43.52588388547892
 20
9.14381488773816
 11
-42.33309118331241
 21
9.14381488773816
 72
     1
 10
-42.33309118331241
 20
9.14381488773816
 11
-42.33309118331241
 21
10.45259039794286
 72
     1
 10
-42.33309118331241
 20
10.45259039794286
 11
-41.0925867730584
 21
9.14381488773816
 72
     1
 10
-41.0925867730584
 20
9.14381488773816
 11
-39.8997940708918
 21
9.14381488773816
 72
     1
 10
-39.8997940708918
 20
9.14381488773816
 11
-39.8997940708918
 21
12.19762441154936
 72
     1
 10
-39.8997940708918
 20
12.19762441154936
 11
-41.0925867730584
 21
12.19762441154936
 72
     1
 10
-41.0925867730584
 20
12.19762441154936
 11
-41.0925867730584
 21
10.88884890134418
 72
     1
 10
-41.0925867730584
 20
10.88884890134418
 11
-42.33309118331241
 21
12.19762441154936
 97
       10
330
191
330
15B
330
15C
330
15D
330
15E
330
194
330
159
330
193
330
192
330
15A
 75
     1
 76
     0
 52
45.0
 41
0.1
 77
     0
 78
     1
 53
45.0
 43
0.0
 44
0.0
 45
-0.0707106781186548
 46
0.0707106781186548
 79
     0
 98
        1
 10
0.0
 20
0.0
  0
HATCH
  5
26D
330
71
100
AcDbEntity
  8
1
  6
Continuous
 62
     2
100
AcDbHatch
 10
0.0
 20
0.0
 30
0.0
210
0.0
220
0.0
230
1.0
  2
_USER
 70
     0
 71
     1
 91
        1
 92
        1
 93
       10
 72
     1
 10
-42.33309118331241
 20
12.19762441154936
 11
-43.52588388547892
 21
12.19762441154936
 72
     1
 10
-43.52588388547892
 20
12.19762441154936
 11
-43.52588388547892
 21
9.14381488773816
 72
     1
 10
-43.52588388547892
 20
9.14381488773816
 11
-42.33309118331241
 21
9.14381488773816
 72
     1
 10
-42.33309118331241
 20
9.14381488773816
 11
-42.33309118331241
 21
10.45259039794286
 72
     1
 10
-42.33309118331241
 20
10.45259039794286
 11
-41.0925867730584
 21
9.14381488773816
 72
     1
 10
-41.0925867730584
 20
9.14381488773816
 11
-39.8997940708918
 21
9.14381488773816
 72
     1
 10
-39.8997940708918
 20
9.14381488773816
 11
-39.8997940708918
 21
12.19762441154936
 72
     1
 10
-39.8997940708918
 20
12.19762441154936
 11
-41.0925867730584
 21
12.19762441154936
 72
     1
 10
-41.0925867730584
 20
12.19762441154936
 11
-41.0925867730584
 21
10.88884890134418
 72
     1
 10
-41.0925867730584
 20
10.88884890134418
 11
-42.33309118331241
 21
12.19762441154936
 97
       10
330
191
330
15B
330
15C
330
15D
330
15E
330
194
330
159
330
193
330
192
330
15A
 75
     1
 76
     0
 52
45.0
 41
0.1
 77
     0
 78
     1
 53
45.0
 43
0.0
 44
0.0
 45
-0.0707106781186548
 46
0.0707106781186548
 79
     0
 98
        1
 10
0.0
 20
0.0
  0
HATCH
  5
26E
330
71
100
AcDbEntity
  8
1
  6
Continuous
 62
     2
100
AcDbHatch
 10
0.0
 20
0.0
 30
0.0
210
0.0
220
0.0
230
1.0
  2
_USER
 70
     0
 71
     1
 91
        1
 92
        1
 93
       10
 72
     1
 10
-47.58153000373102
 20
8.838433935374951
 11
-48.77432270589861
 21
8.838433935374951
 72
     1
 10
-48.77432270589861
 20
8.838433935374951
 11
-48.77432270589861
 21
5.784624411563868
 72
     1
 10
-48.77432270589861
 20
5.784624411563868
 11
-47.58153000373102
 21
5.784624411563868
 72
     1
 10
-47.58153000373102
 20
5.784624411563868
 11
-47.58153000373102
 21
7.093399921768452
 72
     1
 10
-47.58153000373102
 20
7.093399921768452
 11
-46.34102559347812
 21
5.784624411563868
 72
     1
 10
-46.34102559347812
 20
5.784624411563868
 11
-45.14823289131172
 21
5.784624411563868
 72
     1
 10
-45.14823289131172
 20
5.784624411563868
 11
-45.14823289131172
 21
8.838433935374951
 72
     1
 10
-45.14823289131172
 20
8.838433935374951
 11
-46.34102559347812
 21
8.838433935374951
 72
     1
 10
-46.34102559347812
 20
8.838433935374951
 11
-46.34102559347812
 21
7.529658425169856
 72
     1
 10
-46.34102559347812
 20
7.529658425169856
 11
-47.58153000373102
 21
8.838433935374951
 97
       10
330
160
330
161
330
162
330
18E
330
163
330
164
330
18D
330
190
330
18F
330
15F
 75
     1
 76
     0
 52
45.0
 41
0.1
 77
     0
 78
     1
 53
45.0
 43
0.0
 44
0.0
 45
-0.0707106781186548
 46
0.0707106781186548
 79
     0
 98
        1
 10
0.0
 20
0.0
  0
HATCH
  5
26F
330
71
100
AcDbEntity
  8
1
  6
Continuous
 62
     2
100
AcDbHatch
 10
0.0
 20
0.0
 30
0.0
210
0.0
220
0.0
230
1.0
  2
_USER
 70
     0
 71
     1
 91
        1
 92
        1
 93
       10
 72
     1
 10
-47.58153000373102
 20
8.838433935374951
 11
-48.77432270589861
 21
8.838433935374951
 72
     1
 10
-48.77432270589861
 20
8.838433935374951
 11
-48.77432270589861
 21
5.784624411563868
 72
     1
 10
-48.77432270589861
 20
5.784624411563868
 11
-47.58153000373102
 21
5.784624411563868
 72
     1
 10
-47.58153000373102
 20
5.784624411563868
 11
-47.58153000373102
 21
7.093399921768452
 72
     1
 10
-47.58153000373102
 20
7.093399921768452
 11
-46.34102559347812
 21
5.784624411563868
 72
     1
 10
-46.34102559347812
 20
5.784624411563868
 11
-45.14823289131172
 21
5.784624411563868
 72
     1
 10
-45.14823289131172
 20
5.784624411563868
 11
-45.14823289131172
 21
8.838433935374951
 72
     1
 10
-45.14823289131172
 20
8.838433935374951
 11
-46.34102559347812
 21
8.838433935374951
 72
     1
 10
-46.34102559347812
 20
8.838433935374951
 11
-46.34102559347812
 21
7.529658425169856
 72
     1
 10
-46.34102559347812
 20
7.529658425169856
 11
-47.58153000373102
 21
8.838433935374951
 97
       10
330
160
330
161
330
162
330
18E
330
163
330
164
330
18D
330
190
330
18F
330
15F
 75
     1
 76
     0
 52
45.0
 41
0.1
 77
     0
 78
     1
 53
45.0
 43
0.0
 44
0.0
 45
-0.0707106781186548
 46
0.0707106781186548
 79
     0
 98
        1
 10
0.0
 20
0.0
  0
HATCH
  5
270
330
71
100
AcDbEntity
  8
1
  6
Continuous
 62
     2
100
AcDbHatch
 10
0.0
 20
0.0
 30
0.0
210
0.0
220
0.0
230
1.0
  2
_USER
 70
     0
 71
     1
 91
        1
 92
        1
 93
       12
 72
     1
 10
-48.58332494266642
 20
12.19762441154936
 11
-48.58332494266642
 21
9.14381488773816
 72
     1
 10
-48.58332494266642
 20
9.14381488773816
 11
-49.77611764483282
 21
9.14381488773816
 72
     1
 10
-49.77611764483282
 20
9.14381488773816
 11
-49.77611764483282
 21
10.27808699658198
 72
     1
 10
-49.77611764483282
 20
10.27808699658198
 11
-50.82577522274031
 21
10.27808699658198
 72
     1
 10
-50.82577522274031
 20
10.27808699658198
 11
-50.82577522274031
 21
9.14381488773816
 72
     1
 10
-50.82577522274031
 20
9.14381488773816
 11
-52.0185679249069
 21
9.14381488773816
 72
     1
 10
-52.0185679249069
 20
9.14381488773816
 11
-52.0185679249069
 21
12.19762441154936
 72
     1
 10
-52.0185679249069
 20
12.19762441154936
 11
-50.82577522274031
 21
12.19762441154936
 72
     1
 10
-50.82577522274031
 20
12.19762441154936
 11
-50.82577522274031
 21
11.12879107821476
 72
     1
 10
-50.82577522274031
 20
11.12879107821476
 11
-49.77611764483282
 21
11.12879107821476
 72
     1
 10
-49.77611764483282
 20
11.12879107821476
 11
-49.77611764483282
 21
12.19762441154936
 72
     1
 10
-49.77611764483282
 20
12.19762441154936
 11
-48.58332494266642
 21
12.19762441154936
 97
       12
330
188
330
187
330
186
330
16E
330
16F
330
185
330
170
330
184
330
183
330
182
330
16C
330
16D
 75
     1
 76
     0
 52
45.0
 41
0.1
 77
     0
 78
     1
 53
45.0
 43
0.0
 44
0.0
 45
-0.0707106781186548
 46
0.0707106781186548
 79
     0
 98
        1
 10
0.0
 20
0.0
  0
HATCH
  5
271
330
71
100
AcDbEntity
  8
1
  6
Continuous
 62
     2
100
AcDbHatch
 10
0.0
 20
0.0
 30
0.0
210
0.0
220
0.0
230
1.0
  2
_USER
 70
     0
 71
     1
 91
        1
 92
        1
 93
       12
 72
     1
 10
-48.58332494266642
 20
12.19762441154936
 11
-48.58332494266642
 21
9.14381488773816
 72
     1
 10
-48.58332494266642
 20
9.14381488773816
 11
-49.77611764483282
 21
9.14381488773816
 72
     1
 10
-49.77611764483282
 20
9.14381488773816
 11
-49.77611764483282
 21
10.27808699658198
 72
     1
 10
-49.77611764483282
 20
10.27808699658198
 11
-50.82577522274031
 21
10.27808699658198
 72
     1
 10
-50.82577522274031
 20
10.27808699658198
 11
-50.82577522274031
 21
9.14381488773816
 72
     1
 10
-50.82577522274031
 20
9.14381488773816
 11
-52.0185679249069
 21
9.14381488773816
 72
     1
 10
-52.0185679249069
 20
9.14381488773816
 11
-52.0185679249069
 21
12.19762441154936
 72
     1
 10
-52.0185679249069
 20
12.19762441154936
 11
-50.82577522274031
 21
12.19762441154936
 72
     1
 10
-50.82577522274031
 20
12.19762441154936
 11
-50.82577522274031
 21
11.12879107821476
 72
     1
 10
-50.82577522274031
 20
11.12879107821476
 11
-49.77611764483282
 21
11.12879107821476
 72
     1
 10
-49.77611764483282
 20
11.12879107821476
 11
-49.77611764483282
 21
12.19762441154936
 72
     1
 10
-49.77611764483282
 20
12.19762441154936
 11
-48.58332494266642
 21
12.19762441154936
 97
       12
330
188
330
187
330
186
330
16E
330
16F
330
185
330
170
330
184
330
183
330
182
330
16C
330
16D
 75
     1
 76
     0
 52
45.0
 41
0.1
 77
     0
 78
     1
 53
45.0
 43
0.0
 44
0.0
 45
-0.0707106781186548
 46
0.0707106781186548
 79
     0
 98
        1
 10
0.0
 20
0.0
  0
ENDBLK
  5
73
330
71
100
AcDbEntity
  8
0
100
AcDbBlockEnd
  0
BLOCK
  5
75
330
74
100
AcDbEntity
  8
0
100
AcDbBlockBegin
  2
_punkt
 70
     0
 10
63.29397887112249
 20
-1.50887558845244
 30
0.0
  3
_punkt
  1

  0
LINE
  5
272
330
74
100
AcDbEntity
  8
1
  6
Continuous
 62
     2
100
AcDbLine
 10
63.29397887112249
 20
-1.50887558845244
 30
0.0
 11
63.29397887112249
 21
-6.50887558845255
 31
0.0
  0
LINE
  5
273
330
74
100
AcDbEntity
  8
1
  6
Continuous
 62
     2
100
AcDbLine
 10
63.29397887112249
 20
-1.50887558845244
 30
0.0
 11
68.29397887112148
 21
-1.50887558845244
 31
0.0
  0
ENDBLK
  5
76
330
74
100
AcDbEntity
  8
0
100
AcDbBlockEnd
  0
BLOCK
  5
7A
330
77
100
AcDbEntity
  8
0
100
AcDbBlockBegin
  2
A4I_CS
 70
     0
 10
63.29397887112249
 20
-6.50887558845255
 30
0.0
  3
A4I_CS
  1

  0
INSERT
  5
78
330
77
100
AcDbEntity
  8
1
100
AcDbBlockReference
  2
_rahmen
 10
63.29397887112249
 20
-6.50887558845255
 30
0.0
  0
INSERT
  5
79
330
77
100
AcDbEntity
  8
1
100
AcDbBlockReference
  2
_punkt
 10
63.29397887112249
 20
-1.50887558845244
 30
0.0
  0
ENDBLK
  5
7B
330
77
100
AcDbEntity
  8
0
100
AcDbBlockEnd
  0
BLOCK
  5
84
330
7C
100
AcDbEntity
  8
0
100
AcDbBlockBegin
  2
1
 70
     0
 10
0.0
 20
0.0
 30
0.0
  3
1
  1

  0
INSERT
  5
7D
330
7C
100
AcDbEntity
  8
0
100
AcDbBlockReference
  2
AllgSicht1
 10
2.99478300000115
 20
74.25
 30
0.0
  0
INSERT
  5
7E
330
7C
100
AcDbEntity
  8
0
100
AcDbBlockReference
  2
Drfsicht1
 10
-135.0
 20
76.99999999999486
 30
0.0
  0
INSERT
  5
7F
330
7C
100
AcDbEntity
  8
0
100
AcDbBlockReference
  2
Rckans1
 10
-22.0000019073475
 20
138.9000001251698
 30
0.0
  0
INSERT
  5
80
330
7C
100
AcDbEntity
  8
0
100
AcDbBlockReference
  2
SA_Links1
 10
-78.50000095366431
 20
138.9000001251698
 30
0.0
  0
INSERT
  5
81
330
7C
100
AcDbEntity
  8
0
100
AcDbBlockReference
  2
SA_Rechts1
 10
-191.4999990463304
 20
138.9000001251698
 30
0.0
  0
INSERT
  5
82
330
7C
100
AcDbEntity
  8
0
100
AcDbBlockReference
  2
Vordans1
 10
-135.0
 20
138.9000001251698
 30
0.0
  0
INSERT
  5
83
330
7C
100
AcDbEntity
  8
0
100
AcDbBlockReference
  2
A4I_CS
 10
63.29397887112249
 20
-6.50887558845255
 30
0.0
  0
ENDBLK
  5
85
330
7C
100
AcDbEntity
  8
0
100
AcDbBlockEnd
  0
BLOCK
  5
D8
330
CF
100
AcDbEntity
  8
0
100
AcDbBlockBegin
  2
*D17
 70
     1
 10
0.0
 20
0.0
 30
0.0
  3
*D17
  1

  0
LINE
  5
D0
330
CF
100
AcDbEntity
  8
1
  6
Continuous
 62
     2
100
AcDbLine
 10
-93.50000057220468
 20
69.75000000595031
 30
0.0
 11
-93.50000057220468
 21
76.75000000595031
 31
0.0
  0
LINE
  5
D1
330
CF
100
AcDbEntity
  8
1
  6
Continuous
 62
     2
100
AcDbLine
 10
-93.50000057220468
 20
76.75000000595031
 30
0.0
 11
-93.50000057220468
 21
77.25000000595031
 31
0.0
  0
LINE
  5
D2
330
CF
100
AcDbEntity
  8
1
  6
Continuous
 62
     2
100
AcDbLine
 10
-93.50000057220468
 20
77.25000000595031
 30
0.0
 11
-93.50000057220468
 21
92.8381342630282
 31
0.0
  0
LINE
  5
D3
330
CF
100
AcDbEntity
  8
1
  6
Continuous
 62
     2
100
AcDbLine
 10
-103.5000005722047
 20
76.75000000595031
 30
0.0
 11
-92.00000057220468
 21
76.75000000595031
 31
0.0
  0
LINE
  5
D4
330
CF
100
AcDbEntity
  8
1
  6
Continuous
 62
     2
100
AcDbLine
 10
-103.5000005722047
 20
77.25000000595031
 30
0.0
 11
-92.00000057220468
 21
77.25000000595031
 31
0.0
  0
SOLID
  5
D5
330
CF
100
AcDbEntity
  8
1
 62
     2
100
AcDbTrace
 10
-93.0392168306488
 20
73.25000000595031
 30
0.0
 11
-93.96078431376057
 21
73.25000000595031
 31
0.0
 12
-93.50000057220468
 22
76.75000000595031
 32
0.0
 13
-93.50000057220468
 23
76.75000000595031
 33
0.0
  0
SOLID
  5
D6
330
CF
100
AcDbEntity
  8
1
 62
     2
100
AcDbTrace
 10
-93.96078431376057
 20
80.75000000595031
 30
0.0
 11
-93.0392168306488
 21
80.75000000595031
 31
0.0
 12
-93.50000057220468
 22
77.25000000595031
 32
0.0
 13
-93.50000057220468
 23
77.25000000595031
 33
0.0
  0
MTEXT
  5
D7
330
CF
100
AcDbEntity
  8
1
 62
     3
100
AcDbMText
 10
-95.35000057220468
 20
86.3631342630282
 30
0.0
 40
3.5
 41
0.0
 71
     7
 72
     1
  1
0,5
  7
CONVERTER_11
 11
0.0
 21
1.0
 31
0.0
 73
     1
 44
0.60024009603842
  0
ENDBLK
  5
D9
330
CF
100
AcDbEntity
  8
0
100
AcDbBlockEnd
  0
BLOCK
  5
12E
330
127
100
AcDbEntity
  8
0
100
AcDbBlockBegin
  2
*D18
 70
     1
 10
0.0
 20
0.0
 30
0.0
  3
*D18
  1

  0
LINE
  5
128
330
127
100
AcDbEntity
  8
1
  6
Continuous
 62
     2
100
AcDbLine
 10
-166.5000005722046
 20
110.356200756706
 30
0.0
 11
-103.5000005722047
 21
110.356200756706
 31
0.0
  0
LINE
  5
129
330
127
100
AcDbEntity
  8
1
  6
Continuous
 62
     2
100
AcDbLine
 10
-166.5000005722046
 20
124.8610953280274
 30
0.0
 11
-166.5000005722046
 21
108.856200756706
 31
0.0
  0
LINE
  5
12A
330
127
100
AcDbEntity
  8
1
  6
Continuous
 62
     2
100
AcDbLine
 10
-103.5000005722047
 20
124.8610953280274
 30
0.0
 11
-103.5000005722047
 21
108.856200756706
 31
0.0
  0
SOLID
  5
12B
330
127
100
AcDbEntity
  8
1
 62
     2
100
AcDbTrace
 10
-163.0000005722046
 20
110.8169844982619
 30
0.0
 11
-163.0000005722046
 21
109.8954170151501
 31
0.0
 12
-166.5000005722046
 22
110.356200756706
 32
0.0
 13
-166.5000005722046
 23
110.356200756706
 33
0.0
  0
SOLID
  5
12C
330
127
100
AcDbEntity
  8
1
 62
     2
100
AcDbTrace
 10
-107.0000005722047
 20
109.8954170151501
 30
0.0
 11
-107.0000005722047
 21
110.8169844982619
 31
0.0
 12
-103.5000005722047
 22
110.356200756706
 32
0.0
 13
-103.5000005722047
 23
110.356200756706
 33
0.0
  0
MTEXT
  5
12D
330
127
100
AcDbEntity
  8
1
 62
     3
100
AcDbMText
 10
-135.177849331814
 20
111.856200756706
 30
0.0
 40
3.5
 41
0.0
 71
     7
 72
     1
  1
63
  7
CONVERTER_11
 11
0.9999999999970619
 21
2.424068405545306E-6
 31
0.0
 73
     1
 44
0.60024009603842
  0
ENDBLK
  5
12F
330
127
100
AcDbEntity
  8
0
100
AcDbBlockEnd
  0
BLOCK
  5
138
330
131
100
AcDbEntity
  8
0
100
AcDbBlockBegin
  2
*D19
 70
     1
 10
0.0
 20
0.0
 30
0.0
  3
*D19
  1

  0
LINE
  5
132
330
131
100
AcDbEntity
  8
1
  6
Continuous
 62
     2
100
AcDbLine
 10
-93.8921635299395
 20
119.8610953280275
 30
0.0
 11
-93.8921635299395
 21
157.9389045772126
 31
0.0
  0
LINE
  5
133
330
131
100
AcDbEntity
  8
1
  6
Continuous
 62
     2
100
AcDbLine
 10
-108.5000005722046
 20
119.8610953280275
 30
0.0
 11
-92.3921635299395
 21
119.8610953280275
 31
0.0
  0
LINE
  5
134
330
131
100
AcDbEntity
  8
1
  6
Continuous
 62
     2
100
AcDbLine
 10
-124.5000005722086
 20
157.9389045772126
 30
0.0
 11
-92.3921635299395
 21
157.9389045772126
 31
0.0
  0
SOLID
  5
135
330
131
100
AcDbEntity
  8
1
 62
     2
100
AcDbTrace
 10
-94.35294727149538
 20
123.3610953280275
 30
0.0
 11
-93.43137978838361
 21
123.3610953280275
 31
0.0
 12
-93.8921635299395
 22
119.8610953280275
 32
0.0
 13
-93.8921635299395
 23
119.8610953280275
 33
0.0
  0
SOLID
  5
136
330
131
100
AcDbEntity
  8
1
 62
     2
100
AcDbTrace
 10
-93.43137978838361
 20
154.4389045772126
 30
0.0
 11
-94.35294727149538
 21
154.4389045772126
 31
0.0
 12
-93.8921635299395
 22
157.9389045772126
 32
0.0
 13
-93.8921635299395
 23
157.9389045772126
 33
0.0
  0
MTEXT
  5
137
330
131
100
AcDbEntity
  8
1
 62
     3
100
AcDbMText
 10
-95.74216352993949
 20
133.015353581395
 30
0.0
 40
3.5
 41
0.0
 71
     7
 72
     1
  1
38,08
  7
CONVERTER_11
 11
0.0
 21
1.0
 31
0.0
 73
     1
 44
0.60024009603842
  0
ENDBLK
  5
139
330
131
100
AcDbEntity
  8
0
100
AcDbBlockEnd
  0
ENDSEC
  0
SECTION
  2
ENTITIES
  0
INSERT
  5
86
330
1F
100
AcDbEntity
  8
1
100
AcDbBlockReference
  2
1
 10
0.0
 20
0.0
 30
0.0
  0
ENDSEC
  0
SECTION
  2
OBJECTS
  0
DICTIONARY
  5
C
330
0
100
AcDbDictionary
281
     1
  3
ACAD_GROUP
350
D
  3
ACAD_LAYOUT
350
1A
  3
ACAD_MATERIAL
350
3B
  3
ACAD_MLEADERSTYLE
350
29B
  3
ACAD_MLINESTYLE
350
17
  3
ACAD_PLOTSETTINGS
350
19
  3
ACAD_PLOTSTYLENAME
350
E
  3
ACAD_TABLESTYLE
350
29A
  3
ACAD_VISUALSTYLE
350
2A
  0
DICTIONARY
  5
D
102
{ACAD_REACTORS
330
C
102
}
330
C
100
AcDbDictionary
281
     1
  0
DICTIONARY
  5
1A
102
{ACAD_REACTORS
330
C
102
}
330
C
100
AcDbDictionary
281
     1
  3
Layout1
350
1E
  3
Layout2
350
26
  3
Model
350
22
  0
DICTIONARY
  5
3B
102
{ACAD_REACTORS
330
C
102
}
330
C
100
AcDbDictionary
281
     1
  3
ByBlock
350
3D
  3
ByLayer
350
3C
  3
Global
350
3E
  0
DICTIONARY
  5
29B
102
{ACAD_REACTORS
330
C
102
}
330
C
100
AcDbDictionary
281
     1
  0
DICTIONARY
  5
17
102
{ACAD_REACTORS
330
C
102
}
330
C
100
AcDbDictionary
281
     1
  3
Standard
350
18
  0
DICTIONARY
  5
19
102
{ACAD_REACTORS
330
C
102
}
330
C
100
AcDbDictionary
281
     1
  0
ACDBDICTIONARYWDFLT
  5
E
102
{ACAD_REACTORS
330
C
102
}
330
C
100
AcDbDictionary
281
     1
  3
Normal
350
F
100
AcDbDictionaryWithDefault
340
F
  0
DICTIONARY
  5
29A
102
{ACAD_REACTORS
330
C
102
}
330
C
100
AcDbDictionary
281
     1
  0
DICTIONARY
  5
2A
102
{ACAD_REACTORS
330
C
102
}
330
C
100
AcDbDictionary
281
     1
  3
2dWireframe
350
2F
  3
3D Hidden
350
31
  3
3dWireframe
350
30
  3
Basic
350
32
  3
Brighten
350
36
  3
ColorChange
350
3A
  3
Conceptual
350
34
  3
Dim
350
35
  3
Facepattern
350
39
  3
Flat
350
2B
  3
FlatWithEdges
350
2C
  3
Gouraud
350
2D
  3
GouraudWithEdges
350
2E
  3
Linepattern
350
38
  3
Realistic
350
33
  3
Thicken
350
37
  0
LAYOUT
  5
1E
102
{ACAD_REACTORS
330
1A
102
}
330
1A
100
AcDbPlotSettings
  1

  2
none_device
  4

  6

 40
0.0
 41
0.0
 42
0.0
 43
0.0
 44
0.0
 45
0.0
 46
0.0
 47
0.0
 48
0.0
 49
0.0
140
0.0
141
0.0
142
1.0
143
1.0
 70
   688
 72
     0
 73
     0
 74
     5
  7

 75
    16
 76
     0
 77
     2
 78
   300
147
1.0
148
0.0
149
0.0
100
AcDbLayout
  1
Layout1
 70
     1
 71
     1
 10
0.0
 20
0.0
 11
12.0
 21
9.0
 12
0.0
 22
0.0
 32
0.0
 14
1.00000000000000E+20
 24
1.00000000000000E+20
 34
1.00000000000000E+20
 15
-1.00000000000000E+20
 25
-1.00000000000000E+20
 35
-1.00000000000000E+20
146
0.0
 13
0.0
 23
0.0
 33
0.0
 16
1.0
 26
0.0
 36
0.0
 17
0.0
 27
1.0
 37
0.0
 76
     0
330
1B
  0
LAYOUT
  5
26
102
{ACAD_REACTORS
330
1A
102
}
330
1A
100
AcDbPlotSettings
  1

  2
none_device
  4

  6

 40
0.0
 41
0.0
 42
0.0
 43
0.0
 44
0.0
 45
0.0
 46
0.0
 47
0.0
 48
0.0
 49
0.0
140
0.0
141
0.0
142
1.0
143
1.0
 70
   688
 72
     0
 73
     0
 74
     5
  7

 75
    16
 76
     0
 77
     2
 78
   300
147
1.0
148
0.0
149
0.0
100
AcDbLayout
  1
Layout2
 70
     1
 71
     2
 10
0.0
 20
0.0
 11
0.0
 21
0.0
 12
0.0
 22
0.0
 32
0.0
 14
0.0
 24
0.0
 34
0.0
 15
0.0
 25
0.0
 35
0.0
146
0.0
 13
0.0
 23
0.0
 33
0.0
 16
1.0
 26
0.0
 36
0.0
 17
0.0
 27
1.0
 37
0.0
 76
     0
330
23
  0
LAYOUT
  5
22
102
{ACAD_REACTORS
330
1A
102
}
330
1A
100
AcDbPlotSettings
  1

  2
none_device
  4

  6

 40
0.0
 41
0.0
 42
0.0
 43
0.0
 44
0.0
 45
0.0
 46
0.0
 47
0.0
 48
0.0
 49
0.0
140
0.0
141
0.0
142
1.0
143
1.0
 70
  1712
 72
     0
 73
     0
 74
     0
  7

 75
     0
 76
     0
 77
     2
 78
   300
147
1.0
148
0.0
149
0.0
100
AcDbLayout
  1
Model
 70
     1
 71
     0
 10
0.0
 20
0.0
 11
12.0
 21
9.0
 12
0.0
 22
0.0
 32
0.0
 14
-228.7060211288766
 24
-6.50887558845255
 34
0.0
 15
68.29397887112148
 25
203.4911244115476
 35
0.0
146
0.0
 13
0.0
 23
0.0
 33
0.0
 16
1.0
 26
0.0
 36
0.0
 17
0.0
 27
1.0
 37
0.0
 76
     0
330
1F
331
29
  0
MATERIAL
  5
3D
102
{ACAD_REACTORS
330
3B
102
}
102
{ACAD_XDICTIONARY
360
296
102
}
330
3B
100
AcDbMaterial
  1
ByBlock
  0
MATERIAL
  5
3C
102
{ACAD_REACTORS
330
3B
102
}
102
{ACAD_XDICTIONARY
360
294
102
}
330
3B
100
AcDbMaterial
  1
ByLayer
  0
MATERIAL
  5
3E
102
{ACAD_REACTORS
330
3B
102
}
102
{ACAD_XDICTIONARY
360
298
102
}
330
3B
100
AcDbMaterial
  1
Global
  0
MLINESTYLE
  5
18
102
{ACAD_REACTORS
330
17
102
}
330
17
100
AcDbMlineStyle
  2
Standard
 70
     0
  3

 62
   256
 51
90.0
 52
90.0
 71
     2
 49
0.5
 62
   256
  6
BYLAYER
 49
-0.5
 62
   256
  6
BYLAYER
  0
ACDBPLACEHOLDER
  5
F
102
{ACAD_REACTORS
330
E
102
}
330
E
  0
VISUALSTYLE
  5
2F
102
{ACAD_REACTORS
330
2A
102
}
102
{ACAD_XDICTIONARY
360
27C
102
}
330
2A
100
AcDbVisualStyle
  2
2dWireframe
 70
     4
 71
     0
 72
     2
 73
     0
 90
        0
 40
-0.6
 41
-30.0
 62
     5
 63
     7
421
 16777215
 74
     1
 91
        4
 64
     7
 65
   257
 75
     1
175
     1
 42
1.0
 92
        0
 66
   257
 43
1.0
 76
     1
 77
     6
 78
     2
 67
     7
 79
     5
170
     0
171
     0
290
     0
174
     0
 93
        1
 44
0.0
173
     0
291
     0
 45
0.0
1001
ACAD
1000
AcDbSavedByObjectVersion
1070
     0
  0
VISUALSTYLE
  5
31
102
{ACAD_REACTORS
330
2A
102
}
102
{ACAD_XDICTIONARY
360
280
102
}
330
2A
100
AcDbVisualStyle
  2
3D Hidden
 70
     6
 71
     1
 72
     2
 73
     2
 90
        0
 40
-0.6
 41
-30.0
 62
     5
 63
     7
421
 16777215
 74
     2
 91
        2
 64
     7
 65
   257
 75
     2
175
     1
 42
40.0
 92
        0
 66
   257
 43
1.0
 76
     1
 77
     6
 78
     2
 67
     7
 79
     3
170
     0
171
     0
290
     0
174
     0
 93
        1
 44
0.0
173
     0
291
     0
 45
0.0
1001
ACAD
1000
AcDbSavedByObjectVersion
1070
     0
  0
VISUALSTYLE
  5
30
102
{ACAD_REACTORS
330
2A
102
}
102
{ACAD_XDICTIONARY
360
27E
102
}
330
2A
100
AcDbVisualStyle
  2
3dWireframe
 70
     5
 71
     0
 72
     2
 73
     0
 90
        0
 40
-0.6
 41
-30.0
 62
     5
 63
     7
421
 16777215
 74
     1
 91
        4
 64
     7
 65
   257
 75
     1
175
     1
 42
1.0
 92
        0
 66
   257
 43
1.0
 76
     1
 77
     6
 78
     2
 67
     7
 79
     5
170
     0
171
     0
290
     0
174
     0
 93
        1
 44
0.0
173
     0
291
     0
 45
0.0
1001
ACAD
1000
AcDbSavedByObjectVersion
1070
     0
  0
VISUALSTYLE
  5
32
102
{ACAD_REACTORS
330
2A
102
}
102
{ACAD_XDICTIONARY
360
282
102
}
330
2A
100
AcDbVisualStyle
  2
Basic
 70
     7
 71
     1
 72
     0
 73
     1
 90
        0
 40
-0.6
 41
-30.0
 62
     5
 63
     7
421
 16777215
 74
     0
 91
        4
 64
     7
 65
   257
 75
     1
175
     1
 42
1.0
 92
        8
 66
     7
 43
1.0
 76
     1
 77
     6
 78
     2
 67
     7
 79
     5
170
     0
171
     0
290
     0
174
     0
 93
        1
 44
0.0
173
     0
291
     1
 45
0.0
1001
ACAD
1000
AcDbSavedByObjectVersion
1070
     0
  0
VISUALSTYLE
  5
36
102
{ACAD_REACTORS
330
2A
102
}
102
{ACAD_XDICTIONARY
360
28A
102
}
330
2A
100
AcDbVisualStyle
  2
Brighten
 70
    12
 71
     2
 72
     2
 73
     0
 90
        0
 40
-0.6
 41
-30.0
 62
     5
 63
     7
421
 16777215
 74
     1
 91
        4
 64
     7
 65
   257
 75
     1
175
     1
 42
1.0
 92
        8
 66
     7
 43
1.0
 76
     1
 77
     6
 78
     2
 67
     7
 79
     5
170
     0
171
     0
290
     0
174
     0
 93
        1
 44
50.0
173
     0
291
     1
 45
0.0
1001
ACAD
1000
AcDbSavedByObjectVersion
1070
     0
  0
VISUALSTYLE
  5
3A
102
{ACAD_REACTORS
330
2A
102
}
102
{ACAD_XDICTIONARY
360
292
102
}
330
2A
100
AcDbVisualStyle
  2
ColorChange
 70
    16
 71
     2
 72
     2
 73
     3
 90
        0
 40
-0.6
 41
-30.0
 62
     5
 63
     8
421
  8421504
 74
     1
 91
        4
 64
     7
 65
   257
 75
     1
175
     1
 42
1.0
 92
        8
 66
     8
424
  8421504
 43
1.0
 76
     1
 77
     6
 78
     2
 67
     7
 79
     5
170
     0
171
     0
290
     0
174
     0
 93
        1
 44
0.0
173
     0
291
     1
 45
0.0
1001
ACAD
1000
AcDbSavedByObjectVersion
1070
     0
  0
VISUALSTYLE
  5
34
102
{ACAD_REACTORS
330
2A
102
}
102
{ACAD_XDICTIONARY
360
286
102
}
330
2A
100
AcDbVisualStyle
  2
Conceptual
 70
     9
 71
     3
 72
     2
 73
     0
 90
        0
 40
-0.6
 41
-30.0
 62
     5
 63
     7
421
 16777215
 74
     2
 91
        2
 64
     7
 65
   257
 75
     1
175
     1
 42
40.0
 92
        8
 66
     7
 43
1.0
 76
     1
 77
     6
 78
     2
 67
     7
 79
     3
170
     0
171
     0
290
     0
174
     0
 93
        1
 44
0.0
173
     0
291
     0
 45
0.0
1001
ACAD
1000
AcDbSavedByObjectVersion
1070
     0
  0
VISUALSTYLE
  5
35
102
{ACAD_REACTORS
330
2A
102
}
102
{ACAD_XDICTIONARY
360
288
102
}
330
2A
100
AcDbVisualStyle
  2
Dim
 70
    11
 71
     2
 72
     2
 73
     0
 90
        0
 40
-0.6
 41
-30.0
 62
     5
 63
     7
421
 16777215
 74
     1
 91
        4
 64
     7
 65
   257
 75
     1
175
     1
 42
1.0
 92
        8
 66
     7
 43
1.0
 76
     1
 77
     6
 78
     2
 67
     7
 79
     5
170
     0
171
     0
290
     0
174
     0
 93
        1
 44
-50.0
173
     0
291
     1
 45
0.0
1001
ACAD
1000
AcDbSavedByObjectVersion
1070
     0
  0
VISUALSTYLE
  5
39
102
{ACAD_REACTORS
330
2A
102
}
102
{ACAD_XDICTIONARY
360
290
102
}
330
2A
100
AcDbVisualStyle
  2
Facepattern
 70
    15
 71
     2
 72
     2
 73
     0
 90
        0
 40
-0.6
 41
-30.0
 62
     5
 63
     7
421
 16777215
 74
     1
 91
        4
 64
     7
 65
   257
 75
     1
175
     1
 42
1.0
 92
        8
 66
     7
 43
1.0
 76
     1
 77
     6
 78
     2
 67
     7
 79
     5
170
     0
171
     0
290
     0
174
     0
 93
        1
 44
0.0
173
     0
291
     1
 45
0.0
1001
ACAD
1000
AcDbSavedByObjectVersion
1070
     0
  0
VISUALSTYLE
  5
2B
102
{ACAD_REACTORS
330
2A
102
}
102
{ACAD_XDICTIONARY
360
274
102
}
330
2A
100
AcDbVisualStyle
  2
Flat
 70
     0
 71
     2
 72
     1
 73
     1
 90
        2
 40
-0.6
 41
30.0
 62
     5
 63
     7
421
 16777215
 74
     0
 91
        4
 64
     7
 65
   257
 75
     1
175
     1
 42
1.0
 92
        8
 66
     7
 43
1.0
 76
     1
 77
     6
 78
     2
 67
     7
 79
     5
170
     0
171
     0
290
     0
174
     0
 93
       13
 44
0.0
173
     0
291
     1
 45
0.0
1001
ACAD
1000
AcDbSavedByObjectVersion
1070
     0
  0
VISUALSTYLE
  5
2C
102
{ACAD_REACTORS
330
2A
102
}
102
{ACAD_XDICTIONARY
360
276
102
}
330
2A
100
AcDbVisualStyle
  2
FlatWithEdges
 70
     1
 71
     2
 72
     1
 73
     1
 90
        2
 40
-0.6
 41
30.0
 62
     5
 63
     7
421
 16777215
 74
     1
 91
        4
 64
     7
 65
   257
 75
     1
175
     1
 42
1.0
 92
        0
 66
   257
 43
1.0
 76
     1
 77
     6
 78
     2
 67
     7
 79
     5
170
     0
171
     0
290
     0
174
     0
 93
       13
 44
0.0
173
     0
291
     1
 45
0.0
1001
ACAD
1000
AcDbSavedByObjectVersion
1070
     0
  0
VISUALSTYLE
  5
2D
102
{ACAD_REACTORS
330
2A
102
}
102
{ACAD_XDICTIONARY
360
278
102
}
330
2A
100
AcDbVisualStyle
  2
Gouraud
 70
     2
 71
     2
 72
     2
 73
     1
 90
        2
 40
-0.6
 41
30.0
 62
     5
 63
     7
421
 16777215
 74
     0
 91
        4
 64
     7
 65
   257
 75
     1
175
     1
 42
1.0
 92
        0
 66
     7
 43
1.0
 76
     1
 77
     6
 78
     2
 67
     7
 79
     5
170
     0
171
     0
290
     0
174
     0
 93
       13
 44
0.0
173
     0
291
     1
 45
0.0
1001
ACAD
1000
AcDbSavedByObjectVersion
1070
     0
  0
VISUALSTYLE
  5
2E
102
{ACAD_REACTORS
330
2A
102
}
102
{ACAD_XDICTIONARY
360
27A
102
}
330
2A
100
AcDbVisualStyle
  2
GouraudWithEdges
 70
     3
 71
     2
 72
     2
 73
     1
 90
        2
 40
-0.6
 41
30.0
 62
     5
 63
     7
421
 16777215
 74
     1
 91
        4
 64
     7
 65
   257
 75
     1
175
     1
 42
1.0
 92
        0
 66
   257
 43
1.0
 76
     1
 77
     6
 78
     2
 67
     7
 79
     5
170
     0
171
     0
290
     0
174
     0
 93
       13
 44
0.0
173
     0
291
     1
 45
0.0
1001
ACAD
1000
AcDbSavedByObjectVersion
1070
     0
  0
VISUALSTYLE
  5
38
102
{ACAD_REACTORS
330
2A
102
}
102
{ACAD_XDICTIONARY
360
28E
102
}
330
2A
100
AcDbVisualStyle
  2
Linepattern
 70
    14
 71
     2
 72
     2
 73
     0
 90
        0
 40
-0.6
 41
-30.0
 62
     5
 63
     7
421
 16777215
 74
     1
 91
        4
 64
     7
 65
   257
 75
     7
175
     7
 42
1.0
 92
        8
 66
     7
 43
1.0
 76
     1
 77
     6
 78
     2
 67
     7
 79
     5
170
     0
171
     0
290
     0
174
     0
 93
        1
 44
0.0
173
     0
291
     1
 45
0.0
1001
ACAD
1000
AcDbSavedByObjectVersion
1070
     0
  0
VISUALSTYLE
  5
33
102
{ACAD_REACTORS
330
2A
102
}
102
{ACAD_XDICTIONARY
360
284
102
}
330
2A
100
AcDbVisualStyle
  2
Realistic
 70
     8
 71
     2
 72
     2
 73
     0
 90
        0
 40
-0.6
 41
-30.0
 62
     5
 63
     7
421
 16777215
 74
     1
 91
        0
 64
     7
 65
   257
 75
     1
175
     1
 42
1.0
 92
        8
 66
     8
424
  7895160
 43
1.0
 76
     1
 77
     6
 78
     2
 67
     7
 79
     5
170
     0
171
     0
290
     0
174
     0
 93
       13
 44
0.0
173
     0
291
     0
 45
0.0
1001
ACAD
1000
AcDbSavedByObjectVersion
1070
     0
  0
VISUALSTYLE
  5
37
102
{ACAD_REACTORS
330
2A
102
}
102
{ACAD_XDICTIONARY
360
28C
102
}
330
2A
100
AcDbVisualStyle
  2
Thicken
 70
    13
 71
     2
 72
     2
 73
     0
 90
        0
 40
-0.6
 41
-30.0
 62
     5
 63
     7
421
 16777215
 74
     1
 91
        4
 64
     7
 65
   257
 75
     1
175
     1
 42
1.0
 92
       12
 66
     7
 43
1.0
 76
     1
 77
     6
 78
     2
 67
     7
 79
     5
170
     0
171
     0
290
     0
174
     0
 93
        1
 44
0.0
173
     0
291
     1
 45
0.0
1001
ACAD
1000
AcDbSavedByObjectVersion
1070
     0
  0
DICTIONARY
  5
296
330
3D
100
AcDbDictionary
280
     1
281
     1
  3
ACAD_XREC_ROUNDTRIP
360
297
  0
DICTIONARY
  5
294
330
3C
100
AcDbDictionary
280
     1
281
     1
  3
ACAD_XREC_ROUNDTRIP
360
295
  0
DICTIONARY
  5
298
330
3E
100
AcDbDictionary
280
     1
281
     1
  3
ACAD_XREC_ROUNDTRIP
360
299
  0
DICTIONARY
  5
27C
330
2F
100
AcDbDictionary
280
     1
281
     1
  3
ACAD_XREC_ROUNDTRIP
360
27D
  0
DICTIONARY
  5
280
330
31
100
AcDbDictionary
280
     1
281
     1
  3
ACAD_XREC_ROUNDTRIP
360
281
  0
DICTIONARY
  5
27E
330
30
100
AcDbDictionary
280
     1
281
     1
  3
ACAD_XREC_ROUNDTRIP
360
27F
  0
DICTIONARY
  5
282
330
32
100
AcDbDictionary
280
     1
281
     1
  3
ACAD_XREC_ROUNDTRIP
360
283
  0
DICTIONARY
  5
28A
330
36
100
AcDbDictionary
280
     1
281
     1
  3
ACAD_XREC_ROUNDTRIP
360
28B
  0
DICTIONARY
  5
292
330
3A
100
AcDbDictionary
280
     1
281
     1
  3
ACAD_XREC_ROUNDTRIP
360
293
  0
DICTIONARY
  5
286
330
34
100
AcDbDictionary
280
     1
281
     1
  3
ACAD_XREC_ROUNDTRIP
360
287
  0
DICTIONARY
  5
288
330
35
100
AcDbDictionary
280
     1
281
     1
  3
ACAD_XREC_ROUNDTRIP
360
289
  0
DICTIONARY
  5
290
330
39
100
AcDbDictionary
280
     1
281
     1
  3
ACAD_XREC_ROUNDTRIP
360
291
  0
DICTIONARY
  5
274
330
2B
100
AcDbDictionary
280
     1
281
     1
  3
ACAD_XREC_ROUNDTRIP
360
275
  0
DICTIONARY
  5
276
330
2C
100
AcDbDictionary
280
     1
281
     1
  3
ACAD_XREC_ROUNDTRIP
360
277
  0
DICTIONARY
  5
278
330
2D
100
AcDbDictionary
280
     1
281
     1
  3
ACAD_XREC_ROUNDTRIP
360
279
  0
DICTIONARY
  5
27A
330
2E
100
AcDbDictionary
280
     1
281
     1
  3
ACAD_XREC_ROUNDTRIP
360
27B
  0
DICTIONARY
  5
28E
330
38
100
AcDbDictionary
280
     1
281
     1
  3
ACAD_XREC_ROUNDTRIP
360
28F
  0
DICTIONARY
  5
284
330
33
100
AcDbDictionary
280
     1
281
     1
  3
ACAD_XREC_ROUNDTRIP
360
285
  0
DICTIONARY
  5
28C
330
37
100
AcDbDictionary
280
     1
281
     1
  3
ACAD_XREC_ROUNDTRIP
360
28D
  0
XRECORD
  5
297
102
{ACAD_REACTORS
330
296
102
}
330
296
100
AcDbXrecord
280
     1
102
MATERIAL
148
0.0
149
0.0
149
0.0
 93
        0
 94
      127
282
     0
 72
     1
 77
     1
171
     1
175
     1
179
     1
273
     0
  0
XRECORD
  5
295
102
{ACAD_REACTORS
330
294
102
}
330
294
100
AcDbXrecord
280
     1
102
MATERIAL
148
0.0
149
0.0
149
0.0
 93
        0
 94
      127
282
     0
 72
     1
 77
     1
171
     1
175
     1
179
     1
273
     0
  0
XRECORD
  5
299
102
{ACAD_REACTORS
330
298
102
}
330
298
100
AcDbXrecord
280
     1
102
MATERIAL
148
0.0
149
0.0
149
0.0
 93
        0
 94
      127
282
     0
 72
     1
 77
     1
171
     1
175
     1
179
     1
273
     0
  0
XRECORD
  5
27D
102
{ACAD_REACTORS
330
27C
102
}
330
27C
100
AcDbXrecord
280
     1
102
RTVSPropertyOp0
 70
     1
102
RTVSPropertyOp1
 70
     1
102
RTVSPropertyOp2
 70
     1
102
RTVSPropertyOp3
 70
     1
102
RTVSPropertyOp4
 70
     1
102
RTVSPropertyOp5
 70
     1
102
RTVSPropertyOp6
 70
     1
102
RTVSPropertyOp7
 70
     1
102
RTVSPropertyOp8
 70
     1
102
RTVSPropertyOp9
 70
     1
102
RTVSPropertyOp10
 70
     1
102
RTVSPropertyOp11
 70
     1
102
RTVSPropertyOp12
 70
     1
102
RTVSPropertyOp13
 70
     1
102
RTVSPropertyOp14
 70
     1
102
RTVSPropertyOp15
 70
     1
102
RTVSPropertyOp16
 70
     1
102
RTVSPropertyOp17
 70
     1
102
RTVSPropertyOp18
 70
     1
102
RTVSPropertyOp19
 70
     1
102
RTVSPropertyOp20
 70
     1
102
RTVSPropertyOp21
 70
     1
102
RTVSPropertyOp22
 70
     1
102
RTVSPropertyOp23
 70
     1
102
RTVSPropertyOp24
 70
     1
102
RTVSPropertyOp25
 70
     1
102
RTVSPropertyOp26
 70
     1
102
RTVSPropertyOp27
 70
     1
102
RTVSPropertyOp28
 70
     1
102
RTVSPropertyOp29
 70
     1
102
RTVSPropertyOp30
 70
     1
102
RTVSPropertyOp31
 70
     1
102
RTVSPropertyOp32
 70
     1
  0
XRECORD
  5
281
102
{ACAD_REACTORS
330
280
102
}
330
280
100
AcDbXrecord
280
     1
102
RTVSPropertyOp0
 70
     1
102
RTVSPropertyOp1
 70
     1
102
RTVSPropertyOp2
 70
     1
102
RTVSPropertyOp3
 70
     1
102
RTVSPropertyOp4
 70
     1
102
RTVSPropertyOp5
 70
     1
102
RTVSPropertyOp6
 70
     1
102
RTVSPropertyOp7
 70
     1
102
RTVSPropertyOp8
 70
     1
102
RTVSPropertyOp9
 70
     1
102
RTVSPropertyOp10
 70
     1
102
RTVSPropertyOp11
 70
     1
102
RTVSPropertyOp12
 70
     1
102
RTVSPropertyOp13
 70
     1
102
RTVSPropertyOp14
 70
     1
102
RTVSPropertyOp15
 70
     1
102
RTVSPropertyOp16
 70
     1
102
RTVSPropertyOp17
 70
     1
102
RTVSPropertyOp18
 70
     1
102
RTVSPropertyOp19
 70
     1
102
RTVSPropertyOp20
 70
     1
102
RTVSPropertyOp21
 70
     1
102
RTVSPropertyOp22
 70
     1
102
RTVSPropertyOp23
 70
     1
102
RTVSPropertyOp24
 70
     1
102
RTVSPropertyOp25
 70
     1
102
RTVSPropertyOp26
 70
     1
102
RTVSPropertyOp27
 70
     1
102
RTVSPropertyOp28
 70
     1
102
RTVSPropertyOp29
 70
     1
102
RTVSPropertyOp30
 70
     1
102
RTVSPropertyOp31
 70
     1
102
RTVSPropertyOp32
 70
     1
  0
XRECORD
  5
27F
102
{ACAD_REACTORS
330
27E
102
}
330
27E
100
AcDbXrecord
280
     1
102
RTVSPropertyOp0
 70
     1
102
RTVSPropertyOp1
 70
     1
102
RTVSPropertyOp2
 70
     1
102
RTVSPropertyOp3
 70
     1
102
RTVSPropertyOp4
 70
     1
102
RTVSPropertyOp5
 70
     1
102
RTVSPropertyOp6
 70
     1
102
RTVSPropertyOp7
 70
     1
102
RTVSPropertyOp8
 70
     1
102
RTVSPropertyOp9
 70
     1
102
RTVSPropertyOp10
 70
     1
102
RTVSPropertyOp11
 70
     1
102
RTVSPropertyOp12
 70
     1
102
RTVSPropertyOp13
 70
     1
102
RTVSPropertyOp14
 70
     1
102
RTVSPropertyOp15
 70
     1
102
RTVSPropertyOp16
 70
     1
102
RTVSPropertyOp17
 70
     1
102
RTVSPropertyOp18
 70
     1
102
RTVSPropertyOp19
 70
     1
102
RTVSPropertyOp20
 70
     1
102
RTVSPropertyOp21
 70
     1
102
RTVSPropertyOp22
 70
     1
102
RTVSPropertyOp23
 70
     1
102
RTVSPropertyOp24
 70
     1
102
RTVSPropertyOp25
 70
     1
102
RTVSPropertyOp26
 70
     1
102
RTVSPropertyOp27
 70
     1
102
RTVSPropertyOp28
 70
     1
102
RTVSPropertyOp29
 70
     1
102
RTVSPropertyOp30
 70
     1
102
RTVSPropertyOp31
 70
     1
102
RTVSPropertyOp32
 70
     1
  0
XRECORD
  5
283
102
{ACAD_REACTORS
330
282
102
}
330
282
100
AcDbXrecord
280
     1
102
RTVSPropertyOp0
 70
     1
102
RTVSPropertyOp1
 70
     1
102
RTVSPropertyOp2
 70
     1
102
RTVSPropertyOp3
 70
     1
102
RTVSPropertyOp4
 70
     1
102
RTVSPropertyOp5
 70
     1
102
RTVSPropertyOp6
 70
     1
102
RTVSPropertyOp7
 70
     1
102
RTVSPropertyOp8
 70
     1
102
RTVSPropertyOp9
 70
     1
102
RTVSPropertyOp10
 70
     1
102
RTVSPropertyOp11
 70
     1
102
RTVSPropertyOp12
 70
     1
102
RTVSPropertyOp13
 70
     1
102
RTVSPropertyOp14
 70
     1
102
RTVSPropertyOp15
 70
     1
102
RTVSPropertyOp16
 70
     1
102
RTVSPropertyOp17
 70
     1
102
RTVSPropertyOp18
 70
     1
102
RTVSPropertyOp19
 70
     1
102
RTVSPropertyOp20
 70
     1
102
RTVSPropertyOp21
 70
     1
102
RTVSPropertyOp22
 70
     1
102
RTVSPropertyOp23
 70
     1
102
RTVSPropertyOp24
 70
     1
102
RTVSPropertyOp25
 70
     1
102
RTVSPropertyOp26
 70
     1
102
RTVSPropertyOp27
 70
     1
102
RTVSPropertyOp28
 70
     1
102
RTVSPropertyOp29
 70
     1
102
RTVSPropertyOp30
 70
     1
102
RTVSPropertyOp31
 70
     1
102
RTVSPropertyOp32
 70
     1
  0
XRECORD
  5
28B
102
{ACAD_REACTORS
330
28A
102
}
330
28A
100
AcDbXrecord
280
     1
102
RTVSPropertyOp0
 70
     1
102
RTVSPropertyOp1
 70
     1
102
RTVSPropertyOp2
 70
     1
102
RTVSPropertyOp3
 70
     1
102
RTVSPropertyOp4
 70
     1
102
RTVSPropertyOp5
 70
     1
102
RTVSPropertyOp6
 70
     1
102
RTVSPropertyOp7
 70
     1
102
RTVSPropertyOp8
 70
     1
102
RTVSPropertyOp9
 70
     1
102
RTVSPropertyOp10
 70
     1
102
RTVSPropertyOp11
 70
     1
102
RTVSPropertyOp12
 70
     1
102
RTVSPropertyOp13
 70
     1
102
RTVSPropertyOp14
 70
     1
102
RTVSPropertyOp15
 70
     1
102
RTVSPropertyOp16
 70
     1
102
RTVSPropertyOp17
 70
     1
102
RTVSPropertyOp18
 70
     1
102
RTVSPropertyOp19
 70
     1
102
RTVSPropertyOp20
 70
     1
102
RTVSPropertyOp21
 70
     1
102
RTVSPropertyOp22
 70
     1
102
RTVSPropertyOp23
 70
     1
102
RTVSPropertyOp24
 70
     1
102
RTVSPropertyOp25
 70
     1
102
RTVSPropertyOp26
 70
     1
102
RTVSPropertyOp27
 70
     1
102
RTVSPropertyOp28
 70
     1
102
RTVSPropertyOp29
 70
     1
102
RTVSPropertyOp30
 70
     1
102
RTVSPropertyOp31
 70
     1
102
RTVSPropertyOp32
 70
     1
  0
XRECORD
  5
293
102
{ACAD_REACTORS
330
292
102
}
330
292
100
AcDbXrecord
280
     1
102
RTVSPropertyOp0
 70
     1
102
RTVSPropertyOp1
 70
     1
102
RTVSPropertyOp2
 70
     1
102
RTVSPropertyOp3
 70
     1
102
RTVSPropertyOp4
 70
     1
102
RTVSPropertyOp5
 70
     1
102
RTVSPropertyOp6
 70
     1
102
RTVSPropertyOp7
 70
     1
102
RTVSPropertyOp8
 70
     1
102
RTVSPropertyOp9
 70
     1
102
RTVSPropertyOp10
 70
     1
102
RTVSPropertyOp11
 70
     1
102
RTVSPropertyOp12
 70
     1
102
RTVSPropertyOp13
 70
     1
102
RTVSPropertyOp14
 70
     1
102
RTVSPropertyOp15
 70
     1
102
RTVSPropertyOp16
 70
     1
102
RTVSPropertyOp17
 70
     1
102
RTVSPropertyOp18
 70
     1
102
RTVSPropertyOp19
 70
     1
102
RTVSPropertyOp20
 70
     1
102
RTVSPropertyOp21
 70
     1
102
RTVSPropertyOp22
 70
     1
102
RTVSPropertyOp23
 70
     1
102
RTVSPropertyOp24
 70
     1
102
RTVSPropertyOp25
 70
     1
102
RTVSPropertyOp26
 70
     1
102
RTVSPropertyOp27
 70
     1
102
RTVSPropertyOp28
 70
     1
102
RTVSPropertyOp29
 70
     1
102
RTVSPropertyOp30
 70
     1
102
RTVSPropertyOp31
 70
     1
102
RTVSPropertyOp32
 70
     1
  0
XRECORD
  5
287
102
{ACAD_REACTORS
330
286
102
}
330
286
100
AcDbXrecord
280
     1
102
RTVSPropertyOp0
 70
     1
102
RTVSPropertyOp1
 70
     1
102
RTVSPropertyOp2
 70
     1
102
RTVSPropertyOp3
 70
     1
102
RTVSPropertyOp4
 70
     1
102
RTVSPropertyOp5
 70
     1
102
RTVSPropertyOp6
 70
     1
102
RTVSPropertyOp7
 70
     1
102
RTVSPropertyOp8
 70
     1
102
RTVSPropertyOp9
 70
     1
102
RTVSPropertyOp10
 70
     1
102
RTVSPropertyOp11
 70
     1
102
RTVSPropertyOp12
 70
     1
102
RTVSPropertyOp13
 70
     1
102
RTVSPropertyOp14
 70
     1
102
RTVSPropertyOp15
 70
     1
102
RTVSPropertyOp16
 70
     1
102
RTVSPropertyOp17
 70
     1
102
RTVSPropertyOp18
 70
     1
102
RTVSPropertyOp19
 70
     1
102
RTVSPropertyOp20
 70
     1
102
RTVSPropertyOp21
 70
     1
102
RTVSPropertyOp22
 70
     1
102
RTVSPropertyOp23
 70
     1
102
RTVSPropertyOp24
 70
     1
102
RTVSPropertyOp25
 70
     1
102
RTVSPropertyOp26
 70
     1
102
RTVSPropertyOp27
 70
     1
102
RTVSPropertyOp28
 70
     1
102
RTVSPropertyOp29
 70
     1
102
RTVSPropertyOp30
 70
     1
102
RTVSPropertyOp31
 70
     1
102
RTVSPropertyOp32
 70
     1
  0
XRECORD
  5
289
102
{ACAD_REACTORS
330
288
102
}
330
288
100
AcDbXrecord
280
     1
102
RTVSPropertyOp0
 70
     1
102
RTVSPropertyOp1
 70
     1
102
RTVSPropertyOp2
 70
     1
102
RTVSPropertyOp3
 70
     1
102
RTVSPropertyOp4
 70
     1
102
RTVSPropertyOp5
 70
     1
102
RTVSPropertyOp6
 70
     1
102
RTVSPropertyOp7
 70
     1
102
RTVSPropertyOp8
 70
     1
102
RTVSPropertyOp9
 70
     1
102
RTVSPropertyOp10
 70
     1
102
RTVSPropertyOp11
 70
     1
102
RTVSPropertyOp12
 70
     1
102
RTVSPropertyOp13
 70
     1
102
RTVSPropertyOp14
 70
     1
102
RTVSPropertyOp15
 70
     1
102
RTVSPropertyOp16
 70
     1
102
RTVSPropertyOp17
 70
     1
102
RTVSPropertyOp18
 70
     1
102
RTVSPropertyOp19
 70
     1
102
RTVSPropertyOp20
 70
     1
102
RTVSPropertyOp21
 70
     1
102
RTVSPropertyOp22
 70
     1
102
RTVSPropertyOp23
 70
     1
102
RTVSPropertyOp24
 70
     1
102
RTVSPropertyOp25
 70
     1
102
RTVSPropertyOp26
 70
     1
102
RTVSPropertyOp27
 70
     1
102
RTVSPropertyOp28
 70
     1
102
RTVSPropertyOp29
 70
     1
102
RTVSPropertyOp30
 70
     1
102
RTVSPropertyOp31
 70
     1
102
RTVSPropertyOp32
 70
     1
  0
XRECORD
  5
291
102
{ACAD_REACTORS
330
290
102
}
330
290
100
AcDbXrecord
280
     1
102
RTVSPropertyOp0
 70
     1
102
RTVSPropertyOp1
 70
     1
102
RTVSPropertyOp2
 70
     1
102
RTVSPropertyOp3
 70
     1
102
RTVSPropertyOp4
 70
     1
102
RTVSPropertyOp5
 70
     1
102
RTVSPropertyOp6
 70
     1
102
RTVSPropertyOp7
 70
     1
102
RTVSPropertyOp8
 70
     1
102
RTVSPropertyOp9
 70
     1
102
RTVSPropertyOp10
 70
     1
102
RTVSPropertyOp11
 70
     1
102
RTVSPropertyOp12
 70
     1
102
RTVSPropertyOp13
 70
     1
102
RTVSPropertyOp14
 70
     1
102
RTVSPropertyOp15
 70
     1
102
RTVSPropertyOp16
 70
     1
102
RTVSPropertyOp17
 70
     1
102
RTVSPropertyOp18
 70
     1
102
RTVSPropertyOp19
 70
     1
102
RTVSPropertyOp20
 70
     1
102
RTVSPropertyOp21
 70
     1
102
RTVSPropertyOp22
 70
     1
102
RTVSPropertyOp23
 70
     1
102
RTVSPropertyOp24
 70
     1
102
RTVSPropertyOp25
 70
     1
102
RTVSPropertyOp26
 70
     1
102
RTVSPropertyOp27
 70
     1
102
RTVSPropertyOp28
 70
     1
102
RTVSPropertyOp29
 70
     1
102
RTVSPropertyOp30
 70
     1
102
RTVSPropertyOp31
 70
     1
102
RTVSPropertyOp32
 70
     1
  0
XRECORD
  5
275
102
{ACAD_REACTORS
330
274
102
}
330
274
100
AcDbXrecord
280
     1
102
RTVSPropertyOp0
 70
     1
102
RTVSPropertyOp1
 70
     1
102
RTVSPropertyOp2
 70
     1
102
RTVSPropertyOp3
 70
     1
102
RTVSPropertyOp4
 70
     1
102
RTVSPropertyOp5
 70
     1
102
RTVSPropertyOp6
 70
     1
102
RTVSPropertyOp7
 70
     1
102
RTVSPropertyOp8
 70
     1
102
RTVSPropertyOp9
 70
     1
102
RTVSPropertyOp10
 70
     1
102
RTVSPropertyOp11
 70
     1
102
RTVSPropertyOp12
 70
     1
102
RTVSPropertyOp13
 70
     1
102
RTVSPropertyOp14
 70
     1
102
RTVSPropertyOp15
 70
     1
102
RTVSPropertyOp16
 70
     1
102
RTVSPropertyOp17
 70
     1
102
RTVSPropertyOp18
 70
     1
102
RTVSPropertyOp19
 70
     1
102
RTVSPropertyOp20
 70
     1
102
RTVSPropertyOp21
 70
     1
102
RTVSPropertyOp22
 70
     1
102
RTVSPropertyOp23
 70
     1
102
RTVSPropertyOp24
 70
     1
102
RTVSPropertyOp25
 70
     1
102
RTVSPropertyOp26
 70
     1
102
RTVSPropertyOp27
 70
     1
102
RTVSPropertyOp28
 70
     1
102
RTVSPropertyOp29
 70
     1
102
RTVSPropertyOp30
 70
     1
102
RTVSPropertyOp31
 70
     1
102
RTVSPropertyOp32
 70
     1
  0
XRECORD
  5
277
102
{ACAD_REACTORS
330
276
102
}
330
276
100
AcDbXrecord
280
     1
102
RTVSPropertyOp0
 70
     1
102
RTVSPropertyOp1
 70
     1
102
RTVSPropertyOp2
 70
     1
102
RTVSPropertyOp3
 70
     1
102
RTVSPropertyOp4
 70
     1
102
RTVSPropertyOp5
 70
     1
102
RTVSPropertyOp6
 70
     1
102
RTVSPropertyOp7
 70
     1
102
RTVSPropertyOp8
 70
     1
102
RTVSPropertyOp9
 70
     1
102
RTVSPropertyOp10
 70
     1
102
RTVSPropertyOp11
 70
     1
102
RTVSPropertyOp12
 70
     1
102
RTVSPropertyOp13
 70
     1
102
RTVSPropertyOp14
 70
     1
102
RTVSPropertyOp15
 70
     1
102
RTVSPropertyOp16
 70
     1
102
RTVSPropertyOp17
 70
     1
102
RTVSPropertyOp18
 70
     1
102
RTVSPropertyOp19
 70
     1
102
RTVSPropertyOp20
 70
     1
102
RTVSPropertyOp21
 70
     1
102
RTVSPropertyOp22
 70
     1
102
RTVSPropertyOp23
 70
     1
102
RTVSPropertyOp24
 70
     1
102
RTVSPropertyOp25
 70
     1
102
RTVSPropertyOp26
 70
     1
102
RTVSPropertyOp27
 70
     1
102
RTVSPropertyOp28
 70
     1
102
RTVSPropertyOp29
 70
     1
102
RTVSPropertyOp30
 70
     1
102
RTVSPropertyOp31
 70
     1
102
RTVSPropertyOp32
 70
     1
  0
XRECORD
  5
279
102
{ACAD_REACTORS
330
278
102
}
330
278
100
AcDbXrecord
280
     1
102
RTVSPropertyOp0
 70
     1
102
RTVSPropertyOp1
 70
     1
102
RTVSPropertyOp2
 70
     1
102
RTVSPropertyOp3
 70
     1
102
RTVSPropertyOp4
 70
     1
102
RTVSPropertyOp5
 70
     1
102
RTVSPropertyOp6
 70
     1
102
RTVSPropertyOp7
 70
     1
102
RTVSPropertyOp8
 70
     1
102
RTVSPropertyOp9
 70
     1
102
RTVSPropertyOp10
 70
     1
102
RTVSPropertyOp11
 70
     1
102
RTVSPropertyOp12
 70
     1
102
RTVSPropertyOp13
 70
     1
102
RTVSPropertyOp14
 70
     1
102
RTVSPropertyOp15
 70
     1
102
RTVSPropertyOp16
 70
     1
102
RTVSPropertyOp17
 70
     1
102
RTVSPropertyOp18
 70
     1
102
RTVSPropertyOp19
 70
     1
102
RTVSPropertyOp20
 70
     1
102
RTVSPropertyOp21
 70
     1
102
RTVSPropertyOp22
 70
     1
102
RTVSPropertyOp23
 70
     1
102
RTVSPropertyOp24
 70
     1
102
RTVSPropertyOp25
 70
     1
102
RTVSPropertyOp26
 70
     1
102
RTVSPropertyOp27
 70
     1
102
RTVSPropertyOp28
 70
     1
102
RTVSPropertyOp29
 70
     1
102
RTVSPropertyOp30
 70
     1
102
RTVSPropertyOp31
 70
     1
102
RTVSPropertyOp32
 70
     1
  0
XRECORD
  5
27B
102
{ACAD_REACTORS
330
27A
102
}
330
27A
100
AcDbXrecord
280
     1
102
RTVSPropertyOp0
 70
     1
102
RTVSPropertyOp1
 70
     1
102
RTVSPropertyOp2
 70
     1
102
RTVSPropertyOp3
 70
     1
102
RTVSPropertyOp4
 70
     1
102
RTVSPropertyOp5
 70
     1
102
RTVSPropertyOp6
 70
     1
102
RTVSPropertyOp7
 70
     1
102
RTVSPropertyOp8
 70
     1
102
RTVSPropertyOp9
 70
     1
102
RTVSPropertyOp10
 70
     1
102
RTVSPropertyOp11
 70
     1
102
RTVSPropertyOp12
 70
     1
102
RTVSPropertyOp13
 70
     1
102
RTVSPropertyOp14
 70
     1
102
RTVSPropertyOp15
 70
     1
102
RTVSPropertyOp16
 70
     1
102
RTVSPropertyOp17
 70
     1
102
RTVSPropertyOp18
 70
     1
102
RTVSPropertyOp19
 70
     1
102
RTVSPropertyOp20
 70
     1
102
RTVSPropertyOp21
 70
     1
102
RTVSPropertyOp22
 70
     1
102
RTVSPropertyOp23
 70
     1
102
RTVSPropertyOp24
 70
     1
102
RTVSPropertyOp25
 70
     1
102
RTVSPropertyOp26
 70
     1
102
RTVSPropertyOp27
 70
     1
102
RTVSPropertyOp28
 70
     1
102
RTVSPropertyOp29
 70
     1
102
RTVSPropertyOp30
 70
     1
102
RTVSPropertyOp31
 70
     1
102
RTVSPropertyOp32
 70
     1
  0
XRECORD
  5
28F
102
{ACAD_REACTORS
330
28E
102
}
330
28E
100
AcDbXrecord
280
     1
102
RTVSPropertyOp0
 70
     1
102
RTVSPropertyOp1
 70
     1
102
RTVSPropertyOp2
 70
     1
102
RTVSPropertyOp3
 70
     1
102
RTVSPropertyOp4
 70
     1
102
RTVSPropertyOp5
 70
     1
102
RTVSPropertyOp6
 70
     1
102
RTVSPropertyOp7
 70
     1
102
RTVSPropertyOp8
 70
     1
102
RTVSPropertyOp9
 70
     1
102
RTVSPropertyOp10
 70
     1
102
RTVSPropertyOp11
 70
     1
102
RTVSPropertyOp12
 70
     1
102
RTVSPropertyOp13
 70
     1
102
RTVSPropertyOp14
 70
     1
102
RTVSPropertyOp15
 70
     1
102
RTVSPropertyOp16
 70
     1
102
RTVSPropertyOp17
 70
     1
102
RTVSPropertyOp18
 70
     1
102
RTVSPropertyOp19
 70
     1
102
RTVSPropertyOp20
 70
     1
102
RTVSPropertyOp21
 70
     1
102
RTVSPropertyOp22
 70
     1
102
RTVSPropertyOp23
 70
     1
102
RTVSPropertyOp24
 70
     1
102
RTVSPropertyOp25
 70
     1
102
RTVSPropertyOp26
 70
     1
102
RTVSPropertyOp27
 70
     1
102
RTVSPropertyOp28
 70
     1
102
RTVSPropertyOp29
 70
     1
102
RTVSPropertyOp30
 70
     1
102
RTVSPropertyOp31
 70
     1
102
RTVSPropertyOp32
 70
     1
  0
XRECORD
  5
285
102
{ACAD_REACTORS
330
284
102
}
330
284
100
AcDbXrecord
280
     1
102
RTVSPropertyOp0
 70
     1
102
RTVSPropertyOp1
 70
     1
102
RTVSPropertyOp2
 70
     1
102
RTVSPropertyOp3
 70
     1
102
RTVSPropertyOp4
 70
     1
102
RTVSPropertyOp5
 70
     1
102
RTVSPropertyOp6
 70
     1
102
RTVSPropertyOp7
 70
     1
102
RTVSPropertyOp8
 70
     1
102
RTVSPropertyOp9
 70
     1
102
RTVSPropertyOp10
 70
     1
102
RTVSPropertyOp11
 70
     1
102
RTVSPropertyOp12
 70
     1
102
RTVSPropertyOp13
 70
     1
102
RTVSPropertyOp14
 70
     1
102
RTVSPropertyOp15
 70
     1
102
RTVSPropertyOp16
 70
     1
102
RTVSPropertyOp17
 70
     1
102
RTVSPropertyOp18
 70
     1
102
RTVSPropertyOp19
 70
     1
102
RTVSPropertyOp20
 70
     1
102
RTVSPropertyOp21
 70
     1
102
RTVSPropertyOp22
 70
     1
102
RTVSPropertyOp23
 70
     1
102
RTVSPropertyOp24
 70
     1
102
RTVSPropertyOp25
 70
     1
102
RTVSPropertyOp26
 70
     1
102
RTVSPropertyOp27
 70
     1
102
RTVSPropertyOp28
 70
     1
102
RTVSPropertyOp29
 70
     1
102
RTVSPropertyOp30
 70
     1
102
RTVSPropertyOp31
 70
     1
102
RTVSPropertyOp32
 70
     1
  0
XRECORD
  5
28D
102
{ACAD_REACTORS
330
28C
102
}
330
28C
100
AcDbXrecord
280
     1
102
RTVSPropertyOp0
 70
     1
102
RTVSPropertyOp1
 70
     1
102
RTVSPropertyOp2
 70
     1
102
RTVSPropertyOp3
 70
     1
102
RTVSPropertyOp4
 70
     1
102
RTVSPropertyOp5
 70
     1
102
RTVSPropertyOp6
 70
     1
102
RTVSPropertyOp7
 70
     1
102
RTVSPropertyOp8
 70
     1
102
RTVSPropertyOp9
 70
     1
102
RTVSPropertyOp10
 70
     1
102
RTVSPropertyOp11
 70
     1
102
RTVSPropertyOp12
 70
     1
102
RTVSPropertyOp13
 70
     1
102
RTVSPropertyOp14
 70
     1
102
RTVSPropertyOp15
 70
     1
102
RTVSPropertyOp16
 70
     1
102
RTVSPropertyOp17
 70
     1
102
RTVSPropertyOp18
 70
     1
102
RTVSPropertyOp19
 70
     1
102
RTVSPropertyOp20
 70
     1
102
RTVSPropertyOp21
 70
     1
102
RTVSPropertyOp22
 70
     1
102
RTVSPropertyOp23
 70
     1
102
RTVSPropertyOp24
 70
     1
102
RTVSPropertyOp25
 70
     1
102
RTVSPropertyOp26
 70
     1
102
RTVSPropertyOp27
 70
     1
102
RTVSPropertyOp28
 70
     1
102
RTVSPropertyOp29
 70
     1
102
RTVSPropertyOp30
 70
     1
102
RTVSPropertyOp31
 70
     1
102
RTVSPropertyOp32
 70
     1
  0
ENDSEC
  0
EOF
