  0
SECTION
  2
HEADER
  9
$ACADVER
  1
AC1015
  9
$ACADMAINTVER
 70
     6
  9
$DWGCODEPAGE
  3
ANSI_1252
  9
$INSBASE
 10
0.0
 20
0.0
 30
0.0
  9
$EXTMIN
 10
-411.1999996948058
 20
-260.6000003815297
 30
0.0
  9
$EXTMAX
 10
-114.1999996948077
 20
-50.60000038152958
 30
0.0
  9
$LIMMIN
 10
0.0
 20
0.0
  9
$LIMMAX
 10
12.0
 20
9.0
  9
$ORTHOMODE
 70
     0
  9
$REGENMODE
 70
     1
  9
$FILLMODE
 70
     1
  9
$QTEXTMODE
 70
     0
  9
$MIRRTEXT
 70
     1
  9
$LTSCALE
 40
1.0
  9
$ATTMODE
 70
     1
  9
$TEXTSIZE
 40
0.2
  9
$TRACEWID
 40
0.05
  9
$TEXTSTYLE
  7
Standard
  9
$CLAYER
  8
0
  9
$CELTYPE
  6
ByLayer
  9
$CECOLOR
 62
   256
  9
$CELTSCALE
 40
1.0
  9
$DISPSILH
 70
     0
  9
$DIMSCALE
 40
1.0
  9
$DIMASZ
 40
0.18
  9
$DIMEXO
 40
0.0625
  9
$DIMDLI
 40
0.38
  9
$DIMRND
 40
0.0
  9
$DIMDLE
 40
0.0
  9
$DIMEXE
 40
0.18
  9
$DIMTP
 40
0.0
  9
$DIMTM
 40
0.0
  9
$DIMTXT
 40
0.18
  9
$DIMCEN
 40
0.09
  9
$DIMTSZ
 40
0.0
  9
$DIMTOL
 70
     0
  9
$DIMLIM
 70
     0
  9
$DIMTIH
 70
     1
  9
$DIMTOH
 70
     1
  9
$DIMSE1
 70
     0
  9
$DIMSE2
 70
     0
  9
$DIMTAD
 70
     0
  9
$DIMZIN
 70
     0
  9
$DIMBLK
  1

  9
$DIMASO
 70
     1
  9
$DIMSHO
 70
     1
  9
$DIMPOST
  1

  9
$DIMAPOST
  1

  9
$DIMALT
 70
     0
  9
$DIMALTD
 70
     2
  9
$DIMALTF
 40
25.4
  9
$DIMLFAC
 40
1.0
  9
$DIMTOFL
 70
     0
  9
$DIMTVP
 40
0.0
  9
$DIMTIX
 70
     0
  9
$DIMSOXD
 70
     0
  9
$DIMSAH
 70
     0
  9
$DIMBLK1
  1

  9
$DIMBLK2
  1

  9
$DIMSTYLE
  2
Standard
  9
$DIMCLRD
 70
     0
  9
$DIMCLRE
 70
     0
  9
$DIMCLRT
 70
     0
  9
$DIMTFAC
 40
1.0
  9
$DIMGAP
 40
0.09
  9
$DIMJUST
 70
     0
  9
$DIMSD1
 70
     0
  9
$DIMSD2
 70
     0
  9
$DIMTOLJ
 70
     1
  9
$DIMTZIN
 70
     0
  9
$DIMALTZ
 70
     0
  9
$DIMALTTZ
 70
     0
  9
$DIMUPT
 70
     0
  9
$DIMDEC
 70
     4
  9
$DIMTDEC
 70
     4
  9
$DIMALTU
 70
     2
  9
$DIMALTTD
 70
     2
  9
$DIMTXSTY
  7
Standard
  9
$DIMAUNIT
 70
     0
  9
$DIMADEC
 70
     0
  9
$DIMALTRND
 40
0.0
  9
$DIMAZIN
 70
     0
  9
$DIMDSEP
 70
    46
  9
$DIMATFIT
 70
     3
  9
$DIMFRAC
 70
     0
  9
$DIMLDRBLK
  1

  9
$DIMLUNIT
 70
     2
  9
$DIMLWD
 70
    -2
  9
$DIMLWE
 70
    -2
  9
$DIMTMOVE
 70
     0
  9
$LUNITS
 70
     2
  9
$LUPREC
 70
     4
  9
$SKETCHINC
 40
0.1
  9
$FILLETRAD
 40
0.5
  9
$AUNITS
 70
     0
  9
$AUPREC
 70
     0
  9
$MENU
  1
.
  9
$ELEVATION
 40
0.0
  9
$PELEVATION
 40
0.0
  9
$THICKNESS
 40
0.0
  9
$LIMCHECK
 70
     0
  9
$CHAMFERA
 40
0.5
  9
$CHAMFERB
 40
0.5
  9
$CHAMFERC
 40
1.0
  9
$CHAMFERD
 40
0.0
  9
$SKPOLY
 70
     0
  9
$TDCREATE
 40
2457806.571673623
  9
$TDUCREATE
 40
2457806.530006956
  9
$TDUPDATE
 40
2457806.571675254
  9
$TDUUPDATE
 40
2457806.530008588
  9
$TDINDWG
 40
0.0000000116
  9
$TDUSRTIMER
 40
0.0000000116
  9
$USRTIMER
 70
     1
  9
$ANGBASE
 50
0.0
  9
$ANGDIR
 70
     0
  9
$PDMODE
 70
     0
  9
$PDSIZE
 40
0.0
  9
$PLINEWID
 40
0.0
  9
$SPLFRAME
 70
     0
  9
$SPLINETYPE
 70
     6
  9
$SPLINESEGS
 70
     8
  9
$HANDSEED
  5
25F
  9
$SURFTAB1
 70
     6
  9
$SURFTAB2
 70
     6
  9
$SURFTYPE
 70
     6
  9
$SURFU
 70
     6
  9
$SURFV
 70
     6
  9
$UCSBASE
  2

  9
$UCSNAME
  2

  9
$UCSORG
 10
0.0
 20
0.0
 30
0.0
  9
$UCSXDIR
 10
1.0
 20
0.0
 30
0.0
  9
$UCSYDIR
 10
0.0
 20
1.0
 30
0.0
  9
$UCSORTHOREF
  2

  9
$UCSORTHOVIEW
 70
     0
  9
$UCSORGTOP
 10
0.0
 20
0.0
 30
0.0
  9
$UCSORGBOTTOM
 10
0.0
 20
0.0
 30
0.0
  9
$UCSORGLEFT
 10
0.0
 20
0.0
 30
0.0
  9
$UCSORGRIGHT
 10
0.0
 20
0.0
 30
0.0
  9
$UCSORGFRONT
 10
0.0
 20
0.0
 30
0.0
  9
$UCSORGBACK
 10
0.0
 20
0.0
 30
0.0
  9
$PUCSBASE
  2

  9
$PUCSNAME
  2

  9
$PUCSORG
 10
0.0
 20
0.0
 30
0.0
  9
$PUCSXDIR
 10
1.0
 20
0.0
 30
0.0
  9
$PUCSYDIR
 10
0.0
 20
1.0
 30
0.0
  9
$PUCSORTHOREF
  2

  9
$PUCSORTHOVIEW
 70
     0
  9
$PUCSORGTOP
 10
0.0
 20
0.0
 30
0.0
  9
$PUCSORGBOTTOM
 10
0.0
 20
0.0
 30
0.0
  9
$PUCSORGLEFT
 10
0.0
 20
0.0
 30
0.0
  9
$PUCSORGRIGHT
 10
0.0
 20
0.0
 30
0.0
  9
$PUCSORGFRONT
 10
0.0
 20
0.0
 30
0.0
  9
$PUCSORGBACK
 10
0.0
 20
0.0
 30
0.0
  9
$USERI1
 70
     0
  9
$USERI2
 70
     0
  9
$USERI3
 70
     0
  9
$USERI4
 70
     0
  9
$USERI5
 70
     0
  9
$USERR1
 40
18.1
  9
$USERR2
 40
0.0
  9
$USERR3
 40
0.0
  9
$USERR4
 40
0.0
  9
$USERR5
 40
0.0
  9
$WORLDVIEW
 70
     1
  9
$SHADEDGE
 70
     3
  9
$SHADEDIF
 70
    70
  9
$TILEMODE
 70
     1
  9
$MAXACTVP
 70
    64
  9
$PINSBASE
 10
0.0
 20
0.0
 30
0.0
  9
$PLIMCHECK
 70
     0
  9
$PEXTMIN
 10
1.00000000000000E+20
 20
1.00000000000000E+20
 30
1.00000000000000E+20
  9
$PEXTMAX
 10
-1.00000000000000E+20
 20
-1.00000000000000E+20
 30
-1.00000000000000E+20
  9
$PLIMMIN
 10
0.0
 20
0.0
  9
$PLIMMAX
 10
12.0
 20
9.0
  9
$UNITMODE
 70
     0
  9
$VISRETAIN
 70
     1
  9
$PLINEGEN
 70
     0
  9
$PSLTSCALE
 70
     1
  9
$TREEDEPTH
 70
  3020
  9
$CMLSTYLE
  2
Standard
  9
$CMLJUST
 70
     0
  9
$CMLSCALE
 40
1.0
  9
$PROXYGRAPHICS
 70
     1
  9
$MEASUREMENT
 70
     1
  9
$CELWEIGHT
370
    -1
  9
$ENDCAPS
280
     0
  9
$JOINSTYLE
280
     0
  9
$LWDISPLAY
290
     0
  9
$INSUNITS
 70
     4
  9
$HYPERLINKBASE
  1

  9
$STYLESHEET
  1

  9
$XEDIT
290
     1
  9
$CEPSNTYPE
380
     0
  9
$PSTYLEMODE
290
     1
  9
$FINGERPRINTGUID
  2
{1307F5CB-59EB-45BE-B201-582E49225D03}
  9
$VERSIONGUID
  2
{FAEB1C32-E019-11D5-929B-00C0DF256EC4}
  9
$EXTNAMES
290
     1
  9
$PSVPSCALE
 40
0.0
  9
$OLESTARTUP
290
     0
  0
ENDSEC
  0
SECTION
  2
CLASSES
  0
CLASS
  1
ACDBDICTIONARYWDFLT
  2
AcDbDictionaryWithDefault
  3
ObjectDBX Classes
 90
        0
280
     0
281
     0
  0
CLASS
  1
VISUALSTYLE
  2
AcDbVisualStyle
  3
ObjectDBX Classes
 90
     4095
280
     0
281
     0
  0
CLASS
  1
MATERIAL
  2
AcDbMaterial
  3
ObjectDBX Classes
 90
     1153
280
     0
281
     0
  0
CLASS
  1
DICTIONARYVAR
  2
AcDbDictionaryVar
  3
ObjectDBX Classes
 90
        0
280
     0
281
     0
  0
CLASS
  1
ACDBPLACEHOLDER
  2
AcDbPlaceHolder
  3
ObjectDBX Classes
 90
        0
280
     0
281
     0
  0
CLASS
  1
LAYOUT
  2
AcDbLayout
  3
ObjectDBX Classes
 90
        0
280
     0
281
     0
  0
ENDSEC
  0
SECTION
  2
TABLES
  0
TABLE
  2
VPORT
  5
8
330
0
100
AcDbSymbolTable
 70
     1
  0
VPORT
  5
29
330
8
100
AcDbSymbolTableRecord
100
AcDbViewportTableRecord
  2
*Active
 70
     0
 10
0.0
 20
0.0
 11
1.0
 21
1.0
 12
-262.6999996948068
 22
-155.6000003815296
 13
0.0
 23
0.0
 14
0.5
 24
0.5
 15
0.5
 25
0.5
 16
0.0
 26
0.0
 36
1.0
 17
0.0
 27
0.0
 37
0.0
 40
231.0000000000001
 41
1.60267857142857
 42
50.0
 43
0.0
 44
0.0
 50
0.0
 51
0.0
 71
     0
 72
   100
 73
     1
 74
     3
 75
     0
 76
     0
 77
     0
 78
     0
281
     0
 65
     1
110
0.0
120
0.0
130
0.0
111
1.0
121
0.0
131
0.0
112
0.0
122
1.0
132
0.0
 79
     0
146
0.0
  0
ENDTAB
  0
TABLE
  2
LTYPE
  5
5
330
0
100
AcDbSymbolTable
 70
     8
  0
LTYPE
  5
14
330
5
100
AcDbSymbolTableRecord
100
AcDbLinetypeTableRecord
  2
ByBlock
 70
     0
  3

 72
    65
 73
     0
 40
0.0
  0
LTYPE
  5
15
330
5
100
AcDbSymbolTableRecord
100
AcDbLinetypeTableRecord
  2
ByLayer
 70
     0
  3

 72
    65
 73
     0
 40
0.0
  0
LTYPE
  5
16
330
5
100
AcDbSymbolTableRecord
100
AcDbLinetypeTableRecord
  2
Continuous
 70
     0
  3
Solid line
 72
    65
 73
     0
 40
0.0
  0
LTYPE
  5
3F
330
5
100
AcDbSymbolTableRecord
100
AcDbLinetypeTableRecord
  2
DASHED
 70
     0
  3
Dashed
 72
    65
 73
     2
 40
15.0
 49
7.0
 74
     0
 49
-8.0
 74
     0
  0
LTYPE
  5
40
330
5
100
AcDbSymbolTableRecord
100
AcDbLinetypeTableRecord
  2
DOTTED
 70
     0
  3
Dotted
 72
    65
 73
     2
 40
1.0
 49
0.0
 74
     0
 49
-1.0
 74
     0
  0
LTYPE
  5
41
330
5
100
AcDbSymbolTableRecord
100
AcDbLinetypeTableRecord
  2
DOT_CENTER
 70
     0
  3
Dot_Center
 72
    65
 73
     4
 40
14.0
 49
12.0
 74
     0
 49
-1.0
 74
     0
 49
0.0
 74
     0
 49
-1.0
 74
     0
  0
LTYPE
  5
42
330
5
100
AcDbSymbolTableRecord
100
AcDbLinetypeTableRecord
  2
LONG_DASHED
 70
     0
  3
Long_Dashed
 72
    65
 73
     2
 40
15.0
 49
10.0
 74
     0
 49
-5.0
 74
     0
  0
LTYPE
  5
43
330
5
100
AcDbSymbolTableRecord
100
AcDbLinetypeTableRecord
  2
DASH_CENTER
 70
     0
  3
Dash_Center
 72
    65
 73
     4
 40
14.0
 49
11.0
 74
     0
 49
-1.0
 74
     0
 49
1.0
 74
     0
 49
-1.0
 74
     0
  0
LTYPE
  5
44
330
5
100
AcDbSymbolTableRecord
100
AcDbLinetypeTableRecord
  2
PHANTOM
 70
     0
  3
Phantom
 72
    65
 73
     6
 40
13.0
 49
10.0
 74
     0
 49
-1.0
 74
     0
 49
0.0
 74
     0
 49
-1.0
 74
     0
 49
0.0
 74
     0
 49
-1.0
 74
     0
  0
LTYPE
  5
45
330
5
100
AcDbSymbolTableRecord
100
AcDbLinetypeTableRecord
  2
CENTER_DASH_DASH
 70
     0
  3
Center_Dash_Dash
 72
    65
 73
     6
 40
14.0
 49
9.0
 74
     0
 49
-1.0
 74
     0
 49
1.0
 74
     0
 49
-1.0
 74
     0
 49
1.0
 74
     0
 49
-1.0
 74
     0
  0
ENDTAB
  0
TABLE
  2
LAYER
  5
2
330
0
100
AcDbSymbolTable
 70
     2
  0
LAYER
  5
10
330
2
100
AcDbSymbolTableRecord
100
AcDbLayerTableRecord
  2
0
 70
     0
 62
     7
  6
Continuous
370
    -3
390
F
  0
LAYER
  5
46
330
2
100
AcDbSymbolTableRecord
100
AcDbLayerTableRecord
  2
1
 70
     0
 62
     7
  6
Continuous
370
    -3
390
F
  0
ENDTAB
  0
TABLE
  2
STYLE
  5
3
330
0
100
AcDbSymbolTable
 70
     5
  0
STYLE
  5
11
330
3
100
AcDbSymbolTableRecord
100
AcDbTextStyleTableRecord
  2
Standard
 70
     0
 40
0.0
 41
1.0
 50
0.0
 71
     0
 42
0.2
  3
txt
  4

  0
STYLE
  5
A5
330
3
100
AcDbSymbolTableRecord
100
AcDbTextStyleTableRecord
  2
CONVERTER_11
 70
     0
 40
0.0
 41
0.9
 50
0.0
 71
     0
 42
0.2
  3
txt.shx
  4

  0
STYLE
  5
1F2
330
3
100
AcDbSymbolTableRecord
100
AcDbTextStyleTableRecord
  2
CONVERTER_12
 70
     0
 40
0.0
 41
0.81
 50
0.0
 71
     0
 42
0.2
  3
txt.shx
  4

  0
STYLE
  5
1F8
330
3
100
AcDbSymbolTableRecord
100
AcDbTextStyleTableRecord
  2
CONVERTER_13
 70
     0
 40
0.0
 41
0.855
 50
0.0
 71
     0
 42
0.2
  3
txt.shx
  4

  0
STYLE
  5
1FB
330
3
100
AcDbSymbolTableRecord
100
AcDbTextStyleTableRecord
  2
CONVERTER_14
 70
     0
 40
0.0
 41
0.72
 50
0.0
 71
     0
 42
0.2
  3
txt.shx
  4

  0
ENDTAB
  0
TABLE
  2
VIEW
  5
6
330
0
100
AcDbSymbolTable
 70
     0
  0
ENDTAB
  0
TABLE
  2
UCS
  5
7
330
0
100
AcDbSymbolTable
 70
     0
  0
ENDTAB
  0
TABLE
  2
APPID
  5
9
330
0
100
AcDbSymbolTable
 70
     1
  0
APPID
  5
12
330
9
100
AcDbSymbolTableRecord
100
AcDbRegAppTableRecord
  2
ACAD
 70
     0
  0
ENDTAB
  0
TABLE
  2
DIMSTYLE
  5
A
330
0
100
AcDbSymbolTable
 70
     4
100
AcDbDimStyleTable
  0
DIMSTYLE
105
27
330
A
100
AcDbSymbolTableRecord
100
AcDbDimStyleTableRecord
  2
Standard
 70
     0
178
     0
340
11
  0
DIMSTYLE
105
BF
102
{ACAD_REACTORS
330
C0
102
}
330
A
100
AcDbSymbolTableRecord
100
AcDbDimStyleTableRecord
  2
ME10_DIM_10
 70
     0
 41
1.75
 42
0.0
 44
0.75
 73
     0
 74
     0
 77
     1
 78
     8
140
1.75
147
0.75
172
     1
173
     1
174
     1
175
     1
176
     2
177
     2
271
     1
178
     3
271
     1
340
A5
  0
DIMSTYLE
105
EE
102
{ACAD_REACTORS
330
EF
102
}
330
A
100
AcDbSymbolTableRecord
100
AcDbDimStyleTableRecord
  2
ME10_DIM_11
 70
     0
 41
1.75
 42
0.0
 44
0.75
 73
     0
 74
     0
 77
     1
 78
     8
140
1.75
147
0.75
172
     1
173
     1
174
     1
175
     1
176
     2
177
     2
271
     1
178
     3
271
     1
340
A5
  0
DIMSTYLE
105
F9
102
{ACAD_REACTORS
330
FA
102
}
330
A
100
AcDbSymbolTableRecord
100
AcDbDimStyleTableRecord
  2
ME10_DIM_12
 70
     0
 41
1.75
 42
0.0
 44
0.75
 73
     0
 74
     0
 77
     1
 78
     8
140
1.75
147
0.75
172
     1
173
     1
174
     1
175
     1
176
     2
177
     2
271
     1
178
     3
271
     1
340
A5
  0
ENDTAB
  0
TABLE
  2
BLOCK_RECORD
  5
1
330
0
100
AcDbSymbolTable
 70
    19
  0
BLOCK_RECORD
  5
1F
330
1
100
AcDbSymbolTableRecord
100
AcDbBlockTableRecord
  2
*Model_Space
340
22
  0
BLOCK_RECORD
  5
1B
330
1
100
AcDbSymbolTableRecord
100
AcDbBlockTableRecord
  2
*Paper_Space
340
1E
  0
BLOCK_RECORD
  5
23
330
1
100
AcDbSymbolTableRecord
100
AcDbBlockTableRecord
  2
*Paper_Space0
340
26
  0
BLOCK_RECORD
  5
47
330
1
100
AcDbSymbolTableRecord
100
AcDbBlockTableRecord
  2
3240705_WT_BASE_HF_9_BK-select__1
340
0
102
{BLKREFS
331
4B
102
}
  0
BLOCK_RECORD
  5
4A
330
1
100
AcDbSymbolTableRecord
100
AcDbBlockTableRecord
  2
Allg1
340
0
102
{BLKREFS
331
7C
102
}
  0
BLOCK_RECORD
  5
4E
330
1
100
AcDbSymbolTableRecord
100
AcDbBlockTableRecord
  2
3240705_WT_BASE_HF_9_BK-select__2
340
0
102
{BLKREFS
331
52
102
}
  0
BLOCK_RECORD
  5
51
330
1
100
AcDbSymbolTableRecord
100
AcDbBlockTableRecord
  2
Drfsicht1
340
0
102
{BLKREFS
331
7D
102
}
  0
BLOCK_RECORD
  5
55
330
1
100
AcDbSymbolTableRecord
100
AcDbBlockTableRecord
  2
3240705_WT_BASE_HF_9_BK-select__3
340
0
102
{BLKREFS
331
59
102
}
  0
BLOCK_RECORD
  5
58
330
1
100
AcDbSymbolTableRecord
100
AcDbBlockTableRecord
  2
Rckans1
340
0
102
{BLKREFS
331
7E
102
}
  0
BLOCK_RECORD
  5
5C
330
1
100
AcDbSymbolTableRecord
100
AcDbBlockTableRecord
  2
3240705_WT_BASE_HF_9_BK-select__4
340
0
102
{BLKREFS
331
60
102
}
  0
BLOCK_RECORD
  5
5F
330
1
100
AcDbSymbolTableRecord
100
AcDbBlockTableRecord
  2
SA_Links1
340
0
102
{BLKREFS
331
7F
102
}
  0
BLOCK_RECORD
  5
63
330
1
100
AcDbSymbolTableRecord
100
AcDbBlockTableRecord
  2
3240705_WT_BASE_HF_9_BK-select__5
340
0
102
{BLKREFS
331
67
102
}
  0
BLOCK_RECORD
  5
66
330
1
100
AcDbSymbolTableRecord
100
AcDbBlockTableRecord
  2
SA_Rechts1
340
0
102
{BLKREFS
331
80
102
}
  0
BLOCK_RECORD
  5
6A
330
1
100
AcDbSymbolTableRecord
100
AcDbBlockTableRecord
  2
3240705_WT_BASE_HF_9_BK-select__6
340
0
102
{BLKREFS
331
6E
102
}
  0
BLOCK_RECORD
  5
6D
330
1
100
AcDbSymbolTableRecord
100
AcDbBlockTableRecord
  2
Vordans1
340
0
102
{BLKREFS
331
81
102
}
  0
BLOCK_RECORD
  5
71
330
1
100
AcDbSymbolTableRecord
100
AcDbBlockTableRecord
  2
_rahmen
340
0
102
{BLKREFS
331
78
102
}
  0
BLOCK_RECORD
  5
74
330
1
100
AcDbSymbolTableRecord
100
AcDbBlockTableRecord
  2
_punkt
340
0
102
{BLKREFS
331
79
102
}
  0
BLOCK_RECORD
  5
77
330
1
100
AcDbSymbolTableRecord
100
AcDbBlockTableRecord
  2
A4I_CS
340
0
102
{BLKREFS
331
82
102
}
  0
BLOCK_RECORD
  5
B6
330
1
100
AcDbSymbolTableRecord
100
AcDbBlockTableRecord
  2
*D16
340
0
  0
BLOCK_RECORD
  5
E5
330
1
100
AcDbSymbolTableRecord
100
AcDbBlockTableRecord
  2
*D17
340
0
  0
BLOCK_RECORD
  5
F0
330
1
100
AcDbSymbolTableRecord
100
AcDbBlockTableRecord
  2
*D18
340
0
  0
ENDTAB
  0
ENDSEC
  0
SECTION
  2
BLOCKS
  0
BLOCK
  5
20
330
1F
100
AcDbEntity
  8
0
100
AcDbBlockBegin
  2
*Model_Space
 70
     0
 10
0.0
 20
0.0
 30
0.0
  3
*Model_Space
  1

  0
ENDBLK
  5
21
330
1F
100
AcDbEntity
  8
0
100
AcDbBlockEnd
  0
BLOCK
  5
1C
330
1B
100
AcDbEntity
 67
     1
  8
0
100
AcDbBlockBegin
  2
*Paper_Space
 70
     0
 10
0.0
 20
0.0
 30
0.0
  3
*Paper_Space
  1

  0
ENDBLK
  5
1D
330
1B
100
AcDbEntity
 67
     1
  8
0
100
AcDbBlockEnd
  0
BLOCK
  5
24
330
23
100
AcDbEntity
  8
0
100
AcDbBlockBegin
  2
*Paper_Space0
 70
     0
 10
0.0
 20
0.0
 30
0.0
  3
*Paper_Space0
  1

  0
ENDBLK
  5
25
330
23
100
AcDbEntity
  8
0
100
AcDbBlockEnd
  0
BLOCK
  5
48
330
47
100
AcDbEntity
  8
0
100
AcDbBlockBegin
  2
3240705_WT_BASE_HF_9_BK-select__1
 70
     0
 10
-94.8927857265108
 20
-107.2366324637331
 30
0.0
  3
3240705_WT_BASE_HF_9_BK-select__1
  1

  0
LINE
  5
83
330
47
100
AcDbEntity
  8
0
  6
Continuous
 62
     7
100
AcDbLine
 10
-75.40721414136092
 20
-107.2366324637331
 30
0.0
 11
-94.8927857265108
 21
-101.6116324637331
 31
0.0
  0
LINE
  5
84
330
47
100
AcDbEntity
  8
0
  6
Continuous
 62
     7
100
AcDbLine
 10
-68.10721414136091
 20
-100.9146470161067
 30
0.0
 11
-75.40721414136092
 21
-107.2366324637331
 31
0.0
  0
LINE
  5
85
330
47
100
AcDbEntity
  8
0
  6
Continuous
 62
     7
100
AcDbLine
 10
-69.43221414136092
 20
-97.2989909553067
 30
0.0
 11
-74.08221414136092
 21
-101.3260090829044
 31
0.0
  0
LINE
  5
86
330
47
100
AcDbEntity
  8
0
  6
Continuous
 62
     7
100
AcDbLine
 10
-74.08221414136092
 20
-101.3260090829044
 30
0.0
 11
-74.08221414136092
 21
-97.8619074677666
 31
0.0
  0
LINE
  5
87
330
47
100
AcDbEntity
  8
0
  6
Continuous
 62
     7
100
AcDbLine
 10
-89.95644092493949
 20
-98.27349274291872
 30
0.0
 11
-88.63144092493948
 21
-97.12600908290435
 31
0.0
  0
LINE
  5
88
330
47
100
AcDbEntity
  8
0
  6
Continuous
 62
     7
100
AcDbLine
 10
-88.63144092493948
 20
-97.12600908290435
 30
0.0
 11
-88.63144092493948
 21
-93.6619074677666
 31
0.0
  0
LINE
  5
89
330
47
100
AcDbEntity
  8
0
  6
Continuous
 62
     7
100
AcDbLine
 10
-89.95644092493949
 20
-98.27349274291872
 30
0.0
 11
-89.95644092493949
 21
-93.51035302210431
 31
0.0
  0
LINE
  5
8A
330
47
100
AcDbEntity
  8
0
  6
Continuous
 62
     7
100
AcDbLine
 10
-80.3435589429322
 20
-96.28535302210432
 30
0.0
 11
-73.04355894293221
 21
-89.96336757447791
 31
0.0
  0
LINE
  5
8B
330
47
100
AcDbEntity
  8
0
  6
Continuous
 62
     7
100
AcDbLine
 10
-77.16855894293221
 20
-93.53572236508873
 30
0.0
 11
-82.65644092493949
 21
-91.95150729529233
 31
0.0
  0
LINE
  5
8C
330
47
100
AcDbEntity
  8
0
  6
Continuous
 62
     7
100
AcDbLine
 10
-88.63144092493948
 20
-93.6619074677666
 30
0.0
 11
-83.98144092493949
 21
-89.63488934016895
 31
0.0
  0
LINE
  5
8D
330
47
100
AcDbEntity
  8
0
  6
Continuous
 62
     7
100
AcDbLine
 10
-87.59278572651078
 20
-85.76336757447791
 30
0.0
 11
-82.65644092493949
 21
-87.18836757447791
 31
0.0
  0
LINE
  5
8E
330
47
100
AcDbEntity
  8
0
  6
Continuous
 62
     7
100
AcDbLine
 10
-82.65644092493949
 20
-87.18836757447791
 30
0.0
 11
-89.95644092493949
 21
-93.51035302210431
 31
0.0
  0
LINE
  5
8F
330
47
100
AcDbEntity
  8
0
  6
Continuous
 62
     7
100
AcDbLine
 10
-86.98144092493949
 20
-92.23296555152227
 30
0.0
 11
-83.98144092493949
 21
-93.0989909553067
 31
0.0
  0
LINE
  5
90
330
47
100
AcDbEntity
  8
0
  6
Continuous
 62
     7
100
AcDbLine
 10
-83.98144092493949
 20
-93.0989909553067
 30
0.0
 11
-82.65644092493949
 21
-91.95150729529233
 31
0.0
  0
LINE
  5
91
330
47
100
AcDbEntity
  8
0
  6
Continuous
 62
     7
100
AcDbLine
 10
-83.98144092493949
 20
-89.63488934016895
 30
0.0
 11
-83.98144092493949
 21
-93.0989909553067
 31
0.0
  0
LINE
  5
92
330
47
100
AcDbEntity
  8
0
  6
Continuous
 62
     7
100
AcDbLine
 10
-82.65644092493949
 20
-87.18836757447791
 30
0.0
 11
-82.65644092493949
 21
-91.95150729529233
 31
0.0
  0
LINE
  5
93
330
47
100
AcDbEntity
  8
0
  6
Continuous
 62
     7
100
AcDbLine
 10
-75.40721414136091
 20
-97.71035302210431
 30
0.0
 11
-75.40721414136092
 21
-107.2366324637331
 31
0.0
  0
LINE
  5
94
330
47
100
AcDbEntity
  8
0
  6
Continuous
 62
     7
100
AcDbLine
 10
-94.8927857265108
 20
-92.08535302210431
 30
0.0
 11
-94.8927857265108
 21
-101.6116324637331
 31
0.0
  0
LINE
  5
95
330
47
100
AcDbEntity
  8
0
  6
Continuous
 62
     7
100
AcDbLine
 10
-94.8927857265108
 20
-92.08535302210431
 30
0.0
 11
-87.59278572651078
 21
-85.76336757447791
 31
0.0
  0
LINE
  5
96
330
47
100
AcDbEntity
  8
0
  6
Continuous
 62
     7
100
AcDbLine
 10
-89.95644092493949
 20
-93.51035302210431
 30
0.0
 11
-94.8927857265108
 21
-92.08535302210431
 31
0.0
  0
LINE
  5
97
330
47
100
AcDbEntity
  8
0
  6
Continuous
 62
     7
100
AcDbLine
 10
-75.40721414136091
 20
-97.71035302210431
 30
0.0
 11
-80.3435589429322
 21
-96.28535302210432
 31
0.0
  0
LINE
  5
98
330
47
100
AcDbEntity
  8
0
  6
Continuous
 62
     7
100
AcDbLine
 10
-74.08221414136092
 20
-97.8619074677666
 30
0.0
 11
-69.43221414136092
 21
-93.83488934016896
 31
0.0
  0
LINE
  5
99
330
47
100
AcDbEntity
  8
0
  6
Continuous
 62
     7
100
AcDbLine
 10
-68.10721414136091
 20
-91.38836757447791
 30
0.0
 11
-75.40721414136091
 21
-97.71035302210431
 31
0.0
  0
LINE
  5
9A
330
47
100
AcDbEntity
  8
0
  6
Continuous
 62
     7
100
AcDbLine
 10
-72.43221414136092
 20
-96.43296555152227
 30
0.0
 11
-69.43221414136092
 21
-97.2989909553067
 31
0.0
  0
LINE
  5
9B
330
47
100
AcDbEntity
  8
0
  6
Continuous
 62
     7
100
AcDbLine
 10
-69.43221414136092
 20
-93.83488934016896
 30
0.0
 11
-69.43221414136092
 21
-97.2989909553067
 31
0.0
  0
LINE
  5
9C
330
47
100
AcDbEntity
  8
0
  6
Continuous
 62
     7
100
AcDbLine
 10
-68.10721414136091
 20
-91.38836757447791
 30
0.0
 11
-68.10721414136091
 21
-100.9146470161067
 31
0.0
  0
LINE
  5
9D
330
47
100
AcDbEntity
  8
0
  6
Continuous
 62
     7
100
AcDbLine
 10
-73.04355894293221
 20
-89.96336757447791
 30
0.0
 11
-68.10721414136091
 21
-91.38836757447791
 31
0.0
  0
LINE
  5
9E
330
47
100
AcDbEntity
  8
0
  6
Continuous
 62
     7
100
AcDbLine
 10
-89.95644092493949
 20
-98.27349274291872
 30
0.0
 11
-80.34355894293222
 21
-101.0484927429187
 31
0.0
  0
LINE
  5
9F
330
47
100
AcDbEntity
  8
0
  6
Continuous
 62
     7
100
AcDbLine
 10
-80.3435589429322
 20
-96.28535302210432
 30
0.0
 11
-80.34355894293222
 21
-101.0484927429187
 31
0.0
  0
SPLINE
  5
A0
330
47
100
AcDbEntity
  8
0
  6
Continuous
 62
     7
100
AcDbSpline
210
0.0
220
0.0
230
1.0
 70
     8
 71
     3
 72
    15
 73
    11
 74
     9
 42
0.000000001
 43
0.0000000001
 44
0.00000001
 40
0.0
 40
0.0
 40
0.0
 40
0.0
 40
0.5286564327356731
 40
1.128754585679559
 40
1.839284538719776
 40
2.666316663311676
 40
3.594084397532157
 40
4.593529653867197
 40
5.627963463273462
 40
6.657350393480052
 40
6.657350393480052
 40
6.657350393480052
 40
6.657350393480052
 10
-86.04999993393585
 20
-96.50000001910553
 30
0.0
 10
-86.02435911740506
 20
-96.67707412409405
 30
0.0
 10
-85.96961241547467
 20
-97.05515181911463
 30
0.0
 10
-85.57348421939167
 20
-97.55267737622817
 30
0.0
 10
-85.00358156201806
 20
-97.98265288505452
 30
0.0
 10
-84.2544547899064
 20
-98.33472254705325
 30
0.0
 10
-83.37151015364458
 20
-98.59521523978793
 30
0.0
 10
-82.39421487606431
 20
-98.74895251677887
 30
0.0
 10
-81.37102403727798
 20
-98.79901361180487
 30
0.0
 10
-80.68548850345414
 20
-98.7331457045952
 30
0.0
 10
-80.3435589429322
 20
-98.70029228573321
 30
0.0
 11
-86.04999993393585
 21
-96.50000001910553
 31
0.0
 11
-85.93176102359448
 21
-97.01526421559645
 31
0.0
 11
-85.58319157400594
 21
-97.50374874643495
 31
0.0
 11
-85.02240580343415
 21
-97.94006529671258
 31
0.0
 11
-84.27855112933727
 21
-98.30153778269343
 31
0.0
 11
-83.39028640439558
 21
-98.56937868093561
 31
0.0
 11
-82.4037784092811
 21
-98.72966840630477
 31
0.0
 11
-81.37029820224801
 21
-98.77407524792663
 31
0.0
 11
-80.3435589429322
 21
-98.70029228573321
 31
0.0
  0
SPLINE
  5
A1
330
47
100
AcDbEntity
  8
0
  6
Continuous
 62
     7
100
AcDbSpline
210
0.0
220
0.0
230
1.0
 70
     8
 71
     3
 72
     9
 73
     5
 74
     3
 42
0.000000001
 43
0.0000000001
 44
0.00000001
 40
0.0
 40
0.0
 40
0.0
 40
0.0
 40
0.6244338434993522
 40
1.248867686998704
 40
1.248867686998704
 40
1.248867686998704
 40
1.248867686998704
 10
-80.87681405112781
 20
-98.75356049951584
 30
0.0
 10
-81.08454267852026
 20
-98.7338311992105
 30
0.0
 10
-81.49999993393585
 20
-98.69437261851999
 30
0.0
 10
-81.91545718935143
 20
-98.73383119921051
 30
0.0
 10
-82.1231858167439
 20
-98.75356049951584
 30
0.0
 11
-80.87681405112781
 21
-98.75356049951584
 31
0.0
 11
-81.49999993393585
 21
-98.71410189886525
 31
0.0
 11
-82.1231858167439
 21
-98.75356049951584
 31
0.0
  0
SPLINE
  5
A2
330
47
100
AcDbEntity
  8
0
  6
Continuous
 62
     7
100
AcDbSpline
210
0.0
220
0.0
230
1.0
 70
     8
 71
     3
 72
    11
 73
     7
 74
     5
 42
0.000000001
 43
0.0000000001
 44
0.00000001
 40
0.0
 40
0.0
 40
0.0
 40
0.0
 40
1.08446068048955
 40
2.172135838407266
 40
3.216466387858446
 40
4.175534793622033
 40
4.175534793622033
 40
4.175534793622033
 40
4.175534793622033
 10
-80.34355894293222
 20
-97.7638093676156
 30
0.0
 10
-80.70395915932802
 20
-97.72965880874627
 30
0.0
 10
-81.42582786442013
 20
-97.66125647947156
 30
0.0
 10
-82.49894700997275
 20
-97.7266017261509
 30
0.0
 10
-83.52051322125821
 20
-97.89282452461866
 30
0.0
 10
-84.14908815109473
 20
-98.12222978798553
 30
0.0
 10
-84.44999993393586
 20
-98.23205082667441
 30
0.0
 11
-80.34355894293222
 21
-97.7638093676156
 31
0.0
 11
-81.42546434345654
 21
-97.68940727038955
 31
0.0
 11
-82.51166368423509
 21
-97.74604863350534
 31
0.0
 11
-83.5395811932027
 21
-97.93047177381591
 31
0.0
 11
-84.44999993393586
 21
-98.23205082667441
 31
0.0
  0
SPLINE
  5
A3
330
47
100
AcDbEntity
  8
0
  6
Continuous
 62
     7
100
AcDbSpline
210
0.0
220
0.0
230
1.0
 70
     8
 71
     3
 72
     9
 73
     5
 74
     3
 42
0.000000001
 43
0.0000000001
 44
0.00000001
 40
0.0
 40
0.0
 40
0.0
 40
0.0
 40
0.3359879219289877
 40
0.6859075728532185
 40
0.6859075728532185
 40
0.6859075728532185
 40
0.6859075728532185
 10
-78.57783635294925
 20
-94.756192403143
 30
0.0
 10
-78.68189212843492
 20
-94.71462044282342
 30
0.0
 10
-78.89431835587743
 20
-94.62975276087724
 30
0.0
 10
-79.11329019902293
 20
-94.56356054921844
 30
0.0
 10
-79.22499993393586
 20
-94.52979222549592
 30
0.0
 11
-78.57783635294925
 21
-94.756192403143
 31
0.0
 11
-78.89157428663978
 21
-94.63595766257428
 31
0.0
 11
-79.22499993393586
 21
-94.52979222549592
 31
0.0
  0
SPLINE
  5
A4
330
47
100
AcDbEntity
  8
0
  6
Continuous
 62
     7
100
AcDbSpline
210
0.0
220
0.0
230
1.0
 70
     8
 71
     3
 72
    17
 73
    13
 74
    11
 42
0.000000001
 43
0.0000000001
 44
0.00000001
 40
0.0
 40
0.0
 40
0.0
 40
0.0
 40
0.890244297958978
 40
1.825906875320713
 40
2.777115857733719
 40
3.712778532886551
 40
4.603022633349058
 40
5.421770818669002
 40
6.149804064452693
 40
6.778969824178462
 40
7.318413914593222
 40
7.801750419911459
 40
7.801750419911459
 40
7.801750419911459
 40
7.801750419911459
 10
-79.22499993393586
 20
-94.52979222549592
 30
0.0
 10
-79.51336662898763
 20
-94.45836930583133
 30
0.0
 10
-80.10481184620082
 20
-94.31187963423687
 30
0.0
 10
-81.02914944261414
 20
-94.22230535957578
 30
0.0
 10
-81.97116200982805
 20
-94.22042319353626
 30
0.0
 10
-82.89369516896907
 20
-94.31731509952442
 30
0.0
 10
-83.75702696325313
 20
-94.50581823545568
 30
0.0
 10
-84.5243773290475
 20
-94.77872874575638
 30
0.0
 10
-85.16736304027896
 20
-95.12511914626995
 30
0.0
 10
-85.65229091054496
 20
-95.53355441102055
 30
0.0
 10
-85.98395230014268
 20
-95.99560217833282
 30
0.0
 10
-86.02880421996942
 20
-96.33813087136114
 30
0.0
 10
-86.04999993393585
 20
-96.50000001910553
 30
0.0
 11
-79.22499993393586
 21
-94.52979222549592
 31
0.0
 11
-80.09397270776263
 21
-94.33634659569874
 31
0.0
 11
-81.02439542606804
 21
-94.2374627071427
 31
0.0
 11
-81.97560440857535
 21
-94.23746286521596
 31
0.0
 11
-82.90602725834187
 21
-94.33634644453406
 31
0.0
 11
-83.77499977499188
 21
-94.52979236314546
 31
0.0
 11
-84.54454419286866
 21
-94.80934554114447
 31
0.0
 11
-85.18102700116512
 21
-95.16278866356507
 31
0.0
 11
-85.6566317662097
 21
-95.57467415610807
 31
0.0
 11
-85.95057120633334
 21
-96.02700095554142
 31
0.0
 11
-86.04999993393585
 21
-96.50000001910553
 31
0.0
  0
ENDBLK
  5
49
330
47
100
AcDbEntity
  8
0
100
AcDbBlockEnd
  0
BLOCK
  5
4C
330
4A
100
AcDbEntity
  8
0
100
AcDbBlockBegin
  2
Allg1
 70
     0
 10
-81.50000000000402
 20
-96.50000000001597
 30
0.0
  3
Allg1
  1

  0
INSERT
  5
4B
330
4A
100
AcDbEntity
  8
0
100
AcDbBlockReference
  2
3240705_WT_BASE_HF_9_BK-select__1
 10
-94.8927857265108
 20
-107.2366324637331
 30
0.0
  0
MTEXT
  5
A6
330
4A
100
AcDbEntity
  8
1
 62
     6
100
AcDbMText
 10
-81.50000000000398
 20
-109.7366325272342
 30
0.0
 40
2.5
 41
0.0
 71
     2
 72
     1
  1
 
  7
CONVERTER_11
 73
     1
 44
1.32052821128451
  0
ENDBLK
  5
4D
330
4A
100
AcDbEntity
  8
0
100
AcDbBlockEnd
  0
BLOCK
  5
4F
330
4E
100
AcDbEntity
  8
0
100
AcDbBlockBegin
  2
3240705_WT_BASE_HF_9_BK-select__2
 70
     0
 10
-156.3500003051858
 20
-95.60000019075487
 30
0.0
  3
3240705_WT_BASE_HF_9_BK-select__2
  1

  0
LINE
  5
A7
330
4E
100
AcDbEntity
  8
1
  6
DOT_CENTER
 62
     2
100
AcDbLine
 10
-145.1000003051858
 20
-83.29500019075488
 30
0.0
 11
-145.1000003051858
 21
-93.30500019075487
 31
0.0
  0
LINE
  5
A8
330
4E
100
AcDbEntity
  8
1
  6
DOT_CENTER
 62
     2
100
AcDbLine
 10
-140.0950003051858
 20
-88.30000019075487
 30
0.0
 11
-150.1050003051858
 21
-88.30000019075487
 31
0.0
  0
LINE
  5
A9
330
4E
100
AcDbEntity
  8
0
  6
Continuous
 62
     7
100
AcDbLine
 10
-139.5500003051858
 20
-81.00000019075488
 30
0.0
 11
-133.8500003051858
 21
-81.00000019075488
 31
0.0
  0
LINE
  5
AA
330
4E
100
AcDbEntity
  8
0
  6
Continuous
 62
     7
100
AcDbLine
 10
-133.8500003051858
 20
-81.00000019075488
 30
0.0
 11
-133.8500003051858
 21
-95.60000019075487
 31
0.0
  0
LINE
  5
AB
330
4E
100
AcDbEntity
  8
0
  6
Continuous
 62
     7
100
AcDbLine
 10
-133.8500003051858
 20
-95.60000019075487
 30
0.0
 11
-139.5500003051858
 21
-95.60000019075487
 31
0.0
  0
LINE
  5
AC
330
4E
100
AcDbEntity
  8
0
  6
Continuous
 62
     7
100
AcDbLine
 10
-150.6500003051858
 20
-95.60000019075487
 30
0.0
 11
-156.3500003051858
 21
-95.60000019075487
 31
0.0
  0
LINE
  5
AD
330
4E
100
AcDbEntity
  8
0
  6
Continuous
 62
     7
100
AcDbLine
 10
-139.5500003051858
 20
-81.00000019075488
 30
0.0
 11
-150.6500003051858
 21
-81.00000019075488
 31
0.0
  0
LINE
  5
AE
330
4E
100
AcDbEntity
  8
0
  6
Continuous
 62
     7
100
AcDbLine
 10
-139.5500003051858
 20
-95.60000019075487
 30
0.0
 11
-139.5500003051858
 21
-81.00000019075488
 31
0.0
  0
LINE
  5
AF
330
4E
100
AcDbEntity
  8
0
  6
Continuous
 62
     7
100
AcDbLine
 10
-150.6500003051858
 20
-81.00000019075488
 30
0.0
 11
-150.6500003051858
 21
-95.60000019075487
 31
0.0
  0
LINE
  5
B0
330
4E
100
AcDbEntity
  8
0
  6
Continuous
 62
     7
100
AcDbLine
 10
-156.3500003051858
 20
-81.00000019075488
 30
0.0
 11
-150.6500003051858
 21
-81.00000019075488
 31
0.0
  0
LINE
  5
B1
330
4E
100
AcDbEntity
  8
0
  6
Continuous
 62
     7
100
AcDbLine
 10
-156.3500003051858
 20
-95.60000019075487
 30
0.0
 11
-156.3500003051858
 21
-81.00000019075488
 31
0.0
  0
LINE
  5
B2
330
4E
100
AcDbEntity
  8
0
  6
Continuous
 62
     7
100
AcDbLine
 10
-150.6500003051858
 20
-95.60000019075487
 30
0.0
 11
-139.5500003051858
 21
-95.60000019075487
 31
0.0
  0
CIRCLE
  5
B3
330
4E
100
AcDbEntity
  8
0
  6
Continuous
 62
     7
100
AcDbCircle
 10
-145.1000003051858
 20
-88.30000019075487
 30
0.0
 40
4.549999999999997
  0
CIRCLE
  5
B4
330
4E
100
AcDbEntity
  8
0
  6
Continuous
 62
     7
100
AcDbCircle
 10
-145.1000003051858
 20
-88.30000019075487
 30
0.0
 40
2.5
  0
ENDBLK
  5
50
330
4E
100
AcDbEntity
  8
0
100
AcDbBlockEnd
  0
BLOCK
  5
53
330
51
100
AcDbEntity
  8
0
100
AcDbBlockBegin
  2
Drfsicht1
 70
     0
 10
-145.1000003814747
 20
-88.30000019075487
 30
0.0
  3
Drfsicht1
  1

  0
INSERT
  5
52
330
51
100
AcDbEntity
  8
0
100
AcDbBlockReference
  2
3240705_WT_BASE_HF_9_BK-select__2
 10
-156.3500003051858
 20
-95.60000019075487
 30
0.0
  0
MTEXT
  5
B5
330
51
100
AcDbEntity
  8
1
 62
     6
100
AcDbMText
 10
-145.1000003814747
 20
-98.10000038148974
 30
0.0
 40
2.5
 41
0.0
 71
     2
 72
     1
  1
 
  7
CONVERTER_11
 73
     1
 44
1.32052821128451
  0
DIMENSION
  5
C0
330
51
100
AcDbEntity
  8
1
100
AcDbDimension
  2
*D16
 10
-161.3500003051858
 20
-81.00000019075488
 30
0.0
 11
-163.0625003051858
 21
-88.30000019075487
 31
0.0
 70
    32
  1
<>
 71
     5
 42
-1.0
 53
90.0
  3
ME10_DIM_10
100
AcDbAlignedDimension
 13
-156.3500003051858
 23
-95.60000019075487
 33
0.0
 14
-156.3500003051858
 24
-81.00000019075488
 34
0.0
 50
90.0
100
AcDbRotatedDimension
  0
ENDBLK
  5
54
330
51
100
AcDbEntity
  8
0
100
AcDbBlockEnd
  0
BLOCK
  5
56
330
55
100
AcDbEntity
  8
0
100
AcDbBlockBegin
  2
3240705_WT_BASE_HF_9_BK-select__3
 70
     0
 10
-99.25000007627644
 20
-66.00000000006993
 30
0.0
  3
3240705_WT_BASE_HF_9_BK-select__3
  1

  0
LINE
  5
C1
330
55
100
AcDbEntity
  8
0
  6
Continuous
 62
     7
100
AcDbLine
 10
-76.75000007627644
 20
-66.00000000006993
 30
0.0
 11
-99.25000007627644
 21
-66.00000000006993
 31
0.0
  0
LINE
  5
C2
330
55
100
AcDbEntity
  8
0
  6
Continuous
 62
     7
100
AcDbLine
 10
-99.25000007627644
 20
-55.00000000006993
 30
0.0
 11
-99.25000007627644
 21
-66.00000000006993
 31
0.0
  0
LINE
  5
C3
330
55
100
AcDbEntity
  8
0
  6
Continuous
 62
     7
100
AcDbLine
 10
-76.75000007627644
 20
-55.00000000006993
 30
0.0
 11
-76.75000007627644
 21
-66.00000000006993
 31
0.0
  0
LINE
  5
C4
330
55
100
AcDbEntity
  8
0
  6
Continuous
 62
     7
100
AcDbLine
 10
-76.75000007627644
 20
-55.00000000006993
 30
0.0
 11
-82.45000007627644
 21
-55.00000000006993
 31
0.0
  0
LINE
  5
C5
330
55
100
AcDbEntity
  8
0
  6
Continuous
 62
     7
100
AcDbLine
 10
-82.45000007627644
 20
-55.00000000006993
 30
0.0
 11
-82.45000007627644
 21
-60.50000000006993
 31
0.0
  0
LINE
  5
C6
330
55
100
AcDbEntity
  8
0
  6
Continuous
 62
     7
100
AcDbLine
 10
-93.55000007627643
 20
-60.50000000006993
 30
0.0
 11
-82.45000007627644
 21
-60.50000000006993
 31
0.0
  0
LINE
  5
C7
330
55
100
AcDbEntity
  8
0
  6
Continuous
 62
     7
100
AcDbLine
 10
-93.55000007627643
 20
-60.50000000006993
 30
0.0
 11
-93.55000007627643
 21
-55.00000000006993
 31
0.0
  0
LINE
  5
C8
330
55
100
AcDbEntity
  8
0
  6
Continuous
 62
     7
100
AcDbLine
 10
-93.55000007627643
 20
-55.00000000006993
 30
0.0
 11
-99.25000007627644
 21
-55.00000000006993
 31
0.0
  0
ENDBLK
  5
57
330
55
100
AcDbEntity
  8
0
100
AcDbBlockEnd
  0
BLOCK
  5
5A
330
58
100
AcDbEntity
  8
0
100
AcDbBlockBegin
  2
Rckans1
 70
     0
 10
-87.9999999999875
 20
-60.50000000004994
 30
0.0
  3
Rckans1
  1

  0
INSERT
  5
59
330
58
100
AcDbEntity
  8
0
100
AcDbBlockReference
  2
3240705_WT_BASE_HF_9_BK-select__3
 10
-99.25000007627644
 20
-66.00000000006993
 30
0.0
  0
MTEXT
  5
C9
330
58
100
AcDbEntity
  8
1
 62
     6
100
AcDbMText
 10
-87.9999999999875
 20
-68.50000000005002
 30
0.0
 40
2.5
 41
0.0
 71
     2
 72
     1
  1
 
  7
CONVERTER_11
 73
     1
 44
1.32052821128451
  0
ENDBLK
  5
5B
330
58
100
AcDbEntity
  8
0
100
AcDbBlockEnd
  0
BLOCK
  5
5D
330
5C
100
AcDbEntity
  8
0
100
AcDbBlockBegin
  2
3240705_WT_BASE_HF_9_BK-select__4
 70
     0
 10
-123.8499997138978
 20
-66.00000000004
 30
0.0
  3
3240705_WT_BASE_HF_9_BK-select__4
  1

  0
LINE
  5
CA
330
5C
100
AcDbEntity
  8
0
  6
Continuous
 62
     7
100
AcDbLine
 10
-109.2499997138978
 20
-66.00000000004
 30
0.0
 11
-123.8499997138978
 21
-66.00000000004
 31
0.0
  0
LINE
  5
CB
330
5C
100
AcDbEntity
  8
0
  6
Continuous
 62
     7
100
AcDbLine
 10
-123.8499997138978
 20
-55.00000000004
 30
0.0
 11
-123.8499997138978
 21
-66.00000000004
 31
0.0
  0
LINE
  5
CC
330
5C
100
AcDbEntity
  8
0
  6
Continuous
 62
     7
100
AcDbLine
 10
-109.2499997138978
 20
-55.00000000004
 30
0.0
 11
-109.2499997138978
 21
-66.00000000004
 31
0.0
  0
LINE
  5
CD
330
5C
100
AcDbEntity
  8
0
  6
Continuous
 62
     7
100
AcDbLine
 10
-109.2499997138978
 20
-55.00000000004
 30
0.0
 11
-123.8499997138978
 21
-55.00000000004
 31
0.0
  0
LINE
  5
CE
330
5C
100
AcDbEntity
  8
0
  6
Continuous
 62
     7
100
AcDbLine
 10
-121.1999997138978
 20
-56.50000000004
 30
0.0
 11
-111.8999997138978
 21
-56.50000000004
 31
0.0
  0
LINE
  5
CF
330
5C
100
AcDbEntity
  8
0
  6
Continuous
 62
     7
100
AcDbLine
 10
-111.8999997138978
 20
-56.50000000004
 30
0.0
 11
-111.8999997138978
 21
-60.50000000004
 31
0.0
  0
LINE
  5
D0
330
5C
100
AcDbEntity
  8
0
  6
Continuous
 62
     7
100
AcDbLine
 10
-111.8999997138978
 20
-60.50000000004
 30
0.0
 11
-121.1999997138978
 21
-60.50000000004
 31
0.0
  0
LINE
  5
D1
330
5C
100
AcDbEntity
  8
0
  6
Continuous
 62
     7
100
AcDbLine
 10
-121.1999997138978
 20
-60.50000000004
 30
0.0
 11
-121.1999997138978
 21
-56.50000000004
 31
0.0
  0
ENDBLK
  5
5E
330
5C
100
AcDbEntity
  8
0
100
AcDbBlockEnd
  0
BLOCK
  5
61
330
5F
100
AcDbEntity
  8
0
100
AcDbBlockBegin
  2
SA_Links1
 70
     0
 10
-116.5499997138978
 20
-60.50000000002001
 30
0.0
  3
SA_Links1
  1

  0
INSERT
  5
60
330
5F
100
AcDbEntity
  8
0
100
AcDbBlockReference
  2
3240705_WT_BASE_HF_9_BK-select__4
 10
-123.8499997138978
 20
-66.00000000004
 30
0.0
  0
MTEXT
  5
D2
330
5F
100
AcDbEntity
  8
1
 62
     6
100
AcDbMText
 10
-116.5499997138977
 20
-68.50000000002001
 30
0.0
 40
2.5
 41
0.0
 71
     2
 72
     1
  1
 
  7
CONVERTER_11
 73
     1
 44
1.32052821128451
  0
ENDBLK
  5
62
330
5F
100
AcDbEntity
  8
0
100
AcDbBlockEnd
  0
BLOCK
  5
64
330
63
100
AcDbEntity
  8
0
100
AcDbBlockBegin
  2
3240705_WT_BASE_HF_9_BK-select__5
 70
     0
 10
-185.9499996185303
 20
-66.00000000003992
 30
0.0
  3
3240705_WT_BASE_HF_9_BK-select__5
  1

  0
LINE
  5
D3
330
63
100
AcDbEntity
  8
0
  6
Continuous
 62
     7
100
AcDbLine
 10
-171.3499996185303
 20
-55.00000000003992
 30
0.0
 11
-185.9499996185303
 21
-55.00000000003992
 31
0.0
  0
LINE
  5
D4
330
63
100
AcDbEntity
  8
0
  6
Continuous
 62
     7
100
AcDbLine
 10
-183.2999996185303
 20
-60.50000000003992
 30
0.0
 11
-183.2999996185303
 21
-56.50000000003992
 31
0.0
  0
LINE
  5
D5
330
63
100
AcDbEntity
  8
0
  6
Continuous
 62
     7
100
AcDbLine
 10
-183.2999996185303
 20
-56.50000000003992
 30
0.0
 11
-173.9999996185303
 21
-56.50000000003992
 31
0.0
  0
LINE
  5
D6
330
63
100
AcDbEntity
  8
0
  6
Continuous
 62
     7
100
AcDbLine
 10
-173.9999996185303
 20
-56.50000000003992
 30
0.0
 11
-173.9999996185303
 21
-60.50000000003992
 31
0.0
  0
LINE
  5
D7
330
63
100
AcDbEntity
  8
0
  6
Continuous
 62
     7
100
AcDbLine
 10
-185.9499996185303
 20
-55.00000000003992
 30
0.0
 11
-185.9499996185303
 21
-66.00000000003992
 31
0.0
  0
LINE
  5
D8
330
63
100
AcDbEntity
  8
0
  6
Continuous
 62
     7
100
AcDbLine
 10
-171.3499996185303
 20
-66.00000000003992
 30
0.0
 11
-185.9499996185303
 21
-66.00000000003992
 31
0.0
  0
LINE
  5
D9
330
63
100
AcDbEntity
  8
0
  6
Continuous
 62
     7
100
AcDbLine
 10
-171.3499996185303
 20
-55.00000000003992
 30
0.0
 11
-171.3499996185303
 21
-66.00000000003992
 31
0.0
  0
LINE
  5
DA
330
63
100
AcDbEntity
  8
0
  6
Continuous
 62
     7
100
AcDbLine
 10
-173.9999996185303
 20
-60.50000000003992
 30
0.0
 11
-183.2999996185303
 21
-60.50000000003992
 31
0.0
  0
ENDBLK
  5
65
330
63
100
AcDbEntity
  8
0
100
AcDbBlockEnd
  0
BLOCK
  5
68
330
66
100
AcDbEntity
  8
0
100
AcDbBlockBegin
  2
SA_Rechts1
 70
     0
 10
-178.6499996185303
 20
-60.50000000001992
 30
0.0
  3
SA_Rechts1
  1

  0
INSERT
  5
67
330
66
100
AcDbEntity
  8
0
100
AcDbBlockReference
  2
3240705_WT_BASE_HF_9_BK-select__5
 10
-185.9499996185303
 20
-66.00000000003992
 30
0.0
  0
MTEXT
  5
DB
330
66
100
AcDbEntity
  8
1
 62
     6
100
AcDbMText
 10
-178.6499996185303
 20
-68.50000000002001
 30
0.0
 40
2.5
 41
0.0
 71
     2
 72
     1
  1
 
  7
CONVERTER_11
 73
     1
 44
1.32052821128451
  0
ENDBLK
  5
69
330
66
100
AcDbEntity
  8
0
100
AcDbBlockEnd
  0
BLOCK
  5
6B
330
6A
100
AcDbEntity
  8
0
100
AcDbBlockBegin
  2
3240705_WT_BASE_HF_9_BK-select__6
 70
     0
 10
-156.3500003051857
 20
-66.00000000003989
 30
0.0
  3
3240705_WT_BASE_HF_9_BK-select__6
  1

  0
LINE
  5
DC
330
6A
100
AcDbEntity
  8
0
  6
Continuous
 62
     7
100
AcDbLine
 10
-133.8500003051857
 20
-66.00000000003989
 30
0.0
 11
-156.3500003051857
 21
-66.00000000003989
 31
0.0
  0
LINE
  5
DD
330
6A
100
AcDbEntity
  8
0
  6
Continuous
 62
     7
100
AcDbLine
 10
-156.3500003051857
 20
-55.00000000003989
 30
0.0
 11
-156.3500003051857
 21
-66.00000000003989
 31
0.0
  0
LINE
  5
DE
330
6A
100
AcDbEntity
  8
0
  6
Continuous
 62
     7
100
AcDbLine
 10
-133.8500003051857
 20
-55.00000000003989
 30
0.0
 11
-133.8500003051857
 21
-66.00000000003989
 31
0.0
  0
LINE
  5
DF
330
6A
100
AcDbEntity
  8
0
  6
Continuous
 62
     7
100
AcDbLine
 10
-133.8500003051857
 20
-55.00000000003989
 30
0.0
 11
-139.5500003051857
 21
-55.00000000003989
 31
0.0
  0
LINE
  5
E0
330
6A
100
AcDbEntity
  8
0
  6
Continuous
 62
     7
100
AcDbLine
 10
-139.5500003051857
 20
-55.00000000003989
 30
0.0
 11
-139.5500003051857
 21
-60.50000000003989
 31
0.0
  0
LINE
  5
E1
330
6A
100
AcDbEntity
  8
0
  6
Continuous
 62
     7
100
AcDbLine
 10
-150.6500003051858
 20
-60.50000000003989
 30
0.0
 11
-139.5500003051857
 21
-60.50000000003989
 31
0.0
  0
LINE
  5
E2
330
6A
100
AcDbEntity
  8
0
  6
Continuous
 62
     7
100
AcDbLine
 10
-150.6500003051858
 20
-60.50000000003989
 30
0.0
 11
-150.6500003051858
 21
-55.00000000003989
 31
0.0
  0
LINE
  5
E3
330
6A
100
AcDbEntity
  8
0
  6
Continuous
 62
     7
100
AcDbLine
 10
-150.6500003051858
 20
-55.00000000003989
 30
0.0
 11
-156.3500003051857
 21
-55.00000000003989
 31
0.0
  0
ENDBLK
  5
6C
330
6A
100
AcDbEntity
  8
0
100
AcDbBlockEnd
  0
BLOCK
  5
6F
330
6D
100
AcDbEntity
  8
0
100
AcDbBlockBegin
  2
Vordans1
 70
     0
 10
-145.1000003814747
 20
-60.5000000000199
 30
0.0
  3
Vordans1
  1

  0
INSERT
  5
6E
330
6D
100
AcDbEntity
  8
0
100
AcDbBlockReference
  2
3240705_WT_BASE_HF_9_BK-select__6
 10
-156.3500003051857
 20
-66.00000000003989
 30
0.0
  0
MTEXT
  5
E4
330
6D
100
AcDbEntity
  8
1
 62
     6
100
AcDbMText
 10
-145.1000003814747
 20
-68.50000000002001
 30
0.0
 40
2.5
 41
0.0
 71
     2
 72
     1
  1
 
  7
CONVERTER_11
 73
     1
 44
1.32052821128451
  0
DIMENSION
  5
EF
330
6D
100
AcDbEntity
  8
1
100
AcDbDimension
  2
*D17
 10
-156.3500003051857
 20
-71.00000000003989
 30
0.0
 11
-145.1000003051857
 21
-69.28750000003988
 31
0.0
 70
    33
  1
<>
 71
     5
 42
-1.0
 53
0.00013888888889
  3
ME10_DIM_11
100
AcDbAlignedDimension
 13
-133.8500003051857
 23
-66.00000000003989
 33
0.0
 14
-156.3500003051857
 24
-66.00000000003989
 34
0.0
  0
DIMENSION
  5
FA
330
6D
100
AcDbEntity
  8
1
100
AcDbDimension
  2
*D18
 10
-161.3500003051857
 20
-55.00000000003989
 30
0.0
 11
-162.9750003051857
 21
-60.50000000003989
 31
0.0
 70
    33
  1
<>
 71
     5
 42
-1.0
 53
90.0
  3
ME10_DIM_12
100
AcDbAlignedDimension
 13
-156.3500003051857
 23
-66.00000000003989
 33
0.0
 14
-156.3500003051857
 24
-55.00000000003989
 34
0.0
  0
ENDBLK
  5
70
330
6D
100
AcDbEntity
  8
0
100
AcDbBlockEnd
  0
BLOCK
  5
72
330
71
100
AcDbEntity
  8
0
100
AcDbBlockBegin
  2
_rahmen
 70
     0
 10
-119.1999996948067
 20
-260.6000003815297
 30
0.0
  3
_rahmen
  1

  0
LINE
  5
FB
330
71
100
AcDbEntity
  8
1
  6
DOT_CENTER
 62
     2
100
AcDbLine
 10
-244.7581493349941
 20
-234.4750003815297
 30
0.0
 11
-239.2581493349941
 21
-234.4750003815297
 31
0.0
  0
LINE
  5
FC
330
71
100
AcDbEntity
  8
1
  6
PHANTOM
 62
     2
100
AcDbLine
 10
-236.0081493349941
 20
-231.7250003815297
 30
0.0
 11
-236.0081493349941
 21
-237.2250003815297
 31
0.0
  0
LINE
  5
FD
330
71
100
AcDbEntity
  8
1
  6
PHANTOM
 62
     2
100
AcDbLine
 10
-233.2581493349941
 20
-234.4750003815297
 30
0.0
 11
-238.7581493349941
 21
-234.4750003815297
 31
0.0
  0
LINE
  5
FE
330
71
100
AcDbEntity
  8
1
  6
Continuous
 62
     7
100
AcDbLine
 10
-184.4448042215567
 20
-247.1000003815297
 30
0.0
 11
-184.4448042215567
 21
-238.6000003815296
 31
0.0
  0
LINE
  5
FF
330
71
100
AcDbEntity
  8
1
  6
Continuous
 62
     6
100
AcDbLine
 10
-212.3448042215568
 20
-238.6000003815296
 30
0.0
 11
-119.199999694805
 21
-238.6000003815296
 31
0.0
  0
LINE
  5
100
330
71
100
AcDbEntity
  8
1
  6
Continuous
 62
     7
100
AcDbLine
 10
-248.7448042215567
 20
-238.6000003815296
 30
0.0
 11
-248.7448042215567
 21
-230.1000003815296
 31
0.0
  0
LINE
  5
101
330
71
100
AcDbEntity
  8
1
  6
Continuous
 62
     7
100
AcDbLine
 10
-212.3448042215568
 20
-238.6000003815296
 30
0.0
 11
-212.3448042215568
 21
-230.1000003815296
 31
0.0
  0
LINE
  5
102
330
71
100
AcDbEntity
  8
1
  6
Continuous
 62
     7
100
AcDbLine
 10
-154.6184079764838
 20
-230.1000003815296
 30
0.0
 11
-154.6184079764838
 21
-238.6000003815296
 31
0.0
  0
LINE
  5
103
330
71
100
AcDbEntity
  8
1
  6
Continuous
 62
     7
100
AcDbLine
 10
-128.1184079764842
 20
-230.1000003815296
 30
0.0
 11
-128.1184079764842
 21
-238.6000003815296
 31
0.0
  0
LINE
  5
104
330
71
100
AcDbEntity
  8
1
  6
Continuous
 62
     6
100
AcDbLine
 10
-317.7448042215567
 20
-255.6000003815296
 30
0.0
 11
-362.6999996948067
 21
-255.6000003815296
 31
0.0
  0
LINE
  5
105
330
71
100
AcDbEntity
  8
1
  6
Continuous
 62
     7
100
AcDbLine
 10
-119.1999996948054
 20
-247.1000003815296
 30
0.0
 11
-212.3448042215568
 21
-247.1000003815296
 31
0.0
  0
LINE
  5
106
102
{ACAD_REACTORS
330
218
330
219
102
}
330
71
100
AcDbEntity
  8
0
  6
Continuous
 62
     2
100
AcDbLine
 10
-235.0373752797893
 20
-246.2997112658663
 30
0.0
 11
-235.0373752797893
 21
-245.427194259063
 31
0.0
  0
LINE
  5
107
102
{ACAD_REACTORS
330
218
330
219
102
}
330
71
100
AcDbEntity
  8
0
  6
Continuous
 62
     2
100
AcDbLine
 10
-235.0373752797893
 20
-247.2594799733492
 30
0.0
 11
-235.0373752797893
 21
-248.1319969801524
 31
0.0
  0
LINE
  5
108
102
{ACAD_REACTORS
330
21A
330
21B
102
}
330
71
100
AcDbEntity
  8
0
  6
Continuous
 62
     2
100
AcDbLine
 10
-219.7043311434988
 20
-246.0379561638258
 30
0.0
 11
-218.6006918439307
 21
-246.0379561638258
 31
0.0
  0
LINE
  5
109
102
{ACAD_REACTORS
330
21A
330
21B
102
}
330
71
100
AcDbEntity
  8
0
  6
Continuous
 62
     2
100
AcDbLine
 10
-218.9346738005374
 20
-247.2594799733497
 30
0.0
 11
-218.9346738005374
 21
-248.131996980153
 31
0.0
  0
LINE
  5
10A
102
{ACAD_REACTORS
330
224
330
225
102
}
330
71
100
AcDbEntity
  8
0
  6
Continuous
 62
     2
100
AcDbLine
 10
-220.7954304159173
 20
-244.947309905339
 30
0.0
 11
-219.397477368977
 21
-243.366450911564
 31
0.0
  0
LINE
  5
10B
102
{ACAD_REACTORS
330
224
330
225
102
}
330
71
100
AcDbEntity
  8
0
  6
Continuous
 62
     2
100
AcDbLine
 10
-220.7000069997445
 20
-241.8935003815278
 30
0.0
 11
-219.397477368977
 21
-243.366450911564
 31
0.0
  0
LINE
  5
10C
102
{ACAD_REACTORS
330
224
330
225
102
}
330
71
100
AcDbEntity
  8
0
  6
Continuous
 62
     2
100
AcDbLine
 10
-218.0949477382106
 20
-241.8935003815278
 30
0.0
 11
-216.6922235204634
 21
-241.8935003815278
 31
0.0
  0
LINE
  5
10D
102
{ACAD_REACTORS
330
224
330
225
102
}
330
71
100
AcDbEntity
  8
0
  6
Continuous
 62
     2
100
AcDbLine
 10
-219.3927061981691
 20
-244.947309905339
 30
0.0
 11
-218.6961152601034
 21
-244.1595781200453
 31
0.0
  0
LINE
  5
10E
102
{ACAD_REACTORS
330
224
330
225
102
}
330
71
100
AcDbEntity
  8
0
  6
Continuous
 62
     2
100
AcDbLine
 10
-219.3927061981691
 20
-244.947309905339
 30
0.0
 11
-220.7954304159173
 21
-244.947309905339
 31
0.0
  0
LINE
  5
10F
102
{ACAD_REACTORS
330
226
330
227
102
}
330
71
100
AcDbEntity
  8
0
  6
Continuous
 62
     2
100
AcDbLine
 10
-220.9147096861342
 20
-244.947309905339
 30
0.0
 11
-222.1552140963871
 21
-244.947309905339
 31
0.0
  0
LINE
  5
110
102
{ACAD_REACTORS
330
228
330
229
102
}
330
71
100
AcDbEntity
  8
0
  6
Continuous
 62
     2
100
AcDbLine
 10
-223.0231937045422
 20
-247.0849765719888
 30
0.0
 11
-223.3233589417323
 21
-246.3171616060021
 31
0.0
  0
LINE
  5
111
102
{ACAD_REACTORS
330
228
330
229
102
}
330
71
100
AcDbEntity
  8
0
  6
Continuous
 62
     2
100
AcDbLine
 10
-223.6235241789247
 20
-247.0849765719888
 30
0.0
 11
-223.0231937045422
 21
-247.0849765719888
 31
0.0
  0
LINE
  5
112
102
{ACAD_REACTORS
330
228
330
229
102
}
330
71
100
AcDbEntity
  8
0
  6
Continuous
 62
     2
100
AcDbLine
 10
-225.3415641937985
 20
-248.3065003815133
 30
0.0
 11
-224.1010597835455
 21
-248.3065003815133
 31
0.0
  0
LINE
  5
113
102
{ACAD_REACTORS
330
228
330
229
102
}
330
71
100
AcDbEntity
  8
0
  6
Continuous
 62
     2
100
AcDbLine
 10
-223.9436111468592
 20
-245.2526908577022
 30
0.0
 11
-222.7031067366065
 21
-245.2526908577022
 31
0.0
  0
LINE
  5
114
102
{ACAD_REACTORS
330
228
330
229
102
}
330
71
100
AcDbEntity
  8
0
  6
Continuous
 62
     2
100
AcDbLine
 10
-222.7031067366065
 20
-245.2526908577022
 30
0.0
 11
-221.3051536896662
 21
-248.3065003815133
 31
0.0
  0
LINE
  5
115
102
{ACAD_REACTORS
330
228
330
229
102
}
330
71
100
AcDbEntity
  8
0
  6
Continuous
 62
     2
100
AcDbLine
 10
-222.5456580999201
 20
-248.3065003815133
 30
0.0
 11
-222.7571381533959
 21
-247.7655398372954
 31
0.0
  0
LINE
  5
116
102
{ACAD_REACTORS
330
22A
330
22B
102
}
330
71
100
AcDbEntity
  8
0
  6
Continuous
 62
     2
100
AcDbLine
 10
-226.6879772955061
 20
-248.3065003815133
 30
0.0
 11
-225.4951845933396
 21
-248.3065003815133
 31
0.0
  0
LINE
  5
117
102
{ACAD_REACTORS
330
22A
330
22B
102
}
330
71
100
AcDbEntity
  8
0
  6
Continuous
 62
     2
100
AcDbLine
 10
-226.6879772955061
 20
-246.0379561638258
 30
0.0
 11
-226.6879772955061
 21
-248.3065003815133
 31
0.0
  0
LINE
  5
118
102
{ACAD_REACTORS
330
22A
330
22B
102
}
330
71
100
AcDbEntity
  8
0
  6
Continuous
 62
     2
100
AcDbLine
 10
-227.4990763329807
 20
-245.2526908577022
 30
0.0
 11
-227.4990763329807
 21
-246.0379561638258
 31
0.0
  0
LINE
  5
119
102
{ACAD_REACTORS
330
22C
330
22D
102
}
330
71
100
AcDbEntity
  8
0
  6
Continuous
 62
     2
100
AcDbLine
 10
-226.0198624514081
 20
-244.947309905339
 30
0.0
 11
-224.8270697492416
 21
-244.947309905339
 31
0.0
  0
LINE
  5
11A
102
{ACAD_REACTORS
330
22C
330
22D
102
}
330
71
100
AcDbEntity
  8
0
  6
Continuous
 62
     2
100
AcDbLine
 10
-223.5865653389876
 20
-243.202275891733
 30
0.0
 11
-224.8270697492416
 21
-241.8935003815278
 31
0.0
  0
LINE
  5
11B
102
{ACAD_REACTORS
330
22C
330
22D
102
}
330
71
100
AcDbEntity
  8
0
  6
Continuous
 62
     2
100
AcDbLine
 10
-222.393772636821
 20
-241.8935003815278
 30
0.0
 11
-223.5865653389876
 21
-241.8935003815278
 31
0.0
  0
LINE
  5
11C
102
{ACAD_REACTORS
330
22C
330
22D
102
}
330
71
100
AcDbEntity
  8
0
  6
Continuous
 62
     2
100
AcDbLine
 10
-222.393772636821
 20
-244.947309905339
 30
0.0
 11
-222.393772636821
 21
-241.8935003815278
 31
0.0
  0
LINE
  5
11D
102
{ACAD_REACTORS
330
22C
330
22D
102
}
330
71
100
AcDbEntity
  8
0
  6
Continuous
 62
     2
100
AcDbLine
 10
-223.5865653389876
 20
-244.947309905339
 30
0.0
 11
-222.393772636821
 21
-244.947309905339
 31
0.0
  0
LINE
  5
11E
102
{ACAD_REACTORS
330
22C
330
22D
102
}
330
71
100
AcDbEntity
  8
0
  6
Continuous
 62
     2
100
AcDbLine
 10
-224.8270697492416
 20
-243.6385343951343
 30
0.0
 11
-223.5865653389876
 21
-244.947309905339
 31
0.0
  0
LINE
  5
11F
102
{ACAD_REACTORS
330
22E
330
22F
102
}
330
71
100
AcDbEntity
  8
0
  6
Continuous
 62
     2
100
AcDbLine
 10
-228.8350041594073
 20
-246.5614663679073
 30
0.0
 11
-230.0755085696602
 21
-245.2526908577022
 31
0.0
  0
LINE
  5
120
102
{ACAD_REACTORS
330
22E
330
22F
102
}
330
71
100
AcDbEntity
  8
0
  6
Continuous
 62
     2
100
AcDbLine
 10
-228.8350041594073
 20
-245.2526908577022
 30
0.0
 11
-228.8350041594073
 21
-246.5614663679073
 31
0.0
  0
LINE
  5
121
102
{ACAD_REACTORS
330
22E
330
22F
102
}
330
71
100
AcDbEntity
  8
0
  6
Continuous
 62
     2
100
AcDbLine
 10
-227.6422114572409
 20
-245.2526908577022
 30
0.0
 11
-228.8350041594073
 21
-245.2526908577022
 31
0.0
  0
LINE
  5
122
102
{ACAD_REACTORS
330
22E
330
22F
102
}
330
71
100
AcDbEntity
  8
0
  6
Continuous
 62
     2
100
AcDbLine
 10
-227.6422114572409
 20
-248.3065003815133
 30
0.0
 11
-227.6422114572409
 21
-245.2526908577022
 31
0.0
  0
LINE
  5
123
102
{ACAD_REACTORS
330
22E
330
22F
102
}
330
71
100
AcDbEntity
  8
0
  6
Continuous
 62
     2
100
AcDbLine
 10
-230.0755085696602
 20
-246.9977248713087
 30
0.0
 11
-228.8350041594073
 21
-248.3065003815133
 31
0.0
  0
LINE
  5
124
102
{ACAD_REACTORS
330
22E
330
22F
102
}
330
71
100
AcDbEntity
  8
0
  6
Continuous
 62
     2
100
AcDbLine
 10
-230.0755085696602
 20
-248.3065003815133
 30
0.0
 11
-230.0755085696602
 21
-246.9977248713087
 31
0.0
  0
LINE
  5
125
102
{ACAD_REACTORS
330
21E
330
21F
102
}
330
71
100
AcDbEntity
  8
0
  6
Continuous
 62
     2
100
AcDbLine
 10
-227.5943488182687
 20
-242.5915139869708
 30
0.0
 11
-226.258420991841
 21
-242.5915139869708
 31
0.0
  0
LINE
  5
126
102
{ACAD_REACTORS
330
21E
330
21F
102
}
330
71
100
AcDbEntity
  8
0
  6
Continuous
 62
     2
100
AcDbLine
 10
-227.5943488182687
 20
-244.2492962998965
 30
0.0
 11
-227.5943488182687
 21
-243.7694119461548
 31
0.0
  0
LINE
  5
127
102
{ACAD_REACTORS
330
21E
330
21F
102
}
330
71
100
AcDbEntity
  8
0
  6
Continuous
 62
     2
100
AcDbLine
 10
-226.258420991841
 20
-244.2492962998965
 30
0.0
 11
-227.5943488182687
 21
-244.2492962998965
 31
0.0
  0
LINE
  5
128
102
{ACAD_REACTORS
330
21E
330
21F
102
}
330
71
100
AcDbEntity
  8
0
  6
Continuous
 62
     2
100
AcDbLine
 10
-226.258420991841
 20
-244.947309905339
 30
0.0
 11
-226.258420991841
 21
-244.2492962998965
 31
0.0
  0
LINE
  5
129
102
{ACAD_REACTORS
330
21E
330
21F
102
}
330
71
100
AcDbEntity
  8
0
  6
Continuous
 62
     2
100
AcDbLine
 10
-229.408740715622
 20
-244.947309905339
 30
0.0
 11
-226.258420991841
 21
-244.947309905339
 31
0.0
  0
LINE
  5
12A
102
{ACAD_REACTORS
330
21E
330
21F
102
}
330
71
100
AcDbEntity
  8
0
  6
Continuous
 62
     2
100
AcDbLine
 10
-229.408740715622
 20
-241.8935003815278
 30
0.0
 11
-226.258420991841
 21
-241.8935003815278
 31
0.0
  0
LINE
  5
12B
102
{ACAD_REACTORS
330
21E
330
21F
102
}
330
71
100
AcDbEntity
  8
0
  6
Continuous
 62
     2
100
AcDbLine
 10
-226.258420991841
 20
-242.5915139869708
 30
0.0
 11
-226.258420991841
 21
-241.8935003815278
 31
0.0
  0
LINE
  5
12C
102
{ACAD_REACTORS
330
230
330
231
102
}
330
71
100
AcDbEntity
  8
0
  6
Continuous
 62
     2
100
AcDbLine
 10
-232.270096210762
 20
-242.9623337148624
 30
0.0
 11
-232.270096210762
 21
-241.8935003815278
 31
0.0
  0
LINE
  5
12D
102
{ACAD_REACTORS
330
230
330
231
102
}
330
71
100
AcDbEntity
  8
0
  6
Continuous
 62
     2
100
AcDbLine
 10
-232.270096210762
 20
-241.8935003815278
 30
0.0
 11
-231.0773035085956
 21
-241.8935003815278
 31
0.0
  0
LINE
  5
12E
102
{ACAD_REACTORS
330
230
330
231
102
}
330
71
100
AcDbEntity
  8
0
  6
Continuous
 62
     2
100
AcDbLine
 10
-232.270096210762
 20
-243.8130377964952
 30
0.0
 11
-233.3197537886695
 21
-243.8130377964952
 31
0.0
  0
LINE
  5
12F
102
{ACAD_REACTORS
330
230
330
231
102
}
330
71
100
AcDbEntity
  8
0
  6
Continuous
 62
     2
100
AcDbLine
 10
-233.3197537886695
 20
-243.8130377964952
 30
0.0
 11
-233.3197537886695
 21
-244.947309905339
 31
0.0
  0
LINE
  5
130
102
{ACAD_REACTORS
330
230
330
231
102
}
330
71
100
AcDbEntity
  8
0
  6
Continuous
 62
     2
100
AcDbLine
 10
-234.5125464908361
 20
-241.8935003815278
 30
0.0
 11
-234.5125464908361
 21
-244.947309905339
 31
0.0
  0
LINE
  5
131
102
{ACAD_REACTORS
330
222
330
223
102
}
330
71
100
AcDbEntity
  8
0
  6
Continuous
 62
     2
100
AcDbLine
 10
-236.4687265223897
 20
-243.2623338763101
 30
0.0
 11
-236.4687265223897
 21
-242.5566062269679
 31
0.0
  0
LINE
  5
132
102
{ACAD_REACTORS
330
222
330
223
102
}
330
71
100
AcDbEntity
  8
0
  6
Continuous
 62
     2
100
AcDbLine
 10
-237.7092309326438
 20
-244.947309905339
 30
0.0
 11
-236.4687265223897
 21
-244.947309905339
 31
0.0
  0
LINE
  5
133
102
{ACAD_REACTORS
330
222
330
223
102
}
330
71
100
AcDbEntity
  8
0
  6
Continuous
 62
     2
100
AcDbLine
 10
-236.4687265223897
 20
-244.947309905339
 30
0.0
 11
-236.4687265223897
 21
-244.0042316641952
 31
0.0
  0
LINE
  5
134
102
{ACAD_REACTORS
330
21C
330
21D
102
}
330
71
100
AcDbEntity
  8
0
  6
Continuous
 62
     2
100
AcDbLine
 10
-242.0141767818552
 20
-247.5939448259564
 30
0.0
 11
-243.4900100428648
 21
-247.5939448259564
 31
0.0
  0
LINE
  5
135
102
{ACAD_REACTORS
330
21C
330
21D
102
}
330
71
100
AcDbEntity
  8
0
  6
Continuous
 62
     2
100
AcDbLine
 10
-244.5081493349941
 20
-242.3177449969298
 30
0.0
 11
-244.5081493349941
 21
-247.88225576613
 31
0.0
  0
LINE
  5
136
102
{ACAD_REACTORS
330
21C
330
21D
102
}
330
71
100
AcDbEntity
  8
0
  6
Continuous
 62
     2
100
AcDbLine
 10
-244.0839047196113
 20
-241.893500381546
 30
0.0
 11
-238.6105926288945
 21
-241.893500381546
 31
0.0
  0
LINE
  5
137
102
{ACAD_REACTORS
330
21C
330
21D
102
}
330
71
100
AcDbEntity
  8
0
  6
Continuous
 62
     2
100
AcDbLine
 10
-238.1863480135106
 20
-242.3177449969298
 30
0.0
 11
-238.1863480135106
 21
-247.88225576613
 31
0.0
  0
LINE
  5
138
102
{ACAD_REACTORS
330
21C
330
21D
102
}
330
71
100
AcDbEntity
  8
0
  6
Continuous
 62
     2
100
AcDbLine
 10
-238.6105926288945
 20
-248.3065003815133
 30
0.0
 11
-244.0839047196113
 21
-248.3065003815133
 31
0.0
  0
LINE
  5
139
102
{ACAD_REACTORS
330
21C
330
21D
102
}
330
71
100
AcDbEntity
  8
0
  6
Continuous
 62
     2
100
AcDbLine
 10
-241.6984598587786
 20
-247.2782279028797
 30
0.0
 11
-241.6984598587786
 21
-245.7474569713481
 31
0.0
  0
LINE
  5
13A
102
{ACAD_REACTORS
330
21C
330
21D
102
}
330
71
100
AcDbEntity
  8
0
  6
Continuous
 62
     2
100
AcDbLine
 10
-241.6984598587786
 20
-243.5257974792231
 30
0.0
 11
-241.6984598587786
 21
-242.9217728601626
 31
0.0
  0
LINE
  5
13B
102
{ACAD_REACTORS
330
21C
330
21D
102
}
330
71
100
AcDbEntity
  8
0
  6
Continuous
 62
     2
100
AcDbLine
 10
-243.4900100428648
 20
-242.6060559370864
 30
0.0
 11
-242.0141767818552
 21
-242.6060559370864
 31
0.0
  0
LINE
  5
13C
102
{ACAD_REACTORS
330
21C
330
21D
102
}
330
71
100
AcDbEntity
  8
0
  6
Continuous
 62
     2
100
AcDbLine
 10
-243.8057269659405
 20
-242.9217728601626
 30
0.0
 11
-243.8057269659405
 21
-247.2782279028797
 31
0.0
  0
LINE
  5
13D
102
{ACAD_REACTORS
330
222
330
223
102
}
330
71
100
AcDbEntity
  8
0
  6
Continuous
 62
     2
100
AcDbLine
 10
-236.4687265223897
 20
-244.0042316641952
 30
0.0
 11
-235.7099589346094
 21
-244.0042316641952
 31
0.0
  0
LINE
  5
13E
102
{ACAD_REACTORS
330
222
330
223
102
}
330
71
100
AcDbEntity
  8
0
  6
Continuous
 62
     2
100
AcDbLine
 10
-237.7092309326438
 20
-241.8935003815278
 30
0.0
 11
-235.7099589346094
 21
-241.8935003815278
 31
0.0
  0
LINE
  5
13F
102
{ACAD_REACTORS
330
222
330
223
102
}
330
71
100
AcDbEntity
  8
0
  6
Continuous
 62
     2
100
AcDbLine
 10
-237.7092309326438
 20
-241.8935003815278
 30
0.0
 11
-237.7092309326438
 21
-244.947309905339
 31
0.0
  0
LINE
  5
140
102
{ACAD_REACTORS
330
222
330
223
102
}
330
71
100
AcDbEntity
  8
0
  6
Continuous
 62
     2
100
AcDbLine
 10
-236.4687265223897
 20
-243.2623338763101
 30
0.0
 11
-236.1514314608478
 21
-243.2623338763101
 31
0.0
  0
LINE
  5
141
102
{ACAD_REACTORS
330
222
330
223
102
}
330
71
100
AcDbEntity
  8
0
  6
Continuous
 62
     2
100
AcDbLine
 10
-236.4687265223897
 20
-242.5566062269679
 30
0.0
 11
-236.1514314608478
 21
-242.5566062269679
 31
0.0
  0
LINE
  5
142
102
{ACAD_REACTORS
330
230
330
231
102
}
330
71
100
AcDbEntity
  8
0
  6
Continuous
 62
     2
100
AcDbLine
 10
-233.3197537886695
 20
-242.9623337148624
 30
0.0
 11
-232.270096210762
 21
-242.9623337148624
 31
0.0
  0
LINE
  5
143
102
{ACAD_REACTORS
330
230
330
231
102
}
330
71
100
AcDbEntity
  8
0
  6
Continuous
 62
     2
100
AcDbLine
 10
-233.3197537886695
 20
-241.8935003815278
 30
0.0
 11
-233.3197537886695
 21
-242.9623337148624
 31
0.0
  0
LINE
  5
144
102
{ACAD_REACTORS
330
230
330
231
102
}
330
71
100
AcDbEntity
  8
0
  6
Continuous
 62
     2
100
AcDbLine
 10
-234.5125464908361
 20
-241.8935003815278
 30
0.0
 11
-233.3197537886695
 21
-241.8935003815278
 31
0.0
  0
LINE
  5
145
102
{ACAD_REACTORS
330
230
330
231
102
}
330
71
100
AcDbEntity
  8
0
  6
Continuous
 62
     2
100
AcDbLine
 10
-233.3197537886695
 20
-244.947309905339
 30
0.0
 11
-234.5125464908361
 21
-244.947309905339
 31
0.0
  0
LINE
  5
146
102
{ACAD_REACTORS
330
230
330
231
102
}
330
71
100
AcDbEntity
  8
0
  6
Continuous
 62
     2
100
AcDbLine
 10
-232.270096210762
 20
-244.947309905339
 30
0.0
 11
-232.270096210762
 21
-243.8130377964952
 31
0.0
  0
LINE
  5
147
102
{ACAD_REACTORS
330
230
330
231
102
}
330
71
100
AcDbEntity
  8
0
  6
Continuous
 62
     2
100
AcDbLine
 10
-231.0773035085956
 20
-244.947309905339
 30
0.0
 11
-232.270096210762
 21
-244.947309905339
 31
0.0
  0
LINE
  5
148
102
{ACAD_REACTORS
330
230
330
231
102
}
330
71
100
AcDbEntity
  8
0
  6
Continuous
 62
     2
100
AcDbLine
 10
-231.0773035085956
 20
-241.8935003815278
 30
0.0
 11
-231.0773035085956
 21
-244.947309905339
 31
0.0
  0
LINE
  5
149
102
{ACAD_REACTORS
330
21E
330
21F
102
}
330
71
100
AcDbEntity
  8
0
  6
Continuous
 62
     2
100
AcDbLine
 10
-227.5943488182687
 20
-243.7694119461548
 30
0.0
 11
-226.258420991841
 21
-243.7694119461548
 31
0.0
  0
LINE
  5
14A
102
{ACAD_REACTORS
330
21E
330
21F
102
}
330
71
100
AcDbEntity
  8
0
  6
Continuous
 62
     2
100
AcDbLine
 10
-226.258420991841
 20
-243.7694119461548
 30
0.0
 11
-226.258420991841
 21
-243.0713983407125
 31
0.0
  0
LINE
  5
14B
102
{ACAD_REACTORS
330
21E
330
21F
102
}
330
71
100
AcDbEntity
  8
0
  6
Continuous
 62
     2
100
AcDbLine
 10
-226.258420991841
 20
-243.0713983407125
 30
0.0
 11
-227.5943488182687
 21
-243.0713983407125
 31
0.0
  0
LINE
  5
14C
102
{ACAD_REACTORS
330
21E
330
21F
102
}
330
71
100
AcDbEntity
  8
0
  6
Continuous
 62
     2
100
AcDbLine
 10
-227.5943488182687
 20
-243.0713983407125
 30
0.0
 11
-227.5943488182687
 21
-242.5915139869708
 31
0.0
  0
LINE
  5
14D
102
{ACAD_REACTORS
330
22E
330
22F
102
}
330
71
100
AcDbEntity
  8
0
  6
Continuous
 62
     2
100
AcDbLine
 10
-231.2683012718278
 20
-248.3065003815133
 30
0.0
 11
-230.0755085696602
 21
-248.3065003815133
 31
0.0
  0
LINE
  5
14E
102
{ACAD_REACTORS
330
22E
330
22F
102
}
330
71
100
AcDbEntity
  8
0
  6
Continuous
 62
     2
100
AcDbLine
 10
-228.8350041594073
 20
-248.3065003815133
 30
0.0
 11
-227.6422114572409
 21
-248.3065003815133
 31
0.0
  0
LINE
  5
14F
102
{ACAD_REACTORS
330
22E
330
22F
102
}
330
71
100
AcDbEntity
  8
0
  6
Continuous
 62
     2
100
AcDbLine
 10
-230.0755085696602
 20
-245.2526908577022
 30
0.0
 11
-231.2683012718278
 21
-245.2526908577022
 31
0.0
  0
LINE
  5
150
102
{ACAD_REACTORS
330
22E
330
22F
102
}
330
71
100
AcDbEntity
  8
0
  6
Continuous
 62
     2
100
AcDbLine
 10
-231.2683012718278
 20
-245.2526908577022
 30
0.0
 11
-231.2683012718278
 21
-248.3065003815133
 31
0.0
  0
LINE
  5
151
102
{ACAD_REACTORS
330
22C
330
22D
102
}
330
71
100
AcDbEntity
  8
0
  6
Continuous
 62
     2
100
AcDbLine
 10
-223.5865653389876
 20
-241.8935003815278
 30
0.0
 11
-223.5865653389876
 21
-243.202275891733
 31
0.0
  0
LINE
  5
152
102
{ACAD_REACTORS
330
22C
330
22D
102
}
330
71
100
AcDbEntity
  8
0
  6
Continuous
 62
     2
100
AcDbLine
 10
-224.8270697492416
 20
-241.8935003815278
 30
0.0
 11
-226.0198624514081
 21
-241.8935003815278
 31
0.0
  0
LINE
  5
153
102
{ACAD_REACTORS
330
22C
330
22D
102
}
330
71
100
AcDbEntity
  8
0
  6
Continuous
 62
     2
100
AcDbLine
 10
-226.0198624514081
 20
-241.8935003815278
 30
0.0
 11
-226.0198624514081
 21
-244.947309905339
 31
0.0
  0
LINE
  5
154
102
{ACAD_REACTORS
330
22C
330
22D
102
}
330
71
100
AcDbEntity
  8
0
  6
Continuous
 62
     2
100
AcDbLine
 10
-224.8270697492416
 20
-244.947309905339
 30
0.0
 11
-224.8270697492416
 21
-243.6385343951343
 31
0.0
  0
LINE
  5
155
102
{ACAD_REACTORS
330
22A
330
22B
102
}
330
71
100
AcDbEntity
  8
0
  6
Continuous
 62
     2
100
AcDbLine
 10
-225.4951845933396
 20
-248.3065003815133
 30
0.0
 11
-225.4951845933396
 21
-246.0379561638258
 31
0.0
  0
LINE
  5
156
102
{ACAD_REACTORS
330
22A
330
22B
102
}
330
71
100
AcDbEntity
  8
0
  6
Continuous
 62
     2
100
AcDbLine
 10
-225.4951845933396
 20
-246.0379561638258
 30
0.0
 11
-224.6840855558671
 21
-246.0379561638258
 31
0.0
  0
LINE
  5
157
102
{ACAD_REACTORS
330
22A
330
22B
102
}
330
71
100
AcDbEntity
  8
0
  6
Continuous
 62
     2
100
AcDbLine
 10
-224.6840855558671
 20
-246.0379561638258
 30
0.0
 11
-224.6840855558671
 21
-245.2526908577022
 31
0.0
  0
LINE
  5
158
102
{ACAD_REACTORS
330
22A
330
22B
102
}
330
71
100
AcDbEntity
  8
0
  6
Continuous
 62
     2
100
AcDbLine
 10
-224.6840855558671
 20
-245.2526908577022
 30
0.0
 11
-227.4990763329807
 21
-245.2526908577022
 31
0.0
  0
LINE
  5
159
102
{ACAD_REACTORS
330
22A
330
22B
102
}
330
71
100
AcDbEntity
  8
0
  6
Continuous
 62
     2
100
AcDbLine
 10
-227.4990763329807
 20
-246.0379561638258
 30
0.0
 11
-226.6879772955061
 21
-246.0379561638258
 31
0.0
  0
LINE
  5
15A
102
{ACAD_REACTORS
330
228
330
229
102
}
330
71
100
AcDbEntity
  8
0
  6
Continuous
 62
     2
100
AcDbLine
 10
-223.8895797300697
 20
-247.7655398372954
 30
0.0
 11
-222.7571381533959
 21
-247.7655398372954
 31
0.0
  0
LINE
  5
15B
102
{ACAD_REACTORS
330
228
330
229
102
}
330
71
100
AcDbEntity
  8
0
  6
Continuous
 62
     2
100
AcDbLine
 10
-221.3051536896662
 20
-248.3065003815133
 30
0.0
 11
-222.5456580999201
 21
-248.3065003815133
 31
0.0
  0
LINE
  5
15C
102
{ACAD_REACTORS
330
228
330
229
102
}
330
71
100
AcDbEntity
  8
0
  6
Continuous
 62
     2
100
AcDbLine
 10
-223.9436111468592
 20
-245.2526908577022
 30
0.0
 11
-225.3415641937985
 21
-248.3065003815133
 31
0.0
  0
LINE
  5
15D
102
{ACAD_REACTORS
330
228
330
229
102
}
330
71
100
AcDbEntity
  8
0
  6
Continuous
 62
     2
100
AcDbLine
 10
-224.1010597835455
 20
-248.3065003815133
 30
0.0
 11
-223.8895797300697
 21
-247.7655398372954
 31
0.0
  0
LINE
  5
15E
102
{ACAD_REACTORS
330
228
330
229
102
}
330
71
100
AcDbEntity
  8
0
  6
Continuous
 62
     2
100
AcDbLine
 10
-223.6235241789247
 20
-247.0849765719888
 30
0.0
 11
-223.3233589417323
 21
-246.3171616060021
 31
0.0
  0
LINE
  5
15F
102
{ACAD_REACTORS
330
226
330
227
102
}
330
71
100
AcDbEntity
  8
0
  6
Continuous
 62
     2
100
AcDbLine
 10
-222.1552140963871
 20
-244.947309905339
 30
0.0
 11
-222.1552140963871
 21
-241.8935003815278
 31
0.0
  0
LINE
  5
160
102
{ACAD_REACTORS
330
226
330
227
102
}
330
71
100
AcDbEntity
  8
0
  6
Continuous
 62
     2
100
AcDbLine
 10
-220.9147096861342
 20
-241.8935003815278
 30
0.0
 11
-220.9147096861342
 21
-244.947309905339
 31
0.0
  0
LINE
  5
161
102
{ACAD_REACTORS
330
226
330
227
102
}
330
71
100
AcDbEntity
  8
0
  6
Continuous
 62
     2
100
AcDbLine
 10
-222.1552140963871
 20
-241.8935003815278
 30
0.0
 11
-220.9147096861342
 21
-241.8935003815278
 31
0.0
  0
LINE
  5
162
102
{ACAD_REACTORS
330
224
330
225
102
}
330
71
100
AcDbEntity
  8
0
  6
Continuous
 62
     2
100
AcDbLine
 10
-218.6961152601034
 20
-244.1595781200453
 30
0.0
 11
-217.9995243220379
 21
-244.947309905339
 31
0.0
  0
LINE
  5
163
102
{ACAD_REACTORS
330
224
330
225
102
}
330
71
100
AcDbEntity
  8
0
  6
Continuous
 62
     2
100
AcDbLine
 10
-217.9995243220379
 20
-244.947309905339
 30
0.0
 11
-216.5968001042896
 21
-244.947309905339
 31
0.0
  0
LINE
  5
164
102
{ACAD_REACTORS
330
224
330
225
102
}
330
71
100
AcDbEntity
  8
0
  6
Continuous
 62
     2
100
AcDbLine
 10
-217.9947531512299
 20
-243.366450911564
 30
0.0
 11
-216.5968001042896
 21
-244.947309905339
 31
0.0
  0
LINE
  5
165
102
{ACAD_REACTORS
330
224
330
225
102
}
330
71
100
AcDbEntity
  8
0
  6
Continuous
 62
     2
100
AcDbLine
 10
-217.9947531512299
 20
-243.366450911564
 30
0.0
 11
-216.6922235204634
 21
-241.8935003815278
 31
0.0
  0
LINE
  5
166
102
{ACAD_REACTORS
330
224
330
225
102
}
330
71
100
AcDbEntity
  8
0
  6
Continuous
 62
     2
100
AcDbLine
 10
-218.6961152601034
 20
-242.5733237030833
 30
0.0
 11
-218.0949477382106
 21
-241.8935003815278
 31
0.0
  0
LINE
  5
167
102
{ACAD_REACTORS
330
224
330
225
102
}
330
71
100
AcDbEntity
  8
0
  6
Continuous
 62
     2
100
AcDbLine
 10
-219.2972827819952
 20
-241.8935003815278
 30
0.0
 11
-218.6961152601034
 21
-242.5733237030833
 31
0.0
  0
LINE
  5
168
102
{ACAD_REACTORS
330
224
330
225
102
}
330
71
100
AcDbEntity
  8
0
  6
Continuous
 62
     2
100
AcDbLine
 10
-219.2972827819952
 20
-241.8935003815278
 30
0.0
 11
-220.7000069997445
 21
-241.8935003815278
 31
0.0
  0
LINE
  5
169
102
{ACAD_REACTORS
330
21A
330
21B
102
}
330
71
100
AcDbEntity
  8
0
  6
Continuous
 62
     2
100
AcDbLine
 10
-218.6006918439307
 20
-248.3065003815133
 30
0.0
 11
-217.407899141763
 21
-248.3065003815133
 31
0.0
  0
LINE
  5
16A
102
{ACAD_REACTORS
330
21A
330
21B
102
}
330
71
100
AcDbEntity
  8
0
  6
Continuous
 62
     2
100
AcDbLine
 10
-217.407899141763
 20
-248.3065003815133
 30
0.0
 11
-217.407899141763
 21
-246.0379561638258
 31
0.0
  0
LINE
  5
16B
102
{ACAD_REACTORS
330
21A
330
21B
102
}
330
71
100
AcDbEntity
  8
0
  6
Continuous
 62
     2
100
AcDbLine
 10
-217.407899141763
 20
-246.0379561638258
 30
0.0
 11
-216.5968001042896
 21
-246.0379561638258
 31
0.0
  0
LINE
  5
16C
102
{ACAD_REACTORS
330
21A
330
21B
102
}
330
71
100
AcDbEntity
  8
0
  6
Continuous
 62
     2
100
AcDbLine
 10
-216.5968001042896
 20
-246.0379561638258
 30
0.0
 11
-216.5968001042896
 21
-245.2526908577022
 31
0.0
  0
LINE
  5
16D
102
{ACAD_REACTORS
330
21A
330
21B
102
}
330
71
100
AcDbEntity
  8
0
  6
Continuous
 62
     2
100
AcDbLine
 10
-219.9817456229183
 20
-245.2526908577027
 30
0.0
 11
-216.5968001042896
 21
-245.2526908577022
 31
0.0
  0
LINE
  5
16E
102
{ACAD_REACTORS
330
21A
330
21B
102
}
330
71
100
AcDbEntity
  8
0
  6
Continuous
 62
     2
100
AcDbLine
 10
-218.6006918439307
 20
-246.0379561638258
 30
0.0
 11
-218.6006918439307
 21
-248.3065003815133
 31
0.0
  0
LINE
  5
16F
102
{ACAD_REACTORS
330
21C
330
21D
102
}
330
71
100
AcDbEntity
  8
0
  6
Continuous
 62
     2
100
AcDbLine
 10
-241.2301782794099
 20
-246.3276202319488
 30
0.0
 11
-241.2301782794099
 21
-245.7457688252537
 31
0.0
  0
LINE
  5
170
102
{ACAD_REACTORS
330
21C
330
21D
102
}
330
71
100
AcDbEntity
  8
0
  6
Continuous
 62
     2
100
AcDbLine
 10
-241.2301782794099
 20
-243.5274856253175
 30
0.0
 11
-241.2301782794099
 21
-242.9219503368107
 31
0.0
  0
LINE
  5
171
330
71
100
AcDbEntity
  8
1
  6
Continuous
 62
     6
100
AcDbLine
 10
-262.6999996948067
 20
-255.6000003815296
 30
0.0
 11
-248.7448042215567
 21
-255.6000003815297
 31
0.0
  0
LINE
  5
172
330
71
100
AcDbEntity
  8
1
  6
Continuous
 62
     6
100
AcDbLine
 10
-312.6999996948069
 20
-255.6000003815296
 30
0.0
 11
-317.7448042215567
 21
-255.6000003815296
 31
0.0
  0
LINE
  5
173
330
71
100
AcDbEntity
  8
1
  6
Continuous
 62
     6
100
AcDbLine
 10
-162.6999996948067
 20
-255.6000003815296
 30
0.0
 11
-119.1999996948067
 21
-255.6000003815296
 31
0.0
  0
LINE
  5
174
330
71
100
AcDbEntity
  8
1
  6
Continuous
 62
     6
100
AcDbLine
 10
-212.6999996948067
 20
-255.6000003815296
 30
0.0
 11
-230.5448042215567
 21
-255.6000003815296
 31
0.0
  0
LINE
  5
175
330
71
100
AcDbEntity
  8
1
  6
Continuous
 62
     2
100
AcDbLine
 10
-119.1999996948067
 20
-255.6000003815296
 30
0.0
 11
-114.1999996948077
 21
-255.6000003815296
 31
0.0
  0
LINE
  5
176
330
71
100
AcDbEntity
  8
1
  6
Continuous
 62
     2
100
AcDbLine
 10
-119.1999996948067
 20
-255.6000003815296
 30
0.0
 11
-119.1999996948067
 21
-260.6000003815297
 31
0.0
  0
LINE
  5
177
330
71
100
AcDbEntity
  8
1
  6
Continuous
 62
     6
100
AcDbLine
 10
-248.7448042215567
 20
-238.6000003815296
 30
0.0
 11
-212.3448042215568
 21
-238.6000003815296
 31
0.0
  0
LINE
  5
178
330
71
100
AcDbEntity
  8
1
  6
Continuous
 62
     2
100
AcDbLine
 10
-114.1999996948077
 20
-260.6000003815297
 30
0.0
 11
-114.1999996948077
 21
-255.6000003815296
 31
0.0
  0
LINE
  5
179
330
71
100
AcDbEntity
  8
1
  6
Continuous
 62
     2
100
AcDbLine
 10
-114.1999996948077
 20
-260.6000003815297
 30
0.0
 11
-119.1999996948067
 21
-260.6000003815297
 31
0.0
  0
LINE
  5
17A
330
71
100
AcDbEntity
  8
1
  6
Continuous
 62
     2
100
AcDbLine
 10
-119.1999996948067
 20
-260.6000003815297
 30
0.0
 11
-162.6999996948067
 21
-260.6000003815297
 31
0.0
  0
LINE
  5
17B
330
71
100
AcDbEntity
  8
1
  6
Continuous
 62
     6
100
AcDbLine
 10
-119.199999694805
 20
-238.6000003815296
 30
0.0
 11
-119.1999996948058
 21
-205.6000003815295
 31
0.0
  0
LINE
  5
17C
330
71
100
AcDbEntity
  8
1
  6
Continuous
 62
     2
100
AcDbLine
 10
-114.1999996948077
 20
-50.60000038152958
 30
0.0
 11
-262.6999996948067
 21
-50.60000038152958
 31
0.0
  0
LINE
  5
17D
330
71
100
AcDbEntity
  8
1
  6
Continuous
 62
     6
100
AcDbLine
 10
-119.1999996948077
 20
-70.60000038152958
 30
0.0
 11
-406.1999996948058
 21
-70.60000038152958
 31
0.0
  0
LINE
  5
17E
330
71
100
AcDbEntity
  8
1
  6
Continuous
 62
     2
100
AcDbLine
 10
-119.1999996948058
 20
-205.6000003815295
 30
0.0
 11
-114.1999996948077
 21
-205.6000003815295
 31
0.0
  0
LINE
  5
17F
330
71
100
AcDbEntity
  8
1
  6
Continuous
 62
     6
100
AcDbLine
 10
-119.1999996948058
 20
-205.6000003815295
 30
0.0
 11
-119.1999996948063
 21
-155.6000003815297
 31
0.0
  0
LINE
  5
180
330
71
100
AcDbEntity
  8
1
  6
Continuous
 62
     2
100
AcDbLine
 10
-114.1999996948077
 20
-205.6000003815295
 30
0.0
 11
-114.1999996948077
 21
-155.6000003815297
 31
0.0
  0
LINE
  5
181
330
71
100
AcDbEntity
  8
1
  6
Continuous
 62
     2
100
AcDbLine
 10
-119.1999996948063
 20
-155.6000003815297
 30
0.0
 11
-114.1999996948077
 21
-155.6000003815297
 31
0.0
  0
LINE
  5
182
330
71
100
AcDbEntity
  8
1
  6
Continuous
 62
     6
100
AcDbLine
 10
-119.1999996948063
 20
-155.6000003815297
 30
0.0
 11
-119.1999996948075
 21
-105.6000003815296
 31
0.0
  0
LINE
  5
183
330
71
100
AcDbEntity
  8
1
  6
Continuous
 62
     2
100
AcDbLine
 10
-114.1999996948077
 20
-155.6000003815297
 30
0.0
 11
-114.1999996948077
 21
-105.6000003815296
 31
0.0
  0
LINE
  5
184
330
71
100
AcDbEntity
  8
1
  6
Continuous
 62
     2
100
AcDbLine
 10
-119.1999996948075
 20
-105.6000003815296
 30
0.0
 11
-114.1999996948077
 21
-105.6000003815296
 31
0.0
  0
LINE
  5
185
330
71
100
AcDbEntity
  8
1
  6
Continuous
 62
     6
100
AcDbLine
 10
-119.1999996948075
 20
-105.6000003815296
 30
0.0
 11
-119.1999996948077
 21
-70.60000038152958
 31
0.0
  0
LINE
  5
186
330
71
100
AcDbEntity
  8
1
  6
Continuous
 62
     2
100
AcDbLine
 10
-114.1999996948077
 20
-105.6000003815296
 30
0.0
 11
-114.1999996948077
 21
-50.60000038152958
 31
0.0
  0
LINE
  5
187
330
71
100
AcDbEntity
  8
1
  6
Continuous
 62
     2
100
AcDbLine
 10
-114.1999996948077
 20
-255.6000003815296
 30
0.0
 11
-114.1999996948077
 21
-205.6000003815295
 31
0.0
  0
LINE
  5
188
330
71
100
AcDbEntity
  8
1
  6
Continuous
 62
     2
100
AcDbLine
 10
-262.6999996948067
 20
-50.60000038152958
 30
0.0
 11
-411.1999996948058
 21
-50.60000038152958
 31
0.0
  0
LINE
  5
189
330
71
100
AcDbEntity
  8
1
  6
Continuous
 62
     2
100
AcDbLine
 10
-262.6999996948067
 20
-50.60000038152958
 30
0.0
 11
-262.6999996948067
 21
-59.8086922262309
 31
0.0
  0
LINE
  5
18A
330
71
100
AcDbEntity
  8
1
  6
Continuous
 62
     2
100
AcDbLine
 10
-411.1999996948058
 20
-260.6000003815297
 30
0.0
 11
-406.1999996948048
 21
-260.6000003815297
 31
0.0
  0
LINE
  5
18B
330
71
100
AcDbEntity
  8
1
  6
Continuous
 62
     2
100
AcDbLine
 10
-411.1999996948058
 20
-50.60000038152958
 30
0.0
 11
-411.1999996948058
 21
-105.6000003815296
 31
0.0
  0
LINE
  5
18C
330
71
100
AcDbEntity
  8
1
  6
Continuous
 62
     6
100
AcDbLine
 10
-406.1999996948058
 20
-70.60000038152958
 30
0.0
 11
-406.1999996948057
 21
-105.6000003815296
 31
0.0
  0
LINE
  5
18D
330
71
100
AcDbEntity
  8
1
  6
Continuous
 62
     2
100
AcDbLine
 10
-411.1999996948058
 20
-105.6000003815296
 30
0.0
 11
-406.1999996948057
 21
-105.6000003815296
 31
0.0
  0
LINE
  5
18E
330
71
100
AcDbEntity
  8
1
  6
Continuous
 62
     2
100
AcDbLine
 10
-411.1999996948058
 20
-105.6000003815296
 30
0.0
 11
-411.1999996948058
 21
-155.6000003815297
 31
0.0
  0
LINE
  5
18F
330
71
100
AcDbEntity
  8
1
  6
Continuous
 62
     6
100
AcDbLine
 10
-406.1999996948057
 20
-105.6000003815296
 30
0.0
 11
-406.1999996948052
 21
-155.6000003815297
 31
0.0
  0
LINE
  5
190
330
71
100
AcDbEntity
  8
1
  6
Continuous
 62
     2
100
AcDbLine
 10
-411.1999996948058
 20
-155.6000003815297
 30
0.0
 11
-406.1999996948052
 21
-155.6000003815297
 31
0.0
  0
LINE
  5
191
330
71
100
AcDbEntity
  8
1
  6
Continuous
 62
     2
100
AcDbLine
 10
-411.1999996948058
 20
-155.6000003815297
 30
0.0
 11
-411.1999996948058
 21
-205.6000003815295
 31
0.0
  0
LINE
  5
192
330
71
100
AcDbEntity
  8
1
  6
Continuous
 62
     6
100
AcDbLine
 10
-406.1999996948052
 20
-155.6000003815297
 30
0.0
 11
-406.199999694805
 21
-205.6000003815295
 31
0.0
  0
LINE
  5
193
330
71
100
AcDbEntity
  8
1
  6
Continuous
 62
     2
100
AcDbLine
 10
-411.1999996948058
 20
-205.6000003815295
 30
0.0
 11
-406.199999694805
 21
-205.6000003815295
 31
0.0
  0
LINE
  5
194
330
71
100
AcDbEntity
  8
1
  6
Continuous
 62
     2
100
AcDbLine
 10
-411.1999996948058
 20
-205.6000003815295
 30
0.0
 11
-411.1999996948058
 21
-255.6000003815296
 31
0.0
  0
LINE
  5
195
330
71
100
AcDbEntity
  8
1
  6
Continuous
 62
     6
100
AcDbLine
 10
-406.199999694805
 20
-205.6000003815295
 30
0.0
 11
-406.1999996948048
 21
-255.6000003815296
 31
0.0
  0
LINE
  5
196
330
71
100
AcDbEntity
  8
1
  6
Continuous
 62
     2
100
AcDbLine
 10
-362.6999996948067
 20
-260.6000003815297
 30
0.0
 11
-362.6999996948067
 21
-255.6000003815296
 31
0.0
  0
LINE
  5
197
330
71
100
AcDbEntity
  8
1
  6
Continuous
 62
     2
100
AcDbLine
 10
-362.6999996948067
 20
-260.6000003815297
 30
0.0
 11
-312.6999996948069
 21
-260.6000003815297
 31
0.0
  0
LINE
  5
198
330
71
100
AcDbEntity
  8
1
  6
Continuous
 62
     2
100
AcDbLine
 10
-312.6999996948069
 20
-260.6000003815297
 30
0.0
 11
-312.6999996948069
 21
-255.6000003815296
 31
0.0
  0
LINE
  5
199
330
71
100
AcDbEntity
  8
1
  6
Continuous
 62
     2
100
AcDbLine
 10
-312.6999996948069
 20
-260.6000003815297
 30
0.0
 11
-262.6999996948067
 21
-260.6000003815297
 31
0.0
  0
LINE
  5
19A
330
71
100
AcDbEntity
  8
1
  6
Continuous
 62
     2
100
AcDbLine
 10
-262.6999996948067
 20
-260.6000003815297
 30
0.0
 11
-262.6999996948067
 21
-255.6000003815296
 31
0.0
  0
LINE
  5
19B
330
71
100
AcDbEntity
  8
1
  6
Continuous
 62
     2
100
AcDbLine
 10
-262.6999996948067
 20
-260.6000003815297
 30
0.0
 11
-212.6999996948067
 21
-260.6000003815297
 31
0.0
  0
LINE
  5
19C
330
71
100
AcDbEntity
  8
1
  6
Continuous
 62
     2
100
AcDbLine
 10
-212.6999996948067
 20
-260.6000003815297
 30
0.0
 11
-212.6999996948067
 21
-255.6000003815296
 31
0.0
  0
LINE
  5
19D
330
71
100
AcDbEntity
  8
1
  6
Continuous
 62
     2
100
AcDbLine
 10
-162.6999996948067
 20
-260.6000003815297
 30
0.0
 11
-162.6999996948067
 21
-255.6000003815296
 31
0.0
  0
LINE
  5
19E
330
71
100
AcDbEntity
  8
1
  6
Continuous
 62
     2
100
AcDbLine
 10
-162.6999996948067
 20
-260.6000003815297
 30
0.0
 11
-212.6999996948067
 21
-260.6000003815297
 31
0.0
  0
LINE
  5
19F
330
71
100
AcDbEntity
  8
1
  6
Continuous
 62
     2
100
AcDbLine
 10
-406.1999996948048
 20
-255.6000003815296
 30
0.0
 11
-406.1999996948048
 21
-260.6000003815297
 31
0.0
  0
LINE
  5
1A0
330
71
100
AcDbEntity
  8
1
  6
Continuous
 62
     2
100
AcDbLine
 10
-406.1999996948048
 20
-260.6000003815297
 30
0.0
 11
-362.6999996948067
 21
-260.6000003815297
 31
0.0
  0
LINE
  5
1A1
330
71
100
AcDbEntity
  8
1
  6
Continuous
 62
     2
100
AcDbLine
 10
-406.1999996948048
 20
-255.6000003815296
 30
0.0
 11
-411.1999996948058
 21
-255.6000003815296
 31
0.0
  0
LINE
  5
1A2
330
71
100
AcDbEntity
  8
1
  6
Continuous
 62
     2
100
AcDbLine
 10
-411.1999996948058
 20
-255.6000003815296
 30
0.0
 11
-411.1999996948058
 21
-260.6000003815297
 31
0.0
  0
LINE
  5
1A3
330
71
100
AcDbEntity
  8
1
  6
Continuous
 62
     6
100
AcDbLine
 10
-119.1999996948067
 20
-255.6000003815296
 30
0.0
 11
-119.1999996948054
 21
-247.1000003815296
 31
0.0
  0
LINE
  5
1A4
330
71
100
AcDbEntity
  8
1
  6
Continuous
 62
     6
100
AcDbLine
 10
-212.3448042215568
 20
-255.6000003815297
 30
0.0
 11
-162.6999996948067
 21
-255.6000003815296
 31
0.0
  0
LINE
  5
1A5
330
71
100
AcDbEntity
  8
1
  6
Continuous
 62
     6
100
AcDbLine
 10
-364.999999694807
 20
-255.6000003815297
 30
0.0
 11
-362.6999996948067
 21
-255.6000003815296
 31
0.0
  0
LINE
  5
1A6
330
71
100
AcDbEntity
  8
1
  6
Continuous
 62
     6
100
AcDbLine
 10
-262.6999996948067
 20
-255.6000003815296
 30
0.0
 11
-312.6999996948069
 21
-255.6000003815296
 31
0.0
  0
LINE
  5
1A7
330
71
100
AcDbEntity
  8
1
  6
Continuous
 62
     7
100
AcDbLine
 10
-248.7448042215567
 20
-238.6000003815296
 30
0.0
 11
-248.7448042215567
 21
-251.3500003815297
 31
0.0
  0
LINE
  5
1A8
330
71
100
AcDbEntity
  8
1
  6
Continuous
 62
     7
100
AcDbLine
 10
-212.3448042215568
 20
-238.6000003815296
 30
0.0
 11
-212.3448042215568
 21
-251.3500003815296
 31
0.0
  0
LINE
  5
1A9
330
71
100
AcDbEntity
  8
1
  6
Continuous
 62
     6
100
AcDbLine
 10
-364.999999694807
 20
-255.6000003815297
 30
0.0
 11
-371.1999996948049
 21
-255.6000003815296
 31
0.0
  0
LINE
  5
1AA
330
71
100
AcDbEntity
  8
1
  6
Continuous
 62
     6
100
AcDbLine
 10
-212.3448042215568
 20
-255.6000003815297
 30
0.0
 11
-212.6999996948067
 21
-255.6000003815296
 31
0.0
  0
LINE
  5
1AB
330
71
100
AcDbEntity
  8
1
  6
Continuous
 62
     6
100
AcDbLine
 10
-119.199999694805
 20
-238.6000003815296
 30
0.0
 11
-119.1999996948054
 21
-247.1000003815296
 31
0.0
  0
LINE
  5
1AC
330
71
100
AcDbEntity
  8
1
  6
Continuous
 62
     6
100
AcDbLine
 10
-371.1999996948049
 20
-255.6000003815296
 30
0.0
 11
-406.1999996948048
 21
-255.6000003815296
 31
0.0
  0
LINE
  5
1AD
330
71
100
AcDbEntity
  8
1
  6
Continuous
 62
     2
100
AcDbLine
 10
-244.5081493349941
 20
-233.2250003815297
 30
0.0
 11
-239.5081493349941
 21
-231.9750003815297
 31
0.0
  0
LINE
  5
1AE
330
71
100
AcDbEntity
  8
1
  6
Continuous
 62
     2
100
AcDbLine
 10
-244.5081493349941
 20
-235.7250003815297
 30
0.0
 11
-244.5081493349941
 21
-233.2250003815297
 31
0.0
  0
LINE
  5
1AF
330
71
100
AcDbEntity
  8
1
  6
Continuous
 62
     2
100
AcDbLine
 10
-239.5081493349941
 20
-236.9750003815297
 30
0.0
 11
-244.5081493349941
 21
-235.7250003815297
 31
0.0
  0
LINE
  5
1B0
330
71
100
AcDbEntity
  8
1
  6
Continuous
 62
     2
100
AcDbLine
 10
-239.5081493349941
 20
-231.9750003815297
 30
0.0
 11
-239.5081493349941
 21
-236.9750003815297
 31
0.0
  0
LINE
  5
1B1
330
71
100
AcDbEntity
  8
1
  6
Continuous
 62
     7
100
AcDbLine
 10
-248.7448042215567
 20
-251.3500003815297
 30
0.0
 11
-230.5448042215567
 21
-251.3500003815296
 31
0.0
  0
LINE
  5
1B2
330
71
100
AcDbEntity
  8
1
  6
Continuous
 62
     7
100
AcDbLine
 10
-248.7448042215567
 20
-251.3500003815297
 30
0.0
 11
-248.7448042215567
 21
-255.6000003815297
 31
0.0
  0
LINE
  5
1B3
330
71
100
AcDbEntity
  8
1
  6
Continuous
 62
     7
100
AcDbLine
 10
-212.3448042215568
 20
-251.3500003815296
 30
0.0
 11
-212.3448042215568
 21
-255.6000003815297
 31
0.0
  0
LINE
  5
1B4
330
71
100
AcDbEntity
  8
1
  6
Continuous
 62
     7
100
AcDbLine
 10
-230.5448042215567
 20
-251.3500003815296
 30
0.0
 11
-230.5448042215567
 21
-255.6000003815296
 31
0.0
  0
LINE
  5
1B5
330
71
100
AcDbEntity
  8
1
  6
Continuous
 62
     6
100
AcDbLine
 10
-230.5448042215567
 20
-255.6000003815296
 30
0.0
 11
-248.7448042215567
 21
-255.6000003815297
 31
0.0
  0
LINE
  5
1B6
330
71
100
AcDbEntity
  8
1
  6
Continuous
 62
     7
100
AcDbLine
 10
-230.5448042215567
 20
-251.3500003815296
 30
0.0
 11
-212.3448042215568
 21
-251.3500003815296
 31
0.0
  0
LINE
  5
1B7
330
71
100
AcDbEntity
  8
1
  6
Continuous
 62
     6
100
AcDbLine
 10
-248.7448042215567
 20
-230.1000003815296
 30
0.0
 11
-119.199999694805
 21
-230.1000003815296
 31
0.0
  0
ARC
  5
1B8
102
{ACAD_REACTORS
330
220
330
221
102
}
330
71
100
AcDbEntity
  8
0
  6
Continuous
 62
     2
100
AcDbCircle
 10
-233.3531562225967
 20
-246.779595619608
 30
0.0
 40
0.7717997786797123
100
AcDbArc
 50
321.8795802028401
 51
38.12041979715329
  0
ARC
  5
1B9
102
{ACAD_REACTORS
330
220
330
221
102
}
330
71
100
AcDbEntity
  8
0
  6
Continuous
 62
     2
100
AcDbCircle
 10
-233.1534161862503
 20
-246.936326797728
 30
0.0
 40
0.5179085730137529
100
AcDbArc
 50
218.1204197971956
 51
321.8795802027985
  0
ARC
  5
1BA
102
{ACAD_REACTORS
330
220
330
221
102
}
330
71
100
AcDbEntity
  8
0
  6
Continuous
 62
     2
100
AcDbCircle
 10
-232.9536761499042
 20
-246.779595619608
 30
0.0
 40
0.7717997786794633
100
AcDbArc
 50
141.8795802028363
 51
218.1204197971703
  0
ARC
  5
1BB
102
{ACAD_REACTORS
330
220
330
221
102
}
330
71
100
AcDbEntity
  8
0
  6
Continuous
 62
     2
100
AcDbCircle
 10
-233.1534161862503
 20
-246.6228644414875
 30
0.0
 40
0.5179085730133174
100
AcDbArc
 50
38.1204197971495
 51
141.8795802028563
  0
ARC
  5
1BC
102
{ACAD_REACTORS
330
218
330
219
102
}
330
71
100
AcDbEntity
  8
0
  6
Continuous
 62
     2
100
AcDbCircle
 10
-236.2154303218142
 20
-248.1900619850162
 30
0.0
 40
2.227384008973492
100
AcDbArc
 50
58.0690910500401
 51
71.55192388186676
  0
ARC
  5
1BD
102
{ACAD_REACTORS
330
218
330
219
102
}
330
71
100
AcDbEntity
  8
0
  6
Continuous
 62
     2
100
AcDbCircle
 10
-235.9537026208554
 20
-246.574524190269
 30
0.0
 40
0.511580060194863
100
AcDbArc
 50
113.3722778882033
 51
151.4785267423044
  0
ARC
  5
1BE
102
{ACAD_REACTORS
330
218
330
219
102
}
330
71
100
AcDbEntity
  8
0
  6
Continuous
 62
     2
100
AcDbCircle
 10
-235.5763453627751
 20
-246.779595619608
 30
0.0
 40
0.9410597353332545
100
AcDbArc
 50
151.4785267422669
 51
208.5214732577073
  0
ARC
  5
1BF
102
{ACAD_REACTORS
330
218
330
219
102
}
330
71
100
AcDbEntity
  8
0
  6
Continuous
 62
     2
100
AcDbCircle
 10
-236.3733031969071
 20
-243.4669146743516
 30
0.0
 40
4.852596863498138
100
AcDbArc
 50
275.1581447696249
 51
285.979991258353
  0
ARC
  5
1C0
102
{ACAD_REACTORS
330
218
330
219
102
}
330
71
100
AcDbEntity
  8
0
  6
Continuous
 62
     2
100
AcDbCircle
 10
-236.0844471021712
 20
-246.6668052575732
 30
0.0
 40
1.639695123939415
100
AcDbArc
 50
195.0618917770893
 51
275.1581447696395
  0
ARC
  5
1C1
102
{ACAD_REACTORS
330
218
330
219
102
}
330
71
100
AcDbEntity
  8
0
  6
Continuous
 62
     2
100
AcDbCircle
 10
-236.503574945634
 20
-246.779595619608
 30
0.0
 40
1.205656168390964
100
AcDbArc
 50
164.9381082228781
 51
195.0618917770958
  0
ARC
  5
1C2
102
{ACAD_REACTORS
330
218
330
219
102
}
330
71
100
AcDbEntity
  8
0
  6
Continuous
 62
     2
100
AcDbCircle
 10
-236.0844471021712
 20
-246.8923859816429
 30
0.0
 40
1.639695123940507
100
AcDbArc
 50
84.84185523036236
 51
164.9381082228877
  0
ARC
  5
1C3
102
{ACAD_REACTORS
330
21C
330
21D
102
}
330
71
100
AcDbEntity
  8
0
  6
Continuous
 62
     2
100
AcDbCircle
 10
-240.9144613563331
 20
-245.7457688252537
 30
0.0
 40
0.3157169230765071
100
AcDbArc
 50
115.3740086783541
 51
180.0
  0
ARC
  5
1C4
102
{ACAD_REACTORS
330
21C
330
21D
102
}
330
71
100
AcDbEntity
  8
0
  6
Continuous
 62
     2
100
AcDbCircle
 10
-240.9144613563331
 20
-243.5274856253175
 30
0.0
 40
0.315716923076792
100
AcDbArc
 50
180.0
 51
244.6259913216459
  0
ARC
  5
1C5
102
{ACAD_REACTORS
330
21C
330
21D
102
}
330
71
100
AcDbEntity
  8
0
  6
Continuous
 62
     2
100
AcDbCircle
 10
-240.9088452210231
 20
-244.6247852843798
 30
0.0
 40
2.018561131933237
100
AcDbArc
 50
269.8110329575866
 51
90.18896704241334
  0
ARC
  5
1C6
102
{ACAD_REACTORS
330
21C
330
21D
102
}
330
71
100
AcDbEntity
  8
0
  6
Continuous
 62
     2
100
AcDbCircle
 10
-240.9144613563331
 20
-246.3276202319488
 30
0.0
 40
0.315716923076792
100
AcDbArc
 50
180.0
 51
269.8110329574541
  0
ARC
  5
1C7
102
{ACAD_REACTORS
330
21A
330
21B
102
}
330
71
100
AcDbEntity
  8
0
  6
Continuous
 62
     2
100
AcDbCircle
 10
-219.8510011416025
 20
-246.574524190269
 30
0.0
 40
0.5115800601944143
100
AcDbArc
 50
109.3371432194853
 51
151.4785267424253
  0
ARC
  5
1C8
102
{ACAD_REACTORS
330
21A
330
21B
102
}
330
71
100
AcDbEntity
  8
0
  6
Continuous
 62
     2
100
AcDbCircle
 10
-219.8510011416025
 20
-246.9846670489465
 30
0.0
 40
0.511580060196008
100
AcDbArc
 50
208.5214732576838
 51
246.6277221118449
  0
ARC
  5
1C9
102
{ACAD_REACTORS
330
21A
330
21B
102
}
330
71
100
AcDbEntity
  8
0
  6
Continuous
 62
     2
100
AcDbCircle
 10
-220.4008734663799
 20
-246.779595619608
 30
0.0
 40
1.205656168392995
100
AcDbArc
 50
164.9381082229041
 51
195.0618917770972
  0
ARC
  5
1CA
102
{ACAD_REACTORS
330
21A
330
21B
102
}
330
71
100
AcDbEntity
  8
0
  6
Continuous
 62
     2
100
AcDbCircle
 10
-219.9817456229183
 20
-246.8923859816429
 30
0.0
 40
1.639695123940186
100
AcDbArc
 50
90.0
 51
164.9381082228957
  0
ARC
  5
1CB
102
{ACAD_REACTORS
330
21E
330
21F
102
}
330
71
100
AcDbEntity
  8
0
  6
Continuous
 62
     2
100
AcDbCircle
 10
-229.408740715622
 20
-243.4204051434337
 30
0.0
 40
1.526904761905911
100
AcDbArc
 50
90.0
 51
270.0
  0
ARC
  5
1CC
102
{ACAD_REACTORS
330
222
330
223
102
}
330
71
100
AcDbEntity
  8
0
  6
Continuous
 62
     2
100
AcDbCircle
 10
-236.1514314608478
 20
-242.909470051639
 30
0.0
 40
0.3528638246710898
100
AcDbArc
 50
270.0
 51
90.0
  0
ARC
  5
1CD
102
{ACAD_REACTORS
330
21C
330
21D
102
}
330
71
100
AcDbEntity
  8
0
  6
Continuous
 62
     2
100
AcDbCircle
 10
-243.4900100428648
 20
-242.9217728601626
 30
0.0
 40
0.3157169230761951
100
AcDbArc
 50
90.0
 51
180.0
  0
ARC
  5
1CE
102
{ACAD_REACTORS
330
21C
330
21D
102
}
330
71
100
AcDbEntity
  8
0
  6
Continuous
 62
     2
100
AcDbCircle
 10
-241.4915923342802
 20
-244.6366272252853
 30
0.0
 40
0.9118975235576147
100
AcDbArc
 50
115.1944106485282
 51
244.8055893514869
  0
ARC
  5
1CF
102
{ACAD_REACTORS
330
21C
330
21D
102
}
330
71
100
AcDbEntity
  8
0
  6
Continuous
 62
     2
100
AcDbCircle
 10
-242.0141767818552
 20
-245.7474569713481
 30
0.0
 40
0.3157169230766215
100
AcDbArc
 50
0.0
 51
64.80558935145781
  0
ARC
  5
1D0
102
{ACAD_REACTORS
330
21C
330
21D
102
}
330
71
100
AcDbEntity
  8
0
  6
Continuous
 62
     2
100
AcDbCircle
 10
-244.0839047196113
 20
-247.88225576613
 30
0.0
 40
0.4242446153828041
100
AcDbArc
 50
180.0
 51
270.0
  0
ARC
  5
1D1
102
{ACAD_REACTORS
330
21E
330
21F
102
}
330
71
100
AcDbEntity
  8
0
  6
Continuous
 62
     2
100
AcDbCircle
 10
-229.1924687054568
 20
-243.2636739653132
 30
0.0
 40
0.5179085730135266
100
AcDbArc
 50
38.12041979714334
 51
141.8795802028489
  0
ARC
  5
1D2
102
{ACAD_REACTORS
330
21E
330
21F
102
}
330
71
100
AcDbEntity
  8
0
  6
Continuous
 62
     2
100
AcDbCircle
 10
-228.9927286691105
 20
-243.4204051434337
 30
0.0
 40
0.77179977867969
100
AcDbArc
 50
141.8795802028388
 51
218.1204197971546
  0
ARC
  5
1D3
102
{ACAD_REACTORS
330
220
330
221
102
}
330
71
100
AcDbEntity
  8
0
  6
Continuous
 62
     2
100
AcDbCircle
 10
-233.1534161862503
 20
-246.2410206093047
 30
0.0
 40
2.065479772208497
100
AcDbArc
 50
242.4518518243391
 51
297.5481481756875
  0
ARC
  5
1D4
102
{ACAD_REACTORS
330
220
330
221
102
}
330
71
100
AcDbEntity
  8
0
  6
Continuous
 62
     2
100
AcDbCircle
 10
-233.1534161862503
 20
-247.3181706299108
 30
0.0
 40
2.065479772208593
100
AcDbArc
 50
62.45185182430674
 51
117.5481481756667
  0
ARC
  5
1D5
102
{ACAD_REACTORS
330
220
330
221
102
}
330
71
100
AcDbEntity
  8
0
  6
Continuous
 62
     2
100
AcDbCircle
 10
-233.4343560780836
 20
-246.779595619608
 30
0.0
 40
1.458034083651503
100
AcDbArc
 50
117.5481481756634
 51
242.4518518243366
  0
ARC
  5
1D6
102
{ACAD_REACTORS
330
220
330
221
102
}
330
71
100
AcDbEntity
  8
0
  6
Continuous
 62
     2
100
AcDbCircle
 10
-232.872476294417
 20
-246.779595619608
 30
0.0
 40
1.458034083652003
100
AcDbArc
 50
297.548148175701
 51
62.45185182429896
  0
ARC
  5
1D7
102
{ACAD_REACTORS
330
21E
330
21F
102
}
330
71
100
AcDbEntity
  8
0
  6
Continuous
 62
     2
100
AcDbCircle
 10
-229.1924687054568
 20
-243.5771363215541
 30
0.0
 40
0.5179085730134372
100
AcDbArc
 50
218.1204197971511
 51
321.8795802028566
  0
ARC
  5
1D8
102
{ACAD_REACTORS
330
21E
330
21F
102
}
330
71
100
AcDbEntity
  8
0
  6
Continuous
 62
     2
100
AcDbCircle
 10
-229.392208741803
 20
-243.4204051434337
 30
0.0
 40
0.7717997786796198
100
AcDbArc
 50
321.8795802028454
 51
38.12041979716123
  0
ARC
  5
1D9
102
{ACAD_REACTORS
330
21C
330
21D
102
}
330
71
100
AcDbEntity
  8
0
  6
Continuous
 62
     2
100
AcDbCircle
 10
-238.6105926288945
 20
-247.88225576613
 30
0.0
 40
0.4242446153833157
100
AcDbArc
 50
270.0
 51
0.0
  0
ARC
  5
1DA
102
{ACAD_REACTORS
330
21C
330
21D
102
}
330
71
100
AcDbEntity
  8
0
  6
Continuous
 62
     2
100
AcDbCircle
 10
-238.6105926288945
 20
-242.3177449969298
 30
0.0
 40
0.4242446153838841
100
AcDbArc
 50
0.0
 51
90.0
  0
ARC
  5
1DB
102
{ACAD_REACTORS
330
21C
330
21D
102
}
330
71
100
AcDbEntity
  8
0
  6
Continuous
 62
     2
100
AcDbCircle
 10
-244.0839047196113
 20
-242.3177449969298
 30
0.0
 40
0.4242446153837989
100
AcDbArc
 50
90.0
 51
180.0
  0
ARC
  5
1DC
102
{ACAD_REACTORS
330
21C
330
21D
102
}
330
71
100
AcDbEntity
  8
0
  6
Continuous
 62
     2
100
AcDbCircle
 10
-242.0141767818552
 20
-247.2782279028797
 30
0.0
 40
0.3157169230767067
100
AcDbArc
 50
270.0
 51
0.0
  0
ARC
  5
1DD
102
{ACAD_REACTORS
330
21C
330
21D
102
}
330
71
100
AcDbEntity
  8
0
  6
Continuous
 62
     2
100
AcDbCircle
 10
-242.0141767818552
 20
-243.5257974792231
 30
0.0
 40
0.3157169230761581
100
AcDbArc
 50
295.1944106485421
 51
0.0
  0
ARC
  5
1DE
102
{ACAD_REACTORS
330
21C
330
21D
102
}
330
71
100
AcDbEntity
  8
0
  6
Continuous
 62
     2
100
AcDbCircle
 10
-242.0141767818552
 20
-242.9217728601626
 30
0.0
 40
0.3157169230766215
100
AcDbArc
 50
0.0
 51
90.0
  0
ARC
  5
1DF
102
{ACAD_REACTORS
330
21C
330
21D
102
}
330
71
100
AcDbEntity
  8
0
  6
Continuous
 62
     2
100
AcDbCircle
 10
-243.4900100428648
 20
-247.2782279028797
 30
0.0
 40
0.3157169230756836
100
AcDbArc
 50
180.0
 51
270.0
  0
ARC
  5
1E0
102
{ACAD_REACTORS
330
222
330
223
102
}
330
71
100
AcDbEntity
  8
0
  6
Continuous
 62
     2
100
AcDbCircle
 10
-235.7099589346094
 20
-242.9488660228615
 30
0.0
 40
1.055365641333708
100
AcDbArc
 50
270.0
 51
90.0
  0
ARC
  5
1E1
102
{ACAD_REACTORS
330
21A
330
21B
102
}
330
71
100
AcDbEntity
  8
0
  6
Continuous
 62
     2
100
AcDbCircle
 10
-219.9817456229183
 20
-246.6668052575732
 30
0.0
 40
1.639695123940421
100
AcDbArc
 50
195.0618917771015
 51
275.1581447696772
  0
ARC
  5
1E2
102
{ACAD_REACTORS
330
21A
330
21B
102
}
330
71
100
AcDbEntity
  8
0
  6
Continuous
 62
     2
100
AcDbCircle
 10
-220.2706017176541
 20
-243.4669146743516
 30
0.0
 40
4.852596863498825
100
AcDbArc
 50
275.1581447696364
 51
285.9799912583384
  0
ARC
  5
1E3
102
{ACAD_REACTORS
330
21A
330
21B
102
}
330
71
100
AcDbEntity
  8
0
  6
Continuous
 62
     2
100
AcDbCircle
 10
-220.1127288425613
 20
-245.3691292541999
 30
0.0
 40
2.227384008972773
100
AcDbArc
 50
288.4480761181333
 51
301.9309089499387
  0
ARC
  5
1E4
102
{ACAD_REACTORS
330
21A
330
21B
102
}
330
71
100
AcDbEntity
  8
0
  6
Continuous
 62
     2
100
AcDbCircle
 10
-219.6945611088994
 20
-246.6226750302365
 30
0.0
 40
0.9059297849852801
100
AcDbArc
 50
246.6277221118183
 51
288.4480761180817
  0
ARC
  5
1E5
102
{ACAD_REACTORS
330
21A
330
21B
102
}
330
71
100
AcDbEntity
  8
0
  6
Continuous
 62
     2
100
AcDbCircle
 10
-219.4736438835211
 20
-246.779595619608
 30
0.0
 40
0.9410597353348789
100
AcDbArc
 50
151.478526742364
 51
208.5214732576695
  0
ARC
  5
1E6
102
{ACAD_REACTORS
330
21A
330
21B
102
}
330
71
100
AcDbEntity
  8
0
  6
Continuous
 62
     2
100
AcDbCircle
 10
-219.7043311434988
 20
-246.9924791706519
 30
0.0
 40
0.9545230068260935
100
AcDbArc
 50
90.0
 51
109.3371432194314
  0
ARC
  5
1E7
102
{ACAD_REACTORS
330
21C
330
21D
102
}
330
71
100
AcDbEntity
  8
0
  6
Continuous
 62
     2
100
AcDbCircle
 10
-240.9144613563331
 20
-242.9219503368107
 30
0.0
 40
0.3157169230760711
100
AcDbArc
 50
90.18896704254594
 51
180.0
  0
ARC
  5
1E8
102
{ACAD_REACTORS
330
21C
330
21D
102
}
330
71
100
AcDbEntity
  8
0
  6
Continuous
 62
     2
100
AcDbCircle
 10
-241.440504054421
 20
-244.6366272252853
 30
0.0
 40
0.9118481501444712
100
AcDbArc
 50
295.3740086781781
 51
64.62599132180661
  0
ARC
  5
1E9
102
{ACAD_REACTORS
330
218
330
219
102
}
330
71
100
AcDbEntity
  8
0
  6
Continuous
 62
     2
100
AcDbCircle
 10
-236.2154303218142
 20
-245.3691292541993
 30
0.0
 40
2.227384008972773
100
AcDbArc
 50
288.4480761181333
 51
301.9309089499599
  0
ARC
  5
1EA
102
{ACAD_REACTORS
330
218
330
219
102
}
330
71
100
AcDbEntity
  8
0
  6
Continuous
 62
     2
100
AcDbCircle
 10
-235.7972625881534
 20
-246.6226750302365
 30
0.0
 40
0.9059297849849305
100
AcDbArc
 50
246.6277221118694
 51
288.4480761181584
  0
ARC
  5
1EB
102
{ACAD_REACTORS
330
218
330
219
102
}
330
71
100
AcDbEntity
  8
0
  6
Continuous
 62
     2
100
AcDbCircle
 10
-235.9537026208554
 20
-246.9846670489465
 30
0.0
 40
0.5115800601948034
100
AcDbArc
 50
208.5214732576956
 51
246.6277221118245
  0
ARC
  5
1EC
102
{ACAD_REACTORS
330
218
330
219
102
}
330
71
100
AcDbEntity
  8
0
  6
Continuous
 62
     2
100
AcDbCircle
 10
-235.7972625881534
 20
-246.9365162089796
 30
0.0
 40
0.9059297849853498
100
AcDbArc
 50
71.55192388185405
 51
113.3722778881306
  0
ARC
  5
1ED
102
{ACAD_REACTORS
330
218
330
219
102
}
330
71
100
AcDbEntity
  8
0
  6
Continuous
 62
     2
100
AcDbCircle
 10
-236.3733031969071
 20
-250.0922765648639
 30
0.0
 40
4.852596863498095
100
AcDbArc
 50
74.02000874164747
 51
84.84185523037509
  0
CIRCLE
  5
1EE
102
{ACAD_REACTORS
330
21C
330
21D
102
}
330
71
100
AcDbEntity
  8
0
  6
Continuous
 62
     2
100
AcDbCircle
 10
-241.4643190690938
 20
-244.6366272252853
 30
0.0
 40
0.470978932778479
  0
CIRCLE
  5
1EF
330
71
100
AcDbEntity
  8
1
  6
Continuous
 62
     2
100
AcDbCircle
 10
-236.0081493349941
 20
-234.4750003815297
 30
0.0
 40
1.249999999999915
  0
CIRCLE
  5
1F0
330
71
100
AcDbEntity
  8
1
  6
Continuous
 62
     2
100
AcDbCircle
 10
-236.0081493349941
 20
-234.4750003815297
 30
0.0
 40
2.5
  0
TEXT
  5
1F1
330
71
100
AcDbEntity
  8
1
 62
     7
100
AcDbText
 10
-193.3712564995429
 20
-237.3000003815297
 30
0.0
 40
2.5
  1
/
 41
0.9
  7
CONVERTER_11
100
AcDbText
  0
TEXT
  5
1F3
330
71
100
AcDbEntity
  8
1
 62
     7
100
AcDbText
 10
-191.2148920025009
 20
-237.3000003815297
 30
0.0
 40
2.5
  1
00
 41
0.81
  7
CONVERTER_12
100
AcDbText
  0
TEXT
  5
1F4
330
71
100
AcDbEntity
  8
1
 62
     3
100
AcDbText
 10
-153.6184079764838
 20
-237.3000003815297
 30
0.0
 40
2.5
  1
21.02.2017
 41
0.81
  7
CONVERTER_12
100
AcDbText
  0
MTEXT
  5
1F5
330
71
100
AcDbEntity
  8
1
 62
     2
100
AcDbMText
 10
-153.6184079764838
 20
-231.1000003815297
 30
0.0
 40
1.8
 41
0.0
 71
     1
 72
     1
  1
date
  7
CONVERTER_11
 73
     1
 44
1.32052821128451
  0
MTEXT
  5
1F6
330
71
100
AcDbEntity
  8
1
 62
     2
100
AcDbMText
 10
-183.4448042215567
 20
-239.6000003815297
 30
0.0
 40
1.8
 41
0.0
 71
     1
 72
     1
  1
document-type
  7
CONVERTER_11
 73
     1
 44
1.20048019207683
  0
TEXT
  5
1F7
330
71
100
AcDbEntity
  8
1
 62
     3
100
AcDbText
 10
-183.4448042215567
 20
-245.8000003815297
 30
0.0
 40
2.5
  1
Customer drawing select
 41
0.81
  7
CONVERTER_12
100
AcDbText
  0
MTEXT
  5
1F9
330
71
100
AcDbEntity
  8
1
 62
     2
100
AcDbMText
 10
-211.2448042215567
 20
-231.1000003815296
 30
0.0
 40
1.8
 41
0.0
 71
     1
 72
     1
  1
document-No. / RI
  7
CONVERTER_13
 73
     1
 44
1.32052821128451
  0
TEXT
  5
1FA
330
71
100
AcDbEntity
  8
1
 62
     7
100
AcDbText
 10
-211.2448042215567
 20
-237.3000003815297
 30
0.0
 40
2.5
  1
01036301
 41
0.81
  7
CONVERTER_12
100
AcDbText
  0
MTEXT
  5
1FC
330
71
100
AcDbEntity
  8
1
 62
     3
100
AcDbMText
 10
-123.6592038356444
 20
-237.3000003815295
 30
0.0
 40
2.5
 41
0.0
 71
     8
 72
     1
  1
2:1
  7
CONVERTER_14
 73
     1
 44
1.32052821128451
  0
MTEXT
  5
1FD
330
71
100
AcDbEntity
  8
1
 62
     2
100
AcDbMText
 10
-127.018407976484
 20
-231.1000003815296
 30
0.0
 40
1.8
 41
0.0
 71
     1
 72
     1
  1
scale
  7
CONVERTER_11
 73
     1
 44
1.20048019207683
  0
MTEXT
  5
1FE
330
71
100
AcDbEntity
  8
1
 62
     2
100
AcDbMText
 10
-211.2448042215567
 20
-239.6000003815296
 30
0.0
 40
1.8
 41
0.0
 71
     1
 72
     1
  1
ident.-No.
  7
CONVERTER_11
 73
     1
 44
1.20048019207683
  0
TEXT
  5
1FF
330
71
100
AcDbEntity
  8
1
 62
     7
100
AcDbText
 10
-210.844804221557
 20
-245.8000003815297
 30
0.0
 40
2.5
  1
3240705
 41
0.81
  7
CONVERTER_12
100
AcDbText
  0
MTEXT
  5
200
330
71
100
AcDbEntity
  8
1
 62
     2
100
AcDbMText
 10
-283.1828189466042
 20
-242.8500003815297
 30
0.0
 40
2.0
 41
0.0
 71
     5
 72
     1
  1
General Information\P- Simplified representation\P- Document excluded from change process\P- Linear dimensions [mm]
  7
CONVERTER_11
 73
     1
 44
1.20048019207683
  0
MTEXT
  5
201
330
71
100
AcDbEntity
  8
1
 62
     7
100
AcDbMText
 10
-116.6999996948077
 20
-180.6000003815277
 30
0.0
 40
3.5
 41
0.0
 71
     5
 72
     1
  1
C
  7
CONVERTER_11
 73
     1
 44
1.20048019207683
  0
MTEXT
  5
202
330
71
100
AcDbEntity
  8
1
 62
     7
100
AcDbMText
 10
-116.6999996948077
 20
-78.10000038152958
 30
0.0
 40
3.5
 41
0.0
 71
     5
 72
     1
  1
A
  7
CONVERTER_11
 73
     1
 44
1.20048019207683
  0
MTEXT
  5
203
330
71
100
AcDbEntity
  8
1
 62
     7
100
AcDbMText
 10
-116.6999996948077
 20
-130.6000003815277
 30
0.0
 40
3.5
 41
0.0
 71
     5
 72
     1
  1
B
  7
CONVERTER_11
 73
     1
 44
1.20048019207683
  0
MTEXT
  5
204
330
71
100
AcDbEntity
  8
1
 62
     7
100
AcDbMText
 10
-116.6999996948077
 20
-233.1000003815296
 30
0.0
 40
3.5
 41
0.0
 71
     5
 72
     1
  1
D
  7
CONVERTER_11
 73
     1
 44
1.20048019207683
  0
MTEXT
  5
205
330
71
100
AcDbEntity
  8
1
 62
     7
100
AcDbMText
 10
-386.9499996948063
 20
-258.1000003815297
 30
0.0
 40
3.5
 41
0.0
 71
     5
 72
     1
  1
1
  7
CONVERTER_11
 73
     1
 44
1.20048019207683
  0
MTEXT
  5
206
330
71
100
AcDbEntity
  8
1
 62
     7
100
AcDbMText
 10
-337.6999996948067
 20
-258.1000003815297
 30
0.0
 40
3.5
 41
0.0
 71
     5
 72
     1
  1
2
  7
CONVERTER_11
 73
     1
 44
1.20048019207683
  0
MTEXT
  5
207
330
71
100
AcDbEntity
  8
1
 62
     7
100
AcDbMText
 10
-287.6999996948067
 20
-258.1000003815297
 30
0.0
 40
3.5
 41
0.0
 71
     5
 72
     1
  1
3
  7
CONVERTER_11
 73
     1
 44
1.20048019207683
  0
MTEXT
  5
208
330
71
100
AcDbEntity
  8
1
 62
     7
100
AcDbMText
 10
-237.6999996948068
 20
-258.1000003815297
 30
0.0
 40
3.5
 41
0.0
 71
     5
 72
     1
  1
4
  7
CONVERTER_11
 73
     1
 44
1.20048019207683
  0
MTEXT
  5
209
330
71
100
AcDbEntity
  8
1
 62
     7
100
AcDbMText
 10
-187.6999996948067
 20
-258.1000003815297
 30
0.0
 40
3.5
 41
0.0
 71
     5
 72
     1
  1
5
  7
CONVERTER_11
 73
     1
 44
1.20048019207683
  0
MTEXT
  5
20A
330
71
100
AcDbEntity
  8
1
 62
     7
100
AcDbMText
 10
-138.4499996948075
 20
-258.1000003815297
 30
0.0
 40
3.5
 41
0.0
 71
     5
 72
     1
  1
6
  7
CONVERTER_11
 73
     1
 44
1.20048019207683
  0
MTEXT
  5
20B
330
71
100
AcDbEntity
  8
1
 62
     7
100
AcDbMText
 10
-408.6999996948058
 20
-78.10000038152958
 30
0.0
 40
3.5
 41
0.0
 71
     5
 72
     1
  1
A
  7
CONVERTER_11
 73
     1
 44
1.20048019207683
  0
MTEXT
  5
20C
330
71
100
AcDbEntity
  8
1
 62
     7
100
AcDbMText
 10
-408.6999996948058
 20
-130.6000003815296
 30
0.0
 40
3.5
 41
0.0
 71
     5
 72
     1
  1
B
  7
CONVERTER_11
 73
     1
 44
1.20048019207683
  0
MTEXT
  5
20D
330
71
100
AcDbEntity
  8
1
 62
     7
100
AcDbMText
 10
-408.6999996948058
 20
-180.6000003815296
 30
0.0
 40
3.5
 41
0.0
 71
     5
 72
     1
  1
C
  7
CONVERTER_11
 73
     1
 44
1.20048019207683
  0
MTEXT
  5
20E
330
71
100
AcDbEntity
  8
1
 62
     7
100
AcDbMText
 10
-408.6999996948058
 20
-233.1000003815296
 30
0.0
 40
3.5
 41
0.0
 71
     5
 72
     1
  1
D
  7
CONVERTER_11
 73
     1
 44
1.20048019207683
  0
MTEXT
  5
20F
330
71
100
AcDbEntity
  8
1
 62
     3
100
AcDbMText
 10
-222.5448042215568
 20
-234.4750003815296
 30
0.0
 40
2.5
 41
0.0
 71
     5
 72
     1
  1
DIN A4
  7
CONVERTER_11
 73
     1
 44
1.20048019207683
  0
MTEXT
  5
210
330
71
100
AcDbEntity
  8
1
 62
     2
100
AcDbMText
 10
-211.3448042215568
 20
-248.1000003815296
 30
0.0
 40
1.8
 41
0.0
 71
     1
 72
     1
  1
description
  7
CONVERTER_11
 73
     1
 44
1.20048019207683
  0
MTEXT
  5
211
330
71
100
AcDbEntity
  8
1
 62
     7
100
AcDbMText
 10
-165.7724019581812
 20
-252.3500003815294
 30
0.0
 40
3.0
 41
0.0
 71
     5
 72
     1
  1
WT-BASE HF 9 BK
  7
CONVERTER_12
 73
     1
 44
1.20048019207683
  0
TEXT
  5
212
330
71
100
AcDbEntity
  8
1
 62
     2
100
AcDbText
 10
-224.3094954117432
 20
-254.3500003815297
 30
0.0
 40
1.8
  1
1
 41
0.9
  7
CONVERTER_11
100
AcDbText
  0
TEXT
  5
213
330
71
100
AcDbEntity
  8
1
 62
     2
100
AcDbText
 10
-239.0985392512147
 20
-254.3992490353316
 30
0.0
 40
1.8
  1
1
 41
0.9
  7
CONVERTER_11
100
AcDbText
  0
TEXT
  5
214
330
71
100
AcDbEntity
  8
1
 62
     2
100
AcDbText
 10
-247.7448042215567
 20
-254.3590175965213
 30
0.0
 40
1.8
  1
page
 41
0.9
  7
CONVERTER_11
100
AcDbText
  0
TEXT
  5
215
330
71
100
AcDbEntity
  8
1
 62
     2
100
AcDbText
 10
-229.5448042215569
 20
-254.3590175965212
 30
0.0
 40
1.8
  1
of
 41
0.9
  7
CONVERTER_11
100
AcDbText
  0
MTEXT
  5
216
330
71
100
AcDbEntity
  8
1
 62
     3
100
AcDbMText
 10
-223.3418220699468
 20
-68.80869222623079
 30
0.0
 40
1.8
 41
0.0
 71
     7
 72
     1
  3
Transfer or duplication of this document as well as the utilisation or\Pcommunication of its content are not permitted unless express consent\Pis granted. Violations give rise to claims for damages. All rights reserved\Pin case of patent, utility mo
  1
del or design patent registrations.
  7
CONVERTER_11
 73
     1
 44
0.99639855942377
  0
MTEXT
  5
217
330
71
100
AcDbEntity
  8
1
 62
     3
100
AcDbMText
 10
-406.1949319087349
 20
-68.80869222623079
 30
0.0
 40
1.8
 41
0.0
 71
     7
 72
     1
  3
Weitergabe sowie Vervielf\U+00e4ltigung dieses Dokuments, Verwertung und \PMitteilung seines Inhalts sind verboten, soweit nicht ausdr\U+00fccklich gestattet. \PZuwiderhandlungen verpflichten zu Schadenersatz. Alle Rechte f\U+00fcr den Fall\Pder Pat
  1
ent-, Gebrauchsmuster- oder Designeintragung vorbehalten.
  7
CONVERTER_11
 73
     1
 44
0.99639855942377
  0
HATCH
  5
218
330
71
100
AcDbEntity
  8
1
  6
Continuous
 62
     2
100
AcDbHatch
 10
0.0
 20
0.0
 30
0.0
210
0.0
220
0.0
230
1.0
  2
_USER
 70
     0
 71
     1
 91
        1
 92
        1
 93
       14
 72
     2
 10
-236.503574945634
 20
-246.779595619608
 40
1.205656168390964
 50
164.9381082228781
 51
195.0618917770958
 73
     1
 72
     2
 10
-236.0844471021712
 20
-246.6668052575732
 40
1.639695123939415
 50
195.0618917770893
 51
275.1581447696395
 73
     1
 72
     2
 10
-236.3733031969071
 20
-243.4669146743516
 40
4.852596863498138
 50
275.1581447696249
 51
285.979991258353
 73
     1
 72
     1
 10
-235.0373752797893
 20
-248.1319969801524
 11
-235.0373752797893
 21
-247.2594799733492
 72
     2
 10
-236.2154303218142
 20
-245.3691292541993
 40
2.227384008972773
 50
58.06909105004009
 51
71.55192388186677
 73
     0
 72
     2
 10
-235.7972625881534
 20
-246.6226750302365
 40
0.9059297849849305
 50
71.55192388184153
 51
113.3722778881306
 73
     0
 72
     2
 10
-235.9537026208554
 20
-246.9846670489465
 40
0.5115800601948034
 50
113.3722778881755
 51
151.4785267423044
 73
     0
 72
     2
 10
-235.5763453627751
 20
-246.779595619608
 40
0.9410597353332545
 50
151.4785267422927
 51
208.5214732577331
 73
     0
 72
     2
 10
-235.9537026208554
 20
-246.574524190269
 40
0.511580060194863
 50
208.5214732576956
 51
246.6277221117967
 73
     0
 72
     2
 10
-235.7972625881534
 20
-246.9365162089796
 40
0.9059297849853498
 50
246.6277221118694
 51
288.4480761181459
 73
     0
 72
     2
 10
-236.2154303218142
 20
-248.1900619850162
 40
2.227384008973492
 50
288.4480761181333
 51
301.9309089499599
 73
     0
 72
     1
 10
-235.0373752797893
 20
-246.2997112658663
 11
-235.0373752797893
 21
-245.427194259063
 72
     2
 10
-236.3733031969071
 20
-250.0922765648639
 40
4.852596863498095
 50
74.02000874164747
 51
84.84185523037509
 73
     1
 72
     2
 10
-236.0844471021712
 20
-246.8923859816429
 40
1.639695123940507
 50
84.84185523036236
 51
164.9381082228877
 73
     1
 97
       14
330
1ED
330
106
330
1BC
330
1EC
330
1BD
330
1BE
330
1EB
330
1EA
330
1E9
330
107
330
1BF
330
1C0
330
1C1
330
1C2
 75
     1
 76
     0
 52
45.0
 41
0.1
 77
     0
 78
     1
 53
45.0
 43
0.0
 44
0.0
 45
-0.0707106781186548
 46
0.0707106781186548
 79
     0
 98
        1
 10
0.0
 20
0.0
  0
HATCH
  5
219
330
71
100
AcDbEntity
  8
1
  6
Continuous
 62
     2
100
AcDbHatch
 10
0.0
 20
0.0
 30
0.0
210
0.0
220
0.0
230
1.0
  2
_USER
 70
     0
 71
     1
 91
        1
 92
        1
 93
       14
 72
     2
 10
-236.503574945634
 20
-246.779595619608
 40
1.205656168390964
 50
164.9381082228781
 51
195.0618917770958
 73
     1
 72
     2
 10
-236.0844471021712
 20
-246.6668052575732
 40
1.639695123939415
 50
195.0618917770893
 51
275.1581447696395
 73
     1
 72
     2
 10
-236.3733031969071
 20
-243.4669146743516
 40
4.852596863498138
 50
275.1581447696249
 51
285.979991258353
 73
     1
 72
     1
 10
-235.0373752797893
 20
-248.1319969801524
 11
-235.0373752797893
 21
-247.2594799733492
 72
     2
 10
-236.2154303218142
 20
-245.3691292541993
 40
2.227384008972773
 50
58.06909105004009
 51
71.55192388186677
 73
     0
 72
     2
 10
-235.7972625881534
 20
-246.6226750302365
 40
0.9059297849849305
 50
71.55192388184153
 51
113.3722778881306
 73
     0
 72
     2
 10
-235.9537026208554
 20
-246.9846670489465
 40
0.5115800601948034
 50
113.3722778881755
 51
151.4785267423044
 73
     0
 72
     2
 10
-235.5763453627751
 20
-246.779595619608
 40
0.9410597353332545
 50
151.4785267422927
 51
208.5214732577331
 73
     0
 72
     2
 10
-235.9537026208554
 20
-246.574524190269
 40
0.511580060194863
 50
208.5214732576956
 51
246.6277221117967
 73
     0
 72
     2
 10
-235.7972625881534
 20
-246.9365162089796
 40
0.9059297849853498
 50
246.6277221118694
 51
288.4480761181459
 73
     0
 72
     2
 10
-236.2154303218142
 20
-248.1900619850162
 40
2.227384008973492
 50
288.4480761181333
 51
301.9309089499599
 73
     0
 72
     1
 10
-235.0373752797893
 20
-246.2997112658663
 11
-235.0373752797893
 21
-245.427194259063
 72
     2
 10
-236.3733031969071
 20
-250.0922765648639
 40
4.852596863498095
 50
74.02000874164747
 51
84.84185523037509
 73
     1
 72
     2
 10
-236.0844471021712
 20
-246.8923859816429
 40
1.639695123940507
 50
84.84185523036236
 51
164.9381082228877
 73
     1
 97
       14
330
1ED
330
106
330
1BC
330
1EC
330
1BD
330
1BE
330
1EB
330
1EA
330
1E9
330
107
330
1BF
330
1C0
330
1C1
330
1C2
 75
     1
 76
     0
 52
45.0
 41
0.1
 77
     0
 78
     1
 53
45.0
 43
0.0
 44
0.0
 45
-0.0707106781186548
 46
0.0707106781186548
 79
     0
 98
        1
 10
0.0
 20
0.0
  0
HATCH
  5
21A
330
71
100
AcDbEntity
  8
1
  6
Continuous
 62
     2
100
AcDbHatch
 10
0.0
 20
0.0
 30
0.0
210
0.0
220
0.0
230
1.0
  2
_USER
 70
     0
 71
     1
 91
        1
 92
        1
 93
       18
 72
     2
 10
-219.9817456229183
 20
-246.8923859816429
 40
1.639695123940186
 50
90.0
 51
164.9381082228957
 73
     1
 72
     2
 10
-220.4008734663799
 20
-246.779595619608
 40
1.205656168392995
 50
164.9381082229041
 51
195.0618917770972
 73
     1
 72
     2
 10
-219.9817456229183
 20
-246.6668052575732
 40
1.639695123940421
 50
195.0618917771015
 51
275.1581447696772
 73
     1
 72
     2
 10
-220.2706017176541
 20
-243.4669146743516
 40
4.852596863498825
 50
275.1581447696364
 51
285.9799912583384
 73
     1
 72
     1
 10
-218.9346738005374
 20
-248.131996980153
 11
-218.9346738005374
 21
-247.2594799733497
 72
     2
 10
-220.1127288425613
 20
-245.3691292541999
 40
2.227384008972773
 50
58.06909105006127
 51
71.55192388186677
 73
     0
 72
     2
 10
-219.6945611088994
 20
-246.6226750302365
 40
0.9059297849852801
 50
71.55192388191827
 51
113.3722778881817
 73
     0
 72
     2
 10
-219.8510011416025
 20
-246.9846670489465
 40
0.511580060196008
 50
113.3722778881551
 51
151.4785267423162
 73
     0
 72
     2
 10
-219.4736438835211
 20
-246.779595619608
 40
0.9410597353348789
 50
151.4785267423305
 51
208.521473257636
 73
     0
 72
     2
 10
-219.8510011416025
 20
-246.574524190269
 40
0.5115800601944143
 50
208.5214732575747
 51
250.6628567805147
 73
     0
 72
     2
 10
-219.7043311434988
 20
-246.9924791706519
 40
0.9545230068260935
 50
250.6628567805685
 51
270.0
 73
     0
 72
     1
 10
-219.7043311434988
 20
-246.0379561638258
 11
-218.6006918439307
 21
-246.0379561638258
 72
     1
 10
-218.6006918439307
 20
-246.0379561638258
 11
-218.6006918439307
 21
-248.3065003815133
 72
     1
 10
-218.6006918439307
 20
-248.3065003815133
 11
-217.407899141763
 21
-248.3065003815133
 72
     1
 10
-217.407899141763
 20
-248.3065003815133
 11
-217.407899141763
 21
-246.0379561638258
 72
     1
 10
-217.407899141763
 20
-246.0379561638258
 11
-216.5968001042896
 21
-246.0379561638258
 72
     1
 10
-216.5968001042896
 20
-246.0379561638258
 11
-216.5968001042896
 21
-245.2526908577022
 72
     1
 10
-216.5968001042896
 20
-245.2526908577022
 11
-219.9817456229183
 21
-245.2526908577027
 97
       18
330
16C
330
16B
330
16A
330
169
330
16E
330
108
330
1E6
330
1C7
330
1E5
330
1C8
330
1E4
330
1E3
330
109
330
1E2
330
1E1
330
1C9
330
1CA
330
16D
 75
     1
 76
     0
 52
45.0
 41
0.1
 77
     0
 78
     1
 53
45.0
 43
0.0
 44
0.0
 45
-0.0707106781186548
 46
0.0707106781186548
 79
     0
 98
        1
 10
0.0
 20
0.0
  0
HATCH
  5
21B
330
71
100
AcDbEntity
  8
1
  6
Continuous
 62
     2
100
AcDbHatch
 10
0.0
 20
0.0
 30
0.0
210
0.0
220
0.0
230
1.0
  2
_USER
 70
     0
 71
     1
 91
        1
 92
        1
 93
       18
 72
     2
 10
-219.9817456229183
 20
-246.8923859816429
 40
1.639695123940186
 50
90.0
 51
164.9381082228957
 73
     1
 72
     2
 10
-220.4008734663799
 20
-246.779595619608
 40
1.205656168392995
 50
164.9381082229041
 51
195.0618917770972
 73
     1
 72
     2
 10
-219.9817456229183
 20
-246.6668052575732
 40
1.639695123940421
 50
195.0618917771015
 51
275.1581447696772
 73
     1
 72
     2
 10
-220.2706017176541
 20
-243.4669146743516
 40
4.852596863498825
 50
275.1581447696364
 51
285.9799912583384
 73
     1
 72
     1
 10
-218.9346738005374
 20
-248.131996980153
 11
-218.9346738005374
 21
-247.2594799733497
 72
     2
 10
-220.1127288425613
 20
-245.3691292541999
 40
2.227384008972773
 50
58.06909105006127
 51
71.55192388186677
 73
     0
 72
     2
 10
-219.6945611088994
 20
-246.6226750302365
 40
0.9059297849852801
 50
71.55192388191827
 51
113.3722778881817
 73
     0
 72
     2
 10
-219.8510011416025
 20
-246.9846670489465
 40
0.511580060196008
 50
113.3722778881551
 51
151.4785267423162
 73
     0
 72
     2
 10
-219.4736438835211
 20
-246.779595619608
 40
0.9410597353348789
 50
151.4785267423305
 51
208.521473257636
 73
     0
 72
     2
 10
-219.8510011416025
 20
-246.574524190269
 40
0.5115800601944143
 50
208.5214732575747
 51
250.6628567805147
 73
     0
 72
     2
 10
-219.7043311434988
 20
-246.9924791706519
 40
0.9545230068260935
 50
250.6628567805685
 51
270.0
 73
     0
 72
     1
 10
-219.7043311434988
 20
-246.0379561638258
 11
-218.6006918439307
 21
-246.0379561638258
 72
     1
 10
-218.6006918439307
 20
-246.0379561638258
 11
-218.6006918439307
 21
-248.3065003815133
 72
     1
 10
-218.6006918439307
 20
-248.3065003815133
 11
-217.407899141763
 21
-248.3065003815133
 72
     1
 10
-217.407899141763
 20
-248.3065003815133
 11
-217.407899141763
 21
-246.0379561638258
 72
     1
 10
-217.407899141763
 20
-246.0379561638258
 11
-216.5968001042896
 21
-246.0379561638258
 72
     1
 10
-216.5968001042896
 20
-246.0379561638258
 11
-216.5968001042896
 21
-245.2526908577022
 72
     1
 10
-216.5968001042896
 20
-245.2526908577022
 11
-219.9817456229183
 21
-245.2526908577027
 97
       18
330
16C
330
16B
330
16A
330
169
330
16E
330
108
330
1E6
330
1C7
330
1E5
330
1C8
330
1E4
330
1E3
330
109
330
1E2
330
1E1
330
1C9
330
1CA
330
16D
 75
     1
 76
     0
 52
45.0
 41
0.1
 77
     0
 78
     1
 53
45.0
 43
0.0
 44
0.0
 45
-0.0707106781186548
 46
0.0707106781186548
 79
     0
 98
        1
 10
0.0
 20
0.0
  0
HATCH
  5
21C
330
71
100
AcDbEntity
  8
1
  6
Continuous
 62
     2
100
AcDbHatch
 10
0.0
 20
0.0
 30
0.0
210
0.0
220
0.0
230
1.0
  2
_USER
 70
     0
 71
     1
 91
        4
 92
        1
 93
        8
 72
     2
 10
-244.0839047196113
 20
-242.3177449969298
 40
0.4242446153837989
 50
90.0
 51
180.0
 73
     1
 72
     1
 10
-244.5081493349941
 20
-242.3177449969298
 11
-244.5081493349941
 21
-247.88225576613
 72
     2
 10
-244.0839047196113
 20
-247.88225576613
 40
0.4242446153828041
 50
180.0
 51
270.0
 73
     1
 72
     1
 10
-244.0839047196113
 20
-248.3065003815133
 11
-238.6105926288945
 21
-248.3065003815133
 72
     2
 10
-238.6105926288945
 20
-247.88225576613
 40
0.4242446153833157
 50
270.0
 51
360.0
 73
     1
 72
     1
 10
-238.1863480135106
 20
-247.88225576613
 11
-238.1863480135106
 21
-242.3177449969298
 72
     2
 10
-238.6105926288945
 20
-242.3177449969298
 40
0.4242446153838841
 50
0.0
 51
90.0
 73
     1
 72
     1
 10
-238.6105926288945
 20
-241.893500381546
 11
-244.0839047196113
 21
-241.893500381546
 97
        8
330
1DA
330
137
330
1D9
330
138
330
1D0
330
135
330
1DB
330
136
 92
       16
 93
        1
 72
     2
 10
-241.4643190690938
 20
-244.6366272252853
 40
0.470978932778479
 50
0.0
 51
360.0
 73
     1
 97
        1
330
1EE
 92
       16
 93
        8
 72
     2
 10
-241.440504054421
 20
-244.6366272252853
 40
0.9118481501444712
 50
295.3740086781781
 51
424.6259913218067
 73
     1
 72
     2
 10
-240.9144613563331
 20
-243.5274856253175
 40
0.315716923076792
 50
115.3740086783541
 51
180.0
 73
     0
 72
     1
 10
-241.2301782794099
 20
-243.5274856253175
 11
-241.2301782794099
 21
-242.9219503368107
 72
     2
 10
-240.9144613563331
 20
-242.9219503368107
 40
0.3157169230760711
 50
180.0
 51
269.8110329574541
 73
     0
 72
     2
 10
-240.9088452210231
 20
-244.6247852843798
 40
2.018561131933237
 50
269.8110329575866
 51
450.1889670424133
 73
     0
 72
     2
 10
-240.9144613563331
 20
-246.3276202319488
 40
0.315716923076792
 50
90.1889670425459
 51
180.0
 73
     0
 72
     1
 10
-241.2301782794099
 20
-246.3276202319488
 11
-241.2301782794099
 21
-245.7457688252537
 72
     2
 10
-240.9144613563331
 20
-245.7457688252537
 40
0.3157169230765071
 50
180.0
 51
244.6259913216459
 73
     0
 97
        8
330
1E8
330
1C4
330
170
330
1E7
330
1C5
330
1C6
330
16F
330
1C3
 92
       16
 93
       12
 72
     1
 10
-243.4900100428648
 20
-247.5939448259564
 11
-242.0141767818552
 21
-247.5939448259564
 72
     2
 10
-242.0141767818552
 20
-247.2782279028797
 40
0.3157169230767067
 50
270.0
 51
360.0
 73
     1
 72
     1
 10
-241.6984598587786
 20
-247.2782279028797
 11
-241.6984598587786
 21
-245.7474569713481
 72
     2
 10
-242.0141767818552
 20
-245.7474569713481
 40
0.3157169230766215
 50
0.0
 51
64.80558935145781
 73
     1
 72
     2
 10
-241.4915923342802
 20
-244.6366272252853
 40
0.9118975235576147
 50
115.1944106485131
 51
244.8055893514718
 73
     0
 72
     2
 10
-242.0141767818552
 20
-243.5257974792231
 40
0.3157169230761581
 50
295.1944106485421
 51
360.0
 73
     1
 72
     1
 10
-241.6984598587786
 20
-243.5257974792231
 11
-241.6984598587786
 21
-242.9217728601626
 72
     2
 10
-242.0141767818552
 20
-242.9217728601626
 40
0.3157169230766215
 50
0.0
 51
90.0
 73
     1
 72
     1
 10
-242.0141767818552
 20
-242.6060559370864
 11
-243.4900100428648
 21
-242.6060559370864
 72
     2
 10
-243.4900100428648
 20
-242.9217728601626
 40
0.3157169230761951
 50
90.0
 51
180.0
 73
     1
 72
     1
 10
-243.8057269659405
 20
-242.9217728601626
 11
-243.8057269659405
 21
-247.2782279028797
 72
     2
 10
-243.4900100428648
 20
-247.2782279028797
 40
0.3157169230756836
 50
180.0
 51
270.0
 73
     1
 97
       12
330
13C
330
1CD
330
13B
330
1DE
330
13A
330
1DD
330
1CE
330
1CF
330
139
330
1DC
330
134
330
1DF
 75
     1
 76
     0
 52
45.0
 41
0.1
 77
     0
 78
     1
 53
45.0
 43
0.0
 44
0.0
 45
-0.0707106781186548
 46
0.0707106781186548
 79
     0
 98
        1
 10
0.0
 20
0.0
  0
HATCH
  5
21D
330
71
100
AcDbEntity
  8
1
  6
Continuous
 62
     2
100
AcDbHatch
 10
0.0
 20
0.0
 30
0.0
210
0.0
220
0.0
230
1.0
  2
_USER
 70
     0
 71
     1
 91
        4
 92
        1
 93
        8
 72
     2
 10
-244.0839047196113
 20
-242.3177449969298
 40
0.4242446153837989
 50
90.0
 51
180.0
 73
     1
 72
     1
 10
-244.5081493349941
 20
-242.3177449969298
 11
-244.5081493349941
 21
-247.88225576613
 72
     2
 10
-244.0839047196113
 20
-247.88225576613
 40
0.4242446153828041
 50
180.0
 51
270.0
 73
     1
 72
     1
 10
-244.0839047196113
 20
-248.3065003815133
 11
-238.6105926288945
 21
-248.3065003815133
 72
     2
 10
-238.6105926288945
 20
-247.88225576613
 40
0.4242446153833157
 50
270.0
 51
360.0
 73
     1
 72
     1
 10
-238.1863480135106
 20
-247.88225576613
 11
-238.1863480135106
 21
-242.3177449969298
 72
     2
 10
-238.6105926288945
 20
-242.3177449969298
 40
0.4242446153838841
 50
0.0
 51
90.0
 73
     1
 72
     1
 10
-238.6105926288945
 20
-241.893500381546
 11
-244.0839047196113
 21
-241.893500381546
 97
        8
330
1DA
330
137
330
1D9
330
138
330
1D0
330
135
330
1DB
330
136
 92
       16
 93
        1
 72
     2
 10
-241.4643190690938
 20
-244.6366272252853
 40
0.470978932778479
 50
0.0
 51
360.0
 73
     1
 97
        1
330
1EE
 92
       16
 93
        8
 72
     2
 10
-241.440504054421
 20
-244.6366272252853
 40
0.9118481501444712
 50
295.3740086781781
 51
424.6259913218067
 73
     1
 72
     2
 10
-240.9144613563331
 20
-243.5274856253175
 40
0.315716923076792
 50
115.3740086783541
 51
180.0
 73
     0
 72
     1
 10
-241.2301782794099
 20
-243.5274856253175
 11
-241.2301782794099
 21
-242.9219503368107
 72
     2
 10
-240.9144613563331
 20
-242.9219503368107
 40
0.3157169230760711
 50
180.0
 51
269.8110329574541
 73
     0
 72
     2
 10
-240.9088452210231
 20
-244.6247852843798
 40
2.018561131933237
 50
269.8110329575866
 51
450.1889670424133
 73
     0
 72
     2
 10
-240.9144613563331
 20
-246.3276202319488
 40
0.315716923076792
 50
90.1889670425459
 51
180.0
 73
     0
 72
     1
 10
-241.2301782794099
 20
-246.3276202319488
 11
-241.2301782794099
 21
-245.7457688252537
 72
     2
 10
-240.9144613563331
 20
-245.7457688252537
 40
0.3157169230765071
 50
180.0
 51
244.6259913216459
 73
     0
 97
        8
330
1E8
330
1C4
330
170
330
1E7
330
1C5
330
1C6
330
16F
330
1C3
 92
       16
 93
       12
 72
     1
 10
-243.4900100428648
 20
-247.5939448259564
 11
-242.0141767818552
 21
-247.5939448259564
 72
     2
 10
-242.0141767818552
 20
-247.2782279028797
 40
0.3157169230767067
 50
270.0
 51
360.0
 73
     1
 72
     1
 10
-241.6984598587786
 20
-247.2782279028797
 11
-241.6984598587786
 21
-245.7474569713481
 72
     2
 10
-242.0141767818552
 20
-245.7474569713481
 40
0.3157169230766215
 50
0.0
 51
64.80558935145781
 73
     1
 72
     2
 10
-241.4915923342802
 20
-244.6366272252853
 40
0.9118975235576147
 50
115.1944106485131
 51
244.8055893514718
 73
     0
 72
     2
 10
-242.0141767818552
 20
-243.5257974792231
 40
0.3157169230761581
 50
295.1944106485421
 51
360.0
 73
     1
 72
     1
 10
-241.6984598587786
 20
-243.5257974792231
 11
-241.6984598587786
 21
-242.9217728601626
 72
     2
 10
-242.0141767818552
 20
-242.9217728601626
 40
0.3157169230766215
 50
0.0
 51
90.0
 73
     1
 72
     1
 10
-242.0141767818552
 20
-242.6060559370864
 11
-243.4900100428648
 21
-242.6060559370864
 72
     2
 10
-243.4900100428648
 20
-242.9217728601626
 40
0.3157169230761951
 50
90.0
 51
180.0
 73
     1
 72
     1
 10
-243.8057269659405
 20
-242.9217728601626
 11
-243.8057269659405
 21
-247.2782279028797
 72
     2
 10
-243.4900100428648
 20
-247.2782279028797
 40
0.3157169230756836
 50
180.0
 51
270.0
 73
     1
 97
       12
330
13C
330
1CD
330
13B
330
1DE
330
13A
330
1DD
330
1CE
330
1CF
330
139
330
1DC
330
134
330
1DF
 75
     1
 76
     0
 52
45.0
 41
0.1
 77
     0
 78
     1
 53
45.0
 43
0.0
 44
0.0
 45
-0.0707106781186548
 46
0.0707106781186548
 79
     0
 98
        1
 10
0.0
 20
0.0
  0
HATCH
  5
21E
330
71
100
AcDbEntity
  8
1
  6
Continuous
 62
     2
100
AcDbHatch
 10
0.0
 20
0.0
 30
0.0
210
0.0
220
0.0
230
1.0
  2
_USER
 70
     0
 71
     1
 91
        2
 92
        1
 93
       12
 72
     2
 10
-229.408740715622
 20
-243.4204051434337
 40
1.526904761905911
 50
90.0
 51
270.0
 73
     1
 72
     1
 10
-229.408740715622
 20
-244.947309905339
 11
-226.258420991841
 21
-244.947309905339
 72
     1
 10
-226.258420991841
 20
-244.947309905339
 11
-226.258420991841
 21
-244.2492962998965
 72
     1
 10
-226.258420991841
 20
-244.2492962998965
 11
-227.5943488182687
 21
-244.2492962998965
 72
     1
 10
-227.5943488182687
 20
-244.2492962998965
 11
-227.5943488182687
 21
-243.7694119461548
 72
     1
 10
-227.5943488182687
 20
-243.7694119461548
 11
-226.258420991841
 21
-243.7694119461548
 72
     1
 10
-226.258420991841
 20
-243.7694119461548
 11
-226.258420991841
 21
-243.0713983407125
 72
     1
 10
-226.258420991841
 20
-243.0713983407125
 11
-227.5943488182687
 21
-243.0713983407125
 72
     1
 10
-227.5943488182687
 20
-243.0713983407125
 11
-227.5943488182687
 21
-242.5915139869708
 72
     1
 10
-227.5943488182687
 20
-242.5915139869708
 11
-226.258420991841
 21
-242.5915139869708
 72
     1
 10
-226.258420991841
 20
-242.5915139869708
 11
-226.258420991841
 21
-241.8935003815278
 72
     1
 10
-226.258420991841
 20
-241.8935003815278
 11
-229.408740715622
 21
-241.8935003815278
 97
       12
330
12B
330
125
330
14C
330
14B
330
14A
330
149
330
126
330
127
330
128
330
129
330
1CB
330
12A
 92
       16
 93
        4
 72
     2
 10
-228.9927286691105
 20
-243.4204051434337
 40
0.77179977867969
 50
141.8795802028388
 51
218.1204197971546
 73
     1
 72
     2
 10
-229.1924687054568
 20
-243.5771363215541
 40
0.5179085730134372
 50
218.1204197971511
 51
321.8795802028566
 73
     1
 72
     2
 10
-229.392208741803
 20
-243.4204051434337
 40
0.7717997786796198
 50
321.8795802028454
 51
398.1204197971612
 73
     1
 72
     2
 10
-229.1924687054568
 20
-243.2636739653132
 40
0.5179085730135266
 50
38.12041979714334
 51
141.8795802028489
 73
     1
 97
        4
330
1D8
330
1D7
330
1D2
330
1D1
 75
     1
 76
     0
 52
45.0
 41
0.1
 77
     0
 78
     1
 53
45.0
 43
0.0
 44
0.0
 45
-0.0707106781186548
 46
0.0707106781186548
 79
     0
 98
        1
 10
0.0
 20
0.0
  0
HATCH
  5
21F
330
71
100
AcDbEntity
  8
1
  6
Continuous
 62
     2
100
AcDbHatch
 10
0.0
 20
0.0
 30
0.0
210
0.0
220
0.0
230
1.0
  2
_USER
 70
     0
 71
     1
 91
        2
 92
        1
 93
       12
 72
     2
 10
-229.408740715622
 20
-243.4204051434337
 40
1.526904761905911
 50
90.0
 51
270.0
 73
     1
 72
     1
 10
-229.408740715622
 20
-244.947309905339
 11
-226.258420991841
 21
-244.947309905339
 72
     1
 10
-226.258420991841
 20
-244.947309905339
 11
-226.258420991841
 21
-244.2492962998965
 72
     1
 10
-226.258420991841
 20
-244.2492962998965
 11
-227.5943488182687
 21
-244.2492962998965
 72
     1
 10
-227.5943488182687
 20
-244.2492962998965
 11
-227.5943488182687
 21
-243.7694119461548
 72
     1
 10
-227.5943488182687
 20
-243.7694119461548
 11
-226.258420991841
 21
-243.7694119461548
 72
     1
 10
-226.258420991841
 20
-243.7694119461548
 11
-226.258420991841
 21
-243.0713983407125
 72
     1
 10
-226.258420991841
 20
-243.0713983407125
 11
-227.5943488182687
 21
-243.0713983407125
 72
     1
 10
-227.5943488182687
 20
-243.0713983407125
 11
-227.5943488182687
 21
-242.5915139869708
 72
     1
 10
-227.5943488182687
 20
-242.5915139869708
 11
-226.258420991841
 21
-242.5915139869708
 72
     1
 10
-226.258420991841
 20
-242.5915139869708
 11
-226.258420991841
 21
-241.8935003815278
 72
     1
 10
-226.258420991841
 20
-241.8935003815278
 11
-229.408740715622
 21
-241.8935003815278
 97
       12
330
12B
330
125
330
14C
330
14B
330
14A
330
149
330
126
330
127
330
128
330
129
330
1CB
330
12A
 92
       16
 93
        4
 72
     2
 10
-228.9927286691105
 20
-243.4204051434337
 40
0.77179977867969
 50
141.8795802028388
 51
218.1204197971546
 73
     1
 72
     2
 10
-229.1924687054568
 20
-243.5771363215541
 40
0.5179085730134372
 50
218.1204197971511
 51
321.8795802028566
 73
     1
 72
     2
 10
-229.392208741803
 20
-243.4204051434337
 40
0.7717997786796198
 50
321.8795802028454
 51
398.1204197971612
 73
     1
 72
     2
 10
-229.1924687054568
 20
-243.2636739653132
 40
0.5179085730135266
 50
38.12041979714334
 51
141.8795802028489
 73
     1
 97
        4
330
1D8
330
1D7
330
1D2
330
1D1
 75
     1
 76
     0
 52
45.0
 41
0.1
 77
     0
 78
     1
 53
45.0
 43
0.0
 44
0.0
 45
-0.0707106781186548
 46
0.0707106781186548
 79
     0
 98
        1
 10
0.0
 20
0.0
  0
HATCH
  5
220
330
71
100
AcDbEntity
  8
1
  6
Continuous
 62
     2
100
AcDbHatch
 10
0.0
 20
0.0
 30
0.0
210
0.0
220
0.0
230
1.0
  2
_USER
 70
     0
 71
     1
 91
        2
 92
        1
 93
        4
 72
     2
 10
-233.4343560780836
 20
-246.779595619608
 40
1.458034083651503
 50
117.5481481756634
 51
242.4518518243366
 73
     1
 72
     2
 10
-233.1534161862503
 20
-246.2410206093047
 40
2.065479772208497
 50
242.4518518243391
 51
297.5481481756875
 73
     1
 72
     2
 10
-232.872476294417
 20
-246.779595619608
 40
1.458034083652003
 50
297.548148175701
 51
422.451851824299
 73
     1
 72
     2
 10
-233.1534161862503
 20
-247.3181706299108
 40
2.065479772208593
 50
62.45185182430674
 51
117.5481481756667
 73
     1
 97
        4
330
1D6
330
1D3
330
1D5
330
1D4
 92
       16
 93
        4
 72
     2
 10
-233.1534161862503
 20
-246.6228644414875
 40
0.5179085730133174
 50
38.1204197971495
 51
141.8795802028563
 73
     1
 72
     2
 10
-232.9536761499042
 20
-246.779595619608
 40
0.7717997786794633
 50
141.8795802028363
 51
218.1204197971703
 73
     1
 72
     2
 10
-233.1534161862503
 20
-246.936326797728
 40
0.5179085730137529
 50
218.1204197971956
 51
321.8795802027985
 73
     1
 72
     2
 10
-233.3531562225967
 20
-246.779595619608
 40
0.7717997786797123
 50
321.8795802028401
 51
398.1204197971533
 73
     1
 97
        4
330
1B9
330
1BA
330
1BB
330
1B8
 75
     1
 76
     0
 52
45.0
 41
0.1
 77
     0
 78
     1
 53
45.0
 43
0.0
 44
0.0
 45
-0.0707106781186548
 46
0.0707106781186548
 79
     0
 98
        1
 10
0.0
 20
0.0
  0
HATCH
  5
221
330
71
100
AcDbEntity
  8
1
  6
Continuous
 62
     2
100
AcDbHatch
 10
0.0
 20
0.0
 30
0.0
210
0.0
220
0.0
230
1.0
  2
_USER
 70
     0
 71
     1
 91
        2
 92
        1
 93
        4
 72
     2
 10
-233.4343560780836
 20
-246.779595619608
 40
1.458034083651503
 50
117.5481481756634
 51
242.4518518243366
 73
     1
 72
     2
 10
-233.1534161862503
 20
-246.2410206093047
 40
2.065479772208497
 50
242.4518518243391
 51
297.5481481756875
 73
     1
 72
     2
 10
-232.872476294417
 20
-246.779595619608
 40
1.458034083652003
 50
297.548148175701
 51
422.451851824299
 73
     1
 72
     2
 10
-233.1534161862503
 20
-247.3181706299108
 40
2.065479772208593
 50
62.45185182430674
 51
117.5481481756667
 73
     1
 97
        4
330
1D6
330
1D3
330
1D5
330
1D4
 92
       16
 93
        4
 72
     2
 10
-233.1534161862503
 20
-246.6228644414875
 40
0.5179085730133174
 50
38.1204197971495
 51
141.8795802028563
 73
     1
 72
     2
 10
-232.9536761499042
 20
-246.779595619608
 40
0.7717997786794633
 50
141.8795802028363
 51
218.1204197971703
 73
     1
 72
     2
 10
-233.1534161862503
 20
-246.936326797728
 40
0.5179085730137529
 50
218.1204197971956
 51
321.8795802027985
 73
     1
 72
     2
 10
-233.3531562225967
 20
-246.779595619608
 40
0.7717997786797123
 50
321.8795802028401
 51
398.1204197971533
 73
     1
 97
        4
330
1B9
330
1BA
330
1BB
330
1B8
 75
     1
 76
     0
 52
45.0
 41
0.1
 77
     0
 78
     1
 53
45.0
 43
0.0
 44
0.0
 45
-0.0707106781186548
 46
0.0707106781186548
 79
     0
 98
        1
 10
0.0
 20
0.0
  0
HATCH
  5
222
330
71
100
AcDbEntity
  8
1
  6
Continuous
 62
     2
100
AcDbHatch
 10
0.0
 20
0.0
 30
0.0
210
0.0
220
0.0
230
1.0
  2
_USER
 70
     0
 71
     1
 91
        2
 92
        1
 93
        6
 72
     1
 10
-237.7092309326438
 20
-241.8935003815278
 11
-237.7092309326438
 21
-244.947309905339
 72
     1
 10
-237.7092309326438
 20
-244.947309905339
 11
-236.4687265223897
 21
-244.947309905339
 72
     1
 10
-236.4687265223897
 20
-244.947309905339
 11
-236.4687265223897
 21
-244.0042316641952
 72
     1
 10
-236.4687265223897
 20
-244.0042316641952
 11
-235.7099589346094
 21
-244.0042316641952
 72
     2
 10
-235.7099589346094
 20
-242.9488660228615
 40
1.055365641333708
 50
270.0
 51
450.0
 73
     1
 72
     1
 10
-235.7099589346094
 20
-241.8935003815278
 11
-237.7092309326438
 21
-241.8935003815278
 97
        6
330
1E0
330
13D
330
133
330
132
330
13F
330
13E
 92
       16
 93
        4
 72
     1
 10
-236.1514314608478
 20
-242.5566062269679
 11
-236.4687265223897
 21
-242.5566062269679
 72
     1
 10
-236.4687265223897
 20
-242.5566062269679
 11
-236.4687265223897
 21
-243.2623338763101
 72
     1
 10
-236.4687265223897
 20
-243.2623338763101
 11
-236.1514314608478
 21
-243.2623338763101
 72
     2
 10
-236.1514314608478
 20
-242.909470051639
 40
0.3528638246710898
 50
270.0
 51
450.0
 73
     1
 97
        4
330
140
330
131
330
141
330
1CC
 75
     1
 76
     0
 52
45.0
 41
0.1
 77
     0
 78
     1
 53
45.0
 43
0.0
 44
0.0
 45
-0.0707106781186548
 46
0.0707106781186548
 79
     0
 98
        1
 10
0.0
 20
0.0
  0
HATCH
  5
223
330
71
100
AcDbEntity
  8
1
  6
Continuous
 62
     2
100
AcDbHatch
 10
0.0
 20
0.0
 30
0.0
210
0.0
220
0.0
230
1.0
  2
_USER
 70
     0
 71
     1
 91
        2
 92
        1
 93
        6
 72
     1
 10
-237.7092309326438
 20
-241.8935003815278
 11
-237.7092309326438
 21
-244.947309905339
 72
     1
 10
-237.7092309326438
 20
-244.947309905339
 11
-236.4687265223897
 21
-244.947309905339
 72
     1
 10
-236.4687265223897
 20
-244.947309905339
 11
-236.4687265223897
 21
-244.0042316641952
 72
     1
 10
-236.4687265223897
 20
-244.0042316641952
 11
-235.7099589346094
 21
-244.0042316641952
 72
     2
 10
-235.7099589346094
 20
-242.9488660228615
 40
1.055365641333708
 50
270.0
 51
450.0
 73
     1
 72
     1
 10
-235.7099589346094
 20
-241.8935003815278
 11
-237.7092309326438
 21
-241.8935003815278
 97
        6
330
1E0
330
13D
330
133
330
132
330
13F
330
13E
 92
       16
 93
        4
 72
     1
 10
-236.1514314608478
 20
-242.5566062269679
 11
-236.4687265223897
 21
-242.5566062269679
 72
     1
 10
-236.4687265223897
 20
-242.5566062269679
 11
-236.4687265223897
 21
-243.2623338763101
 72
     1
 10
-236.4687265223897
 20
-243.2623338763101
 11
-236.1514314608478
 21
-243.2623338763101
 72
     2
 10
-236.1514314608478
 20
-242.909470051639
 40
0.3528638246710898
 50
270.0
 51
450.0
 73
     1
 97
        4
330
140
330
131
330
141
330
1CC
 75
     1
 76
     0
 52
45.0
 41
0.1
 77
     0
 78
     1
 53
45.0
 43
0.0
 44
0.0
 45
-0.0707106781186548
 46
0.0707106781186548
 79
     0
 98
        1
 10
0.0
 20
0.0
  0
HATCH
  5
224
330
71
100
AcDbEntity
  8
1
  6
Continuous
 62
     2
100
AcDbHatch
 10
0.0
 20
0.0
 30
0.0
210
0.0
220
0.0
230
1.0
  2
_USER
 70
     0
 71
     1
 91
        1
 92
        1
 93
       12
 72
     1
 10
-218.0949477382106
 20
-241.8935003815278
 11
-216.6922235204634
 21
-241.8935003815278
 72
     1
 10
-216.6922235204634
 20
-241.8935003815278
 11
-217.9947531512299
 21
-243.366450911564
 72
     1
 10
-217.9947531512299
 20
-243.366450911564
 11
-216.5968001042896
 21
-244.947309905339
 72
     1
 10
-216.5968001042896
 20
-244.947309905339
 11
-217.9995243220379
 21
-244.947309905339
 72
     1
 10
-217.9995243220379
 20
-244.947309905339
 11
-218.6961152601034
 21
-244.1595781200453
 72
     1
 10
-218.6961152601034
 20
-244.1595781200453
 11
-219.3927061981691
 21
-244.947309905339
 72
     1
 10
-219.3927061981691
 20
-244.947309905339
 11
-220.7954304159173
 21
-244.947309905339
 72
     1
 10
-220.7954304159173
 20
-244.947309905339
 11
-219.397477368977
 21
-243.366450911564
 72
     1
 10
-219.397477368977
 20
-243.366450911564
 11
-220.7000069997445
 21
-241.8935003815278
 72
     1
 10
-220.7000069997445
 20
-241.8935003815278
 11
-219.2972827819952
 21
-241.8935003815278
 72
     1
 10
-219.2972827819952
 20
-241.8935003815278
 11
-218.6961152601034
 21
-242.5733237030833
 72
     1
 10
-218.6961152601034
 20
-242.5733237030833
 11
-218.0949477382106
 21
-241.8935003815278
 97
       12
330
10C
330
165
330
164
330
163
330
162
330
10D
330
10E
330
10A
330
10B
330
168
330
167
330
166
 75
     1
 76
     0
 52
45.0
 41
0.1
 77
     0
 78
     1
 53
45.0
 43
0.0
 44
0.0
 45
-0.0707106781186548
 46
0.0707106781186548
 79
     0
 98
        1
 10
0.0
 20
0.0
  0
HATCH
  5
225
330
71
100
AcDbEntity
  8
1
  6
Continuous
 62
     2
100
AcDbHatch
 10
0.0
 20
0.0
 30
0.0
210
0.0
220
0.0
230
1.0
  2
_USER
 70
     0
 71
     1
 91
        1
 92
        1
 93
       12
 72
     1
 10
-218.0949477382106
 20
-241.8935003815278
 11
-216.6922235204634
 21
-241.8935003815278
 72
     1
 10
-216.6922235204634
 20
-241.8935003815278
 11
-217.9947531512299
 21
-243.366450911564
 72
     1
 10
-217.9947531512299
 20
-243.366450911564
 11
-216.5968001042896
 21
-244.947309905339
 72
     1
 10
-216.5968001042896
 20
-244.947309905339
 11
-217.9995243220379
 21
-244.947309905339
 72
     1
 10
-217.9995243220379
 20
-244.947309905339
 11
-218.6961152601034
 21
-244.1595781200453
 72
     1
 10
-218.6961152601034
 20
-244.1595781200453
 11
-219.3927061981691
 21
-244.947309905339
 72
     1
 10
-219.3927061981691
 20
-244.947309905339
 11
-220.7954304159173
 21
-244.947309905339
 72
     1
 10
-220.7954304159173
 20
-244.947309905339
 11
-219.397477368977
 21
-243.366450911564
 72
     1
 10
-219.397477368977
 20
-243.366450911564
 11
-220.7000069997445
 21
-241.8935003815278
 72
     1
 10
-220.7000069997445
 20
-241.8935003815278
 11
-219.2972827819952
 21
-241.8935003815278
 72
     1
 10
-219.2972827819952
 20
-241.8935003815278
 11
-218.6961152601034
 21
-242.5733237030833
 72
     1
 10
-218.6961152601034
 20
-242.5733237030833
 11
-218.0949477382106
 21
-241.8935003815278
 97
       12
330
10C
330
165
330
164
330
163
330
162
330
10D
330
10E
330
10A
330
10B
330
168
330
167
330
166
 75
     1
 76
     0
 52
45.0
 41
0.1
 77
     0
 78
     1
 53
45.0
 43
0.0
 44
0.0
 45
-0.0707106781186548
 46
0.0707106781186548
 79
     0
 98
        1
 10
0.0
 20
0.0
  0
HATCH
  5
226
330
71
100
AcDbEntity
  8
1
  6
Continuous
 62
     2
100
AcDbHatch
 10
0.0
 20
0.0
 30
0.0
210
0.0
220
0.0
230
1.0
  2
_USER
 70
     0
 71
     1
 91
        1
 92
        1
 93
        4
 72
     1
 10
-220.9147096861342
 20
-241.8935003815278
 11
-220.9147096861342
 21
-244.947309905339
 72
     1
 10
-220.9147096861342
 20
-244.947309905339
 11
-222.1552140963871
 21
-244.947309905339
 72
     1
 10
-222.1552140963871
 20
-244.947309905339
 11
-222.1552140963871
 21
-241.8935003815278
 72
     1
 10
-222.1552140963871
 20
-241.8935003815278
 11
-220.9147096861342
 21
-241.8935003815278
 97
        4
330
160
330
10F
330
15F
330
161
 75
     1
 76
     0
 52
45.0
 41
0.1
 77
     0
 78
     1
 53
45.0
 43
0.0
 44
0.0
 45
-0.0707106781186548
 46
0.0707106781186548
 79
     0
 98
        1
 10
0.0
 20
0.0
  0
HATCH
  5
227
330
71
100
AcDbEntity
  8
1
  6
Continuous
 62
     2
100
AcDbHatch
 10
0.0
 20
0.0
 30
0.0
210
0.0
220
0.0
230
1.0
  2
_USER
 70
     0
 71
     1
 91
        1
 92
        1
 93
        4
 72
     1
 10
-220.9147096861342
 20
-241.8935003815278
 11
-220.9147096861342
 21
-244.947309905339
 72
     1
 10
-220.9147096861342
 20
-244.947309905339
 11
-222.1552140963871
 21
-244.947309905339
 72
     1
 10
-222.1552140963871
 20
-244.947309905339
 11
-222.1552140963871
 21
-241.8935003815278
 72
     1
 10
-222.1552140963871
 20
-241.8935003815278
 11
-220.9147096861342
 21
-241.8935003815278
 97
        4
330
160
330
10F
330
15F
330
161
 75
     1
 76
     0
 52
45.0
 41
0.1
 77
     0
 78
     1
 53
45.0
 43
0.0
 44
0.0
 45
-0.0707106781186548
 46
0.0707106781186548
 79
     0
 98
        1
 10
0.0
 20
0.0
  0
HATCH
  5
228
330
71
100
AcDbEntity
  8
1
  6
Continuous
 62
     2
100
AcDbHatch
 10
0.0
 20
0.0
 30
0.0
210
0.0
220
0.0
230
1.0
  2
_USER
 70
     0
 71
     1
 91
        2
 92
        1
 93
        8
 72
     1
 10
-221.3051536896662
 20
-248.3065003815133
 11
-222.5456580999201
 21
-248.3065003815133
 72
     1
 10
-222.5456580999201
 20
-248.3065003815133
 11
-222.7571381533959
 21
-247.7655398372954
 72
     1
 10
-222.7571381533959
 20
-247.7655398372954
 11
-223.8895797300697
 21
-247.7655398372954
 72
     1
 10
-223.8895797300697
 20
-247.7655398372954
 11
-224.1010597835455
 21
-248.3065003815133
 72
     1
 10
-224.1010597835455
 20
-248.3065003815133
 11
-225.3415641937985
 21
-248.3065003815133
 72
     1
 10
-225.3415641937985
 20
-248.3065003815133
 11
-223.9436111468592
 21
-245.2526908577022
 72
     1
 10
-223.9436111468592
 20
-245.2526908577022
 11
-222.7031067366065
 21
-245.2526908577022
 72
     1
 10
-222.7031067366065
 20
-245.2526908577022
 11
-221.3051536896662
 21
-248.3065003815133
 97
        8
330
15B
330
115
330
15A
330
15D
330
112
330
15C
330
113
330
114
 92
       16
 93
        3
 72
     1
 10
-223.6235241789247
 20
-247.0849765719888
 11
-223.0231937045422
 21
-247.0849765719888
 72
     1
 10
-223.0231937045422
 20
-247.0849765719888
 11
-223.3233589417323
 21
-246.3171616060021
 72
     1
 10
-223.3233589417323
 20
-246.3171616060021
 11
-223.6235241789247
 21
-247.0849765719888
 97
        3
330
111
330
110
330
15E
 75
     1
 76
     0
 52
45.0
 41
0.1
 77
     0
 78
     1
 53
45.0
 43
0.0
 44
0.0
 45
-0.0707106781186548
 46
0.0707106781186548
 79
     0
 98
        1
 10
0.0
 20
0.0
  0
HATCH
  5
229
330
71
100
AcDbEntity
  8
1
  6
Continuous
 62
     2
100
AcDbHatch
 10
0.0
 20
0.0
 30
0.0
210
0.0
220
0.0
230
1.0
  2
_USER
 70
     0
 71
     1
 91
        2
 92
        1
 93
        8
 72
     1
 10
-221.3051536896662
 20
-248.3065003815133
 11
-222.5456580999201
 21
-248.3065003815133
 72
     1
 10
-222.5456580999201
 20
-248.3065003815133
 11
-222.7571381533959
 21
-247.7655398372954
 72
     1
 10
-222.7571381533959
 20
-247.7655398372954
 11
-223.8895797300697
 21
-247.7655398372954
 72
     1
 10
-223.8895797300697
 20
-247.7655398372954
 11
-224.1010597835455
 21
-248.3065003815133
 72
     1
 10
-224.1010597835455
 20
-248.3065003815133
 11
-225.3415641937985
 21
-248.3065003815133
 72
     1
 10
-225.3415641937985
 20
-248.3065003815133
 11
-223.9436111468592
 21
-245.2526908577022
 72
     1
 10
-223.9436111468592
 20
-245.2526908577022
 11
-222.7031067366065
 21
-245.2526908577022
 72
     1
 10
-222.7031067366065
 20
-245.2526908577022
 11
-221.3051536896662
 21
-248.3065003815133
 97
        8
330
15B
330
115
330
15A
330
15D
330
112
330
15C
330
113
330
114
 92
       16
 93
        3
 72
     1
 10
-223.6235241789247
 20
-247.0849765719888
 11
-223.0231937045422
 21
-247.0849765719888
 72
     1
 10
-223.0231937045422
 20
-247.0849765719888
 11
-223.3233589417323
 21
-246.3171616060021
 72
     1
 10
-223.3233589417323
 20
-246.3171616060021
 11
-223.6235241789247
 21
-247.0849765719888
 97
        3
330
111
330
110
330
15E
 75
     1
 76
     0
 52
45.0
 41
0.1
 77
     0
 78
     1
 53
45.0
 43
0.0
 44
0.0
 45
-0.0707106781186548
 46
0.0707106781186548
 79
     0
 98
        1
 10
0.0
 20
0.0
  0
HATCH
  5
22A
330
71
100
AcDbEntity
  8
1
  6
Continuous
 62
     2
100
AcDbHatch
 10
0.0
 20
0.0
 30
0.0
210
0.0
220
0.0
230
1.0
  2
_USER
 70
     0
 71
     1
 91
        1
 92
        1
 93
        8
 72
     1
 10
-227.4990763329807
 20
-245.2526908577022
 11
-227.4990763329807
 21
-246.0379561638258
 72
     1
 10
-227.4990763329807
 20
-246.0379561638258
 11
-226.6879772955061
 21
-246.0379561638258
 72
     1
 10
-226.6879772955061
 20
-246.0379561638258
 11
-226.6879772955061
 21
-248.3065003815133
 72
     1
 10
-226.6879772955061
 20
-248.3065003815133
 11
-225.4951845933396
 21
-248.3065003815133
 72
     1
 10
-225.4951845933396
 20
-248.3065003815133
 11
-225.4951845933396
 21
-246.0379561638258
 72
     1
 10
-225.4951845933396
 20
-246.0379561638258
 11
-224.6840855558671
 21
-246.0379561638258
 72
     1
 10
-224.6840855558671
 20
-246.0379561638258
 11
-224.6840855558671
 21
-245.2526908577022
 72
     1
 10
-224.6840855558671
 20
-245.2526908577022
 11
-227.4990763329807
 21
-245.2526908577022
 97
        8
330
157
330
156
330
155
330
116
330
117
330
159
330
118
330
158
 75
     1
 76
     0
 52
45.0
 41
0.1
 77
     0
 78
     1
 53
45.0
 43
0.0
 44
0.0
 45
-0.0707106781186548
 46
0.0707106781186548
 79
     0
 98
        1
 10
0.0
 20
0.0
  0
HATCH
  5
22B
330
71
100
AcDbEntity
  8
1
  6
Continuous
 62
     2
100
AcDbHatch
 10
0.0
 20
0.0
 30
0.0
210
0.0
220
0.0
230
1.0
  2
_USER
 70
     0
 71
     1
 91
        1
 92
        1
 93
        8
 72
     1
 10
-227.4990763329807
 20
-245.2526908577022
 11
-227.4990763329807
 21
-246.0379561638258
 72
     1
 10
-227.4990763329807
 20
-246.0379561638258
 11
-226.6879772955061
 21
-246.0379561638258
 72
     1
 10
-226.6879772955061
 20
-246.0379561638258
 11
-226.6879772955061
 21
-248.3065003815133
 72
     1
 10
-226.6879772955061
 20
-248.3065003815133
 11
-225.4951845933396
 21
-248.3065003815133
 72
     1
 10
-225.4951845933396
 20
-248.3065003815133
 11
-225.4951845933396
 21
-246.0379561638258
 72
     1
 10
-225.4951845933396
 20
-246.0379561638258
 11
-224.6840855558671
 21
-246.0379561638258
 72
     1
 10
-224.6840855558671
 20
-246.0379561638258
 11
-224.6840855558671
 21
-245.2526908577022
 72
     1
 10
-224.6840855558671
 20
-245.2526908577022
 11
-227.4990763329807
 21
-245.2526908577022
 97
        8
330
157
330
156
330
155
330
116
330
117
330
159
330
118
330
158
 75
     1
 76
     0
 52
45.0
 41
0.1
 77
     0
 78
     1
 53
45.0
 43
0.0
 44
0.0
 45
-0.0707106781186548
 46
0.0707106781186548
 79
     0
 98
        1
 10
0.0
 20
0.0
  0
HATCH
  5
22C
330
71
100
AcDbEntity
  8
1
  6
Continuous
 62
     2
100
AcDbHatch
 10
0.0
 20
0.0
 30
0.0
210
0.0
220
0.0
230
1.0
  2
_USER
 70
     0
 71
     1
 91
        1
 92
        1
 93
       10
 72
     1
 10
-224.8270697492416
 20
-241.8935003815278
 11
-226.0198624514081
 21
-241.8935003815278
 72
     1
 10
-226.0198624514081
 20
-241.8935003815278
 11
-226.0198624514081
 21
-244.947309905339
 72
     1
 10
-226.0198624514081
 20
-244.947309905339
 11
-224.8270697492416
 21
-244.947309905339
 72
     1
 10
-224.8270697492416
 20
-244.947309905339
 11
-224.8270697492416
 21
-243.6385343951343
 72
     1
 10
-224.8270697492416
 20
-243.6385343951343
 11
-223.5865653389876
 21
-244.947309905339
 72
     1
 10
-223.5865653389876
 20
-244.947309905339
 11
-222.393772636821
 21
-244.947309905339
 72
     1
 10
-222.393772636821
 20
-244.947309905339
 11
-222.393772636821
 21
-241.8935003815278
 72
     1
 10
-222.393772636821
 20
-241.8935003815278
 11
-223.5865653389876
 21
-241.8935003815278
 72
     1
 10
-223.5865653389876
 20
-241.8935003815278
 11
-223.5865653389876
 21
-243.202275891733
 72
     1
 10
-223.5865653389876
 20
-243.202275891733
 11
-224.8270697492416
 21
-241.8935003815278
 97
       10
330
151
330
11B
330
11C
330
11D
330
11E
330
154
330
119
330
153
330
152
330
11A
 75
     1
 76
     0
 52
45.0
 41
0.1
 77
     0
 78
     1
 53
45.0
 43
0.0
 44
0.0
 45
-0.0707106781186548
 46
0.0707106781186548
 79
     0
 98
        1
 10
0.0
 20
0.0
  0
HATCH
  5
22D
330
71
100
AcDbEntity
  8
1
  6
Continuous
 62
     2
100
AcDbHatch
 10
0.0
 20
0.0
 30
0.0
210
0.0
220
0.0
230
1.0
  2
_USER
 70
     0
 71
     1
 91
        1
 92
        1
 93
       10
 72
     1
 10
-224.8270697492416
 20
-241.8935003815278
 11
-226.0198624514081
 21
-241.8935003815278
 72
     1
 10
-226.0198624514081
 20
-241.8935003815278
 11
-226.0198624514081
 21
-244.947309905339
 72
     1
 10
-226.0198624514081
 20
-244.947309905339
 11
-224.8270697492416
 21
-244.947309905339
 72
     1
 10
-224.8270697492416
 20
-244.947309905339
 11
-224.8270697492416
 21
-243.6385343951343
 72
     1
 10
-224.8270697492416
 20
-243.6385343951343
 11
-223.5865653389876
 21
-244.947309905339
 72
     1
 10
-223.5865653389876
 20
-244.947309905339
 11
-222.393772636821
 21
-244.947309905339
 72
     1
 10
-222.393772636821
 20
-244.947309905339
 11
-222.393772636821
 21
-241.8935003815278
 72
     1
 10
-222.393772636821
 20
-241.8935003815278
 11
-223.5865653389876
 21
-241.8935003815278
 72
     1
 10
-223.5865653389876
 20
-241.8935003815278
 11
-223.5865653389876
 21
-243.202275891733
 72
     1
 10
-223.5865653389876
 20
-243.202275891733
 11
-224.8270697492416
 21
-241.8935003815278
 97
       10
330
151
330
11B
330
11C
330
11D
330
11E
330
154
330
119
330
153
330
152
330
11A
 75
     1
 76
     0
 52
45.0
 41
0.1
 77
     0
 78
     1
 53
45.0
 43
0.0
 44
0.0
 45
-0.0707106781186548
 46
0.0707106781186548
 79
     0
 98
        1
 10
0.0
 20
0.0
  0
HATCH
  5
22E
330
71
100
AcDbEntity
  8
1
  6
Continuous
 62
     2
100
AcDbHatch
 10
0.0
 20
0.0
 30
0.0
210
0.0
220
0.0
230
1.0
  2
_USER
 70
     0
 71
     1
 91
        1
 92
        1
 93
       10
 72
     1
 10
-230.0755085696602
 20
-245.2526908577022
 11
-231.2683012718278
 21
-245.2526908577022
 72
     1
 10
-231.2683012718278
 20
-245.2526908577022
 11
-231.2683012718278
 21
-248.3065003815133
 72
     1
 10
-231.2683012718278
 20
-248.3065003815133
 11
-230.0755085696602
 21
-248.3065003815133
 72
     1
 10
-230.0755085696602
 20
-248.3065003815133
 11
-230.0755085696602
 21
-246.9977248713087
 72
     1
 10
-230.0755085696602
 20
-246.9977248713087
 11
-228.8350041594073
 21
-248.3065003815133
 72
     1
 10
-228.8350041594073
 20
-248.3065003815133
 11
-227.6422114572409
 21
-248.3065003815133
 72
     1
 10
-227.6422114572409
 20
-248.3065003815133
 11
-227.6422114572409
 21
-245.2526908577022
 72
     1
 10
-227.6422114572409
 20
-245.2526908577022
 11
-228.8350041594073
 21
-245.2526908577022
 72
     1
 10
-228.8350041594073
 20
-245.2526908577022
 11
-228.8350041594073
 21
-246.5614663679073
 72
     1
 10
-228.8350041594073
 20
-246.5614663679073
 11
-230.0755085696602
 21
-245.2526908577022
 97
       10
330
120
330
121
330
122
330
14E
330
123
330
124
330
14D
330
150
330
14F
330
11F
 75
     1
 76
     0
 52
45.0
 41
0.1
 77
     0
 78
     1
 53
45.0
 43
0.0
 44
0.0
 45
-0.0707106781186548
 46
0.0707106781186548
 79
     0
 98
        1
 10
0.0
 20
0.0
  0
HATCH
  5
22F
330
71
100
AcDbEntity
  8
1
  6
Continuous
 62
     2
100
AcDbHatch
 10
0.0
 20
0.0
 30
0.0
210
0.0
220
0.0
230
1.0
  2
_USER
 70
     0
 71
     1
 91
        1
 92
        1
 93
       10
 72
     1
 10
-230.0755085696602
 20
-245.2526908577022
 11
-231.2683012718278
 21
-245.2526908577022
 72
     1
 10
-231.2683012718278
 20
-245.2526908577022
 11
-231.2683012718278
 21
-248.3065003815133
 72
     1
 10
-231.2683012718278
 20
-248.3065003815133
 11
-230.0755085696602
 21
-248.3065003815133
 72
     1
 10
-230.0755085696602
 20
-248.3065003815133
 11
-230.0755085696602
 21
-246.9977248713087
 72
     1
 10
-230.0755085696602
 20
-246.9977248713087
 11
-228.8350041594073
 21
-248.3065003815133
 72
     1
 10
-228.8350041594073
 20
-248.3065003815133
 11
-227.6422114572409
 21
-248.3065003815133
 72
     1
 10
-227.6422114572409
 20
-248.3065003815133
 11
-227.6422114572409
 21
-245.2526908577022
 72
     1
 10
-227.6422114572409
 20
-245.2526908577022
 11
-228.8350041594073
 21
-245.2526908577022
 72
     1
 10
-228.8350041594073
 20
-245.2526908577022
 11
-228.8350041594073
 21
-246.5614663679073
 72
     1
 10
-228.8350041594073
 20
-246.5614663679073
 11
-230.0755085696602
 21
-245.2526908577022
 97
       10
330
120
330
121
330
122
330
14E
330
123
330
124
330
14D
330
150
330
14F
330
11F
 75
     1
 76
     0
 52
45.0
 41
0.1
 77
     0
 78
     1
 53
45.0
 43
0.0
 44
0.0
 45
-0.0707106781186548
 46
0.0707106781186548
 79
     0
 98
        1
 10
0.0
 20
0.0
  0
HATCH
  5
230
330
71
100
AcDbEntity
  8
1
  6
Continuous
 62
     2
100
AcDbHatch
 10
0.0
 20
0.0
 30
0.0
210
0.0
220
0.0
230
1.0
  2
_USER
 70
     0
 71
     1
 91
        1
 92
        1
 93
       12
 72
     1
 10
-231.0773035085956
 20
-241.8935003815278
 11
-231.0773035085956
 21
-244.947309905339
 72
     1
 10
-231.0773035085956
 20
-244.947309905339
 11
-232.270096210762
 21
-244.947309905339
 72
     1
 10
-232.270096210762
 20
-244.947309905339
 11
-232.270096210762
 21
-243.8130377964952
 72
     1
 10
-232.270096210762
 20
-243.8130377964952
 11
-233.3197537886695
 21
-243.8130377964952
 72
     1
 10
-233.3197537886695
 20
-243.8130377964952
 11
-233.3197537886695
 21
-244.947309905339
 72
     1
 10
-233.3197537886695
 20
-244.947309905339
 11
-234.5125464908361
 21
-244.947309905339
 72
     1
 10
-234.5125464908361
 20
-244.947309905339
 11
-234.5125464908361
 21
-241.8935003815278
 72
     1
 10
-234.5125464908361
 20
-241.8935003815278
 11
-233.3197537886695
 21
-241.8935003815278
 72
     1
 10
-233.3197537886695
 20
-241.8935003815278
 11
-233.3197537886695
 21
-242.9623337148624
 72
     1
 10
-233.3197537886695
 20
-242.9623337148624
 11
-232.270096210762
 21
-242.9623337148624
 72
     1
 10
-232.270096210762
 20
-242.9623337148624
 11
-232.270096210762
 21
-241.8935003815278
 72
     1
 10
-232.270096210762
 20
-241.8935003815278
 11
-231.0773035085956
 21
-241.8935003815278
 97
       12
330
148
330
147
330
146
330
12E
330
12F
330
145
330
130
330
144
330
143
330
142
330
12C
330
12D
 75
     1
 76
     0
 52
45.0
 41
0.1
 77
     0
 78
     1
 53
45.0
 43
0.0
 44
0.0
 45
-0.0707106781186548
 46
0.0707106781186548
 79
     0
 98
        1
 10
0.0
 20
0.0
  0
HATCH
  5
231
330
71
100
AcDbEntity
  8
1
  6
Continuous
 62
     2
100
AcDbHatch
 10
0.0
 20
0.0
 30
0.0
210
0.0
220
0.0
230
1.0
  2
_USER
 70
     0
 71
     1
 91
        1
 92
        1
 93
       12
 72
     1
 10
-231.0773035085956
 20
-241.8935003815278
 11
-231.0773035085956
 21
-244.947309905339
 72
     1
 10
-231.0773035085956
 20
-244.947309905339
 11
-232.270096210762
 21
-244.947309905339
 72
     1
 10
-232.270096210762
 20
-244.947309905339
 11
-232.270096210762
 21
-243.8130377964952
 72
     1
 10
-232.270096210762
 20
-243.8130377964952
 11
-233.3197537886695
 21
-243.8130377964952
 72
     1
 10
-233.3197537886695
 20
-243.8130377964952
 11
-233.3197537886695
 21
-244.947309905339
 72
     1
 10
-233.3197537886695
 20
-244.947309905339
 11
-234.5125464908361
 21
-244.947309905339
 72
     1
 10
-234.5125464908361
 20
-244.947309905339
 11
-234.5125464908361
 21
-241.8935003815278
 72
     1
 10
-234.5125464908361
 20
-241.8935003815278
 11
-233.3197537886695
 21
-241.8935003815278
 72
     1
 10
-233.3197537886695
 20
-241.8935003815278
 11
-233.3197537886695
 21
-242.9623337148624
 72
     1
 10
-233.3197537886695
 20
-242.9623337148624
 11
-232.270096210762
 21
-242.9623337148624
 72
     1
 10
-232.270096210762
 20
-242.9623337148624
 11
-232.270096210762
 21
-241.8935003815278
 72
     1
 10
-232.270096210762
 20
-241.8935003815278
 11
-231.0773035085956
 21
-241.8935003815278
 97
       12
330
148
330
147
330
146
330
12E
330
12F
330
145
330
130
330
144
330
143
330
142
330
12C
330
12D
 75
     1
 76
     0
 52
45.0
 41
0.1
 77
     0
 78
     1
 53
45.0
 43
0.0
 44
0.0
 45
-0.0707106781186548
 46
0.0707106781186548
 79
     0
 98
        1
 10
0.0
 20
0.0
  0
ENDBLK
  5
73
330
71
100
AcDbEntity
  8
0
100
AcDbBlockEnd
  0
BLOCK
  5
75
330
74
100
AcDbEntity
  8
0
100
AcDbBlockBegin
  2
_punkt
 70
     0
 10
-119.1999996948067
 20
-255.6000003815296
 30
0.0
  3
_punkt
  1

  0
LINE
  5
232
330
74
100
AcDbEntity
  8
1
  6
Continuous
 62
     2
100
AcDbLine
 10
-119.1999996948067
 20
-255.6000003815296
 30
0.0
 11
-119.1999996948067
 21
-260.6000003815297
 31
0.0
  0
LINE
  5
233
330
74
100
AcDbEntity
  8
1
  6
Continuous
 62
     2
100
AcDbLine
 10
-119.1999996948067
 20
-255.6000003815296
 30
0.0
 11
-114.1999996948077
 21
-255.6000003815296
 31
0.0
  0
ENDBLK
  5
76
330
74
100
AcDbEntity
  8
0
100
AcDbBlockEnd
  0
BLOCK
  5
7A
330
77
100
AcDbEntity
  8
0
100
AcDbBlockBegin
  2
A4I_CS
 70
     0
 10
-119.1999996948067
 20
-260.6000003815297
 30
0.0
  3
A4I_CS
  1

  0
INSERT
  5
78
330
77
100
AcDbEntity
  8
1
100
AcDbBlockReference
  2
_rahmen
 10
-119.1999996948067
 20
-260.6000003815297
 30
0.0
  0
INSERT
  5
79
330
77
100
AcDbEntity
  8
1
100
AcDbBlockReference
  2
_punkt
 10
-119.1999996948067
 20
-255.6000003815296
 30
0.0
  0
ENDBLK
  5
7B
330
77
100
AcDbEntity
  8
0
100
AcDbBlockEnd
  0
BLOCK
  5
BD
330
B6
100
AcDbEntity
  8
0
100
AcDbBlockBegin
  2
*D16
 70
     1
 10
0.0
 20
0.0
 30
0.0
  3
*D16
  1

  0
LINE
  5
B7
330
B6
100
AcDbEntity
  8
1
  6
Continuous
 62
     2
100
AcDbLine
 10
-161.3500003051858
 20
-81.00000019075488
 30
0.0
 11
-161.3500003051858
 21
-95.60000019075487
 31
0.0
  0
LINE
  5
B8
330
B6
100
AcDbEntity
  8
1
  6
Continuous
 62
     2
100
AcDbLine
 10
-156.3500003051858
 20
-95.60000019075487
 30
0.0
 11
-162.1000003051858
 21
-95.60000019075487
 31
0.0
  0
LINE
  5
B9
330
B6
100
AcDbEntity
  8
1
  6
Continuous
 62
     2
100
AcDbLine
 10
-156.3500003051858
 20
-81.00000019075488
 30
0.0
 11
-162.1000003051858
 21
-81.00000019075488
 31
0.0
  0
SOLID
  5
BA
330
B6
100
AcDbEntity
  8
1
 62
     2
100
AcDbTrace
 10
-161.1196084344079
 20
-82.75000019075488
 30
0.0
 11
-161.5803921759637
 21
-82.75000019075488
 31
0.0
 12
-161.3500003051858
 22
-81.00000019075488
 32
0.0
 13
-161.3500003051858
 23
-81.00000019075488
 33
0.0
  0
SOLID
  5
BB
330
B6
100
AcDbEntity
  8
1
 62
     2
100
AcDbTrace
 10
-161.5803921759637
 20
-93.85000019075487
 30
0.0
 11
-161.1196084344079
 21
-93.85000019075487
 31
0.0
 12
-161.3500003051858
 22
-95.60000019075487
 32
0.0
 13
-161.3500003051858
 23
-95.60000019075487
 33
0.0
  0
MTEXT
  5
BC
330
B6
100
AcDbEntity
  8
1
 62
     3
100
AcDbMText
 10
-162.2750003051858
 20
-90.44375019075487
 30
0.0
 40
1.75
 41
0.0
 71
     7
 72
     1
  1
14,6
  7
CONVERTER_11
 11
0.0
 21
1.0
 31
0.0
 73
     1
 44
0.60024009603842
  0
ENDBLK
  5
BE
330
B6
100
AcDbEntity
  8
0
100
AcDbBlockEnd
  0
BLOCK
  5
EC
330
E5
100
AcDbEntity
  8
0
100
AcDbBlockBegin
  2
*D17
 70
     1
 10
0.0
 20
0.0
 30
0.0
  3
*D17
  1

  0
LINE
  5
E6
330
E5
100
AcDbEntity
  8
1
  6
Continuous
 62
     2
100
AcDbLine
 10
-156.3500003051857
 20
-71.00000000003989
 30
0.0
 11
-133.8500003051857
 21
-71.00000000003989
 31
0.0
  0
LINE
  5
E7
330
E5
100
AcDbEntity
  8
1
  6
Continuous
 62
     2
100
AcDbLine
 10
-133.8500003051857
 20
-66.00000000003989
 30
0.0
 11
-133.8500003051857
 21
-71.75000000003989
 31
0.0
  0
LINE
  5
E8
330
E5
100
AcDbEntity
  8
1
  6
Continuous
 62
     2
100
AcDbLine
 10
-156.3500003051857
 20
-66.00000000003989
 30
0.0
 11
-156.3500003051857
 21
-71.75000000003989
 31
0.0
  0
SOLID
  5
E9
330
E5
100
AcDbEntity
  8
1
 62
     2
100
AcDbTrace
 10
-154.6000003051857
 20
-70.76960812926195
 30
0.0
 11
-154.6000003051857
 21
-71.23039187081783
 31
0.0
 12
-156.3500003051857
 22
-71.00000000003989
 32
0.0
 13
-156.3500003051857
 23
-71.00000000003989
 33
0.0
  0
SOLID
  5
EA
330
E5
100
AcDbEntity
  8
1
 62
     2
100
AcDbTrace
 10
-135.6000003051857
 20
-71.23039187081783
 30
0.0
 11
-135.6000003051857
 21
-70.76960812926195
 31
0.0
 12
-133.8500003051857
 22
-71.00000000003989
 32
0.0
 13
-133.8500003051857
 23
-71.00000000003989
 33
0.0
  0
MTEXT
  5
EB
330
E5
100
AcDbEntity
  8
1
 62
     3
100
AcDbMText
 10
-147.5062503051857
 20
-70.07500000003988
 30
0.0
 40
1.75
 41
0.0
 71
     7
 72
     1
  1
22,5
  7
CONVERTER_11
 11
0.9999999999970619
 21
2.424068405545306E-6
 31
0.0
 73
     1
 44
0.60024009603842
  0
ENDBLK
  5
ED
330
E5
100
AcDbEntity
  8
0
100
AcDbBlockEnd
  0
BLOCK
  5
F7
330
F0
100
AcDbEntity
  8
0
100
AcDbBlockBegin
  2
*D18
 70
     1
 10
0.0
 20
0.0
 30
0.0
  3
*D18
  1

  0
LINE
  5
F1
330
F0
100
AcDbEntity
  8
1
  6
Continuous
 62
     2
100
AcDbLine
 10
-161.3500003051857
 20
-55.00000000003989
 30
0.0
 11
-161.3500003051857
 21
-66.00000000003989
 31
0.0
  0
LINE
  5
F2
330
F0
100
AcDbEntity
  8
1
  6
Continuous
 62
     2
100
AcDbLine
 10
-156.3500003051857
 20
-66.00000000003989
 30
0.0
 11
-162.1000003051857
 21
-66.00000000003989
 31
0.0
  0
LINE
  5
F3
330
F0
100
AcDbEntity
  8
1
  6
Continuous
 62
     2
100
AcDbLine
 10
-156.3500003051857
 20
-55.00000000003989
 30
0.0
 11
-162.1000003051857
 21
-55.00000000003989
 31
0.0
  0
SOLID
  5
F4
330
F0
100
AcDbEntity
  8
1
 62
     2
100
AcDbTrace
 10
-161.1196084344078
 20
-56.75000000003989
 30
0.0
 11
-161.5803921759636
 21
-56.75000000003989
 31
0.0
 12
-161.3500003051857
 22
-55.00000000003989
 32
0.0
 13
-161.3500003051857
 23
-55.00000000003989
 33
0.0
  0
SOLID
  5
F5
330
F0
100
AcDbEntity
  8
1
 62
     2
100
AcDbTrace
 10
-161.5803921759636
 20
-64.25000000003989
 30
0.0
 11
-161.1196084344078
 21
-64.25000000003989
 31
0.0
 12
-161.3500003051857
 22
-66.00000000003989
 32
0.0
 13
-161.3500003051857
 23
-66.00000000003989
 33
0.0
  0
MTEXT
  5
F6
330
F0
100
AcDbEntity
  8
1
 62
     3
100
AcDbMText
 10
-162.1000003051857
 20
-61.28750000003989
 30
0.0
 40
1.75
 41
0.0
 71
     7
 72
     1
  1
11
  7
CONVERTER_11
 11
0.0
 21
1.0
 31
0.0
 73
     1
 44
0.60024009603842
  0
ENDBLK
  5
F8
330
F0
100
AcDbEntity
  8
0
100
AcDbBlockEnd
  0
ENDSEC
  0
SECTION
  2
ENTITIES
  0
INSERT
  5
7C
330
1F
100
AcDbEntity
  8
0
100
AcDbBlockReference
  2
Allg1
 10
-163.000000000008
 20
-193.0000000000319
 30
0.0
 41
2.0
 42
2.0
 43
2.0
  0
INSERT
  5
7D
330
1F
100
AcDbEntity
  8
0
100
AcDbBlockReference
  2
Drfsicht1
 10
-290.2000007629494
 20
-176.6000003815097
 30
0.0
 41
2.0
 42
2.0
 43
2.0
  0
INSERT
  5
7E
330
1F
100
AcDbEntity
  8
0
100
AcDbBlockReference
  2
Rckans1
 10
-175.999999999975
 20
-121.0000000000999
 30
0.0
 41
2.0
 42
2.0
 43
2.0
  0
INSERT
  5
7F
330
1F
100
AcDbEntity
  8
0
100
AcDbBlockReference
  2
SA_Links1
 10
-233.0999994277956
 20
-121.00000000004
 30
0.0
 41
2.0
 42
2.0
 43
2.0
  0
INSERT
  5
80
330
1F
100
AcDbEntity
  8
0
100
AcDbBlockReference
  2
SA_Rechts1
 10
-357.2999992370606
 20
-121.0000000000398
 30
0.0
 41
2.0
 42
2.0
 43
2.0
  0
INSERT
  5
81
330
1F
100
AcDbEntity
  8
0
100
AcDbBlockReference
  2
Vordans1
 10
-290.2000007629494
 20
-121.0000000000398
 30
0.0
 41
2.0
 42
2.0
 43
2.0
  0
INSERT
  5
82
330
1F
100
AcDbEntity
  8
0
100
AcDbBlockReference
  2
A4I_CS
 10
-119.1999996948067
 20
-260.6000003815297
 30
0.0
  0
ENDSEC
  0
SECTION
  2
OBJECTS
  0
DICTIONARY
  5
C
330
0
100
AcDbDictionary
281
     1
  3
ACAD_GROUP
350
D
  3
ACAD_LAYOUT
350
1A
  3
ACAD_MATERIAL
350
3B
  3
ACAD_MLEADERSTYLE
350
236
  3
ACAD_MLINESTYLE
350
17
  3
ACAD_PLOTSETTINGS
350
19
  3
ACAD_PLOTSTYLENAME
350
E
  3
ACAD_VISUALSTYLE
350
2A
  3
AcDbVariableDictionary
350
234
  0
DICTIONARY
  5
D
102
{ACAD_REACTORS
330
C
102
}
330
C
100
AcDbDictionary
281
     1
  0
DICTIONARY
  5
1A
102
{ACAD_REACTORS
330
C
102
}
330
C
100
AcDbDictionary
281
     1
  3
Layout1
350
1E
  3
Layout2
350
26
  3
Model
350
22
  0
DICTIONARY
  5
3B
102
{ACAD_REACTORS
330
C
102
}
330
C
100
AcDbDictionary
281
     1
  3
ByBlock
350
3D
  3
ByLayer
350
3C
  3
Global
350
3E
  0
DICTIONARY
  5
236
102
{ACAD_REACTORS
330
C
102
}
330
C
100
AcDbDictionary
281
     1
  0
DICTIONARY
  5
17
102
{ACAD_REACTORS
330
C
102
}
330
C
100
AcDbDictionary
281
     1
  3
Standard
350
18
  0
DICTIONARY
  5
19
102
{ACAD_REACTORS
330
C
102
}
330
C
100
AcDbDictionary
281
     1
  0
ACDBDICTIONARYWDFLT
  5
E
102
{ACAD_REACTORS
330
C
102
}
330
C
100
AcDbDictionary
281
     1
  3
Normal
350
F
100
AcDbDictionaryWithDefault
340
F
  0
DICTIONARY
  5
2A
102
{ACAD_REACTORS
330
C
102
}
330
C
100
AcDbDictionary
281
     1
  3
2dWireframe
350
2F
  3
3D Hidden
350
31
  3
3dWireframe
350
30
  3
Basic
350
32
  3
Brighten
350
36
  3
ColorChange
350
3A
  3
Conceptual
350
34
  3
Dim
350
35
  3
Facepattern
350
39
  3
Flat
350
2B
  3
FlatWithEdges
350
2C
  3
Gouraud
350
2D
  3
GouraudWithEdges
350
2E
  3
Linepattern
350
38
  3
Realistic
350
33
  3
Thicken
350
37
  0
DICTIONARY
  5
234
102
{ACAD_REACTORS
330
C
102
}
330
C
100
AcDbDictionary
281
     1
  3
DIMASSOC
350
237
  3
HIDETEXT
350
238
  0
LAYOUT
  5
1E
102
{ACAD_REACTORS
330
1A
102
}
330
1A
100
AcDbPlotSettings
  1

  2
none_device
  4

  6

 40
0.0
 41
0.0
 42
0.0
 43
0.0
 44
0.0
 45
0.0
 46
0.0
 47
0.0
 48
0.0
 49
0.0
140
0.0
141
0.0
142
1.0
143
1.0
 70
   688
 72
     0
 73
     0
 74
     5
  7

 75
    16
147
1.0
148
0.0
149
0.0
100
AcDbLayout
  1
Layout1
 70
     1
 71
     1
 10
0.0
 20
0.0
 11
12.0
 21
9.0
 12
0.0
 22
0.0
 32
0.0
 14
1.00000000000000E+20
 24
1.00000000000000E+20
 34
1.00000000000000E+20
 15
-1.00000000000000E+20
 25
-1.00000000000000E+20
 35
-1.00000000000000E+20
146
0.0
 13
0.0
 23
0.0
 33
0.0
 16
1.0
 26
0.0
 36
0.0
 17
0.0
 27
1.0
 37
0.0
 76
     0
330
1B
  0
LAYOUT
  5
26
102
{ACAD_REACTORS
330
1A
102
}
330
1A
100
AcDbPlotSettings
  1

  2
none_device
  4

  6

 40
0.0
 41
0.0
 42
0.0
 43
0.0
 44
0.0
 45
0.0
 46
0.0
 47
0.0
 48
0.0
 49
0.0
140
0.0
141
0.0
142
1.0
143
1.0
 70
   688
 72
     0
 73
     0
 74
     5
  7

 75
    16
147
1.0
148
0.0
149
0.0
100
AcDbLayout
  1
Layout2
 70
     1
 71
     2
 10
0.0
 20
0.0
 11
0.0
 21
0.0
 12
0.0
 22
0.0
 32
0.0
 14
0.0
 24
0.0
 34
0.0
 15
0.0
 25
0.0
 35
0.0
146
0.0
 13
0.0
 23
0.0
 33
0.0
 16
1.0
 26
0.0
 36
0.0
 17
0.0
 27
1.0
 37
0.0
 76
     0
330
23
  0
LAYOUT
  5
22
102
{ACAD_REACTORS
330
1A
102
}
330
1A
100
AcDbPlotSettings
  1

  2
none_device
  4

  6

 40
0.0
 41
0.0
 42
0.0
 43
0.0
 44
0.0
 45
0.0
 46
0.0
 47
0.0
 48
0.0
 49
0.0
140
0.0
141
0.0
142
1.0
143
1.0
 70
  1712
 72
     0
 73
     0
 74
     0
  7

 75
     0
147
1.0
148
0.0
149
0.0
100
AcDbLayout
  1
Model
 70
     1
 71
     0
 10
0.0
 20
0.0
 11
12.0
 21
9.0
 12
0.0
 22
0.0
 32
0.0
 14
-411.1999996948058
 24
-260.6000003815297
 34
0.0
 15
-114.1999996948077
 25
-50.60000038152958
 35
0.0
146
0.0
 13
0.0
 23
0.0
 33
0.0
 16
1.0
 26
0.0
 36
0.0
 17
0.0
 27
1.0
 37
0.0
 76
     0
330
1F
331
29
  0
MATERIAL
  5
3D
102
{ACAD_REACTORS
330
3B
102
}
102
{ACAD_XDICTIONARY
360
25B
102
}
330
3B
100
AcDbMaterial
  1
ByBlock
  0
MATERIAL
  5
3C
102
{ACAD_REACTORS
330
3B
102
}
102
{ACAD_XDICTIONARY
360
259
102
}
330
3B
100
AcDbMaterial
  1
ByLayer
  0
MATERIAL
  5
3E
102
{ACAD_REACTORS
330
3B
102
}
102
{ACAD_XDICTIONARY
360
25D
102
}
330
3B
100
AcDbMaterial
  1
Global
  0
MLINESTYLE
  5
18
102
{ACAD_REACTORS
330
17
102
}
330
17
100
AcDbMlineStyle
  2
Standard
 70
     0
  3

 62
   256
 51
90.0
 52
90.0
 71
     2
 49
0.5
 62
   256
  6
BYLAYER
 49
-0.5
 62
   256
  6
BYLAYER
  0
ACDBPLACEHOLDER
  5
F
102
{ACAD_REACTORS
330
E
102
}
330
E
  0
VISUALSTYLE
  5
2F
102
{ACAD_REACTORS
330
2A
102
}
102
{ACAD_XDICTIONARY
360
241
102
}
330
2A
100
AcDbVisualStyle
  2
2dWireframe
 70
     4
 71
     0
 72
     2
 73
     0
 90
        0
 40
-0.6
 41
-30.0
 62
     5
 63
     7
 74
     1
 91
        4
 64
     7
 65
   257
 75
     1
175
     1
 42
1.0
 92
        0
 66
   257
 43
1.0
 76
     1
 77
     6
 78
     2
 67
     7
 79
     5
170
     0
171
     0
290
     0
174
     0
 93
        1
 44
0.0
173
     0
291
     0
 45
0.0
1001
ACAD
1000
AcDbSavedByObjectVersion
1070
     0
  0
VISUALSTYLE
  5
31
102
{ACAD_REACTORS
330
2A
102
}
102
{ACAD_XDICTIONARY
360
245
102
}
330
2A
100
AcDbVisualStyle
  2
3D Hidden
 70
     6
 71
     1
 72
     2
 73
     2
 90
        0
 40
-0.6
 41
-30.0
 62
     5
 63
     7
 74
     2
 91
        2
 64
     7
 65
   257
 75
     2
175
     1
 42
40.0
 92
        0
 66
   257
 43
1.0
 76
     1
 77
     6
 78
     2
 67
     7
 79
     3
170
     0
171
     0
290
     0
174
     0
 93
        1
 44
0.0
173
     0
291
     0
 45
0.0
1001
ACAD
1000
AcDbSavedByObjectVersion
1070
     0
  0
VISUALSTYLE
  5
30
102
{ACAD_REACTORS
330
2A
102
}
102
{ACAD_XDICTIONARY
360
243
102
}
330
2A
100
AcDbVisualStyle
  2
3dWireframe
 70
     5
 71
     0
 72
     2
 73
     0
 90
        0
 40
-0.6
 41
-30.0
 62
     5
 63
     7
 74
     1
 91
        4
 64
     7
 65
   257
 75
     1
175
     1
 42
1.0
 92
        0
 66
   257
 43
1.0
 76
     1
 77
     6
 78
     2
 67
     7
 79
     5
170
     0
171
     0
290
     0
174
     0
 93
        1
 44
0.0
173
     0
291
     0
 45
0.0
1001
ACAD
1000
AcDbSavedByObjectVersion
1070
     0
  0
VISUALSTYLE
  5
32
102
{ACAD_REACTORS
330
2A
102
}
102
{ACAD_XDICTIONARY
360
247
102
}
330
2A
100
AcDbVisualStyle
  2
Basic
 70
     7
 71
     1
 72
     0
 73
     1
 90
        0
 40
-0.6
 41
-30.0
 62
     5
 63
     7
 74
     0
 91
        4
 64
     7
 65
   257
 75
     1
175
     1
 42
1.0
 92
        8
 66
     7
 43
1.0
 76
     1
 77
     6
 78
     2
 67
     7
 79
     5
170
     0
171
     0
290
     0
174
     0
 93
        1
 44
0.0
173
     0
291
     1
 45
0.0
1001
ACAD
1000
AcDbSavedByObjectVersion
1070
     0
  0
VISUALSTYLE
  5
36
102
{ACAD_REACTORS
330
2A
102
}
102
{ACAD_XDICTIONARY
360
24F
102
}
330
2A
100
AcDbVisualStyle
  2
Brighten
 70
    12
 71
     2
 72
     2
 73
     0
 90
        0
 40
-0.6
 41
-30.0
 62
     5
 63
     7
 74
     1
 91
        4
 64
     7
 65
   257
 75
     1
175
     1
 42
1.0
 92
        8
 66
     7
 43
1.0
 76
     1
 77
     6
 78
     2
 67
     7
 79
     5
170
     0
171
     0
290
     0
174
     0
 93
        1
 44
50.0
173
     0
291
     1
 45
0.0
1001
ACAD
1000
AcDbSavedByObjectVersion
1070
     0
  0
VISUALSTYLE
  5
3A
102
{ACAD_REACTORS
330
2A
102
}
102
{ACAD_XDICTIONARY
360
257
102
}
330
2A
100
AcDbVisualStyle
  2
ColorChange
 70
    16
 71
     2
 72
     2
 73
     3
 90
        0
 40
-0.6
 41
-30.0
 62
     5
 63
     8
 74
     1
 91
        4
 64
     7
 65
   257
 75
     1
175
     1
 42
1.0
 92
        8
 66
     8
 43
1.0
 76
     1
 77
     6
 78
     2
 67
     7
 79
     5
170
     0
171
     0
290
     0
174
     0
 93
        1
 44
0.0
173
     0
291
     1
 45
0.0
1001
ACAD
1000
AcDbSavedByObjectVersion
1070
     0
  0
VISUALSTYLE
  5
34
102
{ACAD_REACTORS
330
2A
102
}
102
{ACAD_XDICTIONARY
360
24B
102
}
330
2A
100
AcDbVisualStyle
  2
Conceptual
 70
     9
 71
     3
 72
     2
 73
     0
 90
        0
 40
-0.6
 41
-30.0
 62
     5
 63
     7
 74
     2
 91
        2
 64
     7
 65
   257
 75
     1
175
     1
 42
40.0
 92
        8
 66
     7
 43
1.0
 76
     1
 77
     6
 78
     2
 67
     7
 79
     3
170
     0
171
     0
290
     0
174
     0
 93
        1
 44
0.0
173
     0
291
     0
 45
0.0
1001
ACAD
1000
AcDbSavedByObjectVersion
1070
     0
  0
VISUALSTYLE
  5
35
102
{ACAD_REACTORS
330
2A
102
}
102
{ACAD_XDICTIONARY
360
24D
102
}
330
2A
100
AcDbVisualStyle
  2
Dim
 70
    11
 71
     2
 72
     2
 73
     0
 90
        0
 40
-0.6
 41
-30.0
 62
     5
 63
     7
 74
     1
 91
        4
 64
     7
 65
   257
 75
     1
175
     1
 42
1.0
 92
        8
 66
     7
 43
1.0
 76
     1
 77
     6
 78
     2
 67
     7
 79
     5
170
     0
171
     0
290
     0
174
     0
 93
        1
 44
-50.0
173
     0
291
     1
 45
0.0
1001
ACAD
1000
AcDbSavedByObjectVersion
1070
     0
  0
VISUALSTYLE
  5
39
102
{ACAD_REACTORS
330
2A
102
}
102
{ACAD_XDICTIONARY
360
255
102
}
330
2A
100
AcDbVisualStyle
  2
Facepattern
 70
    15
 71
     2
 72
     2
 73
     0
 90
        0
 40
-0.6
 41
-30.0
 62
     5
 63
     7
 74
     1
 91
        4
 64
     7
 65
   257
 75
     1
175
     1
 42
1.0
 92
        8
 66
     7
 43
1.0
 76
     1
 77
     6
 78
     2
 67
     7
 79
     5
170
     0
171
     0
290
     0
174
     0
 93
        1
 44
0.0
173
     0
291
     1
 45
0.0
1001
ACAD
1000
AcDbSavedByObjectVersion
1070
     0
  0
VISUALSTYLE
  5
2B
102
{ACAD_REACTORS
330
2A
102
}
102
{ACAD_XDICTIONARY
360
239
102
}
330
2A
100
AcDbVisualStyle
  2
Flat
 70
     0
 71
     2
 72
     1
 73
     1
 90
        2
 40
-0.6
 41
30.0
 62
     5
 63
     7
 74
     0
 91
        4
 64
     7
 65
   257
 75
     1
175
     1
 42
1.0
 92
        8
 66
     7
 43
1.0
 76
     1
 77
     6
 78
     2
 67
     7
 79
     5
170
     0
171
     0
290
     0
174
     0
 93
       13
 44
0.0
173
     0
291
     1
 45
0.0
1001
ACAD
1000
AcDbSavedByObjectVersion
1070
     0
  0
VISUALSTYLE
  5
2C
102
{ACAD_REACTORS
330
2A
102
}
102
{ACAD_XDICTIONARY
360
23B
102
}
330
2A
100
AcDbVisualStyle
  2
FlatWithEdges
 70
     1
 71
     2
 72
     1
 73
     1
 90
        2
 40
-0.6
 41
30.0
 62
     5
 63
     7
 74
     1
 91
        4
 64
     7
 65
   257
 75
     1
175
     1
 42
1.0
 92
        0
 66
   257
 43
1.0
 76
     1
 77
     6
 78
     2
 67
     7
 79
     5
170
     0
171
     0
290
     0
174
     0
 93
       13
 44
0.0
173
     0
291
     1
 45
0.0
1001
ACAD
1000
AcDbSavedByObjectVersion
1070
     0
  0
VISUALSTYLE
  5
2D
102
{ACAD_REACTORS
330
2A
102
}
102
{ACAD_XDICTIONARY
360
23D
102
}
330
2A
100
AcDbVisualStyle
  2
Gouraud
 70
     2
 71
     2
 72
     2
 73
     1
 90
        2
 40
-0.6
 41
30.0
 62
     5
 63
     7
 74
     0
 91
        4
 64
     7
 65
   257
 75
     1
175
     1
 42
1.0
 92
        0
 66
     7
 43
1.0
 76
     1
 77
     6
 78
     2
 67
     7
 79
     5
170
     0
171
     0
290
     0
174
     0
 93
       13
 44
0.0
173
     0
291
     1
 45
0.0
1001
ACAD
1000
AcDbSavedByObjectVersion
1070
     0
  0
VISUALSTYLE
  5
2E
102
{ACAD_REACTORS
330
2A
102
}
102
{ACAD_XDICTIONARY
360
23F
102
}
330
2A
100
AcDbVisualStyle
  2
GouraudWithEdges
 70
     3
 71
     2
 72
     2
 73
     1
 90
        2
 40
-0.6
 41
30.0
 62
     5
 63
     7
 74
     1
 91
        4
 64
     7
 65
   257
 75
     1
175
     1
 42
1.0
 92
        0
 66
   257
 43
1.0
 76
     1
 77
     6
 78
     2
 67
     7
 79
     5
170
     0
171
     0
290
     0
174
     0
 93
       13
 44
0.0
173
     0
291
     1
 45
0.0
1001
ACAD
1000
AcDbSavedByObjectVersion
1070
     0
  0
VISUALSTYLE
  5
38
102
{ACAD_REACTORS
330
2A
102
}
102
{ACAD_XDICTIONARY
360
253
102
}
330
2A
100
AcDbVisualStyle
  2
Linepattern
 70
    14
 71
     2
 72
     2
 73
     0
 90
        0
 40
-0.6
 41
-30.0
 62
     5
 63
     7
 74
     1
 91
        4
 64
     7
 65
   257
 75
     7
175
     7
 42
1.0
 92
        8
 66
     7
 43
1.0
 76
     1
 77
     6
 78
     2
 67
     7
 79
     5
170
     0
171
     0
290
     0
174
     0
 93
        1
 44
0.0
173
     0
291
     1
 45
0.0
1001
ACAD
1000
AcDbSavedByObjectVersion
1070
     0
  0
VISUALSTYLE
  5
33
102
{ACAD_REACTORS
330
2A
102
}
102
{ACAD_XDICTIONARY
360
249
102
}
330
2A
100
AcDbVisualStyle
  2
Realistic
 70
     8
 71
     2
 72
     2
 73
     0
 90
        0
 40
-0.6
 41
-30.0
 62
     5
 63
     7
 74
     1
 91
        0
 64
     7
 65
   257
 75
     1
175
     1
 42
1.0
 92
        8
 66
     8
 43
1.0
 76
     1
 77
     6
 78
     2
 67
     7
 79
     5
170
     0
171
     0
290
     0
174
     0
 93
       13
 44
0.0
173
     0
291
     0
 45
0.0
1001
ACAD
1000
AcDbSavedByObjectVersion
1070
     0
  0
VISUALSTYLE
  5
37
102
{ACAD_REACTORS
330
2A
102
}
102
{ACAD_XDICTIONARY
360
251
102
}
330
2A
100
AcDbVisualStyle
  2
Thicken
 70
    13
 71
     2
 72
     2
 73
     0
 90
        0
 40
-0.6
 41
-30.0
 62
     5
 63
     7
 74
     1
 91
        4
 64
     7
 65
   257
 75
     1
175
     1
 42
1.0
 92
       12
 66
     7
 43
1.0
 76
     1
 77
     6
 78
     2
 67
     7
 79
     5
170
     0
171
     0
290
     0
174
     0
 93
        1
 44
0.0
173
     0
291
     1
 45
0.0
1001
ACAD
1000
AcDbSavedByObjectVersion
1070
     0
  0
DICTIONARYVAR
  5
237
102
{ACAD_REACTORS
330
234
102
}
330
234
100
DictionaryVariables
280
     0
  1
2
  0
DICTIONARYVAR
  5
238
102
{ACAD_REACTORS
330
234
102
}
330
234
100
DictionaryVariables
280
     0
  1
1
  0
DICTIONARY
  5
25B
330
3D
100
AcDbDictionary
280
     1
281
     1
  3
ACAD_XREC_ROUNDTRIP
360
25C
  0
DICTIONARY
  5
259
330
3C
100
AcDbDictionary
280
     1
281
     1
  3
ACAD_XREC_ROUNDTRIP
360
25A
  0
DICTIONARY
  5
25D
330
3E
100
AcDbDictionary
280
     1
281
     1
  3
ACAD_XREC_ROUNDTRIP
360
25E
  0
DICTIONARY
  5
241
330
2F
100
AcDbDictionary
280
     1
281
     1
  3
ACAD_XREC_ROUNDTRIP
360
242
  0
DICTIONARY
  5
245
330
31
100
AcDbDictionary
280
     1
281
     1
  3
ACAD_XREC_ROUNDTRIP
360
246
  0
DICTIONARY
  5
243
330
30
100
AcDbDictionary
280
     1
281
     1
  3
ACAD_XREC_ROUNDTRIP
360
244
  0
DICTIONARY
  5
247
330
32
100
AcDbDictionary
280
     1
281
     1
  3
ACAD_XREC_ROUNDTRIP
360
248
  0
DICTIONARY
  5
24F
330
36
100
AcDbDictionary
280
     1
281
     1
  3
ACAD_XREC_ROUNDTRIP
360
250
  0
DICTIONARY
  5
257
330
3A
100
AcDbDictionary
280
     1
281
     1
  3
ACAD_XREC_ROUNDTRIP
360
258
  0
DICTIONARY
  5
24B
330
34
100
AcDbDictionary
280
     1
281
     1
  3
ACAD_XREC_ROUNDTRIP
360
24C
  0
DICTIONARY
  5
24D
330
35
100
AcDbDictionary
280
     1
281
     1
  3
ACAD_XREC_ROUNDTRIP
360
24E
  0
DICTIONARY
  5
255
330
39
100
AcDbDictionary
280
     1
281
     1
  3
ACAD_XREC_ROUNDTRIP
360
256
  0
DICTIONARY
  5
239
330
2B
100
AcDbDictionary
280
     1
281
     1
  3
ACAD_XREC_ROUNDTRIP
360
23A
  0
DICTIONARY
  5
23B
330
2C
100
AcDbDictionary
280
     1
281
     1
  3
ACAD_XREC_ROUNDTRIP
360
23C
  0
DICTIONARY
  5
23D
330
2D
100
AcDbDictionary
280
     1
281
     1
  3
ACAD_XREC_ROUNDTRIP
360
23E
  0
DICTIONARY
  5
23F
330
2E
100
AcDbDictionary
280
     1
281
     1
  3
ACAD_XREC_ROUNDTRIP
360
240
  0
DICTIONARY
  5
253
330
38
100
AcDbDictionary
280
     1
281
     1
  3
ACAD_XREC_ROUNDTRIP
360
254
  0
DICTIONARY
  5
249
330
33
100
AcDbDictionary
280
     1
281
     1
  3
ACAD_XREC_ROUNDTRIP
360
24A
  0
DICTIONARY
  5
251
330
37
100
AcDbDictionary
280
     1
281
     1
  3
ACAD_XREC_ROUNDTRIP
360
252
  0
XRECORD
  5
25C
102
{ACAD_REACTORS
330
25B
102
}
330
25B
100
AcDbXrecord
280
     1
102
MATERIAL
148
0.0
149
0.0
149
0.0
 93
        0
 94
      127
282
     0
 72
     1
 77
     1
171
     1
175
     1
179
     1
273
     0
  0
XRECORD
  5
25A
102
{ACAD_REACTORS
330
259
102
}
330
259
100
AcDbXrecord
280
     1
102
MATERIAL
148
0.0
149
0.0
149
0.0
 93
        0
 94
      127
282
     0
 72
     1
 77
     1
171
     1
175
     1
179
     1
273
     0
  0
XRECORD
  5
25E
102
{ACAD_REACTORS
330
25D
102
}
330
25D
100
AcDbXrecord
280
     1
102
MATERIAL
148
0.0
149
0.0
149
0.0
 93
        0
 94
      127
282
     0
 72
     1
 77
     1
171
     1
175
     1
179
     1
273
     0
  0
XRECORD
  5
242
102
{ACAD_REACTORS
330
241
102
}
330
241
100
AcDbXrecord
280
     1
102
RTVSPropertyOp0
 70
     1
102
RTVSPropertyOp1
 70
     1
102
RTVSPropertyOp2
 70
     1
102
RTVSPropertyOp3
 70
     1
102
RTVSPropertyOp4
 70
     1
102
RTVSPropertyOp5
 70
     1
102
RTVSPropertyOp6
 70
     1
102
RTVSPropertyOp7
 70
     1
102
RTVSPropertyOp8
 70
     1
102
RTVSPropertyOp9
 70
     1
102
RTVSPropertyOp10
 70
     1
102
RTVSPropertyOp11
 70
     1
102
RTVSPropertyOp12
 70
     1
102
RTVSPropertyOp13
 70
     1
102
RTVSPropertyOp14
 70
     1
102
RTVSPropertyOp15
 70
     1
102
RTVSPropertyOp16
 70
     1
102
RTVSPropertyOp17
 70
     1
102
RTVSPropertyOp18
 70
     1
102
RTVSPropertyOp19
 70
     1
102
RTVSPropertyOp20
 70
     1
102
RTVSPropertyOp21
 70
     1
102
RTVSPropertyOp22
 70
     1
102
RTVSPropertyOp23
 70
     1
102
RTVSPropertyOp24
 70
     1
102
RTVSPropertyOp25
 70
     1
102
RTVSPropertyOp26
 70
     1
102
RTVSPropertyOp27
 70
     1
102
RTVSPropertyOp28
 70
     1
102
RTVSPropertyOp29
 70
     1
102
RTVSPropertyOp30
 70
     1
102
RTVSPropertyOp31
 70
     1
102
RTVSPropertyOp32
 70
     1
  0
XRECORD
  5
246
102
{ACAD_REACTORS
330
245
102
}
330
245
100
AcDbXrecord
280
     1
102
RTVSPropertyOp0
 70
     1
102
RTVSPropertyOp1
 70
     1
102
RTVSPropertyOp2
 70
     1
102
RTVSPropertyOp3
 70
     1
102
RTVSPropertyOp4
 70
     1
102
RTVSPropertyOp5
 70
     1
102
RTVSPropertyOp6
 70
     1
102
RTVSPropertyOp7
 70
     1
102
RTVSPropertyOp8
 70
     1
102
RTVSPropertyOp9
 70
     1
102
RTVSPropertyOp10
 70
     1
102
RTVSPropertyOp11
 70
     1
102
RTVSPropertyOp12
 70
     1
102
RTVSPropertyOp13
 70
     1
102
RTVSPropertyOp14
 70
     1
102
RTVSPropertyOp15
 70
     1
102
RTVSPropertyOp16
 70
     1
102
RTVSPropertyOp17
 70
     1
102
RTVSPropertyOp18
 70
     1
102
RTVSPropertyOp19
 70
     1
102
RTVSPropertyOp20
 70
     1
102
RTVSPropertyOp21
 70
     1
102
RTVSPropertyOp22
 70
     1
102
RTVSPropertyOp23
 70
     1
102
RTVSPropertyOp24
 70
     1
102
RTVSPropertyOp25
 70
     1
102
RTVSPropertyOp26
 70
     1
102
RTVSPropertyOp27
 70
     1
102
RTVSPropertyOp28
 70
     1
102
RTVSPropertyOp29
 70
     1
102
RTVSPropertyOp30
 70
     1
102
RTVSPropertyOp31
 70
     1
102
RTVSPropertyOp32
 70
     1
  0
XRECORD
  5
244
102
{ACAD_REACTORS
330
243
102
}
330
243
100
AcDbXrecord
280
     1
102
RTVSPropertyOp0
 70
     1
102
RTVSPropertyOp1
 70
     1
102
RTVSPropertyOp2
 70
     1
102
RTVSPropertyOp3
 70
     1
102
RTVSPropertyOp4
 70
     1
102
RTVSPropertyOp5
 70
     1
102
RTVSPropertyOp6
 70
     1
102
RTVSPropertyOp7
 70
     1
102
RTVSPropertyOp8
 70
     1
102
RTVSPropertyOp9
 70
     1
102
RTVSPropertyOp10
 70
     1
102
RTVSPropertyOp11
 70
     1
102
RTVSPropertyOp12
 70
     1
102
RTVSPropertyOp13
 70
     1
102
RTVSPropertyOp14
 70
     1
102
RTVSPropertyOp15
 70
     1
102
RTVSPropertyOp16
 70
     1
102
RTVSPropertyOp17
 70
     1
102
RTVSPropertyOp18
 70
     1
102
RTVSPropertyOp19
 70
     1
102
RTVSPropertyOp20
 70
     1
102
RTVSPropertyOp21
 70
     1
102
RTVSPropertyOp22
 70
     1
102
RTVSPropertyOp23
 70
     1
102
RTVSPropertyOp24
 70
     1
102
RTVSPropertyOp25
 70
     1
102
RTVSPropertyOp26
 70
     1
102
RTVSPropertyOp27
 70
     1
102
RTVSPropertyOp28
 70
     1
102
RTVSPropertyOp29
 70
     1
102
RTVSPropertyOp30
 70
     1
102
RTVSPropertyOp31
 70
     1
102
RTVSPropertyOp32
 70
     1
  0
XRECORD
  5
248
102
{ACAD_REACTORS
330
247
102
}
330
247
100
AcDbXrecord
280
     1
102
RTVSPropertyOp0
 70
     1
102
RTVSPropertyOp1
 70
     1
102
RTVSPropertyOp2
 70
     1
102
RTVSPropertyOp3
 70
     1
102
RTVSPropertyOp4
 70
     1
102
RTVSPropertyOp5
 70
     1
102
RTVSPropertyOp6
 70
     1
102
RTVSPropertyOp7
 70
     1
102
RTVSPropertyOp8
 70
     1
102
RTVSPropertyOp9
 70
     1
102
RTVSPropertyOp10
 70
     1
102
RTVSPropertyOp11
 70
     1
102
RTVSPropertyOp12
 70
     1
102
RTVSPropertyOp13
 70
     1
102
RTVSPropertyOp14
 70
     1
102
RTVSPropertyOp15
 70
     1
102
RTVSPropertyOp16
 70
     1
102
RTVSPropertyOp17
 70
     1
102
RTVSPropertyOp18
 70
     1
102
RTVSPropertyOp19
 70
     1
102
RTVSPropertyOp20
 70
     1
102
RTVSPropertyOp21
 70
     1
102
RTVSPropertyOp22
 70
     1
102
RTVSPropertyOp23
 70
     1
102
RTVSPropertyOp24
 70
     1
102
RTVSPropertyOp25
 70
     1
102
RTVSPropertyOp26
 70
     1
102
RTVSPropertyOp27
 70
     1
102
RTVSPropertyOp28
 70
     1
102
RTVSPropertyOp29
 70
     1
102
RTVSPropertyOp30
 70
     1
102
RTVSPropertyOp31
 70
     1
102
RTVSPropertyOp32
 70
     1
  0
XRECORD
  5
250
102
{ACAD_REACTORS
330
24F
102
}
330
24F
100
AcDbXrecord
280
     1
102
RTVSPropertyOp0
 70
     1
102
RTVSPropertyOp1
 70
     1
102
RTVSPropertyOp2
 70
     1
102
RTVSPropertyOp3
 70
     1
102
RTVSPropertyOp4
 70
     1
102
RTVSPropertyOp5
 70
     1
102
RTVSPropertyOp6
 70
     1
102
RTVSPropertyOp7
 70
     1
102
RTVSPropertyOp8
 70
     1
102
RTVSPropertyOp9
 70
     1
102
RTVSPropertyOp10
 70
     1
102
RTVSPropertyOp11
 70
     1
102
RTVSPropertyOp12
 70
     1
102
RTVSPropertyOp13
 70
     1
102
RTVSPropertyOp14
 70
     1
102
RTVSPropertyOp15
 70
     1
102
RTVSPropertyOp16
 70
     1
102
RTVSPropertyOp17
 70
     1
102
RTVSPropertyOp18
 70
     1
102
RTVSPropertyOp19
 70
     1
102
RTVSPropertyOp20
 70
     1
102
RTVSPropertyOp21
 70
     1
102
RTVSPropertyOp22
 70
     1
102
RTVSPropertyOp23
 70
     1
102
RTVSPropertyOp24
 70
     1
102
RTVSPropertyOp25
 70
     1
102
RTVSPropertyOp26
 70
     1
102
RTVSPropertyOp27
 70
     1
102
RTVSPropertyOp28
 70
     1
102
RTVSPropertyOp29
 70
     1
102
RTVSPropertyOp30
 70
     1
102
RTVSPropertyOp31
 70
     1
102
RTVSPropertyOp32
 70
     1
  0
XRECORD
  5
258
102
{ACAD_REACTORS
330
257
102
}
330
257
100
AcDbXrecord
280
     1
102
RTVSPropertyOp0
 70
     1
102
RTVSPropertyOp1
 70
     1
102
RTVSPropertyOp2
 70
     1
102
RTVSPropertyOp3
 70
     1
102
RTVSPropertyOp4
 70
     1
102
RTVSPropertyOp5
 70
     1
102
RTVSPropertyOp6
 70
     1
102
RTVSPropertyOp7
 70
     1
102
RTVSPropertyOp8
 70
     1
102
RTVSPropertyOp9
 70
     1
102
RTVSPropertyOp10
 70
     1
102
RTVSPropertyOp11
 70
     1
102
RTVSPropertyOp12
 70
     1
102
RTVSPropertyOp13
 70
     1
102
RTVSPropertyOp14
 70
     1
102
RTVSPropertyOp15
 70
     1
102
RTVSPropertyOp16
 70
     1
102
RTVSPropertyOp17
 70
     1
102
RTVSPropertyOp18
 70
     1
102
RTVSPropertyOp19
 70
     1
102
RTVSPropertyOp20
 70
     1
102
RTVSPropertyOp21
 70
     1
102
RTVSPropertyOp22
 70
     1
102
RTVSPropertyOp23
 70
     1
102
RTVSPropertyOp24
 70
     1
102
RTVSPropertyOp25
 70
     1
102
RTVSPropertyOp26
 70
     1
102
RTVSPropertyOp27
 70
     1
102
RTVSPropertyOp28
 70
     1
102
RTVSPropertyOp29
 70
     1
102
RTVSPropertyOp30
 70
     1
102
RTVSPropertyOp31
 70
     1
102
RTVSPropertyOp32
 70
     1
  0
XRECORD
  5
24C
102
{ACAD_REACTORS
330
24B
102
}
330
24B
100
AcDbXrecord
280
     1
102
RTVSPropertyOp0
 70
     1
102
RTVSPropertyOp1
 70
     1
102
RTVSPropertyOp2
 70
     1
102
RTVSPropertyOp3
 70
     1
102
RTVSPropertyOp4
 70
     1
102
RTVSPropertyOp5
 70
     1
102
RTVSPropertyOp6
 70
     1
102
RTVSPropertyOp7
 70
     1
102
RTVSPropertyOp8
 70
     1
102
RTVSPropertyOp9
 70
     1
102
RTVSPropertyOp10
 70
     1
102
RTVSPropertyOp11
 70
     1
102
RTVSPropertyOp12
 70
     1
102
RTVSPropertyOp13
 70
     1
102
RTVSPropertyOp14
 70
     1
102
RTVSPropertyOp15
 70
     1
102
RTVSPropertyOp16
 70
     1
102
RTVSPropertyOp17
 70
     1
102
RTVSPropertyOp18
 70
     1
102
RTVSPropertyOp19
 70
     1
102
RTVSPropertyOp20
 70
     1
102
RTVSPropertyOp21
 70
     1
102
RTVSPropertyOp22
 70
     1
102
RTVSPropertyOp23
 70
     1
102
RTVSPropertyOp24
 70
     1
102
RTVSPropertyOp25
 70
     1
102
RTVSPropertyOp26
 70
     1
102
RTVSPropertyOp27
 70
     1
102
RTVSPropertyOp28
 70
     1
102
RTVSPropertyOp29
 70
     1
102
RTVSPropertyOp30
 70
     1
102
RTVSPropertyOp31
 70
     1
102
RTVSPropertyOp32
 70
     1
  0
XRECORD
  5
24E
102
{ACAD_REACTORS
330
24D
102
}
330
24D
100
AcDbXrecord
280
     1
102
RTVSPropertyOp0
 70
     1
102
RTVSPropertyOp1
 70
     1
102
RTVSPropertyOp2
 70
     1
102
RTVSPropertyOp3
 70
     1
102
RTVSPropertyOp4
 70
     1
102
RTVSPropertyOp5
 70
     1
102
RTVSPropertyOp6
 70
     1
102
RTVSPropertyOp7
 70
     1
102
RTVSPropertyOp8
 70
     1
102
RTVSPropertyOp9
 70
     1
102
RTVSPropertyOp10
 70
     1
102
RTVSPropertyOp11
 70
     1
102
RTVSPropertyOp12
 70
     1
102
RTVSPropertyOp13
 70
     1
102
RTVSPropertyOp14
 70
     1
102
RTVSPropertyOp15
 70
     1
102
RTVSPropertyOp16
 70
     1
102
RTVSPropertyOp17
 70
     1
102
RTVSPropertyOp18
 70
     1
102
RTVSPropertyOp19
 70
     1
102
RTVSPropertyOp20
 70
     1
102
RTVSPropertyOp21
 70
     1
102
RTVSPropertyOp22
 70
     1
102
RTVSPropertyOp23
 70
     1
102
RTVSPropertyOp24
 70
     1
102
RTVSPropertyOp25
 70
     1
102
RTVSPropertyOp26
 70
     1
102
RTVSPropertyOp27
 70
     1
102
RTVSPropertyOp28
 70
     1
102
RTVSPropertyOp29
 70
     1
102
RTVSPropertyOp30
 70
     1
102
RTVSPropertyOp31
 70
     1
102
RTVSPropertyOp32
 70
     1
  0
XRECORD
  5
256
102
{ACAD_REACTORS
330
255
102
}
330
255
100
AcDbXrecord
280
     1
102
RTVSPropertyOp0
 70
     1
102
RTVSPropertyOp1
 70
     1
102
RTVSPropertyOp2
 70
     1
102
RTVSPropertyOp3
 70
     1
102
RTVSPropertyOp4
 70
     1
102
RTVSPropertyOp5
 70
     1
102
RTVSPropertyOp6
 70
     1
102
RTVSPropertyOp7
 70
     1
102
RTVSPropertyOp8
 70
     1
102
RTVSPropertyOp9
 70
     1
102
RTVSPropertyOp10
 70
     1
102
RTVSPropertyOp11
 70
     1
102
RTVSPropertyOp12
 70
     1
102
RTVSPropertyOp13
 70
     1
102
RTVSPropertyOp14
 70
     1
102
RTVSPropertyOp15
 70
     1
102
RTVSPropertyOp16
 70
     1
102
RTVSPropertyOp17
 70
     1
102
RTVSPropertyOp18
 70
     1
102
RTVSPropertyOp19
 70
     1
102
RTVSPropertyOp20
 70
     1
102
RTVSPropertyOp21
 70
     1
102
RTVSPropertyOp22
 70
     1
102
RTVSPropertyOp23
 70
     1
102
RTVSPropertyOp24
 70
     1
102
RTVSPropertyOp25
 70
     1
102
RTVSPropertyOp26
 70
     1
102
RTVSPropertyOp27
 70
     1
102
RTVSPropertyOp28
 70
     1
102
RTVSPropertyOp29
 70
     1
102
RTVSPropertyOp30
 70
     1
102
RTVSPropertyOp31
 70
     1
102
RTVSPropertyOp32
 70
     1
  0
XRECORD
  5
23A
102
{ACAD_REACTORS
330
239
102
}
330
239
100
AcDbXrecord
280
     1
102
RTVSPropertyOp0
 70
     1
102
RTVSPropertyOp1
 70
     1
102
RTVSPropertyOp2
 70
     1
102
RTVSPropertyOp3
 70
     1
102
RTVSPropertyOp4
 70
     1
102
RTVSPropertyOp5
 70
     1
102
RTVSPropertyOp6
 70
     1
102
RTVSPropertyOp7
 70
     1
102
RTVSPropertyOp8
 70
     1
102
RTVSPropertyOp9
 70
     1
102
RTVSPropertyOp10
 70
     1
102
RTVSPropertyOp11
 70
     1
102
RTVSPropertyOp12
 70
     1
102
RTVSPropertyOp13
 70
     1
102
RTVSPropertyOp14
 70
     1
102
RTVSPropertyOp15
 70
     1
102
RTVSPropertyOp16
 70
     1
102
RTVSPropertyOp17
 70
     1
102
RTVSPropertyOp18
 70
     1
102
RTVSPropertyOp19
 70
     1
102
RTVSPropertyOp20
 70
     1
102
RTVSPropertyOp21
 70
     1
102
RTVSPropertyOp22
 70
     1
102
RTVSPropertyOp23
 70
     1
102
RTVSPropertyOp24
 70
     1
102
RTVSPropertyOp25
 70
     1
102
RTVSPropertyOp26
 70
     1
102
RTVSPropertyOp27
 70
     1
102
RTVSPropertyOp28
 70
     1
102
RTVSPropertyOp29
 70
     1
102
RTVSPropertyOp30
 70
     1
102
RTVSPropertyOp31
 70
     1
102
RTVSPropertyOp32
 70
     1
  0
XRECORD
  5
23C
102
{ACAD_REACTORS
330
23B
102
}
330
23B
100
AcDbXrecord
280
     1
102
RTVSPropertyOp0
 70
     1
102
RTVSPropertyOp1
 70
     1
102
RTVSPropertyOp2
 70
     1
102
RTVSPropertyOp3
 70
     1
102
RTVSPropertyOp4
 70
     1
102
RTVSPropertyOp5
 70
     1
102
RTVSPropertyOp6
 70
     1
102
RTVSPropertyOp7
 70
     1
102
RTVSPropertyOp8
 70
     1
102
RTVSPropertyOp9
 70
     1
102
RTVSPropertyOp10
 70
     1
102
RTVSPropertyOp11
 70
     1
102
RTVSPropertyOp12
 70
     1
102
RTVSPropertyOp13
 70
     1
102
RTVSPropertyOp14
 70
     1
102
RTVSPropertyOp15
 70
     1
102
RTVSPropertyOp16
 70
     1
102
RTVSPropertyOp17
 70
     1
102
RTVSPropertyOp18
 70
     1
102
RTVSPropertyOp19
 70
     1
102
RTVSPropertyOp20
 70
     1
102
RTVSPropertyOp21
 70
     1
102
RTVSPropertyOp22
 70
     1
102
RTVSPropertyOp23
 70
     1
102
RTVSPropertyOp24
 70
     1
102
RTVSPropertyOp25
 70
     1
102
RTVSPropertyOp26
 70
     1
102
RTVSPropertyOp27
 70
     1
102
RTVSPropertyOp28
 70
     1
102
RTVSPropertyOp29
 70
     1
102
RTVSPropertyOp30
 70
     1
102
RTVSPropertyOp31
 70
     1
102
RTVSPropertyOp32
 70
     1
  0
XRECORD
  5
23E
102
{ACAD_REACTORS
330
23D
102
}
330
23D
100
AcDbXrecord
280
     1
102
RTVSPropertyOp0
 70
     1
102
RTVSPropertyOp1
 70
     1
102
RTVSPropertyOp2
 70
     1
102
RTVSPropertyOp3
 70
     1
102
RTVSPropertyOp4
 70
     1
102
RTVSPropertyOp5
 70
     1
102
RTVSPropertyOp6
 70
     1
102
RTVSPropertyOp7
 70
     1
102
RTVSPropertyOp8
 70
     1
102
RTVSPropertyOp9
 70
     1
102
RTVSPropertyOp10
 70
     1
102
RTVSPropertyOp11
 70
     1
102
RTVSPropertyOp12
 70
     1
102
RTVSPropertyOp13
 70
     1
102
RTVSPropertyOp14
 70
     1
102
RTVSPropertyOp15
 70
     1
102
RTVSPropertyOp16
 70
     1
102
RTVSPropertyOp17
 70
     1
102
RTVSPropertyOp18
 70
     1
102
RTVSPropertyOp19
 70
     1
102
RTVSPropertyOp20
 70
     1
102
RTVSPropertyOp21
 70
     1
102
RTVSPropertyOp22
 70
     1
102
RTVSPropertyOp23
 70
     1
102
RTVSPropertyOp24
 70
     1
102
RTVSPropertyOp25
 70
     1
102
RTVSPropertyOp26
 70
     1
102
RTVSPropertyOp27
 70
     1
102
RTVSPropertyOp28
 70
     1
102
RTVSPropertyOp29
 70
     1
102
RTVSPropertyOp30
 70
     1
102
RTVSPropertyOp31
 70
     1
102
RTVSPropertyOp32
 70
     1
  0
XRECORD
  5
240
102
{ACAD_REACTORS
330
23F
102
}
330
23F
100
AcDbXrecord
280
     1
102
RTVSPropertyOp0
 70
     1
102
RTVSPropertyOp1
 70
     1
102
RTVSPropertyOp2
 70
     1
102
RTVSPropertyOp3
 70
     1
102
RTVSPropertyOp4
 70
     1
102
RTVSPropertyOp5
 70
     1
102
RTVSPropertyOp6
 70
     1
102
RTVSPropertyOp7
 70
     1
102
RTVSPropertyOp8
 70
     1
102
RTVSPropertyOp9
 70
     1
102
RTVSPropertyOp10
 70
     1
102
RTVSPropertyOp11
 70
     1
102
RTVSPropertyOp12
 70
     1
102
RTVSPropertyOp13
 70
     1
102
RTVSPropertyOp14
 70
     1
102
RTVSPropertyOp15
 70
     1
102
RTVSPropertyOp16
 70
     1
102
RTVSPropertyOp17
 70
     1
102
RTVSPropertyOp18
 70
     1
102
RTVSPropertyOp19
 70
     1
102
RTVSPropertyOp20
 70
     1
102
RTVSPropertyOp21
 70
     1
102
RTVSPropertyOp22
 70
     1
102
RTVSPropertyOp23
 70
     1
102
RTVSPropertyOp24
 70
     1
102
RTVSPropertyOp25
 70
     1
102
RTVSPropertyOp26
 70
     1
102
RTVSPropertyOp27
 70
     1
102
RTVSPropertyOp28
 70
     1
102
RTVSPropertyOp29
 70
     1
102
RTVSPropertyOp30
 70
     1
102
RTVSPropertyOp31
 70
     1
102
RTVSPropertyOp32
 70
     1
  0
XRECORD
  5
254
102
{ACAD_REACTORS
330
253
102
}
330
253
100
AcDbXrecord
280
     1
102
RTVSPropertyOp0
 70
     1
102
RTVSPropertyOp1
 70
     1
102
RTVSPropertyOp2
 70
     1
102
RTVSPropertyOp3
 70
     1
102
RTVSPropertyOp4
 70
     1
102
RTVSPropertyOp5
 70
     1
102
RTVSPropertyOp6
 70
     1
102
RTVSPropertyOp7
 70
     1
102
RTVSPropertyOp8
 70
     1
102
RTVSPropertyOp9
 70
     1
102
RTVSPropertyOp10
 70
     1
102
RTVSPropertyOp11
 70
     1
102
RTVSPropertyOp12
 70
     1
102
RTVSPropertyOp13
 70
     1
102
RTVSPropertyOp14
 70
     1
102
RTVSPropertyOp15
 70
     1
102
RTVSPropertyOp16
 70
     1
102
RTVSPropertyOp17
 70
     1
102
RTVSPropertyOp18
 70
     1
102
RTVSPropertyOp19
 70
     1
102
RTVSPropertyOp20
 70
     1
102
RTVSPropertyOp21
 70
     1
102
RTVSPropertyOp22
 70
     1
102
RTVSPropertyOp23
 70
     1
102
RTVSPropertyOp24
 70
     1
102
RTVSPropertyOp25
 70
     1
102
RTVSPropertyOp26
 70
     1
102
RTVSPropertyOp27
 70
     1
102
RTVSPropertyOp28
 70
     1
102
RTVSPropertyOp29
 70
     1
102
RTVSPropertyOp30
 70
     1
102
RTVSPropertyOp31
 70
     1
102
RTVSPropertyOp32
 70
     1
  0
XRECORD
  5
24A
102
{ACAD_REACTORS
330
249
102
}
330
249
100
AcDbXrecord
280
     1
102
RTVSPropertyOp0
 70
     1
102
RTVSPropertyOp1
 70
     1
102
RTVSPropertyOp2
 70
     1
102
RTVSPropertyOp3
 70
     1
102
RTVSPropertyOp4
 70
     1
102
RTVSPropertyOp5
 70
     1
102
RTVSPropertyOp6
 70
     1
102
RTVSPropertyOp7
 70
     1
102
RTVSPropertyOp8
 70
     1
102
RTVSPropertyOp9
 70
     1
102
RTVSPropertyOp10
 70
     1
102
RTVSPropertyOp11
 70
     1
102
RTVSPropertyOp12
 70
     1
102
RTVSPropertyOp13
 70
     1
102
RTVSPropertyOp14
 70
     1
102
RTVSPropertyOp15
 70
     1
102
RTVSPropertyOp16
 70
     1
102
RTVSPropertyOp17
 70
     1
102
RTVSPropertyOp18
 70
     1
102
RTVSPropertyOp19
 70
     1
102
RTVSPropertyOp20
 70
     1
102
RTVSPropertyOp21
 70
     1
102
RTVSPropertyOp22
 70
     1
102
RTVSPropertyOp23
 70
     1
102
RTVSPropertyOp24
 70
     1
102
RTVSPropertyOp25
 70
     1
102
RTVSPropertyOp26
 70
     1
102
RTVSPropertyOp27
 70
     1
102
RTVSPropertyOp28
 70
     1
102
RTVSPropertyOp29
 70
     1
102
RTVSPropertyOp30
 70
     1
102
RTVSPropertyOp31
 70
     1
102
RTVSPropertyOp32
 70
     1
  0
XRECORD
  5
252
102
{ACAD_REACTORS
330
251
102
}
330
251
100
AcDbXrecord
280
     1
102
RTVSPropertyOp0
 70
     1
102
RTVSPropertyOp1
 70
     1
102
RTVSPropertyOp2
 70
     1
102
RTVSPropertyOp3
 70
     1
102
RTVSPropertyOp4
 70
     1
102
RTVSPropertyOp5
 70
     1
102
RTVSPropertyOp6
 70
     1
102
RTVSPropertyOp7
 70
     1
102
RTVSPropertyOp8
 70
     1
102
RTVSPropertyOp9
 70
     1
102
RTVSPropertyOp10
 70
     1
102
RTVSPropertyOp11
 70
     1
102
RTVSPropertyOp12
 70
     1
102
RTVSPropertyOp13
 70
     1
102
RTVSPropertyOp14
 70
     1
102
RTVSPropertyOp15
 70
     1
102
RTVSPropertyOp16
 70
     1
102
RTVSPropertyOp17
 70
     1
102
RTVSPropertyOp18
 70
     1
102
RTVSPropertyOp19
 70
     1
102
RTVSPropertyOp20
 70
     1
102
RTVSPropertyOp21
 70
     1
102
RTVSPropertyOp22
 70
     1
102
RTVSPropertyOp23
 70
     1
102
RTVSPropertyOp24
 70
     1
102
RTVSPropertyOp25
 70
     1
102
RTVSPropertyOp26
 70
     1
102
RTVSPropertyOp27
 70
     1
102
RTVSPropertyOp28
 70
     1
102
RTVSPropertyOp29
 70
     1
102
RTVSPropertyOp30
 70
     1
102
RTVSPropertyOp31
 70
     1
102
RTVSPropertyOp32
 70
     1
  0
ENDSEC
  0
EOF
