  0
SECTION
  2
HEADER
  9
$ACADVER
  1
AC1015
  9
$ACADMAINTVER
 70
     6
  9
$DWGCODEPAGE
  3
ANSI_1252
  9
$INSBASE
 10
0.0
 20
0.0
 30
0.0
  9
$EXTMIN
 10
-244.037669747061
 20
2.28207210725108
 30
0.0
  9
$EXTMAX
 10
52.96233025293711
 20
212.2820721072511
 30
0.0
  9
$LIMMIN
 10
0.0
 20
0.0
  9
$LIMMAX
 10
12.0
 20
9.0
  9
$ORTHOMODE
 70
     0
  9
$REGENMODE
 70
     1
  9
$FILLMODE
 70
     1
  9
$QTEXTMODE
 70
     0
  9
$MIRRTEXT
 70
     1
  9
$LTSCALE
 40
1.0
  9
$ATTMODE
 70
     1
  9
$TEXTSIZE
 40
0.2
  9
$TRACEWID
 40
0.05
  9
$TEXTSTYLE
  7
Standard
  9
$CLAYER
  8
0
  9
$CELTYPE
  6
ByLayer
  9
$CECOLOR
 62
   256
  9
$CELTSCALE
 40
1.0
  9
$DISPSILH
 70
     0
  9
$DIMSCALE
 40
1.0
  9
$DIMASZ
 40
0.18
  9
$DIMEXO
 40
0.0625
  9
$DIMDLI
 40
0.38
  9
$DIMRND
 40
0.0
  9
$DIMDLE
 40
0.0
  9
$DIMEXE
 40
0.18
  9
$DIMTP
 40
0.0
  9
$DIMTM
 40
0.0
  9
$DIMTXT
 40
0.18
  9
$DIMCEN
 40
0.09
  9
$DIMTSZ
 40
0.0
  9
$DIMTOL
 70
     0
  9
$DIMLIM
 70
     0
  9
$DIMTIH
 70
     1
  9
$DIMTOH
 70
     1
  9
$DIMSE1
 70
     0
  9
$DIMSE2
 70
     0
  9
$DIMTAD
 70
     0
  9
$DIMZIN
 70
     0
  9
$DIMBLK
  1

  9
$DIMASO
 70
     1
  9
$DIMSHO
 70
     1
  9
$DIMPOST
  1

  9
$DIMAPOST
  1

  9
$DIMALT
 70
     0
  9
$DIMALTD
 70
     2
  9
$DIMALTF
 40
25.4
  9
$DIMLFAC
 40
1.0
  9
$DIMTOFL
 70
     0
  9
$DIMTVP
 40
0.0
  9
$DIMTIX
 70
     0
  9
$DIMSOXD
 70
     0
  9
$DIMSAH
 70
     0
  9
$DIMBLK1
  1

  9
$DIMBLK2
  1

  9
$DIMSTYLE
  2
Standard
  9
$DIMCLRD
 70
     0
  9
$DIMCLRE
 70
     0
  9
$DIMCLRT
 70
     0
  9
$DIMTFAC
 40
1.0
  9
$DIMGAP
 40
0.09
  9
$DIMJUST
 70
     0
  9
$DIMSD1
 70
     0
  9
$DIMSD2
 70
     0
  9
$DIMTOLJ
 70
     1
  9
$DIMTZIN
 70
     0
  9
$DIMALTZ
 70
     0
  9
$DIMALTTZ
 70
     0
  9
$DIMUPT
 70
     0
  9
$DIMDEC
 70
     4
  9
$DIMTDEC
 70
     4
  9
$DIMALTU
 70
     2
  9
$DIMALTTD
 70
     2
  9
$DIMTXSTY
  7
Standard
  9
$DIMAUNIT
 70
     0
  9
$DIMADEC
 70
     0
  9
$DIMALTRND
 40
0.0
  9
$DIMAZIN
 70
     0
  9
$DIMDSEP
 70
    46
  9
$DIMATFIT
 70
     3
  9
$DIMFRAC
 70
     0
  9
$DIMLDRBLK
  1

  9
$DIMLUNIT
 70
     2
  9
$DIMLWD
 70
    -2
  9
$DIMLWE
 70
    -2
  9
$DIMTMOVE
 70
     0
  9
$LUNITS
 70
     2
  9
$LUPREC
 70
     4
  9
$SKETCHINC
 40
0.1
  9
$FILLETRAD
 40
0.5
  9
$AUNITS
 70
     0
  9
$AUPREC
 70
     0
  9
$MENU
  1
.
  9
$ELEVATION
 40
0.0
  9
$PELEVATION
 40
0.0
  9
$THICKNESS
 40
0.0
  9
$LIMCHECK
 70
     0
  9
$CHAMFERA
 40
0.5
  9
$CHAMFERB
 40
0.5
  9
$CHAMFERC
 40
1.0
  9
$CHAMFERD
 40
0.0
  9
$SKPOLY
 70
     0
  9
$TDCREATE
 40
2456643.569113993
  9
$TDUCREATE
 40
2456643.527447327
  9
$TDUPDATE
 40
2456643.569115845
  9
$TDUUPDATE
 40
2456643.527449178
  9
$TDINDWG
 40
0.0000000116
  9
$TDUSRTIMER
 40
0.0000000116
  9
$USRTIMER
 70
     1
  9
$ANGBASE
 50
0.0
  9
$ANGDIR
 70
     0
  9
$PDMODE
 70
     0
  9
$PDSIZE
 40
0.0
  9
$PLINEWID
 40
0.0
  9
$SPLFRAME
 70
     0
  9
$SPLINETYPE
 70
     6
  9
$SPLINESEGS
 70
     8
  9
$HANDSEED
  5
352
  9
$SURFTAB1
 70
     6
  9
$SURFTAB2
 70
     6
  9
$SURFTYPE
 70
     6
  9
$SURFU
 70
     6
  9
$SURFV
 70
     6
  9
$UCSBASE
  2

  9
$UCSNAME
  2

  9
$UCSORG
 10
0.0
 20
0.0
 30
0.0
  9
$UCSXDIR
 10
1.0
 20
0.0
 30
0.0
  9
$UCSYDIR
 10
0.0
 20
1.0
 30
0.0
  9
$UCSORTHOREF
  2

  9
$UCSORTHOVIEW
 70
     0
  9
$UCSORGTOP
 10
0.0
 20
0.0
 30
0.0
  9
$UCSORGBOTTOM
 10
0.0
 20
0.0
 30
0.0
  9
$UCSORGLEFT
 10
0.0
 20
0.0
 30
0.0
  9
$UCSORGRIGHT
 10
0.0
 20
0.0
 30
0.0
  9
$UCSORGFRONT
 10
0.0
 20
0.0
 30
0.0
  9
$UCSORGBACK
 10
0.0
 20
0.0
 30
0.0
  9
$PUCSBASE
  2

  9
$PUCSNAME
  2

  9
$PUCSORG
 10
0.0
 20
0.0
 30
0.0
  9
$PUCSXDIR
 10
1.0
 20
0.0
 30
0.0
  9
$PUCSYDIR
 10
0.0
 20
1.0
 30
0.0
  9
$PUCSORTHOREF
  2

  9
$PUCSORTHOVIEW
 70
     0
  9
$PUCSORGTOP
 10
0.0
 20
0.0
 30
0.0
  9
$PUCSORGBOTTOM
 10
0.0
 20
0.0
 30
0.0
  9
$PUCSORGLEFT
 10
0.0
 20
0.0
 30
0.0
  9
$PUCSORGRIGHT
 10
0.0
 20
0.0
 30
0.0
  9
$PUCSORGFRONT
 10
0.0
 20
0.0
 30
0.0
  9
$PUCSORGBACK
 10
0.0
 20
0.0
 30
0.0
  9
$USERI1
 70
     0
  9
$USERI2
 70
     0
  9
$USERI3
 70
     0
  9
$USERI4
 70
     0
  9
$USERI5
 70
     0
  9
$USERR1
 40
18.1
  9
$USERR2
 40
0.0
  9
$USERR3
 40
0.0
  9
$USERR4
 40
0.0
  9
$USERR5
 40
0.0
  9
$WORLDVIEW
 70
     1
  9
$SHADEDGE
 70
     3
  9
$SHADEDIF
 70
    70
  9
$TILEMODE
 70
     1
  9
$MAXACTVP
 70
    64
  9
$PINSBASE
 10
0.0
 20
0.0
 30
0.0
  9
$PLIMCHECK
 70
     0
  9
$PEXTMIN
 10
1.00000000000000E+20
 20
1.00000000000000E+20
 30
1.00000000000000E+20
  9
$PEXTMAX
 10
-1.00000000000000E+20
 20
-1.00000000000000E+20
 30
-1.00000000000000E+20
  9
$PLIMMIN
 10
0.0
 20
0.0
  9
$PLIMMAX
 10
12.0
 20
9.0
  9
$UNITMODE
 70
     0
  9
$VISRETAIN
 70
     1
  9
$PLINEGEN
 70
     0
  9
$PSLTSCALE
 70
     1
  9
$TREEDEPTH
 70
  3020
  9
$CMLSTYLE
  2
Standard
  9
$CMLJUST
 70
     0
  9
$CMLSCALE
 40
1.0
  9
$PROXYGRAPHICS
 70
     1
  9
$MEASUREMENT
 70
     1
  9
$CELWEIGHT
370
    -1
  9
$ENDCAPS
280
     0
  9
$JOINSTYLE
280
     0
  9
$LWDISPLAY
290
     0
  9
$INSUNITS
 70
     4
  9
$HYPERLINKBASE
  1

  9
$STYLESHEET
  1

  9
$XEDIT
290
     1
  9
$CEPSNTYPE
380
     0
  9
$PSTYLEMODE
290
     1
  9
$FINGERPRINTGUID
  2
{18C29F24-48C2-43DE-BA92-12348E91207C}
  9
$VERSIONGUID
  2
{FAEB1C32-E019-11D5-929B-00C0DF256EC4}
  9
$EXTNAMES
290
     1
  9
$PSVPSCALE
 40
0.0
  9
$OLESTARTUP
290
     0
  0
ENDSEC
  0
SECTION
  2
CLASSES
  0
CLASS
  1
ACDBDICTIONARYWDFLT
  2
AcDbDictionaryWithDefault
  3
ObjectDBX Classes
 90
        0
280
     0
281
     0
  0
CLASS
  1
VISUALSTYLE
  2
AcDbVisualStyle
  3
ObjectDBX Classes
 90
     4095
280
     0
281
     0
  0
CLASS
  1
MATERIAL
  2
AcDbMaterial
  3
ObjectDBX Classes
 90
     1153
280
     0
281
     0
  0
CLASS
  1
DICTIONARYVAR
  2
AcDbDictionaryVar
  3
ObjectDBX Classes
 90
        0
280
     0
281
     0
  0
CLASS
  1
ACDBPLACEHOLDER
  2
AcDbPlaceHolder
  3
ObjectDBX Classes
 90
        0
280
     0
281
     0
  0
CLASS
  1
LAYOUT
  2
AcDbLayout
  3
ObjectDBX Classes
 90
        0
280
     0
281
     0
  0
ENDSEC
  0
SECTION
  2
TABLES
  0
TABLE
  2
VPORT
  5
8
330
0
100
AcDbSymbolTable
 70
     1
  0
VPORT
  5
29
330
8
100
AcDbSymbolTableRecord
100
AcDbViewportTableRecord
  2
*Active
 70
     0
 10
0.0
 20
0.0
 11
1.0
 21
1.0
 12
-95.53766974706194
 22
107.2820721072511
 13
0.0
 23
0.0
 14
0.5
 24
0.5
 15
0.5
 25
0.5
 16
0.0
 26
0.0
 36
1.0
 17
0.0
 27
0.0
 37
0.0
 40
231.0000000000001
 41
1.60267857142857
 42
50.0
 43
0.0
 44
0.0
 50
0.0
 51
0.0
 71
     0
 72
   100
 73
     1
 74
     3
 75
     0
 76
     0
 77
     0
 78
     0
281
     0
 65
     1
110
0.0
120
0.0
130
0.0
111
1.0
121
0.0
131
0.0
112
0.0
122
1.0
132
0.0
 79
     0
146
0.0
  0
ENDTAB
  0
TABLE
  2
LTYPE
  5
5
330
0
100
AcDbSymbolTable
 70
     8
  0
LTYPE
  5
14
330
5
100
AcDbSymbolTableRecord
100
AcDbLinetypeTableRecord
  2
ByBlock
 70
     0
  3

 72
    65
 73
     0
 40
0.0
  0
LTYPE
  5
15
330
5
100
AcDbSymbolTableRecord
100
AcDbLinetypeTableRecord
  2
ByLayer
 70
     0
  3

 72
    65
 73
     0
 40
0.0
  0
LTYPE
  5
16
330
5
100
AcDbSymbolTableRecord
100
AcDbLinetypeTableRecord
  2
Continuous
 70
     0
  3
Solid line
 72
    65
 73
     0
 40
0.0
  0
LTYPE
  5
3F
330
5
100
AcDbSymbolTableRecord
100
AcDbLinetypeTableRecord
  2
DASHED
 70
     0
  3
Dashed
 72
    65
 73
     2
 40
15.0
 49
7.0
 74
     0
 49
-8.0
 74
     0
  0
LTYPE
  5
40
330
5
100
AcDbSymbolTableRecord
100
AcDbLinetypeTableRecord
  2
DOTTED
 70
     0
  3
Dotted
 72
    65
 73
     2
 40
1.0
 49
0.0
 74
     0
 49
-1.0
 74
     0
  0
LTYPE
  5
41
330
5
100
AcDbSymbolTableRecord
100
AcDbLinetypeTableRecord
  2
DOT_CENTER
 70
     0
  3
Dot_Center
 72
    65
 73
     4
 40
14.0
 49
12.0
 74
     0
 49
-1.0
 74
     0
 49
0.0
 74
     0
 49
-1.0
 74
     0
  0
LTYPE
  5
42
330
5
100
AcDbSymbolTableRecord
100
AcDbLinetypeTableRecord
  2
LONG_DASHED
 70
     0
  3
Long_Dashed
 72
    65
 73
     2
 40
15.0
 49
10.0
 74
     0
 49
-5.0
 74
     0
  0
LTYPE
  5
43
330
5
100
AcDbSymbolTableRecord
100
AcDbLinetypeTableRecord
  2
DASH_CENTER
 70
     0
  3
Dash_Center
 72
    65
 73
     4
 40
14.0
 49
11.0
 74
     0
 49
-1.0
 74
     0
 49
1.0
 74
     0
 49
-1.0
 74
     0
  0
LTYPE
  5
44
330
5
100
AcDbSymbolTableRecord
100
AcDbLinetypeTableRecord
  2
PHANTOM
 70
     0
  3
Phantom
 72
    65
 73
     6
 40
13.0
 49
10.0
 74
     0
 49
-1.0
 74
     0
 49
0.0
 74
     0
 49
-1.0
 74
     0
 49
0.0
 74
     0
 49
-1.0
 74
     0
  0
LTYPE
  5
45
330
5
100
AcDbSymbolTableRecord
100
AcDbLinetypeTableRecord
  2
CENTER_DASH_DASH
 70
     0
  3
Center_Dash_Dash
 72
    65
 73
     6
 40
14.0
 49
9.0
 74
     0
 49
-1.0
 74
     0
 49
1.0
 74
     0
 49
-1.0
 74
     0
 49
1.0
 74
     0
 49
-1.0
 74
     0
  0
ENDTAB
  0
TABLE
  2
LAYER
  5
2
330
0
100
AcDbSymbolTable
 70
     2
  0
LAYER
  5
10
330
2
100
AcDbSymbolTableRecord
100
AcDbLayerTableRecord
  2
0
 70
     0
 62
     7
  6
Continuous
370
    -3
390
F
  0
LAYER
  5
46
330
2
100
AcDbSymbolTableRecord
100
AcDbLayerTableRecord
  2
1
 70
     0
 62
     7
  6
Continuous
370
    -3
390
F
  0
ENDTAB
  0
TABLE
  2
STYLE
  5
3
330
0
100
AcDbSymbolTable
 70
     9
  0
STYLE
  5
11
330
3
100
AcDbSymbolTableRecord
100
AcDbTextStyleTableRecord
  2
Standard
 70
     0
 40
0.0
 41
1.0
 50
0.0
 71
     0
 42
0.2
  3
txt
  4

  0
STYLE
  5
9A
330
3
100
AcDbSymbolTableRecord
100
AcDbTextStyleTableRecord
  2
CONVERTER_11
 70
     0
 40
0.0
 41
0.9
 50
0.0
 71
     0
 42
0.2
  3
txt.shx
  4

  0
STYLE
  5
2A5
330
3
100
AcDbSymbolTableRecord
100
AcDbTextStyleTableRecord
  2
CONVERTER_12
 70
     0
 40
0.0
 41
0.72
 50
0.0
 71
     0
 42
0.2
  3
txt.shx
  4

  0
STYLE
  5
2A7
330
3
100
AcDbSymbolTableRecord
100
AcDbTextStyleTableRecord
  2
CONVERTER_13
 70
     0
 40
0.0
 41
0.81
 50
0.0
 71
     0
 42
0.2
  3
txt.shx
  4

  0
STYLE
  5
2A9
330
3
100
AcDbSymbolTableRecord
100
AcDbTextStyleTableRecord
  2
CONVERTER_14
 70
     0
 40
0.0
 41
0.45
 50
0.0
 71
     0
 42
0.2
  3
txt.shx
  4

  0
STYLE
  5
2AB
330
3
100
AcDbSymbolTableRecord
100
AcDbTextStyleTableRecord
  2
CONVERTER_15
 70
     0
 40
0.0
 41
0.54
 50
0.0
 71
     0
 42
0.2
  3
txt.shx
  4

  0
STYLE
  5
2CD
330
3
100
AcDbSymbolTableRecord
100
AcDbTextStyleTableRecord
  2
CONVERTER_16
 70
     0
 40
0.0
 41
0.855
 50
0.0
 71
     0
 42
0.2
  3
txt.shx
  4

  0
STYLE
  5
300
330
3
100
AcDbSymbolTableRecord
100
AcDbTextStyleTableRecord
  2
CONVERTER_17
 70
     0
 40
0.0
 41
0.765
 50
0.0
 71
     0
 42
0.2
  3
txt.shx
  4

  0
STYLE
  5
30A
330
3
100
AcDbSymbolTableRecord
100
AcDbTextStyleTableRecord
  2
CONVERTER_18
 70
     0
 40
0.0
 41
0.63
 50
0.0
 71
     0
 42
0.2
  3
txt.shx
  4

  0
ENDTAB
  0
TABLE
  2
VIEW
  5
6
330
0
100
AcDbSymbolTable
 70
     0
  0
ENDTAB
  0
TABLE
  2
UCS
  5
7
330
0
100
AcDbSymbolTable
 70
     0
  0
ENDTAB
  0
TABLE
  2
APPID
  5
9
330
0
100
AcDbSymbolTable
 70
     1
  0
APPID
  5
12
330
9
100
AcDbSymbolTableRecord
100
AcDbRegAppTableRecord
  2
ACAD
 70
     0
  0
ENDTAB
  0
TABLE
  2
DIMSTYLE
  5
A
330
0
100
AcDbSymbolTable
 70
     6
100
AcDbDimStyleTable
  0
DIMSTYLE
105
27
330
A
100
AcDbSymbolTableRecord
100
AcDbDimStyleTableRecord
  2
Standard
 70
     0
178
     0
340
11
  0
DIMSTYLE
105
B5
102
{ACAD_REACTORS
330
B6
102
}
330
A
100
AcDbSymbolTableRecord
100
AcDbDimStyleTableRecord
  2
ME10_DIM_10
 70
     0
 41
1.75
 42
0.0
 44
1.0
 73
     0
 74
     0
 77
     1
 78
     8
140
1.75
147
1.0
172
     1
173
     1
174
     1
175
     1
176
     2
177
     2
178
     3
340
9A
  0
DIMSTYLE
105
103
102
{ACAD_REACTORS
330
104
102
}
330
A
100
AcDbSymbolTableRecord
100
AcDbDimStyleTableRecord
  2
ME10_DIM_11
 70
     0
 41
1.75
 42
0.0
 44
1.0
 73
     0
 74
     0
 77
     1
 78
     8
140
1.75
147
1.0
172
     1
173
     1
174
     1
175
     1
176
     2
177
     2
178
     3
340
9A
  0
DIMSTYLE
105
10E
102
{ACAD_REACTORS
330
10F
102
}
330
A
100
AcDbSymbolTableRecord
100
AcDbDimStyleTableRecord
  2
ME10_DIM_12
 70
     0
 41
1.75
 42
0.0
 44
1.0
 73
     0
 74
     0
 77
     1
 78
     8
140
1.75
147
1.0
172
     1
173
     1
174
     1
175
     1
176
     2
177
     2
178
     3
340
9A
  0
DIMSTYLE
105
119
102
{ACAD_REACTORS
330
11A
102
}
330
A
100
AcDbSymbolTableRecord
100
AcDbDimStyleTableRecord
  2
ME10_DIM_13
 70
     0
 41
1.75
 42
0.0
 44
1.0
 73
     0
 74
     0
 77
     1
 78
     8
140
1.75
147
1.0
172
     1
173
     1
174
     1
175
     1
176
     2
177
     2
178
     3
340
9A
  0
DIMSTYLE
105
126
102
{ACAD_REACTORS
330
127
102
}
330
A
100
AcDbSymbolTableRecord
100
AcDbDimStyleTableRecord
  2
ME10_DIM_14
 70
     0
  3
 {\Fgdt;n}<>
 41
1.75
 42
0.0
 44
1.0
 73
     0
 74
     0
 77
     1
 78
     8
140
1.75
147
1.0
172
     1
173
     1
174
     1
175
     1
176
     2
177
     2
178
     3
340
9A
  0
ENDTAB
  0
TABLE
  2
BLOCK_RECORD
  5
1
330
0
100
AcDbSymbolTable
 70
    21
  0
BLOCK_RECORD
  5
1F
330
1
100
AcDbSymbolTableRecord
100
AcDbBlockTableRecord
  2
*Model_Space
340
22
  0
BLOCK_RECORD
  5
1B
330
1
100
AcDbSymbolTableRecord
100
AcDbBlockTableRecord
  2
*Paper_Space
340
1E
  0
BLOCK_RECORD
  5
23
330
1
100
AcDbSymbolTableRecord
100
AcDbBlockTableRecord
  2
*Paper_Space0
340
26
  0
BLOCK_RECORD
  5
47
330
1
100
AcDbSymbolTableRecord
100
AcDbBlockTableRecord
  2
3240679_AI_TWIN_2X_1_12_RD-select__1
340
0
102
{BLKREFS
331
4B
102
}
  0
BLOCK_RECORD
  5
4A
330
1
100
AcDbSymbolTableRecord
100
AcDbBlockTableRecord
  2
Allg1
340
0
102
{BLKREFS
331
7C
102
}
  0
BLOCK_RECORD
  5
4E
330
1
100
AcDbSymbolTableRecord
100
AcDbBlockTableRecord
  2
3240679_AI_TWIN_2X_1_12_RD-select__2
340
0
102
{BLKREFS
331
52
102
}
  0
BLOCK_RECORD
  5
51
330
1
100
AcDbSymbolTableRecord
100
AcDbBlockTableRecord
  2
Drfsicht1
340
0
102
{BLKREFS
331
7D
102
}
  0
BLOCK_RECORD
  5
55
330
1
100
AcDbSymbolTableRecord
100
AcDbBlockTableRecord
  2
3240679_AI_TWIN_2X_1_12_RD-select__3
340
0
102
{BLKREFS
331
59
102
}
  0
BLOCK_RECORD
  5
58
330
1
100
AcDbSymbolTableRecord
100
AcDbBlockTableRecord
  2
Rckans1
340
0
102
{BLKREFS
331
7E
102
}
  0
BLOCK_RECORD
  5
5C
330
1
100
AcDbSymbolTableRecord
100
AcDbBlockTableRecord
  2
3240679_AI_TWIN_2X_1_12_RD-select__4
340
0
102
{BLKREFS
331
60
102
}
  0
BLOCK_RECORD
  5
5F
330
1
100
AcDbSymbolTableRecord
100
AcDbBlockTableRecord
  2
SA_Links1
340
0
102
{BLKREFS
331
7F
102
}
  0
BLOCK_RECORD
  5
63
330
1
100
AcDbSymbolTableRecord
100
AcDbBlockTableRecord
  2
3240679_AI_TWIN_2X_1_12_RD-select__5
340
0
102
{BLKREFS
331
67
102
}
  0
BLOCK_RECORD
  5
66
330
1
100
AcDbSymbolTableRecord
100
AcDbBlockTableRecord
  2
SA_Rechts1
340
0
102
{BLKREFS
331
80
102
}
  0
BLOCK_RECORD
  5
6A
330
1
100
AcDbSymbolTableRecord
100
AcDbBlockTableRecord
  2
3240679_AI_TWIN_2X_1_12_RD-select__6
340
0
102
{BLKREFS
331
6E
102
}
  0
BLOCK_RECORD
  5
6D
330
1
100
AcDbSymbolTableRecord
100
AcDbBlockTableRecord
  2
Vordans1
340
0
102
{BLKREFS
331
81
102
}
  0
BLOCK_RECORD
  5
71
330
1
100
AcDbSymbolTableRecord
100
AcDbBlockTableRecord
  2
_punkt
340
0
102
{BLKREFS
331
78
102
}
  0
BLOCK_RECORD
  5
74
330
1
100
AcDbSymbolTableRecord
100
AcDbBlockTableRecord
  2
_rahmen
340
0
102
{BLKREFS
331
79
102
}
  0
BLOCK_RECORD
  5
77
330
1
100
AcDbSymbolTableRecord
100
AcDbBlockTableRecord
  2
A4I
340
0
102
{BLKREFS
331
82
102
}
  0
BLOCK_RECORD
  5
AA
330
1
100
AcDbSymbolTableRecord
100
AcDbBlockTableRecord
  2
*D16
340
0
  0
BLOCK_RECORD
  5
FA
330
1
100
AcDbSymbolTableRecord
100
AcDbBlockTableRecord
  2
*D17
340
0
  0
BLOCK_RECORD
  5
105
330
1
100
AcDbSymbolTableRecord
100
AcDbBlockTableRecord
  2
*D18
340
0
  0
BLOCK_RECORD
  5
110
330
1
100
AcDbSymbolTableRecord
100
AcDbBlockTableRecord
  2
*D19
340
0
  0
BLOCK_RECORD
  5
11B
330
1
100
AcDbSymbolTableRecord
100
AcDbBlockTableRecord
  2
*D20
340
0
  0
ENDTAB
  0
ENDSEC
  0
SECTION
  2
BLOCKS
  0
BLOCK
  5
20
330
1F
100
AcDbEntity
  8
0
100
AcDbBlockBegin
  2
*Model_Space
 70
     0
 10
0.0
 20
0.0
 30
0.0
  3
*Model_Space
  1

  0
ENDBLK
  5
21
330
1F
100
AcDbEntity
  8
0
100
AcDbBlockEnd
  0
BLOCK
  5
1C
330
1B
100
AcDbEntity
 67
     1
  8
0
100
AcDbBlockBegin
  2
*Paper_Space
 70
     0
 10
0.0
 20
0.0
 30
0.0
  3
*Paper_Space
  1

  0
ENDBLK
  5
1D
330
1B
100
AcDbEntity
 67
     1
  8
0
100
AcDbBlockEnd
  0
BLOCK
  5
24
330
23
100
AcDbEntity
  8
0
100
AcDbBlockBegin
  2
*Paper_Space0
 70
     0
 10
0.0
 20
0.0
 30
0.0
  3
*Paper_Space0
  1

  0
ENDBLK
  5
25
330
23
100
AcDbEntity
  8
0
100
AcDbBlockEnd
  0
BLOCK
  5
48
330
47
100
AcDbEntity
  8
0
100
AcDbBlockBegin
  2
3240679_AI_TWIN_2X_1_12_RD-select__1
 70
     0
 10
-4.50000000001774
 20
27.34771676147198
 30
0.0
  3
3240679_AI_TWIN_2X_1_12_RD-select__1
  1

  0
LINE
  5
83
330
47
100
AcDbEntity
  8
0
  6
Continuous
 62
     7
100
AcDbLine
 10
-0.56350832691403
 20
27.34771676147198
 30
0.0
 11
-4.43649167312143
 21
28.46575075022187
 31
0.0
  0
LINE
  5
84
330
47
100
AcDbEntity
  8
0
  6
Continuous
 62
     7
100
AcDbLine
 10
1.49999999998227
 20
28.77275915963137
 30
0.0
 11
1.49999999998228
 21
33.25444062421584
 31
0.0
  0
LINE
  5
85
330
47
100
AcDbEntity
  8
0
  6
Continuous
 62
     7
100
AcDbLine
 10
-2.67500000001773
 20
35.02166636767496
 30
0.0
 11
-3.9494897428009
 21
34.12046602800027
 31
0.0
  0
LINE
  5
86
330
47
100
AcDbEntity
  8
0
  6
Continuous
 62
     7
100
AcDbLine
 10
-0.56350832691403
 20
27.34771676147198
 30
0.0
 11
-0.56350832691403
 21
31.82939822605646
 31
0.0
  0
LINE
  5
87
330
47
100
AcDbEntity
  8
0
  6
Continuous
 62
     7
100
AcDbLine
 10
-0.32500000001773
 20
34.83493698612244
 30
0.0
 11
-0.32500000001773
 21
45.2272418315357
 31
0.0
  0
LINE
  5
88
330
47
100
AcDbEntity
  8
0
  6
Continuous
 62
     7
100
AcDbLine
 10
-4.50000000001774
 20
28.77275915963137
 30
0.0
 11
-4.50000000001773
 21
33.25444062421584
 31
0.0
  0
LINE
  5
89
330
47
100
AcDbEntity
  8
0
  6
Continuous
 62
     7
100
AcDbLine
 10
-4.43649167312143
 20
28.46575075022187
 30
0.0
 11
-4.43649167312144
 21
32.94743221480634
 31
0.0
  0
LINE
  5
8A
330
47
100
AcDbEntity
  8
0
  6
Continuous
 62
     7
100
AcDbLine
 10
-2.67500000001774
 20
34.83493698612244
 30
0.0
 11
-2.67500000001773
 21
45.22724183153571
 31
0.0
  0
LINE
  5
8B
330
47
100
AcDbEntity
  8
0
  6
Continuous
 62
     7
100
AcDbLine
 10
-0.56350832691403
 20
31.82939822605646
 30
0.0
 11
-4.43649167312144
 21
32.94743221480634
 31
0.0
  0
SPLINE
  5
8C
330
47
100
AcDbEntity
  8
0
  6
Continuous
 62
     7
100
AcDbSpline
210
0.0
220
0.0
230
1.0
 70
     8
 71
     3
 72
    13
 73
     9
 74
     7
 42
0.000000001
 43
0.0000000001
 44
0.00000001
 40
0.0
 40
0.0
 40
0.0
 40
0.0
 40
0.5848663219127906
 40
1.122638822850433
 40
1.600811856148989
 40
2.014133975580901
 40
2.368676719852135
 40
2.686497166662049
 40
2.686497166662049
 40
2.686497166662049
 40
2.686497166662049
 10
-0.5635083269140253
 20
27.34771676147198
 30
0.0
 10
-0.3719489894481077
 20
27.3853133062927
 30
0.0
 10
-0.0042547998927537
 20
27.45747910354061
 30
0.0
 10
0.4989980947817601
 20
27.64070623533443
 30
0.0
 10
0.9210727676057318
 20
27.86822527735915
 30
0.0
 10
1.239205231614746
 20
28.13722887698287
 30
0.0
 10
1.456709931165707
 20
28.44114424323542
 30
0.0
 10
1.486105138501237
 20
28.66632031533853
 30
0.0
 10
1.499999999982265
 20
28.77275915963137
 30
0.0
 11
-0.5635083269140253
 21
27.34771676147198
 31
0.0
 11
0.0071619021387752
 21
27.47579522770598
 31
0.0
 11
0.5123074803603913
 21
27.66025987823674
 31
0.0
 11
0.9299663984207132
 21
27.89309131540925
 31
0.0
 11
1.241981258227336
 21
28.16416677152731
 31
0.0
 11
1.434786312948081
 21
28.4617012633315
 31
0.0
 11
1.499999999982265
 21
28.77275915963137
 31
0.0
  0
SPLINE
  5
8D
330
47
100
AcDbEntity
  8
0
  6
Continuous
 62
     7
100
AcDbSpline
210
0.0
220
0.0
230
1.0
 70
     8
 71
     3
 72
     9
 73
     5
 74
     3
 42
0.000000001
 43
0.0000000001
 44
0.00000001
 40
0.0
 40
0.0
 40
0.0
 40
0.0
 40
0.1551420221842689
 40
0.31507173629453
 40
0.31507173629453
 40
0.31507173629453
 40
0.31507173629453
 10
1.499999999982276
 20
33.25444062421584
 30
0.0
 10
1.497175680704395
 20
33.30639118499847
 30
0.0
 10
1.49143986388181
 20
33.41189550094034
 30
0.0
 10
1.454992356629833
 20
33.511095391718
 30
0.0
 10
1.436491673085975
 20
33.56144903362533
 30
0.0
 11
1.499999999982276
 21
33.25444062421584
 31
0.0
 11
1.48408067784511
 21
33.40876373505435
 31
0.0
 11
1.436491673085975
 21
33.56144903362533
 31
0.0
  0
SPLINE
  5
8E
330
47
100
AcDbEntity
  8
0
  6
Continuous
 62
     7
100
AcDbSpline
210
0.0
220
0.0
230
1.0
 70
     8
 71
     3
 72
    15
 73
    11
 74
     9
 42
0.000000001
 43
0.0000000001
 44
0.00000001
 40
0.0
 40
0.0
 40
0.0
 40
0.0
 40
0.1064471638667701
 40
0.2191130174319872
 40
0.4236493415429035
 40
0.6849370530761552
 40
0.9909466825878875
 40
1.380919216561133
 40
1.983423609754135
 40
2.782754948759391
 40
2.782754948759391
 40
2.782754948759391
 40
2.782754948759391
 10
-2.087500000017727
 20
34.32614706139908
 30
0.0
 10
-2.12230438291906
 20
34.3337614243706
 30
0.0
 10
-2.19394643620685
 20
34.3494349780187
 30
0.0
 10
-2.336411703083362
 20
34.34098083886614
 30
0.0
 10
-2.523141265013379
 20
34.28767508124866
 30
0.0
 10
-2.754999330594312
 20
34.17436919501382
 30
0.0
 10
-3.027527640659854
 20
34.00804123894016
 30
0.0
 10
-3.38350142279371
 20
33.761534228972
 30
0.0
 10
-3.861330214955487
 20
33.40302725805111
 30
0.0
 10
-4.227627661903961
 20
33.11287689820765
 30
0.0
 10
-4.436491673121445
 20
32.94743221480634
 30
0.0
 11
-2.087500000017727
 21
34.32614706139908
 31
0.0
 11
-2.19239497761987
 21
34.34425905944552
 31
0.0
 11
-2.304977444221667
 21
34.33992526344473
 31
0.0
 11
-2.502811879597273
 21
34.28799604943291
 31
0.0
 11
-2.739674811424585
 21
34.1776909306258
 31
0.0
 11
-3.002204750531782
 21
34.02046521995053
 31
0.0
 11
-3.324092042685606
 21
33.80031266348156
 31
0.0
 11
-3.807449523787117
 21
33.44062239538621
 31
0.0
 11
-4.436491673121445
 21
32.94743221480634
 31
0.0
  0
SPLINE
  5
8F
330
47
100
AcDbEntity
  8
0
  6
Continuous
 62
     7
100
AcDbSpline
210
0.0
220
0.0
230
1.0
 70
     8
 71
     3
 72
    11
 73
     7
 74
     5
 42
0.000000001
 43
0.0000000001
 44
0.00000001
 40
0.0
 40
0.0
 40
0.0
 40
0.0
 40
0.2606459889022351
 40
0.4835198967627599
 40
0.6675194669323748
 40
0.8247583584975455
 40
0.8247583584975455
 40
0.8247583584975455
 40
0.8247583584975455
 10
-2.087500000017727
 20
34.32614706139908
 30
0.0
 10
-2.170315399654243
 20
34.35380807103535
 30
0.0
 10
-2.323944820536346
 20
34.40512154500232
 30
0.0
 10
-2.511826325845891
 20
34.52528473718456
 30
0.0
 10
-2.646629892618892
 20
34.66797719781975
 30
0.0
 10
-2.666050983634227
 20
34.78227145875936
 30
0.0
 10
-2.675000000017736
 20
34.83493698612244
 30
0.0
 11
-2.087500000017727
 21
34.32614706139908
 31
0.0
 11
-2.330850246402397
 21
34.41951186293011
 31
0.0
 11
-2.51757984946445
 21
34.54118698612244
 31
0.0
 11
-2.634962543319749
 21
34.68288083766377
 31
0.0
 11
-2.675000000017736
 21
34.83493698612244
 31
0.0
  0
SPLINE
  5
90
330
47
100
AcDbEntity
  8
0
  6
Continuous
 62
     7
100
AcDbSpline
210
0.0
220
0.0
230
1.0
 70
     8
 71
     3
 72
    15
 73
    11
 74
     9
 42
0.000000001
 43
0.0000000001
 44
0.00000001
 40
0.0
 40
0.0
 40
0.0
 40
0.0
 40
0.1572388871836565
 40
0.3412384612871447
 40
0.5641123736541735
 40
0.8247583573769627
 40
1.114159920170619
 40
1.418930388831042
 40
1.723700857767985
 40
2.01310242981827
 40
2.01310242981827
 40
2.01310242981827
 40
2.01310242981827
 10
-0.3250000000177344
 20
34.83493698612244
 30
0.0
 10
-0.3339532562454695
 20
34.78228851501203
 30
0.0
 10
-0.3533835471721453
 20
34.66803126753707
 30
0.0
 10
-0.4881032756371451
 20
34.52500162380687
 30
0.0
 10
-0.6764038813126212
 20
34.40652414832334
 30
0.0
 10
-0.9200253406902634
 20
34.31661471338452
 30
0.0
 10
-1.200106758865013
 20
34.26000186870084
 30
0.0
 10
-1.499853105190097
 20
34.24151152937703
 30
0.0
 10
-1.800465950549487
 20
34.25797630682506
 30
0.0
 10
-1.993486209186365
 20
34.30381872911537
 30
0.0
 10
-2.087500000017727
 20
34.32614706139908
 30
0.0
 11
-0.3250000000177344
 21
34.83493698612244
 31
0.0
 11
-0.3650374567157124
 21
34.68288083766377
 31
0.0
 11
-0.4824201505710093
 21
34.54118698612244
 31
0.0
 11
-0.6691497536330575
 21
34.41951186293011
 31
0.0
 11
-0.912500000017724
 21
34.32614706139908
 31
0.0
 11
-1.195887703100378
 21
34.26745571447144
 31
0.0
 11
-1.500000000017724
 21
34.24743698612244
 31
0.0
 11
-1.804112296935072
 21
34.26745571447143
 31
0.0
 11
-2.087500000017727
 21
34.32614706139908
 31
0.0
  0
SPLINE
  5
91
330
47
100
AcDbEntity
  8
0
  6
Continuous
 62
     7
100
AcDbSpline
210
0.0
220
0.0
230
1.0
 70
     8
 71
     3
 72
    15
 73
    11
 74
     9
 42
0.000000001
 43
0.0000000001
 44
0.00000001
 40
0.0
 40
0.0
 40
0.0
 40
0.0
 40
0.8567894532177345
 40
1.503056250217241
 40
1.92168314821597
 40
2.25032399479268
 40
2.530561674666164
 40
2.748080056221558
 40
2.865556589537524
 40
2.973661907315742
 40
2.973661907315742
 40
2.973661907315742
 40
2.973661907315742
 10
-0.5635083269140253
 20
31.82939822605646
 30
0.0
 10
-0.6818452590142905
 20
32.08933125238011
 30
0.0
 10
-0.8894424182714916
 20
32.5453288868361
 30
0.0
 10
-1.168129662755448
 20
33.122174710572
 30
0.0
 10
-1.38395715521054
 20
33.53365584385923
 30
0.0
 10
-1.558102456066338
 20
33.82874283338509
 30
0.0
 10
-1.71717528194641
 20
34.05444064659476
 30
0.0
 10
-1.860298311940404
 20
34.20276609843269
 30
0.0
 10
-1.982534856233199
 20
34.28811333559187
 30
0.0
 10
-2.053494226216629
 20
34.313825197687
 30
0.0
 10
-2.087500000017727
 20
34.32614706139908
 30
0.0
 11
-0.5635083269140253
 21
31.82939822605646
 31
0.0
 11
-0.9218918793708925
 21
32.60763301529912
 31
0.0
 11
-1.205007895535953
 21
33.1885857620854
 31
0.0
 11
-1.401319342651014
 21
33.558329315371
 31
0.0
 11
-1.570386886208276
 21
33.84014658143391
 31
0.0
 11
-1.735581600618815
 21
34.06651765535523
 31
0.0
 11
-1.889677628178735
 21
34.22003853315133
 31
0.0
 11
-1.987487347114965
 21
34.28510767612455
 31
0.0
 11
-2.087500000017727
 21
34.32614706139908
 31
0.0
  0
SPLINE
  5
92
330
47
100
AcDbEntity
  8
0
  6
Continuous
 62
     7
100
AcDbSpline
210
0.0
220
0.0
230
1.0
 70
     8
 71
     3
 72
     9
 73
     5
 74
     3
 42
0.000000001
 43
0.0000000001
 44
0.00000001
 40
0.0
 40
0.0
 40
0.0
 40
0.0
 40
0.1551420221842763
 40
0.3150717362945398
 40
0.3150717362945398
 40
0.3150717362945398
 40
0.3150717362945398
 10
-4.500000000017735
 20
28.77275915963137
 30
0.0
 10
-4.497175680739853
 20
28.72080859884873
 30
0.0
 10
-4.491439863917265
 20
28.61530428290686
 30
0.0
 10
-4.454992356665291
 20
28.51610439212919
 30
0.0
 10
-4.436491673121434
 20
28.46575075022187
 30
0.0
 11
-4.500000000017735
 21
28.77275915963137
 31
0.0
 11
-4.484080677880566
 21
28.61843604879286
 31
0.0
 11
-4.436491673121434
 21
28.46575075022187
 31
0.0
  0
SPLINE
  5
93
330
47
100
AcDbEntity
  8
0
  6
Continuous
 62
     7
100
AcDbSpline
210
0.0
220
0.0
230
1.0
 70
     8
 71
     3
 72
     9
 73
     5
 74
     3
 42
0.000000001
 43
0.0000000001
 44
0.00000001
 40
0.0
 40
0.0
 40
0.0
 40
0.0
 40
0.1551420221842682
 40
0.315071736294532
 40
0.315071736294532
 40
0.315071736294532
 40
0.315071736294532
 10
-4.500000000017725
 20
33.25444062421584
 30
0.0
 10
-4.497175680739847
 20
33.2024900634332
 30
0.0
 10
-4.491439863917263
 20
33.09698574749133
 30
0.0
 10
-4.454992356665297
 20
32.99778585671367
 30
0.0
 10
-4.436491673121445
 20
32.94743221480634
 30
0.0
 11
-4.500000000017725
 21
33.25444062421584
 31
0.0
 11
-4.484080677880566
 21
33.10011751337733
 31
0.0
 11
-4.436491673121445
 21
32.94743221480634
 31
0.0
  0
SPLINE
  5
94
330
47
100
AcDbEntity
  8
0
  6
Continuous
 62
     7
100
AcDbSpline
210
0.0
220
0.0
230
1.0
 70
     8
 71
     3
 72
    11
 73
     7
 74
     5
 42
0.000000001
 43
0.0000000001
 44
0.00000001
 40
0.0
 40
0.0
 40
0.0
 40
0.0
 40
0.3084189555341912
 40
0.5834209184535375
 40
0.8314383491201472
 40
1.064049786451147
 40
1.064049786451147
 40
1.064049786451147
 40
1.064049786451147
 10
-3.949489742800903
 20
34.12046602800027
 30
0.0
 10
-4.03124569327341
 20
34.05755846283003
 30
0.0
 10
-4.185899380903644
 20
33.93855931537676
 30
0.0
 10
-4.36168916801785
 20
33.72196643955235
 30
0.0
 10
-4.477906095231349
 20
33.49304511591678
 30
0.0
 10
-4.492794445986938
 20
33.33225750292928
 30
0.0
 10
-4.500000000017725
 20
33.25444062421584
 30
0.0
 11
-3.949489742800903
 21
34.12046602800027
 31
0.0
 11
-4.186010002627683
 21
33.92252558666223
 31
0.0
 11
-4.359061841632
 21
33.70879879400736
 31
0.0
 11
-4.464556049306363
 21
33.48433583563557
 31
0.0
 11
-4.500000000017725
 21
33.25444062421584
 31
0.0
  0
SPLINE
  5
95
330
47
100
AcDbEntity
  8
0
  6
Continuous
 62
     7
100
AcDbSpline
210
0.0
220
0.0
230
1.0
 70
     8
 71
     3
 72
    13
 73
     9
 74
     7
 42
0.000000001
 43
0.0000000001
 44
0.00000001
 40
0.0
 40
0.0
 40
0.0
 40
0.0
 40
0.5848663219127899
 40
1.122638822850432
 40
1.600811856148986
 40
2.014133975580898
 40
2.368676719852137
 40
2.686497166662045
 40
2.686497166662045
 40
2.686497166662045
 40
2.686497166662045
 10
-0.5635083269140253
 20
31.82939822605646
 30
0.0
 10
-0.3719489894481078
 20
31.86699477087717
 30
0.0
 10
-0.0042547998927531
 20
31.93916056812508
 30
0.0
 10
0.498998094781759
 20
32.1223876999189
 30
0.0
 10
0.9210727676057324
 20
32.34990674194363
 30
0.0
 10
1.239205231614748
 20
32.61891034156734
 30
0.0
 10
1.456709931165703
 20
32.92282570781988
 30
0.0
 10
1.486105138501244
 20
33.14800177992301
 30
0.0
 10
1.499999999982276
 20
33.25444062421584
 30
0.0
 11
-0.5635083269140253
 21
31.82939822605646
 31
0.0
 11
0.0071619021387752
 21
31.95747669229045
 31
0.0
 11
0.5123074803603913
 21
32.14194134282121
 31
0.0
 11
0.9299663984207132
 21
32.37477277999373
 31
0.0
 11
1.241981258227336
 21
32.64584823611178
 31
0.0
 11
1.434786312948082
 21
32.94338272791597
 31
0.0
 11
1.499999999982276
 21
33.25444062421584
 31
0.0
  0
SPLINE
  5
96
330
47
100
AcDbEntity
  8
0
  6
Continuous
 62
     7
100
AcDbSpline
210
0.0
220
0.0
230
1.0
 70
     8
 71
     3
 72
    13
 73
     9
 74
     7
 42
0.000000001
 43
0.0000000001
 44
0.00000001
 40
0.0
 40
0.0
 40
0.0
 40
0.0
 40
0.2544459831642717
 40
0.5610194905687845
 40
0.8301983944975526
 40
1.140447580380757
 40
1.657051578391176
 40
2.288630381117286
 40
2.288630381117286
 40
2.288630381117286
 40
2.288630381117286
 10
-0.3250000000177343
 20
35.02157843450047
 30
0.0
 10
-0.2566332658137139
 20
34.97137090618902
 30
0.0
 10
-0.1058937393073591
 20
34.86066997838222
 30
0.0
 10
0.110549645939473
 20
34.68814403729006
 30
0.0
 10
0.3391169130305083
 20
34.50112604296708
 30
0.0
 10
0.6191402136041179
 20
34.26645480740225
 30
0.0
 10
0.9887950963116794
 20
33.95070579773154
 30
0.0
 10
1.277618893215518
 20
33.69958344118842
 30
0.0
 10
1.436491673085975
 20
33.56144903362533
 30
0.0
 11
-0.3250000000177343
 21
35.02157843450047
 31
0.0
 11
-0.1208202179286677
 21
34.86974505489334
 31
0.0
 11
0.1198521484003656
 21
34.67983947456939
 31
0.0
 11
0.3282106439195851
 21
34.50941641704496
 31
0.0
 11
0.5661829308107258
 21
34.31035926989992
 31
0.0
 11
0.9592091322714792
 21
33.9750831214828
 31
0.0
 11
1.436491673085975
 21
33.56144903362533
 31
0.0
  0
SPLINE
  5
97
330
47
100
AcDbEntity
  8
0
  6
Continuous
 62
     7
100
AcDbSpline
210
0.0
220
0.0
230
1.0
 70
     8
 71
     3
 72
    17
 73
    13
 74
    11
 42
0.000000001
 43
0.0000000001
 44
0.00000001
 40
0.0
 40
0.0
 40
0.0
 40
0.0
 40
0.1572388864430364
 40
0.3412384634676993
 40
0.5641123760996114
 40
0.8247583601680273
 40
1.114159923403312
 40
1.41893039259151
 40
1.723700861556676
 40
2.013102423882878
 40
2.273748408558482
 40
2.496622326864028
 40
2.496622326864028
 40
2.496622326864028
 40
2.496622326864028
 10
-2.675000000017725
 20
45.22724183153571
 30
0.0
 10
-2.666046760016327
 20
45.17459344229007
 30
0.0
 10
-2.646616505499121
 20
45.06033637104866
 30
0.0
 10
-2.511896456949713
 20
44.9173051120728
 30
0.0
 10
-2.323597449261174
 20
44.7988357042103
 30
0.0
 10
-2.079968508933999
 20
44.70888854291072
 30
0.0
 10
-1.79991945393223
 20
44.65243890718179
 30
0.0
 10
-1.500043677351402
 20
44.63329585177651
 30
0.0
 10
-1.19991029281513
 20
44.65217853070111
 30
0.0
 10
-0.9205714224093626
 20
44.70982868294347
 30
0.0
 10
-0.6747226756977356
 20
44.79588405592126
 30
0.0
 10
-0.5430934103307034
 20
44.89007527601819
 30
0.0
 10
-0.4824201505710164
 20
44.9334918315357
 30
0.0
 11
-2.675000000017725
 21
45.22724183153571
 31
0.0
 11
-2.634962543319743
 21
45.07518568307703
 31
0.0
 11
-2.517579849464445
 21
44.93349183153571
 31
0.0
 11
-2.330850246402393
 21
44.81181670834338
 31
0.0
 11
-2.08750000001773
 21
44.71845190681235
 31
0.0
 11
-1.80411229693508
 21
44.6597605598847
 31
0.0
 11
-1.500000000017729
 21
44.63974183153571
 31
0.0
 11
-1.195887703100379
 21
44.6597605598847
 31
0.0
 11
-0.9125000000177294
 21
44.71845190681235
 31
0.0
 11
-0.6691497536330671
 21
44.81181670834338
 31
0.0
 11
-0.4824201505710164
 21
44.9334918315357
 31
0.0
  0
SPLINE
  5
98
330
47
100
AcDbEntity
  8
0
  6
Continuous
 62
     7
100
AcDbSpline
210
0.0
220
0.0
230
1.0
 70
     8
 71
     3
 72
     9
 73
     5
 74
     3
 42
0.000000001
 43
0.0000000001
 44
0.00000001
 40
0.0
 40
0.0
 40
0.0
 40
0.0
 40
0.1839995749679078
 40
0.3412384682013717
 40
0.3412384682013717
 40
0.3412384682013717
 40
0.3412384682013717
 10
-0.4824201505710164
 20
44.9334918315357
 30
0.0
 10
-0.4369540508244388
 20
44.97746619700662
 30
0.0
 10
-0.3526344036360756
 20
45.05901935830177
 30
0.0
 10
-0.3337169458911132
 20
45.17417800438068
 30
0.0
 10
-0.3250000000177344
 20
45.2272418315357
 30
0.0
 11
-0.4824201505710164
 21
44.9334918315357
 31
0.0
 11
-0.3650374567157213
 21
45.07518568307703
 31
0.0
 11
-0.3250000000177344
 21
45.2272418315357
 31
0.0
  0
SPLINE
  5
99
330
47
100
AcDbEntity
  8
0
  6
Continuous
 62
     7
100
AcDbSpline
210
0.0
220
0.0
230
1.0
 70
     8
 71
     3
 72
    19
 73
    15
 74
    13
 42
0.000000001
 43
0.0000000001
 44
0.00000001
 40
0.0
 40
0.0
 40
0.0
 40
0.0
 40
0.1572388910640595
 40
0.341238464551152
 40
0.5641123782281452
 40
0.8247583639140288
 40
1.114159929589954
 40
1.418930402009307
 40
1.723700874428659
 40
2.013102440104585
 40
2.273748425790469
 40
2.496622339467466
 40
2.680621912954565
 40
2.837860804018618
 40
2.837860804018618
 40
2.837860804018618
 40
2.837860804018618
 10
-0.3250000000177344
 20
45.2272418315357
 30
0.0
 10
-0.3339532334350521
 20
45.27989021028966
 30
0.0
 10
-0.3533834804577526
 20
45.39414725339962
 30
0.0
 10
-0.4881036560946366
 20
45.53717875618428
 30
0.0
 10
-0.6764019901598943
 20
45.65564697155598
 30
0.0
 10
-0.9200340958634771
 20
45.74559969921219
 30
0.0
 10
-1.200069461184969
 20
45.80202526115495
 30
0.0
 10
-1.500000000017724
 20
45.82126459582523
 30
0.0
 10
-1.799930538850481
 20
45.80202526115497
 30
0.0
 10
-2.079965904171972
 20
45.7455996992122
 30
0.0
 10
-2.323598009875555
 20
45.655646971556
 30
0.0
 10
-2.511896343940821
 20
45.53717875618429
 30
0.0
 10
-2.646616519577698
 20
45.39414725339963
 30
0.0
 10
-2.666046766600404
 20
45.27989021028965
 30
0.0
 10
-2.675000000017725
 20
45.22724183153571
 30
0.0
 11
-0.3250000000177344
 21
45.2272418315357
 31
0.0
 11
-0.3650374567157124
 21
45.37929797999438
 31
0.0
 11
-0.4824201505710093
 21
45.5209918315357
 31
0.0
 11
-0.6691497536330575
 21
45.64266695472803
 31
0.0
 11
-0.912500000017724
 21
45.73603175625906
 31
0.0
 11
-1.195887703100378
 21
45.79472310318671
 31
0.0
 11
-1.500000000017724
 21
45.81474183153571
 31
0.0
 11
-1.804112296935071
 21
45.79472310318673
 31
0.0
 11
-2.087500000017725
 21
45.73603175625907
 31
0.0
 11
-2.330850246402392
 21
45.64266695472804
 31
0.0
 11
-2.517579849464445
 21
45.52099183153571
 31
0.0
 11
-2.634962543319743
 21
45.37929797999438
 31
0.0
 11
-2.675000000017725
 21
45.22724183153571
 31
0.0
  0
ENDBLK
  5
49
330
47
100
AcDbEntity
  8
0
100
AcDbBlockEnd
  0
BLOCK
  5
4C
330
4A
100
AcDbEntity
  8
0
100
AcDbBlockBegin
  2
Allg1
 70
     0
 10
-1.50000000000907
 20
37.00000000002001
 30
0.0
  3
Allg1
  1

  0
INSERT
  5
4B
330
4A
100
AcDbEntity
  8
0
100
AcDbBlockReference
  2
3240679_AI_TWIN_2X_1_12_RD-select__1
 10
-4.50000000001774
 20
27.34771676147198
 30
0.0
  0
MTEXT
  5
9B
330
4A
100
AcDbEntity
  8
1
 62
     6
100
AcDbMText
 10
-1.50000000000898
 20
24.65673408618955
 30
0.0
 40
2.5
 41
0.0
 71
     2
 72
     1
  1
 
  7
CONVERTER_11
 73
     1
 44
1.32052821128451
  0
ENDBLK
  5
4D
330
4A
100
AcDbEntity
  8
0
100
AcDbBlockEnd
  0
BLOCK
  5
4F
330
4E
100
AcDbEntity
  8
0
100
AcDbBlockBegin
  2
3240679_AI_TWIN_2X_1_12_RD-select__2
 70
     0
 10
-59.00000000001999
 20
43.0000009536743
 30
0.0
  3
3240679_AI_TWIN_2X_1_12_RD-select__2
  1

  0
LINE
  5
9C
330
4E
100
AcDbEntity
  8
0
  6
Continuous
 62
     7
100
AcDbLine
 10
-53.7639320225202
 20
47.00000095367431
 30
0.0
 11
-58.23606797751978
 21
47.00000095367431
 31
0.0
  0
LINE
  5
9D
330
4E
100
AcDbEntity
  8
0
  6
Continuous
 62
     7
100
AcDbLine
 10
-53.7639320225202
 20
43.00000095367431
 30
0.0
 11
-58.23606797751978
 21
43.0000009536743
 31
0.0
  0
LINE
  5
9E
330
4E
100
AcDbEntity
  8
1
  6
DOT_CENTER
 62
     2
100
AcDbLine
 10
-54.70750000001999
 20
45.00000095367431
 30
0.0
 11
-57.29250000002
 21
45.00000095367431
 31
0.0
  0
LINE
  5
9F
330
4E
100
AcDbEntity
  8
1
  6
DOT_CENTER
 62
     2
100
AcDbLine
 10
-56.00000000002
 20
46.29250095367431
 30
0.0
 11
-56.00000000002
 21
43.70750095367431
 31
0.0
  0
ARC
  5
A0
330
4E
100
AcDbEntity
  8
0
  6
Continuous
 62
     7
100
AcDbCircle
 10
-56.00000000002
 20
45.00000095367431
 30
0.0
 40
1.175000000000011
100
AcDbArc
 50
0.0
 51
90.0
  0
ARC
  5
A1
330
4E
100
AcDbEntity
  8
0
  6
Continuous
 62
     7
100
AcDbCircle
 10
-56.00000000002
 20
45.00000095367431
 30
0.0
 40
1.174999999999997
100
AcDbArc
 50
90.0
 51
270.0
  0
ARC
  5
A2
330
4E
100
AcDbEntity
  8
0
  6
Continuous
 62
     7
100
AcDbCircle
 10
-56.00000000002
 20
45.00000095367431
 30
0.0
 40
1.174999999999997
100
AcDbArc
 50
270.0
 51
0.0
  0
ARC
  5
A3
330
4E
100
AcDbEntity
  8
0
  6
Continuous
 62
     7
100
AcDbCircle
 10
-56.00000000002
 20
45.00000095367431
 30
0.0
 40
3.000000000000008
100
AcDbArc
 50
318.1896851042216
 51
41.81031489577846
  0
ARC
  5
A4
330
4E
100
AcDbEntity
  8
0
  6
Continuous
 62
     7
100
AcDbCircle
 10
-56.00000000002
 20
45.00000095367431
 30
0.0
 40
2.999999999999992
100
AcDbArc
 50
138.1896851042213
 51
221.8103148957788
  0
SPLINE
  5
A5
330
4E
100
AcDbEntity
  8
0
  6
Continuous
 62
     7
100
AcDbSpline
210
0.0
220
0.0
230
1.0
 70
     8
 71
     3
 72
    15
 73
    11
 74
     9
 42
0.000000001
 43
0.0000000001
 44
0.00000001
 40
0.0
 40
0.0
 40
0.0
 40
0.0
 40
0.6306988964118381
 40
1.116241180906576
 40
1.440621928552117
 40
1.70673369177465
 40
1.949943012442886
 40
2.158025394364508
 40
2.280469378760067
 40
2.398950105420157
 40
2.398950105420157
 40
2.398950105420157
 40
2.398950105420157
 10
-58.23606797751978
 20
47.00000095367431
 30
0.0
 10
-58.04648152953347
 20
46.90913781791349
 30
0.0
 10
-57.71094233896277
 20
46.74832386747954
 30
0.0
 10
-57.27390222951193
 20
46.54923026553355
 30
0.0
 10
-56.94359665124212
 20
46.40926816786165
 30
0.0
 10
-56.6837451205872
 20
46.31053425772549
 30
0.0
 10
-56.4555561213179
 20
46.23825906678572
 30
0.0
 10
-56.26851844170611
 20
46.19697608094436
 30
0.0
 10
-56.11983445488042
 20
46.17792092240723
 30
0.0
 10
-56.0395043367277
 20
46.17596353734935
 30
0.0
 10
-56.00000000002
 20
46.17500095367431
 30
0.0
 11
-58.23606797751978
 21
47.00000095367431
 31
0.0
 11
-57.66632093768338
 21
46.72950251827498
 31
0.0
 11
-57.2239639523564
 21
46.52932358005634
 31
0.0
 11
-56.92486927033448
 21
46.40376387169545
 31
0.0
 11
-56.67571802718547
 21
46.31028056716836
 31
0.0
 11
-56.44334454806256
 21
46.23849380489762
 31
0.0
 11
-56.239927055218
 21
46.19468057247073
 31
0.0
 11
-56.11837989581147
 21
46.17988804622427
 31
0.0
 11
-56.00000000002
 21
46.17500095367431
 31
0.0
  0
SPLINE
  5
A6
330
4E
100
AcDbEntity
  8
0
  6
Continuous
 62
     7
100
AcDbSpline
210
0.0
220
0.0
230
1.0
 70
     8
 71
     3
 72
    15
 73
    11
 74
     9
 42
0.000000001
 43
0.0000000001
 44
0.00000001
 40
0.0
 40
0.0
 40
0.0
 40
0.0
 40
0.1184064416091464
 40
0.2407692800622417
 40
0.4486372916534821
 40
0.6915508031963438
 40
0.9576995239331357
 40
1.282152552821641
 40
1.767891253848633
 40
2.39895032693045
 40
2.39895032693045
 40
2.39895032693045
 40
2.39895032693045
 10
-56.00000000002
 20
43.82500095367431
 30
0.0
 10
-56.03947955633588
 20
43.82403959170755
 30
0.0
 10
-56.11975782571913
 20
43.8220847264637
 30
0.0
 10
-56.26832056411005
 20
43.80305679886293
 30
0.0
 10
-56.45517076469433
 20
43.76184183541876
 30
0.0
 10
-56.68322099796727
 20
43.68965153077887
 30
0.0
 10
-56.94302510827641
 20
43.59096690818289
 30
0.0
 10
-57.27343190807494
 20
43.45098225675554
 30
0.0
 10
-57.71066647483383
 20
43.25180952710021
 30
0.0
 10
-58.046373158288
 20
43.09091576634225
 30
0.0
 10
-58.23606797751978
 20
43.0000009536743
 30
0.0
 11
-56.00000000002
 21
43.82500095367431
 31
0.0
 11
-56.1183057982753
 21
43.82011993691505
 31
0.0
 11
-56.23977346060678
 21
43.80534588130938
 31
0.0
 11
-56.44298681017833
 21
43.76160296341864
 31
0.0
 11
-56.67508869840381
 21
43.68993925607692
 31
0.0
 11
-56.92428519448679
 21
43.59647136024169
 31
0.0
 11
-57.22345380281231
 21
43.47090101548822
 31
0.0
 11
-57.6659943370194
 21
43.27065126892111
 31
0.0
 11
-58.23606797751978
 21
43.0000009536743
 31
0.0
  0
SPLINE
  5
A7
330
4E
100
AcDbEntity
  8
0
  6
Continuous
 62
     7
100
AcDbSpline
210
0.0
220
0.0
230
1.0
 70
     8
 71
     3
 72
    15
 73
    11
 74
     9
 42
0.000000001
 43
0.0000000001
 44
0.00000001
 40
0.0
 40
0.0
 40
0.0
 40
0.0
 40
0.1184384759777602
 40
0.2408370527016347
 40
0.4486948346182215
 40
0.6915966600782902
 40
0.9577591413226145
 40
1.282231211102641
 40
1.767942163481943
 40
2.398950340673443
 40
2.398950340673443
 40
2.398950340673443
 40
2.398950340673443
 10
-56.00000000002
 20
46.17500095367431
 30
0.0
 10
-55.96050975744433
 20
46.1759628403994
 30
0.0
 10
-55.88020888039686
 20
46.17791879408256
 30
0.0
 10
-55.73162761231105
 20
46.19695422425052
 30
0.0
 10
-55.54477427670066
 20
46.23817566229558
 30
0.0
 10
-55.31672774219756
 20
46.3103684611632
 30
0.0
 10
-55.05691795218953
 20
46.40905793505377
 30
0.0
 10
-54.72651051210651
 20
46.5490453701946
 30
0.0
 10
-54.2892945446977
 20
46.74821095815793
 30
0.0
 10
-53.95361152777888
 20
46.9090934428835
 30
0.0
 10
-53.7639320225202
 20
47.00000095367431
 30
0.0
 11
-56.00000000002
 21
46.17500095367431
 31
0.0
 11
-55.88166224823086
 21
46.17988459007473
 31
0.0
 11
-55.76015956727048
 21
46.19466672729691
 31
0.0
 11
-55.55695755315434
 21
46.23841369324415
 31
0.0
 11
-55.32486797276654
 21
46.31007765116593
 31
0.0
 11
-55.07565944760557
 21
46.40355265890205
 31
0.0
 11
-54.77647411446612
 21
46.52913235565103
 31
0.0
 11
-54.33395951157887
 21
46.72937210004235
 31
0.0
 11
-53.7639320225202
 21
47.00000095367431
 31
0.0
  0
SPLINE
  5
A8
330
4E
100
AcDbEntity
  8
0
  6
Continuous
 62
     7
100
AcDbSpline
210
0.0
220
0.0
230
1.0
 70
     8
 71
     3
 72
    15
 73
    11
 74
     9
 42
0.000000001
 43
0.0000000001
 44
0.00000001
 40
0.0
 40
0.0
 40
0.0
 40
0.0
 40
0.6310590731042056
 40
1.1167977741088
 40
1.441250802997693
 40
1.707399523734111
 40
1.95031303527955
 40
2.158181046868214
 40
2.280543885316906
 40
2.398950326930469
 40
2.398950326930469
 40
2.398950326930469
 40
2.398950326930469
 10
-53.7639320225202
 20
43.00000095367431
 30
0.0
 10
-53.95362684175873
 20
43.09091576634548
 30
0.0
 10
-54.2893335252129
 20
43.25180952710339
 30
0.0
 10
-54.72656809197202
 20
43.45098225675852
 30
0.0
 10
-55.05697489176367
 20
43.59096690818296
 30
0.0
 10
-55.31677900207364
 20
43.68965153077923
 30
0.0
 10
-55.54482923534648
 20
43.761841835419
 30
0.0
 10
-55.73167943592937
 20
43.80305679886273
 30
0.0
 10
-55.88024217431939
 20
43.82208472646357
 30
0.0
 10
-55.96052044370266
 20
43.8240395917075
 30
0.0
 10
-56.00000000002
 20
43.82500095367431
 30
0.0
 11
-53.7639320225202
 21
43.00000095367431
 31
0.0
 11
-54.33400566304089
 21
43.27065126893055
 31
0.0
 11
-54.77654619722767
 21
43.47090101548822
 31
0.0
 11
-55.07571480555355
 21
43.59647136024184
 31
0.0
 11
-55.32491130163618
 21
43.68993925607692
 31
0.0
 11
-55.55701318986416
 21
43.7616029634193
 31
0.0
 11
-55.76022653943321
 21
43.80534588130938
 31
0.0
 11
-55.8816942017603
 21
43.82011993691469
 31
0.0
 11
-56.00000000002
 21
43.82500095367431
 31
0.0
  0
ENDBLK
  5
50
330
4E
100
AcDbEntity
  8
0
100
AcDbBlockEnd
  0
BLOCK
  5
53
330
51
100
AcDbEntity
  8
0
100
AcDbBlockBegin
  2
Drfsicht1
 70
     0
 10
-56.00000000000999
 20
45.00000095367431
 30
0.0
  3
Drfsicht1
  1

  0
INSERT
  5
52
330
51
100
AcDbEntity
  8
0
100
AcDbBlockReference
  2
3240679_AI_TWIN_2X_1_12_RD-select__2
 10
-59.00000000001999
 20
43.0000009536743
 30
0.0
  0
MTEXT
  5
A9
330
51
100
AcDbEntity
  8
1
 62
     6
100
AcDbMText
 10
-56.00000000001
 20
40.50000095367432
 30
0.0
 40
2.5
 41
0.0
 71
     2
 72
     1
  1
 
  7
CONVERTER_11
 73
     1
 44
1.32052821128451
  0
DIMENSION
  5
B6
330
51
100
AcDbEntity
  8
1
100
AcDbDimension
  2
*D16
 10
-47.26947760811998
 20
43.00000095367431
 30
0.0
 11
-49.14447760811998
 21
44.98005901575293
 31
0.0
 70
    32
  1
<>
 71
     5
 42
-1.0
 53
90.0
  3
ME10_DIM_10
100
AcDbAlignedDimension
 13
-53.7639320225202
 23
47.00000095367431
 33
0.0
 14
-53.7639320225202
 24
43.00000095367431
 34
0.0
 50
90.0
100
AcDbRotatedDimension
  0
ENDBLK
  5
54
330
51
100
AcDbEntity
  8
0
100
AcDbBlockEnd
  0
BLOCK
  5
56
330
55
100
AcDbEntity
  8
0
100
AcDbBlockBegin
  2
3240679_AI_TWIN_2X_1_12_RD-select__3
 70
     0
 10
-12.49999999997999
 20
62.0000005722446
 30
0.0
  3
3240679_AI_TWIN_2X_1_12_RD-select__3
  1

  0
LINE
  5
B7
330
55
100
AcDbEntity
  8
0
  6
Continuous
 62
     7
100
AcDbLine
 10
-9.49999999997999
 20
69.0000005722446
 30
0.0
 11
-10.67499999998
 21
69.0000005722446
 31
0.0
  0
LINE
  5
B8
330
55
100
AcDbEntity
  8
0
  6
Continuous
 62
     7
100
AcDbLine
 10
-10.67499999998
 20
69.0000005722446
 30
0.0
 11
-10.67499999998
 21
81.0000005722446
 31
0.0
  0
LINE
  5
B9
330
55
100
AcDbEntity
  8
0
  6
Continuous
 62
     7
100
AcDbLine
 10
-10.67499999998
 20
81.0000005722446
 30
0.0
 11
-8.32499999998
 21
81.0000005722446
 31
0.0
  0
LINE
  5
BA
330
55
100
AcDbEntity
  8
0
  6
Continuous
 62
     7
100
AcDbLine
 10
-8.32499999998
 20
69.0000005722446
 30
0.0
 11
-9.49999999997999
 21
69.0000005722446
 31
0.0
  0
LINE
  5
BB
330
55
100
AcDbEntity
  8
0
  6
Continuous
 62
     7
100
AcDbLine
 10
-8.32499999998
 20
69.0000005722446
 30
0.0
 11
-8.32499999998
 21
81.0000005722446
 31
0.0
  0
LINE
  5
BC
330
55
100
AcDbEntity
  8
0
  6
Continuous
 62
     7
100
AcDbLine
 10
-7.26393202248019
 20
62.0000005722446
 30
0.0
 11
-6.49999999997999
 21
62.0000005722446
 31
0.0
  0
LINE
  5
BD
330
55
100
AcDbEntity
  8
0
  6
Continuous
 62
     7
100
AcDbLine
 10
-12.49999999997999
 20
62.0000005722446
 30
0.0
 11
-11.73606797747978
 21
62.0000005722446
 31
0.0
  0
LINE
  5
BE
330
55
100
AcDbEntity
  8
0
  6
Continuous
 62
     7
100
AcDbLine
 10
-7.26393202248019
 20
62.0000005722446
 30
0.0
 11
-11.73606797747978
 21
62.0000005722446
 31
0.0
  0
LINE
  5
BF
330
55
100
AcDbEntity
  8
0
  6
Continuous
 62
     7
100
AcDbLine
 10
-6.49999999997999
 20
62.0000005722446
 30
0.0
 11
-6.49999999997999
 21
67.1750005722446
 31
0.0
  0
LINE
  5
C0
330
55
100
AcDbEntity
  8
0
  6
Continuous
 62
     7
100
AcDbLine
 10
-7.26393202248019
 20
62.0000005722446
 30
0.0
 11
-7.26393202248019
 21
67.1750005722446
 31
0.0
  0
LINE
  5
C1
330
55
100
AcDbEntity
  8
0
  6
Continuous
 62
     7
100
AcDbLine
 10
-7.26393202248019
 20
67.1750005722446
 30
0.0
 11
-6.49999999997999
 21
67.1750005722446
 31
0.0
  0
LINE
  5
C2
330
55
100
AcDbEntity
  8
0
  6
Continuous
 62
     7
100
AcDbLine
 10
-11.73606797747978
 20
67.1750005722446
 30
0.0
 11
-7.26393202248019
 21
67.1750005722446
 31
0.0
  0
LINE
  5
C3
330
55
100
AcDbEntity
  8
0
  6
Continuous
 62
     7
100
AcDbLine
 10
-12.49999999997999
 20
62.0000005722446
 30
0.0
 11
-12.49999999997999
 21
67.1750005722446
 31
0.0
  0
LINE
  5
C4
330
55
100
AcDbEntity
  8
0
  6
Continuous
 62
     7
100
AcDbLine
 10
-11.73606797747978
 20
62.0000005722446
 30
0.0
 11
-11.73606797747978
 21
67.1750005722446
 31
0.0
  0
LINE
  5
C5
330
55
100
AcDbEntity
  8
0
  6
Continuous
 62
     7
100
AcDbLine
 10
-12.49999999997999
 20
67.1750005722446
 30
0.0
 11
-11.73606797747978
 21
67.1750005722446
 31
0.0
  0
LINE
  5
C6
330
55
100
AcDbEntity
  8
0
  6
Continuous
 62
     7
100
AcDbLine
 10
-10.67499999998
 20
69.0000005722446
 30
0.0
 11
-12.49999999997999
 21
67.1750005722446
 31
0.0
  0
LINE
  5
C7
330
55
100
AcDbEntity
  8
0
  6
Continuous
 62
     7
100
AcDbLine
 10
-8.32499999998
 20
69.0000005722446
 30
0.0
 11
-6.49999999997999
 21
67.1750005722446
 31
0.0
  0
LINE
  5
C8
330
55
100
AcDbEntity
  8
1
  6
DOT_CENTER
 62
     2
100
AcDbLine
 10
-9.49999999997999
 20
69.0000005722446
 30
0.0
 11
-9.49999999998
 21
81.0000005722446
 31
0.0
  0
SPLINE
  5
C9
330
55
100
AcDbEntity
  8
0
  6
Continuous
 62
     7
100
AcDbSpline
210
0.0
220
0.0
230
1.0
 70
     8
 71
     3
 72
    15
 73
    11
 74
     9
 42
0.000000001
 43
0.0000000001
 44
0.00000001
 40
0.0
 40
0.0
 40
0.0
 40
0.0
 40
0.8262540874766923
 40
1.45215006427645
 40
1.860335997272379
 40
2.184113982715311
 40
2.46558771500286
 40
2.690892830142923
 40
2.816769344768128
 40
2.935640264706999
 40
2.935640264706999
 40
2.935640264706999
 40
2.935640264706999
 10
-7.263932022480194
 20
67.1750005722446
 30
0.0
 10
-7.452904840194613
 20
67.37537036122102
 30
0.0
 10
-7.785026504429513
 20
67.72752233569713
 30
0.0
 10
-8.22174937079656
 20
68.1678955215342
 30
0.0
 10
-8.551905162207227
 20
68.4777280710062
 30
0.0
 10
-8.810393486526646
 20
68.69548292306807
 30
0.0
 10
-9.037093286559818
 20
68.85559096408386
 30
0.0
 10
-9.226974138945943
 20
68.9497844206535
 30
0.0
 10
-9.37864387044393
 20
68.99335981452376
 30
0.0
 10
-9.46032731895285
 20
68.99782963803284
 30
0.0
 10
-9.499999999979988
 20
69.0000005722446
 30
0.0
 11
-7.263932022480194
 21
67.1750005722446
 31
0.0
 11
-7.8336921743737
 21
67.77338939004923
 31
0.0
 11
-8.276036047643586
 21
68.21619597449039
 31
0.0
 11
-8.575141043221322
 21
68.49395838594343
 31
0.0
 11
-8.824281972814507
 21
68.70074566966686
 31
0.0
 11
-9.05667428267406
 21
68.85955774652827
 31
0.0
 11
-9.260072944781975
 21
68.95646687005389
 31
0.0
 11
-9.381621667772187
 21
68.98919001490553
 31
0.0
 11
-9.499999999979988
 21
69.0000005722446
 31
0.0
  0
SPLINE
  5
CA
330
55
100
AcDbEntity
  8
0
  6
Continuous
 62
     7
100
AcDbSpline
210
0.0
220
0.0
230
1.0
 70
     8
 71
     3
 72
    15
 73
    11
 74
     9
 42
0.000000001
 43
0.0000000001
 44
0.00000001
 40
0.0
 40
0.0
 40
0.0
 40
0.0
 40
0.1188282641767014
 40
0.2446558467780867
 40
0.4697034570533881
 40
0.7507894564757801
 40
1.074599759546434
 40
1.482882250150451
 40
2.10898472289626
 40
2.93564119914459
 40
2.93564119914459
 40
2.93564119914459
 40
2.93564119914459
 10
-9.499999999979988
 20
69.0000005722446
 30
0.0
 10
-9.539658416375987
 20
68.99783123419438
 30
0.0
 10
-9.621311239271293
 20
68.99336476576438
 30
0.0
 10
-9.772871790058407
 20
68.94983618775528
 30
0.0
 10
-9.962562636273729
 20
68.85578640382975
 30
0.0
 10
-10.18913430522196
 20
68.69585154277326
 30
0.0
 10
-10.44758736936541
 20
68.47818726078175
 30
0.0
 10
-10.77784421321106
 20
68.16829868440439
 30
0.0
 10
-11.21474154212767
 20
67.7277669417373
 30
0.0
 10
-11.5470028882334
 20
67.37546771296311
 30
0.0
 10
-11.73606797747978
 20
67.1750005722446
 30
0.0
 11
-9.499999999979988
 21
69.0000005722446
 31
0.0
 11
-9.618336196909217
 21
68.98919765865122
 31
0.0
 11
-9.739840432729505
 21
68.95649749723756
 31
0.0
 11
-9.943023675662666
 21
68.85973492314692
 31
0.0
 11
-10.17513202723344
 21
68.70119454446012
 31
0.0
 11
-10.42433020647547
 21
68.49442564088073
 31
0.0
 11
-10.72352588553386
 21
68.21661898605369
 31
0.0
 11
-11.1660273332966
 21
67.77367793492435
 31
0.0
 11
-11.73606797747978
 21
67.1750005722446
 31
0.0
  0
ENDBLK
  5
57
330
55
100
AcDbEntity
  8
0
100
AcDbBlockEnd
  0
BLOCK
  5
5A
330
58
100
AcDbEntity
  8
0
100
AcDbBlockBegin
  2
Rckans1
 70
     0
 10
-9.49999999999
 20
71.50000000002002
 30
0.0
  3
Rckans1
  1

  0
INSERT
  5
59
330
58
100
AcDbEntity
  8
0
100
AcDbBlockReference
  2
3240679_AI_TWIN_2X_1_12_RD-select__3
 10
-12.49999999997999
 20
62.0000005722446
 30
0.0
  0
MTEXT
  5
CB
330
58
100
AcDbEntity
  8
1
 62
     6
100
AcDbMText
 10
-9.49999999999
 20
59.50000095369433
 30
0.0
 40
2.5
 41
0.0
 71
     2
 72
     1
  1
 
  7
CONVERTER_11
 73
     1
 44
1.32052821128451
  0
ENDBLK
  5
5B
330
58
100
AcDbEntity
  8
0
100
AcDbBlockEnd
  0
BLOCK
  5
5D
330
5C
100
AcDbEntity
  8
0
100
AcDbBlockBegin
  2
3240679_AI_TWIN_2X_1_12_RD-select__4
 70
     0
 10
-30.0
 20
62.0000005722446
 30
0.0
  3
3240679_AI_TWIN_2X_1_12_RD-select__4
  1

  0
LINE
  5
CC
330
5C
100
AcDbEntity
  8
0
  6
Continuous
 62
     7
100
AcDbLine
 10
-29.175
 20
81.0000005722446
 30
0.0
 11
-26.825
 21
81.0000005722446
 31
0.0
  0
LINE
  5
CD
330
5C
100
AcDbEntity
  8
0
  6
Continuous
 62
     7
100
AcDbLine
 10
-26.825
 20
69.0000005722446
 30
0.0
 11
-26.825
 21
81.0000005722446
 31
0.0
  0
LINE
  5
CE
330
5C
100
AcDbEntity
  8
0
  6
Continuous
 62
     7
100
AcDbLine
 10
-29.175
 20
69.0000005722446
 30
0.0
 11
-29.175
 21
81.0000005722446
 31
0.0
  0
LINE
  5
CF
330
5C
100
AcDbEntity
  8
0
  6
Continuous
 62
     7
100
AcDbLine
 10
-26.825
 20
69.0000005722446
 30
0.0
 11
-25.99999999999999
 21
67.1750005722446
 31
0.0
  0
LINE
  5
D0
330
5C
100
AcDbEntity
  8
0
  6
Continuous
 62
     7
100
AcDbLine
 10
-30.0
 20
62.0000005722446
 30
0.0
 11
-30.0
 21
67.1750005722446
 31
0.0
  0
LINE
  5
D1
330
5C
100
AcDbEntity
  8
0
  6
Continuous
 62
     7
100
AcDbLine
 10
-26.825
 20
69.0000005722446
 30
0.0
 11
-29.175
 21
69.0000005722446
 31
0.0
  0
LINE
  5
D2
330
5C
100
AcDbEntity
  8
0
  6
Continuous
 62
     7
100
AcDbLine
 10
-30.0
 20
67.1750005722446
 30
0.0
 11
-25.99999999999999
 21
67.1750005722446
 31
0.0
  0
LINE
  5
D3
330
5C
100
AcDbEntity
  8
0
  6
Continuous
 62
     7
100
AcDbLine
 10
-26.0
 20
62.0000005722446
 30
0.0
 11
-25.99999999999999
 21
67.1750005722446
 31
0.0
  0
LINE
  5
D4
330
5C
100
AcDbEntity
  8
0
  6
Continuous
 62
     7
100
AcDbLine
 10
-30.0
 20
62.0000005722446
 30
0.0
 11
-26.0
 21
62.0000005722446
 31
0.0
  0
LINE
  5
D5
330
5C
100
AcDbEntity
  8
0
  6
Continuous
 62
     7
100
AcDbLine
 10
-30.0
 20
67.1750005722446
 30
0.0
 11
-29.175
 21
69.0000005722446
 31
0.0
  0
LINE
  5
D6
330
5C
100
AcDbEntity
  8
1
  6
DOT_CENTER
 62
     2
100
AcDbLine
 10
-28.0
 20
69.0000005722446
 30
0.0
 11
-28.0
 21
81.0000005722446
 31
0.0
  0
ENDBLK
  5
5E
330
5C
100
AcDbEntity
  8
0
100
AcDbBlockEnd
  0
BLOCK
  5
61
330
5F
100
AcDbEntity
  8
0
100
AcDbBlockBegin
  2
SA_Links1
 70
     0
 10
-28.0
 20
71.50000000002002
 30
0.0
  3
SA_Links1
  1

  0
INSERT
  5
60
330
5F
100
AcDbEntity
  8
0
100
AcDbBlockReference
  2
3240679_AI_TWIN_2X_1_12_RD-select__4
 10
-30.0
 20
62.0000005722446
 30
0.0
  0
MTEXT
  5
D7
330
5F
100
AcDbEntity
  8
1
 62
     6
100
AcDbMText
 10
-28.0
 20
59.50000095369433
 30
0.0
 40
2.5
 41
0.0
 71
     2
 72
     1
  1
 
  7
CONVERTER_11
 73
     1
 44
1.32052821128451
  0
ENDBLK
  5
62
330
5F
100
AcDbEntity
  8
0
100
AcDbBlockEnd
  0
BLOCK
  5
64
330
63
100
AcDbEntity
  8
0
100
AcDbBlockBegin
  2
3240679_AI_TWIN_2X_1_12_RD-select__5
 70
     0
 10
-78.5
 20
62.0000005722446
 30
0.0
  3
3240679_AI_TWIN_2X_1_12_RD-select__5
  1

  0
LINE
  5
D8
330
63
100
AcDbEntity
  8
0
  6
Continuous
 62
     7
100
AcDbLine
 10
-76.5
 20
81.0000005722446
 30
0.0
 11
-75.325
 21
81.0000005722446
 31
0.0
  0
LINE
  5
D9
330
63
100
AcDbEntity
  8
0
  6
Continuous
 62
     7
100
AcDbLine
 10
-75.325
 20
69.0000005722446
 30
0.0
 11
-75.325
 21
81.0000005722446
 31
0.0
  0
LINE
  5
DA
330
63
100
AcDbEntity
  8
0
  6
Continuous
 62
     7
100
AcDbLine
 10
-77.675
 20
69.0000005722446
 30
0.0
 11
-77.675
 21
81.0000005722446
 31
0.0
  0
LINE
  5
DB
330
63
100
AcDbEntity
  8
0
  6
Continuous
 62
     7
100
AcDbLine
 10
-77.675
 20
81.0000005722446
 30
0.0
 11
-76.5
 21
81.0000005722446
 31
0.0
  0
LINE
  5
DC
330
63
100
AcDbEntity
  8
0
  6
Continuous
 62
     7
100
AcDbLine
 10
-78.5
 20
62.0000005722446
 30
0.0
 11
-74.5
 21
62.0000005722446
 31
0.0
  0
LINE
  5
DD
330
63
100
AcDbEntity
  8
0
  6
Continuous
 62
     7
100
AcDbLine
 10
-78.5
 20
62.0000005722446
 30
0.0
 11
-78.5
 21
67.1750005722446
 31
0.0
  0
LINE
  5
DE
330
63
100
AcDbEntity
  8
0
  6
Continuous
 62
     7
100
AcDbLine
 10
-74.5
 20
62.0000005722446
 30
0.0
 11
-74.5
 21
67.17500057224458
 31
0.0
  0
LINE
  5
DF
330
63
100
AcDbEntity
  8
0
  6
Continuous
 62
     7
100
AcDbLine
 10
-78.5
 20
67.1750005722446
 30
0.0
 11
-74.5
 21
67.17500057224458
 31
0.0
  0
LINE
  5
E0
330
63
100
AcDbEntity
  8
0
  6
Continuous
 62
     7
100
AcDbLine
 10
-78.5
 20
67.1750005722446
 30
0.0
 11
-77.675
 21
69.0000005722446
 31
0.0
  0
LINE
  5
E1
330
63
100
AcDbEntity
  8
0
  6
Continuous
 62
     7
100
AcDbLine
 10
-75.325
 20
69.0000005722446
 30
0.0
 11
-77.675
 21
69.0000005722446
 31
0.0
  0
LINE
  5
E2
330
63
100
AcDbEntity
  8
0
  6
Continuous
 62
     7
100
AcDbLine
 10
-75.325
 20
69.0000005722446
 30
0.0
 11
-74.5
 21
67.17500057224458
 31
0.0
  0
LINE
  5
E3
330
63
100
AcDbEntity
  8
1
  6
DOT_CENTER
 62
     2
100
AcDbLine
 10
-76.5
 20
69.0000005722446
 30
0.0
 11
-76.5
 21
81.0000005722446
 31
0.0
  0
ENDBLK
  5
65
330
63
100
AcDbEntity
  8
0
100
AcDbBlockEnd
  0
BLOCK
  5
68
330
66
100
AcDbEntity
  8
0
100
AcDbBlockBegin
  2
SA_Rechts1
 70
     0
 10
-76.5
 20
71.50000000002001
 30
0.0
  3
SA_Rechts1
  1

  0
INSERT
  5
67
330
66
100
AcDbEntity
  8
0
100
AcDbBlockReference
  2
3240679_AI_TWIN_2X_1_12_RD-select__5
 10
-78.5
 20
62.0000005722446
 30
0.0
  0
MTEXT
  5
E4
330
66
100
AcDbEntity
  8
1
 62
     6
100
AcDbMText
 10
-76.5
 20
59.50000095369433
 30
0.0
 40
2.5
 41
0.0
 71
     2
 72
     1
  1
 
  7
CONVERTER_11
 73
     1
 44
1.32052821128451
  0
ENDBLK
  5
69
330
66
100
AcDbEntity
  8
0
100
AcDbBlockEnd
  0
BLOCK
  5
6B
330
6A
100
AcDbEntity
  8
0
100
AcDbBlockBegin
  2
3240679_AI_TWIN_2X_1_12_RD-select__6
 70
     0
 10
-59.00000000001999
 20
62.0000005722446
 30
0.0
  3
3240679_AI_TWIN_2X_1_12_RD-select__6
  1

  0
LINE
  5
E5
330
6A
100
AcDbEntity
  8
0
  6
Continuous
 62
     7
100
AcDbLine
 10
-53.7639320225202
 20
62.0000005722446
 30
0.0
 11
-58.23606797751978
 21
62.0000005722446
 31
0.0
  0
LINE
  5
E6
330
6A
100
AcDbEntity
  8
0
  6
Continuous
 62
     7
100
AcDbLine
 10
-59.00000000001999
 20
62.0000005722446
 30
0.0
 11
-58.23606797751978
 21
62.0000005722446
 31
0.0
  0
LINE
  5
E7
330
6A
100
AcDbEntity
  8
0
  6
Continuous
 62
     7
100
AcDbLine
 10
-54.82500000001999
 20
69.0000005722446
 30
0.0
 11
-56.00000000002
 21
69.00000057224459
 31
0.0
  0
LINE
  5
E8
330
6A
100
AcDbEntity
  8
0
  6
Continuous
 62
     7
100
AcDbLine
 10
-54.82500000001999
 20
69.0000005722446
 30
0.0
 11
-53.00000000002
 21
67.17500057224458
 31
0.0
  0
LINE
  5
E9
330
6A
100
AcDbEntity
  8
0
  6
Continuous
 62
     7
100
AcDbLine
 10
-53.7639320225202
 20
62.0000005722446
 30
0.0
 11
-53.00000000002
 21
62.0000005722446
 31
0.0
  0
LINE
  5
EA
330
6A
100
AcDbEntity
  8
0
  6
Continuous
 62
     7
100
AcDbLine
 10
-53.7639320225202
 20
67.1750005722446
 30
0.0
 11
-53.00000000002
 21
67.17500057224458
 31
0.0
  0
LINE
  5
EB
330
6A
100
AcDbEntity
  8
0
  6
Continuous
 62
     7
100
AcDbLine
 10
-53.7639320225202
 20
62.0000005722446
 30
0.0
 11
-53.7639320225202
 21
67.1750005722446
 31
0.0
  0
LINE
  5
EC
330
6A
100
AcDbEntity
  8
0
  6
Continuous
 62
     7
100
AcDbLine
 10
-53.00000000002
 20
62.0000005722446
 30
0.0
 11
-53.00000000002
 21
67.17500057224458
 31
0.0
  0
LINE
  5
ED
330
6A
100
AcDbEntity
  8
0
  6
Continuous
 62
     7
100
AcDbLine
 10
-57.17500000001999
 20
69.0000005722446
 30
0.0
 11
-57.17500000001999
 21
81.0000005722446
 31
0.0
  0
LINE
  5
EE
330
6A
100
AcDbEntity
  8
0
  6
Continuous
 62
     7
100
AcDbLine
 10
-57.17500000001999
 20
81.0000005722446
 30
0.0
 11
-54.82500000001999
 21
81.0000005722446
 31
0.0
  0
LINE
  5
EF
330
6A
100
AcDbEntity
  8
0
  6
Continuous
 62
     7
100
AcDbLine
 10
-59.00000000001999
 20
62.0000005722446
 30
0.0
 11
-59.00000000001999
 21
67.17500057224458
 31
0.0
  0
LINE
  5
F0
330
6A
100
AcDbEntity
  8
0
  6
Continuous
 62
     7
100
AcDbLine
 10
-58.23606797751978
 20
62.0000005722446
 30
0.0
 11
-58.23606797751978
 21
67.17500057224458
 31
0.0
  0
LINE
  5
F1
330
6A
100
AcDbEntity
  8
0
  6
Continuous
 62
     7
100
AcDbLine
 10
-54.82500000001999
 20
69.0000005722446
 30
0.0
 11
-54.82500000001999
 21
81.0000005722446
 31
0.0
  0
LINE
  5
F2
330
6A
100
AcDbEntity
  8
0
  6
Continuous
 62
     7
100
AcDbLine
 10
-59.00000000001999
 20
67.17500057224458
 30
0.0
 11
-58.23606797751978
 21
67.17500057224458
 31
0.0
  0
LINE
  5
F3
330
6A
100
AcDbEntity
  8
0
  6
Continuous
 62
     7
100
AcDbLine
 10
-56.00000000002
 20
69.00000057224459
 30
0.0
 11
-57.17500000001999
 21
69.0000005722446
 31
0.0
  0
LINE
  5
F4
330
6A
100
AcDbEntity
  8
0
  6
Continuous
 62
     7
100
AcDbLine
 10
-57.17500000001999
 20
69.0000005722446
 30
0.0
 11
-59.00000000001999
 21
67.17500057224458
 31
0.0
  0
LINE
  5
F5
330
6A
100
AcDbEntity
  8
0
  6
Continuous
 62
     7
100
AcDbLine
 10
-53.7639320225202
 20
67.1750005722446
 30
0.0
 11
-58.23606797751978
 21
67.17500057224458
 31
0.0
  0
LINE
  5
F6
330
6A
100
AcDbEntity
  8
1
  6
DOT_CENTER
 62
     2
100
AcDbLine
 10
-56.00000000002
 20
69.00000057224459
 30
0.0
 11
-56.00000000002
 21
81.090791596186
 31
0.0
  0
SPLINE
  5
F7
330
6A
100
AcDbEntity
  8
0
  6
Continuous
 62
     7
100
AcDbSpline
210
0.0
220
0.0
230
1.0
 70
     8
 71
     3
 72
    15
 73
    11
 74
     9
 42
0.000000001
 43
0.0000000001
 44
0.00000001
 40
0.0
 40
0.0
 40
0.0
 40
0.0
 40
0.8267226866648818
 40
1.452859136788459
 40
1.861115258736974
 40
2.184906294531574
 40
2.466002182163031
 40
2.691056139173798
 40
2.816845268194925
 40
2.935641176755374
 40
2.935641176755374
 40
2.935641176755374
 40
2.935641176755374
 10
-53.7639320225202
 20
67.1750005722446
 30
0.0
 10
-53.95301229466084
 20
67.3754837315329
 30
0.0
 10
-54.28529662484416
 20
67.72780718996498
 30
0.0
 10
-54.72221273926475
 20
68.16835501846103
 30
0.0
 10
-55.05246949837354
 20
68.4782380346724
 30
0.0
 10
-55.31091638780615
 20
68.69589120083498
 30
0.0
 10
-55.53749093506651
 20
68.85582043580936
 30
0.0
 10
-55.72718084392064
 20
68.94985713918894
 30
0.0
 10
-55.87872325955931
 20
68.99336853667202
 30
0.0
 10
-55.96035240440838
 20
68.99783244194649
 30
0.0
 10
-56.00000000002
 20
69.00000057224459
 30
0.0
 11
-53.7639320225202
 21
67.1750005722446
 31
0.0
 11
-54.33401882023603
 21
67.77372541271662
 31
0.0
 11
-54.77654619722767
 21
68.21668858777234
 31
0.0
 11
-55.07572512457044
 21
68.49447453097693
 31
0.0
 11
-55.32491130163618
 21
68.70122772604431
 31
0.0
 11
-55.55703199391861
 21
68.85976756876317
 31
0.0
 11
-55.76022653943321
 21
68.9565211697399
 31
0.0
 11
-55.881695764146
 21
68.98920345489722
 31
0.0
 11
-56.00000000002
 21
69.00000057224459
 31
0.0
  0
SPLINE
  5
F8
330
6A
100
AcDbEntity
  8
0
  6
Continuous
 62
     7
100
AcDbSpline
210
0.0
220
0.0
230
1.0
 70
     8
 71
     3
 72
    15
 73
    11
 74
     9
 42
0.000000001
 43
0.0000000001
 44
0.00000001
 40
0.0
 40
0.0
 40
0.0
 40
0.0
 40
0.1187959085570828
 40
0.2445850375815621
 40
0.4696389945933446
 40
0.7507348822237938
 40
1.074525918016744
 40
1.482782039966899
 40
2.108918490093988
 40
2.935641176755363
 40
2.935641176755363
 40
2.935641176755363
 40
2.935641176755363
 10
-56.00000000002
 20
69.00000057224459
 30
0.0
 10
-56.03964759563048
 20
68.99783244194663
 30
0.0
 10
-56.12127674047957
 20
68.99336853667222
 30
0.0
 10
-56.27281915611865
 20
68.94985713918938
 30
0.0
 10
-56.46250906497379
 20
68.85582043580915
 30
0.0
 10
-56.68908361223365
 20
68.69589120083505
 30
0.0
 10
-56.94753050166606
 20
68.47823803467277
 30
0.0
 10
-57.27778726077567
 20
68.16835501846062
 30
0.0
 10
-57.71470337519667
 20
67.7278071899641
 30
0.0
 10
-58.04698770537994
 20
67.37548373153204
 30
0.0
 10
-58.23606797751978
 20
67.17500057224458
 30
0.0
 11
-56.00000000002
 21
69.00000057224459
 31
0.0
 11
-56.11830423589068
 21
68.98920345489782
 31
0.0
 11
-56.23977346060678
 21
68.9565211697399
 31
0.0
 11
-56.44296800612226
 21
68.85976756876266
 31
0.0
 11
-56.67508869840381
 21
68.7012277260443
 31
0.0
 11
-56.92427487546831
 21
68.49447453097801
 31
0.0
 11
-57.22345380281231
 21
68.21668858777232
 31
0.0
 11
-57.66598117980642
 21
67.7737254127141
 31
0.0
 11
-58.23606797751978
 21
67.17500057224458
 31
0.0
  0
ENDBLK
  5
6C
330
6A
100
AcDbEntity
  8
0
100
AcDbBlockEnd
  0
BLOCK
  5
6F
330
6D
100
AcDbEntity
  8
0
100
AcDbBlockBegin
  2
Vordans1
 70
     0
 10
-56.00000000000999
 20
71.50000000002001
 30
0.0
  3
Vordans1
  1

  0
INSERT
  5
6E
330
6D
100
AcDbEntity
  8
0
100
AcDbBlockReference
  2
3240679_AI_TWIN_2X_1_12_RD-select__6
 10
-59.00000000001999
 20
62.0000005722446
 30
0.0
  0
MTEXT
  5
F9
330
6D
100
AcDbEntity
  8
1
 62
     6
100
AcDbMText
 10
-56.00000000001
 20
59.50000095369433
 30
0.0
 40
2.5
 41
0.0
 71
     2
 72
     1
  1
 
  7
CONVERTER_11
 73
     1
 44
1.32052821128451
  0
DIMENSION
  5
104
330
6D
100
AcDbEntity
  8
1
100
AcDbDimension
  2
*D17
 10
-53.00000000002
 20
56.14945664020399
 30
0.0
 11
-56.15243950076349
 21
58.02445664020399
 31
0.0
 70
    32
  1
<>
 71
     5
 42
-1.0
 53
0.00013888888889
  3
ME10_DIM_11
100
AcDbAlignedDimension
 13
-59.00000000001999
 23
62.0000005722446
 33
0.0
 14
-53.00000000002
 24
62.0000005722446
 34
0.0
100
AcDbRotatedDimension
  0
DIMENSION
  5
10F
330
6D
100
AcDbEntity
  8
1
100
AcDbDimension
  2
*D18
 10
-46.48418903982299
 20
81.0000005722446
 30
0.0
 11
-48.35918903982299
 21
75.406968052775
 31
0.0
 70
    32
  1
<>
 71
     5
 42
-1.0
 53
90.0
  3
ME10_DIM_12
100
AcDbAlignedDimension
 13
-56.00000000002
 23
69.00000057224459
 33
0.0
 14
-54.82500000001999
 24
81.0000005722446
 34
0.0
 50
90.0
100
AcDbRotatedDimension
  0
DIMENSION
  5
11A
330
6D
100
AcDbEntity
  8
1
100
AcDbDimension
  2
*D19
 10
-42.29724699461834
 20
81.0000005722446
 30
0.0
 11
-44.17224699461834
 21
71.817865186199
 31
0.0
 70
    32
  1
<>
 71
     5
 42
-1.0
 53
90.0
  3
ME10_DIM_13
100
AcDbAlignedDimension
 13
-53.7639320225202
 23
62.0000005722446
 33
0.0
 14
-57.17500000001999
 24
81.0000005722446
 34
0.0
 50
90.0
100
AcDbRotatedDimension
  0
DIMENSION
  5
127
330
6D
100
AcDbEntity
  8
1
100
AcDbDimension
  2
*D20
 10
-57.17500000001999
 20
86.0000005722446
 30
0.0
 11
-48.9943994718645
 21
87.96250057224461
 31
0.0
 70
    32
  1
<>
 71
     5
 42
-1.0
 53
0.00013888888889
  3
ME10_DIM_14
100
AcDbAlignedDimension
 13
-54.82500000001999
 23
81.0000005722446
 33
0.0
 14
-57.17500000001999
 24
81.0000005722446
 34
0.0
100
AcDbRotatedDimension
  0
ENDBLK
  5
70
330
6D
100
AcDbEntity
  8
0
100
AcDbBlockEnd
  0
BLOCK
  5
72
330
71
100
AcDbEntity
  8
0
100
AcDbBlockBegin
  2
_punkt
 70
     0
 10
47.9623302529381
 20
7.28207210725119
 30
0.0
  3
_punkt
  1

  0
LINE
  5
128
330
71
100
AcDbEntity
  8
1
  6
Continuous
 62
     2
100
AcDbLine
 10
47.9623302529381
 20
7.28207210725119
 30
0.0
 11
52.96233025293711
 21
7.28207210725119
 31
0.0
  0
LINE
  5
129
330
71
100
AcDbEntity
  8
1
  6
Continuous
 62
     2
100
AcDbLine
 10
47.9623302529381
 20
7.28207210725119
 30
0.0
 11
47.9623302529381
 21
2.28207210725108
 31
0.0
  0
ENDBLK
  5
73
330
71
100
AcDbEntity
  8
0
100
AcDbBlockEnd
  0
BLOCK
  5
75
330
74
100
AcDbEntity
  8
0
100
AcDbBlockBegin
  2
_rahmen
 70
     0
 10
47.9623302529381
 20
2.28207210725108
 30
0.0
  3
_rahmen
  1

  0
POINT
  5
12A
330
74
100
AcDbEntity
  8
1
 62
     3
 60
     1
100
AcDbPoint
 10
-15.53766974705952
 20
28.53207210725106
 30
0.0
  0
LINE
  5
12B
330
74
100
AcDbEntity
  8
1
  6
Continuous
 62
     2
100
AcDbLine
 10
19.39706693772709
 20
22.73185282821832
 30
0.0
 11
19.39706693772709
 21
20.67445686336482
 31
0.0
  0
LINE
  5
12C
330
74
100
AcDbEntity
  8
1
  6
Continuous
 62
     7
100
AcDbLine
 10
-15.53766974705952
 20
24.28207210725108
 30
0.0
 11
-13.53766974705952
 21
24.28207210725108
 31
0.0
  0
LINE
  5
12D
330
74
100
AcDbEntity
  8
1
  6
Continuous
 62
     7
100
AcDbLine
 10
-15.53766974705952
 20
28.53207210725106
 30
0.0
 11
-22.28247427381189
 21
28.53207210725102
 31
0.0
  0
LINE
  5
12E
330
74
100
AcDbEntity
  8
1
  6
Continuous
 62
     2
100
AcDbLine
 10
-73.30220513929655
 20
20.65707210725108
 30
0.0
 11
-73.30220513929655
 21
23.65707210725108
 31
0.0
  0
LINE
  5
12F
330
74
100
AcDbEntity
  8
1
  6
Continuous
 62
     2
100
AcDbLine
 10
-69.30220513929655
 20
21.15707210725108
 30
0.0
 11
-73.30220513929655
 21
20.65707210725108
 31
0.0
  0
LINE
  5
130
330
74
100
AcDbEntity
  8
1
  6
Continuous
 62
     2
100
AcDbLine
 10
-69.30220513929655
 20
23.15707210725108
 30
0.0
 11
-69.30220513929655
 21
21.15707210725108
 31
0.0
  0
LINE
  5
131
330
74
100
AcDbEntity
  8
1
  6
Continuous
 62
     2
100
AcDbLine
 10
-73.30220513929655
 20
23.65707210725108
 30
0.0
 11
-69.30220513929655
 21
23.15707210725108
 31
0.0
  0
LINE
  5
132
330
74
100
AcDbEntity
  8
1
  6
Continuous
 62
     6
100
AcDbLine
 10
-204.03766974706
 20
7.28207210725119
 30
0.0
 11
-239.0376697470599
 21
7.28207210725119
 31
0.0
  0
LINE
  5
133
330
74
100
AcDbEntity
  8
1
  6
Continuous
 62
     6
100
AcDbLine
 10
47.96233025293981
 20
37.03207210725108
 30
0.0
 11
47.9623302529389
 21
28.53207210725108
 31
0.0
  0
LINE
  5
134
330
74
100
AcDbEntity
  8
1
  6
Continuous
 62
     6
100
AcDbLine
 10
-204.03766974706
 20
20.03207210725108
 30
0.0
 11
-204.03766974706
 21
24.28207210725108
 31
0.0
  0
LINE
  5
135
330
74
100
AcDbEntity
  8
1
  6
Continuous
 62
     7
100
AcDbLine
 10
-81.58247427381181
 20
32.78207210725108
 30
0.0
 11
-72.18247427381183
 21
32.78207210725108
 31
0.0
  0
LINE
  5
136
330
74
100
AcDbEntity
  8
1
  6
Continuous
 62
     6
100
AcDbLine
 10
-72.18247427381183
 20
37.03207210725108
 30
0.0
 11
-81.58247427381181
 21
37.03207210725108
 31
0.0
  0
LINE
  5
137
330
74
100
AcDbEntity
  8
1
  6
Continuous
 62
     7
100
AcDbLine
 10
-72.18247427381183
 20
24.28207210725119
 30
0.0
 11
-81.58247427381181
 21
24.28207210725108
 31
0.0
  0
LINE
  5
138
330
74
100
AcDbEntity
  8
1
  6
Continuous
 62
     2
100
AcDbLine
 10
-122.0824742738118
 20
20.03207210725108
 30
0.0
 11
-184.337669747062
 21
20.03207210725108
 31
0.0
  0
LINE
  5
139
330
74
100
AcDbEntity
  8
1
  6
Continuous
 62
     2
100
AcDbLine
 10
-122.0824742738118
 20
20.03207210725108
 30
0.0
 11
-122.0824742738118
 21
15.78207210725108
 31
0.0
  0
LINE
  5
13A
330
74
100
AcDbEntity
  8
1
  6
Continuous
 62
     2
100
AcDbLine
 10
-122.0824742738118
 20
32.78207210725108
 30
0.0
 11
-122.0824742738118
 21
28.53207210725108
 31
0.0
  0
LINE
  5
13B
330
74
100
AcDbEntity
  8
1
  6
Continuous
 62
     2
100
AcDbLine
 10
-122.0824742738118
 20
28.53207210725108
 30
0.0
 11
-122.0824742738118
 21
24.28207210725108
 31
0.0
  0
LINE
  5
13C
330
74
100
AcDbEntity
  8
1
  6
Continuous
 62
     2
100
AcDbLine
 10
-122.0824742738118
 20
24.28207210725108
 30
0.0
 11
-184.337669747062
 21
24.28207210725108
 31
0.0
  0
LINE
  5
13D
330
74
100
AcDbEntity
  8
1
  6
Continuous
 62
     2
100
AcDbLine
 10
-122.0824742738118
 20
24.28207210725108
 30
0.0
 11
-122.0824742738118
 21
20.03207210725108
 31
0.0
  0
LINE
  5
13E
330
74
100
AcDbEntity
  8
1
  6
Continuous
 62
     7
100
AcDbLine
 10
-122.0824742738118
 20
11.53207210725119
 30
0.0
 11
-108.5824742738118
 21
11.53207210725119
 31
0.0
  0
LINE
  5
13F
330
74
100
AcDbEntity
  8
1
  6
Continuous
 62
     2
100
AcDbLine
 10
-122.0824742738118
 20
11.53207210725119
 30
0.0
 11
-122.0824742738118
 21
7.28207210725108
 31
0.0
  0
LINE
  5
140
330
74
100
AcDbEntity
  8
1
  6
Continuous
 62
     2
100
AcDbLine
 10
-122.0824742738118
 20
15.78207210725108
 30
0.0
 11
-184.337669747062
 21
15.78207210725108
 31
0.0
  0
LINE
  5
141
330
74
100
AcDbEntity
  8
1
  6
Continuous
 62
     2
100
AcDbLine
 10
-122.0824742738118
 20
15.78207210725108
 30
0.0
 11
-122.0824742738118
 21
11.53207210725119
 31
0.0
  0
LINE
  5
142
330
74
100
AcDbEntity
  8
1
  6
Continuous
 62
     6
100
AcDbLine
 10
-122.0824742738118
 20
7.28207210725108
 30
0.0
 11
-108.5824742738118
 21
7.28207210725108
 31
0.0
  0
LINE
  5
143
330
74
100
AcDbEntity
  8
1
  6
Continuous
 62
     2
100
AcDbLine
 10
-108.5824742738118
 20
20.03207210725108
 30
0.0
 11
-122.0824742738118
 21
20.03207210725108
 31
0.0
  0
LINE
  5
144
330
74
100
AcDbEntity
  8
1
  6
Continuous
 62
     2
100
AcDbLine
 10
-108.5824742738118
 20
20.03207210725108
 30
0.0
 11
-108.5824742738118
 21
15.78207210725108
 31
0.0
  0
LINE
  5
145
330
74
100
AcDbEntity
  8
1
  6
Continuous
 62
     2
100
AcDbLine
 10
-108.5824742738118
 20
32.78207210725108
 30
0.0
 11
-122.0824742738118
 21
32.78207210725108
 31
0.0
  0
LINE
  5
146
330
74
100
AcDbEntity
  8
1
  6
Continuous
 62
     2
100
AcDbLine
 10
-108.5824742738118
 20
32.78207210725108
 30
0.0
 11
-108.5824742738118
 21
28.53207210725108
 31
0.0
  0
LINE
  5
147
330
74
100
AcDbEntity
  8
1
  6
Continuous
 62
     2
100
AcDbLine
 10
-108.5824742738118
 20
28.53207210725108
 30
0.0
 11
-122.0824742738118
 21
28.53207210725108
 31
0.0
  0
LINE
  5
148
330
74
100
AcDbEntity
  8
1
  6
Continuous
 62
     2
100
AcDbLine
 10
-108.5824742738118
 20
28.53207210725108
 30
0.0
 11
-108.5824742738118
 21
24.28207210725108
 31
0.0
  0
LINE
  5
149
330
74
100
AcDbEntity
  8
1
  6
Continuous
 62
     2
100
AcDbLine
 10
-108.5824742738118
 20
24.28207210725108
 30
0.0
 11
-122.0824742738118
 21
24.28207210725108
 31
0.0
  0
LINE
  5
14A
330
74
100
AcDbEntity
  8
1
  6
Continuous
 62
     2
100
AcDbLine
 10
-108.5824742738118
 20
24.28207210725108
 30
0.0
 11
-108.5824742738118
 21
20.03207210725108
 31
0.0
  0
LINE
  5
14B
330
74
100
AcDbEntity
  8
1
  6
Continuous
 62
     7
100
AcDbLine
 10
-108.5824742738118
 20
11.53207210725119
 30
0.0
 11
-95.08247427381191
 21
11.53207210725119
 31
0.0
  0
LINE
  5
14C
330
74
100
AcDbEntity
  8
1
  6
Continuous
 62
     2
100
AcDbLine
 10
-108.5824742738118
 20
11.53207210725119
 30
0.0
 11
-108.5824742738118
 21
7.28207210725108
 31
0.0
  0
LINE
  5
14D
330
74
100
AcDbEntity
  8
1
  6
Continuous
 62
     2
100
AcDbLine
 10
-108.5824742738118
 20
15.78207210725108
 30
0.0
 11
-122.0824742738118
 21
15.78207210725108
 31
0.0
  0
LINE
  5
14E
330
74
100
AcDbEntity
  8
1
  6
Continuous
 62
     2
100
AcDbLine
 10
-108.5824742738118
 20
15.78207210725108
 30
0.0
 11
-108.5824742738118
 21
11.53207210725119
 31
0.0
  0
LINE
  5
14F
330
74
100
AcDbEntity
  8
1
  6
Continuous
 62
     6
100
AcDbLine
 10
-108.5824742738118
 20
7.28207210725108
 30
0.0
 11
-95.53766974706191
 21
7.28207210725119
 31
0.0
  0
LINE
  5
150
330
74
100
AcDbEntity
  8
1
  6
Continuous
 62
     2
100
AcDbLine
 10
-95.08247427381191
 20
20.03207210725108
 30
0.0
 11
-108.5824742738118
 21
20.03207210725108
 31
0.0
  0
LINE
  5
151
330
74
100
AcDbEntity
  8
1
  6
Continuous
 62
     2
100
AcDbLine
 10
-95.08247427381191
 20
20.03207210725108
 30
0.0
 11
-95.08247427381191
 21
15.78207210725108
 31
0.0
  0
LINE
  5
152
330
74
100
AcDbEntity
  8
1
  6
Continuous
 62
     2
100
AcDbLine
 10
-95.08247427381191
 20
32.78207210725108
 30
0.0
 11
-108.5824742738118
 21
32.78207210725108
 31
0.0
  0
LINE
  5
153
330
74
100
AcDbEntity
  8
1
  6
Continuous
 62
     2
100
AcDbLine
 10
-95.08247427381191
 20
32.78207210725108
 30
0.0
 11
-95.08247427381191
 21
28.53207210725108
 31
0.0
  0
LINE
  5
154
330
74
100
AcDbEntity
  8
1
  6
Continuous
 62
     2
100
AcDbLine
 10
-95.08247427381191
 20
28.53207210725108
 30
0.0
 11
-108.5824742738118
 21
28.53207210725108
 31
0.0
  0
LINE
  5
155
330
74
100
AcDbEntity
  8
1
  6
Continuous
 62
     2
100
AcDbLine
 10
-95.08247427381191
 20
28.53207210725108
 30
0.0
 11
-95.08247427381191
 21
24.28207210725108
 31
0.0
  0
LINE
  5
156
330
74
100
AcDbEntity
  8
1
  6
Continuous
 62
     2
100
AcDbLine
 10
-95.08247427381191
 20
24.28207210725108
 30
0.0
 11
-108.5824742738118
 21
24.28207210725108
 31
0.0
  0
LINE
  5
157
330
74
100
AcDbEntity
  8
1
  6
Continuous
 62
     2
100
AcDbLine
 10
-95.08247427381191
 20
24.28207210725108
 30
0.0
 11
-95.08247427381191
 21
20.03207210725108
 31
0.0
  0
LINE
  5
158
330
74
100
AcDbEntity
  8
1
  6
Continuous
 62
     7
100
AcDbLine
 10
-95.08247427381191
 20
11.53207210725119
 30
0.0
 11
-81.58247427381181
 21
11.53207210725119
 31
0.0
  0
LINE
  5
159
330
74
100
AcDbEntity
  8
1
  6
Continuous
 62
     2
100
AcDbLine
 10
-95.08247427381191
 20
11.53207210725119
 30
0.0
 11
-95.08247427381191
 21
7.28207210725108
 31
0.0
  0
LINE
  5
15A
330
74
100
AcDbEntity
  8
1
  6
Continuous
 62
     2
100
AcDbLine
 10
-95.08247427381191
 20
15.78207210725108
 30
0.0
 11
-108.5824742738118
 21
15.78207210725108
 31
0.0
  0
LINE
  5
15B
330
74
100
AcDbEntity
  8
1
  6
Continuous
 62
     2
100
AcDbLine
 10
-95.08247427381191
 20
15.78207210725108
 30
0.0
 11
-95.08247427381191
 21
11.53207210725119
 31
0.0
  0
LINE
  5
15C
330
74
100
AcDbEntity
  8
1
  6
Continuous
 62
     6
100
AcDbLine
 10
-95.08247427381191
 20
7.28207210725108
 30
0.0
 11
-81.58247427381181
 21
7.28207210725108
 31
0.0
  0
LINE
  5
15D
330
74
100
AcDbEntity
  8
1
  6
Continuous
 62
     6
100
AcDbLine
 10
47.96233025293989
 20
24.28207210725108
 30
0.0
 11
47.96233025293941
 21
15.78207210725108
 31
0.0
  0
LINE
  5
15E
330
74
100
AcDbEntity
  8
1
  6
Continuous
 62
     7
100
AcDbLine
 10
-22.28247427381189
 20
28.53207210725102
 30
0.0
 11
-45.18247427381191
 21
28.53207210725108
 31
0.0
  0
LINE
  5
15F
330
74
100
AcDbEntity
  8
1
  6
Continuous
 62
     7
100
AcDbLine
 10
-58.68247427381193
 20
28.53207210725108
 30
0.0
 11
-45.18247427381191
 21
28.53207210725108
 31
0.0
  0
LINE
  5
160
330
74
100
AcDbEntity
  8
1
  6
Continuous
 62
     6
100
AcDbLine
 10
-45.18247427381191
 20
7.28207210725108
 30
0.0
 11
-45.5376697470619
 21
7.28207210725119
 31
0.0
  0
LINE
  5
161
330
74
100
AcDbEntity
  8
1
  6
Continuous
 62
     2
100
AcDbLine
 10
-184.337669747062
 20
28.53207210725108
 30
0.0
 11
-122.0824742738118
 21
28.53207210725108
 31
0.0
  0
LINE
  5
162
330
74
100
AcDbEntity
  8
1
  6
Continuous
 62
     2
100
AcDbLine
 10
-184.337669747062
 20
32.78207210725108
 30
0.0
 11
-122.0824742738118
 21
32.78207210725108
 31
0.0
  0
LINE
  5
163
330
74
100
AcDbEntity
  8
1
  6
Continuous
 62
     6
100
AcDbLine
 10
-122.0824742738118
 20
37.03207210725108
 30
0.0
 11
-184.337669747062
 21
37.03207210725108
 31
0.0
  0
LINE
  5
164
330
74
100
AcDbEntity
  8
1
  6
Continuous
 62
     6
100
AcDbLine
 10
-204.03766974706
 20
15.78207210725108
 30
0.0
 11
-204.03766974706
 21
20.03207210725108
 31
0.0
  0
LINE
  5
165
330
74
100
AcDbEntity
  8
1
  6
Continuous
 62
     6
100
AcDbLine
 10
-204.03766974706
 20
24.28207210725108
 30
0.0
 11
-204.03766974706
 21
28.53207210725108
 31
0.0
  0
LINE
  5
166
330
74
100
AcDbEntity
  8
1
  6
Continuous
 62
     6
100
AcDbLine
 10
-204.03766974706
 20
28.53207210725108
 30
0.0
 11
-204.03766974706
 21
32.78207210725108
 31
0.0
  0
LINE
  5
167
330
74
100
AcDbEntity
  8
1
  6
Continuous
 62
     6
100
AcDbLine
 10
-204.03766974706
 20
32.78207210725108
 30
0.0
 11
-204.03766974706
 21
37.03207210725108
 31
0.0
  0
LINE
  5
168
330
74
100
AcDbEntity
  8
1
  6
Continuous
 62
     6
100
AcDbLine
 10
-197.837669747062
 20
7.28207210725108
 30
0.0
 11
-204.03766974706
 21
7.28207210725119
 31
0.0
  0
LINE
  5
169
330
74
100
AcDbEntity
  8
1
  6
Continuous
 62
     7
100
AcDbLine
 10
-15.53766974705952
 20
24.28207210725108
 30
0.0
 11
-15.53766974705952
 21
15.78207210725108
 31
0.0
  0
LINE
  5
16A
330
74
100
AcDbEntity
  8
1
  6
Continuous
 62
     7
100
AcDbLine
 10
-15.53766974705952
 20
24.28207210725108
 30
0.0
 11
2.9623302529401
 21
24.28207210725108
 31
0.0
  0
LINE
  5
16B
330
74
100
AcDbEntity
  8
1
  6
Continuous
 62
     7
100
AcDbLine
 10
21.16233025294011
 20
28.53207210725119
 30
0.0
 11
-15.53766974705952
 21
28.53207210725106
 31
0.0
  0
LINE
  5
16C
330
74
100
AcDbEntity
  8
1
  6
Continuous
 62
     7
100
AcDbLine
 10
21.16233025294011
 20
28.53207210725119
 30
0.0
 11
30.080738534619
 21
28.53207210725108
 31
0.0
  0
LINE
  5
16D
330
74
100
AcDbEntity
  8
1
  6
Continuous
 62
     7
100
AcDbLine
 10
-45.18247427381191
 20
24.28207210725108
 30
0.0
 11
-15.53766974705952
 21
24.28207210725108
 31
0.0
  0
LINE
  5
16E
330
74
100
AcDbEntity
  8
1
  6
Continuous
 62
     7
100
AcDbLine
 10
-45.18247427381191
 20
15.78207210725108
 30
0.0
 11
-15.53766974705952
 21
15.78207210725108
 31
0.0
  0
LINE
  5
16F
330
74
100
AcDbEntity
  8
1
  6
Continuous
 62
     7
100
AcDbLine
 10
-81.58247427381181
 20
37.03207210725108
 30
0.0
 11
-81.58247427381181
 21
32.78207210725108
 31
0.0
  0
LINE
  5
170
330
74
100
AcDbEntity
  8
1
  6
Continuous
 62
     7
100
AcDbLine
 10
-81.58247427381181
 20
11.53207210725119
 30
0.0
 11
-81.58247427381181
 21
7.28207210725108
 31
0.0
  0
LINE
  5
171
330
74
100
AcDbEntity
  8
1
  6
Continuous
 62
     7
100
AcDbLine
 10
-45.18247427381191
 20
11.53207210725119
 30
0.0
 11
-45.18247427381191
 21
7.28207210725108
 31
0.0
  0
LINE
  5
172
330
74
100
AcDbEntity
  8
1
  6
Continuous
 62
     7
100
AcDbLine
 10
-45.18247427381191
 20
24.28207210725108
 30
0.0
 11
-58.68247427381193
 21
24.28207210725108
 31
0.0
  0
LINE
  5
173
330
74
100
AcDbEntity
  8
1
  6
Continuous
 62
     7
100
AcDbLine
 10
-81.58247427381181
 20
28.53207210725108
 30
0.0
 11
-72.18247427381183
 21
28.53207210725108
 31
0.0
  0
LINE
  5
174
330
74
100
AcDbEntity
  8
1
  6
Continuous
 62
     7
100
AcDbLine
 10
-72.18247427381183
 20
32.78207210725108
 30
0.0
 11
-72.18247427381183
 21
28.53207210725108
 31
0.0
  0
LINE
  5
175
330
74
100
AcDbEntity
  8
1
  6
Continuous
 62
     7
100
AcDbLine
 10
-58.68247427381193
 20
32.78207210725108
 30
0.0
 11
-58.68247427381193
 21
28.53207210725108
 31
0.0
  0
LINE
  5
176
330
74
100
AcDbEntity
  8
1
  6
Continuous
 62
     7
100
AcDbLine
 10
-81.58247427381181
 20
15.78207210725108
 30
0.0
 11
-81.58247427381181
 21
11.53207210725119
 31
0.0
  0
LINE
  5
177
330
74
100
AcDbEntity
  8
1
  6
Continuous
 62
     7
100
AcDbLine
 10
-81.58247427381181
 20
20.03207210725108
 30
0.0
 11
-81.58247427381181
 21
15.78207210725108
 31
0.0
  0
LINE
  5
178
330
74
100
AcDbEntity
  8
1
  6
Continuous
 62
     7
100
AcDbLine
 10
-45.18247427381191
 20
15.78207210725108
 30
0.0
 11
-45.18247427381191
 21
11.53207210725119
 31
0.0
  0
LINE
  5
179
330
74
100
AcDbEntity
  8
1
  6
Continuous
 62
     7
100
AcDbLine
 10
-204.03766974706
 20
11.53207210725119
 30
0.0
 11
-197.837669747062
 21
11.53207210725119
 31
0.0
  0
LINE
  5
17A
330
74
100
AcDbEntity
  8
1
  6
Continuous
 62
     2
100
AcDbLine
 10
-204.03766974706
 20
20.03207210725108
 30
0.0
 11
-197.837669747062
 21
20.03207210725108
 31
0.0
  0
LINE
  5
17B
330
74
100
AcDbEntity
  8
1
  6
Continuous
 62
     2
100
AcDbLine
 10
-204.03766974706
 20
15.78207210725108
 30
0.0
 11
-197.837669747062
 21
15.78207210725108
 31
0.0
  0
LINE
  5
17C
330
74
100
AcDbEntity
  8
1
  6
Continuous
 62
     2
100
AcDbLine
 10
-197.837669747062
 20
7.28207210725108
 30
0.0
 11
-197.837669747062
 21
11.53207210725119
 31
0.0
  0
LINE
  5
17D
330
74
100
AcDbEntity
  8
1
  6
Continuous
 62
     7
100
AcDbLine
 10
-72.18247427381183
 20
37.03207210725108
 30
0.0
 11
-72.18247427381183
 21
32.78207210725108
 31
0.0
  0
LINE
  5
17E
330
74
100
AcDbEntity
  8
1
  6
Continuous
 62
     7
100
AcDbLine
 10
-58.68247427381193
 20
37.03207210725108
 30
0.0
 11
-58.68247427381193
 21
32.78207210725108
 31
0.0
  0
LINE
  5
17F
330
74
100
AcDbEntity
  8
1
  6
Continuous
 62
     7
100
AcDbLine
 10
-45.18247427381191
 20
28.53207210725108
 30
0.0
 11
-45.18247427381191
 21
24.28207210725108
 31
0.0
  0
LINE
  5
180
330
74
100
AcDbEntity
  8
1
  6
Continuous
 62
     7
100
AcDbLine
 10
-81.58247427381181
 20
32.78207210725108
 30
0.0
 11
-81.58247427381181
 21
28.53207210725108
 31
0.0
  0
LINE
  5
181
330
74
100
AcDbEntity
  8
1
  6
Continuous
 62
     2
100
AcDbLine
 10
-204.03766974706
 20
28.53207210725108
 30
0.0
 11
-197.837669747062
 21
28.53207210725108
 31
0.0
  0
LINE
  5
182
330
74
100
AcDbEntity
  8
1
  6
Continuous
 62
     7
100
AcDbLine
 10
-81.58247427381181
 20
28.53207210725108
 30
0.0
 11
-81.58247427381181
 21
24.28207210725108
 31
0.0
  0
LINE
  5
183
330
74
100
AcDbEntity
  8
1
  6
Continuous
 62
     7
100
AcDbLine
 10
-81.58247427381181
 20
24.28207210725108
 30
0.0
 11
-81.58247427381181
 21
20.03207210725108
 31
0.0
  0
LINE
  5
184
330
74
100
AcDbEntity
  8
1
  6
Continuous
 62
     6
100
AcDbLine
 10
-72.18247427381183
 20
37.03207210725108
 30
0.0
 11
-58.68247427381193
 21
37.03207210725108
 31
0.0
  0
LINE
  5
185
330
74
100
AcDbEntity
  8
1
  6
Continuous
 62
     7
100
AcDbLine
 10
-45.18247427381191
 20
37.03207210725108
 30
0.0
 11
-45.18247427381191
 21
32.78207210725108
 31
0.0
  0
LINE
  5
186
330
74
100
AcDbEntity
  8
1
  6
Continuous
 62
     6
100
AcDbLine
 10
-58.68247427381193
 20
37.03207210725108
 30
0.0
 11
-45.18247427381191
 21
37.03207210725108
 31
0.0
  0
LINE
  5
187
330
74
100
AcDbEntity
  8
1
  6
Continuous
 62
     7
100
AcDbLine
 10
-45.18247427381191
 20
15.78207210725108
 30
0.0
 11
-45.18247427381191
 21
20.03207210725108
 31
0.0
  0
LINE
  5
188
330
74
100
AcDbEntity
  8
1
  6
Continuous
 62
     2
100
AcDbLine
 10
-197.837669747062
 20
11.53207210725119
 30
0.0
 11
-197.837669747062
 21
15.78207210725108
 31
0.0
  0
LINE
  5
189
330
74
100
AcDbEntity
  8
1
  6
Continuous
 62
     7
100
AcDbLine
 10
-197.837669747062
 20
11.53207210725119
 30
0.0
 11
-184.337669747062
 21
11.53207210725119
 31
0.0
  0
LINE
  5
18A
330
74
100
AcDbEntity
  8
1
  6
Continuous
 62
     2
100
AcDbLine
 10
-197.837669747062
 20
20.03207210725108
 30
0.0
 11
-197.837669747062
 21
24.28207210725108
 31
0.0
  0
LINE
  5
18B
330
74
100
AcDbEntity
  8
1
  6
Continuous
 62
     2
100
AcDbLine
 10
-197.837669747062
 20
15.78207210725108
 30
0.0
 11
-197.837669747062
 21
20.03207210725108
 31
0.0
  0
LINE
  5
18C
330
74
100
AcDbEntity
  8
1
  6
Continuous
 62
     2
100
AcDbLine
 10
-81.58247427381181
 20
20.03207210725108
 30
0.0
 11
-95.08247427381191
 21
20.03207210725108
 31
0.0
  0
LINE
  5
18D
330
74
100
AcDbEntity
  8
1
  6
Continuous
 62
     2
100
AcDbLine
 10
-81.58247427381181
 20
15.78207210725108
 30
0.0
 11
-95.08247427381191
 21
15.78207210725108
 31
0.0
  0
LINE
  5
18E
330
74
100
AcDbEntity
  8
1
  6
Continuous
 62
     6
100
AcDbLine
 10
-81.58247427381181
 20
37.03207210725108
 30
0.0
 11
-95.08247427381191
 21
37.03207210725108
 31
0.0
  0
LINE
  5
18F
330
74
100
AcDbEntity
  8
1
  6
Continuous
 62
     2
100
AcDbLine
 10
-197.837669747062
 20
32.78207210725108
 30
0.0
 11
-204.03766974706
 21
32.78207210725108
 31
0.0
  0
LINE
  5
190
330
74
100
AcDbEntity
  8
1
  6
Continuous
 62
     2
100
AcDbLine
 10
-197.837669747062
 20
32.78207210725108
 30
0.0
 11
-197.837669747062
 21
37.03207210725108
 31
0.0
  0
LINE
  5
191
330
74
100
AcDbEntity
  8
1
  6
Continuous
 62
     2
100
AcDbLine
 10
-81.58247427381181
 20
32.78207210725108
 30
0.0
 11
-95.08247427381191
 21
32.78207210725108
 31
0.0
  0
LINE
  5
192
330
74
100
AcDbEntity
  8
1
  6
Continuous
 62
     2
100
AcDbLine
 10
-197.837669747062
 20
28.53207210725108
 30
0.0
 11
-197.837669747062
 21
32.78207210725108
 31
0.0
  0
LINE
  5
193
330
74
100
AcDbEntity
  8
1
  6
Continuous
 62
     2
100
AcDbLine
 10
-81.58247427381181
 20
28.53207210725108
 30
0.0
 11
-95.08247427381191
 21
28.53207210725108
 31
0.0
  0
LINE
  5
194
330
74
100
AcDbEntity
  8
1
  6
Continuous
 62
     2
100
AcDbLine
 10
-197.837669747062
 20
24.28207210725108
 30
0.0
 11
-204.03766974706
 21
24.28207210725108
 31
0.0
  0
LINE
  5
195
330
74
100
AcDbEntity
  8
1
  6
Continuous
 62
     2
100
AcDbLine
 10
-197.837669747062
 20
24.28207210725108
 30
0.0
 11
-197.837669747062
 21
28.53207210725108
 31
0.0
  0
LINE
  5
196
330
74
100
AcDbEntity
  8
1
  6
Continuous
 62
     2
100
AcDbLine
 10
-81.58247427381181
 20
24.28207210725108
 30
0.0
 11
-95.08247427381191
 21
24.28207210725108
 31
0.0
  0
LINE
  5
197
330
74
100
AcDbEntity
  8
1
  6
Continuous
 62
     7
100
AcDbLine
 10
-58.68247427381193
 20
28.53207210725108
 30
0.0
 11
-72.18247427381183
 21
28.53207210725108
 31
0.0
  0
LINE
  5
198
330
74
100
AcDbEntity
  8
1
  6
Continuous
 62
     7
100
AcDbLine
 10
-72.18247427381183
 20
28.53207210725108
 30
0.0
 11
-72.18247427381183
 21
24.28207210725119
 31
0.0
  0
LINE
  5
199
330
74
100
AcDbEntity
  8
1
  6
Continuous
 62
     7
100
AcDbLine
 10
-58.68247427381193
 20
28.53207210725108
 30
0.0
 11
-58.68247427381193
 21
24.28207210725108
 31
0.0
  0
LINE
  5
19A
330
74
100
AcDbEntity
  8
1
  6
Continuous
 62
     6
100
AcDbLine
 10
-204.03766974706
 20
11.53207210725119
 30
0.0
 11
-204.03766974706
 21
15.78207210725108
 31
0.0
  0
LINE
  5
19B
330
74
100
AcDbEntity
  8
1
  6
Continuous
 62
     6
100
AcDbLine
 10
-204.03766974706
 20
7.28207210725119
 30
0.0
 11
-204.03766974706
 21
11.53207210725119
 31
0.0
  0
LINE
  5
19C
330
74
100
AcDbEntity
  8
1
  6
Continuous
 62
     6
100
AcDbLine
 10
-197.837669747062
 20
37.03207210725108
 30
0.0
 11
-204.03766974706
 21
37.03207210725108
 31
0.0
  0
LINE
  5
19D
330
74
100
AcDbEntity
  8
1
  6
Continuous
 62
     7
100
AcDbLine
 10
-22.28247427381189
 20
37.03207210725108
 30
0.0
 11
-22.28247427381189
 21
28.53207210725102
 31
0.0
  0
LINE
  5
19E
330
74
100
AcDbEntity
  8
1
  6
Continuous
 62
     6
100
AcDbLine
 10
21.1623302529398
 20
37.03207210725108
 30
0.0
 11
-22.28247427381189
 21
37.03207210725108
 31
0.0
  0
LINE
  5
19F
330
74
100
AcDbEntity
  8
1
  6
Continuous
 62
     6
100
AcDbLine
 10
-45.18247427381191
 20
37.03207210725108
 30
0.0
 11
-22.28247427381189
 21
37.03207210725108
 31
0.0
  0
LINE
  5
1A0
330
74
100
AcDbEntity
  8
1
  6
Continuous
 62
     7
100
AcDbLine
 10
-45.18247427381191
 20
11.53207210725119
 30
0.0
 11
-63.38247427381194
 21
11.53207210725119
 31
0.0
  0
LINE
  5
1A1
330
74
100
AcDbEntity
  8
1
  6
Continuous
 62
     7
100
AcDbLine
 10
-58.68247427381193
 20
24.28207210725108
 30
0.0
 11
-72.18247427381183
 21
24.28207210725119
 31
0.0
  0
LINE
  5
1A2
330
74
100
AcDbEntity
  8
1
  6
Continuous
 62
     7
100
AcDbLine
 10
-63.38247427381194
 20
11.53207210725119
 30
0.0
 11
-81.58247427381181
 21
11.53207210725119
 31
0.0
  0
LINE
  5
1A3
330
74
100
AcDbEntity
  8
1
  6
Continuous
 62
     7
100
AcDbLine
 10
-63.38247427381194
 20
11.53207210725119
 30
0.0
 11
-63.38247427381194
 21
7.28207210725119
 31
0.0
  0
LINE
  5
1A4
330
74
100
AcDbEntity
  8
1
  6
Continuous
 62
     2
100
AcDbLine
 10
-122.0824742738118
 20
37.03207210725108
 30
0.0
 11
-122.0824742738118
 21
32.78207210725108
 31
0.0
  0
LINE
  5
1A5
330
74
100
AcDbEntity
  8
1
  6
Continuous
 62
     6
100
AcDbLine
 10
-108.5824742738118
 20
37.03207210725108
 30
0.0
 11
-122.0824742738118
 21
37.03207210725108
 31
0.0
  0
LINE
  5
1A6
330
74
100
AcDbEntity
  8
1
  6
Continuous
 62
     6
100
AcDbLine
 10
-95.08247427381191
 20
37.03207210725108
 30
0.0
 11
-108.5824742738118
 21
37.03207210725108
 31
0.0
  0
LINE
  5
1A7
330
74
100
AcDbEntity
  8
1
  6
Continuous
 62
     2
100
AcDbLine
 10
-108.5824742738118
 20
37.03207210725108
 30
0.0
 11
-108.5824742738118
 21
32.78207210725108
 31
0.0
  0
LINE
  5
1A8
330
74
100
AcDbEntity
  8
1
  6
Continuous
 62
     2
100
AcDbLine
 10
-95.08247427381191
 20
37.03207210725108
 30
0.0
 11
-95.08247427381191
 21
32.78207210725108
 31
0.0
  0
LINE
  5
1A9
330
74
100
AcDbEntity
  8
1
  6
Continuous
 62
     7
100
AcDbLine
 10
2.9623302529401
 20
24.28207210725108
 30
0.0
 11
2.9623302529401
 21
15.78207210725108
 31
0.0
  0
LINE
  5
1AA
330
74
100
AcDbEntity
  8
1
  6
Continuous
 62
     7
100
AcDbLine
 10
2.9623302529401
 20
15.78207210725108
 30
0.0
 11
-15.53766974705952
 21
15.78207210725108
 31
0.0
  0
LINE
  5
1AB
330
74
100
AcDbEntity
  8
1
  6
Continuous
 62
     7
100
AcDbLine
 10
21.1623302529398
 20
37.03207210725108
 30
0.0
 11
21.16233025294011
 21
28.53207210725119
 31
0.0
  0
LINE
  5
1AC
330
74
100
AcDbEntity
  8
1
  6
Continuous
 62
     6
100
AcDbLine
 10
21.1623302529398
 20
37.03207210725108
 30
0.0
 11
30.080738534619
 21
37.03207210725108
 31
0.0
  0
LINE
  5
1AD
330
74
100
AcDbEntity
  8
1
  6
Continuous
 62
     7
100
AcDbLine
 10
30.080738534619
 20
28.53207210725108
 30
0.0
 11
30.080738534619
 21
37.03207210725108
 31
0.0
  0
LINE
  5
1AE
330
74
100
AcDbEntity
  8
1
  6
Continuous
 62
     7
100
AcDbLine
 10
-58.68247427381193
 20
32.78207210725108
 30
0.0
 11
-72.18247427381183
 21
32.78207210725108
 31
0.0
  0
LINE
  5
1AF
330
74
100
AcDbEntity
  8
1
  6
Continuous
 62
     7
100
AcDbLine
 10
-58.68247427381193
 20
32.78207210725108
 30
0.0
 11
-45.18247427381191
 21
32.78207210725108
 31
0.0
  0
LINE
  5
1B0
330
74
100
AcDbEntity
  8
1
  6
Continuous
 62
     7
100
AcDbLine
 10
-45.18247427381191
 20
32.78207210725108
 30
0.0
 11
-45.18247427381191
 21
28.53207210725108
 31
0.0
  0
LINE
  5
1B1
330
74
100
AcDbEntity
  8
1
  6
Continuous
 62
     7
100
AcDbLine
 10
2.9623302529401
 20
24.28207210725108
 30
0.0
 11
47.96233025293989
 21
24.28207210725108
 31
0.0
  0
LINE
  5
1B2
330
74
100
AcDbEntity
  8
1
  6
Continuous
 62
     7
100
AcDbLine
 10
47.9623302529389
 20
28.53207210725108
 30
0.0
 11
30.080738534619
 21
28.53207210725108
 31
0.0
  0
LINE
  5
1B3
330
74
100
AcDbEntity
  8
1
  6
Continuous
 62
     7
100
AcDbLine
 10
47.96233025293941
 20
15.78207210725108
 30
0.0
 11
2.9623302529401
 21
15.78207210725108
 31
0.0
  0
LINE
  5
1B4
330
74
100
AcDbEntity
  8
1
  6
Continuous
 62
     6
100
AcDbLine
 10
47.96233025293981
 20
37.03207210725108
 30
0.0
 11
30.080738534619
 21
37.03207210725108
 31
0.0
  0
LINE
  5
1B5
330
74
100
AcDbEntity
  8
1
  6
Continuous
 62
     6
100
AcDbLine
 10
-122.0824742738118
 20
7.28207210725108
 30
0.0
 11
-145.537669747062
 21
7.28207210725119
 31
0.0
  0
LINE
  5
1B6
330
74
100
AcDbEntity
  8
1
  6
Continuous
 62
     6
100
AcDbLine
 10
-197.837669747062
 20
7.28207210725108
 30
0.0
 11
-195.5376697470619
 21
7.28207210725119
 31
0.0
  0
LINE
  5
1B7
330
74
100
AcDbEntity
  8
1
  6
Continuous
 62
     6
100
AcDbLine
 10
-81.58247427381181
 20
7.28207210725108
 30
0.0
 11
-63.38247427381194
 21
7.28207210725119
 31
0.0
  0
LINE
  5
1B8
330
74
100
AcDbEntity
  8
1
  6
Continuous
 62
     6
100
AcDbLine
 10
-45.18247427381191
 20
7.28207210725108
 30
0.0
 11
4.46233025293811
 21
7.28207210725119
 31
0.0
  0
LINE
  5
1B9
330
74
100
AcDbEntity
  8
1
  6
Continuous
 62
     6
100
AcDbLine
 10
47.9623302529389
 20
28.53207210725108
 30
0.0
 11
47.96233025293989
 21
24.28207210725108
 31
0.0
  0
LINE
  5
1BA
330
74
100
AcDbEntity
  8
1
  6
Continuous
 62
     6
100
AcDbLine
 10
47.9623302529381
 20
7.28207210725119
 30
0.0
 11
47.96233025293941
 21
15.78207210725108
 31
0.0
  0
LINE
  5
1BB
330
74
100
AcDbEntity
  8
1
  6
Continuous
 62
     2
100
AcDbLine
 10
-184.337669747062
 20
37.03207210725108
 30
0.0
 11
-184.337669747062
 21
32.78207210725108
 31
0.0
  0
LINE
  5
1BC
330
74
100
AcDbEntity
  8
1
  6
Continuous
 62
     6
100
AcDbLine
 10
-184.337669747062
 20
37.03207210725108
 30
0.0
 11
-197.837669747062
 21
37.03207210725108
 31
0.0
  0
LINE
  5
1BD
330
74
100
AcDbEntity
  8
1
  6
Continuous
 62
     2
100
AcDbLine
 10
-184.337669747062
 20
32.78207210725108
 30
0.0
 11
-184.337669747062
 21
28.53207210725108
 31
0.0
  0
LINE
  5
1BE
330
74
100
AcDbEntity
  8
1
  6
Continuous
 62
     2
100
AcDbLine
 10
-184.337669747062
 20
28.53207210725108
 30
0.0
 11
-184.337669747062
 21
24.28207210725108
 31
0.0
  0
LINE
  5
1BF
330
74
100
AcDbEntity
  8
1
  6
Continuous
 62
     2
100
AcDbLine
 10
-184.337669747062
 20
28.53207210725108
 30
0.0
 11
-197.837669747062
 21
28.53207210725108
 31
0.0
  0
LINE
  5
1C0
330
74
100
AcDbEntity
  8
1
  6
Continuous
 62
     2
100
AcDbLine
 10
-184.337669747062
 20
32.78207210725108
 30
0.0
 11
-197.837669747062
 21
32.78207210725108
 31
0.0
  0
LINE
  5
1C1
330
74
100
AcDbEntity
  8
1
  6
Continuous
 62
     2
100
AcDbLine
 10
-184.337669747062
 20
20.03207210725108
 30
0.0
 11
-184.337669747062
 21
15.78207210725108
 31
0.0
  0
LINE
  5
1C2
330
74
100
AcDbEntity
  8
1
  6
Continuous
 62
     2
100
AcDbLine
 10
-184.337669747062
 20
20.03207210725108
 30
0.0
 11
-197.837669747062
 21
20.03207210725108
 31
0.0
  0
LINE
  5
1C3
330
74
100
AcDbEntity
  8
1
  6
Continuous
 62
     2
100
AcDbLine
 10
-184.337669747062
 20
24.28207210725108
 30
0.0
 11
-184.337669747062
 21
20.03207210725108
 31
0.0
  0
LINE
  5
1C4
330
74
100
AcDbEntity
  8
1
  6
Continuous
 62
     2
100
AcDbLine
 10
-184.337669747062
 20
24.28207210725108
 30
0.0
 11
-197.837669747062
 21
24.28207210725108
 31
0.0
  0
LINE
  5
1C5
330
74
100
AcDbEntity
  8
1
  6
Continuous
 62
     2
100
AcDbLine
 10
-184.337669747062
 20
15.78207210725108
 30
0.0
 11
-184.337669747062
 21
11.53207210725119
 31
0.0
  0
LINE
  5
1C6
330
74
100
AcDbEntity
  8
1
  6
Continuous
 62
     2
100
AcDbLine
 10
-184.337669747062
 20
15.78207210725108
 30
0.0
 11
-197.837669747062
 21
15.78207210725108
 31
0.0
  0
LINE
  5
1C7
330
74
100
AcDbEntity
  8
1
  6
Continuous
 62
     2
100
AcDbLine
 10
-184.337669747062
 20
11.53207210725119
 30
0.0
 11
-184.337669747062
 21
7.28207210725119
 31
0.0
  0
LINE
  5
1C8
330
74
100
AcDbEntity
  8
1
  6
Continuous
 62
     7
100
AcDbLine
 10
-184.337669747062
 20
11.53207210725119
 30
0.0
 11
-122.0824742738118
 21
11.53207210725119
 31
0.0
  0
LINE
  5
1C9
330
74
100
AcDbEntity
  8
1
  6
Continuous
 62
     2
100
AcDbLine
 10
-244.037669747061
 20
7.28207210725119
 30
0.0
 11
-244.037669747061
 21
2.28207210725108
 31
0.0
  0
LINE
  5
1CA
330
74
100
AcDbEntity
  8
1
  6
Continuous
 62
     2
100
AcDbLine
 10
-239.0376697470599
 20
7.28207210725119
 30
0.0
 11
-244.037669747061
 21
7.28207210725119
 31
0.0
  0
LINE
  5
1CB
330
74
100
AcDbEntity
  8
1
  6
Continuous
 62
     2
100
AcDbLine
 10
-239.0376697470599
 20
2.28207210725108
 30
0.0
 11
-195.5376697470619
 21
2.28207210725108
 31
0.0
  0
LINE
  5
1CC
330
74
100
AcDbEntity
  8
1
  6
Continuous
 62
     2
100
AcDbLine
 10
-239.0376697470599
 20
7.28207210725119
 30
0.0
 11
-239.0376697470599
 21
2.28207210725108
 31
0.0
  0
LINE
  5
1CD
330
74
100
AcDbEntity
  8
1
  6
Continuous
 62
     2
100
AcDbLine
 10
4.46233025293811
 20
2.28207210725108
 30
0.0
 11
-45.5376697470619
 21
2.28207210725108
 31
0.0
  0
LINE
  5
1CE
330
74
100
AcDbEntity
  8
1
  6
Continuous
 62
     2
100
AcDbLine
 10
4.46233025293811
 20
2.28207210725108
 30
0.0
 11
4.46233025293811
 21
7.28207210725119
 31
0.0
  0
LINE
  5
1CF
330
74
100
AcDbEntity
  8
1
  6
Continuous
 62
     2
100
AcDbLine
 10
-45.5376697470619
 20
2.28207210725108
 30
0.0
 11
-45.5376697470619
 21
7.28207210725119
 31
0.0
  0
LINE
  5
1D0
330
74
100
AcDbEntity
  8
1
  6
Continuous
 62
     2
100
AcDbLine
 10
-95.53766974706191
 20
2.28207210725108
 30
0.0
 11
-45.5376697470619
 21
2.28207210725108
 31
0.0
  0
LINE
  5
1D1
330
74
100
AcDbEntity
  8
1
  6
Continuous
 62
     2
100
AcDbLine
 10
-95.53766974706191
 20
2.28207210725108
 30
0.0
 11
-95.53766974706191
 21
7.28207210725119
 31
0.0
  0
LINE
  5
1D2
330
74
100
AcDbEntity
  8
1
  6
Continuous
 62
     2
100
AcDbLine
 10
-145.537669747062
 20
2.28207210725108
 30
0.0
 11
-95.53766974706191
 21
2.28207210725108
 31
0.0
  0
LINE
  5
1D3
330
74
100
AcDbEntity
  8
1
  6
Continuous
 62
     2
100
AcDbLine
 10
-145.537669747062
 20
2.28207210725108
 30
0.0
 11
-145.537669747062
 21
7.28207210725119
 31
0.0
  0
LINE
  5
1D4
330
74
100
AcDbEntity
  8
1
  6
Continuous
 62
     2
100
AcDbLine
 10
-195.5376697470619
 20
2.28207210725108
 30
0.0
 11
-145.537669747062
 21
2.28207210725108
 31
0.0
  0
LINE
  5
1D5
330
74
100
AcDbEntity
  8
1
  6
Continuous
 62
     2
100
AcDbLine
 10
-195.5376697470619
 20
2.28207210725108
 30
0.0
 11
-195.5376697470619
 21
7.28207210725119
 31
0.0
  0
LINE
  5
1D6
330
74
100
AcDbEntity
  8
1
  6
Continuous
 62
     6
100
AcDbLine
 10
-239.0376697470601
 20
57.28207210725119
 30
0.0
 11
-239.0376697470599
 21
7.28207210725119
 31
0.0
  0
LINE
  5
1D7
330
74
100
AcDbEntity
  8
1
  6
Continuous
 62
     2
100
AcDbLine
 10
-244.037669747061
 20
57.28207210725119
 30
0.0
 11
-244.037669747061
 21
7.28207210725119
 31
0.0
  0
LINE
  5
1D8
330
74
100
AcDbEntity
  8
1
  6
Continuous
 62
     2
100
AcDbLine
 10
-244.037669747061
 20
57.28207210725119
 30
0.0
 11
-239.0376697470601
 21
57.28207210725119
 31
0.0
  0
LINE
  5
1D9
330
74
100
AcDbEntity
  8
1
  6
Continuous
 62
     6
100
AcDbLine
 10
-239.0376697470604
 20
107.282072107251
 30
0.0
 11
-239.0376697470601
 21
57.28207210725119
 31
0.0
  0
LINE
  5
1DA
330
74
100
AcDbEntity
  8
1
  6
Continuous
 62
     2
100
AcDbLine
 10
-244.037669747061
 20
107.282072107251
 30
0.0
 11
-244.037669747061
 21
57.28207210725119
 31
0.0
  0
LINE
  5
1DB
330
74
100
AcDbEntity
  8
1
  6
Continuous
 62
     2
100
AcDbLine
 10
-244.037669747061
 20
107.282072107251
 30
0.0
 11
-239.0376697470604
 21
107.282072107251
 31
0.0
  0
LINE
  5
1DC
330
74
100
AcDbEntity
  8
1
  6
Continuous
 62
     6
100
AcDbLine
 10
-239.0376697470608
 20
157.2820721072511
 30
0.0
 11
-239.0376697470604
 21
107.282072107251
 31
0.0
  0
LINE
  5
1DD
330
74
100
AcDbEntity
  8
1
  6
Continuous
 62
     2
100
AcDbLine
 10
-244.037669747061
 20
157.2820721072511
 30
0.0
 11
-244.037669747061
 21
107.282072107251
 31
0.0
  0
LINE
  5
1DE
330
74
100
AcDbEntity
  8
1
  6
Continuous
 62
     2
100
AcDbLine
 10
-244.037669747061
 20
157.2820721072511
 30
0.0
 11
-239.0376697470608
 21
157.2820721072511
 31
0.0
  0
LINE
  5
1DF
330
74
100
AcDbEntity
  8
1
  6
Continuous
 62
     6
100
AcDbLine
 10
-239.037669747061
 20
192.2820721072511
 30
0.0
 11
-239.0376697470608
 21
157.2820721072511
 31
0.0
  0
LINE
  5
1E0
330
74
100
AcDbEntity
  8
1
  6
Continuous
 62
     2
100
AcDbLine
 10
-244.037669747061
 20
212.2820721072511
 30
0.0
 11
-244.037669747061
 21
157.2820721072511
 31
0.0
  0
LINE
  5
1E1
330
74
100
AcDbEntity
  8
1
  6
Continuous
 62
     2
100
AcDbLine
 10
-244.037669747061
 20
2.28207210725108
 30
0.0
 11
-239.0376697470599
 21
2.28207210725108
 31
0.0
  0
LINE
  5
1E2
330
74
100
AcDbEntity
  8
1
  6
Continuous
 62
     2
100
AcDbLine
 10
-95.53766974706191
 20
212.2820721072511
 30
0.0
 11
-95.53766974706191
 21
203.0733802625498
 31
0.0
  0
LINE
  5
1E3
330
74
100
AcDbEntity
  8
1
  6
Continuous
 62
     2
100
AcDbLine
 10
-95.53766974706191
 20
212.2820721072511
 30
0.0
 11
-244.037669747061
 21
212.2820721072511
 31
0.0
  0
LINE
  5
1E4
330
74
100
AcDbEntity
  8
1
  6
Continuous
 62
     2
100
AcDbLine
 10
52.96233025293711
 20
7.28207210725119
 30
0.0
 11
52.96233025293711
 21
57.28207210725119
 31
0.0
  0
LINE
  5
1E5
330
74
100
AcDbEntity
  8
1
  6
Continuous
 62
     2
100
AcDbLine
 10
52.96233025293711
 20
157.2820721072511
 30
0.0
 11
52.96233025293711
 21
212.2820721072511
 31
0.0
  0
LINE
  5
1E6
330
74
100
AcDbEntity
  8
1
  6
Continuous
 62
     6
100
AcDbLine
 10
47.96233025293739
 20
157.2820721072511
 30
0.0
 11
47.96233025293711
 21
192.2820721072511
 31
0.0
  0
LINE
  5
1E7
330
74
100
AcDbEntity
  8
1
  6
Continuous
 62
     2
100
AcDbLine
 10
47.96233025293739
 20
157.2820721072511
 30
0.0
 11
52.96233025293711
 21
157.2820721072511
 31
0.0
  0
LINE
  5
1E8
330
74
100
AcDbEntity
  8
1
  6
Continuous
 62
     2
100
AcDbLine
 10
52.96233025293711
 20
107.282072107251
 30
0.0
 11
52.96233025293711
 21
157.2820721072511
 31
0.0
  0
LINE
  5
1E9
330
74
100
AcDbEntity
  8
1
  6
Continuous
 62
     6
100
AcDbLine
 10
47.9623302529385
 20
107.282072107251
 30
0.0
 11
47.96233025293739
 21
157.2820721072511
 31
0.0
  0
LINE
  5
1EA
330
74
100
AcDbEntity
  8
1
  6
Continuous
 62
     2
100
AcDbLine
 10
47.9623302529385
 20
107.282072107251
 30
0.0
 11
52.96233025293711
 21
107.282072107251
 31
0.0
  0
LINE
  5
1EB
330
74
100
AcDbEntity
  8
1
  6
Continuous
 62
     2
100
AcDbLine
 10
52.96233025293711
 20
57.28207210725119
 30
0.0
 11
52.96233025293711
 21
107.282072107251
 31
0.0
  0
LINE
  5
1EC
330
74
100
AcDbEntity
  8
1
  6
Continuous
 62
     6
100
AcDbLine
 10
47.96233025293901
 20
57.28207210725119
 30
0.0
 11
47.9623302529385
 21
107.282072107251
 31
0.0
  0
LINE
  5
1ED
330
74
100
AcDbEntity
  8
1
  6
Continuous
 62
     2
100
AcDbLine
 10
47.96233025293901
 20
57.28207210725119
 30
0.0
 11
52.96233025293711
 21
57.28207210725119
 31
0.0
  0
LINE
  5
1EE
330
74
100
AcDbEntity
  8
1
  6
Continuous
 62
     6
100
AcDbLine
 10
47.96233025293711
 20
192.2820721072511
 30
0.0
 11
-239.037669747061
 21
192.2820721072511
 31
0.0
  0
LINE
  5
1EF
330
74
100
AcDbEntity
  8
1
  6
Continuous
 62
     2
100
AcDbLine
 10
52.96233025293711
 20
212.2820721072511
 30
0.0
 11
-95.53766974706191
 21
212.2820721072511
 31
0.0
  0
LINE
  5
1F0
330
74
100
AcDbEntity
  8
1
  6
Continuous
 62
     6
100
AcDbLine
 10
47.96233025293981
 20
37.03207210725108
 30
0.0
 11
47.96233025293901
 21
57.28207210725119
 31
0.0
  0
LINE
  5
1F1
330
74
100
AcDbEntity
  8
1
  6
Continuous
 62
     2
100
AcDbLine
 10
47.9623302529381
 20
2.28207210725108
 30
0.0
 11
4.46233025293811
 21
2.28207210725108
 31
0.0
  0
LINE
  5
1F2
330
74
100
AcDbEntity
  8
1
  6
Continuous
 62
     2
100
AcDbLine
 10
52.96233025293711
 20
2.28207210725108
 30
0.0
 11
47.9623302529381
 21
2.28207210725108
 31
0.0
  0
LINE
  5
1F3
330
74
100
AcDbEntity
  8
1
  6
Continuous
 62
     2
100
AcDbLine
 10
52.96233025293711
 20
2.28207210725108
 30
0.0
 11
52.96233025293711
 21
7.28207210725119
 31
0.0
  0
LINE
  5
1F4
330
74
100
AcDbEntity
  8
1
  6
Continuous
 62
     7
100
AcDbLine
 10
-81.58247427381181
 20
20.03207210725108
 30
0.0
 11
-45.18247427381191
 21
20.03207210725108
 31
0.0
  0
LINE
  5
1F5
330
74
100
AcDbEntity
  8
1
  6
Continuous
 62
     7
100
AcDbLine
 10
-45.18247427381191
 20
20.03207210725108
 30
0.0
 11
-45.18247427381191
 21
24.28207210725108
 31
0.0
  0
LINE
  5
1F6
330
74
100
AcDbEntity
  8
1
  6
Continuous
 62
     2
100
AcDbLine
 10
47.9623302529381
 20
7.28207210725119
 30
0.0
 11
47.9623302529381
 21
2.28207210725108
 31
0.0
  0
LINE
  5
1F7
330
74
100
AcDbEntity
  8
1
  6
Continuous
 62
     2
100
AcDbLine
 10
47.9623302529381
 20
7.28207210725119
 30
0.0
 11
52.96233025293711
 21
7.28207210725119
 31
0.0
  0
LINE
  5
1F8
330
74
100
AcDbEntity
  8
1
  6
PHANTOM
 62
     2
100
AcDbLine
 10
-74.84021444870854
 20
22.15707210725108
 30
0.0
 11
-78.14021444870853
 21
22.15707210725108
 31
0.0
  0
LINE
  5
1F9
330
74
100
AcDbEntity
  8
1
  6
PHANTOM
 62
     2
100
AcDbLine
 10
-76.49021444870854
 20
23.80707210725111
 30
0.0
 11
-76.49021444870854
 21
20.5070721072511
 31
0.0
  0
LINE
  5
1FA
330
74
100
AcDbEntity
  8
1
  6
PHANTOM
 62
     2
100
AcDbLine
 10
-73.46321105901154
 20
22.15707210725108
 30
0.0
 11
-69.14761608982253
 21
22.15707210725108
 31
0.0
  0
LINE
  5
1FB
330
74
100
AcDbEntity
  8
1
  6
Continuous
 62
     6
100
AcDbLine
 10
-45.5376697470619
 20
7.28207210725119
 30
0.0
 11
-63.38247427381194
 21
7.28207210725119
 31
0.0
  0
LINE
  5
1FC
330
74
100
AcDbEntity
  8
1
  6
Continuous
 62
     6
100
AcDbLine
 10
4.46233025293811
 20
7.28207210725119
 30
0.0
 11
47.9623302529381
 21
7.28207210725119
 31
0.0
  0
LINE
  5
1FD
330
74
100
AcDbEntity
  8
1
  6
Continuous
 62
     6
100
AcDbLine
 10
-195.5376697470619
 20
7.28207210725119
 30
0.0
 11
-184.337669747062
 21
7.28207210725119
 31
0.0
  0
LINE
  5
1FE
330
74
100
AcDbEntity
  8
1
  6
Continuous
 62
     6
100
AcDbLine
 10
-145.537669747062
 20
7.28207210725119
 30
0.0
 11
-184.337669747062
 21
7.28207210725119
 31
0.0
  0
LINE
  5
1FF
330
74
100
AcDbEntity
  8
1
  6
Continuous
 62
     6
100
AcDbLine
 10
-95.53766974706191
 20
7.28207210725119
 30
0.0
 11
-95.08247427381191
 21
7.28207210725108
 31
0.0
  0
LINE
  5
200
330
74
100
AcDbEntity
  8
1
  6
Continuous
 62
     7
100
AcDbLine
 10
-15.53766974705952
 20
24.28207210725108
 30
0.0
 11
-15.53766974705952
 21
28.53207210725106
 31
0.0
  0
LINE
  5
201
102
{ACAD_REACTORS
330
321
330
322
102
}
330
74
100
AcDbEntity
  8
0
  6
Continuous
 62
     2
100
AcDbLine
 10
-72.21336192493015
 20
17.08167107931967
 30
0.0
 11
-72.21336192493015
 21
17.58211346651534
 31
0.0
  0
LINE
  5
202
102
{ACAD_REACTORS
330
321
330
322
102
}
330
74
100
AcDbEntity
  8
0
  6
Continuous
 62
     2
100
AcDbLine
 10
-72.21336192493015
 20
14.76751024739299
 30
0.0
 11
-72.21336192493015
 21
15.24837917854596
 31
0.0
  0
LINE
  5
203
102
{ACAD_REACTORS
330
323
330
324
102
}
330
74
100
AcDbEntity
  8
0
  6
Continuous
 62
     2
100
AcDbLine
 10
-53.5113070195755
 20
15.00690203923015
 30
0.0
 11
-53.5113070195755
 21
13.13207210725704
 31
0.0
  0
LINE
  5
204
102
{ACAD_REACTORS
330
323
330
324
102
}
330
74
100
AcDbEntity
  8
0
  6
Continuous
 62
     2
100
AcDbLine
 10
-54.65267377906935
 20
15.65588163106741
 30
0.0
 11
-51.85519814383906
 21
15.65588163106787
 31
0.0
  0
LINE
  5
205
102
{ACAD_REACTORS
330
323
330
324
102
}
330
74
100
AcDbEntity
  8
0
  6
Continuous
 62
     2
100
AcDbLine
 10
-51.85519814383906
 20
15.00690203923015
 30
0.0
 11
-51.85519814383906
 21
15.65588163106787
 31
0.0
  0
LINE
  5
206
102
{ACAD_REACTORS
330
323
330
324
102
}
330
74
100
AcDbEntity
  8
0
  6
Continuous
 62
     2
100
AcDbLine
 10
-52.52552792687493
 20
15.00690203923015
 30
0.0
 11
-51.85519814383906
 21
15.00690203923015
 31
0.0
  0
LINE
  5
207
102
{ACAD_REACTORS
330
323
330
324
102
}
330
74
100
AcDbEntity
  8
0
  6
Continuous
 62
     2
100
AcDbLine
 10
-52.52552792687493
 20
13.13207210725704
 30
0.0
 11
-52.52552792687493
 21
15.00690203923015
 31
0.0
  0
LINE
  5
208
102
{ACAD_REACTORS
330
323
330
324
102
}
330
74
100
AcDbEntity
  8
0
  6
Continuous
 62
     2
100
AcDbLine
 10
-53.5113070195755
 20
13.13207210725704
 30
0.0
 11
-52.52552792687493
 21
13.13207210725704
 31
0.0
  0
LINE
  5
209
102
{ACAD_REACTORS
330
319
330
31A
102
}
330
74
100
AcDbEntity
  8
0
  6
Continuous
 62
     2
100
AcDbLine
 10
-54.08700200971146
 20
18.43207210724502
 30
0.0
 11
-55.24627822272737
 21
18.43207210724502
 31
0.0
  0
LINE
  5
20A
102
{ACAD_REACTORS
330
319
330
31A
102
}
330
74
100
AcDbEntity
  8
0
  6
Continuous
 62
     2
100
AcDbLine
 10
-54.08700200971146
 20
18.43207210724502
 30
0.0
 11
-53.59016934699093
 21
17.87023465141403
 31
0.0
  0
LINE
  5
20B
102
{ACAD_REACTORS
330
319
330
31A
102
}
330
74
100
AcDbEntity
  8
0
  6
Continuous
 62
     2
100
AcDbLine
 10
-53.59016934699093
 20
17.87023465141403
 30
0.0
 11
-53.09333668426962
 21
18.43207210724502
 31
0.0
  0
LINE
  5
20C
102
{ACAD_REACTORS
330
319
330
31A
102
}
330
74
100
AcDbEntity
  8
0
  6
Continuous
 62
     2
100
AcDbLine
 10
-53.01053124048394
 20
17.2147576196118
 30
0.0
 11
-51.93406047125541
 21
18.43207210724502
 31
0.0
  0
LINE
  5
20D
102
{ACAD_REACTORS
330
319
330
31A
102
}
330
74
100
AcDbEntity
  8
0
  6
Continuous
 62
     2
100
AcDbLine
 10
-53.01053124048394
 20
17.2147576196118
 30
0.0
 11
-51.85519814383906
 21
15.90826258343419
 31
0.0
  0
LINE
  5
20E
102
{ACAD_REACTORS
330
319
330
31A
102
}
330
74
100
AcDbEntity
  8
0
  6
Continuous
 62
     2
100
AcDbLine
 10
-53.01447435685418
 20
15.90826258343419
 30
0.0
 11
-51.85519814383906
 21
15.90826258343419
 31
0.0
  0
LINE
  5
20F
102
{ACAD_REACTORS
330
319
330
31A
102
}
330
74
100
AcDbEntity
  8
0
  6
Continuous
 62
     2
100
AcDbLine
 10
-53.59016934699093
 20
16.55928058780913
 30
0.0
 11
-53.01447435685418
 21
15.90826258343419
 31
0.0
  0
LINE
  5
210
102
{ACAD_REACTORS
330
317
330
318
102
}
330
74
100
AcDbEntity
  8
0
  6
Continuous
 62
     2
100
AcDbLine
 10
-56.44892871582044
 20
18.43207210724502
 30
0.0
 11
-55.42371845941307
 21
18.43207210724502
 31
0.0
  0
LINE
  5
211
102
{ACAD_REACTORS
330
317
330
318
102
}
330
74
100
AcDbEntity
  8
0
  6
Continuous
 62
     2
100
AcDbLine
 10
-55.42371845941307
 20
18.43207210724502
 30
0.0
 11
-55.42371845941307
 21
15.90826258343419
 31
0.0
  0
LINE
  5
212
102
{ACAD_REACTORS
330
317
330
318
102
}
330
74
100
AcDbEntity
  8
0
  6
Continuous
 62
     2
100
AcDbLine
 10
-56.44892871582044
 20
15.90826258343419
 30
0.0
 11
-56.44892871582044
 21
18.43207210724502
 31
0.0
  0
LINE
  5
213
102
{ACAD_REACTORS
330
315
330
316
102
}
330
74
100
AcDbEntity
  8
0
  6
Continuous
 62
     2
100
AcDbLine
 10
-57.66240812287629
 20
14.14159591678136
 30
0.0
 11
-57.41433767891567
 21
14.7761537399109
 31
0.0
  0
LINE
  5
214
102
{ACAD_REACTORS
330
315
330
316
102
}
330
74
100
AcDbEntity
  8
0
  6
Continuous
 62
     2
100
AcDbLine
 10
-58.05706564735635
 20
13.13207210725704
 30
0.0
 11
-57.88228874365734
 21
13.57914693718916
 31
0.0
  0
LINE
  5
215
102
{ACAD_REACTORS
330
315
330
316
102
}
330
74
100
AcDbEntity
  8
0
  6
Continuous
 62
     2
100
AcDbLine
 10
-57.92694280711976
 20
15.65588163106787
 30
0.0
 11
-59.08227590376373
 21
13.13207210725704
 31
0.0
  0
LINE
  5
216
102
{ACAD_REACTORS
330
315
330
316
102
}
330
74
100
AcDbEntity
  8
0
  6
Continuous
 62
     2
100
AcDbLine
 10
-55.74639945406761
 20
13.13207210725704
 30
0.0
 11
-56.77160971047579
 21
13.13207210725704
 31
0.0
  0
LINE
  5
217
102
{ACAD_REACTORS
330
315
330
316
102
}
330
74
100
AcDbEntity
  8
0
  6
Continuous
 62
     2
100
AcDbLine
 10
-57.88228874365734
 20
13.57914693718916
 30
0.0
 11
-56.9463866141748
 21
13.57914693718916
 31
0.0
  0
LINE
  5
218
102
{ACAD_REACTORS
330
313
330
314
102
}
330
74
100
AcDbEntity
  8
0
  6
Continuous
 62
     2
100
AcDbLine
 10
-60.86534378738543
 20
15.00690203923015
 30
0.0
 11
-60.19501400434854
 21
15.00690203923015
 31
0.0
  0
LINE
  5
219
102
{ACAD_REACTORS
330
313
330
314
102
}
330
74
100
AcDbEntity
  8
0
  6
Continuous
 62
     2
100
AcDbLine
 10
-58.53890512861381
 20
15.65588163106787
 30
0.0
 11
-60.86534378738543
 21
15.65588163106787
 31
0.0
  0
LINE
  5
21A
102
{ACAD_REACTORS
330
313
330
314
102
}
330
74
100
AcDbEntity
  8
0
  6
Continuous
 62
     2
100
AcDbLine
 10
-58.53890512861381
 20
15.00690203923015
 30
0.0
 11
-58.53890512861381
 21
15.65588163106787
 31
0.0
  0
LINE
  5
21B
102
{ACAD_REACTORS
330
313
330
314
102
}
330
74
100
AcDbEntity
  8
0
  6
Continuous
 62
     2
100
AcDbLine
 10
-59.20923491164899
 20
15.00690203923015
 30
0.0
 11
-58.53890512861381
 21
15.00690203923015
 31
0.0
  0
LINE
  5
21C
102
{ACAD_REACTORS
330
313
330
314
102
}
330
74
100
AcDbEntity
  8
0
  6
Continuous
 62
     2
100
AcDbLine
 10
-59.20923491164899
 20
13.13207210725704
 30
0.0
 11
-59.20923491164899
 21
15.00690203923015
 31
0.0
  0
LINE
  5
21D
102
{ACAD_REACTORS
330
311
330
312
102
}
330
74
100
AcDbEntity
  8
0
  6
Continuous
 62
     2
100
AcDbLine
 10
-58.6570738834688
 20
15.90826258343419
 30
0.0
 11
-58.6570738834688
 21
16.98989523649585
 31
0.0
  0
LINE
  5
21E
102
{ACAD_REACTORS
330
311
330
312
102
}
330
74
100
AcDbEntity
  8
0
  6
Continuous
 62
     2
100
AcDbLine
 10
-59.64285297616834
 20
18.43207210724502
 30
0.0
 11
-59.64285297616834
 21
15.90826258343419
 31
0.0
  0
LINE
  5
21F
102
{ACAD_REACTORS
330
311
330
312
102
}
330
74
100
AcDbEntity
  8
0
  6
Continuous
 62
     2
100
AcDbLine
 10
-58.6570738834688
 20
18.43207210724502
 30
0.0
 11
-59.64285297616834
 21
18.43207210724502
 31
0.0
  0
LINE
  5
220
102
{ACAD_REACTORS
330
311
330
312
102
}
330
74
100
AcDbEntity
  8
0
  6
Continuous
 62
     2
100
AcDbLine
 10
-57.63186362706051
 20
18.43207210724502
 30
0.0
 11
-57.63186362706051
 21
17.35043945418291
 31
0.0
  0
LINE
  5
221
102
{ACAD_REACTORS
330
30F
330
310
102
}
330
74
100
AcDbEntity
  8
0
  6
Continuous
 62
     2
100
AcDbLine
 10
-63.98040572031687
 20
15.65588163106787
 30
0.0
 11
-63.98040572031687
 21
13.13207210725704
 31
0.0
  0
LINE
  5
222
102
{ACAD_REACTORS
330
30F
330
310
102
}
330
74
100
AcDbEntity
  8
0
  6
Continuous
 62
     2
100
AcDbLine
 10
-62.99462662761641
 20
15.65588163106787
 30
0.0
 11
-63.98040572031687
 21
15.65588163106787
 31
0.0
  0
LINE
  5
223
102
{ACAD_REACTORS
330
30F
330
310
102
}
330
74
100
AcDbEntity
  8
0
  6
Continuous
 62
     2
100
AcDbLine
 10
-61.96941637120904
 20
13.13207210725704
 30
0.0
 11
-60.98363727850949
 21
13.13207210725704
 31
0.0
  0
LINE
  5
224
102
{ACAD_REACTORS
330
30F
330
310
102
}
330
74
100
AcDbEntity
  8
0
  6
Continuous
 62
     2
100
AcDbLine
 10
-63.98040572031687
 20
13.13207210725704
 30
0.0
 11
-62.99462662761641
 21
13.13207210725704
 31
0.0
  0
LINE
  5
225
102
{ACAD_REACTORS
330
31F
330
320
102
}
330
74
100
AcDbEntity
  8
0
  6
Continuous
 62
     2
100
AcDbLine
 10
-60.94408137853247
 20
17.45860271948912
 30
0.0
 11
-60.94408137853247
 21
17.85520135894508
 31
0.0
  0
LINE
  5
226
102
{ACAD_REACTORS
330
31F
330
320
102
}
330
74
100
AcDbEntity
  8
0
  6
Continuous
 62
     2
100
AcDbLine
 10
-59.84000879470796
 20
17.45860271948912
 30
0.0
 11
-60.94408137853247
 21
17.45860271948912
 31
0.0
  0
LINE
  5
227
102
{ACAD_REACTORS
330
31F
330
320
102
}
330
74
100
AcDbEntity
  8
0
  6
Continuous
 62
     2
100
AcDbLine
 10
-59.84000879470796
 20
16.88173197118964
 30
0.0
 11
-59.84000879470796
 21
17.45860271948912
 31
0.0
  0
LINE
  5
228
102
{ACAD_REACTORS
330
31F
330
320
102
}
330
74
100
AcDbEntity
  8
0
  6
Continuous
 62
     2
100
AcDbLine
 10
-60.94408137853247
 20
16.88173197118964
 30
0.0
 11
-59.84000879470796
 21
16.88173197118964
 31
0.0
  0
LINE
  5
229
102
{ACAD_REACTORS
330
30D
330
30E
102
}
330
74
100
AcDbEntity
  8
0
  6
Continuous
 62
     2
100
AcDbLine
 10
-63.8225563292159
 20
18.43207210724502
 30
0.0
 11
-63.8225563292159
 21
15.90826258343419
 31
0.0
  0
LINE
  5
22A
102
{ACAD_REACTORS
330
30D
330
30E
102
}
330
74
100
AcDbEntity
  8
0
  6
Continuous
 62
     2
100
AcDbLine
 10
-63.8225563292159
 20
15.90826258343419
 30
0.0
 11
-64.80833542191544
 21
15.90826258343419
 31
0.0
  0
LINE
  5
22B
102
{ACAD_REACTORS
330
30D
330
30E
102
}
330
74
100
AcDbEntity
  8
0
  6
Continuous
 62
     2
100
AcDbLine
 10
-64.80833542191544
 20
15.90826258343419
 30
0.0
 11
-64.80833542191544
 21
16.84567754942075
 31
0.0
  0
LINE
  5
22C
102
{ACAD_REACTORS
330
30D
330
30E
102
}
330
74
100
AcDbEntity
  8
0
  6
Continuous
 62
     2
100
AcDbLine
 10
-65.67582102349184
 20
15.90826258343419
 30
0.0
 11
-66.6616001161915
 21
15.90826258343419
 31
0.0
  0
LINE
  5
22D
102
{ACAD_REACTORS
330
30D
330
30E
102
}
330
74
100
AcDbEntity
  8
0
  6
Continuous
 62
     2
100
AcDbLine
 10
-66.6616001161915
 20
18.43207210724502
 30
0.0
 11
-65.67582102349184
 21
18.43207210724502
 31
0.0
  0
LINE
  5
22E
102
{ACAD_REACTORS
330
30D
330
30E
102
}
330
74
100
AcDbEntity
  8
0
  6
Continuous
 62
     2
100
AcDbLine
 10
-65.67582102349184
 20
18.43207210724502
 30
0.0
 11
-65.67582102349184
 21
17.54873877391066
 31
0.0
  0
LINE
  5
22F
102
{ACAD_REACTORS
330
30D
330
30E
102
}
330
74
100
AcDbEntity
  8
0
  6
Continuous
 62
     2
100
AcDbLine
 10
-65.67582102349184
 20
17.54873877391066
 30
0.0
 11
-64.80833542191544
 21
17.54873877391066
 31
0.0
  0
LINE
  5
230
102
{ACAD_REACTORS
330
31B
330
31C
102
}
330
74
100
AcDbEntity
  8
0
  6
Continuous
 62
     2
100
AcDbLine
 10
-68.2782778282193
 20
17.88405074737721
 30
0.0
 11
-68.01605050463093
 21
17.88405074737721
 31
0.0
  0
LINE
  5
231
102
{ACAD_REACTORS
330
31B
330
31C
102
}
330
74
100
AcDbEntity
  8
0
  6
Continuous
 62
     2
100
AcDbLine
 10
-68.2782778282193
 20
17.30080475618525
 30
0.0
 11
-68.01605050463093
 21
17.30080475618525
 31
0.0
  0
LINE
  5
232
102
{ACAD_REACTORS
330
31B
330
31C
102
}
330
74
100
AcDbEntity
  8
0
  6
Continuous
 62
     2
100
AcDbLine
 10
-69.30348808462759
 20
18.43207210724502
 30
0.0
 11
-69.30348808462759
 21
15.90826258343419
 31
0.0
  0
LINE
  5
233
102
{ACAD_REACTORS
330
31B
330
31C
102
}
330
74
100
AcDbEntity
  8
0
  6
Continuous
 62
     2
100
AcDbLine
 10
-69.30348808462759
 20
18.43207210724502
 30
0.0
 11
-67.65119717716118
 21
18.43207210724502
 31
0.0
  0
LINE
  5
234
102
{ACAD_REACTORS
330
31B
330
31C
102
}
330
74
100
AcDbEntity
  8
0
  6
Continuous
 62
     2
100
AcDbLine
 10
-68.2782778282193
 20
16.68766608851166
 30
0.0
 11
-67.65119717716118
 21
16.68766608851166
 31
0.0
  0
LINE
  5
235
102
{ACAD_REACTORS
330
321
330
322
102
}
330
74
100
AcDbEntity
  8
0
  6
Continuous
 62
     2
100
AcDbLine
 10
-74.34191455842654
 20
17.58226014143119
 30
0.0
 11
-74.34191455842654
 21
13.98188407306995
 31
0.0
  0
LINE
  5
236
102
{ACAD_REACTORS
330
321
330
322
102
}
330
74
100
AcDbEntity
  8
0
  6
Continuous
 62
     2
100
AcDbLine
 10
-74.0809914815045
 20
17.84318321835364
 30
0.0
 11
-72.86129457157926
 21
17.84318321835364
 31
0.0
  0
LINE
  5
237
102
{ACAD_REACTORS
330
321
330
322
102
}
330
74
100
AcDbEntity
  8
0
  6
Continuous
 62
     2
100
AcDbLine
 10
-72.60037149465643
 20
17.08306624138113
 30
0.0
 11
-72.60037149465643
 21
17.58226014143119
 31
0.0
  0
LINE
  5
238
102
{ACAD_REACTORS
330
321
330
322
102
}
330
74
100
AcDbEntity
  8
0
  6
Continuous
 62
     2
100
AcDbLine
 10
-72.60037149465643
 20
13.98188407306995
 30
0.0
 11
-72.60037149465643
 21
15.24698401648451
 31
0.0
  0
LINE
  5
239
102
{ACAD_REACTORS
330
321
330
322
102
}
330
74
100
AcDbEntity
  8
0
  6
Continuous
 62
     2
100
AcDbLine
 10
-70.04841510632241
 20
13.13207210725704
 30
0.0
 11
-74.57181352840246
 21
13.13207210725704
 31
0.0
  0
LINE
  5
23A
102
{ACAD_REACTORS
330
321
330
322
102
}
330
74
100
AcDbEntity
  8
0
  6
Continuous
 62
     2
100
AcDbLine
 10
-69.69779972170761
 20
18.08145672261529
 30
0.0
 11
-69.69779972170761
 21
13.48268749187132
 31
0.0
  0
LINE
  5
23B
102
{ACAD_REACTORS
330
321
330
322
102
}
330
74
100
AcDbEntity
  8
0
  6
Continuous
 62
     2
100
AcDbLine
 10
-74.57181352840246
 20
18.43207210723003
 30
0.0
 11
-70.04841510632241
 21
18.43207210723003
 31
0.0
  0
LINE
  5
23C
102
{ACAD_REACTORS
330
321
330
322
102
}
330
74
100
AcDbEntity
  8
0
  6
Continuous
 62
     2
100
AcDbLine
 10
-74.92242891301635
 20
18.08145672261529
 30
0.0
 11
-74.92242891301635
 21
13.48268749187132
 31
0.0
  0
LINE
  5
23D
102
{ACAD_REACTORS
330
321
330
322
102
}
330
74
100
AcDbEntity
  8
0
  6
Continuous
 62
     2
100
AcDbLine
 10
-72.86129457157926
 20
13.72096099614706
 30
0.0
 11
-74.0809914815045
 21
13.72096099614706
 31
0.0
  0
LINE
  5
23E
102
{ACAD_REACTORS
330
31B
330
31C
102
}
330
74
100
AcDbEntity
  8
0
  6
Continuous
 62
     2
100
AcDbLine
 10
-68.2782778282193
 20
15.90826258343419
 30
0.0
 11
-68.2782778282193
 21
16.68766608851166
 31
0.0
  0
LINE
  5
23F
102
{ACAD_REACTORS
330
31B
330
31C
102
}
330
74
100
AcDbEntity
  8
0
  6
Continuous
 62
     2
100
AcDbLine
 10
-69.30348808462759
 20
15.90826258343419
 30
0.0
 11
-68.2782778282193
 21
15.90826258343419
 31
0.0
  0
LINE
  5
240
102
{ACAD_REACTORS
330
31B
330
31C
102
}
330
74
100
AcDbEntity
  8
0
  6
Continuous
 62
     2
100
AcDbLine
 10
-68.2782778282193
 20
17.30080475618525
 30
0.0
 11
-68.2782778282193
 21
17.88405074737721
 31
0.0
  0
LINE
  5
241
102
{ACAD_REACTORS
330
30D
330
30E
102
}
330
74
100
AcDbEntity
  8
0
  6
Continuous
 62
     2
100
AcDbLine
 10
-66.6616001161915
 20
18.43207210724502
 30
0.0
 11
-66.6616001161915
 21
15.90826258343419
 31
0.0
  0
LINE
  5
242
102
{ACAD_REACTORS
330
30D
330
30E
102
}
330
74
100
AcDbEntity
  8
0
  6
Continuous
 62
     2
100
AcDbLine
 10
-65.67582102349184
 20
16.84567754942075
 30
0.0
 11
-65.67582102349184
 21
15.90826258343419
 31
0.0
  0
LINE
  5
243
102
{ACAD_REACTORS
330
30D
330
30E
102
}
330
74
100
AcDbEntity
  8
0
  6
Continuous
 62
     2
100
AcDbLine
 10
-64.80833542191544
 20
16.84567754942075
 30
0.0
 11
-65.67582102349184
 21
16.84567754942075
 31
0.0
  0
LINE
  5
244
102
{ACAD_REACTORS
330
30D
330
30E
102
}
330
74
100
AcDbEntity
  8
0
  6
Continuous
 62
     2
100
AcDbLine
 10
-64.80833542191544
 20
18.43207210724502
 30
0.0
 11
-63.8225563292159
 21
18.43207210724502
 31
0.0
  0
LINE
  5
245
102
{ACAD_REACTORS
330
30D
330
30E
102
}
330
74
100
AcDbEntity
  8
0
  6
Continuous
 62
     2
100
AcDbLine
 10
-64.80833542191544
 20
17.54873877391066
 30
0.0
 11
-64.80833542191544
 21
18.43207210724502
 31
0.0
  0
LINE
  5
246
102
{ACAD_REACTORS
330
31F
330
320
102
}
330
74
100
AcDbEntity
  8
0
  6
Continuous
 62
     2
100
AcDbLine
 10
-59.84000879470796
 20
17.85520135894508
 30
0.0
 11
-59.84000879470796
 21
18.43207210724502
 31
0.0
  0
LINE
  5
247
102
{ACAD_REACTORS
330
31F
330
320
102
}
330
74
100
AcDbEntity
  8
0
  6
Continuous
 62
     2
100
AcDbLine
 10
-62.44357881436167
 20
18.43207210724502
 30
0.0
 11
-59.84000879470796
 21
18.43207210724502
 31
0.0
  0
LINE
  5
248
102
{ACAD_REACTORS
330
31F
330
320
102
}
330
74
100
AcDbEntity
  8
0
  6
Continuous
 62
     2
100
AcDbLine
 10
-62.44357881436167
 20
15.90826258343419
 30
0.0
 11
-59.84000879470796
 21
15.90826258343419
 31
0.0
  0
LINE
  5
249
102
{ACAD_REACTORS
330
31F
330
320
102
}
330
74
100
AcDbEntity
  8
0
  6
Continuous
 62
     2
100
AcDbLine
 10
-59.84000879470796
 20
15.90826258343419
 30
0.0
 11
-59.84000879470796
 21
16.48513333173368
 31
0.0
  0
LINE
  5
24A
102
{ACAD_REACTORS
330
31F
330
320
102
}
330
74
100
AcDbEntity
  8
0
  6
Continuous
 62
     2
100
AcDbLine
 10
-59.84000879470796
 20
16.48513333173368
 30
0.0
 11
-60.94408137853247
 21
16.48513333173368
 31
0.0
  0
LINE
  5
24B
102
{ACAD_REACTORS
330
31F
330
320
102
}
330
74
100
AcDbEntity
  8
0
  6
Continuous
 62
     2
100
AcDbLine
 10
-60.94408137853247
 20
16.48513333173368
 30
0.0
 11
-60.94408137853247
 21
16.88173197118964
 31
0.0
  0
LINE
  5
24C
102
{ACAD_REACTORS
330
31F
330
320
102
}
330
74
100
AcDbEntity
  8
0
  6
Continuous
 62
     2
100
AcDbLine
 10
-60.94408137853247
 20
17.85520135894508
 30
0.0
 11
-59.84000879470796
 21
17.85520135894508
 31
0.0
  0
LINE
  5
24D
102
{ACAD_REACTORS
330
30F
330
310
102
}
330
74
100
AcDbEntity
  8
0
  6
Continuous
 62
     2
100
AcDbLine
 10
-62.99462662761641
 20
13.13207210725704
 30
0.0
 11
-62.99462662761641
 21
14.21370476031869
 31
0.0
  0
LINE
  5
24E
102
{ACAD_REACTORS
330
30F
330
310
102
}
330
74
100
AcDbEntity
  8
0
  6
Continuous
 62
     2
100
AcDbLine
 10
-62.99462662761641
 20
14.21370476031869
 30
0.0
 11
-61.96941637120904
 21
13.13207210725704
 31
0.0
  0
LINE
  5
24F
102
{ACAD_REACTORS
330
30F
330
310
102
}
330
74
100
AcDbEntity
  8
0
  6
Continuous
 62
     2
100
AcDbLine
 10
-60.98363727850949
 20
13.13207210725704
 30
0.0
 11
-60.98363727850949
 21
15.65588163106787
 31
0.0
  0
LINE
  5
250
102
{ACAD_REACTORS
330
30F
330
310
102
}
330
74
100
AcDbEntity
  8
0
  6
Continuous
 62
     2
100
AcDbLine
 10
-60.98363727850949
 20
15.65588163106787
 30
0.0
 11
-61.96941637120904
 21
15.65588163106787
 31
0.0
  0
LINE
  5
251
102
{ACAD_REACTORS
330
30F
330
310
102
}
330
74
100
AcDbEntity
  8
0
  6
Continuous
 62
     2
100
AcDbLine
 10
-61.96941637120904
 20
15.65588163106787
 30
0.0
 11
-61.96941637120904
 21
14.57424897800576
 31
0.0
  0
LINE
  5
252
102
{ACAD_REACTORS
330
30F
330
310
102
}
330
74
100
AcDbEntity
  8
0
  6
Continuous
 62
     2
100
AcDbLine
 10
-61.96941637120904
 20
14.57424897800576
 30
0.0
 11
-62.99462662761641
 21
15.65588163106787
 31
0.0
  0
LINE
  5
253
102
{ACAD_REACTORS
330
311
330
312
102
}
330
74
100
AcDbEntity
  8
0
  6
Continuous
 62
     2
100
AcDbLine
 10
-58.6570738834688
 20
16.98989523649585
 30
0.0
 11
-57.63186362706051
 21
15.90826258343419
 31
0.0
  0
LINE
  5
254
102
{ACAD_REACTORS
330
311
330
312
102
}
330
74
100
AcDbEntity
  8
0
  6
Continuous
 62
     2
100
AcDbLine
 10
-57.63186362706051
 20
15.90826258343419
 30
0.0
 11
-56.64608453436085
 21
15.90826258343419
 31
0.0
  0
LINE
  5
255
102
{ACAD_REACTORS
330
311
330
312
102
}
330
74
100
AcDbEntity
  8
0
  6
Continuous
 62
     2
100
AcDbLine
 10
-56.64608453436085
 20
15.90826258343419
 30
0.0
 11
-56.64608453436085
 21
18.43207210724502
 31
0.0
  0
LINE
  5
256
102
{ACAD_REACTORS
330
311
330
312
102
}
330
74
100
AcDbEntity
  8
0
  6
Continuous
 62
     2
100
AcDbLine
 10
-56.64608453436085
 20
18.43207210724502
 30
0.0
 11
-57.63186362706051
 21
18.43207210724502
 31
0.0
  0
LINE
  5
257
102
{ACAD_REACTORS
330
311
330
312
102
}
330
74
100
AcDbEntity
  8
0
  6
Continuous
 62
     2
100
AcDbLine
 10
-57.63186362706051
 20
17.35043945418291
 30
0.0
 11
-58.6570738834688
 21
18.43207210724502
 31
0.0
  0
LINE
  5
258
102
{ACAD_REACTORS
330
311
330
312
102
}
330
74
100
AcDbEntity
  8
0
  6
Continuous
 62
     2
100
AcDbLine
 10
-59.64285297616834
 20
15.90826258343419
 30
0.0
 11
-58.6570738834688
 21
15.90826258343419
 31
0.0
  0
LINE
  5
259
102
{ACAD_REACTORS
330
313
330
314
102
}
330
74
100
AcDbEntity
  8
0
  6
Continuous
 62
     2
100
AcDbLine
 10
-60.86534378738543
 20
15.65588163106787
 30
0.0
 11
-60.86534378738543
 21
15.00690203923015
 31
0.0
  0
LINE
  5
25A
102
{ACAD_REACTORS
330
313
330
314
102
}
330
74
100
AcDbEntity
  8
0
  6
Continuous
 62
     2
100
AcDbLine
 10
-60.19501400434854
 20
15.00690203923015
 30
0.0
 11
-60.19501400434854
 21
13.13207210725704
 31
0.0
  0
LINE
  5
25B
102
{ACAD_REACTORS
330
313
330
314
102
}
330
74
100
AcDbEntity
  8
0
  6
Continuous
 62
     2
100
AcDbLine
 10
-60.19501400434854
 20
13.13207210725704
 30
0.0
 11
-59.20923491164899
 21
13.13207210725704
 31
0.0
  0
LINE
  5
25C
102
{ACAD_REACTORS
330
315
330
316
102
}
330
74
100
AcDbEntity
  8
0
  6
Continuous
 62
     2
100
AcDbLine
 10
-56.77160971047579
 20
13.13207210725704
 30
0.0
 11
-56.9463866141748
 21
13.57914693718916
 31
0.0
  0
LINE
  5
25D
102
{ACAD_REACTORS
330
315
330
316
102
}
330
74
100
AcDbEntity
  8
0
  6
Continuous
 62
     2
100
AcDbLine
 10
-56.9017325507125
 20
15.65588163106787
 30
0.0
 11
-55.74639945406761
 21
13.13207210725704
 31
0.0
  0
LINE
  5
25E
102
{ACAD_REACTORS
330
315
330
316
102
}
330
74
100
AcDbEntity
  8
0
  6
Continuous
 62
     2
100
AcDbLine
 10
-57.92694280711976
 20
15.65588163106787
 30
0.0
 11
-56.9017325507125
 21
15.65588163106787
 31
0.0
  0
LINE
  5
25F
102
{ACAD_REACTORS
330
315
330
316
102
}
330
74
100
AcDbEntity
  8
0
  6
Continuous
 62
     2
100
AcDbLine
 10
-59.08227590376373
 20
13.13207210725704
 30
0.0
 11
-58.05706564735635
 21
13.13207210725704
 31
0.0
  0
LINE
  5
260
102
{ACAD_REACTORS
330
315
330
316
102
}
330
74
100
AcDbEntity
  8
0
  6
Continuous
 62
     2
100
AcDbLine
 10
-57.66240812287629
 20
14.14159591678136
 30
0.0
 11
-57.16626723495688
 21
14.14159591678136
 31
0.0
  0
LINE
  5
261
102
{ACAD_REACTORS
330
315
330
316
102
}
330
74
100
AcDbEntity
  8
0
  6
Continuous
 62
     2
100
AcDbLine
 10
-57.16626723495688
 20
14.14159591678136
 30
0.0
 11
-57.41433767891567
 21
14.7761537399109
 31
0.0
  0
LINE
  5
262
102
{ACAD_REACTORS
330
317
330
318
102
}
330
74
100
AcDbEntity
  8
0
  6
Continuous
 62
     2
100
AcDbLine
 10
-55.42371845941307
 20
15.90826258343419
 30
0.0
 11
-56.44892871582044
 21
15.90826258343419
 31
0.0
  0
LINE
  5
263
102
{ACAD_REACTORS
330
319
330
31A
102
}
330
74
100
AcDbEntity
  8
0
  6
Continuous
 62
     2
100
AcDbLine
 10
-54.16586433712791
 20
15.90826258343419
 30
0.0
 11
-55.32514055014292
 21
15.90826258343419
 31
0.0
  0
LINE
  5
264
102
{ACAD_REACTORS
330
319
330
31A
102
}
330
74
100
AcDbEntity
  8
0
  6
Continuous
 62
     2
100
AcDbLine
 10
-54.16586433712791
 20
15.90826258343419
 30
0.0
 11
-53.59016934699093
 21
16.55928058780913
 31
0.0
  0
LINE
  5
265
102
{ACAD_REACTORS
330
319
330
31A
102
}
330
74
100
AcDbEntity
  8
0
  6
Continuous
 62
     2
100
AcDbLine
 10
-53.09333668426962
 20
18.43207210724502
 30
0.0
 11
-51.93406047125541
 21
18.43207210724502
 31
0.0
  0
LINE
  5
266
102
{ACAD_REACTORS
330
319
330
31A
102
}
330
74
100
AcDbEntity
  8
0
  6
Continuous
 62
     2
100
AcDbLine
 10
-55.24627822272737
 20
18.43207210724502
 30
0.0
 11
-54.16980745349804
 21
17.2147576196118
 31
0.0
  0
LINE
  5
267
102
{ACAD_REACTORS
330
319
330
31A
102
}
330
74
100
AcDbEntity
  8
0
  6
Continuous
 62
     2
100
AcDbLine
 10
-55.32514055014292
 20
15.90826258343419
 30
0.0
 11
-54.16980745349804
 21
17.2147576196118
 31
0.0
  0
LINE
  5
268
102
{ACAD_REACTORS
330
323
330
324
102
}
330
74
100
AcDbEntity
  8
0
  6
Continuous
 62
     2
100
AcDbLine
 10
-53.78732516553146
 20
13.99737822970626
 30
0.0
 11
-53.78732516553146
 21
13.27628979433169
 31
0.0
  0
LINE
  5
269
102
{ACAD_REACTORS
330
323
330
324
102
}
330
74
100
AcDbEntity
  8
0
  6
Continuous
 62
     2
100
AcDbLine
 10
-54.42340561425988
 20
15.00690203923015
 30
0.0
 11
-53.5113070195755
 21
15.00690203923015
 31
0.0
  0
LINE
  5
26A
102
{ACAD_REACTORS
330
325
330
326
102
}
330
74
100
AcDbEntity
  8
0
  6
Continuous
 62
     2
100
AcDbLine
 10
-67.09534291697923
 20
13.99737822970672
 30
0.0
 11
-67.09534291697923
 21
13.27628979433213
 31
0.0
  0
LINE
  5
26B
102
{ACAD_REACTORS
330
325
330
326
102
}
330
74
100
AcDbEntity
  8
0
  6
Continuous
 62
     2
100
AcDbLine
 10
-67.09534291697923
 20
14.79057550861818
 30
0.0
 11
-67.09534291697923
 21
15.51166394399277
 31
0.0
  0
ARC
  5
26C
102
{ACAD_REACTORS
330
325
330
326
102
}
330
74
100
AcDbEntity
  8
0
  6
Continuous
 62
     2
100
AcDbCircle
 10
-68.1994155757543
 20
11.65622402184333
 30
0.0
 40
4.010410630990089
100
AcDbArc
 50
74.02000874164679
 51
84.84185523037543
  0
ARC
  5
26D
102
{ACAD_REACTORS
330
325
330
326
102
}
330
74
100
AcDbEntity
  8
0
  6
Continuous
 62
     2
100
AcDbCircle
 10
-67.72334895694962
 20
14.26429043166509
 30
0.0
 40
0.7487023016407717
100
AcDbArc
 50
71.55192388185432
 51
113.3722778881285
  0
ARC
  5
26E
102
{ACAD_REACTORS
330
325
330
326
102
}
330
74
100
AcDbEntity
  8
0
  6
Continuous
 62
     2
100
AcDbCircle
 10
-67.85263824017443
 20
14.22449634904777
 30
0.0
 40
0.422793438177528
100
AcDbArc
 50
208.5214732576916
 51
246.627722111826
  0
ARC
  5
26F
102
{ACAD_REACTORS
330
325
330
326
102
}
330
74
100
AcDbEntity
  8
0
  6
Continuous
 62
     2
100
AcDbCircle
 10
-67.72334895694962
 20
14.52366330665935
 30
0.0
 40
0.7487023016403824
100
AcDbArc
 50
246.6277221118709
 51
288.4480761181571
  0
ARC
  5
270
102
{ACAD_REACTORS
330
325
330
326
102
}
330
74
100
AcDbEntity
  8
0
  6
Continuous
 62
     2
100
AcDbCircle
 10
-68.06894212526436
 20
15.55965155131817
 30
0.0
 40
1.840813230556011
100
AcDbArc
 50
288.4480761181332
 51
301.9309089499624
  0
ARC
  5
271
102
{ACAD_REACTORS
330
321
330
322
102
}
330
74
100
AcDbEntity
  8
0
  6
Continuous
 62
     2
100
AcDbCircle
 10
-72.38718487948483
 20
16.16502512893305
 30
0.0
 40
0.7535935125160986
100
AcDbArc
 50
295.374008678178
 51
64.62599132180713
  0
ARC
  5
272
102
{ACAD_REACTORS
330
321
330
322
102
}
330
74
100
AcDbEntity
  8
0
  6
Continuous
 62
     2
100
AcDbCircle
 10
-71.9524388480072
 20
17.58211346651534
 30
0.0
 40
0.2609230769224181
100
AcDbArc
 50
90.18896704255353
 51
180.0
  0
ARC
  5
273
102
{ACAD_REACTORS
330
323
330
324
102
}
330
74
100
AcDbEntity
  8
0
  6
Continuous
 62
     2
100
AcDbCircle
 10
-54.42340561425988
 20
14.21804005011771
 30
0.0
 40
0.7888619891124407
100
AcDbArc
 50
90.0
 51
109.3371432194314
  0
ARC
  5
274
102
{ACAD_REACTORS
330
323
330
324
102
}
330
74
100
AcDbEntity
  8
0
  6
Continuous
 62
     2
100
AcDbCircle
 10
-54.23275498617909
 20
14.39397686916223
 30
0.0
 40
0.777735318458663
100
AcDbArc
 50
151.4785267423618
 51
208.5214732576687
  0
ARC
  5
275
102
{ACAD_REACTORS
330
323
330
324
102
}
330
74
100
AcDbEntity
  8
0
  6
Continuous
 62
     2
100
AcDbCircle
 10
-54.41533120550002
 20
14.52366330665935
 30
0.0
 40
0.7487023016407038
100
AcDbArc
 50
246.627722111814
 51
288.4480761180797
  0
ARC
  5
276
102
{ACAD_REACTORS
330
323
330
324
102
}
330
74
100
AcDbEntity
  8
0
  6
Continuous
 62
     2
100
AcDbCircle
 10
-54.76092437381567
 20
15.55965155131771
 30
0.0
 40
1.840813230556003
100
AcDbArc
 50
288.4480761181333
 51
301.9309089499382
  0
ARC
  5
277
102
{ACAD_REACTORS
330
323
330
324
102
}
330
74
100
AcDbEntity
  8
0
  6
Continuous
 62
     2
100
AcDbCircle
 10
-54.89139782430561
 20
17.13172971648158
 30
0.0
 40
4.010410630990744
100
AcDbArc
 50
275.1581447696369
 51
285.9799912583388
  0
ARC
  5
278
102
{ACAD_REACTORS
330
323
330
324
102
}
330
74
100
AcDbEntity
  8
0
  6
Continuous
 62
     2
100
AcDbCircle
 10
-54.65267377906935
 20
14.48719204439762
 30
0.0
 40
1.355119937140895
100
AcDbArc
 50
195.0618917771008
 51
275.158144769676
  0
ARC
  5
279
102
{ACAD_REACTORS
330
31B
330
31C
102
}
330
74
100
AcDbEntity
  8
0
  6
Continuous
 62
     2
100
AcDbCircle
 10
-67.65119717716118
 20
17.55986909787833
 30
0.0
 40
0.8722030093666717
100
AcDbArc
 50
270.0
 51
90.0
  0
ARC
  5
27A
102
{ACAD_REACTORS
330
321
330
322
102
}
330
74
100
AcDbEntity
  8
0
  6
Continuous
 62
     2
100
AcDbCircle
 10
-74.0809914815045
 20
13.98188407306995
 30
0.0
 40
0.2609230769220403
100
AcDbArc
 50
180.0
 51
270.0
  0
ARC
  5
27B
102
{ACAD_REACTORS
330
321
330
322
102
}
330
74
100
AcDbEntity
  8
0
  6
Continuous
 62
     2
100
AcDbCircle
 10
-72.86129457157926
 20
17.58226014143119
 30
0.0
 40
0.2609230769228361
100
AcDbArc
 50
0.0
 51
90.0
  0
ARC
  5
27C
102
{ACAD_REACTORS
330
321
330
322
102
}
330
74
100
AcDbEntity
  8
0
  6
Continuous
 62
     2
100
AcDbCircle
 10
-72.86129457157926
 20
17.08306624138113
 30
0.0
 40
0.2609230769224065
100
AcDbArc
 50
295.1944106485601
 51
0.0
  0
ARC
  5
27D
102
{ACAD_REACTORS
330
321
330
322
102
}
330
74
100
AcDbEntity
  8
0
  6
Continuous
 62
     2
100
AcDbCircle
 10
-72.86129457157926
 20
13.98188407306995
 30
0.0
 40
0.2609230769228894
100
AcDbArc
 50
270.0
 51
0.0
  0
ARC
  5
27E
102
{ACAD_REACTORS
330
321
330
322
102
}
330
74
100
AcDbEntity
  8
0
  6
Continuous
 62
     2
100
AcDbCircle
 10
-74.57181352840246
 20
18.08145672261529
 30
0.0
 40
0.3506153846147413
100
AcDbArc
 50
90.0
 51
180.0
  0
ARC
  5
27F
102
{ACAD_REACTORS
330
321
330
322
102
}
330
74
100
AcDbEntity
  8
0
  6
Continuous
 62
     2
100
AcDbCircle
 10
-70.04841510632241
 20
18.08145672261529
 30
0.0
 40
0.3506153846147981
100
AcDbArc
 50
0.0
 51
90.0
  0
ARC
  5
280
102
{ACAD_REACTORS
330
321
330
322
102
}
330
74
100
AcDbEntity
  8
0
  6
Continuous
 62
     2
100
AcDbCircle
 10
-70.04841510632241
 20
13.48268749187132
 30
0.0
 40
0.3506153846142812
100
AcDbArc
 50
270.0
 51
0.0
  0
ARC
  5
281
102
{ACAD_REACTORS
330
31F
330
320
102
}
330
74
100
AcDbEntity
  8
0
  6
Continuous
 62
     2
100
AcDbCircle
 10
-62.42991602608151
 20
17.17016734533938
 30
0.0
 40
0.6378510567599944
100
AcDbArc
 50
321.8795802028409
 51
38.12041979715914
  0
ARC
  5
282
102
{ACAD_REACTORS
330
31F
330
320
102
}
330
74
100
AcDbEntity
  8
0
  6
Continuous
 62
     2
100
AcDbCircle
 10
-62.26484161587803
 20
17.04063744606625
 30
0.0
 40
0.4280236140606851
100
AcDbArc
 50
218.1204197971433
 51
321.8795802028561
  0
ARC
  5
283
102
{ACAD_REACTORS
330
31D
330
31E
102
}
330
74
100
AcDbEntity
  8
0
  6
Continuous
 62
     2
100
AcDbCircle
 10
-65.30617020179557
 20
14.39397686916223
 30
0.0
 40
1.204986845993433
100
AcDbArc
 50
297.5481481757013
 51
62.45185182429817
  0
ARC
  5
284
102
{ACAD_REACTORS
330
31D
330
31E
102
}
330
74
100
AcDbEntity
  8
0
  6
Continuous
 62
     2
100
AcDbCircle
 10
-65.77053365937127
 20
14.39397686916223
 30
0.0
 40
1.204986845992994
100
AcDbArc
 50
117.5481481756635
 51
242.451851824337
  0
ARC
  5
285
102
{ACAD_REACTORS
330
31D
330
31E
102
}
330
74
100
AcDbEntity
  8
0
  6
Continuous
 62
     2
100
AcDbCircle
 10
-65.53835193058342
 20
13.94887355486241
 30
0.0
 40
1.707008076205444
100
AcDbArc
 50
62.45185182430569
 51
117.5481481756673
  0
ARC
  5
286
102
{ACAD_REACTORS
330
31D
330
31E
102
}
330
74
100
AcDbEntity
  8
0
  6
Continuous
 62
     2
100
AcDbCircle
 10
-65.53835193058342
 20
14.8390801834625
 30
0.0
 40
1.70700807620544
100
AcDbArc
 50
242.4518518243401
 51
297.548148175687
  0
ARC
  5
287
102
{ACAD_REACTORS
330
31F
330
320
102
}
330
74
100
AcDbEntity
  8
0
  6
Continuous
 62
     2
100
AcDbCircle
 10
-62.09976720567454
 20
17.17016734533938
 30
0.0
 40
0.6378510567600056
100
AcDbArc
 50
141.8795802028417
 51
218.1204197971583
  0
ARC
  5
288
102
{ACAD_REACTORS
330
31F
330
320
102
}
330
74
100
AcDbEntity
  8
0
  6
Continuous
 62
     2
100
AcDbCircle
 10
-62.26484161587803
 20
17.2996972446125
 30
0.0
 40
0.4280236140606861
100
AcDbArc
 50
38.12041979714503
 51
141.8795802028555
  0
ARC
  5
289
102
{ACAD_REACTORS
330
321
330
322
102
}
330
74
100
AcDbEntity
  8
0
  6
Continuous
 62
     2
100
AcDbCircle
 10
-74.57181352840246
 20
13.48268749187132
 30
0.0
 40
0.3506153846138886
100
AcDbArc
 50
180.0
 51
270.0
  0
ARC
  5
28A
102
{ACAD_REACTORS
330
321
330
322
102
}
330
74
100
AcDbEntity
  8
0
  6
Continuous
 62
     2
100
AcDbCircle
 10
-72.86129457157926
 20
15.24698401648451
 30
0.0
 40
0.2609230769228361
100
AcDbArc
 50
0.0
 51
64.8055893514401
  0
ARC
  5
28B
102
{ACAD_REACTORS
330
321
330
322
102
}
330
74
100
AcDbEntity
  8
0
  6
Continuous
 62
     2
100
AcDbCircle
 10
-72.42940659837677
 20
16.16502512893305
 30
0.0
 40
0.7536343169897688
100
AcDbArc
 50
115.1944106485234
 51
244.8055893514914
  0
ARC
  5
28C
102
{ACAD_REACTORS
330
321
330
322
102
}
330
74
100
AcDbEntity
  8
0
  6
Continuous
 62
     2
100
AcDbCircle
 10
-74.0809914815045
 20
17.58226014143119
 30
0.0
 40
0.2609230769224524
100
AcDbArc
 50
90.0
 51
180.0
  0
ARC
  5
28D
102
{ACAD_REACTORS
330
31B
330
31C
102
}
330
74
100
AcDbEntity
  8
0
  6
Continuous
 62
     2
100
AcDbCircle
 10
-68.01605050463093
 20
17.59242775178124
 30
0.0
 40
0.2916229955959899
100
AcDbArc
 50
270.0
 51
90.0
  0
ARC
  5
28E
102
{ACAD_REACTORS
330
31F
330
320
102
}
330
74
100
AcDbEntity
  8
0
  6
Continuous
 62
     2
100
AcDbCircle
 10
-62.44357881436167
 20
17.17016734533938
 30
0.0
 40
1.26190476190564
100
AcDbArc
 50
90.0
 51
270.0
  0
ARC
  5
28F
102
{ACAD_REACTORS
330
323
330
324
102
}
330
74
100
AcDbEntity
  8
0
  6
Continuous
 62
     2
100
AcDbCircle
 10
-54.65267377906935
 20
14.30076169392682
 30
0.0
 40
1.355119937140591
100
AcDbArc
 50
90.0
 51
164.9381082228992
  0
ARC
  5
290
102
{ACAD_REACTORS
330
323
330
324
102
}
330
74
100
AcDbEntity
  8
0
  6
Continuous
 62
     2
100
AcDbCircle
 10
-54.99906042655834
 20
14.39397686916223
 30
0.0
 40
0.996410056523109
100
AcDbArc
 50
164.9381082229054
 51
195.0618917770958
  0
ARC
  5
291
102
{ACAD_REACTORS
330
323
330
324
102
}
330
74
100
AcDbEntity
  8
0
  6
Continuous
 62
     2
100
AcDbCircle
 10
-54.54462048872574
 20
14.22449634904777
 30
0.0
 40
0.4227934381785468
100
AcDbArc
 50
208.5214732576875
 51
246.6277221118393
  0
ARC
  5
292
102
{ACAD_REACTORS
330
323
330
324
102
}
330
74
100
AcDbEntity
  8
0
  6
Continuous
 62
     2
100
AcDbCircle
 10
-54.54462048872574
 20
14.56345738927714
 30
0.0
 40
0.4227934381772261
100
AcDbArc
 50
109.337143219486
 51
151.478526742422
  0
ARC
  5
293
102
{ACAD_REACTORS
330
321
330
322
102
}
330
74
100
AcDbEntity
  8
0
  6
Continuous
 62
     2
100
AcDbCircle
 10
-71.9524388480072
 20
14.76751024739299
 30
0.0
 40
0.2609230769229498
100
AcDbArc
 50
180.0
 51
269.8110329574465
  0
ARC
  5
294
102
{ACAD_REACTORS
330
321
330
322
102
}
330
74
100
AcDbEntity
  8
0
  6
Continuous
 62
     2
100
AcDbCircle
 10
-71.94779741386674
 20
16.17481185695416
 30
0.0
 40
1.668232340440702
100
AcDbArc
 50
269.8110329575862
 51
90.18896704241376
  0
ARC
  5
295
102
{ACAD_REACTORS
330
321
330
322
102
}
330
74
100
AcDbEntity
  8
0
  6
Continuous
 62
     2
100
AcDbCircle
 10
-71.9524388480072
 20
17.08167107931967
 30
0.0
 40
0.2609230769229498
100
AcDbArc
 50
180.0
 51
244.6259913216399
  0
ARC
  5
296
102
{ACAD_REACTORS
330
321
330
322
102
}
330
74
100
AcDbEntity
  8
0
  6
Continuous
 62
     2
100
AcDbCircle
 10
-71.9524388480072
 20
15.24837917854596
 30
0.0
 40
0.2609230769227325
100
AcDbArc
 50
115.3740086783589
 51
180.0
  0
ARC
  5
297
102
{ACAD_REACTORS
330
325
330
326
102
}
330
74
100
AcDbEntity
  8
0
  6
Continuous
 62
     2
100
AcDbCircle
 10
-67.96069153051803
 20
14.30076169392682
 30
0.0
 40
1.355119937140908
100
AcDbArc
 50
84.84185523036265
 51
164.9381082228906
  0
ARC
  5
298
102
{ACAD_REACTORS
330
325
330
326
102
}
330
74
100
AcDbEntity
  8
0
  6
Continuous
 62
     2
100
AcDbCircle
 10
-68.30707817800794
 20
14.39397686916223
 30
0.0
 40
0.9964100565214622
100
AcDbArc
 50
164.9381082228799
 51
195.0618917770962
  0
ARC
  5
299
102
{ACAD_REACTORS
330
325
330
326
102
}
330
74
100
AcDbEntity
  8
0
  6
Continuous
 62
     2
100
AcDbCircle
 10
-67.96069153051803
 20
14.48719204439762
 30
0.0
 40
1.355119937140023
100
AcDbArc
 50
195.0618917770909
 51
275.1581447696391
  0
ARC
  5
29A
102
{ACAD_REACTORS
330
325
330
326
102
}
330
74
100
AcDbEntity
  8
0
  6
Continuous
 62
     2
100
AcDbCircle
 10
-68.1994155757543
 20
17.13172971648158
 30
0.0
 40
4.010410630990213
100
AcDbArc
 50
275.1581447696246
 51
285.9799912583532
  0
ARC
  5
29B
102
{ACAD_REACTORS
330
325
330
326
102
}
330
74
100
AcDbEntity
  8
0
  6
Continuous
 62
     2
100
AcDbCircle
 10
-67.54077273762869
 20
14.39397686916223
 30
0.0
 40
0.7777353184572794
100
AcDbArc
 50
151.4785267422687
 51
208.5214732577029
  0
ARC
  5
29C
102
{ACAD_REACTORS
330
325
330
326
102
}
330
74
100
AcDbEntity
  8
0
  6
Continuous
 62
     2
100
AcDbCircle
 10
-67.85263824017443
 20
14.56345738927714
 30
0.0
 40
0.4227934381775693
100
AcDbArc
 50
113.3722778881983
 51
151.4785267423096
  0
ARC
  5
29D
102
{ACAD_REACTORS
330
325
330
326
102
}
330
74
100
AcDbEntity
  8
0
  6
Continuous
 62
     2
100
AcDbCircle
 10
-68.06894212526436
 20
13.22830218700673
 30
0.0
 40
1.840813230556617
100
AcDbArc
 50
58.06909105003761
 51
71.55192388186693
  0
ARC
  5
29E
102
{ACAD_REACTORS
330
31D
330
31E
102
}
330
74
100
AcDbEntity
  8
0
  6
Continuous
 62
     2
100
AcDbCircle
 10
-65.53835193058342
 20
14.52350676843535
 30
0.0
 40
0.4280236140605955
100
AcDbArc
 50
38.12041979715423
 51
141.8795802028552
  0
ARC
  5
29F
102
{ACAD_REACTORS
330
31D
330
31E
102
}
330
74
100
AcDbEntity
  8
0
  6
Continuous
 62
     2
100
AcDbCircle
 10
-65.37327752038004
 20
14.39397686916223
 30
0.0
 40
0.6378510567599095
100
AcDbArc
 50
141.8795802028351
 51
218.1204197971658
  0
ARC
  5
2A0
102
{ACAD_REACTORS
330
31D
330
31E
102
}
330
74
100
AcDbEntity
  8
0
  6
Continuous
 62
     2
100
AcDbCircle
 10
-65.53835193058342
 20
14.26444696988955
 30
0.0
 40
0.4280236140609635
100
AcDbArc
 50
218.1204197971923
 51
321.8795802027983
  0
ARC
  5
2A1
102
{ACAD_REACTORS
330
31D
330
31E
102
}
330
74
100
AcDbEntity
  8
0
  6
Continuous
 62
     2
100
AcDbCircle
 10
-65.70342634078702
 20
14.39397686916223
 30
0.0
 40
0.6378510567600066
100
AcDbArc
 50
321.8795802028405
 51
38.12041979715862
  0
CIRCLE
  5
2A2
330
74
100
AcDbEntity
  8
1
  6
Continuous
 62
     2
100
AcDbCircle
 10
-76.49021444870854
 20
22.15707210725108
 30
0.0
 40
1.5
  0
CIRCLE
  5
2A3
330
74
100
AcDbEntity
  8
1
  6
Continuous
 62
     2
100
AcDbCircle
 10
-76.49021444870854
 20
22.15707210725108
 30
0.0
 40
1.0
  0
CIRCLE
  5
2A4
102
{ACAD_REACTORS
330
321
330
322
102
}
330
74
100
AcDbEntity
  8
0
  6
Continuous
 62
     2
100
AcDbCircle
 10
-72.4068667097929
 20
16.16502512893305
 30
0.0
 40
0.3892387874202541
  0
MTEXT
  5
2A6
330
74
100
AcDbEntity
  8
1
 62
     3
100
AcDbMText
 10
-4.3306498604515
 20
27.63207210725108
 30
0.0
 40
2.0
 41
0.0
 71
     1
 72
     1
  1
 
  7
CONVERTER_12
 73
     1
 44
1.20048019207683
  0
TEXT
  5
2A8
330
74
100
AcDbEntity
  8
1
 62
     7
100
AcDbText
 10
-27.05256205475609
 20
29.83207210725108
 30
0.0
 40
2.5
  1
00
 41
0.81
  7
CONVERTER_13
100
AcDbText
  0
TEXT
  5
2AA
330
74
100
AcDbEntity
  8
1
 62
     3
100
AcDbText
 10
-44.18247427381191
 20
17.08207210725108
 30
0.0
 40
2.5
  1
KUNDENZCHNG-SELECT
 41
0.45
  7
CONVERTER_14
100
AcDbText
  0
TEXT
  5
2AC
330
74
100
AcDbEntity
  8
1
 62
     3
100
AcDbText
 10
31.080738534619
 20
29.83207210725108
 30
0.0
 40
2.5
  1
 
 41
0.54
  7
CONVERTER_15
100
AcDbText
  0
TEXT
  5
2AD
330
74
100
AcDbEntity
  8
1
 62
     7
100
AcDbText
 10
-14.53766974705952
 20
17.08207210725108
 30
0.0
 40
2.5
  1
00762767
 41
0.81
  7
CONVERTER_13
100
AcDbText
  0
TEXT
  5
2AE
330
74
100
AcDbEntity
  8
1
 62
     7
100
AcDbText
 10
-43.6824742738121
 20
29.83207210725108
 30
0.0
 40
2.5
  1
3240679
 41
0.81
  7
CONVERTER_13
100
AcDbText
  0
TEXT
  5
2AF
330
74
100
AcDbEntity
  8
1
 62
     3
100
AcDbText
 10
-21.28247427381189
 20
29.83207210725108
 30
0.0
 40
2.5
  1
 
 41
0.54
  7
CONVERTER_15
100
AcDbText
  0
MTEXT
  5
2B0
330
74
100
AcDbEntity
  8
1
 62
     3
100
AcDbMText
 10
25.62153439377951
 20
29.83207210725119
 30
0.0
 40
2.5
 41
0.0
 71
     8
 72
     1
  1
2:1
  7
CONVERTER_12
 73
     1
 44
1.32052821128451
  0
MTEXT
  5
2B1
330
74
100
AcDbEntity
  8
1
 62
     7
100
AcDbMText
 10
1.3899279895636
 20
10.53207210725131
 30
0.0
 40
3.0
 41
0.0
 71
     5
 72
     1
  1
AI-TWIN 2X1-12 RD
  7
CONVERTER_13
 73
     1
 44
1.20048019207683
  0
TEXT
  5
2B2
330
74
100
AcDbEntity
  8
1
 62
     3
100
AcDbText
 10
3.9623302529401
 20
17.08207210725108
 30
0.0
 40
2.5
  1
 
 41
0.54
  7
CONVERTER_15
100
AcDbText
  0
TEXT
  5
2B3
330
74
100
AcDbEntity
  8
1
 62
     7
100
AcDbText
 10
-29.2089265517981
 20
29.83207210725108
 30
0.0
 40
2.5
  1
/
 41
0.9
  7
CONVERTER_11
100
AcDbText
  0
MTEXT
  5
2B4
330
74
100
AcDbEntity
  8
1
 62
     2
100
AcDbMText
 10
-65.43247427381189
 20
30.65707210725108
 30
0.0
 40
1.8
 41
0.0
 71
     5
 72
     1
  1
02.12.13
  7
CONVERTER_11
 73
     1
 44
1.32052821128451
  0
MTEXT
  5
2B5
330
74
100
AcDbEntity
  8
1
 62
     2
100
AcDbMText
 10
-65.43247427381189
 20
26.40707210725108
 30
0.0
 40
1.8
 41
0.0
 71
     5
 72
     1
  1
16.12.13
  7
CONVERTER_11
 73
     1
 44
1.32052821128451
  0
MTEXT
  5
2B6
330
74
100
AcDbEntity
  8
1
 62
     2
100
AcDbMText
 10
-51.93247427381195
 20
30.65707210725108
 30
0.0
 40
1.8
 41
0.0
 71
     5
 72
     1
  1
H\U+00e4nig-Fl
  7
CONVERTER_11
 73
     1
 44
1.32052821128451
  0
MTEXT
  5
2B7
330
74
100
AcDbEntity
  8
1
 62
     2
100
AcDbMText
 10
-51.93247427381195
 20
26.40707210725108
 30
0.0
 40
1.8
 41
0.0
 71
     5
 72
     1
  1
Schr\U+00f6der
  7
CONVERTER_11
 73
     1
 44
1.32052821128451
  0
MTEXT
  5
2B8
330
74
100
AcDbEntity
  8
1
 62
     2
100
AcDbMText
 10
-44.18247427381191
 20
23.28207210725102
 30
0.0
 40
1.8
 41
0.0
 71
     1
 72
     1
  1
document-type
  7
CONVERTER_11
 73
     1
 44
1.20048019207683
  0
MTEXT
  5
2B9
330
74
100
AcDbEntity
  8
1
 62
     2
100
AcDbMText
 10
-76.88247427381184
 20
33.98207210725113
 30
0.0
 40
1.8
 41
0.0
 71
     8
 72
     1
  1
00
  7
CONVERTER_11
 73
     1
 44
1.20048019207683
  0
MTEXT
  5
2BA
330
74
100
AcDbEntity
  8
1
 62
     2
100
AcDbMText
 10
-44.18247427381191
 20
14.78207210725108
 30
0.0
 40
1.8
 41
0.0
 71
     1
 72
     1
  1
description
  7
CONVERTER_11
 73
     1
 44
1.20048019207683
  0
TEXT
  5
2BB
330
74
100
AcDbEntity
  8
1
 62
     2
100
AcDbText
 10
-57.14716546399824
 20
8.53207210725108
 30
0.0
 40
1.8
  1
1
 41
0.9
  7
CONVERTER_11
100
AcDbText
  0
TEXT
  5
2BC
330
74
100
AcDbEntity
  8
1
 62
     2
100
AcDbText
 10
-71.93620930346974
 20
8.48282345344913
 30
0.0
 40
1.8
  1
 
 41
0.9
  7
CONVERTER_11
100
AcDbText
  0
MTEXT
  5
2BD
330
74
100
AcDbEntity
  8
1
 62
     2
100
AcDbMText
 10
-44.0824742738119
 20
36.03207210725108
 30
0.0
 40
1.8
 41
0.0
 71
     1
 72
     1
  1
ident.-No. / RI
  7
CONVERTER_11
 73
     1
 44
1.20048019207683
  0
MTEXT
  5
2BE
330
74
100
AcDbEntity
  8
1
 62
     3
100
AcDbMText
 10
-55.38247427381194
 20
22.15707210725119
 30
0.0
 40
2.5
 41
0.0
 71
     5
 72
     1
  1
DIN A4
  7
CONVERTER_11
 73
     1
 44
1.20048019207683
  0
MTEXT
  5
2BF
330
74
100
AcDbEntity
  8
1
 62
     2
100
AcDbMText
 10
-76.88247427381184
 20
26.40707210725108
 30
0.0
 40
1.8
 41
0.0
 71
     5
 72
     1
  1
check.
  7
CONVERTER_11
 73
     1
 44
1.20048019207683
  0
MTEXT
  5
2C0
330
74
100
AcDbEntity
  8
1
 62
     2
100
AcDbMText
 10
-76.88247427381184
 20
30.65707210725108
 30
0.0
 40
1.8
 41
0.0
 71
     5
 72
     1
  1
creat.
  7
CONVERTER_11
 73
     1
 44
1.20048019207683
  0
MTEXT
  5
2C1
330
74
100
AcDbEntity
  8
1
 62
     2
100
AcDbMText
 10
22.26233025293999
 20
36.03207210725108
 30
0.0
 40
1.8
 41
0.0
 71
     1
 72
     1
  1
scale
  7
CONVERTER_11
 73
     1
 44
1.20048019207683
  0
MTEXT
  5
2C2
330
74
100
AcDbEntity
  8
1
 62
     2
100
AcDbMText
 10
-153.2100720104369
 20
8.53207210725108
 30
0.0
 40
1.8
 41
0.0
 71
     8
 72
     1
  1
revision
  7
CONVERTER_11
 73
     1
 44
1.32052821128451
  0
MTEXT
  5
2C3
330
74
100
AcDbEntity
  8
1
 62
     2
100
AcDbMText
 10
-51.93247427381195
 20
33.98207210725113
 30
0.0
 40
1.8
 41
0.0
 71
     8
 72
     1
  1
name
  7
CONVERTER_11
 73
     1
 44
1.32052821128451
  0
MTEXT
  5
2C4
330
74
100
AcDbEntity
  8
1
 62
     2
100
AcDbMText
 10
-65.43247427381193
 20
33.98207210725113
 30
0.0
 40
1.8
 41
0.0
 71
     8
 72
     1
  1
date
  7
CONVERTER_11
 73
     1
 44
1.32052821128451
  0
MTEXT
  5
2C5
330
74
100
AcDbEntity
  8
1
 62
     2
100
AcDbMText
 10
-200.937669747061
 20
8.53207210725108
 30
0.0
 40
1.8
 41
0.0
 71
     8
 72
     1
  1
RI
  7
CONVERTER_11
 73
     1
 44
1.32052821128451
  0
MTEXT
  5
2C6
330
74
100
AcDbEntity
  8
1
 62
     2
100
AcDbMText
 10
-21.05728511622041
 20
36.03207210725091
 30
0.0
 40
1.8
 41
0.0
 71
     1
 72
     1
  1
material
  7
CONVERTER_11
 73
     1
 44
1.20048019207683
  0
MTEXT
  5
2C7
330
74
100
AcDbEntity
  8
1
 62
     2
100
AcDbMText
 10
-191.087669747062
 20
8.53207210725108
 30
0.0
 40
1.8
 41
0.0
 71
     8
 72
     1
  1
date
  7
CONVERTER_11
 73
     1
 44
1.32052821128451
  0
MTEXT
  5
2C8
330
74
100
AcDbEntity
  8
1
 62
     2
100
AcDbMText
 10
-115.3324742738118
 20
8.53207210725108
 30
0.0
 40
1.8
 41
0.0
 71
     8
 72
     1
  1
name
  7
CONVERTER_11
 73
     1
 44
1.32052821128451
  0
MTEXT
  5
2C9
330
74
100
AcDbEntity
  8
1
 62
     2
100
AcDbMText
 10
-101.8324742738118
 20
8.53207210725108
 30
0.0
 40
1.8
 41
0.0
 71
     8
 72
     1
  1
check.on
  7
CONVERTER_11
 73
     1
 44
1.32052821128451
  0
MTEXT
  5
2CA
330
74
100
AcDbEntity
  8
1
 62
     2
100
AcDbMText
 10
-88.33247427381191
 20
8.53207210725108
 30
0.0
 40
1.8
 41
0.0
 71
     8
 72
     1
  1
name
  7
CONVERTER_11
 73
     1
 44
1.32052821128451
  0
TEXT
  5
2CB
330
74
100
AcDbEntity
  8
1
 62
     2
100
AcDbText
 10
-80.58247427381181
 20
8.52305489225941
 30
0.0
 40
1.8
  1
page
 41
0.9
  7
CONVERTER_11
100
AcDbText
  0
TEXT
  5
2CC
330
74
100
AcDbEntity
  8
1
 62
     2
100
AcDbText
 10
-62.38247427381194
 20
8.52305489225952
 30
0.0
 40
1.8
  1
of
 41
0.9
  7
CONVERTER_11
100
AcDbText
  0
MTEXT
  5
2CE
330
74
100
AcDbEntity
  8
1
 62
     2
100
AcDbMText
 10
-14.53766974705952
 20
23.28207210725108
 30
0.0
 40
1.8
 41
0.0
 71
     1
 72
     1
  1
document-No.
  7
CONVERTER_16
 73
     1
 44
1.32052821128451
  0
MTEXT
  5
2CF
330
74
100
AcDbEntity
  8
1
 62
     2
100
AcDbMText
 10
31.3807385346189
 20
36.03207210725108
 30
0.0
 40
1.8
 41
0.0
 71
     1
 72
     1
  1
dim.var.
  7
CONVERTER_11
 73
     1
 44
1.20048019207683
  0
MTEXT
  5
2D0
330
74
100
AcDbEntity
  8
1
 62
     7
100
AcDbMText
 10
-241.5376697470609
 20
29.78207210725108
 30
0.0
 40
3.5
 41
0.0
 71
     5
 72
     1
  1
D
  7
CONVERTER_11
 73
     1
 44
1.20048019207683
  0
MTEXT
  5
2D1
330
74
100
AcDbEntity
  8
1
 62
     7
100
AcDbMText
 10
-241.5376697470609
 20
82.28207210725108
 30
0.0
 40
3.5
 41
0.0
 71
     5
 72
     1
  1
C
  7
CONVERTER_11
 73
     1
 44
1.20048019207683
  0
MTEXT
  5
2D2
330
74
100
AcDbEntity
  8
1
 62
     7
100
AcDbMText
 10
-241.5376697470609
 20
132.2820721072511
 30
0.0
 40
3.5
 41
0.0
 71
     5
 72
     1
  1
B
  7
CONVERTER_11
 73
     1
 44
1.20048019207683
  0
MTEXT
  5
2D3
330
74
100
AcDbEntity
  8
1
 62
     7
100
AcDbMText
 10
-241.5376697470609
 20
184.7820721072511
 30
0.0
 40
3.5
 41
0.0
 71
     5
 72
     1
  1
A
  7
CONVERTER_11
 73
     1
 44
1.20048019207683
  0
MTEXT
  5
2D4
330
74
100
AcDbEntity
  8
1
 62
     7
100
AcDbMText
 10
28.71233025293739
 20
4.78207210725108
 30
0.0
 40
3.5
 41
0.0
 71
     5
 72
     1
  1
6
  7
CONVERTER_11
 73
     1
 44
1.20048019207683
  0
MTEXT
  5
2D5
330
74
100
AcDbEntity
  8
1
 62
     7
100
AcDbMText
 10
-20.53766974706189
 20
4.78207210725108
 30
0.0
 40
3.5
 41
0.0
 71
     5
 72
     1
  1
5
  7
CONVERTER_11
 73
     1
 44
1.20048019207683
  0
MTEXT
  5
2D6
330
74
100
AcDbEntity
  8
1
 62
     7
100
AcDbMText
 10
-70.53766974706194
 20
4.78207210725108
 30
0.0
 40
3.5
 41
0.0
 71
     5
 72
     1
  1
4
  7
CONVERTER_11
 73
     1
 44
1.20048019207683
  0
MTEXT
  5
2D7
330
74
100
AcDbEntity
  8
1
 62
     7
100
AcDbMText
 10
-120.5376697470619
 20
4.78207210725108
 30
0.0
 40
3.5
 41
0.0
 71
     5
 72
     1
  1
3
  7
CONVERTER_11
 73
     1
 44
1.20048019207683
  0
MTEXT
  5
2D8
330
74
100
AcDbEntity
  8
1
 62
     7
100
AcDbMText
 10
-170.5376697470619
 20
4.78207210725108
 30
0.0
 40
3.5
 41
0.0
 71
     5
 72
     1
  1
2
  7
CONVERTER_11
 73
     1
 44
1.20048019207683
  0
MTEXT
  5
2D9
330
74
100
AcDbEntity
  8
1
 62
     7
100
AcDbMText
 10
-219.7876697470615
 20
4.78207210725108
 30
0.0
 40
3.5
 41
0.0
 71
     5
 72
     1
  1
1
  7
CONVERTER_11
 73
     1
 44
1.20048019207683
  0
MTEXT
  5
2DA
330
74
100
AcDbEntity
  8
1
 62
     3
100
AcDbMText
 10
-66.17949212220194
 20
194.0733802625499
 30
0.0
 40
1.8
 41
0.0
 71
     7
 72
     1
  3
The copying, distribution and utilistion of this document as well as the communication\Pof the contents to others without expressed authorization is prohibited according to\P\U+00a718 UWG German Law. Offenders will be held liable for the payment of 
  1
damages\Paccording to (\U+00a719 UWG German Law). All rights reserved, in particular the right to\Pcarry out patent, utility model or ornamental design registrations.\PFlachsmarktstra\U+00dfe 8  D-32825 Blomberg
  7
CONVERTER_11
 73
     1
 44
0.99639855942377
  0
MTEXT
  5
2DB
330
74
100
AcDbEntity
  8
1
 62
     3
100
AcDbMText
 10
-239.03260196099
 20
194.0733802625499
 30
0.0
 40
1.8
 41
0.0
 71
     7
 72
     1
  3
Weitergabe sowie Vervielf\U+00e4ltigung dieses Dokuments, Verwertung und\PMitteilung seines Inhalts gem\U+00e4\U+00df \U+00a718 UWG verboten, soweit nicht aus-\Pdr\U+00fccklich gestattet. Zuwiderhandlungen verpflichten zu Schadenersatz\P(\U+00a719 U
  1
WG). Alle Rechte vorbehalten, insbesondere das Recht, Patent-,\PGebrauchsmuster- oder Geschmacksmusteranmeldungen durchzuf\U+00fchren.\PPhoenix Contact GmbH & Co. KG
  7
CONVERTER_11
 73
     1
 44
0.99639855942377
  0
MTEXT
  5
2DC
330
74
100
AcDbEntity
  8
1
 62
     7
100
AcDbMText
 10
50.46233025293719
 20
29.78207210725108
 30
0.0
 40
3.5
 41
0.0
 71
     5
 72
     1
  1
D
  7
CONVERTER_11
 73
     1
 44
1.20048019207683
  0
MTEXT
  5
2DD
330
74
100
AcDbEntity
  8
1
 62
     7
100
AcDbMText
 10
50.46233025293719
 20
132.282072107253
 30
0.0
 40
3.5
 41
0.0
 71
     5
 72
     1
  1
B
  7
CONVERTER_11
 73
     1
 44
1.20048019207683
  0
MTEXT
  5
2DE
330
74
100
AcDbEntity
  8
1
 62
     7
100
AcDbMText
 10
50.46233025293719
 20
184.7820721072511
 30
0.0
 40
3.5
 41
0.0
 71
     5
 72
     1
  1
A
  7
CONVERTER_11
 73
     1
 44
1.20048019207683
  0
MTEXT
  5
2DF
330
74
100
AcDbEntity
  8
1
 62
     7
100
AcDbMText
 10
50.46233025293719
 20
82.28207210725301
 30
0.0
 40
3.5
 41
0.0
 71
     5
 72
     1
  1
C
  7
CONVERTER_11
 73
     1
 44
1.20048019207683
  0
MTEXT
  5
2E0
330
74
100
AcDbEntity
  8
1
 62
     2
100
AcDbMText
 10
3.9623302529401
 20
23.28207210725108
 30
0.0
 40
1.8
 41
0.0
 71
     1
 72
     1
  1
surface in um
  7
CONVERTER_11
 73
     1
 44
1.32052821128451
  0
MTEXT
  5
2E1
330
74
100
AcDbEntity
  8
1
 62
     2
100
AcDbMText
 10
-14.53766974705952
 20
27.53207210725108
 30
0.0
 40
1.8
 41
0.0
 71
     1
 72
     1
  1
part-rev.
  7
CONVERTER_12
 73
     1
 44
1.20048019207683
  0
MTEXT
  5
2E2
330
74
100
AcDbEntity
  8
1
 62
     2
100
AcDbMText
 10
-200.937669747061
 20
34.90707210725108
 30
0.0
 40
2.0
 41
0.0
 71
     5
 72
     1
  1
 
  7
CONVERTER_11
 73
     1
 44
1.20048019207683
  0
MTEXT
  5
2E3
330
74
100
AcDbEntity
  8
1
 62
     2
100
AcDbMText
 10
-200.937669747061
 20
30.65707210725108
 30
0.0
 40
2.0
 41
0.0
 71
     5
 72
     1
  1
 
  7
CONVERTER_11
 73
     1
 44
1.20048019207683
  0
MTEXT
  5
2E4
330
74
100
AcDbEntity
  8
1
 62
     2
100
AcDbMText
 10
-200.937669747061
 20
26.40707210725108
 30
0.0
 40
2.0
 41
0.0
 71
     5
 72
     1
  1
 
  7
CONVERTER_11
 73
     1
 44
1.20048019207683
  0
MTEXT
  5
2E5
330
74
100
AcDbEntity
  8
1
 62
     2
100
AcDbMText
 10
-200.937669747061
 20
22.15707210725108
 30
0.0
 40
2.0
 41
0.0
 71
     5
 72
     1
  1
 
  7
CONVERTER_11
 73
     1
 44
1.20048019207683
  0
MTEXT
  5
2E6
330
74
100
AcDbEntity
  8
1
 62
     2
100
AcDbMText
 10
-200.937669747061
 20
17.90707210725108
 30
0.0
 40
2.0
 41
0.0
 71
     5
 72
     1
  1
 
  7
CONVERTER_11
 73
     1
 44
1.20048019207683
  0
MTEXT
  5
2E7
330
74
100
AcDbEntity
  8
1
 62
     2
100
AcDbMText
 10
-200.937669747061
 20
13.65707210725119
 30
0.0
 40
2.0
 41
0.0
 71
     5
 72
     1
  1
 
  7
CONVERTER_11
 73
     1
 44
1.20048019207683
  0
MTEXT
  5
2E8
330
74
100
AcDbEntity
  8
1
 62
     2
100
AcDbMText
 10
-191.087669747062
 20
13.65707210725119
 30
0.0
 40
2.0
 41
0.0
 71
     5
 72
     1
  1
 
  7
CONVERTER_11
 73
     1
 44
1.20048019207683
  0
MTEXT
  5
2E9
330
74
100
AcDbEntity
  8
1
 62
     2
100
AcDbMText
 10
-191.087669747062
 20
17.90707210725108
 30
0.0
 40
2.0
 41
0.0
 71
     5
 72
     1
  1
 
  7
CONVERTER_11
 73
     1
 44
1.20048019207683
  0
MTEXT
  5
2EA
330
74
100
AcDbEntity
  8
1
 62
     2
100
AcDbMText
 10
-191.087669747062
 20
22.15707210725108
 30
0.0
 40
2.0
 41
0.0
 71
     5
 72
     1
  1
 
  7
CONVERTER_11
 73
     1
 44
1.20048019207683
  0
MTEXT
  5
2EB
330
74
100
AcDbEntity
  8
1
 62
     2
100
AcDbMText
 10
-191.087669747062
 20
26.40707210725108
 30
0.0
 40
2.0
 41
0.0
 71
     5
 72
     1
  1
 
  7
CONVERTER_11
 73
     1
 44
1.20048019207683
  0
MTEXT
  5
2EC
330
74
100
AcDbEntity
  8
1
 62
     2
100
AcDbMText
 10
-191.087669747062
 20
30.65707210725108
 30
0.0
 40
2.0
 41
0.0
 71
     5
 72
     1
  1
 
  7
CONVERTER_11
 73
     1
 44
1.20048019207683
  0
MTEXT
  5
2ED
330
74
100
AcDbEntity
  8
1
 62
     2
100
AcDbMText
 10
-191.087669747062
 20
34.90707210725108
 30
0.0
 40
2.0
 41
0.0
 71
     5
 72
     1
  1
 
  7
CONVERTER_11
 73
     1
 44
1.20048019207683
  0
MTEXT
  5
2EE
330
74
100
AcDbEntity
  8
1
 62
     2
100
AcDbMText
 10
-115.3324742738118
 20
13.65707210725119
 30
0.0
 40
2.0
 41
0.0
 71
     5
 72
     1
  1
 
  7
CONVERTER_11
 73
     1
 44
1.20048019207683
  0
MTEXT
  5
2EF
330
74
100
AcDbEntity
  8
1
 62
     2
100
AcDbMText
 10
-115.3324742738118
 20
17.90707210725108
 30
0.0
 40
2.0
 41
0.0
 71
     5
 72
     1
  1
 
  7
CONVERTER_11
 73
     1
 44
1.20048019207683
  0
MTEXT
  5
2F0
330
74
100
AcDbEntity
  8
1
 62
     2
100
AcDbMText
 10
-115.3324742738118
 20
22.15707210725108
 30
0.0
 40
2.0
 41
0.0
 71
     5
 72
     1
  1
 
  7
CONVERTER_11
 73
     1
 44
1.20048019207683
  0
MTEXT
  5
2F1
330
74
100
AcDbEntity
  8
1
 62
     2
100
AcDbMText
 10
-115.3324742738118
 20
26.40707210725108
 30
0.0
 40
2.0
 41
0.0
 71
     5
 72
     1
  1
 
  7
CONVERTER_11
 73
     1
 44
1.20048019207683
  0
MTEXT
  5
2F2
330
74
100
AcDbEntity
  8
1
 62
     2
100
AcDbMText
 10
-115.3324742738118
 20
30.65707210725108
 30
0.0
 40
2.0
 41
0.0
 71
     5
 72
     1
  1
 
  7
CONVERTER_11
 73
     1
 44
1.20048019207683
  0
MTEXT
  5
2F3
330
74
100
AcDbEntity
  8
1
 62
     2
100
AcDbMText
 10
-115.3324742738118
 20
34.90707210725108
 30
0.0
 40
2.0
 41
0.0
 71
     5
 72
     1
  1
 
  7
CONVERTER_11
 73
     1
 44
1.20048019207683
  0
MTEXT
  5
2F4
330
74
100
AcDbEntity
  8
1
 62
     2
100
AcDbMText
 10
-101.8324742738119
 20
34.90707210725108
 30
0.0
 40
2.0
 41
0.0
 71
     5
 72
     1
  1
 
  7
CONVERTER_11
 73
     1
 44
1.20048019207683
  0
MTEXT
  5
2F5
330
74
100
AcDbEntity
  8
1
 62
     2
100
AcDbMText
 10
-101.8324742738119
 20
30.65707210725108
 30
0.0
 40
2.0
 41
0.0
 71
     5
 72
     1
  1
 
  7
CONVERTER_11
 73
     1
 44
1.20048019207683
  0
MTEXT
  5
2F6
330
74
100
AcDbEntity
  8
1
 62
     2
100
AcDbMText
 10
-101.8324742738119
 20
26.40707210725108
 30
0.0
 40
2.0
 41
0.0
 71
     5
 72
     1
  1
 
  7
CONVERTER_11
 73
     1
 44
1.20048019207683
  0
MTEXT
  5
2F7
330
74
100
AcDbEntity
  8
1
 62
     2
100
AcDbMText
 10
-101.8324742738119
 20
22.15707210725108
 30
0.0
 40
2.0
 41
0.0
 71
     5
 72
     1
  1
 
  7
CONVERTER_11
 73
     1
 44
1.20048019207683
  0
MTEXT
  5
2F8
330
74
100
AcDbEntity
  8
1
 62
     2
100
AcDbMText
 10
-101.8324742738119
 20
17.90707210725108
 30
0.0
 40
2.0
 41
0.0
 71
     5
 72
     1
  1
 
  7
CONVERTER_11
 73
     1
 44
1.20048019207683
  0
MTEXT
  5
2F9
330
74
100
AcDbEntity
  8
1
 62
     2
100
AcDbMText
 10
-101.8324742738119
 20
13.65707210725119
 30
0.0
 40
2.0
 41
0.0
 71
     5
 72
     1
  1
 
  7
CONVERTER_11
 73
     1
 44
1.20048019207683
  0
MTEXT
  5
2FA
330
74
100
AcDbEntity
  8
1
 62
     2
100
AcDbMText
 10
-88.33247427381188
 20
34.90707210725108
 30
0.0
 40
2.0
 41
0.0
 71
     5
 72
     1
  1
 
  7
CONVERTER_11
 73
     1
 44
1.20048019207683
  0
MTEXT
  5
2FB
330
74
100
AcDbEntity
  8
1
 62
     2
100
AcDbMText
 10
-88.33247427381188
 20
30.65707210725108
 30
0.0
 40
2.0
 41
0.0
 71
     5
 72
     1
  1
 
  7
CONVERTER_11
 73
     1
 44
1.20048019207683
  0
MTEXT
  5
2FC
330
74
100
AcDbEntity
  8
1
 62
     2
100
AcDbMText
 10
-88.33247427381188
 20
26.40707210725108
 30
0.0
 40
2.0
 41
0.0
 71
     5
 72
     1
  1
 
  7
CONVERTER_11
 73
     1
 44
1.20048019207683
  0
MTEXT
  5
2FD
330
74
100
AcDbEntity
  8
1
 62
     2
100
AcDbMText
 10
-88.33247427381188
 20
22.15707210725108
 30
0.0
 40
2.0
 41
0.0
 71
     5
 72
     1
  1
 
  7
CONVERTER_11
 73
     1
 44
1.20048019207683
  0
MTEXT
  5
2FE
330
74
100
AcDbEntity
  8
1
 62
     2
100
AcDbMText
 10
-88.33247427381188
 20
17.90707210725108
 30
0.0
 40
2.0
 41
0.0
 71
     5
 72
     1
  1
 
  7
CONVERTER_11
 73
     1
 44
1.20048019207683
  0
MTEXT
  5
2FF
330
74
100
AcDbEntity
  8
1
 62
     2
100
AcDbMText
 10
-88.33247427381188
 20
13.65707210725119
 30
0.0
 40
2.0
 41
0.0
 71
     5
 72
     1
  1
 
  7
CONVERTER_11
 73
     1
 44
1.20048019207683
  0
MTEXT
  5
301
330
74
100
AcDbEntity
  8
1
 62
     2
100
AcDbMText
 10
-183.337669747062
 20
34.90707210725108
 30
0.0
 40
2.0
 41
0.0
 71
     4
 72
     1
  1
 
  7
CONVERTER_17
 73
     1
 44
1.20048019207683
  0
MTEXT
  5
302
330
74
100
AcDbEntity
  8
1
 62
     2
100
AcDbMText
 10
-183.337669747062
 20
30.65707210725108
 30
0.0
 40
2.0
 41
0.0
 71
     4
 72
     1
  1
 
  7
CONVERTER_17
 73
     1
 44
1.20048019207683
  0
MTEXT
  5
303
330
74
100
AcDbEntity
  8
1
 62
     2
100
AcDbMText
 10
-183.337669747062
 20
26.40707210725108
 30
0.0
 40
2.0
 41
0.0
 71
     4
 72
     1
  1
 
  7
CONVERTER_17
 73
     1
 44
1.20048019207683
  0
MTEXT
  5
304
330
74
100
AcDbEntity
  8
1
 62
     2
100
AcDbMText
 10
-183.337669747062
 20
22.15707210725108
 30
0.0
 40
2.0
 41
0.0
 71
     4
 72
     1
  1
 
  7
CONVERTER_17
 73
     1
 44
1.20048019207683
  0
MTEXT
  5
305
330
74
100
AcDbEntity
  8
1
 62
     2
100
AcDbMText
 10
-183.337669747062
 20
17.90707210725108
 30
0.0
 40
2.0
 41
0.0
 71
     4
 72
     1
  1
 
  7
CONVERTER_17
 73
     1
 44
1.20048019207683
  0
MTEXT
  5
306
330
74
100
AcDbEntity
  8
1
 62
     2
100
AcDbMText
 10
-183.337669747062
 20
13.65707210725119
 30
0.0
 40
2.0
 41
0.0
 71
     4
 72
     1
  1
 
  7
CONVERTER_17
 73
     1
 44
1.20048019207683
  0
TEXT
  5
307
330
74
100
AcDbEntity
  8
1
 62
     3
100
AcDbText
 10
-44.08247427381198
 20
46.32684368085533
 30
0.0
 40
2.5
  1
 
 41
0.72
  7
CONVERTER_12
100
AcDbText
  0
TEXT
  5
308
330
74
100
AcDbEntity
  8
1
 62
     3
100
AcDbText
 10
-44.08247427381198
 20
42.82684368085533
 30
0.0
 40
2.5
  1
 
 41
0.72
  7
CONVERTER_12
100
AcDbText
  0
TEXT
  5
309
330
74
100
AcDbEntity
  8
1
 62
     3
100
AcDbText
 10
-44.08247427381198
 20
39.32684368085533
 30
0.0
 40
2.5
  1
 
 41
0.72
  7
CONVERTER_12
100
AcDbText
  0
MTEXT
  5
30B
330
74
100
AcDbEntity
  8
1
 62
     3
100
AcDbMText
 10
-34.85023745569701
 20
26.40707210725107
 30
0.0
 40
2.5
 41
0.0
 71
     4
 72
     1
  1
K04-11004/03
  7
CONVERTER_18
 73
     1
 44
1.20048019207683
  0
MTEXT
  5
30C
330
74
100
AcDbEntity
  8
1
 62
     2
100
AcDbMText
 10
-44.0824742738119
 20
26.60707210725107
 30
0.0
 40
1.4
 41
0.0
 71
     4
 72
     1
  1
SAP\Pchange-No.
  7
CONVERTER_18
 73
     1
 44
0.66026410564226
  0
HATCH
  5
30D
330
74
100
AcDbEntity
  8
1
  6
Continuous
 62
     2
100
AcDbHatch
 10
0.0
 20
0.0
 30
0.0
210
0.0
220
0.0
230
1.0
  2
_USER
 70
     0
 71
     1
 91
        1
 92
        1
 93
       12
 72
     1
 10
-63.8225563292159
 20
15.90826258343419
 11
-64.80833542191544
 21
15.90826258343419
 72
     1
 10
-64.80833542191544
 20
15.90826258343419
 11
-64.80833542191544
 21
16.84567754942075
 72
     1
 10
-64.80833542191544
 20
16.84567754942075
 11
-65.67582102349184
 21
16.84567754942075
 72
     1
 10
-65.67582102349184
 20
16.84567754942075
 11
-65.67582102349184
 21
15.90826258343419
 72
     1
 10
-65.67582102349184
 20
15.90826258343419
 11
-66.6616001161915
 21
15.90826258343419
 72
     1
 10
-66.6616001161915
 20
15.90826258343419
 11
-66.6616001161915
 21
18.43207210724502
 72
     1
 10
-66.6616001161915
 20
18.43207210724502
 11
-65.67582102349184
 21
18.43207210724502
 72
     1
 10
-65.67582102349184
 20
18.43207210724502
 11
-65.67582102349184
 21
17.54873877391066
 72
     1
 10
-65.67582102349184
 20
17.54873877391066
 11
-64.80833542191544
 21
17.54873877391066
 72
     1
 10
-64.80833542191544
 20
17.54873877391066
 11
-64.80833542191544
 21
18.43207210724502
 72
     1
 10
-64.80833542191544
 20
18.43207210724502
 11
-63.8225563292159
 21
18.43207210724502
 72
     1
 10
-63.8225563292159
 20
18.43207210724502
 11
-63.8225563292159
 21
15.90826258343419
 97
       12
330
244
330
245
330
22F
330
22E
330
22D
330
241
330
22C
330
242
330
243
330
22B
330
22A
330
229
 75
     1
 76
     0
 52
45.0
 41
0.1
 77
     0
 78
     1
 53
45.0
 43
0.0
 44
0.0
 45
-0.0707106781186548
 46
0.0707106781186548
 79
     0
 98
        1
 10
0.0
 20
0.0
  0
HATCH
  5
30E
330
74
100
AcDbEntity
  8
1
  6
Continuous
 62
     2
100
AcDbHatch
 10
0.0
 20
0.0
 30
0.0
210
0.0
220
0.0
230
1.0
  2
_USER
 70
     0
 71
     1
 91
        1
 92
        1
 93
       12
 72
     1
 10
-63.8225563292159
 20
15.90826258343419
 11
-64.80833542191544
 21
15.90826258343419
 72
     1
 10
-64.80833542191544
 20
15.90826258343419
 11
-64.80833542191544
 21
16.84567754942075
 72
     1
 10
-64.80833542191544
 20
16.84567754942075
 11
-65.67582102349184
 21
16.84567754942075
 72
     1
 10
-65.67582102349184
 20
16.84567754942075
 11
-65.67582102349184
 21
15.90826258343419
 72
     1
 10
-65.67582102349184
 20
15.90826258343419
 11
-66.6616001161915
 21
15.90826258343419
 72
     1
 10
-66.6616001161915
 20
15.90826258343419
 11
-66.6616001161915
 21
18.43207210724502
 72
     1
 10
-66.6616001161915
 20
18.43207210724502
 11
-65.67582102349184
 21
18.43207210724502
 72
     1
 10
-65.67582102349184
 20
18.43207210724502
 11
-65.67582102349184
 21
17.54873877391066
 72
     1
 10
-65.67582102349184
 20
17.54873877391066
 11
-64.80833542191544
 21
17.54873877391066
 72
     1
 10
-64.80833542191544
 20
17.54873877391066
 11
-64.80833542191544
 21
18.43207210724502
 72
     1
 10
-64.80833542191544
 20
18.43207210724502
 11
-63.8225563292159
 21
18.43207210724502
 72
     1
 10
-63.8225563292159
 20
18.43207210724502
 11
-63.8225563292159
 21
15.90826258343419
 97
       12
330
244
330
245
330
22F
330
22E
330
22D
330
241
330
22C
330
242
330
243
330
22B
330
22A
330
229
 75
     1
 76
     0
 52
45.0
 41
0.1
 77
     0
 78
     1
 53
45.0
 43
0.0
 44
0.0
 45
-0.0707106781186548
 46
0.0707106781186548
 79
     0
 98
        1
 10
0.0
 20
0.0
  0
HATCH
  5
30F
330
74
100
AcDbEntity
  8
1
  6
Continuous
 62
     2
100
AcDbHatch
 10
0.0
 20
0.0
 30
0.0
210
0.0
220
0.0
230
1.0
  2
_USER
 70
     0
 71
     1
 91
        1
 92
        1
 93
       10
 72
     1
 10
-61.96941637120904
 20
14.57424897800576
 11
-62.99462662761641
 21
15.65588163106787
 72
     1
 10
-62.99462662761641
 20
15.65588163106787
 11
-63.98040572031687
 21
15.65588163106787
 72
     1
 10
-63.98040572031687
 20
15.65588163106787
 11
-63.98040572031687
 21
13.13207210725704
 72
     1
 10
-63.98040572031687
 20
13.13207210725704
 11
-62.99462662761641
 21
13.13207210725704
 72
     1
 10
-62.99462662761641
 20
13.13207210725704
 11
-62.99462662761641
 21
14.21370476031869
 72
     1
 10
-62.99462662761641
 20
14.21370476031869
 11
-61.96941637120904
 21
13.13207210725704
 72
     1
 10
-61.96941637120904
 20
13.13207210725704
 11
-60.98363727850949
 21
13.13207210725704
 72
     1
 10
-60.98363727850949
 20
13.13207210725704
 11
-60.98363727850949
 21
15.65588163106787
 72
     1
 10
-60.98363727850949
 20
15.65588163106787
 11
-61.96941637120904
 21
15.65588163106787
 72
     1
 10
-61.96941637120904
 20
15.65588163106787
 11
-61.96941637120904
 21
14.57424897800576
 97
       10
330
252
330
222
330
221
330
224
330
24D
330
24E
330
223
330
24F
330
250
330
251
 75
     1
 76
     0
 52
45.0
 41
0.1
 77
     0
 78
     1
 53
45.0
 43
0.0
 44
0.0
 45
-0.0707106781186548
 46
0.0707106781186548
 79
     0
 98
        1
 10
0.0
 20
0.0
  0
HATCH
  5
310
330
74
100
AcDbEntity
  8
1
  6
Continuous
 62
     2
100
AcDbHatch
 10
0.0
 20
0.0
 30
0.0
210
0.0
220
0.0
230
1.0
  2
_USER
 70
     0
 71
     1
 91
        1
 92
        1
 93
       10
 72
     1
 10
-61.96941637120904
 20
14.57424897800576
 11
-62.99462662761641
 21
15.65588163106787
 72
     1
 10
-62.99462662761641
 20
15.65588163106787
 11
-63.98040572031687
 21
15.65588163106787
 72
     1
 10
-63.98040572031687
 20
15.65588163106787
 11
-63.98040572031687
 21
13.13207210725704
 72
     1
 10
-63.98040572031687
 20
13.13207210725704
 11
-62.99462662761641
 21
13.13207210725704
 72
     1
 10
-62.99462662761641
 20
13.13207210725704
 11
-62.99462662761641
 21
14.21370476031869
 72
     1
 10
-62.99462662761641
 20
14.21370476031869
 11
-61.96941637120904
 21
13.13207210725704
 72
     1
 10
-61.96941637120904
 20
13.13207210725704
 11
-60.98363727850949
 21
13.13207210725704
 72
     1
 10
-60.98363727850949
 20
13.13207210725704
 11
-60.98363727850949
 21
15.65588163106787
 72
     1
 10
-60.98363727850949
 20
15.65588163106787
 11
-61.96941637120904
 21
15.65588163106787
 72
     1
 10
-61.96941637120904
 20
15.65588163106787
 11
-61.96941637120904
 21
14.57424897800576
 97
       10
330
252
330
222
330
221
330
224
330
24D
330
24E
330
223
330
24F
330
250
330
251
 75
     1
 76
     0
 52
45.0
 41
0.1
 77
     0
 78
     1
 53
45.0
 43
0.0
 44
0.0
 45
-0.0707106781186548
 46
0.0707106781186548
 79
     0
 98
        1
 10
0.0
 20
0.0
  0
HATCH
  5
311
330
74
100
AcDbEntity
  8
1
  6
Continuous
 62
     2
100
AcDbHatch
 10
0.0
 20
0.0
 30
0.0
210
0.0
220
0.0
230
1.0
  2
_USER
 70
     0
 71
     1
 91
        1
 92
        1
 93
       10
 72
     1
 10
-57.63186362706051
 20
17.35043945418291
 11
-58.6570738834688
 21
18.43207210724502
 72
     1
 10
-58.6570738834688
 20
18.43207210724502
 11
-59.64285297616834
 21
18.43207210724502
 72
     1
 10
-59.64285297616834
 20
18.43207210724502
 11
-59.64285297616834
 21
15.90826258343419
 72
     1
 10
-59.64285297616834
 20
15.90826258343419
 11
-58.6570738834688
 21
15.90826258343419
 72
     1
 10
-58.6570738834688
 20
15.90826258343419
 11
-58.6570738834688
 21
16.98989523649585
 72
     1
 10
-58.6570738834688
 20
16.98989523649585
 11
-57.63186362706051
 21
15.90826258343419
 72
     1
 10
-57.63186362706051
 20
15.90826258343419
 11
-56.64608453436085
 21
15.90826258343419
 72
     1
 10
-56.64608453436085
 20
15.90826258343419
 11
-56.64608453436085
 21
18.43207210724502
 72
     1
 10
-56.64608453436085
 20
18.43207210724502
 11
-57.63186362706051
 21
18.43207210724502
 72
     1
 10
-57.63186362706051
 20
18.43207210724502
 11
-57.63186362706051
 21
17.35043945418291
 97
       10
330
257
330
21F
330
21E
330
258
330
21D
330
253
330
254
330
255
330
256
330
220
 75
     1
 76
     0
 52
45.0
 41
0.1
 77
     0
 78
     1
 53
45.0
 43
0.0
 44
0.0
 45
-0.0707106781186548
 46
0.0707106781186548
 79
     0
 98
        1
 10
0.0
 20
0.0
  0
HATCH
  5
312
330
74
100
AcDbEntity
  8
1
  6
Continuous
 62
     2
100
AcDbHatch
 10
0.0
 20
0.0
 30
0.0
210
0.0
220
0.0
230
1.0
  2
_USER
 70
     0
 71
     1
 91
        1
 92
        1
 93
       10
 72
     1
 10
-57.63186362706051
 20
17.35043945418291
 11
-58.6570738834688
 21
18.43207210724502
 72
     1
 10
-58.6570738834688
 20
18.43207210724502
 11
-59.64285297616834
 21
18.43207210724502
 72
     1
 10
-59.64285297616834
 20
18.43207210724502
 11
-59.64285297616834
 21
15.90826258343419
 72
     1
 10
-59.64285297616834
 20
15.90826258343419
 11
-58.6570738834688
 21
15.90826258343419
 72
     1
 10
-58.6570738834688
 20
15.90826258343419
 11
-58.6570738834688
 21
16.98989523649585
 72
     1
 10
-58.6570738834688
 20
16.98989523649585
 11
-57.63186362706051
 21
15.90826258343419
 72
     1
 10
-57.63186362706051
 20
15.90826258343419
 11
-56.64608453436085
 21
15.90826258343419
 72
     1
 10
-56.64608453436085
 20
15.90826258343419
 11
-56.64608453436085
 21
18.43207210724502
 72
     1
 10
-56.64608453436085
 20
18.43207210724502
 11
-57.63186362706051
 21
18.43207210724502
 72
     1
 10
-57.63186362706051
 20
18.43207210724502
 11
-57.63186362706051
 21
17.35043945418291
 97
       10
330
257
330
21F
330
21E
330
258
330
21D
330
253
330
254
330
255
330
256
330
220
 75
     1
 76
     0
 52
45.0
 41
0.1
 77
     0
 78
     1
 53
45.0
 43
0.0
 44
0.0
 45
-0.0707106781186548
 46
0.0707106781186548
 79
     0
 98
        1
 10
0.0
 20
0.0
  0
HATCH
  5
313
330
74
100
AcDbEntity
  8
1
  6
Continuous
 62
     2
100
AcDbHatch
 10
0.0
 20
0.0
 30
0.0
210
0.0
220
0.0
230
1.0
  2
_USER
 70
     0
 71
     1
 91
        1
 92
        1
 93
        8
 72
     1
 10
-58.53890512861381
 20
15.65588163106787
 11
-60.86534378738543
 21
15.65588163106787
 72
     1
 10
-60.86534378738543
 20
15.65588163106787
 11
-60.86534378738543
 21
15.00690203923015
 72
     1
 10
-60.86534378738543
 20
15.00690203923015
 11
-60.19501400434854
 21
15.00690203923015
 72
     1
 10
-60.19501400434854
 20
15.00690203923015
 11
-60.19501400434854
 21
13.13207210725704
 72
     1
 10
-60.19501400434854
 20
13.13207210725704
 11
-59.20923491164899
 21
13.13207210725704
 72
     1
 10
-59.20923491164899
 20
13.13207210725704
 11
-59.20923491164899
 21
15.00690203923015
 72
     1
 10
-59.20923491164899
 20
15.00690203923015
 11
-58.53890512861381
 21
15.00690203923015
 72
     1
 10
-58.53890512861381
 20
15.00690203923015
 11
-58.53890512861381
 21
15.65588163106787
 97
        8
330
219
330
259
330
218
330
25A
330
25B
330
21C
330
21B
330
21A
 75
     1
 76
     0
 52
45.0
 41
0.1
 77
     0
 78
     1
 53
45.0
 43
0.0
 44
0.0
 45
-0.0707106781186548
 46
0.0707106781186548
 79
     0
 98
        1
 10
0.0
 20
0.0
  0
HATCH
  5
314
330
74
100
AcDbEntity
  8
1
  6
Continuous
 62
     2
100
AcDbHatch
 10
0.0
 20
0.0
 30
0.0
210
0.0
220
0.0
230
1.0
  2
_USER
 70
     0
 71
     1
 91
        1
 92
        1
 93
        8
 72
     1
 10
-58.53890512861381
 20
15.65588163106787
 11
-60.86534378738543
 21
15.65588163106787
 72
     1
 10
-60.86534378738543
 20
15.65588163106787
 11
-60.86534378738543
 21
15.00690203923015
 72
     1
 10
-60.86534378738543
 20
15.00690203923015
 11
-60.19501400434854
 21
15.00690203923015
 72
     1
 10
-60.19501400434854
 20
15.00690203923015
 11
-60.19501400434854
 21
13.13207210725704
 72
     1
 10
-60.19501400434854
 20
13.13207210725704
 11
-59.20923491164899
 21
13.13207210725704
 72
     1
 10
-59.20923491164899
 20
13.13207210725704
 11
-59.20923491164899
 21
15.00690203923015
 72
     1
 10
-59.20923491164899
 20
15.00690203923015
 11
-58.53890512861381
 21
15.00690203923015
 72
     1
 10
-58.53890512861381
 20
15.00690203923015
 11
-58.53890512861381
 21
15.65588163106787
 97
        8
330
219
330
259
330
218
330
25A
330
25B
330
21C
330
21B
330
21A
 75
     1
 76
     0
 52
45.0
 41
0.1
 77
     0
 78
     1
 53
45.0
 43
0.0
 44
0.0
 45
-0.0707106781186548
 46
0.0707106781186548
 79
     0
 98
        1
 10
0.0
 20
0.0
  0
HATCH
  5
315
330
74
100
AcDbEntity
  8
1
  6
Continuous
 62
     2
100
AcDbHatch
 10
0.0
 20
0.0
 30
0.0
210
0.0
220
0.0
230
1.0
  2
_USER
 70
     0
 71
     1
 91
        2
 92
        1
 93
        8
 72
     1
 10
-56.77160971047579
 20
13.13207210725704
 11
-56.9463866141748
 21
13.57914693718916
 72
     1
 10
-56.9463866141748
 20
13.57914693718916
 11
-57.88228874365734
 21
13.57914693718916
 72
     1
 10
-57.88228874365734
 20
13.57914693718916
 11
-58.05706564735635
 21
13.13207210725704
 72
     1
 10
-58.05706564735635
 20
13.13207210725704
 11
-59.08227590376373
 21
13.13207210725704
 72
     1
 10
-59.08227590376373
 20
13.13207210725704
 11
-57.92694280711976
 21
15.65588163106787
 72
     1
 10
-57.92694280711976
 20
15.65588163106787
 11
-56.9017325507125
 21
15.65588163106787
 72
     1
 10
-56.9017325507125
 20
15.65588163106787
 11
-55.74639945406761
 21
13.13207210725704
 72
     1
 10
-55.74639945406761
 20
13.13207210725704
 11
-56.77160971047579
 21
13.13207210725704
 97
        8
330
25D
330
25E
330
215
330
25F
330
214
330
217
330
25C
330
216
 92
       16
 93
        3
 72
     1
 10
-57.66240812287629
 20
14.14159591678136
 11
-57.41433767891567
 21
14.7761537399109
 72
     1
 10
-57.41433767891567
 20
14.7761537399109
 11
-57.16626723495688
 21
14.14159591678136
 72
     1
 10
-57.16626723495688
 20
14.14159591678136
 11
-57.66240812287629
 21
14.14159591678136
 97
        3
330
213
330
261
330
260
 75
     1
 76
     0
 52
45.0
 41
0.1
 77
     0
 78
     1
 53
45.0
 43
0.0
 44
0.0
 45
-0.0707106781186548
 46
0.0707106781186548
 79
     0
 98
        1
 10
0.0
 20
0.0
  0
HATCH
  5
316
330
74
100
AcDbEntity
  8
1
  6
Continuous
 62
     2
100
AcDbHatch
 10
0.0
 20
0.0
 30
0.0
210
0.0
220
0.0
230
1.0
  2
_USER
 70
     0
 71
     1
 91
        2
 92
        1
 93
        8
 72
     1
 10
-56.77160971047579
 20
13.13207210725704
 11
-56.9463866141748
 21
13.57914693718916
 72
     1
 10
-56.9463866141748
 20
13.57914693718916
 11
-57.88228874365734
 21
13.57914693718916
 72
     1
 10
-57.88228874365734
 20
13.57914693718916
 11
-58.05706564735635
 21
13.13207210725704
 72
     1
 10
-58.05706564735635
 20
13.13207210725704
 11
-59.08227590376373
 21
13.13207210725704
 72
     1
 10
-59.08227590376373
 20
13.13207210725704
 11
-57.92694280711976
 21
15.65588163106787
 72
     1
 10
-57.92694280711976
 20
15.65588163106787
 11
-56.9017325507125
 21
15.65588163106787
 72
     1
 10
-56.9017325507125
 20
15.65588163106787
 11
-55.74639945406761
 21
13.13207210725704
 72
     1
 10
-55.74639945406761
 20
13.13207210725704
 11
-56.77160971047579
 21
13.13207210725704
 97
        8
330
25D
330
25E
330
215
330
25F
330
214
330
217
330
25C
330
216
 92
       16
 93
        3
 72
     1
 10
-57.66240812287629
 20
14.14159591678136
 11
-57.41433767891567
 21
14.7761537399109
 72
     1
 10
-57.41433767891567
 20
14.7761537399109
 11
-57.16626723495688
 21
14.14159591678136
 72
     1
 10
-57.16626723495688
 20
14.14159591678136
 11
-57.66240812287629
 21
14.14159591678136
 97
        3
330
213
330
261
330
260
 75
     1
 76
     0
 52
45.0
 41
0.1
 77
     0
 78
     1
 53
45.0
 43
0.0
 44
0.0
 45
-0.0707106781186548
 46
0.0707106781186548
 79
     0
 98
        1
 10
0.0
 20
0.0
  0
HATCH
  5
317
330
74
100
AcDbEntity
  8
1
  6
Continuous
 62
     2
100
AcDbHatch
 10
0.0
 20
0.0
 30
0.0
210
0.0
220
0.0
230
1.0
  2
_USER
 70
     0
 71
     1
 91
        1
 92
        1
 93
        4
 72
     1
 10
-55.42371845941307
 20
15.90826258343419
 11
-56.44892871582044
 21
15.90826258343419
 72
     1
 10
-56.44892871582044
 20
15.90826258343419
 11
-56.44892871582044
 21
18.43207210724502
 72
     1
 10
-56.44892871582044
 20
18.43207210724502
 11
-55.42371845941307
 21
18.43207210724502
 72
     1
 10
-55.42371845941307
 20
18.43207210724502
 11
-55.42371845941307
 21
15.90826258343419
 97
        4
330
210
330
212
330
262
330
211
 75
     1
 76
     0
 52
45.0
 41
0.1
 77
     0
 78
     1
 53
45.0
 43
0.0
 44
0.0
 45
-0.0707106781186548
 46
0.0707106781186548
 79
     0
 98
        1
 10
0.0
 20
0.0
  0
HATCH
  5
318
330
74
100
AcDbEntity
  8
1
  6
Continuous
 62
     2
100
AcDbHatch
 10
0.0
 20
0.0
 30
0.0
210
0.0
220
0.0
230
1.0
  2
_USER
 70
     0
 71
     1
 91
        1
 92
        1
 93
        4
 72
     1
 10
-55.42371845941307
 20
15.90826258343419
 11
-56.44892871582044
 21
15.90826258343419
 72
     1
 10
-56.44892871582044
 20
15.90826258343419
 11
-56.44892871582044
 21
18.43207210724502
 72
     1
 10
-56.44892871582044
 20
18.43207210724502
 11
-55.42371845941307
 21
18.43207210724502
 72
     1
 10
-55.42371845941307
 20
18.43207210724502
 11
-55.42371845941307
 21
15.90826258343419
 97
        4
330
210
330
212
330
262
330
211
 75
     1
 76
     0
 52
45.0
 41
0.1
 77
     0
 78
     1
 53
45.0
 43
0.0
 44
0.0
 45
-0.0707106781186548
 46
0.0707106781186548
 79
     0
 98
        1
 10
0.0
 20
0.0
  0
HATCH
  5
319
330
74
100
AcDbEntity
  8
1
  6
Continuous
 62
     2
100
AcDbHatch
 10
0.0
 20
0.0
 30
0.0
210
0.0
220
0.0
230
1.0
  2
_USER
 70
     0
 71
     1
 91
        1
 92
        1
 93
       12
 72
     1
 10
-51.93406047125541
 20
18.43207210724502
 11
-53.01053124048394
 21
17.2147576196118
 72
     1
 10
-53.01053124048394
 20
17.2147576196118
 11
-51.85519814383906
 21
15.90826258343419
 72
     1
 10
-51.85519814383906
 20
15.90826258343419
 11
-53.01447435685418
 21
15.90826258343419
 72
     1
 10
-53.01447435685418
 20
15.90826258343419
 11
-53.59016934699093
 21
16.55928058780913
 72
     1
 10
-53.59016934699093
 20
16.55928058780913
 11
-54.16586433712791
 21
15.90826258343419
 72
     1
 10
-54.16586433712791
 20
15.90826258343419
 11
-55.32514055014292
 21
15.90826258343419
 72
     1
 10
-55.32514055014292
 20
15.90826258343419
 11
-54.16980745349804
 21
17.2147576196118
 72
     1
 10
-54.16980745349804
 20
17.2147576196118
 11
-55.24627822272737
 21
18.43207210724502
 72
     1
 10
-55.24627822272737
 20
18.43207210724502
 11
-54.08700200971146
 21
18.43207210724502
 72
     1
 10
-54.08700200971146
 20
18.43207210724502
 11
-53.59016934699093
 21
17.87023465141403
 72
     1
 10
-53.59016934699093
 20
17.87023465141403
 11
-53.09333668426962
 21
18.43207210724502
 72
     1
 10
-53.09333668426962
 20
18.43207210724502
 11
-51.93406047125541
 21
18.43207210724502
 97
       12
330
20B
330
20A
330
209
330
266
330
267
330
263
330
264
330
20F
330
20E
330
20D
330
20C
330
265
 75
     1
 76
     0
 52
45.0
 41
0.1
 77
     0
 78
     1
 53
45.0
 43
0.0
 44
0.0
 45
-0.0707106781186548
 46
0.0707106781186548
 79
     0
 98
        1
 10
0.0
 20
0.0
  0
HATCH
  5
31A
330
74
100
AcDbEntity
  8
1
  6
Continuous
 62
     2
100
AcDbHatch
 10
0.0
 20
0.0
 30
0.0
210
0.0
220
0.0
230
1.0
  2
_USER
 70
     0
 71
     1
 91
        1
 92
        1
 93
       12
 72
     1
 10
-51.93406047125541
 20
18.43207210724502
 11
-53.01053124048394
 21
17.2147576196118
 72
     1
 10
-53.01053124048394
 20
17.2147576196118
 11
-51.85519814383906
 21
15.90826258343419
 72
     1
 10
-51.85519814383906
 20
15.90826258343419
 11
-53.01447435685418
 21
15.90826258343419
 72
     1
 10
-53.01447435685418
 20
15.90826258343419
 11
-53.59016934699093
 21
16.55928058780913
 72
     1
 10
-53.59016934699093
 20
16.55928058780913
 11
-54.16586433712791
 21
15.90826258343419
 72
     1
 10
-54.16586433712791
 20
15.90826258343419
 11
-55.32514055014292
 21
15.90826258343419
 72
     1
 10
-55.32514055014292
 20
15.90826258343419
 11
-54.16980745349804
 21
17.2147576196118
 72
     1
 10
-54.16980745349804
 20
17.2147576196118
 11
-55.24627822272737
 21
18.43207210724502
 72
     1
 10
-55.24627822272737
 20
18.43207210724502
 11
-54.08700200971146
 21
18.43207210724502
 72
     1
 10
-54.08700200971146
 20
18.43207210724502
 11
-53.59016934699093
 21
17.87023465141403
 72
     1
 10
-53.59016934699093
 20
17.87023465141403
 11
-53.09333668426962
 21
18.43207210724502
 72
     1
 10
-53.09333668426962
 20
18.43207210724502
 11
-51.93406047125541
 21
18.43207210724502
 97
       12
330
20B
330
20A
330
209
330
266
330
267
330
263
330
264
330
20F
330
20E
330
20D
330
20C
330
265
 75
     1
 76
     0
 52
45.0
 41
0.1
 77
     0
 78
     1
 53
45.0
 43
0.0
 44
0.0
 45
-0.0707106781186548
 46
0.0707106781186548
 79
     0
 98
        1
 10
0.0
 20
0.0
  0
HATCH
  5
31B
330
74
100
AcDbEntity
  8
1
  6
Continuous
 62
     2
100
AcDbHatch
 10
0.0
 20
0.0
 30
0.0
210
0.0
220
0.0
230
1.0
  2
_USER
 70
     0
 71
     1
 91
        2
 92
        1
 93
        6
 72
     1
 10
-67.65119717716118
 20
16.68766608851166
 11
-68.2782778282193
 21
16.68766608851166
 72
     1
 10
-68.2782778282193
 20
16.68766608851166
 11
-68.2782778282193
 21
15.90826258343419
 72
     1
 10
-68.2782778282193
 20
15.90826258343419
 11
-69.30348808462759
 21
15.90826258343419
 72
     1
 10
-69.30348808462759
 20
15.90826258343419
 11
-69.30348808462759
 21
18.43207210724502
 72
     1
 10
-69.30348808462759
 20
18.43207210724502
 11
-67.65119717716118
 21
18.43207210724502
 72
     2
 10
-67.65119717716118
 20
17.55986909787833
 40
0.8722030093666717
 50
270.0
 51
450.0
 73
     0
 97
        6
330
233
330
232
330
23F
330
23E
330
234
330
279
 92
       16
 93
        4
 72
     2
 10
-68.01605050463093
 20
17.59242775178124
 40
0.2916229955959899
 50
270.0
 51
450.0
 73
     1
 72
     1
 10
-68.01605050463093
 20
17.88405074737721
 11
-68.2782778282193
 21
17.88405074737721
 72
     1
 10
-68.2782778282193
 20
17.88405074737721
 11
-68.2782778282193
 21
17.30080475618525
 72
     1
 10
-68.2782778282193
 20
17.30080475618525
 11
-68.01605050463093
 21
17.30080475618525
 97
        4
330
28D
330
230
330
240
330
231
 75
     1
 76
     0
 52
45.0
 41
0.1
 77
     0
 78
     1
 53
45.0
 43
0.0
 44
0.0
 45
-0.0707106781186548
 46
0.0707106781186548
 79
     0
 98
        1
 10
0.0
 20
0.0
  0
HATCH
  5
31C
330
74
100
AcDbEntity
  8
1
  6
Continuous
 62
     2
100
AcDbHatch
 10
0.0
 20
0.0
 30
0.0
210
0.0
220
0.0
230
1.0
  2
_USER
 70
     0
 71
     1
 91
        2
 92
        1
 93
        6
 72
     1
 10
-67.65119717716118
 20
16.68766608851166
 11
-68.2782778282193
 21
16.68766608851166
 72
     1
 10
-68.2782778282193
 20
16.68766608851166
 11
-68.2782778282193
 21
15.90826258343419
 72
     1
 10
-68.2782778282193
 20
15.90826258343419
 11
-69.30348808462759
 21
15.90826258343419
 72
     1
 10
-69.30348808462759
 20
15.90826258343419
 11
-69.30348808462759
 21
18.43207210724502
 72
     1
 10
-69.30348808462759
 20
18.43207210724502
 11
-67.65119717716118
 21
18.43207210724502
 72
     2
 10
-67.65119717716118
 20
17.55986909787833
 40
0.8722030093666717
 50
270.0
 51
450.0
 73
     0
 97
        6
330
233
330
232
330
23F
330
23E
330
234
330
279
 92
       16
 93
        4
 72
     2
 10
-68.01605050463093
 20
17.59242775178124
 40
0.2916229955959899
 50
270.0
 51
450.0
 73
     1
 72
     1
 10
-68.01605050463093
 20
17.88405074737721
 11
-68.2782778282193
 21
17.88405074737721
 72
     1
 10
-68.2782778282193
 20
17.88405074737721
 11
-68.2782778282193
 21
17.30080475618525
 72
     1
 10
-68.2782778282193
 20
17.30080475618525
 11
-68.01605050463093
 21
17.30080475618525
 97
        4
330
28D
330
230
330
240
330
231
 75
     1
 76
     0
 52
45.0
 41
0.1
 77
     0
 78
     1
 53
45.0
 43
0.0
 44
0.0
 45
-0.0707106781186548
 46
0.0707106781186548
 79
     0
 98
        1
 10
0.0
 20
0.0
  0
HATCH
  5
31D
330
74
100
AcDbEntity
  8
1
  6
Continuous
 62
     2
100
AcDbHatch
 10
0.0
 20
0.0
 30
0.0
210
0.0
220
0.0
230
1.0
  2
_USER
 70
     0
 71
     1
 91
        2
 92
        1
 93
        4
 72
     2
 10
-65.53835193058342
 20
13.94887355486241
 40
1.707008076205444
 50
62.45185182430569
 51
117.5481481756673
 73
     1
 72
     2
 10
-65.77053365937127
 20
14.39397686916223
 40
1.204986845992994
 50
117.5481481756635
 51
242.451851824337
 73
     1
 72
     2
 10
-65.53835193058342
 20
14.8390801834625
 40
1.70700807620544
 50
242.4518518243401
 51
297.548148175687
 73
     1
 72
     2
 10
-65.30617020179557
 20
14.39397686916223
 40
1.204986845993433
 50
297.5481481757013
 51
422.4518518242982
 73
     1
 97
        4
330
285
330
284
330
286
330
283
 92
       16
 93
        4
 72
     2
 10
-65.70342634078702
 20
14.39397686916223
 40
0.6378510567600066
 50
321.8795802028405
 51
398.1204197971587
 73
     1
 72
     2
 10
-65.53835193058342
 20
14.52350676843535
 40
0.4280236140605955
 50
38.12041979715423
 51
141.8795802028552
 73
     1
 72
     2
 10
-65.37327752038004
 20
14.39397686916223
 40
0.6378510567599095
 50
141.8795802028351
 51
218.1204197971658
 73
     1
 72
     2
 10
-65.53835193058342
 20
14.26444696988955
 40
0.4280236140609635
 50
218.1204197971923
 51
321.8795802027983
 73
     1
 97
        4
330
2A1
330
29E
330
29F
330
2A0
 75
     1
 76
     0
 52
45.0
 41
0.1
 77
     0
 78
     1
 53
45.0
 43
0.0
 44
0.0
 45
-0.0707106781186548
 46
0.0707106781186548
 79
     0
 98
        1
 10
0.0
 20
0.0
  0
HATCH
  5
31E
330
74
100
AcDbEntity
  8
1
  6
Continuous
 62
     2
100
AcDbHatch
 10
0.0
 20
0.0
 30
0.0
210
0.0
220
0.0
230
1.0
  2
_USER
 70
     0
 71
     1
 91
        2
 92
        1
 93
        4
 72
     2
 10
-65.53835193058342
 20
13.94887355486241
 40
1.707008076205444
 50
62.45185182430569
 51
117.5481481756673
 73
     1
 72
     2
 10
-65.77053365937127
 20
14.39397686916223
 40
1.204986845992994
 50
117.5481481756635
 51
242.451851824337
 73
     1
 72
     2
 10
-65.53835193058342
 20
14.8390801834625
 40
1.70700807620544
 50
242.4518518243401
 51
297.548148175687
 73
     1
 72
     2
 10
-65.30617020179557
 20
14.39397686916223
 40
1.204986845993433
 50
297.5481481757013
 51
422.4518518242982
 73
     1
 97
        4
330
285
330
284
330
286
330
283
 92
       16
 93
        4
 72
     2
 10
-65.70342634078702
 20
14.39397686916223
 40
0.6378510567600066
 50
321.8795802028405
 51
398.1204197971587
 73
     1
 72
     2
 10
-65.53835193058342
 20
14.52350676843535
 40
0.4280236140605955
 50
38.12041979715423
 51
141.8795802028552
 73
     1
 72
     2
 10
-65.37327752038004
 20
14.39397686916223
 40
0.6378510567599095
 50
141.8795802028351
 51
218.1204197971658
 73
     1
 72
     2
 10
-65.53835193058342
 20
14.26444696988955
 40
0.4280236140609635
 50
218.1204197971923
 51
321.8795802027983
 73
     1
 97
        4
330
2A1
330
29E
330
29F
330
2A0
 75
     1
 76
     0
 52
45.0
 41
0.1
 77
     0
 78
     1
 53
45.0
 43
0.0
 44
0.0
 45
-0.0707106781186548
 46
0.0707106781186548
 79
     0
 98
        1
 10
0.0
 20
0.0
  0
HATCH
  5
31F
330
74
100
AcDbEntity
  8
1
  6
Continuous
 62
     2
100
AcDbHatch
 10
0.0
 20
0.0
 30
0.0
210
0.0
220
0.0
230
1.0
  2
_USER
 70
     0
 71
     1
 91
        2
 92
        1
 93
       12
 72
     1
 10
-59.84000879470796
 20
17.85520135894508
 11
-60.94408137853247
 21
17.85520135894508
 72
     1
 10
-60.94408137853247
 20
17.85520135894508
 11
-60.94408137853247
 21
17.45860271948912
 72
     1
 10
-60.94408137853247
 20
17.45860271948912
 11
-59.84000879470796
 21
17.45860271948912
 72
     1
 10
-59.84000879470796
 20
17.45860271948912
 11
-59.84000879470796
 21
16.88173197118964
 72
     1
 10
-59.84000879470796
 20
16.88173197118964
 11
-60.94408137853247
 21
16.88173197118964
 72
     1
 10
-60.94408137853247
 20
16.88173197118964
 11
-60.94408137853247
 21
16.48513333173368
 72
     1
 10
-60.94408137853247
 20
16.48513333173368
 11
-59.84000879470796
 21
16.48513333173368
 72
     1
 10
-59.84000879470796
 20
16.48513333173368
 11
-59.84000879470796
 21
15.90826258343419
 72
     1
 10
-59.84000879470796
 20
15.90826258343419
 11
-62.44357881436167
 21
15.90826258343419
 72
     2
 10
-62.44357881436167
 20
17.17016734533938
 40
1.26190476190564
 50
90.0
 51
270.0
 73
     0
 72
     1
 10
-62.44357881436167
 20
18.43207210724502
 11
-59.84000879470796
 21
18.43207210724502
 72
     1
 10
-59.84000879470796
 20
18.43207210724502
 11
-59.84000879470796
 21
17.85520135894508
 97
       12
330
247
330
28E
330
248
330
249
330
24A
330
24B
330
228
330
227
330
226
330
225
330
24C
330
246
 92
       16
 93
        4
 72
     2
 10
-62.26484161587803
 20
17.2996972446125
 40
0.4280236140606861
 50
38.12041979714503
 51
141.8795802028555
 73
     1
 72
     2
 10
-62.09976720567454
 20
17.17016734533938
 40
0.6378510567600056
 50
141.8795802028417
 51
218.1204197971583
 73
     1
 72
     2
 10
-62.26484161587803
 20
17.04063744606625
 40
0.4280236140606851
 50
218.1204197971433
 51
321.8795802028561
 73
     1
 72
     2
 10
-62.42991602608151
 20
17.17016734533938
 40
0.6378510567599944
 50
321.8795802028409
 51
398.1204197971591
 73
     1
 97
        4
330
288
330
287
330
282
330
281
 75
     1
 76
     0
 52
45.0
 41
0.1
 77
     0
 78
     1
 53
45.0
 43
0.0
 44
0.0
 45
-0.0707106781186548
 46
0.0707106781186548
 79
     0
 98
        1
 10
0.0
 20
0.0
  0
HATCH
  5
320
330
74
100
AcDbEntity
  8
1
  6
Continuous
 62
     2
100
AcDbHatch
 10
0.0
 20
0.0
 30
0.0
210
0.0
220
0.0
230
1.0
  2
_USER
 70
     0
 71
     1
 91
        2
 92
        1
 93
       12
 72
     1
 10
-59.84000879470796
 20
17.85520135894508
 11
-60.94408137853247
 21
17.85520135894508
 72
     1
 10
-60.94408137853247
 20
17.85520135894508
 11
-60.94408137853247
 21
17.45860271948912
 72
     1
 10
-60.94408137853247
 20
17.45860271948912
 11
-59.84000879470796
 21
17.45860271948912
 72
     1
 10
-59.84000879470796
 20
17.45860271948912
 11
-59.84000879470796
 21
16.88173197118964
 72
     1
 10
-59.84000879470796
 20
16.88173197118964
 11
-60.94408137853247
 21
16.88173197118964
 72
     1
 10
-60.94408137853247
 20
16.88173197118964
 11
-60.94408137853247
 21
16.48513333173368
 72
     1
 10
-60.94408137853247
 20
16.48513333173368
 11
-59.84000879470796
 21
16.48513333173368
 72
     1
 10
-59.84000879470796
 20
16.48513333173368
 11
-59.84000879470796
 21
15.90826258343419
 72
     1
 10
-59.84000879470796
 20
15.90826258343419
 11
-62.44357881436167
 21
15.90826258343419
 72
     2
 10
-62.44357881436167
 20
17.17016734533938
 40
1.26190476190564
 50
90.0
 51
270.0
 73
     0
 72
     1
 10
-62.44357881436167
 20
18.43207210724502
 11
-59.84000879470796
 21
18.43207210724502
 72
     1
 10
-59.84000879470796
 20
18.43207210724502
 11
-59.84000879470796
 21
17.85520135894508
 97
       12
330
247
330
28E
330
248
330
249
330
24A
330
24B
330
228
330
227
330
226
330
225
330
24C
330
246
 92
       16
 93
        4
 72
     2
 10
-62.26484161587803
 20
17.2996972446125
 40
0.4280236140606861
 50
38.12041979714503
 51
141.8795802028555
 73
     1
 72
     2
 10
-62.09976720567454
 20
17.17016734533938
 40
0.6378510567600056
 50
141.8795802028417
 51
218.1204197971583
 73
     1
 72
     2
 10
-62.26484161587803
 20
17.04063744606625
 40
0.4280236140606851
 50
218.1204197971433
 51
321.8795802028561
 73
     1
 72
     2
 10
-62.42991602608151
 20
17.17016734533938
 40
0.6378510567599944
 50
321.8795802028409
 51
398.1204197971591
 73
     1
 97
        4
330
288
330
287
330
282
330
281
 75
     1
 76
     0
 52
45.0
 41
0.1
 77
     0
 78
     1
 53
45.0
 43
0.0
 44
0.0
 45
-0.0707106781186548
 46
0.0707106781186548
 79
     0
 98
        1
 10
0.0
 20
0.0
  0
HATCH
  5
321
330
74
100
AcDbEntity
  8
1
  6
Continuous
 62
     2
100
AcDbHatch
 10
0.0
 20
0.0
 30
0.0
210
0.0
220
0.0
230
1.0
  2
_USER
 70
     0
 71
     1
 91
        4
 92
        1
 93
        8
 72
     1
 10
-69.69779972170761
 20
18.08145672261529
 11
-69.69779972170761
 21
13.48268749187132
 72
     2
 10
-70.04841510632241
 20
13.48268749187132
 40
0.3506153846142812
 50
0.0
 51
90.0
 73
     0
 72
     1
 10
-70.04841510632241
 20
13.13207210725704
 11
-74.57181352840246
 21
13.13207210725704
 72
     2
 10
-74.57181352840246
 20
13.48268749187132
 40
0.3506153846138886
 50
90.0
 51
180.0
 73
     0
 72
     1
 10
-74.92242891301635
 20
13.48268749187132
 11
-74.92242891301635
 21
18.08145672261529
 72
     2
 10
-74.57181352840246
 20
18.08145672261529
 40
0.3506153846147413
 50
180.0
 51
270.0
 73
     0
 72
     1
 10
-74.57181352840246
 20
18.43207210723003
 11
-70.04841510632241
 21
18.43207210723003
 72
     2
 10
-70.04841510632241
 20
18.08145672261529
 40
0.3506153846147981
 50
270.0
 51
360.0
 73
     0
 97
        8
330
23B
330
27E
330
23C
330
289
330
239
330
280
330
23A
330
27F
 92
       16
 93
        1
 72
     2
 10
-72.4068667097929
 20
16.16502512893305
 40
0.3892387874202541
 50
0.0
 51
360.0
 73
     1
 97
        1
330
2A4
 92
       16
 93
        8
 72
     2
 10
-71.9524388480072
 20
15.24837917854596
 40
0.2609230769227325
 50
115.3740086783589
 51
180.0
 73
     1
 72
     1
 10
-72.21336192493015
 20
15.24837917854596
 11
-72.21336192493015
 21
14.76751024739299
 72
     2
 10
-71.9524388480072
 20
14.76751024739299
 40
0.2609230769229498
 50
180.0
 51
269.8110329574465
 73
     1
 72
     2
 10
-71.94779741386674
 20
16.17481185695416
 40
1.668232340440702
 50
269.8110329575862
 51
450.1889670424138
 73
     1
 72
     2
 10
-71.9524388480072
 20
17.58211346651534
 40
0.2609230769224181
 50
90.18896704255353
 51
180.0
 73
     1
 72
     1
 10
-72.21336192493015
 20
17.58211346651534
 11
-72.21336192493015
 21
17.08167107931967
 72
     2
 10
-71.9524388480072
 20
17.08167107931967
 40
0.2609230769229498
 50
180.0
 51
244.6259913216399
 73
     1
 72
     2
 10
-72.38718487948483
 20
16.16502512893305
 40
0.7535935125160986
 50
295.3740086781929
 51
424.625991321822
 73
     0
 97
        8
330
296
330
202
330
293
330
294
330
272
330
201
330
295
330
271
 92
       16
 93
       12
 72
     2
 10
-74.0809914815045
 20
13.98188407306995
 40
0.2609230769220403
 50
180.0
 51
270.0
 73
     1
 72
     1
 10
-74.0809914815045
 20
13.72096099614706
 11
-72.86129457157926
 21
13.72096099614706
 72
     2
 10
-72.86129457157926
 20
13.98188407306995
 40
0.2609230769228894
 50
270.0
 51
360.0
 73
     1
 72
     1
 10
-72.60037149465643
 20
13.98188407306995
 11
-72.60037149465643
 21
15.24698401648451
 72
     2
 10
-72.86129457157926
 20
15.24698401648451
 40
0.2609230769228361
 50
0.0
 51
64.8055893514401
 73
     1
 72
     2
 10
-72.42940659837677
 20
16.16502512893305
 40
0.7536343169897688
 50
115.1944106485086
 51
244.8055893514766
 73
     0
 72
     2
 10
-72.86129457157926
 20
17.08306624138113
 40
0.2609230769224065
 50
295.1944106485601
 51
360.0
 73
     1
 72
     1
 10
-72.60037149465643
 20
17.08306624138113
 11
-72.60037149465643
 21
17.58226014143119
 72
     2
 10
-72.86129457157926
 20
17.58226014143119
 40
0.2609230769228361
 50
0.0
 51
90.0
 73
     1
 72
     1
 10
-72.86129457157926
 20
17.84318321835364
 11
-74.0809914815045
 21
17.84318321835364
 72
     2
 10
-74.0809914815045
 20
17.58226014143119
 40
0.2609230769224524
 50
90.0
 51
180.0
 73
     1
 72
     1
 10
-74.34191455842654
 20
17.58226014143119
 11
-74.34191455842654
 21
13.98188407306995
 97
       12
330
27A
330
23D
330
27D
330
238
330
28A
330
28B
330
27C
330
237
330
27B
330
236
330
28C
330
235
 75
     1
 76
     0
 52
45.0
 41
0.1
 77
     0
 78
     1
 53
45.0
 43
0.0
 44
0.0
 45
-0.0707106781186548
 46
0.0707106781186548
 79
     0
 98
        1
 10
0.0
 20
0.0
  0
HATCH
  5
322
330
74
100
AcDbEntity
  8
1
  6
Continuous
 62
     2
100
AcDbHatch
 10
0.0
 20
0.0
 30
0.0
210
0.0
220
0.0
230
1.0
  2
_USER
 70
     0
 71
     1
 91
        4
 92
        1
 93
        8
 72
     1
 10
-69.69779972170761
 20
18.08145672261529
 11
-69.69779972170761
 21
13.48268749187132
 72
     2
 10
-70.04841510632241
 20
13.48268749187132
 40
0.3506153846142812
 50
0.0
 51
90.0
 73
     0
 72
     1
 10
-70.04841510632241
 20
13.13207210725704
 11
-74.57181352840246
 21
13.13207210725704
 72
     2
 10
-74.57181352840246
 20
13.48268749187132
 40
0.3506153846138886
 50
90.0
 51
180.0
 73
     0
 72
     1
 10
-74.92242891301635
 20
13.48268749187132
 11
-74.92242891301635
 21
18.08145672261529
 72
     2
 10
-74.57181352840246
 20
18.08145672261529
 40
0.3506153846147413
 50
180.0
 51
270.0
 73
     0
 72
     1
 10
-74.57181352840246
 20
18.43207210723003
 11
-70.04841510632241
 21
18.43207210723003
 72
     2
 10
-70.04841510632241
 20
18.08145672261529
 40
0.3506153846147981
 50
270.0
 51
360.0
 73
     0
 97
        8
330
23B
330
27E
330
23C
330
289
330
239
330
280
330
23A
330
27F
 92
       16
 93
        1
 72
     2
 10
-72.4068667097929
 20
16.16502512893305
 40
0.3892387874202541
 50
0.0
 51
360.0
 73
     1
 97
        1
330
2A4
 92
       16
 93
        8
 72
     2
 10
-71.9524388480072
 20
15.24837917854596
 40
0.2609230769227325
 50
115.3740086783589
 51
180.0
 73
     1
 72
     1
 10
-72.21336192493015
 20
15.24837917854596
 11
-72.21336192493015
 21
14.76751024739299
 72
     2
 10
-71.9524388480072
 20
14.76751024739299
 40
0.2609230769229498
 50
180.0
 51
269.8110329574465
 73
     1
 72
     2
 10
-71.94779741386674
 20
16.17481185695416
 40
1.668232340440702
 50
269.8110329575862
 51
450.1889670424138
 73
     1
 72
     2
 10
-71.9524388480072
 20
17.58211346651534
 40
0.2609230769224181
 50
90.18896704255353
 51
180.0
 73
     1
 72
     1
 10
-72.21336192493015
 20
17.58211346651534
 11
-72.21336192493015
 21
17.08167107931967
 72
     2
 10
-71.9524388480072
 20
17.08167107931967
 40
0.2609230769229498
 50
180.0
 51
244.6259913216399
 73
     1
 72
     2
 10
-72.38718487948483
 20
16.16502512893305
 40
0.7535935125160986
 50
295.3740086781929
 51
424.625991321822
 73
     0
 97
        8
330
296
330
202
330
293
330
294
330
272
330
201
330
295
330
271
 92
       16
 93
       12
 72
     2
 10
-74.0809914815045
 20
13.98188407306995
 40
0.2609230769220403
 50
180.0
 51
270.0
 73
     1
 72
     1
 10
-74.0809914815045
 20
13.72096099614706
 11
-72.86129457157926
 21
13.72096099614706
 72
     2
 10
-72.86129457157926
 20
13.98188407306995
 40
0.2609230769228894
 50
270.0
 51
360.0
 73
     1
 72
     1
 10
-72.60037149465643
 20
13.98188407306995
 11
-72.60037149465643
 21
15.24698401648451
 72
     2
 10
-72.86129457157926
 20
15.24698401648451
 40
0.2609230769228361
 50
0.0
 51
64.8055893514401
 73
     1
 72
     2
 10
-72.42940659837677
 20
16.16502512893305
 40
0.7536343169897688
 50
115.1944106485086
 51
244.8055893514766
 73
     0
 72
     2
 10
-72.86129457157926
 20
17.08306624138113
 40
0.2609230769224065
 50
295.1944106485601
 51
360.0
 73
     1
 72
     1
 10
-72.60037149465643
 20
17.08306624138113
 11
-72.60037149465643
 21
17.58226014143119
 72
     2
 10
-72.86129457157926
 20
17.58226014143119
 40
0.2609230769228361
 50
0.0
 51
90.0
 73
     1
 72
     1
 10
-72.86129457157926
 20
17.84318321835364
 11
-74.0809914815045
 21
17.84318321835364
 72
     2
 10
-74.0809914815045
 20
17.58226014143119
 40
0.2609230769224524
 50
90.0
 51
180.0
 73
     1
 72
     1
 10
-74.34191455842654
 20
17.58226014143119
 11
-74.34191455842654
 21
13.98188407306995
 97
       12
330
27A
330
23D
330
27D
330
238
330
28A
330
28B
330
27C
330
237
330
27B
330
236
330
28C
330
235
 75
     1
 76
     0
 52
45.0
 41
0.1
 77
     0
 78
     1
 53
45.0
 43
0.0
 44
0.0
 45
-0.0707106781186548
 46
0.0707106781186548
 79
     0
 98
        1
 10
0.0
 20
0.0
  0
HATCH
  5
323
330
74
100
AcDbEntity
  8
1
  6
Continuous
 62
     2
100
AcDbHatch
 10
0.0
 20
0.0
 30
0.0
210
0.0
220
0.0
230
1.0
  2
_USER
 70
     0
 71
     1
 91
        1
 92
        1
 93
       18
 72
     1
 10
-51.85519814383906
 20
15.00690203923015
 11
-52.52552792687493
 21
15.00690203923015
 72
     1
 10
-52.52552792687493
 20
15.00690203923015
 11
-52.52552792687493
 21
13.13207210725704
 72
     1
 10
-52.52552792687493
 20
13.13207210725704
 11
-53.5113070195755
 21
13.13207210725704
 72
     1
 10
-53.5113070195755
 20
13.13207210725704
 11
-53.5113070195755
 21
15.00690203923015
 72
     1
 10
-53.5113070195755
 20
15.00690203923015
 11
-54.42340561425988
 21
15.00690203923015
 72
     2
 10
-54.42340561425988
 20
14.21804005011771
 40
0.7888619891124407
 50
90.0
 51
109.3371432194314
 73
     1
 72
     2
 10
-54.54462048872574
 20
14.56345738927714
 40
0.4227934381772261
 50
109.337143219486
 51
151.478526742422
 73
     1
 72
     2
 10
-54.23275498617909
 20
14.39397686916223
 40
0.777735318458663
 50
151.4785267423618
 51
208.5214732576687
 73
     1
 72
     2
 10
-54.54462048872574
 20
14.22449634904777
 40
0.4227934381785468
 50
208.5214732576875
 51
246.6277221118393
 73
     1
 72
     2
 10
-54.41533120550002
 20
14.52366330665935
 40
0.7487023016407038
 50
246.627722111814
 51
288.4480761180797
 73
     1
 72
     2
 10
-54.76092437381567
 20
15.55965155131771
 40
1.840813230556003
 50
288.4480761181333
 51
301.9309089499382
 73
     1
 72
     1
 10
-53.78732516553146
 20
13.99737822970626
 11
-53.78732516553146
 21
13.27628979433169
 72
     2
 10
-54.89139782430561
 20
17.13172971648158
 40
4.010410630990744
 50
74.02000874166119
 51
84.8418552303631
 73
     0
 72
     2
 10
-54.65267377906935
 20
14.48719204439762
 40
1.355119937140895
 50
84.84185523032396
 51
164.9381082228992
 73
     0
 72
     2
 10
-54.99906042655834
 20
14.39397686916223
 40
0.996410056523109
 50
164.9381082229042
 51
195.0618917770946
 73
     0
 72
     2
 10
-54.65267377906935
 20
14.30076169392682
 40
1.355119937140591
 50
195.0618917771008
 51
270.0
 73
     0
 72
     1
 10
-54.65267377906935
 20
15.65588163106741
 11
-51.85519814383906
 21
15.65588163106787
 72
     1
 10
-51.85519814383906
 20
15.65588163106787
 11
-51.85519814383906
 21
15.00690203923015
 97
       18
330
204
330
28F
330
290
330
278
330
277
330
268
330
276
330
275
330
291
330
274
330
292
330
273
330
269
330
203
330
208
330
207
330
206
330
205
 75
     1
 76
     0
 52
45.0
 41
0.1
 77
     0
 78
     1
 53
45.0
 43
0.0
 44
0.0
 45
-0.0707106781186548
 46
0.0707106781186548
 79
     0
 98
        1
 10
0.0
 20
0.0
  0
HATCH
  5
324
330
74
100
AcDbEntity
  8
1
  6
Continuous
 62
     2
100
AcDbHatch
 10
0.0
 20
0.0
 30
0.0
210
0.0
220
0.0
230
1.0
  2
_USER
 70
     0
 71
     1
 91
        1
 92
        1
 93
       18
 72
     1
 10
-51.85519814383906
 20
15.00690203923015
 11
-52.52552792687493
 21
15.00690203923015
 72
     1
 10
-52.52552792687493
 20
15.00690203923015
 11
-52.52552792687493
 21
13.13207210725704
 72
     1
 10
-52.52552792687493
 20
13.13207210725704
 11
-53.5113070195755
 21
13.13207210725704
 72
     1
 10
-53.5113070195755
 20
13.13207210725704
 11
-53.5113070195755
 21
15.00690203923015
 72
     1
 10
-53.5113070195755
 20
15.00690203923015
 11
-54.42340561425988
 21
15.00690203923015
 72
     2
 10
-54.42340561425988
 20
14.21804005011771
 40
0.7888619891124407
 50
90.0
 51
109.3371432194314
 73
     1
 72
     2
 10
-54.54462048872574
 20
14.56345738927714
 40
0.4227934381772261
 50
109.337143219486
 51
151.478526742422
 73
     1
 72
     2
 10
-54.23275498617909
 20
14.39397686916223
 40
0.777735318458663
 50
151.4785267423618
 51
208.5214732576687
 73
     1
 72
     2
 10
-54.54462048872574
 20
14.22449634904777
 40
0.4227934381785468
 50
208.5214732576875
 51
246.6277221118393
 73
     1
 72
     2
 10
-54.41533120550002
 20
14.52366330665935
 40
0.7487023016407038
 50
246.627722111814
 51
288.4480761180797
 73
     1
 72
     2
 10
-54.76092437381567
 20
15.55965155131771
 40
1.840813230556003
 50
288.4480761181333
 51
301.9309089499382
 73
     1
 72
     1
 10
-53.78732516553146
 20
13.99737822970626
 11
-53.78732516553146
 21
13.27628979433169
 72
     2
 10
-54.89139782430561
 20
17.13172971648158
 40
4.010410630990744
 50
74.02000874166119
 51
84.8418552303631
 73
     0
 72
     2
 10
-54.65267377906935
 20
14.48719204439762
 40
1.355119937140895
 50
84.84185523032396
 51
164.9381082228992
 73
     0
 72
     2
 10
-54.99906042655834
 20
14.39397686916223
 40
0.996410056523109
 50
164.9381082229042
 51
195.0618917770946
 73
     0
 72
     2
 10
-54.65267377906935
 20
14.30076169392682
 40
1.355119937140591
 50
195.0618917771008
 51
270.0
 73
     0
 72
     1
 10
-54.65267377906935
 20
15.65588163106741
 11
-51.85519814383906
 21
15.65588163106787
 72
     1
 10
-51.85519814383906
 20
15.65588163106787
 11
-51.85519814383906
 21
15.00690203923015
 97
       18
330
204
330
28F
330
290
330
278
330
277
330
268
330
276
330
275
330
291
330
274
330
292
330
273
330
269
330
203
330
208
330
207
330
206
330
205
 75
     1
 76
     0
 52
45.0
 41
0.1
 77
     0
 78
     1
 53
45.0
 43
0.0
 44
0.0
 45
-0.0707106781186548
 46
0.0707106781186548
 79
     0
 98
        1
 10
0.0
 20
0.0
  0
HATCH
  5
325
330
74
100
AcDbEntity
  8
1
  6
Continuous
 62
     2
100
AcDbHatch
 10
0.0
 20
0.0
 30
0.0
210
0.0
220
0.0
230
1.0
  2
_USER
 70
     0
 71
     1
 91
        1
 92
        1
 93
       14
 72
     2
 10
-67.96069153051803
 20
14.30076169392682
 40
1.355119937140908
 50
84.84185523036265
 51
164.9381082228906
 73
     1
 72
     2
 10
-68.30707817800794
 20
14.39397686916223
 40
0.9964100565214622
 50
164.9381082228799
 51
195.0618917770962
 73
     1
 72
     2
 10
-67.96069153051803
 20
14.48719204439762
 40
1.355119937140023
 50
195.0618917770909
 51
275.1581447696391
 73
     1
 72
     2
 10
-68.1994155757543
 20
17.13172971648158
 40
4.010410630990213
 50
275.1581447696246
 51
285.9799912583532
 73
     1
 72
     1
 10
-67.09534291697923
 20
13.27628979433213
 11
-67.09534291697923
 21
13.99737822970672
 72
     2
 10
-68.06894212526436
 20
15.55965155131817
 40
1.840813230556011
 50
58.0690910500376
 51
71.55192388186683
 73
     0
 72
     2
 10
-67.72334895694962
 20
14.52366330665935
 40
0.7487023016403824
 50
71.55192388184291
 51
113.3722778881291
 73
     0
 72
     2
 10
-67.85263824017443
 20
14.22449634904777
 40
0.422793438177528
 50
113.372277888174
 51
151.4785267423084
 73
     0
 72
     2
 10
-67.54077273762869
 20
14.39397686916223
 40
0.7777353184572794
 50
151.4785267422971
 51
208.5214732577313
 73
     0
 72
     2
 10
-67.85263824017443
 20
14.56345738927714
 40
0.4227934381775693
 50
208.5214732576904
 51
246.6277221118017
 73
     0
 72
     2
 10
-67.72334895694962
 20
14.26429043166509
 40
0.7487023016407717
 50
246.6277221118715
 51
288.4480761181457
 73
     0
 72
     2
 10
-68.06894212526436
 20
13.22830218700673
 40
1.840813230556617
 50
288.4480761181331
 51
301.9309089499624
 73
     0
 72
     1
 10
-67.09534291697923
 20
14.79057550861818
 11
-67.09534291697923
 21
15.51166394399277
 72
     2
 10
-68.1994155757543
 20
11.65622402184333
 40
4.010410630990089
 50
74.02000874164679
 51
84.84185523037543
 73
     1
 97
       14
330
297
330
298
330
299
330
29A
330
26A
330
270
330
26F
330
26E
330
29B
330
29C
330
26D
330
29D
330
26B
330
26C
 75
     1
 76
     0
 52
45.0
 41
0.1
 77
     0
 78
     1
 53
45.0
 43
0.0
 44
0.0
 45
-0.0707106781186548
 46
0.0707106781186548
 79
     0
 98
        1
 10
0.0
 20
0.0
  0
HATCH
  5
326
330
74
100
AcDbEntity
  8
1
  6
Continuous
 62
     2
100
AcDbHatch
 10
0.0
 20
0.0
 30
0.0
210
0.0
220
0.0
230
1.0
  2
_USER
 70
     0
 71
     1
 91
        1
 92
        1
 93
       14
 72
     2
 10
-67.96069153051803
 20
14.30076169392682
 40
1.355119937140908
 50
84.84185523036265
 51
164.9381082228906
 73
     1
 72
     2
 10
-68.30707817800794
 20
14.39397686916223
 40
0.9964100565214622
 50
164.9381082228799
 51
195.0618917770962
 73
     1
 72
     2
 10
-67.96069153051803
 20
14.48719204439762
 40
1.355119937140023
 50
195.0618917770909
 51
275.1581447696391
 73
     1
 72
     2
 10
-68.1994155757543
 20
17.13172971648158
 40
4.010410630990213
 50
275.1581447696246
 51
285.9799912583532
 73
     1
 72
     1
 10
-67.09534291697923
 20
13.27628979433213
 11
-67.09534291697923
 21
13.99737822970672
 72
     2
 10
-68.06894212526436
 20
15.55965155131817
 40
1.840813230556011
 50
58.0690910500376
 51
71.55192388186683
 73
     0
 72
     2
 10
-67.72334895694962
 20
14.52366330665935
 40
0.7487023016403824
 50
71.55192388184291
 51
113.3722778881291
 73
     0
 72
     2
 10
-67.85263824017443
 20
14.22449634904777
 40
0.422793438177528
 50
113.372277888174
 51
151.4785267423084
 73
     0
 72
     2
 10
-67.54077273762869
 20
14.39397686916223
 40
0.7777353184572794
 50
151.4785267422971
 51
208.5214732577313
 73
     0
 72
     2
 10
-67.85263824017443
 20
14.56345738927714
 40
0.4227934381775693
 50
208.5214732576904
 51
246.6277221118017
 73
     0
 72
     2
 10
-67.72334895694962
 20
14.26429043166509
 40
0.7487023016407717
 50
246.6277221118715
 51
288.4480761181457
 73
     0
 72
     2
 10
-68.06894212526436
 20
13.22830218700673
 40
1.840813230556617
 50
288.4480761181331
 51
301.9309089499624
 73
     0
 72
     1
 10
-67.09534291697923
 20
14.79057550861818
 11
-67.09534291697923
 21
15.51166394399277
 72
     2
 10
-68.1994155757543
 20
11.65622402184333
 40
4.010410630990089
 50
74.02000874164679
 51
84.84185523037543
 73
     1
 97
       14
330
297
330
298
330
299
330
29A
330
26A
330
270
330
26F
330
26E
330
29B
330
29C
330
26D
330
29D
330
26B
330
26C
 75
     1
 76
     0
 52
45.0
 41
0.1
 77
     0
 78
     1
 53
45.0
 43
0.0
 44
0.0
 45
-0.0707106781186548
 46
0.0707106781186548
 79
     0
 98
        1
 10
0.0
 20
0.0
  0
ENDBLK
  5
76
330
74
100
AcDbEntity
  8
0
100
AcDbBlockEnd
  0
BLOCK
  5
7A
330
77
100
AcDbEntity
  8
0
100
AcDbBlockBegin
  2
A4I
 70
     0
 10
47.9623302529381
 20
2.28207210725108
 30
0.0
  3
A4I
  1

  0
INSERT
  5
78
330
77
100
AcDbEntity
  8
1
100
AcDbBlockReference
  2
_punkt
 10
47.9623302529381
 20
7.28207210725119
 30
0.0
  0
INSERT
  5
79
330
77
100
AcDbEntity
  8
1
100
AcDbBlockReference
  2
_rahmen
 10
47.9623302529381
 20
2.28207210725108
 30
0.0
  0
ENDBLK
  5
7B
330
77
100
AcDbEntity
  8
0
100
AcDbBlockEnd
  0
BLOCK
  5
B3
330
AA
100
AcDbEntity
  8
0
100
AcDbBlockBegin
  2
*D16
 70
     1
 10
0.0
 20
0.0
 30
0.0
  3
*D16
  1

  0
LINE
  5
AB
330
AA
100
AcDbEntity
  8
1
  6
Continuous
 62
     2
100
AcDbLine
 10
-47.26947760811998
 20
39.50000095367431
 30
0.0
 11
-47.26947760811998
 21
43.00000095367431
 31
0.0
  0
LINE
  5
AC
330
AA
100
AcDbEntity
  8
1
  6
Continuous
 62
     2
100
AcDbLine
 10
-47.26947760811998
 20
43.00000095367431
 30
0.0
 11
-47.26947760811998
 21
47.00000095367431
 31
0.0
  0
LINE
  5
AD
330
AA
100
AcDbEntity
  8
1
  6
Continuous
 62
     2
100
AcDbLine
 10
-47.26947760811998
 20
47.00000095367431
 30
0.0
 11
-47.26947760811998
 21
50.50000095367431
 31
0.0
  0
LINE
  5
AE
330
AA
100
AcDbEntity
  8
1
  6
Continuous
 62
     2
100
AcDbLine
 10
-53.76393202252019
 20
43.00000095367431
 30
0.0
 11
-46.26947760811998
 21
43.00000095367431
 31
0.0
  0
LINE
  5
AF
330
AA
100
AcDbEntity
  8
1
  6
Continuous
 62
     2
100
AcDbLine
 10
-53.76393202252019
 20
47.00000095367431
 30
0.0
 11
-46.26947760811998
 21
47.00000095367431
 31
0.0
  0
SOLID
  5
B0
330
AA
100
AcDbEntity
  8
1
 62
     2
100
AcDbTrace
 10
-47.03908573734203
 20
41.25000095367431
 30
0.0
 11
-47.49986947889792
 21
41.25000095367431
 31
0.0
 12
-47.26947760811998
 22
43.00000095367431
 32
0.0
 13
-47.26947760811998
 23
43.00000095367431
 33
0.0
  0
SOLID
  5
B1
330
AA
100
AcDbEntity
  8
1
 62
     2
100
AcDbTrace
 10
-47.49986947889792
 20
48.75000095367431
 30
0.0
 11
-47.03908573734203
 21
48.75000095367431
 31
0.0
 12
-47.26947760811998
 22
47.00000095367431
 32
0.0
 13
-47.26947760811998
 23
47.00000095367431
 33
0.0
  0
MTEXT
  5
B2
330
AA
100
AcDbEntity
  8
1
 62
     3
100
AcDbMText
 10
-48.26947760811998
 20
44.45505901575293
 30
0.0
 40
1.75
 41
0.0
 71
     7
 72
     1
  1
4
  7
CONVERTER_11
 11
0.0
 21
1.0
 31
0.0
 73
     1
 44
0.60024009603842
  0
ENDBLK
  5
B4
330
AA
100
AcDbEntity
  8
0
100
AcDbBlockEnd
  0
BLOCK
  5
101
330
FA
100
AcDbEntity
  8
0
100
AcDbBlockBegin
  2
*D17
 70
     1
 10
0.0
 20
0.0
 30
0.0
  3
*D17
  1

  0
LINE
  5
FB
330
FA
100
AcDbEntity
  8
1
  6
Continuous
 62
     2
100
AcDbLine
 10
-53.00000000002
 20
56.14945664020399
 30
0.0
 11
-59.00000000001999
 21
56.14945664020399
 31
0.0
  0
LINE
  5
FC
330
FA
100
AcDbEntity
  8
1
  6
Continuous
 62
     2
100
AcDbLine
 10
-53.00000000002
 20
62.00000057224458
 30
0.0
 11
-53.00000000002
 21
55.14945664020399
 31
0.0
  0
LINE
  5
FD
330
FA
100
AcDbEntity
  8
1
  6
Continuous
 62
     2
100
AcDbLine
 10
-59.00000000001999
 20
62.00000057224458
 30
0.0
 11
-59.00000000001999
 21
55.14945664020399
 31
0.0
  0
SOLID
  5
FE
330
FA
100
AcDbEntity
  8
1
 62
     2
100
AcDbTrace
 10
-54.75000000002
 20
55.91906476942604
 30
0.0
 11
-54.75000000002
 21
56.37984851098193
 31
0.0
 12
-53.00000000002
 22
56.14945664020399
 32
0.0
 13
-53.00000000002
 23
56.14945664020399
 33
0.0
  0
SOLID
  5
FF
330
FA
100
AcDbEntity
  8
1
 62
     2
100
AcDbTrace
 10
-57.25000000001999
 20
56.37984851098193
 30
0.0
 11
-57.25000000001999
 21
55.91906476942604
 31
0.0
 12
-59.00000000001999
 22
56.14945664020399
 32
0.0
 13
-59.00000000001999
 23
56.14945664020399
 33
0.0
  0
MTEXT
  5
100
330
FA
100
AcDbEntity
  8
1
 62
     3
100
AcDbMText
 10
-56.67743950076349
 20
57.14945664020399
 30
0.0
 40
1.75
 41
0.0
 71
     7
 72
     1
  1
6
  7
CONVERTER_11
 11
0.9999999999970619
 21
2.424068405545306E-6
 31
0.0
 73
     1
 44
0.60024009603842
  0
ENDBLK
  5
102
330
FA
100
AcDbEntity
  8
0
100
AcDbBlockEnd
  0
BLOCK
  5
10C
330
105
100
AcDbEntity
  8
0
100
AcDbBlockBegin
  2
*D18
 70
     1
 10
0.0
 20
0.0
 30
0.0
  3
*D18
  1

  0
LINE
  5
106
330
105
100
AcDbEntity
  8
1
  6
Continuous
 62
     2
100
AcDbLine
 10
-46.48418903982299
 20
81.0000005722446
 30
0.0
 11
-46.48418903982299
 21
69.00000057224459
 31
0.0
  0
LINE
  5
107
330
105
100
AcDbEntity
  8
1
  6
Continuous
 62
     2
100
AcDbLine
 10
-54.82500000002
 20
81.0000005722446
 30
0.0
 11
-45.48418903982299
 21
81.0000005722446
 31
0.0
  0
LINE
  5
108
330
105
100
AcDbEntity
  8
1
  6
Continuous
 62
     2
100
AcDbLine
 10
-56.00000000002
 20
69.00000057224459
 30
0.0
 11
-45.48418903982299
 21
69.00000057224459
 31
0.0
  0
SOLID
  5
109
330
105
100
AcDbEntity
  8
1
 62
     2
100
AcDbTrace
 10
-46.25379716904505
 20
79.2500005722446
 30
0.0
 11
-46.71458091060094
 21
79.2500005722446
 31
0.0
 12
-46.48418903982299
 22
81.0000005722446
 32
0.0
 13
-46.48418903982299
 23
81.0000005722446
 33
0.0
  0
SOLID
  5
10A
330
105
100
AcDbEntity
  8
1
 62
     2
100
AcDbTrace
 10
-46.71458091060094
 20
70.75000057224459
 30
0.0
 11
-46.25379716904505
 21
70.75000057224459
 31
0.0
 12
-46.48418903982299
 22
69.00000057224459
 32
0.0
 13
-46.48418903982299
 23
69.00000057224459
 33
0.0
  0
MTEXT
  5
10B
330
105
100
AcDbEntity
  8
1
 62
     3
100
AcDbMText
 10
-47.48418903982299
 20
74.356968052775
 30
0.0
 40
1.75
 41
0.0
 71
     7
 72
     1
  1
12
  7
CONVERTER_11
 11
0.0
 21
1.0
 31
0.0
 73
     1
 44
0.60024009603842
  0
ENDBLK
  5
10D
330
105
100
AcDbEntity
  8
0
100
AcDbBlockEnd
  0
BLOCK
  5
117
330
110
100
AcDbEntity
  8
0
100
AcDbBlockBegin
  2
*D19
 70
     1
 10
0.0
 20
0.0
 30
0.0
  3
*D19
  1

  0
LINE
  5
111
330
110
100
AcDbEntity
  8
1
  6
Continuous
 62
     2
100
AcDbLine
 10
-42.29724699461834
 20
81.0000005722446
 30
0.0
 11
-42.29724699461834
 21
62.00000057224459
 31
0.0
  0
LINE
  5
112
330
110
100
AcDbEntity
  8
1
  6
Continuous
 62
     2
100
AcDbLine
 10
-57.17500000001999
 20
81.0000005722446
 30
0.0
 11
-41.29724699461834
 21
81.0000005722446
 31
0.0
  0
LINE
  5
113
330
110
100
AcDbEntity
  8
1
  6
Continuous
 62
     2
100
AcDbLine
 10
-53.7639320225202
 20
62.00000057224459
 30
0.0
 11
-41.29724699461834
 21
62.00000057224459
 31
0.0
  0
SOLID
  5
114
330
110
100
AcDbEntity
  8
1
 62
     2
100
AcDbTrace
 10
-42.0668551238404
 20
79.2500005722446
 30
0.0
 11
-42.52763886539628
 21
79.2500005722446
 31
0.0
 12
-42.29724699461834
 22
81.0000005722446
 32
0.0
 13
-42.29724699461834
 23
81.0000005722446
 33
0.0
  0
SOLID
  5
115
330
110
100
AcDbEntity
  8
1
 62
     2
100
AcDbTrace
 10
-42.52763886539628
 20
63.75000057224459
 30
0.0
 11
-42.0668551238404
 21
63.75000057224459
 31
0.0
 12
-42.29724699461834
 22
62.00000057224459
 32
0.0
 13
-42.29724699461834
 23
62.00000057224459
 33
0.0
  0
MTEXT
  5
116
330
110
100
AcDbEntity
  8
1
 62
     3
100
AcDbMText
 10
-43.29724699461834
 20
70.767865186199
 30
0.0
 40
1.75
 41
0.0
 71
     7
 72
     1
  1
19
  7
CONVERTER_11
 11
0.0
 21
1.0
 31
0.0
 73
     1
 44
0.60024009603842
  0
ENDBLK
  5
118
330
110
100
AcDbEntity
  8
0
100
AcDbBlockEnd
  0
BLOCK
  5
124
330
11B
100
AcDbEntity
  8
0
100
AcDbBlockBegin
  2
*D20
 70
     1
 10
0.0
 20
0.0
 30
0.0
  3
*D20
  1

  0
LINE
  5
11C
330
11B
100
AcDbEntity
  8
1
  6
Continuous
 62
     2
100
AcDbLine
 10
-60.67500000002
 20
86.0000005722446
 30
0.0
 11
-57.17500000001999
 21
86.0000005722446
 31
0.0
  0
LINE
  5
11D
330
11B
100
AcDbEntity
  8
1
  6
Continuous
 62
     2
100
AcDbLine
 10
-57.17500000001999
 20
86.0000005722446
 30
0.0
 11
-54.82500000001999
 21
86.0000005722446
 31
0.0
  0
LINE
  5
11E
330
11B
100
AcDbEntity
  8
1
  6
Continuous
 62
     2
100
AcDbLine
 10
-54.82500000001999
 20
86.0000005722446
 30
0.0
 11
-44.8381494718645
 21
86.0000005722446
 31
0.0
  0
LINE
  5
11F
330
11B
100
AcDbEntity
  8
1
  6
Continuous
 62
     2
100
AcDbLine
 10
-57.17500000001999
 20
81.0000005722446
 30
0.0
 11
-57.17500000001999
 21
87.0000005722446
 31
0.0
  0
LINE
  5
120
330
11B
100
AcDbEntity
  8
1
  6
Continuous
 62
     2
100
AcDbLine
 10
-54.82500000001999
 20
81.0000005722446
 30
0.0
 11
-54.82500000001999
 21
87.0000005722446
 31
0.0
  0
SOLID
  5
121
330
11B
100
AcDbEntity
  8
1
 62
     2
100
AcDbTrace
 10
-58.92500000001999
 20
85.76960870146667
 30
0.0
 11
-58.92500000001999
 21
86.23039244302254
 31
0.0
 12
-57.17500000001999
 22
86.0000005722446
 32
0.0
 13
-57.17500000001999
 23
86.0000005722446
 33
0.0
  0
SOLID
  5
122
330
11B
100
AcDbEntity
  8
1
 62
     2
100
AcDbTrace
 10
-53.07500000001999
 20
86.23039244302254
 30
0.0
 11
-53.07500000001999
 21
85.76960870146667
 31
0.0
 12
-54.82500000001999
 22
86.0000005722446
 32
0.0
 13
-54.82500000001999
 23
86.0000005722446
 33
0.0
  0
MTEXT
  5
123
330
11B
100
AcDbEntity
  8
1
 62
     3
100
AcDbMText
 10
-52.52064947185607
 20
87.17499361516829
 30
0.0
 40
1.75
 41
0.0
 71
     7
 72
     1
  1
\C3; {\Fgdt;n}\C3;2,35
  7
CONVERTER_11
 11
0.9999999999970619
 21
2.424068405545306E-6
 31
0.0
 73
     1
 44
0.60024009603842
  0
ENDBLK
  5
125
330
11B
100
AcDbEntity
  8
0
100
AcDbBlockEnd
  0
ENDSEC
  0
SECTION
  2
ENTITIES
  0
INSERT
  5
7C
330
1F
100
AcDbEntity
  8
0
100
AcDbBlockReference
  2
Allg1
 10
-3.00000000001813
 20
74.00000000004002
 30
0.0
 41
2.0
 42
2.0
 43
2.0
  0
INSERT
  5
7D
330
1F
100
AcDbEntity
  8
0
100
AcDbBlockReference
  2
Drfsicht1
 10
-112.00000000002
 20
90.00000190734862
 30
0.0
 41
2.0
 42
2.0
 43
2.0
  0
INSERT
  5
7E
330
1F
100
AcDbEntity
  8
0
100
AcDbBlockReference
  2
Rckans1
 10
-18.99999999997999
 20
143.00000000004
 30
0.0
 41
2.0
 42
2.0
 43
2.0
  0
INSERT
  5
7F
330
1F
100
AcDbEntity
  8
0
100
AcDbBlockReference
  2
SA_Links1
 10
-56.0
 20
143.00000000004
 30
0.0
 41
2.0
 42
2.0
 43
2.0
  0
INSERT
  5
80
330
1F
100
AcDbEntity
  8
0
100
AcDbBlockReference
  2
SA_Rechts1
 10
-153.0
 20
143.00000000004
 30
0.0
 41
2.0
 42
2.0
 43
2.0
  0
INSERT
  5
81
330
1F
100
AcDbEntity
  8
0
100
AcDbBlockReference
  2
Vordans1
 10
-112.00000000002
 20
143.00000000004
 30
0.0
 41
2.0
 42
2.0
 43
2.0
  0
INSERT
  5
82
330
1F
100
AcDbEntity
  8
0
100
AcDbBlockReference
  2
A4I
 10
47.9623302529381
 20
2.28207210725108
 30
0.0
  0
ENDSEC
  0
SECTION
  2
OBJECTS
  0
DICTIONARY
  5
C
330
0
100
AcDbDictionary
281
     1
  3
ACAD_GROUP
350
D
  3
ACAD_LAYOUT
350
1A
  3
ACAD_MATERIAL
350
3B
  3
ACAD_MLEADERSTYLE
350
329
  3
ACAD_MLINESTYLE
350
17
  3
ACAD_PLOTSETTINGS
350
19
  3
ACAD_PLOTSTYLENAME
350
E
  3
ACAD_VISUALSTYLE
350
2A
  3
AcDbVariableDictionary
350
327
  0
DICTIONARY
  5
D
102
{ACAD_REACTORS
330
C
102
}
330
C
100
AcDbDictionary
281
     1
  0
DICTIONARY
  5
1A
102
{ACAD_REACTORS
330
C
102
}
330
C
100
AcDbDictionary
281
     1
  3
Layout1
350
1E
  3
Layout2
350
26
  3
Model
350
22
  0
DICTIONARY
  5
3B
102
{ACAD_REACTORS
330
C
102
}
330
C
100
AcDbDictionary
281
     1
  3
ByBlock
350
3D
  3
ByLayer
350
3C
  3
Global
350
3E
  0
DICTIONARY
  5
329
102
{ACAD_REACTORS
330
C
102
}
330
C
100
AcDbDictionary
281
     1
  0
DICTIONARY
  5
17
102
{ACAD_REACTORS
330
C
102
}
330
C
100
AcDbDictionary
281
     1
  3
Standard
350
18
  0
DICTIONARY
  5
19
102
{ACAD_REACTORS
330
C
102
}
330
C
100
AcDbDictionary
281
     1
  0
ACDBDICTIONARYWDFLT
  5
E
102
{ACAD_REACTORS
330
C
102
}
330
C
100
AcDbDictionary
281
     1
  3
Normal
350
F
100
AcDbDictionaryWithDefault
340
F
  0
DICTIONARY
  5
2A
102
{ACAD_REACTORS
330
C
102
}
330
C
100
AcDbDictionary
281
     1
  3
2dWireframe
350
2F
  3
3D Hidden
350
31
  3
3dWireframe
350
30
  3
Basic
350
32
  3
Brighten
350
36
  3
ColorChange
350
3A
  3
Conceptual
350
34
  3
Dim
350
35
  3
Facepattern
350
39
  3
Flat
350
2B
  3
FlatWithEdges
350
2C
  3
Gouraud
350
2D
  3
GouraudWithEdges
350
2E
  3
Linepattern
350
38
  3
Realistic
350
33
  3
Thicken
350
37
  0
DICTIONARY
  5
327
102
{ACAD_REACTORS
330
C
102
}
330
C
100
AcDbDictionary
281
     1
  3
DIMASSOC
350
32A
  3
HIDETEXT
350
32B
  0
LAYOUT
  5
1E
102
{ACAD_REACTORS
330
1A
102
}
330
1A
100
AcDbPlotSettings
  1

  2
none_device
  4

  6

 40
0.0
 41
0.0
 42
0.0
 43
0.0
 44
0.0
 45
0.0
 46
0.0
 47
0.0
 48
0.0
 49
0.0
140
0.0
141
0.0
142
1.0
143
1.0
 70
   688
 72
     0
 73
     0
 74
     5
  7

 75
    16
147
1.0
148
0.0
149
0.0
100
AcDbLayout
  1
Layout1
 70
     1
 71
     1
 10
0.0
 20
0.0
 11
12.0
 21
9.0
 12
0.0
 22
0.0
 32
0.0
 14
1.00000000000000E+20
 24
1.00000000000000E+20
 34
1.00000000000000E+20
 15
-1.00000000000000E+20
 25
-1.00000000000000E+20
 35
-1.00000000000000E+20
146
0.0
 13
0.0
 23
0.0
 33
0.0
 16
1.0
 26
0.0
 36
0.0
 17
0.0
 27
1.0
 37
0.0
 76
     0
330
1B
  0
LAYOUT
  5
26
102
{ACAD_REACTORS
330
1A
102
}
330
1A
100
AcDbPlotSettings
  1

  2
none_device
  4

  6

 40
0.0
 41
0.0
 42
0.0
 43
0.0
 44
0.0
 45
0.0
 46
0.0
 47
0.0
 48
0.0
 49
0.0
140
0.0
141
0.0
142
1.0
143
1.0
 70
   688
 72
     0
 73
     0
 74
     5
  7

 75
    16
147
1.0
148
0.0
149
0.0
100
AcDbLayout
  1
Layout2
 70
     1
 71
     2
 10
0.0
 20
0.0
 11
0.0
 21
0.0
 12
0.0
 22
0.0
 32
0.0
 14
0.0
 24
0.0
 34
0.0
 15
0.0
 25
0.0
 35
0.0
146
0.0
 13
0.0
 23
0.0
 33
0.0
 16
1.0
 26
0.0
 36
0.0
 17
0.0
 27
1.0
 37
0.0
 76
     0
330
23
  0
LAYOUT
  5
22
102
{ACAD_REACTORS
330
1A
102
}
330
1A
100
AcDbPlotSettings
  1

  2
none_device
  4

  6

 40
0.0
 41
0.0
 42
0.0
 43
0.0
 44
0.0
 45
0.0
 46
0.0
 47
0.0
 48
0.0
 49
0.0
140
0.0
141
0.0
142
1.0
143
1.0
 70
  1712
 72
     0
 73
     0
 74
     0
  7

 75
     0
147
1.0
148
0.0
149
0.0
100
AcDbLayout
  1
Model
 70
     1
 71
     0
 10
0.0
 20
0.0
 11
12.0
 21
9.0
 12
0.0
 22
0.0
 32
0.0
 14
-244.037669747061
 24
2.28207210725108
 34
0.0
 15
52.96233025293711
 25
212.2820721072511
 35
0.0
146
0.0
 13
0.0
 23
0.0
 33
0.0
 16
1.0
 26
0.0
 36
0.0
 17
0.0
 27
1.0
 37
0.0
 76
     0
330
1F
331
29
  0
MATERIAL
  5
3D
102
{ACAD_REACTORS
330
3B
102
}
102
{ACAD_XDICTIONARY
360
34E
102
}
330
3B
100
AcDbMaterial
  1
ByBlock
  0
MATERIAL
  5
3C
102
{ACAD_REACTORS
330
3B
102
}
102
{ACAD_XDICTIONARY
360
34C
102
}
330
3B
100
AcDbMaterial
  1
ByLayer
  0
MATERIAL
  5
3E
102
{ACAD_REACTORS
330
3B
102
}
102
{ACAD_XDICTIONARY
360
350
102
}
330
3B
100
AcDbMaterial
  1
Global
  0
MLINESTYLE
  5
18
102
{ACAD_REACTORS
330
17
102
}
330
17
100
AcDbMlineStyle
  2
Standard
 70
     0
  3

 62
   256
 51
90.0
 52
90.0
 71
     2
 49
0.5
 62
   256
  6
BYLAYER
 49
-0.5
 62
   256
  6
BYLAYER
  0
ACDBPLACEHOLDER
  5
F
102
{ACAD_REACTORS
330
E
102
}
330
E
  0
VISUALSTYLE
  5
2F
102
{ACAD_REACTORS
330
2A
102
}
102
{ACAD_XDICTIONARY
360
334
102
}
330
2A
100
AcDbVisualStyle
  2
2dWireframe
 70
     4
 71
     0
 72
     2
 73
     0
 90
        0
 40
-0.6
 41
-30.0
 62
     5
 63
     7
 74
     1
 91
        4
 64
     7
 65
   257
 75
     1
175
     1
 42
1.0
 92
        0
 66
   257
 43
1.0
 76
     1
 77
     6
 78
     2
 67
     7
 79
     5
170
     0
171
     0
290
     0
174
     0
 93
        1
 44
0.0
173
     0
291
     0
 45
0.0
1001
ACAD
1000
AcDbSavedByObjectVersion
1070
     0
  0
VISUALSTYLE
  5
31
102
{ACAD_REACTORS
330
2A
102
}
102
{ACAD_XDICTIONARY
360
338
102
}
330
2A
100
AcDbVisualStyle
  2
3D Hidden
 70
     6
 71
     1
 72
     2
 73
     2
 90
        0
 40
-0.6
 41
-30.0
 62
     5
 63
     7
 74
     2
 91
        2
 64
     7
 65
   257
 75
     2
175
     1
 42
40.0
 92
        0
 66
   257
 43
1.0
 76
     1
 77
     6
 78
     2
 67
     7
 79
     3
170
     0
171
     0
290
     0
174
     0
 93
        1
 44
0.0
173
     0
291
     0
 45
0.0
1001
ACAD
1000
AcDbSavedByObjectVersion
1070
     0
  0
VISUALSTYLE
  5
30
102
{ACAD_REACTORS
330
2A
102
}
102
{ACAD_XDICTIONARY
360
336
102
}
330
2A
100
AcDbVisualStyle
  2
3dWireframe
 70
     5
 71
     0
 72
     2
 73
     0
 90
        0
 40
-0.6
 41
-30.0
 62
     5
 63
     7
 74
     1
 91
        4
 64
     7
 65
   257
 75
     1
175
     1
 42
1.0
 92
        0
 66
   257
 43
1.0
 76
     1
 77
     6
 78
     2
 67
     7
 79
     5
170
     0
171
     0
290
     0
174
     0
 93
        1
 44
0.0
173
     0
291
     0
 45
0.0
1001
ACAD
1000
AcDbSavedByObjectVersion
1070
     0
  0
VISUALSTYLE
  5
32
102
{ACAD_REACTORS
330
2A
102
}
102
{ACAD_XDICTIONARY
360
33A
102
}
330
2A
100
AcDbVisualStyle
  2
Basic
 70
     7
 71
     1
 72
     0
 73
     1
 90
        0
 40
-0.6
 41
-30.0
 62
     5
 63
     7
 74
     0
 91
        4
 64
     7
 65
   257
 75
     1
175
     1
 42
1.0
 92
        8
 66
     7
 43
1.0
 76
     1
 77
     6
 78
     2
 67
     7
 79
     5
170
     0
171
     0
290
     0
174
     0
 93
        1
 44
0.0
173
     0
291
     1
 45
0.0
1001
ACAD
1000
AcDbSavedByObjectVersion
1070
     0
  0
VISUALSTYLE
  5
36
102
{ACAD_REACTORS
330
2A
102
}
102
{ACAD_XDICTIONARY
360
342
102
}
330
2A
100
AcDbVisualStyle
  2
Brighten
 70
    12
 71
     2
 72
     2
 73
     0
 90
        0
 40
-0.6
 41
-30.0
 62
     5
 63
     7
 74
     1
 91
        4
 64
     7
 65
   257
 75
     1
175
     1
 42
1.0
 92
        8
 66
     7
 43
1.0
 76
     1
 77
     6
 78
     2
 67
     7
 79
     5
170
     0
171
     0
290
     0
174
     0
 93
        1
 44
50.0
173
     0
291
     1
 45
0.0
1001
ACAD
1000
AcDbSavedByObjectVersion
1070
     0
  0
VISUALSTYLE
  5
3A
102
{ACAD_REACTORS
330
2A
102
}
102
{ACAD_XDICTIONARY
360
34A
102
}
330
2A
100
AcDbVisualStyle
  2
ColorChange
 70
    16
 71
     2
 72
     2
 73
     3
 90
        0
 40
-0.6
 41
-30.0
 62
     5
 63
     8
 74
     1
 91
        4
 64
     7
 65
   257
 75
     1
175
     1
 42
1.0
 92
        8
 66
     8
 43
1.0
 76
     1
 77
     6
 78
     2
 67
     7
 79
     5
170
     0
171
     0
290
     0
174
     0
 93
        1
 44
0.0
173
     0
291
     1
 45
0.0
1001
ACAD
1000
AcDbSavedByObjectVersion
1070
     0
  0
VISUALSTYLE
  5
34
102
{ACAD_REACTORS
330
2A
102
}
102
{ACAD_XDICTIONARY
360
33E
102
}
330
2A
100
AcDbVisualStyle
  2
Conceptual
 70
     9
 71
     3
 72
     2
 73
     0
 90
        0
 40
-0.6
 41
-30.0
 62
     5
 63
     7
 74
     2
 91
        2
 64
     7
 65
   257
 75
     1
175
     1
 42
40.0
 92
        8
 66
     7
 43
1.0
 76
     1
 77
     6
 78
     2
 67
     7
 79
     3
170
     0
171
     0
290
     0
174
     0
 93
        1
 44
0.0
173
     0
291
     0
 45
0.0
1001
ACAD
1000
AcDbSavedByObjectVersion
1070
     0
  0
VISUALSTYLE
  5
35
102
{ACAD_REACTORS
330
2A
102
}
102
{ACAD_XDICTIONARY
360
340
102
}
330
2A
100
AcDbVisualStyle
  2
Dim
 70
    11
 71
     2
 72
     2
 73
     0
 90
        0
 40
-0.6
 41
-30.0
 62
     5
 63
     7
 74
     1
 91
        4
 64
     7
 65
   257
 75
     1
175
     1
 42
1.0
 92
        8
 66
     7
 43
1.0
 76
     1
 77
     6
 78
     2
 67
     7
 79
     5
170
     0
171
     0
290
     0
174
     0
 93
        1
 44
-50.0
173
     0
291
     1
 45
0.0
1001
ACAD
1000
AcDbSavedByObjectVersion
1070
     0
  0
VISUALSTYLE
  5
39
102
{ACAD_REACTORS
330
2A
102
}
102
{ACAD_XDICTIONARY
360
348
102
}
330
2A
100
AcDbVisualStyle
  2
Facepattern
 70
    15
 71
     2
 72
     2
 73
     0
 90
        0
 40
-0.6
 41
-30.0
 62
     5
 63
     7
 74
     1
 91
        4
 64
     7
 65
   257
 75
     1
175
     1
 42
1.0
 92
        8
 66
     7
 43
1.0
 76
     1
 77
     6
 78
     2
 67
     7
 79
     5
170
     0
171
     0
290
     0
174
     0
 93
        1
 44
0.0
173
     0
291
     1
 45
0.0
1001
ACAD
1000
AcDbSavedByObjectVersion
1070
     0
  0
VISUALSTYLE
  5
2B
102
{ACAD_REACTORS
330
2A
102
}
102
{ACAD_XDICTIONARY
360
32C
102
}
330
2A
100
AcDbVisualStyle
  2
Flat
 70
     0
 71
     2
 72
     1
 73
     1
 90
        2
 40
-0.6
 41
30.0
 62
     5
 63
     7
 74
     0
 91
        4
 64
     7
 65
   257
 75
     1
175
     1
 42
1.0
 92
        8
 66
     7
 43
1.0
 76
     1
 77
     6
 78
     2
 67
     7
 79
     5
170
     0
171
     0
290
     0
174
     0
 93
       13
 44
0.0
173
     0
291
     1
 45
0.0
1001
ACAD
1000
AcDbSavedByObjectVersion
1070
     0
  0
VISUALSTYLE
  5
2C
102
{ACAD_REACTORS
330
2A
102
}
102
{ACAD_XDICTIONARY
360
32E
102
}
330
2A
100
AcDbVisualStyle
  2
FlatWithEdges
 70
     1
 71
     2
 72
     1
 73
     1
 90
        2
 40
-0.6
 41
30.0
 62
     5
 63
     7
 74
     1
 91
        4
 64
     7
 65
   257
 75
     1
175
     1
 42
1.0
 92
        0
 66
   257
 43
1.0
 76
     1
 77
     6
 78
     2
 67
     7
 79
     5
170
     0
171
     0
290
     0
174
     0
 93
       13
 44
0.0
173
     0
291
     1
 45
0.0
1001
ACAD
1000
AcDbSavedByObjectVersion
1070
     0
  0
VISUALSTYLE
  5
2D
102
{ACAD_REACTORS
330
2A
102
}
102
{ACAD_XDICTIONARY
360
330
102
}
330
2A
100
AcDbVisualStyle
  2
Gouraud
 70
     2
 71
     2
 72
     2
 73
     1
 90
        2
 40
-0.6
 41
30.0
 62
     5
 63
     7
 74
     0
 91
        4
 64
     7
 65
   257
 75
     1
175
     1
 42
1.0
 92
        0
 66
     7
 43
1.0
 76
     1
 77
     6
 78
     2
 67
     7
 79
     5
170
     0
171
     0
290
     0
174
     0
 93
       13
 44
0.0
173
     0
291
     1
 45
0.0
1001
ACAD
1000
AcDbSavedByObjectVersion
1070
     0
  0
VISUALSTYLE
  5
2E
102
{ACAD_REACTORS
330
2A
102
}
102
{ACAD_XDICTIONARY
360
332
102
}
330
2A
100
AcDbVisualStyle
  2
GouraudWithEdges
 70
     3
 71
     2
 72
     2
 73
     1
 90
        2
 40
-0.6
 41
30.0
 62
     5
 63
     7
 74
     1
 91
        4
 64
     7
 65
   257
 75
     1
175
     1
 42
1.0
 92
        0
 66
   257
 43
1.0
 76
     1
 77
     6
 78
     2
 67
     7
 79
     5
170
     0
171
     0
290
     0
174
     0
 93
       13
 44
0.0
173
     0
291
     1
 45
0.0
1001
ACAD
1000
AcDbSavedByObjectVersion
1070
     0
  0
VISUALSTYLE
  5
38
102
{ACAD_REACTORS
330
2A
102
}
102
{ACAD_XDICTIONARY
360
346
102
}
330
2A
100
AcDbVisualStyle
  2
Linepattern
 70
    14
 71
     2
 72
     2
 73
     0
 90
        0
 40
-0.6
 41
-30.0
 62
     5
 63
     7
 74
     1
 91
        4
 64
     7
 65
   257
 75
     7
175
     7
 42
1.0
 92
        8
 66
     7
 43
1.0
 76
     1
 77
     6
 78
     2
 67
     7
 79
     5
170
     0
171
     0
290
     0
174
     0
 93
        1
 44
0.0
173
     0
291
     1
 45
0.0
1001
ACAD
1000
AcDbSavedByObjectVersion
1070
     0
  0
VISUALSTYLE
  5
33
102
{ACAD_REACTORS
330
2A
102
}
102
{ACAD_XDICTIONARY
360
33C
102
}
330
2A
100
AcDbVisualStyle
  2
Realistic
 70
     8
 71
     2
 72
     2
 73
     0
 90
        0
 40
-0.6
 41
-30.0
 62
     5
 63
     7
 74
     1
 91
        0
 64
     7
 65
   257
 75
     1
175
     1
 42
1.0
 92
        8
 66
     8
 43
1.0
 76
     1
 77
     6
 78
     2
 67
     7
 79
     5
170
     0
171
     0
290
     0
174
     0
 93
       13
 44
0.0
173
     0
291
     0
 45
0.0
1001
ACAD
1000
AcDbSavedByObjectVersion
1070
     0
  0
VISUALSTYLE
  5
37
102
{ACAD_REACTORS
330
2A
102
}
102
{ACAD_XDICTIONARY
360
344
102
}
330
2A
100
AcDbVisualStyle
  2
Thicken
 70
    13
 71
     2
 72
     2
 73
     0
 90
        0
 40
-0.6
 41
-30.0
 62
     5
 63
     7
 74
     1
 91
        4
 64
     7
 65
   257
 75
     1
175
     1
 42
1.0
 92
       12
 66
     7
 43
1.0
 76
     1
 77
     6
 78
     2
 67
     7
 79
     5
170
     0
171
     0
290
     0
174
     0
 93
        1
 44
0.0
173
     0
291
     1
 45
0.0
1001
ACAD
1000
AcDbSavedByObjectVersion
1070
     0
  0
DICTIONARYVAR
  5
32A
102
{ACAD_REACTORS
330
327
102
}
330
327
100
DictionaryVariables
280
     0
  1
2
  0
DICTIONARYVAR
  5
32B
102
{ACAD_REACTORS
330
327
102
}
330
327
100
DictionaryVariables
280
     0
  1
1
  0
DICTIONARY
  5
34E
330
3D
100
AcDbDictionary
280
     1
281
     1
  3
ACAD_XREC_ROUNDTRIP
360
34F
  0
DICTIONARY
  5
34C
330
3C
100
AcDbDictionary
280
     1
281
     1
  3
ACAD_XREC_ROUNDTRIP
360
34D
  0
DICTIONARY
  5
350
330
3E
100
AcDbDictionary
280
     1
281
     1
  3
ACAD_XREC_ROUNDTRIP
360
351
  0
DICTIONARY
  5
334
330
2F
100
AcDbDictionary
280
     1
281
     1
  3
ACAD_XREC_ROUNDTRIP
360
335
  0
DICTIONARY
  5
338
330
31
100
AcDbDictionary
280
     1
281
     1
  3
ACAD_XREC_ROUNDTRIP
360
339
  0
DICTIONARY
  5
336
330
30
100
AcDbDictionary
280
     1
281
     1
  3
ACAD_XREC_ROUNDTRIP
360
337
  0
DICTIONARY
  5
33A
330
32
100
AcDbDictionary
280
     1
281
     1
  3
ACAD_XREC_ROUNDTRIP
360
33B
  0
DICTIONARY
  5
342
330
36
100
AcDbDictionary
280
     1
281
     1
  3
ACAD_XREC_ROUNDTRIP
360
343
  0
DICTIONARY
  5
34A
330
3A
100
AcDbDictionary
280
     1
281
     1
  3
ACAD_XREC_ROUNDTRIP
360
34B
  0
DICTIONARY
  5
33E
330
34
100
AcDbDictionary
280
     1
281
     1
  3
ACAD_XREC_ROUNDTRIP
360
33F
  0
DICTIONARY
  5
340
330
35
100
AcDbDictionary
280
     1
281
     1
  3
ACAD_XREC_ROUNDTRIP
360
341
  0
DICTIONARY
  5
348
330
39
100
AcDbDictionary
280
     1
281
     1
  3
ACAD_XREC_ROUNDTRIP
360
349
  0
DICTIONARY
  5
32C
330
2B
100
AcDbDictionary
280
     1
281
     1
  3
ACAD_XREC_ROUNDTRIP
360
32D
  0
DICTIONARY
  5
32E
330
2C
100
AcDbDictionary
280
     1
281
     1
  3
ACAD_XREC_ROUNDTRIP
360
32F
  0
DICTIONARY
  5
330
330
2D
100
AcDbDictionary
280
     1
281
     1
  3
ACAD_XREC_ROUNDTRIP
360
331
  0
DICTIONARY
  5
332
330
2E
100
AcDbDictionary
280
     1
281
     1
  3
ACAD_XREC_ROUNDTRIP
360
333
  0
DICTIONARY
  5
346
330
38
100
AcDbDictionary
280
     1
281
     1
  3
ACAD_XREC_ROUNDTRIP
360
347
  0
DICTIONARY
  5
33C
330
33
100
AcDbDictionary
280
     1
281
     1
  3
ACAD_XREC_ROUNDTRIP
360
33D
  0
DICTIONARY
  5
344
330
37
100
AcDbDictionary
280
     1
281
     1
  3
ACAD_XREC_ROUNDTRIP
360
345
  0
XRECORD
  5
34F
102
{ACAD_REACTORS
330
34E
102
}
330
34E
100
AcDbXrecord
280
     1
102
MATERIAL
148
0.0
149
0.0
149
0.0
 93
        0
 94
      127
282
     0
 72
     1
 77
     1
171
     1
175
     1
179
     1
273
     0
  0
XRECORD
  5
34D
102
{ACAD_REACTORS
330
34C
102
}
330
34C
100
AcDbXrecord
280
     1
102
MATERIAL
148
0.0
149
0.0
149
0.0
 93
        0
 94
      127
282
     0
 72
     1
 77
     1
171
     1
175
     1
179
     1
273
     0
  0
XRECORD
  5
351
102
{ACAD_REACTORS
330
350
102
}
330
350
100
AcDbXrecord
280
     1
102
MATERIAL
148
0.0
149
0.0
149
0.0
 93
        0
 94
      127
282
     0
 72
     1
 77
     1
171
     1
175
     1
179
     1
273
     0
  0
XRECORD
  5
335
102
{ACAD_REACTORS
330
334
102
}
330
334
100
AcDbXrecord
280
     1
102
RTVSPropertyOp0
 70
     1
102
RTVSPropertyOp1
 70
     1
102
RTVSPropertyOp2
 70
     1
102
RTVSPropertyOp3
 70
     1
102
RTVSPropertyOp4
 70
     1
102
RTVSPropertyOp5
 70
     1
102
RTVSPropertyOp6
 70
     1
102
RTVSPropertyOp7
 70
     1
102
RTVSPropertyOp8
 70
     1
102
RTVSPropertyOp9
 70
     1
102
RTVSPropertyOp10
 70
     1
102
RTVSPropertyOp11
 70
     1
102
RTVSPropertyOp12
 70
     1
102
RTVSPropertyOp13
 70
     1
102
RTVSPropertyOp14
 70
     1
102
RTVSPropertyOp15
 70
     1
102
RTVSPropertyOp16
 70
     1
102
RTVSPropertyOp17
 70
     1
102
RTVSPropertyOp18
 70
     1
102
RTVSPropertyOp19
 70
     1
102
RTVSPropertyOp20
 70
     1
102
RTVSPropertyOp21
 70
     1
102
RTVSPropertyOp22
 70
     1
102
RTVSPropertyOp23
 70
     1
102
RTVSPropertyOp24
 70
     1
102
RTVSPropertyOp25
 70
     1
102
RTVSPropertyOp26
 70
     1
102
RTVSPropertyOp27
 70
     1
102
RTVSPropertyOp28
 70
     1
102
RTVSPropertyOp29
 70
     1
102
RTVSPropertyOp30
 70
     1
102
RTVSPropertyOp31
 70
     1
102
RTVSPropertyOp32
 70
     1
  0
XRECORD
  5
339
102
{ACAD_REACTORS
330
338
102
}
330
338
100
AcDbXrecord
280
     1
102
RTVSPropertyOp0
 70
     1
102
RTVSPropertyOp1
 70
     1
102
RTVSPropertyOp2
 70
     1
102
RTVSPropertyOp3
 70
     1
102
RTVSPropertyOp4
 70
     1
102
RTVSPropertyOp5
 70
     1
102
RTVSPropertyOp6
 70
     1
102
RTVSPropertyOp7
 70
     1
102
RTVSPropertyOp8
 70
     1
102
RTVSPropertyOp9
 70
     1
102
RTVSPropertyOp10
 70
     1
102
RTVSPropertyOp11
 70
     1
102
RTVSPropertyOp12
 70
     1
102
RTVSPropertyOp13
 70
     1
102
RTVSPropertyOp14
 70
     1
102
RTVSPropertyOp15
 70
     1
102
RTVSPropertyOp16
 70
     1
102
RTVSPropertyOp17
 70
     1
102
RTVSPropertyOp18
 70
     1
102
RTVSPropertyOp19
 70
     1
102
RTVSPropertyOp20
 70
     1
102
RTVSPropertyOp21
 70
     1
102
RTVSPropertyOp22
 70
     1
102
RTVSPropertyOp23
 70
     1
102
RTVSPropertyOp24
 70
     1
102
RTVSPropertyOp25
 70
     1
102
RTVSPropertyOp26
 70
     1
102
RTVSPropertyOp27
 70
     1
102
RTVSPropertyOp28
 70
     1
102
RTVSPropertyOp29
 70
     1
102
RTVSPropertyOp30
 70
     1
102
RTVSPropertyOp31
 70
     1
102
RTVSPropertyOp32
 70
     1
  0
XRECORD
  5
337
102
{ACAD_REACTORS
330
336
102
}
330
336
100
AcDbXrecord
280
     1
102
RTVSPropertyOp0
 70
     1
102
RTVSPropertyOp1
 70
     1
102
RTVSPropertyOp2
 70
     1
102
RTVSPropertyOp3
 70
     1
102
RTVSPropertyOp4
 70
     1
102
RTVSPropertyOp5
 70
     1
102
RTVSPropertyOp6
 70
     1
102
RTVSPropertyOp7
 70
     1
102
RTVSPropertyOp8
 70
     1
102
RTVSPropertyOp9
 70
     1
102
RTVSPropertyOp10
 70
     1
102
RTVSPropertyOp11
 70
     1
102
RTVSPropertyOp12
 70
     1
102
RTVSPropertyOp13
 70
     1
102
RTVSPropertyOp14
 70
     1
102
RTVSPropertyOp15
 70
     1
102
RTVSPropertyOp16
 70
     1
102
RTVSPropertyOp17
 70
     1
102
RTVSPropertyOp18
 70
     1
102
RTVSPropertyOp19
 70
     1
102
RTVSPropertyOp20
 70
     1
102
RTVSPropertyOp21
 70
     1
102
RTVSPropertyOp22
 70
     1
102
RTVSPropertyOp23
 70
     1
102
RTVSPropertyOp24
 70
     1
102
RTVSPropertyOp25
 70
     1
102
RTVSPropertyOp26
 70
     1
102
RTVSPropertyOp27
 70
     1
102
RTVSPropertyOp28
 70
     1
102
RTVSPropertyOp29
 70
     1
102
RTVSPropertyOp30
 70
     1
102
RTVSPropertyOp31
 70
     1
102
RTVSPropertyOp32
 70
     1
  0
XRECORD
  5
33B
102
{ACAD_REACTORS
330
33A
102
}
330
33A
100
AcDbXrecord
280
     1
102
RTVSPropertyOp0
 70
     1
102
RTVSPropertyOp1
 70
     1
102
RTVSPropertyOp2
 70
     1
102
RTVSPropertyOp3
 70
     1
102
RTVSPropertyOp4
 70
     1
102
RTVSPropertyOp5
 70
     1
102
RTVSPropertyOp6
 70
     1
102
RTVSPropertyOp7
 70
     1
102
RTVSPropertyOp8
 70
     1
102
RTVSPropertyOp9
 70
     1
102
RTVSPropertyOp10
 70
     1
102
RTVSPropertyOp11
 70
     1
102
RTVSPropertyOp12
 70
     1
102
RTVSPropertyOp13
 70
     1
102
RTVSPropertyOp14
 70
     1
102
RTVSPropertyOp15
 70
     1
102
RTVSPropertyOp16
 70
     1
102
RTVSPropertyOp17
 70
     1
102
RTVSPropertyOp18
 70
     1
102
RTVSPropertyOp19
 70
     1
102
RTVSPropertyOp20
 70
     1
102
RTVSPropertyOp21
 70
     1
102
RTVSPropertyOp22
 70
     1
102
RTVSPropertyOp23
 70
     1
102
RTVSPropertyOp24
 70
     1
102
RTVSPropertyOp25
 70
     1
102
RTVSPropertyOp26
 70
     1
102
RTVSPropertyOp27
 70
     1
102
RTVSPropertyOp28
 70
     1
102
RTVSPropertyOp29
 70
     1
102
RTVSPropertyOp30
 70
     1
102
RTVSPropertyOp31
 70
     1
102
RTVSPropertyOp32
 70
     1
  0
XRECORD
  5
343
102
{ACAD_REACTORS
330
342
102
}
330
342
100
AcDbXrecord
280
     1
102
RTVSPropertyOp0
 70
     1
102
RTVSPropertyOp1
 70
     1
102
RTVSPropertyOp2
 70
     1
102
RTVSPropertyOp3
 70
     1
102
RTVSPropertyOp4
 70
     1
102
RTVSPropertyOp5
 70
     1
102
RTVSPropertyOp6
 70
     1
102
RTVSPropertyOp7
 70
     1
102
RTVSPropertyOp8
 70
     1
102
RTVSPropertyOp9
 70
     1
102
RTVSPropertyOp10
 70
     1
102
RTVSPropertyOp11
 70
     1
102
RTVSPropertyOp12
 70
     1
102
RTVSPropertyOp13
 70
     1
102
RTVSPropertyOp14
 70
     1
102
RTVSPropertyOp15
 70
     1
102
RTVSPropertyOp16
 70
     1
102
RTVSPropertyOp17
 70
     1
102
RTVSPropertyOp18
 70
     1
102
RTVSPropertyOp19
 70
     1
102
RTVSPropertyOp20
 70
     1
102
RTVSPropertyOp21
 70
     1
102
RTVSPropertyOp22
 70
     1
102
RTVSPropertyOp23
 70
     1
102
RTVSPropertyOp24
 70
     1
102
RTVSPropertyOp25
 70
     1
102
RTVSPropertyOp26
 70
     1
102
RTVSPropertyOp27
 70
     1
102
RTVSPropertyOp28
 70
     1
102
RTVSPropertyOp29
 70
     1
102
RTVSPropertyOp30
 70
     1
102
RTVSPropertyOp31
 70
     1
102
RTVSPropertyOp32
 70
     1
  0
XRECORD
  5
34B
102
{ACAD_REACTORS
330
34A
102
}
330
34A
100
AcDbXrecord
280
     1
102
RTVSPropertyOp0
 70
     1
102
RTVSPropertyOp1
 70
     1
102
RTVSPropertyOp2
 70
     1
102
RTVSPropertyOp3
 70
     1
102
RTVSPropertyOp4
 70
     1
102
RTVSPropertyOp5
 70
     1
102
RTVSPropertyOp6
 70
     1
102
RTVSPropertyOp7
 70
     1
102
RTVSPropertyOp8
 70
     1
102
RTVSPropertyOp9
 70
     1
102
RTVSPropertyOp10
 70
     1
102
RTVSPropertyOp11
 70
     1
102
RTVSPropertyOp12
 70
     1
102
RTVSPropertyOp13
 70
     1
102
RTVSPropertyOp14
 70
     1
102
RTVSPropertyOp15
 70
     1
102
RTVSPropertyOp16
 70
     1
102
RTVSPropertyOp17
 70
     1
102
RTVSPropertyOp18
 70
     1
102
RTVSPropertyOp19
 70
     1
102
RTVSPropertyOp20
 70
     1
102
RTVSPropertyOp21
 70
     1
102
RTVSPropertyOp22
 70
     1
102
RTVSPropertyOp23
 70
     1
102
RTVSPropertyOp24
 70
     1
102
RTVSPropertyOp25
 70
     1
102
RTVSPropertyOp26
 70
     1
102
RTVSPropertyOp27
 70
     1
102
RTVSPropertyOp28
 70
     1
102
RTVSPropertyOp29
 70
     1
102
RTVSPropertyOp30
 70
     1
102
RTVSPropertyOp31
 70
     1
102
RTVSPropertyOp32
 70
     1
  0
XRECORD
  5
33F
102
{ACAD_REACTORS
330
33E
102
}
330
33E
100
AcDbXrecord
280
     1
102
RTVSPropertyOp0
 70
     1
102
RTVSPropertyOp1
 70
     1
102
RTVSPropertyOp2
 70
     1
102
RTVSPropertyOp3
 70
     1
102
RTVSPropertyOp4
 70
     1
102
RTVSPropertyOp5
 70
     1
102
RTVSPropertyOp6
 70
     1
102
RTVSPropertyOp7
 70
     1
102
RTVSPropertyOp8
 70
     1
102
RTVSPropertyOp9
 70
     1
102
RTVSPropertyOp10
 70
     1
102
RTVSPropertyOp11
 70
     1
102
RTVSPropertyOp12
 70
     1
102
RTVSPropertyOp13
 70
     1
102
RTVSPropertyOp14
 70
     1
102
RTVSPropertyOp15
 70
     1
102
RTVSPropertyOp16
 70
     1
102
RTVSPropertyOp17
 70
     1
102
RTVSPropertyOp18
 70
     1
102
RTVSPropertyOp19
 70
     1
102
RTVSPropertyOp20
 70
     1
102
RTVSPropertyOp21
 70
     1
102
RTVSPropertyOp22
 70
     1
102
RTVSPropertyOp23
 70
     1
102
RTVSPropertyOp24
 70
     1
102
RTVSPropertyOp25
 70
     1
102
RTVSPropertyOp26
 70
     1
102
RTVSPropertyOp27
 70
     1
102
RTVSPropertyOp28
 70
     1
102
RTVSPropertyOp29
 70
     1
102
RTVSPropertyOp30
 70
     1
102
RTVSPropertyOp31
 70
     1
102
RTVSPropertyOp32
 70
     1
  0
XRECORD
  5
341
102
{ACAD_REACTORS
330
340
102
}
330
340
100
AcDbXrecord
280
     1
102
RTVSPropertyOp0
 70
     1
102
RTVSPropertyOp1
 70
     1
102
RTVSPropertyOp2
 70
     1
102
RTVSPropertyOp3
 70
     1
102
RTVSPropertyOp4
 70
     1
102
RTVSPropertyOp5
 70
     1
102
RTVSPropertyOp6
 70
     1
102
RTVSPropertyOp7
 70
     1
102
RTVSPropertyOp8
 70
     1
102
RTVSPropertyOp9
 70
     1
102
RTVSPropertyOp10
 70
     1
102
RTVSPropertyOp11
 70
     1
102
RTVSPropertyOp12
 70
     1
102
RTVSPropertyOp13
 70
     1
102
RTVSPropertyOp14
 70
     1
102
RTVSPropertyOp15
 70
     1
102
RTVSPropertyOp16
 70
     1
102
RTVSPropertyOp17
 70
     1
102
RTVSPropertyOp18
 70
     1
102
RTVSPropertyOp19
 70
     1
102
RTVSPropertyOp20
 70
     1
102
RTVSPropertyOp21
 70
     1
102
RTVSPropertyOp22
 70
     1
102
RTVSPropertyOp23
 70
     1
102
RTVSPropertyOp24
 70
     1
102
RTVSPropertyOp25
 70
     1
102
RTVSPropertyOp26
 70
     1
102
RTVSPropertyOp27
 70
     1
102
RTVSPropertyOp28
 70
     1
102
RTVSPropertyOp29
 70
     1
102
RTVSPropertyOp30
 70
     1
102
RTVSPropertyOp31
 70
     1
102
RTVSPropertyOp32
 70
     1
  0
XRECORD
  5
349
102
{ACAD_REACTORS
330
348
102
}
330
348
100
AcDbXrecord
280
     1
102
RTVSPropertyOp0
 70
     1
102
RTVSPropertyOp1
 70
     1
102
RTVSPropertyOp2
 70
     1
102
RTVSPropertyOp3
 70
     1
102
RTVSPropertyOp4
 70
     1
102
RTVSPropertyOp5
 70
     1
102
RTVSPropertyOp6
 70
     1
102
RTVSPropertyOp7
 70
     1
102
RTVSPropertyOp8
 70
     1
102
RTVSPropertyOp9
 70
     1
102
RTVSPropertyOp10
 70
     1
102
RTVSPropertyOp11
 70
     1
102
RTVSPropertyOp12
 70
     1
102
RTVSPropertyOp13
 70
     1
102
RTVSPropertyOp14
 70
     1
102
RTVSPropertyOp15
 70
     1
102
RTVSPropertyOp16
 70
     1
102
RTVSPropertyOp17
 70
     1
102
RTVSPropertyOp18
 70
     1
102
RTVSPropertyOp19
 70
     1
102
RTVSPropertyOp20
 70
     1
102
RTVSPropertyOp21
 70
     1
102
RTVSPropertyOp22
 70
     1
102
RTVSPropertyOp23
 70
     1
102
RTVSPropertyOp24
 70
     1
102
RTVSPropertyOp25
 70
     1
102
RTVSPropertyOp26
 70
     1
102
RTVSPropertyOp27
 70
     1
102
RTVSPropertyOp28
 70
     1
102
RTVSPropertyOp29
 70
     1
102
RTVSPropertyOp30
 70
     1
102
RTVSPropertyOp31
 70
     1
102
RTVSPropertyOp32
 70
     1
  0
XRECORD
  5
32D
102
{ACAD_REACTORS
330
32C
102
}
330
32C
100
AcDbXrecord
280
     1
102
RTVSPropertyOp0
 70
     1
102
RTVSPropertyOp1
 70
     1
102
RTVSPropertyOp2
 70
     1
102
RTVSPropertyOp3
 70
     1
102
RTVSPropertyOp4
 70
     1
102
RTVSPropertyOp5
 70
     1
102
RTVSPropertyOp6
 70
     1
102
RTVSPropertyOp7
 70
     1
102
RTVSPropertyOp8
 70
     1
102
RTVSPropertyOp9
 70
     1
102
RTVSPropertyOp10
 70
     1
102
RTVSPropertyOp11
 70
     1
102
RTVSPropertyOp12
 70
     1
102
RTVSPropertyOp13
 70
     1
102
RTVSPropertyOp14
 70
     1
102
RTVSPropertyOp15
 70
     1
102
RTVSPropertyOp16
 70
     1
102
RTVSPropertyOp17
 70
     1
102
RTVSPropertyOp18
 70
     1
102
RTVSPropertyOp19
 70
     1
102
RTVSPropertyOp20
 70
     1
102
RTVSPropertyOp21
 70
     1
102
RTVSPropertyOp22
 70
     1
102
RTVSPropertyOp23
 70
     1
102
RTVSPropertyOp24
 70
     1
102
RTVSPropertyOp25
 70
     1
102
RTVSPropertyOp26
 70
     1
102
RTVSPropertyOp27
 70
     1
102
RTVSPropertyOp28
 70
     1
102
RTVSPropertyOp29
 70
     1
102
RTVSPropertyOp30
 70
     1
102
RTVSPropertyOp31
 70
     1
102
RTVSPropertyOp32
 70
     1
  0
XRECORD
  5
32F
102
{ACAD_REACTORS
330
32E
102
}
330
32E
100
AcDbXrecord
280
     1
102
RTVSPropertyOp0
 70
     1
102
RTVSPropertyOp1
 70
     1
102
RTVSPropertyOp2
 70
     1
102
RTVSPropertyOp3
 70
     1
102
RTVSPropertyOp4
 70
     1
102
RTVSPropertyOp5
 70
     1
102
RTVSPropertyOp6
 70
     1
102
RTVSPropertyOp7
 70
     1
102
RTVSPropertyOp8
 70
     1
102
RTVSPropertyOp9
 70
     1
102
RTVSPropertyOp10
 70
     1
102
RTVSPropertyOp11
 70
     1
102
RTVSPropertyOp12
 70
     1
102
RTVSPropertyOp13
 70
     1
102
RTVSPropertyOp14
 70
     1
102
RTVSPropertyOp15
 70
     1
102
RTVSPropertyOp16
 70
     1
102
RTVSPropertyOp17
 70
     1
102
RTVSPropertyOp18
 70
     1
102
RTVSPropertyOp19
 70
     1
102
RTVSPropertyOp20
 70
     1
102
RTVSPropertyOp21
 70
     1
102
RTVSPropertyOp22
 70
     1
102
RTVSPropertyOp23
 70
     1
102
RTVSPropertyOp24
 70
     1
102
RTVSPropertyOp25
 70
     1
102
RTVSPropertyOp26
 70
     1
102
RTVSPropertyOp27
 70
     1
102
RTVSPropertyOp28
 70
     1
102
RTVSPropertyOp29
 70
     1
102
RTVSPropertyOp30
 70
     1
102
RTVSPropertyOp31
 70
     1
102
RTVSPropertyOp32
 70
     1
  0
XRECORD
  5
331
102
{ACAD_REACTORS
330
330
102
}
330
330
100
AcDbXrecord
280
     1
102
RTVSPropertyOp0
 70
     1
102
RTVSPropertyOp1
 70
     1
102
RTVSPropertyOp2
 70
     1
102
RTVSPropertyOp3
 70
     1
102
RTVSPropertyOp4
 70
     1
102
RTVSPropertyOp5
 70
     1
102
RTVSPropertyOp6
 70
     1
102
RTVSPropertyOp7
 70
     1
102
RTVSPropertyOp8
 70
     1
102
RTVSPropertyOp9
 70
     1
102
RTVSPropertyOp10
 70
     1
102
RTVSPropertyOp11
 70
     1
102
RTVSPropertyOp12
 70
     1
102
RTVSPropertyOp13
 70
     1
102
RTVSPropertyOp14
 70
     1
102
RTVSPropertyOp15
 70
     1
102
RTVSPropertyOp16
 70
     1
102
RTVSPropertyOp17
 70
     1
102
RTVSPropertyOp18
 70
     1
102
RTVSPropertyOp19
 70
     1
102
RTVSPropertyOp20
 70
     1
102
RTVSPropertyOp21
 70
     1
102
RTVSPropertyOp22
 70
     1
102
RTVSPropertyOp23
 70
     1
102
RTVSPropertyOp24
 70
     1
102
RTVSPropertyOp25
 70
     1
102
RTVSPropertyOp26
 70
     1
102
RTVSPropertyOp27
 70
     1
102
RTVSPropertyOp28
 70
     1
102
RTVSPropertyOp29
 70
     1
102
RTVSPropertyOp30
 70
     1
102
RTVSPropertyOp31
 70
     1
102
RTVSPropertyOp32
 70
     1
  0
XRECORD
  5
333
102
{ACAD_REACTORS
330
332
102
}
330
332
100
AcDbXrecord
280
     1
102
RTVSPropertyOp0
 70
     1
102
RTVSPropertyOp1
 70
     1
102
RTVSPropertyOp2
 70
     1
102
RTVSPropertyOp3
 70
     1
102
RTVSPropertyOp4
 70
     1
102
RTVSPropertyOp5
 70
     1
102
RTVSPropertyOp6
 70
     1
102
RTVSPropertyOp7
 70
     1
102
RTVSPropertyOp8
 70
     1
102
RTVSPropertyOp9
 70
     1
102
RTVSPropertyOp10
 70
     1
102
RTVSPropertyOp11
 70
     1
102
RTVSPropertyOp12
 70
     1
102
RTVSPropertyOp13
 70
     1
102
RTVSPropertyOp14
 70
     1
102
RTVSPropertyOp15
 70
     1
102
RTVSPropertyOp16
 70
     1
102
RTVSPropertyOp17
 70
     1
102
RTVSPropertyOp18
 70
     1
102
RTVSPropertyOp19
 70
     1
102
RTVSPropertyOp20
 70
     1
102
RTVSPropertyOp21
 70
     1
102
RTVSPropertyOp22
 70
     1
102
RTVSPropertyOp23
 70
     1
102
RTVSPropertyOp24
 70
     1
102
RTVSPropertyOp25
 70
     1
102
RTVSPropertyOp26
 70
     1
102
RTVSPropertyOp27
 70
     1
102
RTVSPropertyOp28
 70
     1
102
RTVSPropertyOp29
 70
     1
102
RTVSPropertyOp30
 70
     1
102
RTVSPropertyOp31
 70
     1
102
RTVSPropertyOp32
 70
     1
  0
XRECORD
  5
347
102
{ACAD_REACTORS
330
346
102
}
330
346
100
AcDbXrecord
280
     1
102
RTVSPropertyOp0
 70
     1
102
RTVSPropertyOp1
 70
     1
102
RTVSPropertyOp2
 70
     1
102
RTVSPropertyOp3
 70
     1
102
RTVSPropertyOp4
 70
     1
102
RTVSPropertyOp5
 70
     1
102
RTVSPropertyOp6
 70
     1
102
RTVSPropertyOp7
 70
     1
102
RTVSPropertyOp8
 70
     1
102
RTVSPropertyOp9
 70
     1
102
RTVSPropertyOp10
 70
     1
102
RTVSPropertyOp11
 70
     1
102
RTVSPropertyOp12
 70
     1
102
RTVSPropertyOp13
 70
     1
102
RTVSPropertyOp14
 70
     1
102
RTVSPropertyOp15
 70
     1
102
RTVSPropertyOp16
 70
     1
102
RTVSPropertyOp17
 70
     1
102
RTVSPropertyOp18
 70
     1
102
RTVSPropertyOp19
 70
     1
102
RTVSPropertyOp20
 70
     1
102
RTVSPropertyOp21
 70
     1
102
RTVSPropertyOp22
 70
     1
102
RTVSPropertyOp23
 70
     1
102
RTVSPropertyOp24
 70
     1
102
RTVSPropertyOp25
 70
     1
102
RTVSPropertyOp26
 70
     1
102
RTVSPropertyOp27
 70
     1
102
RTVSPropertyOp28
 70
     1
102
RTVSPropertyOp29
 70
     1
102
RTVSPropertyOp30
 70
     1
102
RTVSPropertyOp31
 70
     1
102
RTVSPropertyOp32
 70
     1
  0
XRECORD
  5
33D
102
{ACAD_REACTORS
330
33C
102
}
330
33C
100
AcDbXrecord
280
     1
102
RTVSPropertyOp0
 70
     1
102
RTVSPropertyOp1
 70
     1
102
RTVSPropertyOp2
 70
     1
102
RTVSPropertyOp3
 70
     1
102
RTVSPropertyOp4
 70
     1
102
RTVSPropertyOp5
 70
     1
102
RTVSPropertyOp6
 70
     1
102
RTVSPropertyOp7
 70
     1
102
RTVSPropertyOp8
 70
     1
102
RTVSPropertyOp9
 70
     1
102
RTVSPropertyOp10
 70
     1
102
RTVSPropertyOp11
 70
     1
102
RTVSPropertyOp12
 70
     1
102
RTVSPropertyOp13
 70
     1
102
RTVSPropertyOp14
 70
     1
102
RTVSPropertyOp15
 70
     1
102
RTVSPropertyOp16
 70
     1
102
RTVSPropertyOp17
 70
     1
102
RTVSPropertyOp18
 70
     1
102
RTVSPropertyOp19
 70
     1
102
RTVSPropertyOp20
 70
     1
102
RTVSPropertyOp21
 70
     1
102
RTVSPropertyOp22
 70
     1
102
RTVSPropertyOp23
 70
     1
102
RTVSPropertyOp24
 70
     1
102
RTVSPropertyOp25
 70
     1
102
RTVSPropertyOp26
 70
     1
102
RTVSPropertyOp27
 70
     1
102
RTVSPropertyOp28
 70
     1
102
RTVSPropertyOp29
 70
     1
102
RTVSPropertyOp30
 70
     1
102
RTVSPropertyOp31
 70
     1
102
RTVSPropertyOp32
 70
     1
  0
XRECORD
  5
345
102
{ACAD_REACTORS
330
344
102
}
330
344
100
AcDbXrecord
280
     1
102
RTVSPropertyOp0
 70
     1
102
RTVSPropertyOp1
 70
     1
102
RTVSPropertyOp2
 70
     1
102
RTVSPropertyOp3
 70
     1
102
RTVSPropertyOp4
 70
     1
102
RTVSPropertyOp5
 70
     1
102
RTVSPropertyOp6
 70
     1
102
RTVSPropertyOp7
 70
     1
102
RTVSPropertyOp8
 70
     1
102
RTVSPropertyOp9
 70
     1
102
RTVSPropertyOp10
 70
     1
102
RTVSPropertyOp11
 70
     1
102
RTVSPropertyOp12
 70
     1
102
RTVSPropertyOp13
 70
     1
102
RTVSPropertyOp14
 70
     1
102
RTVSPropertyOp15
 70
     1
102
RTVSPropertyOp16
 70
     1
102
RTVSPropertyOp17
 70
     1
102
RTVSPropertyOp18
 70
     1
102
RTVSPropertyOp19
 70
     1
102
RTVSPropertyOp20
 70
     1
102
RTVSPropertyOp21
 70
     1
102
RTVSPropertyOp22
 70
     1
102
RTVSPropertyOp23
 70
     1
102
RTVSPropertyOp24
 70
     1
102
RTVSPropertyOp25
 70
     1
102
RTVSPropertyOp26
 70
     1
102
RTVSPropertyOp27
 70
     1
102
RTVSPropertyOp28
 70
     1
102
RTVSPropertyOp29
 70
     1
102
RTVSPropertyOp30
 70
     1
102
RTVSPropertyOp31
 70
     1
102
RTVSPropertyOp32
 70
     1
  0
ENDSEC
  0
EOF
